  0
SECTION
  2
HEADER
  9
$ACADVER
  1
AC1014
  9
$ACADMAINTVER
 70
     9
  9
$DWGCODEPAGE
  3
ANSI_932
  9
$INSBASE
 10
0.0
 20
0.0
 30
0.0
  9
$EXTMIN
 10
-1098.500294034999
 20
1501.655673159589
 30
-0.00000001
  9
$EXTMAX
 10
-916.1807878792174
 20
1689.722229487426
 30
0.00000001
  9
$LIMMIN
 10
0.0
 20
0.0
  9
$LIMMAX
 10
420.0
 20
297.0
  9
$ORTHOMODE
 70
     1
  9
$REGENMODE
 70
     1
  9
$FILLMODE
 70
     1
  9
$QTEXTMODE
 70
     0
  9
$MIRRTEXT
 70
     1
  9
$DRAGMODE
 70
     2
  9
$LTSCALE
 40
1.0
  9
$OSMODE
 70
    37
  9
$ATTMODE
 70
     1
  9
$TEXTSIZE
 40
2.5
  9
$TRACEWID
 40
1.0
  9
$TEXTSTYLE
  7
ゴシック体
  9
$CLAYER
  8
ZISSEN1
  9
$CELTYPE
  6
BYLAYER
  9
$CECOLOR
 62
   256
  9
$CELTSCALE
 40
1.0
  9
$DELOBJ
 70
     1
  9
$DISPSILH
 70
     0
  9
$DIMSCALE
 40
0.0
  9
$DIMASZ
 40
3.0
  9
$DIMEXO
 40
0.5
  9
$DIMDLI
 40
0.5
  9
$DIMRND
 40
0.0
  9
$DIMDLE
 40
0.0
  9
$DIMEXE
 40
0.5
  9
$DIMTP
 40
0.0
  9
$DIMTM
 40
0.0
  9
$DIMTXT
 40
3.5
  9
$DIMCEN
 40
0.0
  9
$DIMTSZ
 40
0.0
  9
$DIMTOL
 70
     0
  9
$DIMLIM
 70
     0
  9
$DIMTIH
 70
     0
  9
$DIMTOH
 70
     0
  9
$DIMSE1
 70
     0
  9
$DIMSE2
 70
     0
  9
$DIMTAD
 70
     1
  9
$DIMZIN
 70
     8
  9
$DIMBLK
  1

  9
$DIMASO
 70
     1
  9
$DIMSHO
 70
     1
  9
$DIMPOST
  1

  9
$DIMAPOST
  1

  9
$DIMALT
 70
     0
  9
$DIMALTD
 70
     2
  9
$DIMALTF
 40
25.4
  9
$DIMLFAC
 40
1.0
  9
$DIMTOFL
 70
     1
  9
$DIMTVP
 40
0.0
  9
$DIMTIX
 70
     0
  9
$DIMSOXD
 70
     0
  9
$DIMSAH
 70
     0
  9
$DIMBLK1
  1

  9
$DIMBLK2
  1

  9
$DIMSTYLE
  2
標準スタイル
  9
$DIMCLRD
 70
     1
  9
$DIMCLRE
 70
     1
  9
$DIMCLRT
 70
     1
  9
$DIMTFAC
 40
1.0
  9
$DIMGAP
 40
1.0
  9
$DIMJUST
 70
     0
  9
$DIMSD1
 70
     0
  9
$DIMSD2
 70
     0
  9
$DIMTOLJ
 70
     1
  9
$DIMTZIN
 70
     8
  9
$DIMALTZ
 70
     0
  9
$DIMALTTZ
 70
     0
  9
$DIMFIT
 70
     3
  9
$DIMUPT
 70
     0
  9
$DIMUNIT
 70
     2
  9
$DIMDEC
 70
     2
  9
$DIMTDEC
 70
     2
  9
$DIMALTU
 70
     2
  9
$DIMALTTD
 70
     2
  9
$DIMTXSTY
  7
ゴシック体
  9
$DIMAUNIT
 70
     0
  9
$LUNITS
 70
     2
  9
$LUPREC
 70
     4
  9
$SKETCHINC
 40
1.0
  9
$FILLETRAD
 40
0.0
  9
$AUNITS
 70
     0
  9
$AUPREC
 70
     0
  9
$MENU
  1
.
  9
$ELEVATION
 40
0.0
  9
$PELEVATION
 40
0.0
  9
$THICKNESS
 40
0.0
  9
$LIMCHECK
 70
     0
  9
$BLIPMODE
 70
     0
  9
$CHAMFERA
 40
10.0
  9
$CHAMFERB
 40
10.0
  9
$CHAMFERC
 40
2.0
  9
$CHAMFERD
 40
0.7853981633974483
  9
$SKPOLY
 70
     0
  9
$TDCREATE
 40
2450495.493631365
  9
$TDUPDATE
 40
2456315.776055405
  9
$TDINDWG
 40
1.6846836690
  9
$TDUSRTIMER
 40
1.6846836690
  9
$USRTIMER
 70
     1
  9
$ANGBASE
 50
0.0
  9
$ANGDIR
 70
     0
  9
$PDMODE
 70
    99
  9
$PDSIZE
 40
0.0
  9
$PLINEWID
 40
0.0
  9
$COORDS
 70
     1
  9
$SPLFRAME
 70
     0
  9
$SPLINETYPE
 70
     6
  9
$SPLINESEGS
 70
     8
  9
$ATTDIA
 70
     0
  9
$ATTREQ
 70
     1
  9
$HANDLING
 70
 10241
  9
$HANDSEED
  5
14779
  9
$SURFTAB1
 70
     6
  9
$SURFTAB2
 70
     6
  9
$SURFTYPE
 70
     6
  9
$SURFU
 70
     6
  9
$SURFV
 70
     6
  9
$UCSNAME
  2

  9
$UCSORG
 10
0.0
 20
0.0
 30
0.0
  9
$UCSXDIR
 10
1.0
 20
0.0
 30
0.0
  9
$UCSYDIR
 10
0.0
 20
1.0
 30
0.0
  9
$PUCSNAME
  2

  9
$PUCSORG
 10
0.0
 20
0.0
 30
0.0
  9
$PUCSXDIR
 10
1.0
 20
0.0
 30
0.0
  9
$PUCSYDIR
 10
0.0
 20
1.0
 30
0.0
  9
$USERI1
 70
     0
  9
$USERI2
 70
     0
  9
$USERI3
 70
     0
  9
$USERI4
 70
     0
  9
$USERI5
 70
     0
  9
$USERR1
 40
0.0
  9
$USERR2
 40
0.0
  9
$USERR3
 40
0.0
  9
$USERR4
 40
0.0
  9
$USERR5
 40
0.0
  9
$WORLDVIEW
 70
     1
  9
$SHADEDGE
 70
     3
  9
$SHADEDIF
 70
    70
  9
$TILEMODE
 70
     0
  9
$MAXACTVP
 70
    16
  9
$PINSBASE
 10
0.0
 20
0.0
 30
0.0
  9
$PLIMCHECK
 70
     0
  9
$PEXTMIN
 10
29.01237915885758
 20
27.67558272958513
 30
-0.0015258207003583
  9
$PEXTMAX
 10
414.5423247139811
 20
287.7003947008357
 30
0.0000000349246037
  9
$PLIMMIN
 10
11.82004301553063
 20
9.193992763477359
  9
$PLIMMAX
 10
431.7666982889681
 20
306.204643398243
  9
$UNITMODE
 70
     0
  9
$VISRETAIN
 70
     0
  9
$PLINEGEN
 70
     0
  9
$PSLTSCALE
 70
     1
  9
$TREEDEPTH
 70
  3020
  9
$PICKSTYLE
 70
     1
  9
$CMLSTYLE
  2
STANDARD
  9
$CMLJUST
 70
     0
  9
$CMLSCALE
 40
1.0
  9
$PROXYGRAPHICS
 70
     1
  9
$MEASUREMENT
 70
     1
  0
ENDSEC
  0
SECTION
  2
CLASSES
  0
CLASS
  1
LWPOLYLINE
  2
AcDbPolyline
  3
AutoCAD 2000
 90
        0
280
     0
281
     1
  0
CLASS
  1
HATCH
  2
AcDbHatch
  3
AutoCAD 2000
 90
        0
280
     0
281
     1
  0
CLASS
  1
ACDBDICTIONARYWDFLT
  2
AcDbDictionaryWithDefault
  3
AutoCAD 2000
 90
        0
280
     0
281
     0
  0
CLASS
  1
ACDBPLACEHOLDER
  2
AcDbPlaceHolder
  3
AutoCAD 2000
 90
        0
280
     0
281
     0
  0
CLASS
  1
LAYOUT
  2
AcDbLayout
  3
AutoCAD 2000
 90
        0
280
     0
281
     0
  0
CLASS
  1
DICTIONARYVAR
  2
AcDbDictionaryVar
  3
AutoCAD 2000
 90
        0
280
     0
281
     0
  0
CLASS
  1
LONG_TRANSACTION
  2
AcDbLongTransaction
  3
AutoCAD 2000
 90
        0
280
     0
281
     0
  0
CLASS
  1
LWPOLYLINE
  2
AcDbPolyline
  3
AutoCAD 2000
 90
        0
280
     0
281
     1
  0
CLASS
  1
HATCH
  2
AcDbHatch
  3
AutoCAD 2000
 90
        0
280
     0
281
     1
  0
CLASS
  1
XRECORD
  2
AcDbXrecord
  3
AutoCAD 2000
 90
        0
280
     0
281
     0
  0
ENDSEC
  0
SECTION
  2
TABLES
  0
TABLE
  2
VPORT
  5
8
330
0
100
AcDbSymbolTable
 70
     4
  0
VPORT
  5
14728
330
8
100
AcDbSymbolTableRecord
100
AcDbViewportTableRecord
  2
*ACTIVE
 70
     0
 10
0.0
 20
0.0
 11
1.0
 21
1.0
 12
-1007.312884246328
 22
1595.665430505841
 13
0.0
 23
0.0
 14
5.0
 24
5.0
 15
0.0
 25
0.0
 16
0.0
 26
0.0
 36
1.0
 17
0.0
 27
0.0
 37
0.0
 40
190.3355008243361
 41
1.781954887218045
 42
50.0
 43
0.0
 44
0.0
 50
0.0
 51
0.0
 71
     0
 72
   100
 73
     1
 74
     0
 75
     0
 76
     0
 77
     0
 78
     0
  0
ENDTAB
  0
TABLE
  2
LTYPE
  5
5
330
0
100
AcDbSymbolTable
 70
     4
  0
LTYPE
  5
14
330
5
100
AcDbSymbolTableRecord
100
AcDbLinetypeTableRecord
  2
BYBLOCK
 70
     0
  3

 72
    65
 73
     0
 40
0.0
  0
LTYPE
  5
15
330
5
100
AcDbSymbolTableRecord
100
AcDbLinetypeTableRecord
  2
BYLAYER
 70
     0
  3

 72
    65
 73
     0
 40
0.0
  0
LTYPE
  5
16
330
5
100
AcDbSymbolTableRecord
100
AcDbLinetypeTableRecord
  2
CONTINUOUS
 70
     0
  3
Solid line
 72
    65
 73
     0
 40
0.0
  0
LTYPE
  5
1956
330
5
100
AcDbSymbolTableRecord
100
AcDbLinetypeTableRecord
  2
CENTERX2
 70
     0
  3
________  __  ________  __  ________  __  _____
 72
    65
 73
     4
 40
4.0
 49
2.5
 74
     0
 49
-0.5
 74
     0
 49
0.5
 74
     0
 49
-0.5
 74
     0
  0
LTYPE
  5
1958
330
5
100
AcDbSymbolTableRecord
100
AcDbLinetypeTableRecord
  2
PHANTOMX2
 70
     0
  3
____________    ____    ____    ____________   
 72
    65
 73
     6
 40
5.0
 49
2.5
 74
     0
 49
-0.5
 74
     0
 49
0.5
 74
     0
 49
-0.5
 74
     0
 49
0.5
 74
     0
 49
-0.5
 74
     0
  0
LTYPE
  5
14154
330
5
100
AcDbSymbolTableRecord
100
AcDbLinetypeTableRecord
  2
DASHEDX2
 70
     0
  3
____  ____  ____  ____  ____  ____  ____  ____ 
 72
    65
 73
     2
 40
1.5
 49
1.0
 74
     0
 49
-0.5
 74
     0
  0
ENDTAB
  0
TABLE
  2
LAYER
  5
2
102
{ACAD_XDICTIONARY
360
1409D
102
}
330
0
100
AcDbSymbolTable
 70
     8
  0
LAYER
  5
F
330
2
100
AcDbSymbolTableRecord
100
AcDbLayerTableRecord
  2
0
 70
     0
 62
     7
  6
CONTINUOUS
  0
LAYER
  5
18F
330
2
100
AcDbSymbolTableRecord
100
AcDbLayerTableRecord
  2
ZISSEN1
 70
     0
 62
     7
  6
CONTINUOUS
  0
LAYER
  5
529
330
2
100
AcDbSymbolTableRecord
100
AcDbLayerTableRecord
  2
SUNPOU
 70
     0
 62
     1
  6
CONTINUOUS
  0
LAYER
  5
195A
330
2
100
AcDbSymbolTableRecord
100
AcDbLayerTableRecord
  2
CL1
 70
     0
 62
   210
  6
CENTERX2
  0
LAYER
  5
195C
330
2
100
AcDbSymbolTableRecord
100
AcDbLayerTableRecord
  2
SOUZOUSEN
 70
     0
 62
     5
  6
PHANTOMX2
  0
LAYER
  5
3A9B
330
2
100
AcDbSymbolTableRecord
100
AcDbLayerTableRecord
  2
DEFPOINTS
 70
     0
 62
     7
  6
CONTINUOUS
  0
LAYER
  5
14155
330
2
100
AcDbSymbolTableRecord
100
AcDbLayerTableRecord
  2
KAKURESEN1
 70
     0
 62
     3
  6
DASHEDX2
  0
ENDTAB
  0
TABLE
  2
STYLE
  5
3
330
0
100
AcDbSymbolTable
 70
     2
  0
STYLE
  5
10
330
3
100
AcDbSymbolTableRecord
100
AcDbTextStyleTableRecord
  2
STANDARD
 70
     0
 40
0.0
 41
1.0
 50
0.0
 71
     0
 42
3.0
  3
txt
  4
BigFont
  0
STYLE
  5
1960
330
3
100
AcDbSymbolTableRecord
100
AcDbTextStyleTableRecord
  2
ゴシック体
 70
     0
 40
0.0
 41
1.0
 50
0.0
 71
     0
 42
2.5
  3
MS Gothic.ttf
  4

1001
ACAD
1000
MS Gothic
1071
    32817
  0
ENDTAB
  0
TABLE
  2
VIEW
  5
6
330
0
100
AcDbSymbolTable
 70
     0
  0
ENDTAB
  0
TABLE
  2
UCS
  5
7
330
0
100
AcDbSymbolTable
 70
     0
  0
ENDTAB
  0
TABLE
  2
APPID
  5
9
330
0
100
AcDbSymbolTable
 70
     5
  0
APPID
  5
11
330
9
100
AcDbSymbolTableRecord
100
AcDbRegAppTableRecord
  2
ACAD
 70
     0
  0
APPID
  5
4005
330
9
100
AcDbSymbolTableRecord
100
AcDbRegAppTableRecord
  2
CONTENTTABDATA
 70
     0
  0
APPID
  5
4006
330
9
100
AcDbSymbolTableRecord
100
AcDbRegAppTableRecord
  2
CONTENTCURRENTTAB
 70
     0
  0
APPID
  5
477B
330
9
100
AcDbSymbolTableRecord
100
AcDbRegAppTableRecord
  2
CONTENTBLOCKDESCRIPTION
 70
     0
  0
APPID
  5
477C
330
9
100
AcDbSymbolTableRecord
100
AcDbRegAppTableRecord
  2
CONTENTBLOCKICON
 70
     0
  0
ENDTAB
  0
TABLE
  2
DIMSTYLE
  5
A
330
0
100
AcDbSymbolTable
 70
     2
  0
DIMSTYLE
105
1D
330
A
100
AcDbSymbolTableRecord
100
AcDbDimStyleTableRecord
  2
STANDARD
 70
     0
  3

  4

  5

  6

  7

 40
1.0
 41
0.18
 42
0.0625
 43
0.38
 44
0.18
 45
0.0
 46
0.0
 47
0.0
 48
0.0
140
0.18
141
0.09
142
0.0
143
25.4
144
1.0
145
0.0
146
1.0
147
0.09
 71
     0
 72
     0
 73
     1
 74
     1
 75
     0
 76
     0
 77
     0
 78
     0
170
     0
171
     2
172
     0
173
     0
174
     0
175
     0
176
     0
177
     0
178
     0
270
     2
271
     4
272
     4
273
     2
274
     2
340
10
275
     0
280
     0
281
     0
282
     0
283
     1
284
     0
285
     0
286
     0
287
     3
288
     0
  0
DIMSTYLE
105
52E
102
{ACAD_REACTORS
330
1437C
330
1437D
330
1437E
330
1438F
330
1439C
330
1439E
330
14402
330
14403
330
14417
330
14418
330
14425
330
14426
330
14427
330
1453D
102
}
330
A
100
AcDbSymbolTableRecord
100
AcDbDimStyleTableRecord
  2
標準スタイル
 70
     0
  3

  4

  5

  6

  7

 40
0.0
 41
3.0
 42
0.5
 43
0.5
 44
0.5
 45
0.0
 46
0.0
 47
0.0
 48
0.0
140
3.5
141
0.0
142
0.0
143
25.4
144
1.0
145
0.0
146
1.0
147
1.0
 71
     0
 72
     0
 73
     0
 74
     0
 75
     0
 76
     0
 77
     1
 78
     8
170
     0
171
     2
172
     1
173
     0
174
     0
175
     0
176
     1
177
     1
178
     1
270
     2
271
     2
272
     2
273
     2
274
     2
340
1960
275
     0
280
     0
281
     0
282
     0
283
     1
284
     8
285
     0
286
     0
287
     3
288
     0
  0
ENDTAB
  0
TABLE
  2
BLOCK_RECORD
  5
1
330
0
100
AcDbSymbolTable
 70
    43
  0
BLOCK_RECORD
  5
1A
102
{ACAD_XDICTIONARY
360
14749
102
}
330
1
100
AcDbSymbolTableRecord
100
AcDbBlockTableRecord
  2
*MODEL_SPACE
  0
BLOCK_RECORD
  5
5D8E
102
{ACAD_XDICTIONARY
360
1474B
102
}
330
1
100
AcDbSymbolTableRecord
100
AcDbBlockTableRecord
  2
*PAPER_SPACE
  0
BLOCK_RECORD
  5
14596
330
1
100
AcDbSymbolTableRecord
100
AcDbBlockTableRecord
  2
*D29
  0
BLOCK_RECORD
  5
145A2
330
1
100
AcDbSymbolTableRecord
100
AcDbBlockTableRecord
  2
*D30
  0
BLOCK_RECORD
  5
145AE
330
1
100
AcDbSymbolTableRecord
100
AcDbBlockTableRecord
  2
*D31
  0
BLOCK_RECORD
  5
145BA
330
1
100
AcDbSymbolTableRecord
100
AcDbBlockTableRecord
  2
*D32
  0
BLOCK_RECORD
  5
145C6
330
1
100
AcDbSymbolTableRecord
100
AcDbBlockTableRecord
  2
*D33
  0
BLOCK_RECORD
  5
145D2
330
1
100
AcDbSymbolTableRecord
100
AcDbBlockTableRecord
  2
*D34
  0
BLOCK_RECORD
  5
145E0
330
1
100
AcDbSymbolTableRecord
100
AcDbBlockTableRecord
  2
*D35
  0
BLOCK_RECORD
  5
145EE
330
1
100
AcDbSymbolTableRecord
100
AcDbBlockTableRecord
  2
*D36
  0
BLOCK_RECORD
  5
145FA
330
1
100
AcDbSymbolTableRecord
100
AcDbBlockTableRecord
  2
*D37
  0
BLOCK_RECORD
  5
14606
330
1
100
AcDbSymbolTableRecord
100
AcDbBlockTableRecord
  2
*D38
  0
BLOCK_RECORD
  5
14612
330
1
100
AcDbSymbolTableRecord
100
AcDbBlockTableRecord
  2
*D39
  0
BLOCK_RECORD
  5
14620
330
1
100
AcDbSymbolTableRecord
100
AcDbBlockTableRecord
  2
*D40
  0
BLOCK_RECORD
  5
1462E
330
1
100
AcDbSymbolTableRecord
100
AcDbBlockTableRecord
  2
*D41
  0
BLOCK_RECORD
  5
1463A
330
1
100
AcDbSymbolTableRecord
100
AcDbBlockTableRecord
  2
*D42
  0
ENDTAB
  0
ENDSEC
  0
SECTION
  2
BLOCKS
  0
BLOCK
  5
1B
330
1A
100
AcDbEntity
  8
0
100
AcDbBlockBegin
  2
*MODEL_SPACE
 70
     0
 10
0.0
 20
0.0
 30
0.0
  3
*MODEL_SPACE
  1

  0
ENDBLK
  5
1C
330
1A
100
AcDbEntity
  8
0
100
AcDbBlockEnd
  0
BLOCK
  5
5E60
330
5D8E
100
AcDbEntity
 67
     1
  8
0
100
AcDbBlockBegin
  2
*PAPER_SPACE
 70
     0
 10
0.0
 20
0.0
 30
0.0
  3
*PAPER_SPACE
  1

  0
ENDBLK
  5
5E61
330
5D8E
100
AcDbEntity
 67
     1
  8
0
100
AcDbBlockEnd
  0
BLOCK
  5
145A0
330
14596
100
AcDbEntity
  8
0
100
AcDbBlockBegin
  2
*D29
 70
     1
 10
0.0
 20
0.0
 30
0.0
  3
*D29
  1

  0
LINE
  5
14648
330
14596
100
AcDbEntity
  8
SUNPOU
 62
     1
100
AcDbLine
 10
-990.9623429727016
 20
1511.703489230843
 30
0.0
 11
-990.9623429727016
 21
1501.655673159589
 31
0.0
  0
LINE
  5
14649
330
14596
100
AcDbEntity
  8
SUNPOU
 62
     1
100
AcDbLine
 10
-1085.962342972701
 20
1516.703489230843
 30
0.0
 11
-1085.962342972701
 21
1501.655673159589
 31
0.0
  0
LINE
  5
1464A
330
14596
100
AcDbEntity
  8
SUNPOU
 62
     1
100
AcDbLine
 10
-993.4623429727016
 20
1502.155673159589
 30
0.0
 11
-1083.462342972701
 21
1502.155673159589
 31
0.0
  0
SOLID
  5
1464B
330
14596
100
AcDbEntity
  8
SUNPOU
 62
     1
100
AcDbTrace
 10
-993.4623429727016
 20
1502.572339826256
 30
0.0
 11
-993.4623429727016
 21
1501.739006492923
 31
0.0
 12
-990.9623429727016
 22
1502.155673159589
 32
0.0
 13
-990.9623429727016
 23
1502.155673159589
 33
0.0
  0
SOLID
  5
1464C
330
14596
100
AcDbEntity
  8
SUNPOU
 62
     1
100
AcDbTrace
 10
-1083.462342972701
 20
1502.572339826256
 30
0.0
 11
-1083.462342972701
 21
1501.739006492923
 31
0.0
 12
-1085.962342972701
 22
1502.155673159589
 32
0.0
 13
-1085.962342972701
 23
1502.155673159589
 33
0.0
  0
MTEXT
  5
1464D
330
14596
100
AcDbEntity
  8
SUNPOU
 62
     1
100
AcDbMText
 10
-1038.462342972701
 20
1504.90567315959
 30
0.0
 40
3.5
 41
0.0
 71
     5
 72
     1
  1
\A1;95
1001
ACAD
1000
MTEXTBEGIN
1070
    73
1070
     1
1070
    44
1040
1.0
1070
    74
1070
     0
1000
MTEXTEND
  0
POINT
  5
1464E
330
14596
100
AcDbEntity
  8
DEFPOINTS
 62
     0
100
AcDbPoint
 10
-990.9623429727016
 20
1512.203489230843
 30
0.0
  0
POINT
  5
1464F
330
14596
100
AcDbEntity
  8
DEFPOINTS
 62
     0
100
AcDbPoint
 10
-1085.962342972701
 20
1517.203489230843
 30
0.0
  0
POINT
  5
14650
330
14596
100
AcDbEntity
  8
DEFPOINTS
 62
     0
100
AcDbPoint
 10
-1085.962342972701
 20
1502.155673159589
 30
0.0
  0
ENDBLK
  5
145A1
330
14596
100
AcDbEntity
  8
0
100
AcDbBlockEnd
  0
BLOCK
  5
145AC
330
145A2
100
AcDbEntity
  8
0
100
AcDbBlockBegin
  2
*D30
 70
     1
 10
0.0
 20
0.0
 30
0.0
  3
*D30
  1

  0
LINE
  5
14651
330
145A2
100
AcDbEntity
  8
SUNPOU
 62
     1
100
AcDbLine
 10
-995.9623429727017
 20
1570.543654825064
 30
0.0
 11
-995.9623429727017
 21
1560.327158006554
 31
0.0
  0
LINE
  5
14652
330
145A2
100
AcDbEntity
  8
SUNPOU
 62
     1
100
AcDbLine
 10
-1075.962340987
 20
1633.293663946411
 30
0.0
 11
-1075.962340987
 21
1560.327158006554
 31
0.0
  0
LINE
  5
14653
330
145A2
100
AcDbEntity
  8
SUNPOU
 62
     1
100
AcDbLine
 10
-998.4623429727017
 20
1560.827158006554
 30
0.0
 11
-1073.462340987
 21
1560.827158006554
 31
0.0
  0
SOLID
  5
14654
330
145A2
100
AcDbEntity
  8
SUNPOU
 62
     1
100
AcDbTrace
 10
-998.4623429727017
 20
1561.243824673221
 30
0.0
 11
-998.4623429727017
 21
1560.410491339887
 31
0.0
 12
-995.9623429727017
 22
1560.827158006554
 32
0.0
 13
-995.9623429727017
 23
1560.827158006554
 33
0.0
  0
SOLID
  5
14655
330
145A2
100
AcDbEntity
  8
SUNPOU
 62
     1
100
AcDbTrace
 10
-1073.462340987
 20
1561.243824673221
 30
0.0
 11
-1073.462340987
 21
1560.410491339887
 31
0.0
 12
-1075.962340987
 22
1560.827158006554
 32
0.0
 13
-1075.962340987
 23
1560.827158006554
 33
0.0
  0
MTEXT
  5
14656
330
145A2
100
AcDbEntity
  8
SUNPOU
 62
     1
100
AcDbMText
 10
-1035.96234197985
 20
1563.577158006554
 30
0.0
 40
3.5
 41
0.0
 71
     5
 72
     1
  1
\A1;80
1001
ACAD
1000
MTEXTBEGIN
1070
    73
1070
     1
1070
    44
1040
1.0
1070
    74
1070
     0
1000
MTEXTEND
  0
POINT
  5
14657
330
145A2
100
AcDbEntity
  8
DEFPOINTS
 62
     0
100
AcDbPoint
 10
-995.9623429727017
 20
1571.043654825064
 30
0.0
  0
POINT
  5
14658
330
145A2
100
AcDbEntity
  8
DEFPOINTS
 62
     0
100
AcDbPoint
 10
-1075.962340987
 20
1633.793663946411
 30
0.0
  0
POINT
  5
14659
330
145A2
100
AcDbEntity
  8
DEFPOINTS
 62
     0
100
AcDbPoint
 10
-1075.962340987
 20
1560.827158006554
 30
0.0
  0
ENDBLK
  5
145AD
330
145A2
100
AcDbEntity
  8
0
100
AcDbBlockEnd
  0
BLOCK
  5
145B8
330
145AE
100
AcDbEntity
  8
0
100
AcDbBlockBegin
  2
*D31
 70
     1
 10
0.0
 20
0.0
 30
0.0
  3
*D31
  1

  0
LINE
  5
1465A
330
145AE
100
AcDbEntity
  8
SUNPOU
 62
     1
100
AcDbLine
 10
-1073.710240501553
 20
1636.543662685828
 30
0.0
 11
-980.3681644183278
 21
1636.543662685828
 31
0.0
  0
LINE
  5
1465B
330
145AE
100
AcDbEntity
  8
SUNPOU
 62
     1
100
AcDbLine
 10
-993.7124119185678
 20
1573.543654825065
 30
0.0
 11
-980.3681644183278
 21
1573.543654825065
 31
0.0
  0
LINE
  5
1465C
330
145AE
100
AcDbEntity
  8
SUNPOU
 62
     1
100
AcDbLine
 10
-980.8681644183277
 20
1634.043662685828
 30
0.0
 11
-980.8681644183277
 21
1576.043654825064
 31
0.0
  0
SOLID
  5
1465D
330
145AE
100
AcDbEntity
  8
SUNPOU
 62
     1
100
AcDbTrace
 10
-981.2848310849943
 20
1634.043662685828
 30
0.0
 11
-980.451497751661
 21
1634.043662685828
 31
0.0
 12
-980.8681644183277
 22
1636.543662685828
 32
0.0
 13
-980.8681644183277
 23
1636.543662685828
 33
0.0
  0
SOLID
  5
1465E
330
145AE
100
AcDbEntity
  8
SUNPOU
 62
     1
100
AcDbTrace
 10
-981.2848310849943
 20
1576.043654825064
 30
0.0
 11
-980.451497751661
 21
1576.043654825064
 31
0.0
 12
-980.8681644183277
 22
1573.543654825065
 32
0.0
 13
-980.8681644183277
 23
1573.543654825065
 33
0.0
  0
MTEXT
  5
1465F
330
145AE
100
AcDbEntity
  8
SUNPOU
 62
     1
100
AcDbMText
 10
-983.618164418328
 20
1605.043658755446
 30
0.0
 40
3.5
 41
0.0
 71
     5
 72
     1
  1
\A1;63
 11
0.0000000000000001
 21
1.0
 31
0.0
1001
ACAD
1000
MTEXTBEGIN
1070
    73
1070
     1
1070
    44
1040
1.0
1070
    74
1070
     0
1000
MTEXTEND
  0
POINT
  5
14660
330
145AE
100
AcDbEntity
  8
DEFPOINTS
 62
     0
100
AcDbPoint
 10
-1074.210240501554
 20
1636.543662685828
 30
0.0
  0
POINT
  5
14661
330
145AE
100
AcDbEntity
  8
DEFPOINTS
 62
     0
100
AcDbPoint
 10
-994.2124119185677
 20
1573.543654825065
 30
0.0
  0
POINT
  5
14662
330
145AE
100
AcDbEntity
  8
DEFPOINTS
 62
     0
100
AcDbPoint
 10
-980.8681644183277
 20
1573.543654825065
 30
0.0
  0
ENDBLK
  5
145B9
330
145AE
100
AcDbEntity
  8
0
100
AcDbBlockEnd
  0
BLOCK
  5
145C4
330
145BA
100
AcDbEntity
  8
0
100
AcDbBlockBegin
  2
*D32
 70
     1
 10
0.0
 20
0.0
 30
0.0
  3
*D32
  1

  0
LINE
  5
14663
330
145BA
100
AcDbEntity
  8
SUNPOU
 62
     1
100
AcDbLine
 10
-1086.462342972701
 20
1640.043654825064
 30
0.0
 11
-1094.500294034999
 21
1640.043654825064
 31
0.0
  0
LINE
  5
14664
330
145BA
100
AcDbEntity
  8
SUNPOU
 62
     1
100
AcDbLine
 10
-1086.462342972701
 20
1570.043654825064
 30
0.0
 11
-1094.500294034999
 21
1570.043654825064
 31
0.0
  0
LINE
  5
14665
330
145BA
100
AcDbEntity
  8
SUNPOU
 62
     1
100
AcDbLine
 10
-1094.000294034999
 20
1637.543654825065
 30
0.0
 11
-1094.000294034999
 21
1572.543654825064
 31
0.0
  0
SOLID
  5
14666
330
145BA
100
AcDbEntity
  8
SUNPOU
 62
     1
100
AcDbTrace
 10
-1094.416960701666
 20
1637.543654825065
 30
0.0
 11
-1093.583627368332
 21
1637.543654825065
 31
0.0
 12
-1094.000294034999
 22
1640.043654825064
 32
0.0
 13
-1094.000294034999
 23
1640.043654825064
 33
0.0
  0
SOLID
  5
14667
330
145BA
100
AcDbEntity
  8
SUNPOU
 62
     1
100
AcDbTrace
 10
-1094.416960701666
 20
1572.543654825064
 30
0.0
 11
-1093.583627368332
 21
1572.543654825064
 31
0.0
 12
-1094.000294034999
 22
1570.043654825064
 32
0.0
 13
-1094.000294034999
 23
1570.043654825064
 33
0.0
  0
MTEXT
  5
14668
330
145BA
100
AcDbEntity
  8
SUNPOU
 62
     1
100
AcDbMText
 10
-1096.750294034999
 20
1605.043654825064
 30
0.0
 40
3.5
 41
0.0
 71
     5
 72
     1
  1
\A1;70
 11
0.0000000000000001
 21
1.0
 31
0.0
1001
ACAD
1000
MTEXTBEGIN
1070
    73
1070
     1
1070
    44
1040
1.0
1070
    74
1070
     0
1000
MTEXTEND
  0
POINT
  5
14669
330
145BA
100
AcDbEntity
  8
DEFPOINTS
 62
     0
100
AcDbPoint
 10
-1085.962342972701
 20
1640.043654825064
 30
0.0
  0
POINT
  5
1466A
330
145BA
100
AcDbEntity
  8
DEFPOINTS
 62
     0
100
AcDbPoint
 10
-1085.962342972701
 20
1570.043654825064
 30
0.0
  0
POINT
  5
1466B
330
145BA
100
AcDbEntity
  8
DEFPOINTS
 62
     0
100
AcDbPoint
 10
-1094.000294034999
 20
1570.043654825064
 30
0.0
  0
ENDBLK
  5
145C5
330
145BA
100
AcDbEntity
  8
0
100
AcDbBlockEnd
  0
BLOCK
  5
145D0
330
145C6
100
AcDbEntity
  8
0
100
AcDbBlockBegin
  2
*D33
 70
     1
 10
0.0
 20
0.0
 30
0.0
  3
*D33
  1

  0
LINE
  5
1466C
330
145C6
100
AcDbEntity
  8
SUNPOU
 62
     1
100
AcDbLine
 10
-1075.962340987
 20
1633.293663946411
 30
0.0
 11
-1075.962340987
 21
1560.327158006554
 31
0.0
  0
LINE
  5
1466D
330
145C6
100
AcDbEntity
  8
SUNPOU
 62
     1
100
AcDbLine
 10
-1085.962342972701
 20
1569.543654825064
 30
0.0
 11
-1085.962342972701
 21
1560.327158006554
 31
0.0
  0
LINE
  5
1466E
330
145C6
100
AcDbEntity
  8
SUNPOU
 62
     1
100
AcDbLine
 10
-1078.962340987
 20
1560.827158006554
 30
0.0
 11
-1082.962342972701
 21
1560.827158006554
 31
0.0
  0
SOLID
  5
1466F
330
145C6
100
AcDbEntity
  8
SUNPOU
 62
     1
100
AcDbTrace
 10
-1078.962340987
 20
1561.327158006554
 30
0.0
 11
-1078.962340987
 21
1560.327158006554
 31
0.0
 12
-1075.962340987
 22
1560.827158006554
 32
0.0
 13
-1075.962340987
 23
1560.827158006554
 33
0.0
  0
SOLID
  5
14670
330
145C6
100
AcDbEntity
  8
SUNPOU
 62
     1
100
AcDbTrace
 10
-1082.962342972701
 20
1561.327158006554
 30
0.0
 11
-1082.962342972701
 21
1560.327158006554
 31
0.0
 12
-1085.962342972701
 22
1560.827158006554
 32
0.0
 13
-1085.962342972701
 23
1560.827158006554
 33
0.0
  0
MTEXT
  5
14671
330
145C6
100
AcDbEntity
  8
SUNPOU
 62
     1
100
AcDbMText
 10
-1080.96234197985
 20
1563.577158006554
 30
0.0
 40
3.5
 41
0.0
 71
     5
 72
     1
  1
\A1;10
1001
ACAD
1000
MTEXTBEGIN
1070
    73
1070
     1
1070
    44
1040
1.0
1070
    74
1070
     0
1000
MTEXTEND
  0
POINT
  5
14672
330
145C6
100
AcDbEntity
  8
DEFPOINTS
 62
     0
100
AcDbPoint
 10
-1075.962340987
 20
1633.793663946411
 30
0.0
  0
POINT
  5
14673
330
145C6
100
AcDbEntity
  8
DEFPOINTS
 62
     0
100
AcDbPoint
 10
-1085.962342972701
 20
1570.043654825064
 30
0.0
  0
POINT
  5
14674
330
145C6
100
AcDbEntity
  8
DEFPOINTS
 62
     0
100
AcDbPoint
 10
-1085.962342972701
 20
1560.827158006554
 30
0.0
  0
ENDBLK
  5
145D1
330
145C6
100
AcDbEntity
  8
0
100
AcDbBlockEnd
  0
BLOCK
  5
145DE
330
145D2
100
AcDbEntity
  8
0
100
AcDbBlockBegin
  2
*D34
 70
     1
 10
0.0
 20
0.0
 30
0.0
  3
*D34
  1

  0
LINE
  5
1474D
330
145D2
100
AcDbEntity
  8
SUNPOU
 62
     1
100
AcDbLine
 10
-1085.962342972701
 20
1544.703489230843
 30
0.0
 11
-1085.962342972701
 21
1550.749353731406
 31
0.0
  0
LINE
  5
1474E
330
145D2
100
AcDbEntity
  8
SUNPOU
 62
     1
100
AcDbLine
 10
-1082.962342972701
 20
1544.703489230843
 30
0.0
 11
-1082.962342972701
 21
1550.749353731406
 31
0.0
  0
LINE
  5
1474F
330
145D2
100
AcDbEntity
  8
SUNPOU
 62
     1
100
AcDbLine
 10
-1088.962342972701
 20
1550.249353731406
 30
0.0
 11
-1091.962342972701
 21
1550.249353731406
 31
0.0
  0
LINE
  5
14750
330
145D2
100
AcDbEntity
  8
SUNPOU
 62
     1
100
AcDbLine
 10
-1079.962342972701
 20
1550.249353731406
 30
0.0
 11
-1076.962342972701
 21
1550.249353731406
 31
0.0
  0
MTEXT
  5
14751
330
145D2
100
AcDbEntity
  8
SUNPOU
 62
     1
100
AcDbMText
 10
-1089.866259809429
 20
1553.983996465256
 30
0.0
 40
3.5
 41
0.0
 71
     5
 72
     1
  1
\A1;3
  0
LINE
  5
14752
330
145D2
100
AcDbEntity
  8
SUNPOU
 62
     1
100
AcDbLine
 10
-1085.962342972701
 20
1550.249353731406
 30
0.0
 11
-1082.962342972701
 21
1550.249353731406
 31
0.0
  0
SOLID
  5
14753
330
145D2
100
AcDbEntity
  8
SUNPOU
 62
     1
100
AcDbTrace
 10
-1088.962342972701
 20
1550.749353731406
 30
0.0
 11
-1088.962342972701
 21
1549.749353731406
 31
0.0
 12
-1085.962342972701
 22
1550.249353731406
 32
0.0
 13
-1085.962342972701
 23
1550.249353731406
 33
0.0
  0
SOLID
  5
14754
330
145D2
100
AcDbEntity
  8
SUNPOU
 62
     1
100
AcDbTrace
 10
-1079.962342972701
 20
1550.749353731406
 30
0.0
 11
-1079.962342972701
 21
1549.749353731406
 31
0.0
 12
-1082.962342972701
 22
1550.249353731406
 32
0.0
 13
-1082.962342972701
 23
1550.249353731406
 33
0.0
  0
POINT
  5
14755
330
145D2
100
AcDbEntity
  8
DEFPOINTS
 62
     0
100
AcDbPoint
 10
-1085.962342972701
 20
1544.203489230842
 30
0.0
  0
POINT
  5
14756
330
145D2
100
AcDbEntity
  8
DEFPOINTS
 62
     0
100
AcDbPoint
 10
-1082.962342972701
 20
1544.203489230842
 30
0.0
  0
POINT
  5
14757
330
145D2
100
AcDbEntity
  8
DEFPOINTS
 62
     0
100
AcDbPoint
 10
-1082.962342972701
 20
1550.249353731406
 30
0.0
  0
ENDBLK
  5
145DF
330
145D2
100
AcDbEntity
  8
0
100
AcDbBlockEnd
  0
BLOCK
  5
145EC
330
145E0
100
AcDbEntity
  8
0
100
AcDbBlockBegin
  2
*D35
 70
     1
 10
0.0
 20
0.0
 30
0.0
  3
*D35
  1

  0
LINE
  5
14758
330
145E0
100
AcDbEntity
  8
SUNPOU
 62
     1
100
AcDbLine
 10
-938.6818735568471
 20
1637.543654825065
 30
0.0
 11
-958.9589030628147
 21
1637.543654825065
 31
0.0
  0
LINE
  5
14759
330
145E0
100
AcDbEntity
  8
SUNPOU
 62
     1
100
AcDbLine
 10
-946.680789083914
 20
1640.043654825064
 30
0.0
 11
-958.9589030628147
 21
1640.043654825064
 31
0.0
  0
LINE
  5
1475A
330
145E0
100
AcDbEntity
  8
SUNPOU
 62
     1
100
AcDbLine
 10
-958.4589030628146
 20
1634.543654825065
 30
0.0
 11
-958.4589030628146
 21
1631.543654825065
 31
0.0
  0
LINE
  5
1475B
330
145E0
100
AcDbEntity
  8
SUNPOU
 62
     1
100
AcDbLine
 10
-958.4589030628146
 20
1643.043654825065
 30
0.0
 11
-958.4589030628146
 21
1646.043654825065
 31
0.0
  0
MTEXT
  5
1475C
330
145E0
100
AcDbEntity
  8
SUNPOU
 62
     1
100
AcDbMText
 10
-961.5617126708015
 20
1646.59148591317
 30
0.0
 40
3.5
 41
0.0
 71
     5
 72
     1
  1
\A1;2.5
 11
0.0000000000000001
 21
1.0
 31
0.0
  0
LINE
  5
1475D
330
145E0
100
AcDbEntity
  8
SUNPOU
 62
     1
100
AcDbLine
 10
-958.4589030628146
 20
1637.543654825065
 30
0.0
 11
-958.4589030628146
 21
1640.043654825064
 31
0.0
  0
SOLID
  5
1475E
330
145E0
100
AcDbEntity
  8
SUNPOU
 62
     1
100
AcDbTrace
 10
-958.9589030628147
 20
1634.543654825065
 30
0.0
 11
-957.9589030628147
 21
1634.543654825065
 31
0.0
 12
-958.4589030628146
 22
1637.543654825065
 32
0.0
 13
-958.4589030628146
 23
1637.543654825065
 33
0.0
  0
SOLID
  5
1475F
330
145E0
100
AcDbEntity
  8
SUNPOU
 62
     1
100
AcDbTrace
 10
-958.9589030628147
 20
1643.043654825065
 30
0.0
 11
-957.9589030628147
 21
1643.043654825065
 31
0.0
 12
-958.4589030628146
 22
1640.043654825064
 32
0.0
 13
-958.4589030628146
 23
1640.043654825064
 33
0.0
  0
POINT
  5
14760
330
145E0
100
AcDbEntity
  8
DEFPOINTS
 62
     0
100
AcDbPoint
 10
-938.1818735568472
 20
1637.543654825065
 30
0.0
  0
POINT
  5
14761
330
145E0
100
AcDbEntity
  8
DEFPOINTS
 62
     0
100
AcDbPoint
 10
-946.1807890839141
 20
1640.043654825064
 30
0.0
  0
POINT
  5
14762
330
145E0
100
AcDbEntity
  8
DEFPOINTS
 62
     0
100
AcDbPoint
 10
-958.4589030628146
 20
1640.043654825064
 30
0.0
  0
ENDBLK
  5
145ED
330
145E0
100
AcDbEntity
  8
0
100
AcDbBlockEnd
  0
BLOCK
  5
145F8
330
145EE
100
AcDbEntity
  8
0
100
AcDbBlockBegin
  2
*D36
 70
     1
 10
0.0
 20
0.0
 30
0.0
  3
*D36
  1

  0
LINE
  5
1468B
330
145EE
100
AcDbEntity
  8
SUNPOU
 62
     1
100
AcDbLine
 10
-938.6818735568471
 20
1637.543654825065
 30
0.0
 11
-958.9589030628147
 21
1637.543654825065
 31
0.0
  0
LINE
  5
1468C
330
145EE
100
AcDbEntity
  8
SUNPOU
 62
     1
100
AcDbLine
 10
-938.6818735568471
 20
1572.543654825065
 30
0.0
 11
-958.9589030628147
 21
1572.543654825065
 31
0.0
  0
LINE
  5
1468D
330
145EE
100
AcDbEntity
  8
SUNPOU
 62
     1
100
AcDbLine
 10
-958.4589030628146
 20
1634.543654825065
 30
0.0
 11
-958.4589030628146
 21
1575.543654825064
 31
0.0
  0
SOLID
  5
1468E
330
145EE
100
AcDbEntity
  8
SUNPOU
 62
     1
100
AcDbTrace
 10
-958.9589030628147
 20
1634.543654825065
 30
0.0
 11
-957.9589030628147
 21
1634.543654825065
 31
0.0
 12
-958.4589030628146
 22
1637.543654825065
 32
0.0
 13
-958.4589030628146
 23
1637.543654825065
 33
0.0
  0
SOLID
  5
1468F
330
145EE
100
AcDbEntity
  8
SUNPOU
 62
     1
100
AcDbTrace
 10
-958.9589030628147
 20
1575.543654825064
 30
0.0
 11
-957.9589030628147
 21
1575.543654825064
 31
0.0
 12
-958.4589030628146
 22
1572.543654825065
 32
0.0
 13
-958.4589030628146
 23
1572.543654825065
 33
0.0
  0
MTEXT
  5
14690
330
145EE
100
AcDbEntity
  8
SUNPOU
 62
     1
100
AcDbMText
 10
-961.2089030628149
 20
1605.043654825064
 30
0.0
 40
3.5
 41
0.0
 71
     5
 72
     1
  1
\A1;65
 11
0.0000000000000001
 21
1.0
 31
0.0
1001
ACAD
1000
MTEXTBEGIN
1070
    73
1070
     1
1070
    44
1040
1.0
1070
    74
1070
     0
1000
MTEXTEND
  0
POINT
  5
14691
330
145EE
100
AcDbEntity
  8
DEFPOINTS
 62
     0
100
AcDbPoint
 10
-938.1818735568472
 20
1637.543654825065
 30
0.0
  0
POINT
  5
14692
330
145EE
100
AcDbEntity
  8
DEFPOINTS
 62
     0
100
AcDbPoint
 10
-938.1818735568472
 20
1572.543654825065
 30
0.0
  0
POINT
  5
14693
330
145EE
100
AcDbEntity
  8
DEFPOINTS
 62
     0
100
AcDbPoint
 10
-958.4589030628146
 20
1572.543654825065
 30
0.0
  0
ENDBLK
  5
145F9
330
145EE
100
AcDbEntity
  8
0
100
AcDbBlockEnd
  0
BLOCK
  5
14604
330
145FA
100
AcDbEntity
  8
0
100
AcDbBlockBegin
  2
*D37
 70
     1
 10
0.0
 20
0.0
 30
0.0
  3
*D37
  1

  0
LINE
  5
14694
330
145FA
100
AcDbEntity
  8
SUNPOU
 62
     1
100
AcDbLine
 10
-916.180789083914
 20
1570.543654825065
 30
0.0
 11
-916.180789083914
 21
1550.405194218491
 31
0.0
  0
LINE
  5
14695
330
145FA
100
AcDbEntity
  8
SUNPOU
 62
     1
100
AcDbLine
 10
-948.180789083914
 20
1571.543654825064
 30
0.0
 11
-948.180789083914
 21
1550.405194218491
 31
0.0
  0
LINE
  5
14696
330
145FA
100
AcDbEntity
  8
SUNPOU
 62
     1
100
AcDbLine
 10
-919.1807890839141
 20
1550.905194218491
 30
0.0
 11
-945.1807890839141
 21
1550.905194218491
 31
0.0
  0
SOLID
  5
14697
330
145FA
100
AcDbEntity
  8
SUNPOU
 62
     1
100
AcDbTrace
 10
-919.1807890839141
 20
1551.40519421849
 30
0.0
 11
-919.1807890839141
 21
1550.405194218491
 31
0.0
 12
-916.180789083914
 22
1550.905194218491
 32
0.0
 13
-916.180789083914
 23
1550.905194218491
 33
0.0
  0
SOLID
  5
14698
330
145FA
100
AcDbEntity
  8
SUNPOU
 62
     1
100
AcDbTrace
 10
-945.1807890839141
 20
1551.40519421849
 30
0.0
 11
-945.1807890839141
 21
1550.405194218491
 31
0.0
 12
-948.180789083914
 22
1550.905194218491
 32
0.0
 13
-948.180789083914
 23
1550.905194218491
 33
0.0
  0
MTEXT
  5
14699
330
145FA
100
AcDbEntity
  8
SUNPOU
 62
     1
100
AcDbMText
 10
-932.180789083914
 20
1553.655194218491
 30
0.0
 40
3.5
 41
0.0
 71
     5
 72
     1
  1
\A1;32
1001
ACAD
1000
MTEXTBEGIN
1070
    73
1070
     1
1070
    44
1040
1.0
1070
    74
1070
     0
1000
MTEXTEND
  0
POINT
  5
1469A
330
145FA
100
AcDbEntity
  8
DEFPOINTS
 62
     0
100
AcDbPoint
 10
-916.180789083914
 20
1571.043654825064
 30
0.0
  0
POINT
  5
1469B
330
145FA
100
AcDbEntity
  8
DEFPOINTS
 62
     0
100
AcDbPoint
 10
-948.180789083914
 20
1572.043654825064
 30
0.0
  0
POINT
  5
1469C
330
145FA
100
AcDbEntity
  8
DEFPOINTS
 62
     0
100
AcDbPoint
 10
-948.180789083914
 20
1550.905194218491
 30
0.0
  0
ENDBLK
  5
14605
330
145FA
100
AcDbEntity
  8
0
100
AcDbBlockEnd
  0
BLOCK
  5
14610
330
14606
100
AcDbEntity
  8
0
100
AcDbBlockBegin
  2
*D38
 70
     1
 10
0.0
 20
0.0
 30
0.0
  3
*D38
  1

  0
LINE
  5
1469D
330
14606
100
AcDbEntity
  8
SUNPOU
 62
     1
100
AcDbLine
 10
-916.180789083914
 20
1570.543654825065
 30
0.0
 11
-916.180789083914
 21
1560.327158006554
 31
0.0
  0
LINE
  5
1469E
330
14606
100
AcDbEntity
  8
SUNPOU
 62
     1
100
AcDbLine
 10
-938.1818735568472
 20
1572.043654825065
 30
0.0
 11
-938.1818735568472
 21
1560.327158006554
 31
0.0
  0
LINE
  5
1469F
330
14606
100
AcDbEntity
  8
SUNPOU
 62
     1
100
AcDbLine
 10
-919.1807890839141
 20
1560.827158006554
 30
0.0
 11
-935.1818735568471
 21
1560.827158006554
 31
0.0
  0
SOLID
  5
146A0
330
14606
100
AcDbEntity
  8
SUNPOU
 62
     1
100
AcDbTrace
 10
-919.1807890839141
 20
1561.327158006554
 30
0.0
 11
-919.1807890839141
 21
1560.327158006554
 31
0.0
 12
-916.180789083914
 22
1560.827158006554
 32
0.0
 13
-916.180789083914
 23
1560.827158006554
 33
0.0
  0
SOLID
  5
146A1
330
14606
100
AcDbEntity
  8
SUNPOU
 62
     1
100
AcDbTrace
 10
-935.1818735568471
 20
1561.327158006554
 30
0.0
 11
-935.1818735568471
 21
1560.327158006554
 31
0.0
 12
-938.1818735568472
 22
1560.827158006554
 32
0.0
 13
-938.1818735568472
 23
1560.827158006554
 33
0.0
  0
MTEXT
  5
146A2
330
14606
100
AcDbEntity
  8
SUNPOU
 62
     1
100
AcDbMText
 10
-927.1813313203805
 20
1563.577158006554
 30
0.0
 40
3.5
 41
0.0
 71
     5
 72
     1
  1
\A1;22
1001
ACAD
1000
MTEXTBEGIN
1070
    73
1070
     1
1070
    44
1040
1.0
1070
    74
1070
     0
1000
MTEXTEND
  0
POINT
  5
146A3
330
14606
100
AcDbEntity
  8
DEFPOINTS
 62
     0
100
AcDbPoint
 10
-916.180789083914
 20
1571.043654825064
 30
0.0
  0
POINT
  5
146A4
330
14606
100
AcDbEntity
  8
DEFPOINTS
 62
     0
100
AcDbPoint
 10
-938.1818735568472
 20
1572.543654825065
 30
0.0
  0
POINT
  5
146A5
330
14606
100
AcDbEntity
  8
DEFPOINTS
 62
     0
100
AcDbPoint
 10
-938.1818735568472
 20
1560.827158006554
 30
0.0
  0
ENDBLK
  5
14611
330
14606
100
AcDbEntity
  8
0
100
AcDbBlockEnd
  0
BLOCK
  5
1461E
330
14612
100
AcDbEntity
  8
0
100
AcDbBlockBegin
  2
*D39
 70
     1
 10
0.0
 20
0.0
 30
0.0
  3
*D39
  1

  0
LINE
  5
14763
330
14612
100
AcDbEntity
  8
SUNPOU
 62
     1
100
AcDbLine
 10
-993.7124119185678
 20
1573.543654825065
 30
0.0
 11
-980.3681644183278
 21
1573.543654825065
 31
0.0
  0
LINE
  5
14764
330
14612
100
AcDbEntity
  8
SUNPOU
 62
     1
100
AcDbLine
 10
-991.4623429727017
 20
1571.043654825064
 30
0.0
 11
-980.3681644183278
 21
1571.043654825064
 31
0.0
  0
LINE
  5
14765
330
14612
100
AcDbEntity
  8
SUNPOU
 62
     1
100
AcDbLine
 10
-980.8681644183277
 20
1576.543654825064
 30
0.0
 11
-980.8681644183277
 21
1579.543654825064
 31
0.0
  0
LINE
  5
14766
330
14612
100
AcDbEntity
  8
SUNPOU
 62
     1
100
AcDbLine
 10
-980.8681644183277
 20
1568.043654825064
 30
0.0
 11
-980.8681644183277
 21
1565.043654825064
 31
0.0
  0
MTEXT
  5
14767
330
14612
100
AcDbEntity
  8
SUNPOU
 62
     1
100
AcDbMText
 10
-984.1915404019449
 20
1566.559733645773
 30
0.0
 40
3.5
 41
0.0
 71
     5
 72
     1
  1
\A1;2.5
 11
0.0000000000000001
 21
1.0
 31
0.0
  0
LINE
  5
14768
330
14612
100
AcDbEntity
  8
SUNPOU
 62
     1
100
AcDbLine
 10
-980.8681644183277
 20
1573.543654825065
 30
0.0
 11
-980.8681644183277
 21
1571.043654825064
 31
0.0
  0
SOLID
  5
14769
330
14612
100
AcDbEntity
  8
SUNPOU
 62
     1
100
AcDbTrace
 10
-981.3681644183278
 20
1576.543654825064
 30
0.0
 11
-980.3681644183278
 21
1576.543654825064
 31
0.0
 12
-980.8681644183277
 22
1573.543654825065
 32
0.0
 13
-980.8681644183277
 23
1573.543654825065
 33
0.0
  0
SOLID
  5
1476A
330
14612
100
AcDbEntity
  8
SUNPOU
 62
     1
100
AcDbTrace
 10
-981.3681644183278
 20
1568.043654825064
 30
0.0
 11
-980.3681644183278
 21
1568.043654825064
 31
0.0
 12
-980.8681644183277
 22
1571.043654825064
 32
0.0
 13
-980.8681644183277
 23
1571.043654825064
 33
0.0
  0
POINT
  5
1476B
330
14612
100
AcDbEntity
  8
DEFPOINTS
 62
     0
100
AcDbPoint
 10
-994.2124119185677
 20
1573.543654825065
 30
0.0
  0
POINT
  5
1476C
330
14612
100
AcDbEntity
  8
DEFPOINTS
 62
     0
100
AcDbPoint
 10
-991.9623429727016
 20
1571.043654825064
 30
0.0
  0
POINT
  5
1476D
330
14612
100
AcDbEntity
  8
DEFPOINTS
 62
     0
100
AcDbPoint
 10
-980.8681644183277
 20
1571.043654825064
 30
0.0
  0
ENDBLK
  5
1461F
330
14612
100
AcDbEntity
  8
0
100
AcDbBlockEnd
  0
BLOCK
  5
1462C
330
14620
100
AcDbEntity
  8
0
100
AcDbBlockBegin
  2
*D40
 70
     1
 10
0.0
 20
0.0
 30
0.0
  3
*D40
  1

  0
LINE
  5
146B1
330
14620
100
AcDbEntity
  8
SUNPOU
 62
     1
100
AcDbLine
 10
-995.9623429727017
 20
1570.543654825064
 30
0.0
 11
-995.9623429727017
 21
1560.327158006554
 31
0.0
  0
LINE
  5
146B2
330
14620
100
AcDbEntity
  8
SUNPOU
 62
     1
100
AcDbLine
 10
-990.9623429727016
 20
1571.543654825064
 30
0.0
 11
-990.9623429727016
 21
1560.327158006554
 31
0.0
  0
LINE
  5
146B3
330
14620
100
AcDbEntity
  8
SUNPOU
 62
     1
100
AcDbLine
 10
-998.9623429727016
 20
1560.827158006554
 30
0.0
 11
-1001.962342972701
 21
1560.827158006554
 31
0.0
  0
LINE
  5
146B4
330
14620
100
AcDbEntity
  8
SUNPOU
 62
     1
100
AcDbLine
 10
-987.9623429727017
 20
1560.827158006554
 30
0.0
 11
-984.9623429727015
 21
1560.827158006554
 31
0.0
  0
LINE
  5
146B5
330
14620
100
AcDbEntity
  8
SUNPOU
 62
     1
100
AcDbLine
 10
-995.9623429727017
 20
1560.827158006554
 30
0.0
 11
-990.9623429727016
 21
1560.827158006554
 31
0.0
  0
SOLID
  5
146B6
330
14620
100
AcDbEntity
  8
SUNPOU
 62
     1
100
AcDbTrace
 10
-998.9623429727016
 20
1561.327158006554
 30
0.0
 11
-998.9623429727016
 21
1560.327158006554
 31
0.0
 12
-995.9623429727017
 22
1560.827158006554
 32
0.0
 13
-995.9623429727017
 23
1560.827158006554
 33
0.0
  0
SOLID
  5
146B7
330
14620
100
AcDbEntity
  8
SUNPOU
 62
     1
100
AcDbTrace
 10
-987.9623429727017
 20
1561.327158006554
 30
0.0
 11
-987.9623429727017
 21
1560.327158006554
 31
0.0
 12
-990.9623429727016
 22
1560.827158006554
 32
0.0
 13
-990.9623429727016
 23
1560.827158006554
 33
0.0
  0
MTEXT
  5
146B8
330
14620
100
AcDbEntity
  8
SUNPOU
 62
     1
100
AcDbMText
 10
-993.4623429727016
 20
1563.577158006554
 30
0.0
 40
3.5
 41
0.0
 71
     5
 72
     1
  1
\A1;5
1001
ACAD
1000
MTEXTBEGIN
1070
    73
1070
     1
1070
    44
1040
1.0
1070
    74
1070
     0
1000
MTEXTEND
  0
POINT
  5
146B9
330
14620
100
AcDbEntity
  8
DEFPOINTS
 62
     0
100
AcDbPoint
 10
-995.9623429727017
 20
1571.043654825064
 30
0.0
  0
POINT
  5
146BA
330
14620
100
AcDbEntity
  8
DEFPOINTS
 62
     0
100
AcDbPoint
 10
-990.9623429727016
 20
1572.043654825064
 30
0.0
  0
POINT
  5
146BB
330
14620
100
AcDbEntity
  8
DEFPOINTS
 62
     0
100
AcDbPoint
 10
-990.9623429727016
 20
1560.827158006554
 30
0.0
  0
ENDBLK
  5
1462D
330
14620
100
AcDbEntity
  8
0
100
AcDbBlockEnd
  0
BLOCK
  5
14638
330
1462E
100
AcDbEntity
  8
0
100
AcDbBlockBegin
  2
*D41
 70
     1
 10
0.0
 20
0.0
 30
0.0
  3
*D41
  1

  0
LINE
  5
146BC
330
1462E
100
AcDbEntity
  8
SUNPOU
 62
     1
100
AcDbLine
 10
-990.4623429727017
 20
1512.203489230843
 30
0.0
 11
-976.4600177585895
 21
1512.203489230843
 31
0.0
  0
LINE
  5
146BD
330
1462E
100
AcDbEntity
  8
SUNPOU
 62
     1
100
AcDbLine
 10
-1014.1623429727
 20
1541.503489230843
 30
0.0
 11
-976.4600177585895
 21
1541.503489230843
 31
0.0
  0
LINE
  5
146BE
330
1462E
100
AcDbEntity
  8
SUNPOU
 62
     1
100
AcDbLine
 10
-976.9600177585896
 20
1514.703489230843
 30
0.0
 11
-976.9600177585896
 21
1539.003489230843
 31
0.0
  0
SOLID
  5
146BF
330
1462E
100
AcDbEntity
  8
SUNPOU
 62
     1
100
AcDbTrace
 10
-977.3766844252563
 20
1514.703489230843
 30
0.0
 11
-976.543351091923
 21
1514.703489230843
 31
0.0
 12
-976.9600177585896
 22
1512.203489230843
 32
0.0
 13
-976.9600177585896
 23
1512.203489230843
 33
0.0
  0
SOLID
  5
146C0
330
1462E
100
AcDbEntity
  8
SUNPOU
 62
     1
100
AcDbTrace
 10
-977.3766844252563
 20
1539.003489230843
 30
0.0
 11
-976.543351091923
 21
1539.003489230843
 31
0.0
 12
-976.9600177585896
 22
1541.503489230843
 32
0.0
 13
-976.9600177585896
 23
1541.503489230843
 33
0.0
  0
MTEXT
  5
146C1
330
1462E
100
AcDbEntity
  8
SUNPOU
 62
     1
100
AcDbMText
 10
-979.7100177585898
 20
1526.903489230843
 30
0.0
 40
3.5
 41
0.0
 71
     5
 72
     1
  1
\A1;(29)
 11
0.0000000000000001
 21
1.0
 31
0.0
1001
ACAD
1000
MTEXTBEGIN
1070
    73
1070
     1
1070
    44
1040
1.0
1070
    74
1070
     0
1000
MTEXTEND
  0
POINT
  5
146C2
330
1462E
100
AcDbEntity
  8
DEFPOINTS
 62
     0
100
AcDbPoint
 10
-990.9623429727016
 20
1512.203489230843
 30
0.0
  0
POINT
  5
146C3
330
1462E
100
AcDbEntity
  8
DEFPOINTS
 62
     0
100
AcDbPoint
 10
-1014.6623429727
 20
1541.503489230843
 30
0.0
  0
POINT
  5
146C4
330
1462E
100
AcDbEntity
  8
DEFPOINTS
 62
     0
100
AcDbPoint
 10
-976.9600177585896
 20
1541.503489230843
 30
0.0
  0
ENDBLK
  5
14639
330
1462E
100
AcDbEntity
  8
0
100
AcDbBlockEnd
  0
BLOCK
  5
14646
330
1463A
100
AcDbEntity
  8
0
100
AcDbBlockBegin
  2
*D42
 70
     1
 10
0.0
 20
0.0
 30
0.0
  3
*D42
  1

  0
LINE
  5
1476E
330
1463A
100
AcDbEntity
  8
SUNPOU
 62
     1
100
AcDbLine
 10
-938.6818735568471
 20
1572.543654825065
 30
0.0
 11
-958.9589030628147
 21
1572.543654825065
 31
0.0
  0
LINE
  5
1476F
330
1463A
100
AcDbEntity
  8
SUNPOU
 62
     1
100
AcDbLine
 10
-946.680789083914
 20
1570.043654825065
 30
0.0
 11
-958.9589030628147
 21
1570.043654825065
 31
0.0
  0
LINE
  5
14770
330
1463A
100
AcDbEntity
  8
SUNPOU
 62
     1
100
AcDbLine
 10
-958.4589030628146
 20
1575.543654825064
 30
0.0
 11
-958.4589030628146
 21
1578.543654825065
 31
0.0
  0
LINE
  5
14771
330
1463A
100
AcDbEntity
  8
SUNPOU
 62
     1
100
AcDbLine
 10
-958.4589030628146
 20
1567.043654825065
 30
0.0
 11
-958.4589030628146
 21
1564.043654825065
 31
0.0
  0
MTEXT
  5
14772
330
1463A
100
AcDbEntity
  8
SUNPOU
 62
     1
100
AcDbMText
 10
-961.427398679414
 20
1565.898818743613
 30
0.0
 40
3.5
 41
0.0
 71
     5
 72
     1
  1
\A1;2.5
 11
0.0000000000000001
 21
1.0
 31
0.0
  0
LINE
  5
14773
330
1463A
100
AcDbEntity
  8
SUNPOU
 62
     1
100
AcDbLine
 10
-958.4589030628146
 20
1572.543654825065
 30
0.0
 11
-958.4589030628146
 21
1570.043654825065
 31
0.0
  0
SOLID
  5
14774
330
1463A
100
AcDbEntity
  8
SUNPOU
 62
     1
100
AcDbTrace
 10
-958.9589030628147
 20
1575.543654825064
 30
0.0
 11
-957.9589030628147
 21
1575.543654825064
 31
0.0
 12
-958.4589030628146
 22
1572.543654825065
 32
0.0
 13
-958.4589030628146
 23
1572.543654825065
 33
0.0
  0
SOLID
  5
14775
330
1463A
100
AcDbEntity
  8
SUNPOU
 62
     1
100
AcDbTrace
 10
-958.9589030628147
 20
1567.043654825065
 30
0.0
 11
-957.9589030628147
 21
1567.043654825065
 31
0.0
 12
-958.4589030628146
 22
1570.043654825065
 32
0.0
 13
-958.4589030628146
 23
1570.043654825065
 33
0.0
  0
POINT
  5
14776
330
1463A
100
AcDbEntity
  8
DEFPOINTS
 62
     0
100
AcDbPoint
 10
-938.1818735568472
 20
1572.543654825065
 30
0.0
  0
POINT
  5
14777
330
1463A
100
AcDbEntity
  8
DEFPOINTS
 62
     0
100
AcDbPoint
 10
-946.1807890839141
 20
1570.043654825065
 30
0.0
  0
POINT
  5
14778
330
1463A
100
AcDbEntity
  8
DEFPOINTS
 62
     0
100
AcDbPoint
 10
-958.4589030628146
 20
1570.043654825065
 30
0.0
  0
ENDBLK
  5
14647
330
1463A
100
AcDbEntity
  8
0
100
AcDbBlockEnd
  0
ENDSEC
  0
SECTION
  2
ENTITIES
  0
MTEXT
  5
5084
330
1A
100
AcDbEntity
  8
0
100
AcDbMText
 10
1985.239088685435
 20
-948.5420423450428
 30
0.0
 40
8.0
 41
0.0
 71
     7
 72
     5
  1

1001
ACAD
1000
MTEXTBEGIN
1070
    73
1070
     1
1070
    44
1040
1.0
1070
    74
1070
     0
1000
MTEXTEND
  0
MTEXT
  5
5085
330
1A
100
AcDbEntity
  8
0
100
AcDbMText
 10
4270.596778580329
 20
22.24825240601649
 30
0.0
 40
8.0
 41
0.0
 71
     7
 72
     5
  1

1001
ACAD
1000
MTEXTBEGIN
1070
    73
1070
     1
1070
    44
1040
1.0
1070
    74
1070
     0
1000
MTEXTEND
  0
MTEXT
  5
5343
330
1A
100
AcDbEntity
  8
SUNPOU
100
AcDbMText
 10
6936.493799262471
 20
9534.359644781135
 30
0.0
 40
10.5
 41
0.0
 71
     1
 72
     5
  1

1001
ACAD
1000
MTEXTBEGIN
1070
    73
1070
     1
1070
    44
1040
1.0
1070
    74
1070
     0
1000
MTEXTEND
  0
MTEXT
  5
544F
330
1A
100
AcDbEntity
  8
0
100
AcDbMText
 10
16317.2832773148
 20
12833.35428897674
 30
0.0
 40
8.0
 41
0.0
 71
     7
 72
     5
  1

1001
ACAD
1000
MTEXTBEGIN
1070
    73
1070
     1
1070
    44
1040
1.0
1070
    74
1070
     0
1000
MTEXTEND
  0
MTEXT
  5
5450
330
1A
100
AcDbEntity
  8
0
100
AcDbMText
 10
18602.64096720969
 20
13804.1445837278
 30
0.0
 40
8.0
 41
0.0
 71
     7
 72
     5
  1

1001
ACAD
1000
MTEXTBEGIN
1070
    73
1070
     1
1070
    44
1040
1.0
1070
    74
1070
     0
1000
MTEXTEND
  0
MTEXT
  5
5451
330
1A
100
AcDbEntity
  8
SUNPOU
100
AcDbMText
 10
21268.53798789184
 20
23316.25597610292
 30
0.0
 40
10.5
 41
0.0
 71
     1
 72
     5
  1

1001
ACAD
1000
MTEXTBEGIN
1070
    73
1070
     1
1070
    44
1040
1.0
1070
    74
1070
     0
1000
MTEXTEND
  0
MTEXT
  5
5452
330
1A
100
AcDbEntity
  8
SUNPOU
100
AcDbMText
 10
13337.6147919559
 20
22369.46284218996
 30
0.0
 40
10.5
 41
0.0
 71
     7
 72
     5
  1

1001
ACAD
1000
MTEXTBEGIN
1070
    73
1070
     1
1070
    44
1040
1.0
1070
    74
1070
     0
1000
MTEXTEND
  0
MTEXT
  5
5453
330
1A
100
AcDbEntity
  8
SUNPOU
100
AcDbMText
 10
16286.59845646867
 20
27270.13891403281
 30
0.0
 40
10.5
 41
0.0
 71
     7
 72
     5
  1

1001
ACAD
1000
MTEXTBEGIN
1070
    73
1070
     1
1070
    44
1040
1.0
1070
    74
1070
     0
1000
MTEXTEND
  0
MTEXT
  5
5454
330
1A
100
AcDbEntity
  8
SUNPOU
100
AcDbMText
 10
20795.67658441924
 20
29706.43966165288
 30
0.0
 40
10.5
 41
0.0
 71
     7
 72
     5
  1

1001
ACAD
1000
MTEXTBEGIN
1070
    73
1070
     1
1070
    44
1040
1.0
1070
    74
1070
     0
1000
MTEXTEND
  0
MTEXT
  5
5455
330
1A
100
AcDbEntity
  8
0
100
AcDbMText
 10
16611.93789220314
 20
14707.52144344448
 30
0.0
 40
8.0
 41
0.0
 71
     7
 72
     5
  1

1001
ACAD
1000
MTEXTBEGIN
1070
    73
1070
     1
1070
    44
1040
1.0
1070
    74
1070
     0
1000
MTEXTEND
  0
MTEXT
  5
5456
330
1A
100
AcDbEntity
  8
0
100
AcDbMText
 10
18897.29558209804
 20
15678.31173819554
 30
0.0
 40
8.0
 41
0.0
 71
     7
 72
     5
  1

1001
ACAD
1000
MTEXTBEGIN
1070
    73
1070
     1
1070
    44
1040
1.0
1070
    74
1070
     0
1000
MTEXTEND
  0
MTEXT
  5
5457
330
1A
100
AcDbEntity
  8
SUNPOU
100
AcDbMText
 10
21563.19260278019
 20
25190.42313057066
 30
0.0
 40
10.5
 41
0.0
 71
     1
 72
     5
  1

1001
ACAD
1000
MTEXTBEGIN
1070
    73
1070
     1
1070
    44
1040
1.0
1070
    74
1070
     0
1000
MTEXTEND
  0
MTEXT
  5
5458
330
1A
100
AcDbEntity
  8
SUNPOU
100
AcDbMText
 10
13632.26940684426
 20
24243.6299966577
 30
0.0
 40
10.5
 41
0.0
 71
     7
 72
     5
  1

1001
ACAD
1000
MTEXTBEGIN
1070
    73
1070
     1
1070
    44
1040
1.0
1070
    74
1070
     0
1000
MTEXTEND
  0
MTEXT
  5
5459
330
1A
100
AcDbEntity
  8
SUNPOU
100
AcDbMText
 10
16581.25307135702
 20
29144.30606850055
 30
0.0
 40
10.5
 41
0.0
 71
     7
 72
     5
  1

1001
ACAD
1000
MTEXTBEGIN
1070
    73
1070
     1
1070
    44
1040
1.0
1070
    74
1070
     0
1000
MTEXTEND
  0
MTEXT
  5
545A
330
1A
100
AcDbEntity
  8
SUNPOU
100
AcDbMText
 10
21090.33119930759
 20
31580.60681612062
 30
0.0
 40
10.5
 41
0.0
 71
     7
 72
     5
  1

1001
ACAD
1000
MTEXTBEGIN
1070
    73
1070
     1
1070
    44
1040
1.0
1070
    74
1070
     0
1000
MTEXTEND
  0
MTEXT
  5
545B
330
1A
100
AcDbEntity
  8
0
100
AcDbMText
 10
22871.60517627167
 20
23974.88367124799
 30
0.0
 40
8.0
 41
0.0
 71
     7
 72
     5
  1

1001
ACAD
1000
MTEXTBEGIN
1070
    73
1070
     1
1070
    44
1040
1.0
1070
    74
1070
     0
1000
MTEXTEND
  0
MTEXT
  5
545C
330
1A
100
AcDbEntity
  8
0
100
AcDbMText
 10
25156.96286616657
 20
24945.67396599906
 30
0.0
 40
8.0
 41
0.0
 71
     7
 72
     5
  1

1001
ACAD
1000
MTEXTBEGIN
1070
    73
1070
     1
1070
    44
1040
1.0
1070
    74
1070
     0
1000
MTEXTEND
  0
MTEXT
  5
545D
330
1A
100
AcDbEntity
  8
SUNPOU
100
AcDbMText
 10
27822.85988684871
 20
34457.78535837418
 30
0.0
 40
10.5
 41
0.0
 71
     1
 72
     5
  1

1001
ACAD
1000
MTEXTBEGIN
1070
    73
1070
     1
1070
    44
1040
1.0
1070
    74
1070
     0
1000
MTEXTEND
  0
MTEXT
  5
545E
330
1A
100
AcDbEntity
  8
SUNPOU
100
AcDbMText
 10
19891.93669091278
 20
33510.99222446122
 30
0.0
 40
10.5
 41
0.0
 71
     7
 72
     5
  1

1001
ACAD
1000
MTEXTBEGIN
1070
    73
1070
     1
1070
    44
1040
1.0
1070
    74
1070
     0
1000
MTEXTEND
  0
MTEXT
  5
545F
330
1A
100
AcDbEntity
  8
SUNPOU
100
AcDbMText
 10
22840.92035542555
 20
38411.66829630407
 30
0.0
 40
10.5
 41
0.0
 71
     7
 72
     5
  1

1001
ACAD
1000
MTEXTBEGIN
1070
    73
1070
     1
1070
    44
1040
1.0
1070
    74
1070
     0
1000
MTEXTEND
  0
MTEXT
  5
5460
330
1A
100
AcDbEntity
  8
SUNPOU
100
AcDbMText
 10
27349.99848337611
 20
40847.96904392415
 30
0.0
 40
10.5
 41
0.0
 71
     7
 72
     5
  1

1001
ACAD
1000
MTEXTBEGIN
1070
    73
1070
     1
1070
    44
1040
1.0
1070
    74
1070
     0
1000
MTEXTEND
  0
MTEXT
  5
55B7
330
1A
100
AcDbEntity
  8
SUNPOU
100
AcDbMText
 10
67424.23923338197
 20
64463.86602884816
 30
0.0
 40
10.5
 41
0.0
 71
     9
 72
     5
  1

1001
ACAD
1000
MTEXTBEGIN
1070
    73
1070
     1
1070
    44
1040
1.0
1070
    74
1070
     0
1000
MTEXTEND
  0
MTEXT
  5
55B8
330
1A
100
AcDbEntity
  8
SUNPOU
100
AcDbMText
 10
76146.40679929998
 20
71879.70056038563
 30
0.0
 40
10.5
 41
0.0
 71
     9
 72
     5
  1

1001
ACAD
1000
MTEXTBEGIN
1070
    73
1070
     1
1070
    44
1040
1.0
1070
    74
1070
     0
1000
MTEXTEND
  0
MTEXT
  5
55B9
330
1A
100
AcDbEntity
  8
SUNPOU
100
AcDbMText
 10
95100.16551662994
 20
89346.27661287766
 30
0.0
 40
10.5
 41
0.0
 71
     9
 72
     5
  1

1001
ACAD
1000
MTEXTBEGIN
1070
    73
1070
     1
1070
    44
1040
1.0
1070
    74
1070
     0
1000
MTEXTEND
  0
MTEXT
  5
55BA
330
1A
100
AcDbEntity
  8
SUNPOU
100
AcDbMText
 10
97043.57276333936
 20
87545.22753299966
 30
0.0
 40
3.5
 41
0.0
 71
     9
 72
     5
  1

1001
ACAD
1000
MTEXTBEGIN
1070
    73
1070
     1
1070
    44
1040
1.0
1070
    74
1070
     0
1000
MTEXTEND
  0
MTEXT
  5
55BB
330
1A
100
AcDbEntity
  8
SUNPOU
100
AcDbMText
 10
128169.752595959
 20
130040.1732006569
 30
0.0
 40
10.5
 41
0.0
 71
     9
 72
     5
  1

1001
ACAD
1000
MTEXTBEGIN
1070
    73
1070
     1
1070
    44
1040
1.0
1070
    74
1070
     0
1000
MTEXTEND
  0
MTEXT
  5
55BC
330
1A
100
AcDbEntity
  8
SUNPOU
100
AcDbMText
 10
130113.1598426684
 20
128239.1241207789
 30
0.0
 40
3.5
 41
0.0
 71
     9
 72
     5
  1

1001
ACAD
1000
MTEXTBEGIN
1070
    73
1070
     1
1070
    44
1040
1.0
1070
    74
1070
     0
1000
MTEXTEND
  0
MTEXT
  5
55BD
330
1A
100
AcDbEntity
  8
SUNPOU
100
AcDbMText
 10
78610.02030175463
 20
75873.33835563206
 30
0.0
 40
10.5
 41
0.0
 71
     9
 72
     5
  1

1001
ACAD
1000
MTEXTBEGIN
1070
    73
1070
     1
1070
    44
1040
1.0
1070
    74
1070
     0
1000
MTEXTEND
  0
MTEXT
  5
55BE
330
1A
100
AcDbEntity
  8
SUNPOU
100
AcDbMText
 10
64662.02020137863
 20
56700.93921651987
 30
0.0
 40
3.5
 41
0.0
 71
     7
 72
     5
  1

1001
ACAD
1000
MTEXTBEGIN
1070
    73
1070
     1
1070
    44
1040
1.0
1070
    74
1070
     0
1000
MTEXTEND
  0
MTEXT
  5
55BF
330
1A
100
AcDbEntity
  8
SUNPOU
100
AcDbMText
 10
45647.18959837178
 20
44463.08794733807
 30
0.0
 40
10.5
 41
0.0
 71
     7
 72
     5
  1

1001
ACAD
1000
MTEXTBEGIN
1070
    73
1070
     1
1070
    44
1040
1.0
1070
    74
1070
     0
1000
MTEXTEND
  0
MTEXT
  5
55C0
330
1A
100
AcDbEntity
  8
SUNPOU
100
AcDbMText
 10
33189.96133342368
 20
28618.15636923965
 30
0.0
 40
35.0
 41
0.0
 71
     9
 72
     5
  1

1001
ACAD
1000
MTEXTBEGIN
1070
    73
1070
     1
1070
    44
1040
1.0
1070
    74
1070
     0
1000
MTEXTEND
  0
MTEXT
  5
55C1
330
1A
100
AcDbEntity
  8
SUNPOU
100
AcDbMText
 10
32098.44639099864
 20
29226.93177928835
 30
0.0
 40
350.0000004171781
 41
0.0
 71
     7
 72
     5
  1

1001
ACAD
1000
MTEXTBEGIN
1070
    73
1070
     1
1070
    44
1040
1.0
1070
    74
1070
     0
1000
MTEXTEND
  0
MTEXT
  5
55C2
330
1A
100
AcDbEntity
  8
0
100
AcDbMText
 10
38142.39714894154
 20
27206.85414142458
 30
0.0
 40
8.0
 41
0.0
 71
     7
 72
     5
  1

1001
ACAD
1000
MTEXTBEGIN
1070
    73
1070
     1
1070
    44
1040
1.0
1070
    74
1070
     0
1000
MTEXTEND
  0
MTEXT
  5
55C3
330
1A
100
AcDbEntity
  8
0
100
AcDbMText
 10
40427.75483883644
 20
28177.64443617564
 30
0.0
 40
8.0
 41
0.0
 71
     7
 72
     5
  1

1001
ACAD
1000
MTEXTBEGIN
1070
    73
1070
     1
1070
    44
1040
1.0
1070
    74
1070
     0
1000
MTEXTEND
  0
MTEXT
  5
55C4
330
1A
100
AcDbEntity
  8
SUNPOU
100
AcDbMText
 10
43093.65185951858
 20
37689.75582855077
 30
0.0
 40
10.5
 41
0.0
 71
     1
 72
     5
  1

1001
ACAD
1000
MTEXTBEGIN
1070
    73
1070
     1
1070
    44
1040
1.0
1070
    74
1070
     0
1000
MTEXTEND
  0
MTEXT
  5
55C5
330
1A
100
AcDbEntity
  8
SUNPOU
100
AcDbMText
 10
35162.72866358265
 20
36742.96269463781
 30
0.0
 40
10.5
 41
0.0
 71
     7
 72
     5
  1

1001
ACAD
1000
MTEXTBEGIN
1070
    73
1070
     1
1070
    44
1040
1.0
1070
    74
1070
     0
1000
MTEXTEND
  0
MTEXT
  5
55C6
330
1A
100
AcDbEntity
  8
SUNPOU
100
AcDbMText
 10
38111.71232809542
 20
41643.63876648066
 30
0.0
 40
10.5
 41
0.0
 71
     7
 72
     5
  1

1001
ACAD
1000
MTEXTBEGIN
1070
    73
1070
     1
1070
    44
1040
1.0
1070
    74
1070
     0
1000
MTEXTEND
  0
MTEXT
  5
55C7
330
1A
100
AcDbEntity
  8
SUNPOU
100
AcDbMText
 10
42620.79045604597
 20
44079.93951410074
 30
0.0
 40
10.5
 41
0.0
 71
     7
 72
     5
  1

1001
ACAD
1000
MTEXTBEGIN
1070
    73
1070
     1
1070
    44
1040
1.0
1070
    74
1070
     0
1000
MTEXTEND
  0
MTEXT
  5
55C8
330
1A
100
AcDbEntity
  8
SUNPOU
100
AcDbMText
 10
26221.62834281429
 20
23077.53566448964
 30
0.0
 40
10.5
 41
0.0
 71
     7
 72
     5
  1

1001
ACAD
1000
MTEXTBEGIN
1070
    73
1070
     1
1070
    44
1040
1.0
1070
    74
1070
     0
1000
MTEXTEND
  0
MTEXT
  5
55C9
330
1A
100
AcDbEntity
  8
SUNPOU
100
AcDbMText
 10
77413.14677671455
 20
68750.51622813789
 30
0.0
 40
10.5
 41
0.0
 71
     9
 72
     5
  1

1001
ACAD
1000
MTEXTBEGIN
1070
    73
1070
     1
1070
    44
1040
1.0
1070
    74
1070
     0
1000
MTEXTEND
  0
MTEXT
  5
55CA
330
1A
100
AcDbEntity
  8
SUNPOU
100
AcDbMText
 10
86135.31434263256
 20
76166.35075967536
 30
0.0
 40
10.5
 41
0.0
 71
     9
 72
     5
  1

1001
ACAD
1000
MTEXTBEGIN
1070
    73
1070
     1
1070
    44
1040
1.0
1070
    74
1070
     0
1000
MTEXTEND
  0
MTEXT
  5
55CB
330
1A
100
AcDbEntity
  8
SUNPOU
100
AcDbMText
 10
105089.0730599625
 20
93632.92681216739
 30
0.0
 40
10.5
 41
0.0
 71
     9
 72
     5
  1

1001
ACAD
1000
MTEXTBEGIN
1070
    73
1070
     1
1070
    44
1040
1.0
1070
    74
1070
     0
1000
MTEXTEND
  0
MTEXT
  5
55CC
330
1A
100
AcDbEntity
  8
SUNPOU
100
AcDbMText
 10
107032.4803066719
 20
91831.8777322894
 30
0.0
 40
3.5
 41
0.0
 71
     9
 72
     5
  1

1001
ACAD
1000
MTEXTBEGIN
1070
    73
1070
     1
1070
    44
1040
1.0
1070
    74
1070
     0
1000
MTEXTEND
  0
MTEXT
  5
55CD
330
1A
100
AcDbEntity
  8
SUNPOU
100
AcDbMText
 10
138158.6601392916
 20
134326.8233999467
 30
0.0
 40
10.5
 41
0.0
 71
     9
 72
     5
  1

1001
ACAD
1000
MTEXTBEGIN
1070
    73
1070
     1
1070
    44
1040
1.0
1070
    74
1070
     0
1000
MTEXTEND
  0
MTEXT
  5
55CE
330
1A
100
AcDbEntity
  8
SUNPOU
100
AcDbMText
 10
140102.067386001
 20
132525.7743200686
 30
0.0
 40
3.5
 41
0.0
 71
     9
 72
     5
  1

1001
ACAD
1000
MTEXTBEGIN
1070
    73
1070
     1
1070
    44
1040
1.0
1070
    74
1070
     0
1000
MTEXTEND
  0
MTEXT
  5
55CF
330
1A
100
AcDbEntity
  8
SUNPOU
100
AcDbMText
 10
88598.92784508721
 20
80159.98855492179
 30
0.0
 40
10.5
 41
0.0
 71
     9
 72
     5
  1

1001
ACAD
1000
MTEXTBEGIN
1070
    73
1070
     1
1070
    44
1040
1.0
1070
    74
1070
     0
1000
MTEXTEND
  0
MTEXT
  5
55D0
330
1A
100
AcDbEntity
  8
SUNPOU
100
AcDbMText
 10
74650.92774471121
 20
60987.5894158096
 30
0.0
 40
3.5
 41
0.0
 71
     7
 72
     5
  1

1001
ACAD
1000
MTEXTBEGIN
1070
    73
1070
     1
1070
    44
1040
1.0
1070
    74
1070
     0
1000
MTEXTEND
  0
MTEXT
  5
55D1
330
1A
100
AcDbEntity
  8
SUNPOU
100
AcDbMText
 10
55636.09714170436
 20
48749.73814662781
 30
0.0
 40
10.5
 41
0.0
 71
     7
 72
     5
  1

1001
ACAD
1000
MTEXTBEGIN
1070
    73
1070
     1
1070
    44
1040
1.0
1070
    74
1070
     0
1000
MTEXTEND
  0
MTEXT
  5
55D2
330
1A
100
AcDbEntity
  8
SUNPOU
100
AcDbMText
 10
43178.86887675626
 20
32904.80656852938
 30
0.0
 40
35.0
 41
0.0
 71
     9
 72
     5
  1

1001
ACAD
1000
MTEXTBEGIN
1070
    73
1070
     1
1070
    44
1040
1.0
1070
    74
1070
     0
1000
MTEXTEND
  0
MTEXT
  5
55D3
330
1A
100
AcDbEntity
  8
SUNPOU
100
AcDbMText
 10
42087.35393433121
 20
33513.58197857809
 30
0.0
 40
350.0000004171781
 41
0.0
 71
     7
 72
     5
  1

1001
ACAD
1000
MTEXTBEGIN
1070
    73
1070
     1
1070
    44
1040
1.0
1070
    74
1070
     0
1000
MTEXTEND
  0
MTEXT
  5
55D4
330
1A
100
AcDbEntity
  8
0
100
AcDbMText
 10
48131.30469227412
 20
31493.50434071431
 30
0.0
 40
8.0
 41
0.0
 71
     7
 72
     5
  1

1001
ACAD
1000
MTEXTBEGIN
1070
    73
1070
     1
1070
    44
1040
1.0
1070
    74
1070
     0
1000
MTEXTEND
  0
MTEXT
  5
55D5
330
1A
100
AcDbEntity
  8
0
100
AcDbMText
 10
50416.66238216901
 20
32464.29463546537
 30
0.0
 40
8.0
 41
0.0
 71
     7
 72
     5
  1

1001
ACAD
1000
MTEXTBEGIN
1070
    73
1070
     1
1070
    44
1040
1.0
1070
    74
1070
     0
1000
MTEXTEND
  0
MTEXT
  5
55D6
330
1A
100
AcDbEntity
  8
SUNPOU
100
AcDbMText
 10
53082.55940285115
 20
41976.4060278405
 30
0.0
 40
10.5
 41
0.0
 71
     1
 72
     5
  1

1001
ACAD
1000
MTEXTBEGIN
1070
    73
1070
     1
1070
    44
1040
1.0
1070
    74
1070
     0
1000
MTEXTEND
  0
MTEXT
  5
55D7
330
1A
100
AcDbEntity
  8
SUNPOU
100
AcDbMText
 10
45151.63620691522
 20
41029.61289392755
 30
0.0
 40
10.5
 41
0.0
 71
     7
 72
     5
  1

1001
ACAD
1000
MTEXTBEGIN
1070
    73
1070
     1
1070
    44
1040
1.0
1070
    74
1070
     0
1000
MTEXTEND
  0
MTEXT
  5
55D8
330
1A
100
AcDbEntity
  8
SUNPOU
100
AcDbMText
 10
48100.61987142798
 20
45930.28896577039
 30
0.0
 40
10.5
 41
0.0
 71
     7
 72
     5
  1

1001
ACAD
1000
MTEXTBEGIN
1070
    73
1070
     1
1070
    44
1040
1.0
1070
    74
1070
     0
1000
MTEXTEND
  0
MTEXT
  5
55D9
330
1A
100
AcDbEntity
  8
SUNPOU
100
AcDbMText
 10
52609.69799937854
 20
48366.58971339046
 30
0.0
 40
10.5
 41
0.0
 71
     7
 72
     5
  1

1001
ACAD
1000
MTEXTBEGIN
1070
    73
1070
     1
1070
    44
1040
1.0
1070
    74
1070
     0
1000
MTEXTEND
  0
MTEXT
  5
55DA
330
1A
100
AcDbEntity
  8
SUNPOU
100
AcDbMText
 10
36210.53588614687
 20
27364.18586377937
 30
0.0
 40
10.5
 41
0.0
 71
     7
 72
     5
  1

1001
ACAD
1000
MTEXTBEGIN
1070
    73
1070
     1
1070
    44
1040
1.0
1070
    74
1070
     0
1000
MTEXTEND
  0
MTEXT
  5
55DB
330
1A
100
AcDbEntity
  8
SUNPOU
100
AcDbMText
 10
38021.29879752181
 20
33691.59985125794
 30
0.0
 40
10.5
 41
0.0
 71
     9
 72
     5
  1

1001
ACAD
1000
MTEXTBEGIN
1070
    73
1070
     1
1070
    44
1040
1.0
1070
    74
1070
     0
1000
MTEXTEND
  0
MTEXT
  5
55DC
330
1A
100
AcDbEntity
  8
SUNPOU
100
AcDbMText
 10
46743.46636343979
 20
41107.43438279541
 30
0.0
 40
10.5
 41
0.0
 71
     9
 72
     5
  1

1001
ACAD
1000
MTEXTBEGIN
1070
    73
1070
     1
1070
    44
1040
1.0
1070
    74
1070
     0
1000
MTEXTEND
  0
MTEXT
  5
55DD
330
1A
100
AcDbEntity
  8
SUNPOU
100
AcDbMText
 10
65697.22508076975
 20
58574.01043528746
 30
0.0
 40
10.5
 41
0.0
 71
     9
 72
     5
  1

1001
ACAD
1000
MTEXTBEGIN
1070
    73
1070
     1
1070
    44
1040
1.0
1070
    74
1070
     0
1000
MTEXTEND
  0
MTEXT
  5
55DE
330
1A
100
AcDbEntity
  8
SUNPOU
100
AcDbMText
 10
67640.63232747917
 20
56772.96135540945
 30
0.0
 40
3.5
 41
0.0
 71
     9
 72
     5
  1

1001
ACAD
1000
MTEXTBEGIN
1070
    73
1070
     1
1070
    44
1040
1.0
1070
    74
1070
     0
1000
MTEXTEND
  0
MTEXT
  5
55DF
330
1A
100
AcDbEntity
  8
SUNPOU
100
AcDbMText
 10
98766.81216009888
 20
99267.9070230668
 30
0.0
 40
10.5
 41
0.0
 71
     9
 72
     5
  1

1001
ACAD
1000
MTEXTBEGIN
1070
    73
1070
     1
1070
    44
1040
1.0
1070
    74
1070
     0
1000
MTEXTEND
  0
MTEXT
  5
55E0
330
1A
100
AcDbEntity
  8
SUNPOU
100
AcDbMText
 10
100710.2194068083
 20
97466.85794318878
 30
0.0
 40
3.5
 41
0.0
 71
     9
 72
     5
  1

1001
ACAD
1000
MTEXTBEGIN
1070
    73
1070
     1
1070
    44
1040
1.0
1070
    74
1070
     0
1000
MTEXTEND
  0
MTEXT
  5
55E1
330
1A
100
AcDbEntity
  8
SUNPOU
100
AcDbMText
 10
49207.07986589444
 20
45101.07217804185
 30
0.0
 40
10.5
 41
0.0
 71
     9
 72
     5
  1

1001
ACAD
1000
MTEXTBEGIN
1070
    73
1070
     1
1070
    44
1040
1.0
1070
    74
1070
     0
1000
MTEXTEND
  0
MTEXT
  5
55E2
330
1A
100
AcDbEntity
  8
SUNPOU
100
AcDbMText
 10
35259.07976551845
 20
25928.67303892964
 30
0.0
 40
3.5
 41
0.0
 71
     7
 72
     5
  1

1001
ACAD
1000
MTEXTBEGIN
1070
    73
1070
     1
1070
    44
1040
1.0
1070
    74
1070
     0
1000
MTEXTEND
  0
MTEXT
  5
55E3
330
1A
100
AcDbEntity
  8
SUNPOU
100
AcDbMText
 10
48951.43044828905
 20
35287.73625995099
 30
0.0
 40
10.5
 41
0.0
 71
     9
 72
     5
  1

1001
ACAD
1000
MTEXTBEGIN
1070
    73
1070
     1
1070
    44
1040
1.0
1070
    74
1070
     0
1000
MTEXTEND
  0
MTEXT
  5
55E4
330
1A
100
AcDbEntity
  8
SUNPOU
100
AcDbMText
 10
57673.59801420702
 20
42703.57079148847
 30
0.0
 40
10.5
 41
0.0
 71
     9
 72
     5
  1

1001
ACAD
1000
MTEXTBEGIN
1070
    73
1070
     1
1070
    44
1040
1.0
1070
    74
1070
     0
1000
MTEXTEND
  0
MTEXT
  5
55E5
330
1A
100
AcDbEntity
  8
SUNPOU
100
AcDbMText
 10
76627.35673153699
 20
60170.14684398051
 30
0.0
 40
10.5
 41
0.0
 71
     9
 72
     5
  1

1001
ACAD
1000
MTEXTBEGIN
1070
    73
1070
     1
1070
    44
1040
1.0
1070
    74
1070
     0
1000
MTEXTEND
  0
MTEXT
  5
55E6
330
1A
100
AcDbEntity
  8
SUNPOU
100
AcDbMText
 10
78570.76397824641
 20
58369.09776410251
 30
0.0
 40
3.5
 41
0.0
 71
     9
 72
     5
  1

1001
ACAD
1000
MTEXTBEGIN
1070
    73
1070
     1
1070
    44
1040
1.0
1070
    74
1070
     0
1000
MTEXTEND
  0
MTEXT
  5
55E7
330
1A
100
AcDbEntity
  8
SUNPOU
100
AcDbMText
 10
109696.9438108661
 20
100864.0434317598
 30
0.0
 40
10.5
 41
0.0
 71
     9
 72
     5
  1

1001
ACAD
1000
MTEXTBEGIN
1070
    73
1070
     1
1070
    44
1040
1.0
1070
    74
1070
     0
1000
MTEXTEND
  0
MTEXT
  5
55E8
330
1A
100
AcDbEntity
  8
SUNPOU
100
AcDbMText
 10
111640.3510575755
 20
99062.99435188183
 30
0.0
 40
3.5
 41
0.0
 71
     9
 72
     5
  1

1001
ACAD
1000
MTEXTBEGIN
1070
    73
1070
     1
1070
    44
1040
1.0
1070
    74
1070
     0
1000
MTEXTEND
  0
MTEXT
  5
55E9
330
1A
100
AcDbEntity
  8
SUNPOU
100
AcDbMText
 10
60137.21151666167
 20
46697.20858673491
 30
0.0
 40
10.5
 41
0.0
 71
     9
 72
     5
  1

1001
ACAD
1000
MTEXTBEGIN
1070
    73
1070
     1
1070
    44
1040
1.0
1070
    74
1070
     0
1000
MTEXTEND
  0
MTEXT
  5
55EA
330
1A
100
AcDbEntity
  8
SUNPOU
100
AcDbMText
 10
46189.21141628568
 20
27524.80944762269
 30
0.0
 40
3.5
 41
0.0
 71
     7
 72
     5
  1

1001
ACAD
1000
MTEXTBEGIN
1070
    73
1070
     1
1070
    44
1040
1.0
1070
    74
1070
     0
1000
MTEXTEND
  0
MTEXT
  5
55EB
330
1A
100
AcDbEntity
  8
SUNPOU
100
AcDbMText
 10
45007.68847015541
 20
38269.57947701874
 30
0.0
 40
10.5
 41
0.0
 71
     9
 72
     5
  1

1001
ACAD
1000
MTEXTBEGIN
1070
    73
1070
     1
1070
    44
1040
1.0
1070
    74
1070
     0
1000
MTEXTEND
  0
MTEXT
  5
55EC
330
1A
100
AcDbEntity
  8
SUNPOU
100
AcDbMText
 10
63961.44718748539
 20
55736.15552951081
 30
0.0
 40
10.5
 41
0.0
 71
     9
 72
     5
  1

1001
ACAD
1000
MTEXTBEGIN
1070
    73
1070
     1
1070
    44
1040
1.0
1070
    74
1070
     0
1000
MTEXTEND
  0
MTEXT
  5
55ED
330
1A
100
AcDbEntity
  8
SUNPOU
100
AcDbMText
 10
65904.85443419479
 20
53935.10644963279
 30
0.0
 40
3.5
 41
0.0
 71
     9
 72
     5
  1

1001
ACAD
1000
MTEXTBEGIN
1070
    73
1070
     1
1070
    44
1040
1.0
1070
    74
1070
     0
1000
MTEXTEND
  0
MTEXT
  5
55EE
330
1A
100
AcDbEntity
  8
SUNPOU
100
AcDbMText
 10
97031.03426681451
 20
96430.05211729015
 30
0.0
 40
10.5
 41
0.0
 71
     9
 72
     5
  1

1001
ACAD
1000
MTEXTBEGIN
1070
    73
1070
     1
1070
    44
1040
1.0
1070
    74
1070
     0
1000
MTEXTEND
  0
MTEXT
  5
55EF
330
1A
100
AcDbEntity
  8
SUNPOU
100
AcDbMText
 10
98974.44151352393
 20
94629.00303741212
 30
0.0
 40
3.5
 41
0.0
 71
     9
 72
     5
  1

1001
ACAD
1000
MTEXTBEGIN
1070
    73
1070
     1
1070
    44
1040
1.0
1070
    74
1070
     0
1000
MTEXTEND
  0
MTEXT
  5
55F0
330
1A
100
AcDbEntity
  8
SUNPOU
100
AcDbMText
 10
47471.30197261006
 20
42263.21727226519
 30
0.0
 40
10.5
 41
0.0
 71
     9
 72
     5
  1

1001
ACAD
1000
MTEXTBEGIN
1070
    73
1070
     1
1070
    44
1040
1.0
1070
    74
1070
     0
1000
MTEXTEND
  0
MTEXT
  5
55F1
330
1A
100
AcDbEntity
  8
SUNPOU
100
AcDbMText
 10
33523.30187223408
 20
23090.81813315298
 30
0.0
 40
3.5
 41
0.0
 71
     7
 72
     5
  1

1001
ACAD
1000
MTEXTBEGIN
1070
    73
1070
     1
1070
    44
1040
1.0
1070
    74
1070
     0
1000
MTEXTEND
  0
MTEXT
  5
55F2
330
1A
100
AcDbEntity
  8
SUNPOU
100
AcDbMText
 10
57959.46254102503
 20
50038.08111611015
 30
0.0
 40
10.5
 41
0.0
 71
     9
 72
     5
  1

1001
ACAD
1000
MTEXTBEGIN
1070
    73
1070
     1
1070
    44
1040
1.0
1070
    74
1070
     0
1000
MTEXTEND
  0
MTEXT
  5
55F3
330
1A
100
AcDbEntity
  8
SUNPOU
100
AcDbMText
 10
76913.22125835503
 20
67504.65716860222
 30
0.0
 40
10.5
 41
0.0
 71
     9
 72
     5
  1

1001
ACAD
1000
MTEXTBEGIN
1070
    73
1070
     1
1070
    44
1040
1.0
1070
    74
1070
     0
1000
MTEXTEND
  0
MTEXT
  5
55F4
330
1A
100
AcDbEntity
  8
SUNPOU
100
AcDbMText
 10
78856.62850506443
 20
65703.6080887242
 30
0.0
 40
3.5
 41
0.0
 71
     9
 72
     5
  1

1001
ACAD
1000
MTEXTBEGIN
1070
    73
1070
     1
1070
    44
1040
1.0
1070
    74
1070
     0
1000
MTEXTEND
  0
MTEXT
  5
55F5
330
1A
100
AcDbEntity
  8
SUNPOU
100
AcDbMText
 10
109982.8083376841
 20
108198.5537563815
 30
0.0
 40
10.5
 41
0.0
 71
     9
 72
     5
  1

1001
ACAD
1000
MTEXTBEGIN
1070
    73
1070
     1
1070
    44
1040
1.0
1070
    74
1070
     0
1000
MTEXTEND
  0
MTEXT
  5
55F6
330
1A
100
AcDbEntity
  8
SUNPOU
100
AcDbMText
 10
111926.2155843935
 20
106397.5046765035
 30
0.0
 40
3.5
 41
0.0
 71
     9
 72
     5
  1

1001
ACAD
1000
MTEXTBEGIN
1070
    73
1070
     1
1070
    44
1040
1.0
1070
    74
1070
     0
1000
MTEXTEND
  0
MTEXT
  5
55F7
330
1A
100
AcDbEntity
  8
SUNPOU
100
AcDbMText
 10
60423.07604347968
 20
54031.71891135659
 30
0.0
 40
10.5
 41
0.0
 71
     9
 72
     5
  1

1001
ACAD
1000
MTEXTBEGIN
1070
    73
1070
     1
1070
    44
1040
1.0
1070
    74
1070
     0
1000
MTEXTEND
  0
MTEXT
  5
55F8
330
1A
100
AcDbEntity
  8
SUNPOU
100
AcDbMText
 10
46475.07594310369
 20
34859.3197722444
 30
0.0
 40
3.5
 41
0.0
 71
     7
 72
     5
  1

1001
ACAD
1000
MTEXTBEGIN
1070
    73
1070
     1
1070
    44
1040
1.0
1070
    74
1070
     0
1000
MTEXTEND
  0
MTEXT
  5
55F9
330
1A
100
AcDbEntity
  8
SUNPOU
100
AcDbMText
 10
74027.35402123588
 20
68370.58278833383
 30
0.0
 40
10.5
 41
0.0
 71
     9
 72
     5
  1

1001
ACAD
1000
MTEXTBEGIN
1070
    73
1070
     1
1070
    44
1040
1.0
1070
    74
1070
     0
1000
MTEXTEND
  0
MTEXT
  5
55FA
330
1A
100
AcDbEntity
  8
SUNPOU
100
AcDbMText
 10
75970.7612679453
 20
66569.53370845583
 30
0.0
 40
3.5
 41
0.0
 71
     9
 72
     5
  1

1001
ACAD
1000
MTEXTBEGIN
1070
    73
1070
     1
1070
    44
1040
1.0
1070
    74
1070
     0
1000
MTEXTEND
  0
MTEXT
  5
55FB
330
1A
100
AcDbEntity
  8
SUNPOU
100
AcDbMText
 10
107096.941100565
 20
109064.4793761132
 30
0.0
 40
10.5
 41
0.0
 71
     9
 72
     5
  1

1001
ACAD
1000
MTEXTBEGIN
1070
    73
1070
     1
1070
    44
1040
1.0
1070
    74
1070
     0
1000
MTEXTEND
  0
MTEXT
  5
55FC
330
1A
100
AcDbEntity
  8
SUNPOU
100
AcDbMText
 10
109040.3483472744
 20
107263.4302962351
 30
0.0
 40
3.5
 41
0.0
 71
     9
 72
     5
  1

1001
ACAD
1000
MTEXTBEGIN
1070
    73
1070
     1
1070
    44
1040
1.0
1070
    74
1070
     0
1000
MTEXTEND
  0
MTEXT
  5
55FD
330
1A
100
AcDbEntity
  8
SUNPOU
100
AcDbMText
 10
105709.1709283621
 20
108141.3777665285
 30
0.0
 40
10.5
 41
0.0
 71
     9
 72
     5
  1

1001
ACAD
1000
MTEXTBEGIN
1070
    73
1070
     1
1070
    44
1040
1.0
1070
    74
1070
     0
1000
MTEXTEND
  0
MTEXT
  5
55FE
330
1A
100
AcDbEntity
  8
SUNPOU
100
AcDbMText
 10
107652.5781750715
 20
106340.3286866505
 30
0.0
 40
3.5
 41
0.0
 71
     9
 72
     5
  1

1001
ACAD
1000
MTEXTBEGIN
1070
    73
1070
     1
1070
    44
1040
1.0
1070
    74
1070
     0
1000
MTEXTEND
  0
MTEXT
  5
55FF
330
1A
100
AcDbEntity
  8
SUNPOU
100
AcDbMText
 10
73193.09268743351
 20
66158.78082845056
 30
0.0
 40
10.5
 41
0.0
 71
     9
 72
     5
  1

1001
ACAD
1000
MTEXTBEGIN
1070
    73
1070
     1
1070
    44
1040
1.0
1070
    74
1070
     0
1000
MTEXTEND
  0
MTEXT
  5
5600
330
1A
100
AcDbEntity
  8
SUNPOU
100
AcDbMText
 10
75916.39889159806
 20
66563.46252003162
 30
0.0
 40
3.5
 41
0.0
 71
     9
 72
     5
  1

1001
ACAD
1000
MTEXTBEGIN
1070
    73
1070
     1
1070
    44
1040
1.0
1070
    74
1070
     0
1000
MTEXTEND
  0
MTEXT
  5
5601
330
1A
100
AcDbEntity
  8
SUNPOU
100
AcDbMText
 10
75124.04436649058
 20
63402.1566819768
 30
0.0
 40
10.5
 41
0.0
 71
     9
 72
     5
  1

1001
ACAD
1000
MTEXTBEGIN
1070
    73
1070
     1
1070
    44
1040
1.0
1070
    74
1070
     0
1000
MTEXTEND
  0
MTEXT
  5
5602
330
1A
100
AcDbEntity
  8
SUNPOU
100
AcDbMText
 10
77067.4516132
 20
61601.1076020988
 30
0.0
 40
3.5
 41
0.0
 71
     9
 72
     5
  1

1001
ACAD
1000
MTEXTBEGIN
1070
    73
1070
     1
1070
    44
1040
1.0
1070
    74
1070
     0
1000
MTEXTEND
  0
MTEXT
  5
5603
330
1A
100
AcDbEntity
  8
SUNPOU
100
AcDbMText
 10
77012.54710378659
 20
61488.33571981449
 30
0.0
 40
3.5
 41
0.0
 71
     9
 72
     5
  1

1001
ACAD
1000
MTEXTBEGIN
1070
    73
1070
     1
1070
    44
1040
1.0
1070
    74
1070
     0
1000
MTEXTEND
  0
MTEXT
  5
5604
330
1A
100
AcDbEntity
  8
SUNPOU
100
AcDbMText
 10
76376.61896736668
 20
60677.01447874797
 30
0.0
 40
3.5
 41
0.0
 71
     9
 72
     5
  1

1001
ACAD
1000
MTEXTBEGIN
1070
    73
1070
     1
1070
    44
1040
1.0
1070
    74
1070
     0
1000
MTEXTEND
  0
MTEXT
  5
5605
330
1A
100
AcDbEntity
  8
SUNPOU
100
AcDbMText
 10
76375.37854794595
 20
60676.76650181047
 30
0.0
 40
10.5
 41
0.0
 71
     9
 72
     5
  1

1001
ACAD
1000
MTEXTBEGIN
1070
    73
1070
     1
1070
    44
1040
1.0
1070
    74
1070
     0
1000
MTEXTEND
  0
MTEXT
  5
5606
330
1A
100
AcDbEntity
  8
SUNPOU
100
AcDbMText
 10
84709.93991079748
 20
78034.0328293557
 30
0.0
 40
10.5
 41
0.0
 71
     9
 72
     5
  1

1001
ACAD
1000
MTEXTBEGIN
1070
    73
1070
     1
1070
    44
1040
1.0
1070
    74
1070
     0
1000
MTEXTEND
  0
MTEXT
  5
5607
330
1A
100
AcDbEntity
  8
SUNPOU
100
AcDbMText
 10
93432.10747671548
 20
85449.86736089315
 30
0.0
 40
10.5
 41
0.0
 71
     9
 72
     5
  1

1001
ACAD
1000
MTEXTBEGIN
1070
    73
1070
     1
1070
    44
1040
1.0
1070
    74
1070
     0
1000
MTEXTEND
  0
MTEXT
  5
5608
330
1A
100
AcDbEntity
  8
SUNPOU
100
AcDbMText
 10
112385.8661940454
 20
102916.4434133851
 30
0.0
 40
10.5
 41
0.0
 71
     9
 72
     5
  1

1001
ACAD
1000
MTEXTBEGIN
1070
    73
1070
     1
1070
    44
1040
1.0
1070
    74
1070
     0
1000
MTEXTEND
  0
MTEXT
  5
5609
330
1A
100
AcDbEntity
  8
SUNPOU
100
AcDbMText
 10
114329.2734407548
 20
101115.3943335072
 30
0.0
 40
3.5
 41
0.0
 71
     9
 72
     5
  1

1001
ACAD
1000
MTEXTBEGIN
1070
    73
1070
     1
1070
    44
1040
1.0
1070
    74
1070
     0
1000
MTEXTEND
  0
MTEXT
  5
560A
330
1A
100
AcDbEntity
  8
SUNPOU
100
AcDbMText
 10
145455.4532733745
 20
143610.3400011645
 30
0.0
 40
10.5
 41
0.0
 71
     9
 72
     5
  1

1001
ACAD
1000
MTEXTBEGIN
1070
    73
1070
     1
1070
    44
1040
1.0
1070
    74
1070
     0
1000
MTEXTEND
  0
MTEXT
  5
560B
330
1A
100
AcDbEntity
  8
SUNPOU
100
AcDbMText
 10
147398.8605200839
 20
141809.2909212864
 30
0.0
 40
3.5
 41
0.0
 71
     9
 72
     5
  1

1001
ACAD
1000
MTEXTBEGIN
1070
    73
1070
     1
1070
    44
1040
1.0
1070
    74
1070
     0
1000
MTEXTEND
  0
MTEXT
  5
560C
330
1A
100
AcDbEntity
  8
SUNPOU
100
AcDbMText
 10
95895.72097917013
 20
89443.5051561396
 30
0.0
 40
10.5
 41
0.0
 71
     9
 72
     5
  1

1001
ACAD
1000
MTEXTBEGIN
1070
    73
1070
     1
1070
    44
1040
1.0
1070
    74
1070
     0
1000
MTEXTEND
  0
MTEXT
  5
560D
330
1A
100
AcDbEntity
  8
SUNPOU
100
AcDbMText
 10
81947.72087879414
 20
70271.1060170274
 30
0.0
 40
3.5
 41
0.0
 71
     7
 72
     5
  1

1001
ACAD
1000
MTEXTBEGIN
1070
    73
1070
     1
1070
    44
1040
1.0
1070
    74
1070
     0
1000
MTEXTEND
  0
MTEXT
  5
560E
330
1A
100
AcDbEntity
  8
SUNPOU
100
AcDbMText
 10
62932.89027578729
 20
58033.25474784561
 30
0.0
 40
10.5
 41
0.0
 71
     7
 72
     5
  1

1001
ACAD
1000
MTEXTBEGIN
1070
    73
1070
     1
1070
    44
1040
1.0
1070
    74
1070
     0
1000
MTEXTEND
  0
MTEXT
  5
560F
330
1A
100
AcDbEntity
  8
SUNPOU
100
AcDbMText
 10
50475.66201083918
 20
42188.32316974719
 30
0.0
 40
35.0
 41
0.0
 71
     9
 72
     5
  1

1001
ACAD
1000
MTEXTBEGIN
1070
    73
1070
     1
1070
    44
1040
1.0
1070
    74
1070
     0
1000
MTEXTEND
  0
MTEXT
  5
5610
330
1A
100
AcDbEntity
  8
SUNPOU
100
AcDbMText
 10
49384.14706841413
 20
42797.0985797959
 30
0.0
 40
350.0000004171781
 41
0.0
 71
     7
 72
     5
  1

1001
ACAD
1000
MTEXTBEGIN
1070
    73
1070
     1
1070
    44
1040
1.0
1070
    74
1070
     0
1000
MTEXTEND
  0
MTEXT
  5
5611
330
1A
100
AcDbEntity
  8
0
100
AcDbMText
 10
55428.09782635704
 20
40777.02094193211
 30
0.0
 40
8.0
 41
0.0
 71
     7
 72
     5
  1

1001
ACAD
1000
MTEXTBEGIN
1070
    73
1070
     1
1070
    44
1040
1.0
1070
    74
1070
     0
1000
MTEXTEND
  0
MTEXT
  5
5612
330
1A
100
AcDbEntity
  8
0
100
AcDbMText
 10
57713.45551625194
 20
41747.81123668317
 30
0.0
 40
8.0
 41
0.0
 71
     7
 72
     5
  1

1001
ACAD
1000
MTEXTBEGIN
1070
    73
1070
     1
1070
    44
1040
1.0
1070
    74
1070
     0
1000
MTEXTEND
  0
MTEXT
  5
5613
330
1A
100
AcDbEntity
  8
SUNPOU
100
AcDbMText
 10
60379.35253693408
 20
51259.9226290583
 30
0.0
 40
10.5
 41
0.0
 71
     1
 72
     5
  1

1001
ACAD
1000
MTEXTBEGIN
1070
    73
1070
     1
1070
    44
1040
1.0
1070
    74
1070
     0
1000
MTEXTEND
  0
MTEXT
  5
5614
330
1A
100
AcDbEntity
  8
SUNPOU
100
AcDbMText
 10
52448.42934099814
 20
50313.12949514535
 30
0.0
 40
10.5
 41
0.0
 71
     7
 72
     5
  1

1001
ACAD
1000
MTEXTBEGIN
1070
    73
1070
     1
1070
    44
1040
1.0
1070
    74
1070
     0
1000
MTEXTEND
  0
MTEXT
  5
5615
330
1A
100
AcDbEntity
  8
SUNPOU
100
AcDbMText
 10
55397.41300551091
 20
55213.80556698819
 30
0.0
 40
10.5
 41
0.0
 71
     7
 72
     5
  1

1001
ACAD
1000
MTEXTBEGIN
1070
    73
1070
     1
1070
    44
1040
1.0
1070
    74
1070
     0
1000
MTEXTEND
  0
MTEXT
  5
5616
330
1A
100
AcDbEntity
  8
SUNPOU
100
AcDbMText
 10
59906.49113346147
 20
57650.10631460826
 30
0.0
 40
10.5
 41
0.0
 71
     7
 72
     5
  1

1001
ACAD
1000
MTEXTBEGIN
1070
    73
1070
     1
1070
    44
1040
1.0
1070
    74
1070
     0
1000
MTEXTEND
  0
MTEXT
  5
5617
330
1A
100
AcDbEntity
  8
SUNPOU
100
AcDbMText
 10
43507.32902022979
 20
36647.70246499718
 30
0.0
 40
10.5
 41
0.0
 71
     7
 72
     5
  1

1001
ACAD
1000
MTEXTBEGIN
1070
    73
1070
     1
1070
    44
1040
1.0
1070
    74
1070
     0
1000
MTEXTEND
  0
MTEXT
  5
5618
330
1A
100
AcDbEntity
  8
SUNPOU
100
AcDbMText
 10
94698.84745413006
 20
82320.68302864542
 30
0.0
 40
10.5
 41
0.0
 71
     9
 72
     5
  1

1001
ACAD
1000
MTEXTBEGIN
1070
    73
1070
     1
1070
    44
1040
1.0
1070
    74
1070
     0
1000
MTEXTEND
  0
MTEXT
  5
5619
330
1A
100
AcDbEntity
  8
SUNPOU
100
AcDbMText
 10
103421.015020048
 20
89736.5175601829
 30
0.0
 40
10.5
 41
0.0
 71
     9
 72
     5
  1

1001
ACAD
1000
MTEXTBEGIN
1070
    73
1070
     1
1070
    44
1040
1.0
1070
    74
1070
     0
1000
MTEXTEND
  0
MTEXT
  5
561A
330
1A
100
AcDbEntity
  8
SUNPOU
100
AcDbMText
 10
122374.773737378
 20
107203.0936126749
 30
0.0
 40
10.5
 41
0.0
 71
     9
 72
     5
  1

1001
ACAD
1000
MTEXTBEGIN
1070
    73
1070
     1
1070
    44
1040
1.0
1070
    74
1070
     0
1000
MTEXTEND
  0
MTEXT
  5
561B
330
1A
100
AcDbEntity
  8
SUNPOU
100
AcDbMText
 10
124318.1809840874
 20
105402.0445327969
 30
0.0
 40
3.5
 41
0.0
 71
     9
 72
     5
  1

1001
ACAD
1000
MTEXTBEGIN
1070
    73
1070
     1
1070
    44
1040
1.0
1070
    74
1070
     0
1000
MTEXTEND
  0
MTEXT
  5
561C
330
1A
100
AcDbEntity
  8
SUNPOU
100
AcDbMText
 10
155444.3608167071
 20
147896.9902004542
 30
0.0
 40
10.5
 41
0.0
 71
     9
 72
     5
  1

1001
ACAD
1000
MTEXTBEGIN
1070
    73
1070
     1
1070
    44
1040
1.0
1070
    74
1070
     0
1000
MTEXTEND
  0
MTEXT
  5
561D
330
1A
100
AcDbEntity
  8
SUNPOU
100
AcDbMText
 10
157387.7680634165
 20
146095.9411205762
 30
0.0
 40
3.5
 41
0.0
 71
     9
 72
     5
  1

1001
ACAD
1000
MTEXTBEGIN
1070
    73
1070
     1
1070
    44
1040
1.0
1070
    74
1070
     0
1000
MTEXTEND
  0
MTEXT
  5
561E
330
1A
100
AcDbEntity
  8
SUNPOU
100
AcDbMText
 10
105884.6285225027
 20
93730.15535542933
 30
0.0
 40
10.5
 41
0.0
 71
     9
 72
     5
  1

1001
ACAD
1000
MTEXTBEGIN
1070
    73
1070
     1
1070
    44
1040
1.0
1070
    74
1070
     0
1000
MTEXTEND
  0
MTEXT
  5
561F
330
1A
100
AcDbEntity
  8
SUNPOU
100
AcDbMText
 10
91936.6284221267
 20
74557.75621631714
 30
0.0
 40
3.5
 41
0.0
 71
     7
 72
     5
  1

1001
ACAD
1000
MTEXTBEGIN
1070
    73
1070
     1
1070
    44
1040
1.0
1070
    74
1070
     0
1000
MTEXTEND
  0
MTEXT
  5
5620
330
1A
100
AcDbEntity
  8
SUNPOU
100
AcDbMText
 10
72921.79781911986
 20
62319.90494713533
 30
0.0
 40
10.5
 41
0.0
 71
     7
 72
     5
  1

1001
ACAD
1000
MTEXTBEGIN
1070
    73
1070
     1
1070
    44
1040
1.0
1070
    74
1070
     0
1000
MTEXTEND
  0
MTEXT
  5
5621
330
1A
100
AcDbEntity
  8
SUNPOU
100
AcDbMText
 10
60464.56955417175
 20
46474.97336903692
 30
0.0
 40
35.0
 41
0.0
 71
     9
 72
     5
  1

1001
ACAD
1000
MTEXTBEGIN
1070
    73
1070
     1
1070
    44
1040
1.0
1070
    74
1070
     0
1000
MTEXTEND
  0
MTEXT
  5
5622
330
1A
100
AcDbEntity
  8
SUNPOU
100
AcDbMText
 10
59373.05461174672
 20
47083.74877908562
 30
0.0
 40
350.0000004171781
 41
0.0
 71
     7
 72
     5
  1

1001
ACAD
1000
MTEXTBEGIN
1070
    73
1070
     1
1070
    44
1040
1.0
1070
    74
1070
     0
1000
MTEXTEND
  0
MTEXT
  5
5623
330
1A
100
AcDbEntity
  8
0
100
AcDbMText
 10
65417.00536968962
 20
45063.67114122186
 30
0.0
 40
8.0
 41
0.0
 71
     7
 72
     5
  1

1001
ACAD
1000
MTEXTBEGIN
1070
    73
1070
     1
1070
    44
1040
1.0
1070
    74
1070
     0
1000
MTEXTEND
  0
MTEXT
  5
5624
330
1A
100
AcDbEntity
  8
0
100
AcDbMText
 10
67702.36305958452
 20
46034.46143597292
 30
0.0
 40
8.0
 41
0.0
 71
     7
 72
     5
  1

1001
ACAD
1000
MTEXTBEGIN
1070
    73
1070
     1
1070
    44
1040
1.0
1070
    74
1070
     0
1000
MTEXTEND
  0
MTEXT
  5
5625
330
1A
100
AcDbEntity
  8
SUNPOU
100
AcDbMText
 10
70368.26008026666
 20
55546.57282834803
 30
0.0
 40
10.5
 41
0.0
 71
     1
 72
     5
  1

1001
ACAD
1000
MTEXTBEGIN
1070
    73
1070
     1
1070
    44
1040
1.0
1070
    74
1070
     0
1000
MTEXTEND
  0
MTEXT
  5
5626
330
1A
100
AcDbEntity
  8
SUNPOU
100
AcDbMText
 10
62437.33688433072
 20
54599.77969443508
 30
0.0
 40
10.5
 41
0.0
 71
     7
 72
     5
  1

1001
ACAD
1000
MTEXTBEGIN
1070
    73
1070
     1
1070
    44
1040
1.0
1070
    74
1070
     0
1000
MTEXTEND
  0
MTEXT
  5
5627
330
1A
100
AcDbEntity
  8
SUNPOU
100
AcDbMText
 10
65386.32054884349
 20
59500.45576627792
 30
0.0
 40
10.5
 41
0.0
 71
     7
 72
     5
  1

1001
ACAD
1000
MTEXTBEGIN
1070
    73
1070
     1
1070
    44
1040
1.0
1070
    74
1070
     0
1000
MTEXTEND
  0
MTEXT
  5
5628
330
1A
100
AcDbEntity
  8
SUNPOU
100
AcDbMText
 10
69895.39867679405
 20
61936.756513898
 30
0.0
 40
10.5
 41
0.0
 71
     7
 72
     5
  1

1001
ACAD
1000
MTEXTBEGIN
1070
    73
1070
     1
1070
    44
1040
1.0
1070
    74
1070
     0
1000
MTEXTEND
  0
MTEXT
  5
5629
330
1A
100
AcDbEntity
  8
SUNPOU
100
AcDbMText
 10
53496.23656356237
 20
40934.35266428691
 30
0.0
 40
10.5
 41
0.0
 71
     7
 72
     5
  1

1001
ACAD
1000
MTEXTBEGIN
1070
    73
1070
     1
1070
    44
1040
1.0
1070
    74
1070
     0
1000
MTEXTEND
  0
MTEXT
  5
562A
330
1A
100
AcDbEntity
  8
SUNPOU
100
AcDbMText
 10
55306.99947493731
 20
47261.76665176547
 30
0.0
 40
10.5
 41
0.0
 71
     9
 72
     5
  1

1001
ACAD
1000
MTEXTBEGIN
1070
    73
1070
     1
1070
    44
1040
1.0
1070
    74
1070
     0
1000
MTEXTEND
  0
MTEXT
  5
562B
330
1A
100
AcDbEntity
  8
SUNPOU
100
AcDbMText
 10
64029.16704085528
 20
54677.60118330295
 30
0.0
 40
10.5
 41
0.0
 71
     9
 72
     5
  1

1001
ACAD
1000
MTEXTBEGIN
1070
    73
1070
     1
1070
    44
1040
1.0
1070
    74
1070
     0
1000
MTEXTEND
  0
MTEXT
  5
562C
330
1A
100
AcDbEntity
  8
SUNPOU
100
AcDbMText
 10
82982.92575818527
 20
72144.17723579499
 30
0.0
 40
10.5
 41
0.0
 71
     9
 72
     5
  1

1001
ACAD
1000
MTEXTBEGIN
1070
    73
1070
     1
1070
    44
1040
1.0
1070
    74
1070
     0
1000
MTEXTEND
  0
MTEXT
  5
562D
330
1A
100
AcDbEntity
  8
SUNPOU
100
AcDbMText
 10
84926.33300489467
 20
70343.12815591698
 30
0.0
 40
3.5
 41
0.0
 71
     9
 72
     5
  1

1001
ACAD
1000
MTEXTBEGIN
1070
    73
1070
     1
1070
    44
1040
1.0
1070
    74
1070
     0
1000
MTEXTEND
  0
MTEXT
  5
562E
330
1A
100
AcDbEntity
  8
SUNPOU
100
AcDbMText
 10
116052.5128375143
 20
112838.0738235743
 30
0.0
 40
10.5
 41
0.0
 71
     9
 72
     5
  1

1001
ACAD
1000
MTEXTBEGIN
1070
    73
1070
     1
1070
    44
1040
1.0
1070
    74
1070
     0
1000
MTEXTEND
  0
MTEXT
  5
562F
330
1A
100
AcDbEntity
  8
SUNPOU
100
AcDbMText
 10
117995.9200842238
 20
111037.0247436963
 30
0.0
 40
3.5
 41
0.0
 71
     9
 72
     5
  1

1001
ACAD
1000
MTEXTBEGIN
1070
    73
1070
     1
1070
    44
1040
1.0
1070
    74
1070
     0
1000
MTEXTEND
  0
MTEXT
  5
5630
330
1A
100
AcDbEntity
  8
SUNPOU
100
AcDbMText
 10
66492.78054330994
 20
58671.23897854939
 30
0.0
 40
10.5
 41
0.0
 71
     9
 72
     5
  1

1001
ACAD
1000
MTEXTBEGIN
1070
    73
1070
     1
1070
    44
1040
1.0
1070
    74
1070
     0
1000
MTEXTEND
  0
MTEXT
  5
5631
330
1A
100
AcDbEntity
  8
SUNPOU
100
AcDbMText
 10
52544.78044293396
 20
39498.83983943717
 30
0.0
 40
3.5
 41
0.0
 71
     7
 72
     5
  1

1001
ACAD
1000
MTEXTBEGIN
1070
    73
1070
     1
1070
    44
1040
1.0
1070
    74
1070
     0
1000
MTEXTEND
  0
MTEXT
  5
5632
330
1A
100
AcDbEntity
  8
SUNPOU
100
AcDbMText
 10
66237.13112570454
 20
48857.90306045851
 30
0.0
 40
10.5
 41
0.0
 71
     9
 72
     5
  1

1001
ACAD
1000
MTEXTBEGIN
1070
    73
1070
     1
1070
    44
1040
1.0
1070
    74
1070
     0
1000
MTEXTEND
  0
MTEXT
  5
5633
330
1A
100
AcDbEntity
  8
SUNPOU
100
AcDbMText
 10
74959.29869162252
 20
56273.737591996
 30
0.0
 40
10.5
 41
0.0
 71
     9
 72
     5
  1

1001
ACAD
1000
MTEXTBEGIN
1070
    73
1070
     1
1070
    44
1040
1.0
1070
    74
1070
     0
1000
MTEXTEND
  0
MTEXT
  5
5634
330
1A
100
AcDbEntity
  8
SUNPOU
100
AcDbMText
 10
93913.0574089525
 20
73740.31364448805
 30
0.0
 40
10.5
 41
0.0
 71
     9
 72
     5
  1

1001
ACAD
1000
MTEXTBEGIN
1070
    73
1070
     1
1070
    44
1040
1.0
1070
    74
1070
     0
1000
MTEXTEND
  0
MTEXT
  5
5635
330
1A
100
AcDbEntity
  8
SUNPOU
100
AcDbMText
 10
95856.46465566192
 20
71939.26456461004
 30
0.0
 40
3.5
 41
0.0
 71
     9
 72
     5
  1

1001
ACAD
1000
MTEXTBEGIN
1070
    73
1070
     1
1070
    44
1040
1.0
1070
    74
1070
     0
1000
MTEXTEND
  0
MTEXT
  5
5636
330
1A
100
AcDbEntity
  8
SUNPOU
100
AcDbMText
 10
126982.6444882816
 20
114434.2102322673
 30
0.0
 40
10.5
 41
0.0
 71
     9
 72
     5
  1

1001
ACAD
1000
MTEXTBEGIN
1070
    73
1070
     1
1070
    44
1040
1.0
1070
    74
1070
     0
1000
MTEXTEND
  0
MTEXT
  5
5637
330
1A
100
AcDbEntity
  8
SUNPOU
100
AcDbMText
 10
128926.051734991
 20
112633.1611523893
 30
0.0
 40
3.5
 41
0.0
 71
     9
 72
     5
  1

1001
ACAD
1000
MTEXTBEGIN
1070
    73
1070
     1
1070
    44
1040
1.0
1070
    74
1070
     0
1000
MTEXTEND
  0
MTEXT
  5
5638
330
1A
100
AcDbEntity
  8
SUNPOU
100
AcDbMText
 10
77422.91219407717
 20
60267.37538724244
 30
0.0
 40
10.5
 41
0.0
 71
     9
 72
     5
  1

1001
ACAD
1000
MTEXTBEGIN
1070
    73
1070
     1
1070
    44
1040
1.0
1070
    74
1070
     0
1000
MTEXTEND
  0
MTEXT
  5
5639
330
1A
100
AcDbEntity
  8
SUNPOU
100
AcDbMText
 10
63474.91209370119
 20
41094.97624813023
 30
0.0
 40
3.5
 41
0.0
 71
     7
 72
     5
  1

1001
ACAD
1000
MTEXTBEGIN
1070
    73
1070
     1
1070
    44
1040
1.0
1070
    74
1070
     0
1000
MTEXTEND
  0
MTEXT
  5
563A
330
1A
100
AcDbEntity
  8
SUNPOU
100
AcDbMText
 10
48117.65086229006
 20
40806.11043916631
 30
0.0
 40
10.5
 41
0.0
 71
     9
 72
     5
  1

1001
ACAD
1000
MTEXTBEGIN
1070
    73
1070
     1
1070
    44
1040
1.0
1070
    74
1070
     0
1000
MTEXTEND
  0
MTEXT
  5
563B
330
1A
100
AcDbEntity
  8
SUNPOU
100
AcDbMText
 10
67071.40957962004
 20
58272.68649165837
 30
0.0
 40
10.5
 41
0.0
 71
     9
 72
     5
  1

1001
ACAD
1000
MTEXTBEGIN
1070
    73
1070
     1
1070
    44
1040
1.0
1070
    74
1070
     0
1000
MTEXTEND
  0
MTEXT
  5
563C
330
1A
100
AcDbEntity
  8
SUNPOU
100
AcDbMText
 10
69014.81682632945
 20
56471.63741178035
 30
0.0
 40
3.5
 41
0.0
 71
     9
 72
     5
  1

1001
ACAD
1000
MTEXTBEGIN
1070
    73
1070
     1
1070
    44
1040
1.0
1070
    74
1070
     0
1000
MTEXTEND
  0
MTEXT
  5
563D
330
1A
100
AcDbEntity
  8
SUNPOU
100
AcDbMText
 10
100140.9966589491
 20
98966.58307943772
 30
0.0
 40
10.5
 41
0.0
 71
     9
 72
     5
  1

1001
ACAD
1000
MTEXTBEGIN
1070
    73
1070
     1
1070
    44
1040
1.0
1070
    74
1070
     0
1000
MTEXTEND
  0
MTEXT
  5
563E
330
1A
100
AcDbEntity
  8
SUNPOU
100
AcDbMText
 10
102084.4039056586
 20
97165.53399955969
 30
0.0
 40
3.5
 41
0.0
 71
     9
 72
     5
  1

1001
ACAD
1000
MTEXTBEGIN
1070
    73
1070
     1
1070
    44
1040
1.0
1070
    74
1070
     0
1000
MTEXTEND
  0
MTEXT
  5
563F
330
1A
100
AcDbEntity
  8
SUNPOU
100
AcDbMText
 10
50581.26436474472
 20
44799.74823441275
 30
0.0
 40
10.5
 41
0.0
 71
     9
 72
     5
  1

1001
ACAD
1000
MTEXTBEGIN
1070
    73
1070
     1
1070
    44
1040
1.0
1070
    74
1070
     0
1000
MTEXTEND
  0
MTEXT
  5
5640
330
1A
100
AcDbEntity
  8
SUNPOU
100
AcDbMText
 10
36633.26426436873
 20
25627.34909530054
 30
0.0
 40
3.5
 41
0.0
 71
     7
 72
     5
  1

1001
ACAD
1000
MTEXTBEGIN
1070
    73
1070
     1
1070
    44
1040
1.0
1070
    74
1070
     0
1000
MTEXTEND
  0
MTEXT
  5
5641
330
1A
100
AcDbEntity
  8
SUNPOU
100
AcDbMText
 10
61069.42493315968
 20
52574.61207825771
 30
0.0
 40
10.5
 41
0.0
 71
     9
 72
     5
  1

1001
ACAD
1000
MTEXTBEGIN
1070
    73
1070
     1
1070
    44
1040
1.0
1070
    74
1070
     0
1000
MTEXTEND
  0
MTEXT
  5
5642
330
1A
100
AcDbEntity
  8
SUNPOU
100
AcDbMText
 10
80023.18365048967
 20
70041.18813074978
 30
0.0
 40
10.5
 41
0.0
 71
     9
 72
     5
  1

1001
ACAD
1000
MTEXTBEGIN
1070
    73
1070
     1
1070
    44
1040
1.0
1070
    74
1070
     0
1000
MTEXTEND
  0
MTEXT
  5
5643
330
1A
100
AcDbEntity
  8
SUNPOU
100
AcDbMText
 10
81966.59089719908
 20
68240.13905087176
 30
0.0
 40
3.5
 41
0.0
 71
     9
 72
     5
  1

1001
ACAD
1000
MTEXTBEGIN
1070
    73
1070
     1
1070
    44
1040
1.0
1070
    74
1070
     0
1000
MTEXTEND
  0
MTEXT
  5
5644
330
1A
100
AcDbEntity
  8
SUNPOU
100
AcDbMText
 10
113092.7707298187
 20
110735.0847185291
 30
0.0
 40
10.5
 41
0.0
 71
     9
 72
     5
  1

1001
ACAD
1000
MTEXTBEGIN
1070
    73
1070
     1
1070
    44
1040
1.0
1070
    74
1070
     0
1000
MTEXTEND
  0
MTEXT
  5
5645
330
1A
100
AcDbEntity
  8
SUNPOU
100
AcDbMText
 10
115036.1779765282
 20
108934.0356386511
 30
0.0
 40
3.5
 41
0.0
 71
     9
 72
     5
  1

1001
ACAD
1000
MTEXTBEGIN
1070
    73
1070
     1
1070
    44
1040
1.0
1070
    74
1070
     0
1000
MTEXTEND
  0
MTEXT
  5
5646
330
1A
100
AcDbEntity
  8
SUNPOU
100
AcDbMText
 10
63533.03843561433
 20
56568.24987350415
 30
0.0
 40
10.5
 41
0.0
 71
     9
 72
     5
  1

1001
ACAD
1000
MTEXTBEGIN
1070
    73
1070
     1
1070
    44
1040
1.0
1070
    74
1070
     0
1000
MTEXTEND
  0
MTEXT
  5
5647
330
1A
100
AcDbEntity
  8
SUNPOU
100
AcDbMText
 10
49585.03833523835
 20
37395.85073439196
 30
0.0
 40
3.5
 41
0.0
 71
     7
 72
     5
  1

1001
ACAD
1000
MTEXTBEGIN
1070
    73
1070
     1
1070
    44
1040
1.0
1070
    74
1070
     0
1000
MTEXTEND
  0
MTEXT
  5
5648
330
1A
100
AcDbEntity
  8
SUNPOU
100
AcDbMText
 10
77137.31641337052
 20
70907.11375048141
 30
0.0
 40
10.5
 41
0.0
 71
     9
 72
     5
  1

1001
ACAD
1000
MTEXTBEGIN
1070
    73
1070
     1
1070
    44
1040
1.0
1070
    74
1070
     0
1000
MTEXTEND
  0
MTEXT
  5
5649
330
1A
100
AcDbEntity
  8
SUNPOU
100
AcDbMText
 10
79080.72366007995
 20
69106.06467060339
 30
0.0
 40
3.5
 41
0.0
 71
     9
 72
     5
  1

1001
ACAD
1000
MTEXTBEGIN
1070
    73
1070
     1
1070
    44
1040
1.0
1070
    74
1070
     0
1000
MTEXTEND
  0
MTEXT
  5
564A
330
1A
100
AcDbEntity
  8
SUNPOU
100
AcDbMText
 10
110206.9034926996
 20
111601.0103382607
 30
0.0
 40
10.5
 41
0.0
 71
     9
 72
     5
  1

1001
ACAD
1000
MTEXTBEGIN
1070
    73
1070
     1
1070
    44
1040
1.0
1070
    74
1070
     0
1000
MTEXTEND
  0
MTEXT
  5
564B
330
1A
100
AcDbEntity
  8
SUNPOU
100
AcDbMText
 10
112150.310739409
 20
109799.9612583827
 30
0.0
 40
3.5
 41
0.0
 71
     9
 72
     5
  1

1001
ACAD
1000
MTEXTBEGIN
1070
    73
1070
     1
1070
    44
1040
1.0
1070
    74
1070
     0
1000
MTEXTEND
  0
MTEXT
  5
564C
330
1A
100
AcDbEntity
  8
SUNPOU
100
AcDbMText
 10
108819.1333204968
 20
110677.9087286761
 30
0.0
 40
10.5
 41
0.0
 71
     9
 72
     5
  1

1001
ACAD
1000
MTEXTBEGIN
1070
    73
1070
     1
1070
    44
1040
1.0
1070
    74
1070
     0
1000
MTEXTEND
  0
MTEXT
  5
564D
330
1A
100
AcDbEntity
  8
SUNPOU
100
AcDbMText
 10
110762.5405672062
 20
108876.8596487981
 30
0.0
 40
3.5
 41
0.0
 71
     9
 72
     5
  1

1001
ACAD
1000
MTEXTBEGIN
1070
    73
1070
     1
1070
    44
1040
1.0
1070
    74
1070
     0
1000
MTEXTEND
  0
MTEXT
  5
564E
330
1A
100
AcDbEntity
  8
SUNPOU
100
AcDbMText
 10
76303.05507956816
 20
68695.31179059812
 30
0.0
 40
10.5
 41
0.0
 71
     9
 72
     5
  1

1001
ACAD
1000
MTEXTBEGIN
1070
    73
1070
     1
1070
    44
1040
1.0
1070
    74
1070
     0
1000
MTEXTEND
  0
MTEXT
  5
564F
330
1A
100
AcDbEntity
  8
SUNPOU
100
AcDbMText
 10
79026.36128373271
 20
69099.99348217918
 30
0.0
 40
3.5
 41
0.0
 71
     9
 72
     5
  1

1001
ACAD
1000
MTEXTBEGIN
1070
    73
1070
     1
1070
    44
1040
1.0
1070
    74
1070
     0
1000
MTEXTEND
  0
MTEXT
  5
5650
330
1A
100
AcDbEntity
  8
SUNPOU
100
AcDbMText
 10
78234.00675862522
 20
65938.68764412436
 30
0.0
 40
10.5
 41
0.0
 71
     9
 72
     5
  1

1001
ACAD
1000
MTEXTBEGIN
1070
    73
1070
     1
1070
    44
1040
1.0
1070
    74
1070
     0
1000
MTEXTEND
  0
MTEXT
  5
5651
330
1A
100
AcDbEntity
  8
SUNPOU
100
AcDbMText
 10
80177.41400533465
 20
64137.63856424636
 30
0.0
 40
3.5
 41
0.0
 71
     9
 72
     5
  1

1001
ACAD
1000
MTEXTBEGIN
1070
    73
1070
     1
1070
    44
1040
1.0
1070
    74
1070
     0
1000
MTEXTEND
  0
MTEXT
  5
5652
330
1A
100
AcDbEntity
  8
SUNPOU
100
AcDbMText
 10
80122.50949592123
 20
64024.86668196205
 30
0.0
 40
3.5
 41
0.0
 71
     9
 72
     5
  1

1001
ACAD
1000
MTEXTBEGIN
1070
    73
1070
     1
1070
    44
1040
1.0
1070
    74
1070
     0
1000
MTEXTEND
  0
MTEXT
  5
5653
330
1A
100
AcDbEntity
  8
SUNPOU
100
AcDbMText
 10
79486.58135950133
 20
63213.54544089553
 30
0.0
 40
3.5
 41
0.0
 71
     9
 72
     5
  1

1001
ACAD
1000
MTEXTBEGIN
1070
    73
1070
     1
1070
    44
1040
1.0
1070
    74
1070
     0
1000
MTEXTEND
  0
MTEXT
  5
5654
330
1A
100
AcDbEntity
  8
SUNPOU
100
AcDbMText
 10
79485.3409400806
 20
63213.29746395804
 30
0.0
 40
10.5
 41
0.0
 71
     9
 72
     5
  1

1001
ACAD
1000
MTEXTBEGIN
1070
    73
1070
     1
1070
    44
1040
1.0
1070
    74
1070
     0
1000
MTEXTEND
  0
MTEXT
  5
5655
330
1A
100
AcDbEntity
  8
SUNPOU
100
AcDbMText
 10
85473.63363627567
 20
80747.76348077064
 30
0.0
 40
10.5
 41
0.0
 71
     9
 72
     5
  1

1001
ACAD
1000
MTEXTBEGIN
1070
    73
1070
     1
1070
    44
1040
1.0
1070
    74
1070
     0
1000
MTEXTEND
  0
MTEXT
  5
5656
330
1A
100
AcDbEntity
  8
SUNPOU
100
AcDbMText
 10
94195.80120219368
 20
88163.59801230809
 30
0.0
 40
10.5
 41
0.0
 71
     9
 72
     5
  1

1001
ACAD
1000
MTEXTBEGIN
1070
    73
1070
     1
1070
    44
1040
1.0
1070
    74
1070
     0
1000
MTEXTEND
  0
MTEXT
  5
5657
330
1A
100
AcDbEntity
  8
SUNPOU
100
AcDbMText
 10
113149.5599195236
 20
105630.1740648001
 30
0.0
 40
10.5
 41
0.0
 71
     9
 72
     5
  1

1001
ACAD
1000
MTEXTBEGIN
1070
    73
1070
     1
1070
    44
1040
1.0
1070
    74
1070
     0
1000
MTEXTEND
  0
MTEXT
  5
5658
330
1A
100
AcDbEntity
  8
SUNPOU
100
AcDbMText
 10
115092.967166233
 20
103829.1249849221
 30
0.0
 40
3.5
 41
0.0
 71
     9
 72
     5
  1

1001
ACAD
1000
MTEXTBEGIN
1070
    73
1070
     1
1070
    44
1040
1.0
1070
    74
1070
     0
1000
MTEXTEND
  0
MTEXT
  5
5659
330
1A
100
AcDbEntity
  8
SUNPOU
100
AcDbMText
 10
146219.1469988527
 20
146324.0706525794
 30
0.0
 40
10.5
 41
0.0
 71
     9
 72
     5
  1

1001
ACAD
1000
MTEXTBEGIN
1070
    73
1070
     1
1070
    44
1040
1.0
1070
    74
1070
     0
1000
MTEXTEND
  0
MTEXT
  5
565A
330
1A
100
AcDbEntity
  8
SUNPOU
100
AcDbMText
 10
148162.5542455621
 20
144523.0215727014
 30
0.0
 40
3.5
 41
0.0
 71
     9
 72
     5
  1

1001
ACAD
1000
MTEXTBEGIN
1070
    73
1070
     1
1070
    44
1040
1.0
1070
    74
1070
     0
1000
MTEXTEND
  0
MTEXT
  5
565B
330
1A
100
AcDbEntity
  8
SUNPOU
100
AcDbMText
 10
96659.41470464833
 20
92157.23580755453
 30
0.0
 40
10.5
 41
0.0
 71
     9
 72
     5
  1

1001
ACAD
1000
MTEXTBEGIN
1070
    73
1070
     1
1070
    44
1040
1.0
1070
    74
1070
     0
1000
MTEXTEND
  0
MTEXT
  5
565C
330
1A
100
AcDbEntity
  8
SUNPOU
100
AcDbMText
 10
82711.41460427234
 20
72984.83666844234
 30
0.0
 40
3.5
 41
0.0
 71
     7
 72
     5
  1

1001
ACAD
1000
MTEXTBEGIN
1070
    73
1070
     1
1070
    44
1040
1.0
1070
    74
1070
     0
1000
MTEXTEND
  0
MTEXT
  5
565D
330
1A
100
AcDbEntity
  8
SUNPOU
100
AcDbMText
 10
63696.58400126548
 20
60746.98539926055
 30
0.0
 40
10.5
 41
0.0
 71
     7
 72
     5
  1

1001
ACAD
1000
MTEXTBEGIN
1070
    73
1070
     1
1070
    44
1040
1.0
1070
    74
1070
     0
1000
MTEXTEND
  0
MTEXT
  5
565E
330
1A
100
AcDbEntity
  8
SUNPOU
100
AcDbMText
 10
51239.35573631738
 20
44902.05382116213
 30
0.0
 40
35.0
 41
0.0
 71
     9
 72
     5
  1

1001
ACAD
1000
MTEXTBEGIN
1070
    73
1070
     1
1070
    44
1040
1.0
1070
    74
1070
     0
1000
MTEXTEND
  0
MTEXT
  5
565F
330
1A
100
AcDbEntity
  8
SUNPOU
100
AcDbMText
 10
50147.84079389233
 20
45510.82923121084
 30
0.0
 40
350.0000004171781
 41
0.0
 71
     7
 72
     5
  1

1001
ACAD
1000
MTEXTBEGIN
1070
    73
1070
     1
1070
    44
1040
1.0
1070
    74
1070
     0
1000
MTEXTEND
  0
MTEXT
  5
5660
330
1A
100
AcDbEntity
  8
0
100
AcDbMText
 10
56191.79155183523
 20
43490.75159334705
 30
0.0
 40
8.0
 41
0.0
 71
     7
 72
     5
  1

1001
ACAD
1000
MTEXTBEGIN
1070
    73
1070
     1
1070
    44
1040
1.0
1070
    74
1070
     0
1000
MTEXTEND
  0
MTEXT
  5
5661
330
1A
100
AcDbEntity
  8
0
100
AcDbMText
 10
58477.14924173013
 20
44461.54188809812
 30
0.0
 40
8.0
 41
0.0
 71
     7
 72
     5
  1

1001
ACAD
1000
MTEXTBEGIN
1070
    73
1070
     1
1070
    44
1040
1.0
1070
    74
1070
     0
1000
MTEXTEND
  0
MTEXT
  5
5662
330
1A
100
AcDbEntity
  8
SUNPOU
100
AcDbMText
 10
61143.04626241227
 20
53973.65328047324
 30
0.0
 40
10.5
 41
0.0
 71
     1
 72
     5
  1

1001
ACAD
1000
MTEXTBEGIN
1070
    73
1070
     1
1070
    44
1040
1.0
1070
    74
1070
     0
1000
MTEXTEND
  0
MTEXT
  5
5663
330
1A
100
AcDbEntity
  8
SUNPOU
100
AcDbMText
 10
53212.12306647634
 20
53026.86014656028
 30
0.0
 40
10.5
 41
0.0
 71
     7
 72
     5
  1

1001
ACAD
1000
MTEXTBEGIN
1070
    73
1070
     1
1070
    44
1040
1.0
1070
    74
1070
     0
1000
MTEXTEND
  0
MTEXT
  5
5664
330
1A
100
AcDbEntity
  8
SUNPOU
100
AcDbMText
 10
56161.1067309891
 20
57927.53621840312
 30
0.0
 40
10.5
 41
0.0
 71
     7
 72
     5
  1

1001
ACAD
1000
MTEXTBEGIN
1070
    73
1070
     1
1070
    44
1040
1.0
1070
    74
1070
     0
1000
MTEXTEND
  0
MTEXT
  5
5665
330
1A
100
AcDbEntity
  8
SUNPOU
100
AcDbMText
 10
60670.18485893966
 20
60363.8369660232
 30
0.0
 40
10.5
 41
0.0
 71
     7
 72
     5
  1

1001
ACAD
1000
MTEXTBEGIN
1070
    73
1070
     1
1070
    44
1040
1.0
1070
    74
1070
     0
1000
MTEXTEND
  0
MTEXT
  5
5666
330
1A
100
AcDbEntity
  8
SUNPOU
100
AcDbMText
 10
44271.02274570799
 20
39361.43311641212
 30
0.0
 40
10.5
 41
0.0
 71
     7
 72
     5
  1

1001
ACAD
1000
MTEXTBEGIN
1070
    73
1070
     1
1070
    44
1040
1.0
1070
    74
1070
     0
1000
MTEXTEND
  0
MTEXT
  5
5667
330
1A
100
AcDbEntity
  8
SUNPOU
100
AcDbMText
 10
95462.54117960824
 20
85034.41368006038
 30
0.0
 40
10.5
 41
0.0
 71
     9
 72
     5
  1

1001
ACAD
1000
MTEXTBEGIN
1070
    73
1070
     1
1070
    44
1040
1.0
1070
    74
1070
     0
1000
MTEXTEND
  0
MTEXT
  5
5668
330
1A
100
AcDbEntity
  8
SUNPOU
100
AcDbMText
 10
104184.7087455262
 20
92450.24821159784
 30
0.0
 40
10.5
 41
0.0
 71
     9
 72
     5
  1

1001
ACAD
1000
MTEXTBEGIN
1070
    73
1070
     1
1070
    44
1040
1.0
1070
    74
1070
     0
1000
MTEXTEND
  0
MTEXT
  5
5669
330
1A
100
AcDbEntity
  8
SUNPOU
100
AcDbMText
 10
123138.4674628562
 20
109916.8242640898
 30
0.0
 40
10.5
 41
0.0
 71
     9
 72
     5
  1

1001
ACAD
1000
MTEXTBEGIN
1070
    73
1070
     1
1070
    44
1040
1.0
1070
    74
1070
     0
1000
MTEXTEND
  0
MTEXT
  5
566A
330
1A
100
AcDbEntity
  8
SUNPOU
100
AcDbMText
 10
125081.8747095656
 20
108115.7751842118
 30
0.0
 40
3.5
 41
0.0
 71
     9
 72
     5
  1

1001
ACAD
1000
MTEXTBEGIN
1070
    73
1070
     1
1070
    44
1040
1.0
1070
    74
1070
     0
1000
MTEXTEND
  0
MTEXT
  5
566B
330
1A
100
AcDbEntity
  8
SUNPOU
100
AcDbMText
 10
156208.0545421853
 20
150610.7208518691
 30
0.0
 40
10.5
 41
0.0
 71
     9
 72
     5
  1

1001
ACAD
1000
MTEXTBEGIN
1070
    73
1070
     1
1070
    44
1040
1.0
1070
    74
1070
     0
1000
MTEXTEND
  0
MTEXT
  5
566C
330
1A
100
AcDbEntity
  8
SUNPOU
100
AcDbMText
 10
158151.4617888947
 20
148809.6717719911
 30
0.0
 40
3.5
 41
0.0
 71
     9
 72
     5
  1

1001
ACAD
1000
MTEXTBEGIN
1070
    73
1070
     1
1070
    44
1040
1.0
1070
    74
1070
     0
1000
MTEXTEND
  0
MTEXT
  5
566D
330
1A
100
AcDbEntity
  8
SUNPOU
100
AcDbMText
 10
106648.3222479809
 20
96443.88600684427
 30
0.0
 40
10.5
 41
0.0
 71
     9
 72
     5
  1

1001
ACAD
1000
MTEXTBEGIN
1070
    73
1070
     1
1070
    44
1040
1.0
1070
    74
1070
     0
1000
MTEXTEND
  0
MTEXT
  5
566E
330
1A
100
AcDbEntity
  8
SUNPOU
100
AcDbMText
 10
92700.3221476049
 20
77271.48686773207
 30
0.0
 40
3.5
 41
0.0
 71
     7
 72
     5
  1

1001
ACAD
1000
MTEXTBEGIN
1070
    73
1070
     1
1070
    44
1040
1.0
1070
    74
1070
     0
1000
MTEXTEND
  0
MTEXT
  5
566F
330
1A
100
AcDbEntity
  8
SUNPOU
100
AcDbMText
 10
73685.49154459806
 20
65033.63559855027
 30
0.0
 40
10.5
 41
0.0
 71
     7
 72
     5
  1

1001
ACAD
1000
MTEXTBEGIN
1070
    73
1070
     1
1070
    44
1040
1.0
1070
    74
1070
     0
1000
MTEXTEND
  0
MTEXT
  5
5670
330
1A
100
AcDbEntity
  8
SUNPOU
100
AcDbMText
 10
61228.26327964995
 20
49188.70402045185
 30
0.0
 40
35.0
 41
0.0
 71
     9
 72
     5
  1

1001
ACAD
1000
MTEXTBEGIN
1070
    73
1070
     1
1070
    44
1040
1.0
1070
    74
1070
     0
1000
MTEXTEND
  0
MTEXT
  5
5671
330
1A
100
AcDbEntity
  8
SUNPOU
100
AcDbMText
 10
60136.74833722491
 20
49797.47943050056
 30
0.0
 40
350.0000004171781
 41
0.0
 71
     7
 72
     5
  1

1001
ACAD
1000
MTEXTBEGIN
1070
    73
1070
     1
1070
    44
1040
1.0
1070
    74
1070
     0
1000
MTEXTEND
  0
MTEXT
  5
5672
330
1A
100
AcDbEntity
  8
0
100
AcDbMText
 10
66180.69909516782
 20
47777.40179263678
 30
0.0
 40
8.0
 41
0.0
 71
     7
 72
     5
  1

1001
ACAD
1000
MTEXTBEGIN
1070
    73
1070
     1
1070
    44
1040
1.0
1070
    74
1070
     0
1000
MTEXTEND
  0
MTEXT
  5
5673
330
1A
100
AcDbEntity
  8
0
100
AcDbMText
 10
68466.05678506271
 20
48748.19208738784
 30
0.0
 40
8.0
 41
0.0
 71
     7
 72
     5
  1

1001
ACAD
1000
MTEXTBEGIN
1070
    73
1070
     1
1070
    44
1040
1.0
1070
    74
1070
     0
1000
MTEXTEND
  0
MTEXT
  5
5674
330
1A
100
AcDbEntity
  8
SUNPOU
100
AcDbMText
 10
71131.95380574485
 20
58260.30347976296
 30
0.0
 40
10.5
 41
0.0
 71
     1
 72
     5
  1

1001
ACAD
1000
MTEXTBEGIN
1070
    73
1070
     1
1070
    44
1040
1.0
1070
    74
1070
     0
1000
MTEXTEND
  0
MTEXT
  5
5675
330
1A
100
AcDbEntity
  8
SUNPOU
100
AcDbMText
 10
63201.03060980891
 20
57313.51034585002
 30
0.0
 40
10.5
 41
0.0
 71
     7
 72
     5
  1

1001
ACAD
1000
MTEXTBEGIN
1070
    73
1070
     1
1070
    44
1040
1.0
1070
    74
1070
     0
1000
MTEXTEND
  0
MTEXT
  5
5676
330
1A
100
AcDbEntity
  8
SUNPOU
100
AcDbMText
 10
66150.01427432169
 20
62214.18641769286
 30
0.0
 40
10.5
 41
0.0
 71
     7
 72
     5
  1

1001
ACAD
1000
MTEXTBEGIN
1070
    73
1070
     1
1070
    44
1040
1.0
1070
    74
1070
     0
1000
MTEXTEND
  0
MTEXT
  5
5677
330
1A
100
AcDbEntity
  8
SUNPOU
100
AcDbMText
 10
70659.09240227225
 20
64650.48716531294
 30
0.0
 40
10.5
 41
0.0
 71
     7
 72
     5
  1

1001
ACAD
1000
MTEXTBEGIN
1070
    73
1070
     1
1070
    44
1040
1.0
1070
    74
1070
     0
1000
MTEXTEND
  0
MTEXT
  5
5678
330
1A
100
AcDbEntity
  8
SUNPOU
100
AcDbMText
 10
54259.93028904056
 20
43648.08331570185
 30
0.0
 40
10.5
 41
0.0
 71
     7
 72
     5
  1

1001
ACAD
1000
MTEXTBEGIN
1070
    73
1070
     1
1070
    44
1040
1.0
1070
    74
1070
     0
1000
MTEXTEND
  0
MTEXT
  5
5679
330
1A
100
AcDbEntity
  8
SUNPOU
100
AcDbMText
 10
56070.69320041551
 20
49975.4973031804
 30
0.0
 40
10.5
 41
0.0
 71
     9
 72
     5
  1

1001
ACAD
1000
MTEXTBEGIN
1070
    73
1070
     1
1070
    44
1040
1.0
1070
    74
1070
     0
1000
MTEXTEND
  0
MTEXT
  5
567A
330
1A
100
AcDbEntity
  8
SUNPOU
100
AcDbMText
 10
64792.86076633348
 20
57391.33183471788
 30
0.0
 40
10.5
 41
0.0
 71
     9
 72
     5
  1

1001
ACAD
1000
MTEXTBEGIN
1070
    73
1070
     1
1070
    44
1040
1.0
1070
    74
1070
     0
1000
MTEXTEND
  0
MTEXT
  5
567B
330
1A
100
AcDbEntity
  8
SUNPOU
100
AcDbMText
 10
83746.61948366345
 20
74857.90788720994
 30
0.0
 40
10.5
 41
0.0
 71
     9
 72
     5
  1

1001
ACAD
1000
MTEXTBEGIN
1070
    73
1070
     1
1070
    44
1040
1.0
1070
    74
1070
     0
1000
MTEXTEND
  0
MTEXT
  5
567C
330
1A
100
AcDbEntity
  8
SUNPOU
100
AcDbMText
 10
85690.02673037287
 20
73056.85880733192
 30
0.0
 40
3.5
 41
0.0
 71
     9
 72
     5
  1

1001
ACAD
1000
MTEXTBEGIN
1070
    73
1070
     1
1070
    44
1040
1.0
1070
    74
1070
     0
1000
MTEXTEND
  0
MTEXT
  5
567D
330
1A
100
AcDbEntity
  8
SUNPOU
100
AcDbMText
 10
116816.2065629925
 20
115551.8044749892
 30
0.0
 40
10.5
 41
0.0
 71
     9
 72
     5
  1

1001
ACAD
1000
MTEXTBEGIN
1070
    73
1070
     1
1070
    44
1040
1.0
1070
    74
1070
     0
1000
MTEXTEND
  0
MTEXT
  5
567E
330
1A
100
AcDbEntity
  8
SUNPOU
100
AcDbMText
 10
118759.613809702
 20
113750.7553951112
 30
0.0
 40
3.5
 41
0.0
 71
     9
 72
     5
  1

1001
ACAD
1000
MTEXTBEGIN
1070
    73
1070
     1
1070
    44
1040
1.0
1070
    74
1070
     0
1000
MTEXTEND
  0
MTEXT
  5
567F
330
1A
100
AcDbEntity
  8
SUNPOU
100
AcDbMText
 10
67256.47426878814
 20
61384.96962996432
 30
0.0
 40
10.5
 41
0.0
 71
     9
 72
     5
  1

1001
ACAD
1000
MTEXTBEGIN
1070
    73
1070
     1
1070
    44
1040
1.0
1070
    74
1070
     0
1000
MTEXTEND
  0
MTEXT
  5
5680
330
1A
100
AcDbEntity
  8
SUNPOU
100
AcDbMText
 10
53308.47416841216
 20
42212.57049085211
 30
0.0
 40
3.5
 41
0.0
 71
     7
 72
     5
  1

1001
ACAD
1000
MTEXTBEGIN
1070
    73
1070
     1
1070
    44
1040
1.0
1070
    74
1070
     0
1000
MTEXTEND
  0
MTEXT
  5
5681
330
1A
100
AcDbEntity
  8
SUNPOU
100
AcDbMText
 10
67000.82485118274
 20
51571.63371187345
 30
0.0
 40
10.5
 41
0.0
 71
     9
 72
     5
  1

1001
ACAD
1000
MTEXTBEGIN
1070
    73
1070
     1
1070
    44
1040
1.0
1070
    74
1070
     0
1000
MTEXTEND
  0
MTEXT
  5
5682
330
1A
100
AcDbEntity
  8
SUNPOU
100
AcDbMText
 10
75722.99241710071
 20
58987.46824341094
 30
0.0
 40
10.5
 41
0.0
 71
     9
 72
     5
  1

1001
ACAD
1000
MTEXTBEGIN
1070
    73
1070
     1
1070
    44
1040
1.0
1070
    74
1070
     0
1000
MTEXTEND
  0
MTEXT
  5
5683
330
1A
100
AcDbEntity
  8
SUNPOU
100
AcDbMText
 10
94676.75113443068
 20
76454.04429590299
 30
0.0
 40
10.5
 41
0.0
 71
     9
 72
     5
  1

1001
ACAD
1000
MTEXTBEGIN
1070
    73
1070
     1
1070
    44
1040
1.0
1070
    74
1070
     0
1000
MTEXTEND
  0
MTEXT
  5
5684
330
1A
100
AcDbEntity
  8
SUNPOU
100
AcDbMText
 10
96620.1583811401
 20
74652.99521602498
 30
0.0
 40
3.5
 41
0.0
 71
     9
 72
     5
  1

1001
ACAD
1000
MTEXTBEGIN
1070
    73
1070
     1
1070
    44
1040
1.0
1070
    74
1070
     0
1000
MTEXTEND
  0
MTEXT
  5
5685
330
1A
100
AcDbEntity
  8
SUNPOU
100
AcDbMText
 10
127746.3382137598
 20
117147.9408836823
 30
0.0
 40
10.5
 41
0.0
 71
     9
 72
     5
  1

1001
ACAD
1000
MTEXTBEGIN
1070
    73
1070
     1
1070
    44
1040
1.0
1070
    74
1070
     0
1000
MTEXTEND
  0
MTEXT
  5
5686
330
1A
100
AcDbEntity
  8
SUNPOU
100
AcDbMText
 10
129689.7454604692
 20
115346.8918038043
 30
0.0
 40
3.5
 41
0.0
 71
     9
 72
     5
  1

1001
ACAD
1000
MTEXTBEGIN
1070
    73
1070
     1
1070
    44
1040
1.0
1070
    74
1070
     0
1000
MTEXTEND
  0
MTEXT
  5
5687
330
1A
100
AcDbEntity
  8
SUNPOU
100
AcDbMText
 10
78186.60591955537
 20
62981.10603865738
 30
0.0
 40
10.5
 41
0.0
 71
     9
 72
     5
  1

1001
ACAD
1000
MTEXTBEGIN
1070
    73
1070
     1
1070
    44
1040
1.0
1070
    74
1070
     0
1000
MTEXTEND
  0
MTEXT
  5
5688
330
1A
100
AcDbEntity
  8
SUNPOU
100
AcDbMText
 10
64238.60581917939
 20
43808.70689954517
 30
0.0
 40
3.5
 41
0.0
 71
     7
 72
     5
  1

1001
ACAD
1000
MTEXTBEGIN
1070
    73
1070
     1
1070
    44
1040
1.0
1070
    74
1070
     0
1000
MTEXTEND
  0
MTEXT
  5
5689
330
1A
100
AcDbEntity
  8
SUNPOU
100
AcDbMText
 10
33428.13481137435
 20
32770.04710035564
 30
0.0
 40
10.5
 41
0.0
 71
     9
 72
     5
  1

1001
ACAD
1000
MTEXTBEGIN
1070
    73
1070
     1
1070
    44
1040
1.0
1070
    74
1070
     0
1000
MTEXTEND
  0
MTEXT
  5
568A
330
1A
100
AcDbEntity
  8
SUNPOU
100
AcDbMText
 10
52381.89352870432
 20
50236.62315284769
 30
0.0
 40
10.5
 41
0.0
 71
     9
 72
     5
  1

1001
ACAD
1000
MTEXTBEGIN
1070
    73
1070
     1
1070
    44
1040
1.0
1070
    74
1070
     0
1000
MTEXTEND
  0
MTEXT
  5
568B
330
1A
100
AcDbEntity
  8
SUNPOU
100
AcDbMText
 10
54325.30077541374
 20
48435.57407296968
 30
0.0
 40
3.5
 41
0.0
 71
     9
 72
     5
  1

1001
ACAD
1000
MTEXTBEGIN
1070
    73
1070
     1
1070
    44
1040
1.0
1070
    74
1070
     0
1000
MTEXTEND
  0
MTEXT
  5
568C
330
1A
100
AcDbEntity
  8
SUNPOU
100
AcDbMText
 10
85451.48060803343
 20
90930.51974062703
 30
0.0
 40
10.5
 41
0.0
 71
     9
 72
     5
  1

1001
ACAD
1000
MTEXTBEGIN
1070
    73
1070
     1
1070
    44
1040
1.0
1070
    74
1070
     0
1000
MTEXTEND
  0
MTEXT
  5
568D
330
1A
100
AcDbEntity
  8
SUNPOU
100
AcDbMText
 10
87394.88785474286
 20
89129.47066074901
 30
0.0
 40
3.5
 41
0.0
 71
     9
 72
     5
  1

1001
ACAD
1000
MTEXTBEGIN
1070
    73
1070
     1
1070
    44
1040
1.0
1070
    74
1070
     0
1000
MTEXTEND
  0
MTEXT
  5
568E
330
1A
100
AcDbEntity
  8
SUNPOU
100
AcDbMText
 10
35891.74831382901
 20
36763.68489560208
 30
0.0
 40
10.5
 41
0.0
 71
     9
 72
     5
  1

1001
ACAD
1000
MTEXTBEGIN
1070
    73
1070
     1
1070
    44
1040
1.0
1070
    74
1070
     0
1000
MTEXTEND
  0
MTEXT
  5
568F
330
1A
100
AcDbEntity
  8
SUNPOU
100
AcDbMText
 10
21943.74821345303
 20
17591.28575648986
 30
0.0
 40
3.5
 41
0.0
 71
     7
 72
     5
  1

1001
ACAD
1000
MTEXTBEGIN
1070
    73
1070
     1
1070
    44
1040
1.0
1070
    74
1070
     0
1000
MTEXTEND
  0
XLINE
  5
126D7
330
1A
100
AcDbEntity
  8
SOUZOUSEN
100
AcDbXline
 10
-2343.442450720007
 20
3248.111410528631
 30
0.0
 11
0.0
 21
1.0
 31
0.0
  0
XLINE
  5
126D8
330
1A
100
AcDbEntity
  8
SOUZOUSEN
100
AcDbXline
 10
-2343.419932224668
 20
3244.179140051123
 30
0.0
 11
0.0
 21
-1.0
 31
0.0
  0
ELLIPSE
  5
14378
330
1A
100
AcDbEntity
  8
ZISSEN1
 48
0.4
100
AcDbEllipse
 10
-934.7296404158273
 20
1574.543349969253
 30
0.0
 11
0.0
 21
-2.75
 31
0.0
210
0.0
220
0.0
230
-1.0
 40
0.3090909090909173
 41
6.283185307179586
 42
9.424777960769379
  0
ELLIPSE
  5
14379
330
1A
100
AcDbEntity
  8
ZISSEN1
 48
0.4
100
AcDbEllipse
 10
-934.7296404158273
 20
1581.543654825065
 30
0.0
 11
0.0
 21
-2.75
 31
0.0
210
0.0
220
0.0
230
-1.0
 40
0.3090909090909173
 41
6.283185307179586
 42
9.424777960769379
  0
ELLIPSE
  5
1437A
330
1A
100
AcDbEntity
  8
ZISSEN1
 48
0.4
100
AcDbEllipse
 10
-934.7296404158273
 20
1635.5436469643
 30
0.0
 11
0.0
 21
-2.75
 31
0.0
210
0.0
220
0.0
230
-1.0
 40
0.3090909090909173
 41
6.283185307179586
 42
9.424777960769379
  0
LWPOLYLINE
  5
1437B
330
1A
100
AcDbEntity
  8
ZISSEN1
  6
CONTINUOUS
100
AcDbPolyline
 90
        4
 70
     1
 43
0.0
 10
-1062.26234369649
 20
1515.503489230847
 10
-1062.26234369649
 20
1515.203489230848
 10
-991.4623429727017
 20
1515.203489230848
 10
-991.4623429727017
 20
1515.503489230847
  0
DIMENSION
  5
1437C
330
1A
100
AcDbEntity
  8
SUNPOU
100
AcDbDimension
  2
*D29
 10
-1085.962342972701
 20
1502.155673159589
 30
0.0
 11
-1038.462342972701
 21
1502.155673159589
 31
0.0
 70
   160
  3
標準スタイル
100
AcDbAlignedDimension
 13
-990.9623429727016
 23
1512.203489230843
 33
0.0
 14
-1085.962342972701
 24
1517.203489230843
 34
0.0
100
AcDbRotatedDimension
1001
ACAD
1000
DSTYLE
1002
{
1070
   340
1005
10
1070
    41
1040
2.5
1070
   140
1040
3.5
1070
    40
1040
1.0
1002
}
  0
DIMENSION
  5
1437D
330
1A
100
AcDbEntity
  8
SUNPOU
100
AcDbDimension
  2
*D30
 10
-1075.962340987
 20
1560.827158006554
 30
0.0
 11
-1035.96234197985
 21
1560.827158006554
 31
0.0
 70
   160
  3
標準スタイル
100
AcDbAlignedDimension
 13
-995.9623429727017
 23
1571.043654825064
 33
0.0
 14
-1075.962340987
 24
1633.793663946411
 34
0.0
100
AcDbRotatedDimension
1001
ACAD
1000
DSTYLE
1002
{
1070
   340
1005
10
1070
   140
1040
3.5
1070
    41
1040
2.5
1070
    40
1040
1.0
1002
}
  0
DIMENSION
  5
1437E
330
1A
100
AcDbEntity
  8
SUNPOU
100
AcDbDimension
  2
*D31
 10
-980.8681644183277
 20
1573.543654825065
 30
0.0
 11
-980.8681644183279
 21
1605.043658755446
 31
0.0
 70
   160
  3
標準スタイル
100
AcDbAlignedDimension
 13
-1074.210240501554
 23
1636.543662685828
 33
0.0
 14
-994.2124119185677
 24
1573.543654825065
 34
0.0
 50
270.0
100
AcDbRotatedDimension
1001
ACAD
1000
DSTYLE
1002
{
1070
   340
1005
10
1070
    40
1040
1.0
1070
    41
1040
2.5
1070
   140
1040
3.5
1070
   271
1070
     3
1002
}
  0
LWPOLYLINE
  5
1437F
330
1A
100
AcDbEntity
  8
ZISSEN1
  6
CONTINUOUS
100
AcDbPolyline
 90
        4
 70
     1
 43
0.0
 10
-1062.26234369649
 20
1518.803489230843
 10
-1062.26234369649
 20
1518.503489230844
 10
-991.4623429727017
 20
1518.503489230843
 10
-991.4623429727017
 20
1518.803489230843
  0
LINE
  5
14380
330
1A
100
AcDbEntity
  8
ZISSEN1
100
AcDbLine
 10
-1042.562342972701
 20
1541.503489230843
 30
0.0
 11
-1069.962342972701
 21
1541.503489230843
 31
0.0
  0
LINE
  5
14381
330
1A
100
AcDbEntity
  8
ZISSEN1
  6
CONTINUOUS
100
AcDbLine
 10
-990.9623429727016
 20
1512.203489230843
 30
0.0
 11
-1080.962342972701
 21
1512.203489230843
 31
0.0
  0
LINE
  5
14382
330
1A
100
AcDbEntity
  8
ZISSEN1
  6
CONTINUOUS
100
AcDbLine
 10
-998.4623429727017
 20
1520.403489230843
 30
0.0
 11
-1082.452591736112
 21
1520.403489230843
 31
0.0
  0
LINE
  5
14383
330
1A
100
AcDbEntity
  8
ZISSEN1
  6
CONTINUOUS
100
AcDbLine
 10
-998.4623429727017
 20
1518.803489230843
 30
0.0
 11
-1082.462342972701
 21
1518.803489230843
 31
0.0
  0
LINE
  5
14384
330
1A
100
AcDbEntity
  8
ZISSEN1
  6
CONTINUOUS
100
AcDbLine
 10
-992.2623429727027
 20
1530.003489230843
 30
0.0
 11
-1069.962342972701
 21
1530.003489230843
 31
0.0
  0
LINE
  5
14385
330
1A
100
AcDbEntity
  8
ZISSEN1
  6
CONTINUOUS
100
AcDbLine
 10
-991.4623429727017
 20
1528.403489230843
 30
0.0
 11
-1069.962342972701
 21
1528.403489230843
 31
0.0
  0
LINE
  5
14386
330
1A
100
AcDbEntity
  8
ZISSEN1
100
AcDbLine
 10
-1067.5123429727
 20
1626.143654825064
 30
0.0
 11
-1045.0123429727
 21
1626.143654825064
 31
0.0
  0
LINE
  5
14387
330
1A
100
AcDbEntity
  8
ZISSEN1
100
AcDbLine
 10
-1044.4123429727
 20
1626.743654825065
 30
0.0
 11
-1068.112342972701
 21
1626.743654825065
 31
0.0
  0
LINE
  5
14388
330
1A
100
AcDbEntity
  8
ZISSEN1
100
AcDbLine
 10
-1069.112342972701
 20
1631.343654825065
 30
0.0
 11
-1043.4123429727
 21
1631.343654825065
 31
0.0
  0
LINE
  5
14389
330
1A
100
AcDbEntity
  8
ZISSEN1
100
AcDbLine
 10
-1069.962342972701
 20
1632.043654825064
 30
0.0
 11
-1042.562342972701
 21
1632.043654825064
 31
0.0
  0
LINE
  5
1438A
330
1A
100
AcDbEntity
  8
ZISSEN1
100
AcDbLine
 10
-1042.562342972701
 20
1625.243654825065
 30
0.0
 11
-1054.562342972701
 21
1625.243654825064
 31
0.0
  0
LINE
  5
1438B
330
1A
100
AcDbEntity
  8
ZISSEN1
  6
CONTINUOUS
100
AcDbLine
 10
-1001.462344519087
 20
1571.543654825064
 30
0.0
 11
-1082.462342972701
 21
1571.543654825064
 31
0.0
  0
LINE
  5
1438C
330
1A
100
AcDbEntity
  8
ZISSEN1
  6
CONTINUOUS
100
AcDbLine
 10
-1071.462342972701
 20
1638.543646964301
 30
0.0
 11
-992.4623449584018
 21
1638.5436469643
 31
0.0
  0
LINE
  5
1438D
330
1A
100
AcDbEntity
  8
ZISSEN1
  6
CONTINUOUS
100
AcDbLine
 10
-991.9623449584014
 20
1639.043646964301
 30
0.0
 11
-1074.210240501554
 21
1639.043662685828
 31
0.0
  0
MTEXT
  5
1438E
330
1A
100
AcDbEntity
  8
ZISSEN1
100
AcDbMText
 10
-1067.172274619512
 20
1689.722229487426
 30
0.0
 40
5.0
 41
108.3598999999999
 71
     1
 72
     5
  1
ADB-2F42DB  No.SS0001f99
1001
ACAD
1000
MTEXTBEGIN
1070
    73
1070
     1
1070
    44
1040
1.0
1070
    74
1070
     0
1000
MTEXTEND
1000
MTEXTBEGIN
1070
    73
1070
     1
1070
    44
1040
1.0
1070
    74
1070
     0
1000
MTEXTEND
1000
MTEXTBEGIN
1070
    73
1070
     1
1070
    44
1040
1.0
1070
    74
1070
     0
1000
MTEXTEND
1000
MTEXTBEGIN
1070
    73
1070
     1
1070
    44
1040
1.0
1070
    74
1070
     0
1000
MTEXTEND
  0
DIMENSION
  5
1438F
330
1A
100
AcDbEntity
  8
SUNPOU
100
AcDbDimension
  2
*D32
 10
-1094.000294034999
 20
1570.043654825064
 30
0.0
 11
-1096.750294034999
 21
1605.043654825064
 31
0.0
 70
    32
  3
標準スタイル
100
AcDbAlignedDimension
 13
-1085.962342972701
 23
1640.043654825064
 33
0.0
 14
-1085.962342972701
 24
1570.043654825064
 34
0.0
 50
270.0
100
AcDbRotatedDimension
1001
ACAD
1000
DSTYLE
1002
{
1070
   340
1005
10
1070
    41
1040
2.5
1070
   140
1040
3.5
1070
    40
1040
1.0
1002
}
  0
LINE
  5
14390
330
1A
100
AcDbEntity
  8
ZISSEN1
  6
CONTINUOUS
100
AcDbLine
 10
-1071.462342972701
 20
1638.543646964301
 30
0.0
 11
-1071.462342972702
 21
1632.043654825064
 31
0.0
  0
LINE
  5
14391
330
1A
100
AcDbEntity
  8
ZISSEN1
100
AcDbLine
 10
-1080.962342972701
 20
1638.043662685828
 30
0.0
 11
-1080.962342972701
 21
1633.543654825289
 31
0.0
  0
CIRCLE
  5
14392
330
1A
100
AcDbEntity
  8
ZISSEN1
  6
CONTINUOUS
100
AcDbCircle
 10
-1066.962342972701
 20
1635.543654825064
 30
0.0
 40
2.75
  0
LINE
  5
14393
330
1A
100
AcDbEntity
  8
ZISSEN1
  6
CONTINUOUS
100
AcDbLine
 10
-1067.362342972701
 20
1637.043654825065
 30
0.0
 11
-1067.362342972701
 21
1635.943654825065
 31
0.0
  0
LINE
  5
14394
330
1A
100
AcDbEntity
  8
ZISSEN1
  6
CONTINUOUS
100
AcDbLine
 10
-1066.562342972701
 20
1635.943654825065
 30
0.0
 11
-1066.562342972701
 21
1637.043654825065
 31
0.0
  0
LINE
  5
14395
330
1A
100
AcDbEntity
  8
ZISSEN1
100
AcDbLine
 10
-1074.210240501554
 20
1639.043662685828
 30
0.0
 11
-1074.210240501554
 21
1635.543662685828
 31
0.0
  0
LINE
  5
14396
330
1A
100
AcDbEntity
  8
ZISSEN1
100
AcDbLine
 10
-1077.710240501553
 20
1639.043662685828
 30
0.0
 11
-1077.710240501553
 21
1635.543662685828
 31
0.0
  0
LINE
  5
14397
330
1A
100
AcDbEntity
  8
CL1
100
AcDbLine
 10
-1075.962340987
 20
1639.043662685828
 30
0.0
 11
-1075.962340987
 21
1633.793663946411
 31
0.0
  0
LINE
  5
14398
330
1A
100
AcDbEntity
  8
ZISSEN1
100
AcDbLine
 10
-1082.962342972701
 20
1640.043654825064
 30
0.0
 11
-1082.962340987
 21
1631.043662685828
 31
0.0
  0
LINE
  5
14399
330
1A
100
AcDbEntity
  8
ZISSEN1
  6
CONTINUOUS
100
AcDbLine
 10
-1082.962342972701
 20
1637.043654825065
 30
0.0
 11
-1082.962342972701
 21
1629.543654825065
 31
0.0
  0
LINE
  5
1439A
330
1A
100
AcDbEntity
  8
ZISSEN1
  6
CONTINUOUS
100
AcDbLine
 10
-1085.962342972701
 20
1570.043654825064
 30
0.0
 11
-1085.962342972701
 21
1640.043654825064
 31
0.0
  0
LINE
  5
1439B
330
1A
100
AcDbEntity
  8
ZISSEN1
  6
CONTINUOUS
100
AcDbLine
 10
-1069.962342972701
 20
1638.543646964301
 30
0.0
 11
-1069.962342972701
 21
1571.543654825065
 31
0.0
  0
DIMENSION
  5
1439C
330
1A
100
AcDbEntity
  8
SUNPOU
100
AcDbDimension
  2
*D33
 10
-1085.962342972701
 20
1560.827158006554
 30
0.0
 11
-1080.96234197985
 21
1563.577158006554
 31
0.0
 70
    32
  3
標準スタイル
100
AcDbAlignedDimension
 13
-1075.962340987
 23
1633.793663946411
 33
0.0
 14
-1085.962342972701
 24
1570.043654825064
 34
0.0
100
AcDbRotatedDimension
1001
ACAD
1000
DSTYLE
1002
{
1070
   340
1005
10
1070
    40
1040
1.0
1002
}
  0
LINE
  5
1439D
330
1A
100
AcDbEntity
  8
ZISSEN1
  6
CONTINUOUS
100
AcDbLine
 10
-1082.962342972701
 20
1636.043654825065
 30
0.0
 11
-1082.962342972701
 21
1570.043654825064
 31
0.0
  0
DIMENSION
  5
1439E
330
1A
100
AcDbEntity
  8
SUNPOU
100
AcDbDimension
  2
*D34
 10
-1082.962342972701
 20
1550.249353731406
 30
0.0
 11
-1089.866259809429
 21
1553.983996465256
 31
0.0
 70
   160
  3
標準スタイル
100
AcDbAlignedDimension
 13
-1085.962342972701
 23
1544.203489230842
 33
0.0
 14
-1082.962342972701
 24
1544.203489230842
 34
0.0
100
AcDbRotatedDimension
1001
ACAD
1000
DSTYLE
1002
{
1070
   287
1070
     5
1070
   340
1005
10
1070
    40
1040
1.0
1070
   279
1070
     2
1002
}
  0
LINE
  5
1439F
330
1A
100
AcDbEntity
  8
ZISSEN1
100
AcDbLine
 10
-1080.962342972701
 20
1540.403489230843
 30
0.0
 11
-1070.962342972701
 21
1540.403489230843
 31
0.0
  0
LINE
  5
143A0
330
1A
100
AcDbEntity
  8
ZISSEN1
  6
CONTINUOUS
100
AcDbLine
 10
-1071.66234369649
 20
1515.203489230848
 30
0.0
 11
-1080.962342972708
 21
1515.203489230849
 31
0.0
  0
LINE
  5
143A1
330
1A
100
AcDbEntity
  8
ZISSEN1
100
AcDbLine
 10
-1080.962342972701
 20
1540.403489230843
 30
0.0
 11
-1080.962342972701
 21
1520.403489230843
 31
0.0
  0
LINE
  5
143A2
330
1A
100
AcDbEntity
  8
ZISSEN1
  6
CONTINUOUS
100
AcDbLine
 10
-1085.962342972701
 20
1517.203489230843
 30
0.0
 11
-1085.962342972701
 21
1544.203489230842
 31
0.0
  0
LINE
  5
143A3
330
1A
100
AcDbEntity
  8
ZISSEN1
  6
CONTINUOUS
100
AcDbLine
 10
-1082.962342972701
 20
1517.203489230849
 30
0.0
 11
-1082.962342972701
 21
1544.203489230842
 31
0.0
  0
LINE
  5
143A4
330
1A
100
AcDbEntity
  8
CL1
100
AcDbLine
 10
-1082.090419258953
 20
1534.203489230843
 30
0.0
 11
-1086.931920065206
 21
1534.203489230843
 31
0.0
  0
LINE
  5
143A5
330
1A
100
AcDbEntity
  8
ZISSEN1
  6
DASHEDX2
100
AcDbLine
 10
-1080.962342972708
 20
1515.203489230849
 30
0.0
 11
-1080.962342972701
 21
1512.203489230843
 31
0.0
  0
LINE
  5
143A6
330
1A
100
AcDbEntity
  8
ZISSEN1
  6
DASHEDX2
100
AcDbLine
 10
-1082.962342972701
 20
1517.203489230843
 30
0.0
 11
-1085.962342972701
 21
1517.203489230843
 31
0.0
  0
ARC
  5
143A7
330
1A
100
AcDbEntity
  8
ZISSEN1
100
AcDbCircle
 10
-1080.962342972701
 20
1517.203489230849
 30
0.0
 40
2.0
100
AcDbArc
 50
180.0000000001823
 51
269.9999999998175
  0
LINE
  5
143A8
330
1A
100
AcDbEntity
  8
ZISSEN1
  6
CONTINUOUS
100
AcDbLine
 10
-1082.462342972701
 20
1520.403489230843
 30
0.0
 11
-1082.462342972701
 21
1518.803489230843
 31
0.0
  0
ARC
  5
143A9
330
1A
100
AcDbEntity
  8
ZISSEN1
  6
CONTINUOUS
100
AcDbCircle
 10
-1080.962342972701
 20
1517.203489230843
 30
0.0
 40
5.0
100
AcDbArc
 50
180.0
 51
270.0
  0
LWPOLYLINE
  5
143AA
330
1A
100
AcDbEntity
  8
ZISSEN1
  6
CONTINUOUS
100
AcDbPolyline
 90
        4
 70
     1
 43
0.0
 10
-1085.962342972701
 20
1535.953489230843
 10
-1085.962342972701
 20
1532.453489230842
 10
-1082.962342972701
 20
1532.453489230842
 10
-1082.962342972701
 20
1535.953489230843
  0
LINE
  5
143AB
330
1A
100
AcDbEntity
  8
ZISSEN1
  6
CONTINUOUS
100
AcDbLine
 10
-1082.962342972701
 20
1542.203489230843
 30
0.0
 11
-1085.962342972701
 21
1542.203489230843
 31
0.0
  0
LINE
  5
143AC
330
1A
100
AcDbEntity
  8
ZISSEN1
  6
CONTINUOUS
100
AcDbLine
 10
-1082.962342972701
 20
1544.203489230842
 30
0.0
 11
-1085.962342972701
 21
1544.203489230842
 31
0.0
  0
LINE
  5
143AD
330
1A
100
AcDbEntity
  8
ZISSEN1
  6
CONTINUOUS
100
AcDbLine
 10
-1082.962342972701
 20
1570.043654825064
 30
0.0
 11
-1085.962342972701
 21
1570.043654825064
 31
0.0
  0
LINE
  5
143AE
330
1A
100
AcDbEntity
  8
ZISSEN1
100
AcDbLine
 10
-1070.962342972701
 20
1540.403489230843
 30
0.0
 11
-1070.962342972701
 21
1520.403489230843
 31
0.0
  0
LINE
  5
143AF
330
1A
100
AcDbEntity
  8
ZISSEN1
100
AcDbLine
 10
-1069.962342972701
 20
1530.003489230843
 30
0.0
 11
-1069.962342972701
 21
1541.503489230843
 31
0.0
  0
LWPOLYLINE
  5
143B0
330
1A
100
AcDbEntity
  8
ZISSEN1
  6
CONTINUOUS
100
AcDbPolyline
 90
        4
 70
     1
 43
0.0
 10
-1071.66234369649
 20
1515.503489230847
 10
-1071.66234369649
 20
1515.203489230848
 10
-1062.26234369649
 20
1515.203489230848
 10
-1062.26234369649
 20
1515.503489230848
  0
ARC
  5
143B1
330
1A
100
AcDbEntity
  8
ZISSEN1
100
AcDbCircle
 10
-1066.962342972701
 20
1527.311690406327
 30
0.0
 40
4.06366340092025
100
AcDbArc
 50
47.4114170199188
 51
132.5885829800811
  0
LWPOLYLINE
  5
143B2
330
1A
100
AcDbEntity
  8
ZISSEN1
  6
CONTINUOUS
100
AcDbPolyline
 90
        4
 70
     1
 43
0.0
 10
-1071.66234369649
 20
1518.803489230843
 10
-1071.66234369649
 20
1518.503489230844
 10
-1062.26234369649
 20
1518.503489230844
 10
-1062.26234369649
 20
1518.803489230843
  0
LINE
  5
143B3
330
1A
100
AcDbEntity
  8
ZISSEN1
100
AcDbLine
 10
-1069.462342972701
 20
1528.40348923579
 30
0.0
 11
-1069.462342972701
 21
1520.40348923579
 31
0.0
  0
LINE
  5
143B4
330
1A
100
AcDbEntity
  8
ZISSEN1
  6
CONTINUOUS
100
AcDbLine
 10
-1071.462342972702
 20
1520.403489230843
 30
0.0
 11
-1071.462342972702
 21
1518.803489230843
 31
0.0
  0
LINE
  5
143B5
330
1A
100
AcDbEntity
  8
ZISSEN1
100
AcDbLine
 10
-1069.712342972702
 20
1530.00348923579
 30
0.0
 11
-1069.712342972702
 21
1530.30348923579
 31
0.0
  0
LINE
  5
143B6
330
1A
100
AcDbEntity
  8
ZISSEN1
100
AcDbLine
 10
-1069.712342972702
 20
1530.00348923579
 30
0.0
 11
-1069.712342972702
 21
1530.00348923579
 31
0.0
  0
LINE
  5
143B7
330
1A
100
AcDbEntity
  8
ZISSEN1
100
AcDbLine
 10
-1070.46234369649
 20
1518.503489230844
 30
0.0
 11
-1070.46234369649
 21
1515.503489230843
 31
0.0
  0
LINE
  5
143B8
330
1A
100
AcDbEntity
  8
ZISSEN1
  6
CONTINUOUS
100
AcDbLine
 10
-1069.962342972701
 20
1530.003489230843
 30
0.0
 11
-1069.962342972701
 21
1528.403489230843
 31
0.0
  0
LINE
  5
143B9
330
1A
100
AcDbEntity
  8
ZISSEN1
100
AcDbLine
 10
-1064.462342972701
 20
1528.40348923579
 30
0.0
 11
-1064.462342972701
 21
1520.40348923579
 31
0.0
  0
LINE
  5
143BA
330
1A
100
AcDbEntity
  8
ZISSEN1
100
AcDbLine
 10
-1063.462343334595
 20
1515.203489230848
 30
0.0
 11
-1063.462342972701
 21
1512.203489230843
 31
0.0
  0
LINE
  5
143BB
330
1A
100
AcDbEntity
  8
ZISSEN1
100
AcDbLine
 10
-1063.46234369649
 20
1518.503489230844
 30
0.0
 11
-1063.46234369649
 21
1515.503489230843
 31
0.0
  0
LINE
  5
143BC
330
1A
100
AcDbEntity
  8
ZISSEN1
100
AcDbLine
 10
-1064.212342972702
 20
1530.30348923579
 30
0.0
 11
-1064.212342972702
 21
1530.00348923579
 31
0.0
  0
LINE
  5
143BD
330
1A
100
AcDbEntity
  8
ZISSEN1
100
AcDbLine
 10
-1070.962342972701
 20
1629.743654825064
 30
0.0
 11
-1080.962342972701
 21
1629.743654825064
 31
0.0
  0
LINE
  5
143BE
330
1A
100
AcDbEntity
  8
ZISSEN1
100
AcDbLine
 10
-1070.962342972701
 20
1578.046473498503
 30
0.0
 11
-1080.962342972701
 21
1578.046473498503
 31
0.0
  0
LINE
  5
143BF
330
1A
100
AcDbEntity
  8
ZISSEN1
100
AcDbLine
 10
-1080.962342972701
 20
1629.743654825064
 30
0.0
 11
-1070.962342972701
 21
1629.743654825064
 31
0.0
  0
LINE
  5
143C0
330
1A
100
AcDbEntity
  8
ZISSEN1
  6
CONTINUOUS
100
AcDbLine
 10
-1080.962342848592
 20
1572.043654825067
 30
0.0
 11
-1079.962334987831
 21
1571.043646964307
 31
0.0
  0
LINE
  5
143C1
330
1A
100
AcDbEntity
  8
ZISSEN1
  6
CONTINUOUS
100
AcDbLine
 10
-1082.462342972702
 20
1632.043654825064
 30
0.0
 11
-1071.462342972702
 21
1632.043654825064
 31
0.0
  0
LINE
  5
143C2
330
1A
100
AcDbEntity
  8
ZISSEN1
100
AcDbLine
 10
-1080.962342972701
 20
1578.046473498503
 30
0.0
 11
-1080.962342972701
 21
1629.743654825064
 31
0.0
  0
LINE
  5
143C3
330
1A
100
AcDbEntity
  8
ZISSEN1
  6
CONTINUOUS
100
AcDbLine
 10
-1082.462342972701
 20
1575.743654825064
 30
0.0
 11
-1082.462342972701
 21
1632.043654825064
 31
0.0
  0
LINE
  5
143C4
330
1A
100
AcDbEntity
  8
CL1
100
AcDbLine
 10
-1086.64108599553
 20
1572.543654825065
 30
0.0
 11
-1082.425978119936
 21
1572.543654825065
 31
0.0
  0
LINE
  5
143C5
330
1A
100
AcDbEntity
  8
ZISSEN1
  6
CONTINUOUS
100
AcDbLine
 10
-1081.962342848592
 20
1574.043654824843
 30
0.0
 11
-1082.962342972701
 21
1574.043654824843
 31
0.0
  0
ARC
  5
143C6
330
1A
100
AcDbEntity
  8
ZISSEN1
  6
DASHEDX2
100
AcDbCircle
 10
-1081.962342848592
 20
1573.043654824842
 30
0.0
 40
1.000000000000454
100
AcDbArc
 50
0.0000000000260551
 51
90.0
  0
LINE
  5
143C7
330
1A
100
AcDbEntity
  8
ZISSEN1
  6
DASHEDX2
100
AcDbLine
 10
-1080.962342848592
 20
1572.043654825067
 30
0.0
 11
-1080.962342848592
 21
1573.043654824842
 31
0.0
  0
LINE
  5
143C8
330
1A
100
AcDbEntity
  8
ZISSEN1
100
AcDbLine
 10
-1082.462342972701
 20
1575.743654825064
 30
0.0
 11
-1082.462342972701
 21
1571.543654825064
 31
0.0
  0
LINE
  5
143C9
330
1A
100
AcDbEntity
  8
ZISSEN1
  6
CONTINUOUS
100
AcDbLine
 10
-1082.962342972701
 20
1572.043654825064
 30
0.0
 11
-1085.962342972701
 21
1572.043654825064
 31
0.0
  0
ARC
  5
143CA
330
1A
100
AcDbEntity
  8
ZISSEN1
100
AcDbCircle
 10
-1081.962342972701
 20
1633.54365482529
 30
0.0
 40
1.000000000000454
100
AcDbArc
 50
270.0
 51
359.9999999999739
  0
LINE
  5
143CB
330
1A
100
AcDbEntity
  8
ZISSEN1
100
AcDbLine
 10
-1081.962342972701
 20
1632.543654825289
 30
0.0
 11
-1082.962342807227
 21
1632.543654825289
 31
0.0
  0
LINE
  5
143CC
330
1A
100
AcDbEntity
  8
ZISSEN1
100
AcDbLine
 10
-1070.962342972701
 20
1629.743654825064
 30
0.0
 11
-1070.962342972701
 21
1578.046473498503
 31
0.0
  0
CIRCLE
  5
143CD
330
1A
100
AcDbEntity
  8
ZISSEN1
  6
CONTINUOUS
100
AcDbCircle
 10
-1066.962342972701
 20
1574.543654825065
 30
0.0
 40
2.75
  0
LINE
  5
143CE
330
1A
100
AcDbEntity
  8
ZISSEN1
  6
CONTINUOUS
100
AcDbLine
 10
-1063.462342972701
 20
1571.043654825064
 30
0.0
 11
-1079.962340987001
 21
1571.043646964304
 31
0.0
  0
LINE
  5
143CF
330
1A
100
AcDbEntity
  8
ZISSEN1
  6
CONTINUOUS
100
AcDbLine
 10
-1065.4623429727
 20
1574.143654825065
 30
0.0
 11
-1065.4623429727
 21
1574.543654825065
 31
0.0
  0
LINE
  5
143D0
330
1A
100
AcDbEntity
  8
ZISSEN1
  6
CONTINUOUS
100
AcDbLine
 10
-1065.4623429727
 20
1574.543654825065
 30
0.0
 11
-1065.4623429727
 21
1574.943654825065
 31
0.0
  0
LINE
  5
143D1
330
1A
100
AcDbEntity
  8
ZISSEN1
  6
CONTINUOUS
100
AcDbLine
 10
-1066.562342972701
 20
1573.043654825065
 30
0.0
 11
-1066.9623429727
 21
1573.043654825065
 31
0.0
  0
LINE
  5
143D2
330
1A
100
AcDbEntity
  8
ZISSEN1
  6
CONTINUOUS
100
AcDbLine
 10
-1066.9623429727
 20
1573.043654825065
 30
0.0
 11
-1067.362342972701
 21
1573.043654825065
 31
0.0
  0
LINE
  5
143D3
330
1A
100
AcDbEntity
  8
ZISSEN1
  6
CONTINUOUS
100
AcDbLine
 10
-1068.4623429727
 20
1574.543654825065
 30
0.0
 11
-1068.4623429727
 21
1574.943654825065
 31
0.0
  0
LINE
  5
143D4
330
1A
100
AcDbEntity
  8
ZISSEN1
  6
CONTINUOUS
100
AcDbLine
 10
-1068.4623429727
 20
1574.143654825065
 30
0.0
 11
-1068.4623429727
 21
1574.543654825065
 31
0.0
  0
LINE
  5
143D5
330
1A
100
AcDbEntity
  8
ZISSEN1
  6
CONTINUOUS
100
AcDbLine
 10
-1066.562342972701
 20
1574.143654825065
 30
0.0
 11
-1066.562342972701
 21
1573.043654825065
 31
0.0
  0
LINE
  5
143D6
330
1A
100
AcDbEntity
  8
ZISSEN1
  6
CONTINUOUS
100
AcDbLine
 10
-1067.362342972701
 20
1573.043654825065
 30
0.0
 11
-1067.362342972701
 21
1574.143654825065
 31
0.0
  0
LINE
  5
143D7
330
1A
100
AcDbEntity
  8
ZISSEN1
  6
CONTINUOUS
100
AcDbLine
 10
-1067.362342972701
 20
1574.143654825065
 30
0.0
 11
-1068.4623429727
 21
1574.143654825065
 31
0.0
  0
LINE
  5
143D8
330
1A
100
AcDbEntity
  8
ZISSEN1
  6
CONTINUOUS
100
AcDbLine
 10
-1068.4623429727
 20
1574.943654825065
 30
0.0
 11
-1067.362342972701
 21
1574.943654825065
 31
0.0
  0
LINE
  5
143D9
330
1A
100
AcDbEntity
  8
ZISSEN1
  6
CONTINUOUS
100
AcDbLine
 10
-1066.9623429727
 20
1576.043654825065
 30
0.0
 11
-1067.362342972701
 21
1576.043654825065
 31
0.0
  0
LINE
  5
143DA
330
1A
100
AcDbEntity
  8
ZISSEN1
  6
CONTINUOUS
100
AcDbLine
 10
-1066.562342972701
 20
1576.043654825065
 30
0.0
 11
-1066.9623429727
 21
1576.043654825065
 31
0.0
  0
LINE
  5
143DB
330
1A
100
AcDbEntity
  8
ZISSEN1
  6
CONTINUOUS
100
AcDbLine
 10
-1067.362342972701
 20
1576.043654825065
 30
0.0
 11
-1067.362342972701
 21
1574.943654825065
 31
0.0
  0
LINE
  5
143DC
330
1A
100
AcDbEntity
  8
ZISSEN1
  6
CONTINUOUS
100
AcDbLine
 10
-1066.562342972701
 20
1574.943654825065
 30
0.0
 11
-1066.562342972701
 21
1576.043654825065
 31
0.0
  0
LINE
  5
143DD
330
1A
100
AcDbEntity
  8
ZISSEN1
  6
CONTINUOUS
100
AcDbLine
 10
-1065.4623429727
 20
1574.943654825065
 30
0.0
 11
-1066.562342972701
 21
1574.943654825065
 31
0.0
  0
LINE
  5
143DE
330
1A
100
AcDbEntity
  8
ZISSEN1
  6
CONTINUOUS
100
AcDbLine
 10
-1066.562342972701
 20
1574.143654825065
 30
0.0
 11
-1065.4623429727
 21
1574.143654825065
 31
0.0
  0
LINE
  5
143DF
330
1A
100
AcDbEntity
  8
ZISSEN1
  6
CONTINUOUS
100
AcDbLine
 10
-1063.462342972701
 20
1571.543654825065
 30
0.0
 11
-1063.462342972701
 21
1571.043654825064
 31
0.0
  0
LINE
  5
143E0
330
1A
100
AcDbEntity
  8
ZISSEN1
100
AcDbLine
 10
-1057.962342972701
 20
1625.243654825065
 30
0.0
 11
-1069.962342972701
 21
1625.243654825065
 31
0.0
  0
LINE
  5
143E1
330
1A
100
AcDbEntity
  8
ZISSEN1
  6
CONTINUOUS
100
AcDbLine
 10
-1065.4623429727
 20
1635.143654825065
 30
0.0
 11
-1065.4623429727
 21
1635.543654825064
 31
0.0
  0
LINE
  5
143E2
330
1A
100
AcDbEntity
  8
ZISSEN1
  6
CONTINUOUS
100
AcDbLine
 10
-1065.4623429727
 20
1635.543654825064
 30
0.0
 11
-1065.4623429727
 21
1635.943654825065
 31
0.0
  0
LINE
  5
143E3
330
1A
100
AcDbEntity
  8
ZISSEN1
  6
CONTINUOUS
100
AcDbLine
 10
-1066.562342972701
 20
1634.043654825064
 30
0.0
 11
-1066.9623429727
 21
1634.043654825064
 31
0.0
  0
LINE
  5
143E4
330
1A
100
AcDbEntity
  8
ZISSEN1
  6
CONTINUOUS
100
AcDbLine
 10
-1066.9623429727
 20
1634.043654825064
 30
0.0
 11
-1067.362342972701
 21
1634.043654825064
 31
0.0
  0
LINE
  5
143E5
330
1A
100
AcDbEntity
  8
ZISSEN1
  6
CONTINUOUS
100
AcDbLine
 10
-1068.4623429727
 20
1635.543654825064
 30
0.0
 11
-1068.4623429727
 21
1635.943654825065
 31
0.0
  0
LINE
  5
143E6
330
1A
100
AcDbEntity
  8
ZISSEN1
  6
CONTINUOUS
100
AcDbLine
 10
-1068.4623429727
 20
1635.143654825065
 30
0.0
 11
-1068.4623429727
 21
1635.543654825064
 31
0.0
  0
LINE
  5
143E7
330
1A
100
AcDbEntity
  8
ZISSEN1
  6
CONTINUOUS
100
AcDbLine
 10
-1066.562342972701
 20
1635.143654825065
 30
0.0
 11
-1066.562342972701
 21
1634.043654825064
 31
0.0
  0
LINE
  5
143E8
330
1A
100
AcDbEntity
  8
ZISSEN1
  6
CONTINUOUS
100
AcDbLine
 10
-1067.362342972701
 20
1634.043654825064
 30
0.0
 11
-1067.362342972701
 21
1635.143654825065
 31
0.0
  0
LINE
  5
143E9
330
1A
100
AcDbEntity
  8
ZISSEN1
  6
CONTINUOUS
100
AcDbLine
 10
-1067.362342972701
 20
1635.143654825065
 30
0.0
 11
-1068.4623429727
 21
1635.143654825065
 31
0.0
  0
LINE
  5
143EA
330
1A
100
AcDbEntity
  8
ZISSEN1
  6
CONTINUOUS
100
AcDbLine
 10
-1068.4623429727
 20
1635.943654825065
 30
0.0
 11
-1067.362342972701
 21
1635.943654825065
 31
0.0
  0
LINE
  5
143EB
330
1A
100
AcDbEntity
  8
ZISSEN1
  6
CONTINUOUS
100
AcDbLine
 10
-1065.4623429727
 20
1635.943654825065
 30
0.0
 11
-1066.562342972701
 21
1635.943654825065
 31
0.0
  0
LINE
  5
143EC
330
1A
100
AcDbEntity
  8
ZISSEN1
  6
CONTINUOUS
100
AcDbLine
 10
-1066.562342972701
 20
1635.143654825065
 30
0.0
 11
-1065.4623429727
 21
1635.143654825065
 31
0.0
  0
LINE
  5
143ED
330
1A
100
AcDbEntity
  8
ZISSEN1
100
AcDbLine
 10
-1069.962342972701
 20
1625.243654825065
 30
0.0
 11
-1069.962342972701
 21
1632.043654825064
 31
0.0
  0
LINE
  5
143EE
330
1A
100
AcDbEntity
  8
ZISSEN1
100
AcDbLine
 10
-1069.112342972701
 20
1625.943654825064
 30
0.0
 11
-1069.112342972701
 21
1631.343654825065
 31
0.0
  0
LINE
  5
143EF
330
1A
100
AcDbEntity
  8
ZISSEN1
100
AcDbLine
 10
-1068.112342972701
 20
1626.743654825065
 30
0.0
 11
-1068.112342972701
 21
1625.943654825064
 31
0.0
  0
LINE
  5
143F0
330
1A
100
AcDbEntity
  8
ZISSEN1
100
AcDbLine
 10
-1067.5123429727
 20
1625.243654825065
 30
0.0
 11
-1067.5123429727
 21
1626.143654825064
 31
0.0
  0
LINE
  5
143F1
330
1A
100
AcDbEntity
  8
ZISSEN1
100
AcDbLine
 10
-1068.112342972701
 20
1625.943654825064
 30
0.0
 11
-1069.112342972701
 21
1625.943654825064
 31
0.0
  0
ARC
  5
143F2
330
1A
100
AcDbEntity
  8
ZISSEN1
100
AcDbCircle
 10
-1075.960240501554
 20
1635.543662685828
 30
0.0
 40
1.749999999999772
100
AcDbArc
 50
180.0
 51
0.0
  0
LINE
  5
143F3
330
1A
100
AcDbEntity
  8
CL1
100
AcDbLine
 10
-1074.210240501554
 20
1636.543662685828
 30
0.0
 11
-1077.710240501553
 21
1636.543662685828
 31
0.0
  0
LWPOLYLINE
  5
143F4
330
1A
100
AcDbEntity
  8
ZISSEN1
100
AcDbPolyline
 90
        4
 70
     1
 43
0.0
 10
-1060.2623429727
 20
1625.543654825065
 10
-1059.0123429727
 20
1625.543654825065
 10
-1059.0123429727
 20
1626.143654825064
 10
-1060.2623429727
 20
1626.143654825064
  0
LINE
  5
143F5
330
1A
100
AcDbEntity
  8
ZISSEN1
100
AcDbLine
 10
-1060.462342972701
 20
1626.143654825064
 30
0.0
 11
-1060.462342972701
 21
1625.243654825065
 31
0.0
  0
LINE
  5
143F6
330
1A
100
AcDbEntity
  8
ZISSEN1
100
AcDbLine
 10
-1053.712342972701
 20
1626.143654825064
 30
0.0
 11
-1053.712342972701
 21
1625.243654825065
 31
0.0
  0
LINE
  5
143F7
330
1A
100
AcDbEntity
  8
ZISSEN1
100
AcDbLine
 10
-1052.0623429727
 20
1626.143654825064
 30
0.0
 11
-1052.0623429727
 21
1625.243654825065
 31
0.0
  0
LINE
  5
143F8
330
1A
100
AcDbEntity
  8
ZISSEN1
100
AcDbLine
 10
-1058.8123429727
 20
1626.143654825064
 30
0.0
 11
-1058.8123429727
 21
1625.243654825065
 31
0.0
  0
LINE
  5
143F9
330
1A
100
AcDbEntity
  8
ZISSEN1
100
AcDbLine
 10
-1058.8123429727
 20
1625.243654825065
 30
0.0
 11
-1053.712342972701
 21
1625.243654825065
 31
0.0
  0
LWPOLYLINE
  5
143FA
330
1A
100
AcDbEntity
  8
ZISSEN1
100
AcDbPolyline
 90
        4
 70
     1
 43
0.0
 10
-1053.512342972701
 20
1625.543654825065
 10
-1052.2623429727
 20
1625.543654825065
 10
-1052.2623429727
 20
1626.143654825064
 10
-1053.512342972701
 20
1626.143654825064
  0
LINE
  5
143FB
330
1A
100
AcDbEntity
  8
ZISSEN1
100
AcDbLine
 10
-1079.962340987001
 20
1639.043662685828
 30
0.0
 11
-1080.962340987001
 21
1638.043662685828
 31
0.0
  0
LINE
  5
143FC
330
1A
100
AcDbEntity
  8
CL1
100
AcDbLine
 10
-1086.530516277428
 20
1637.543654825065
 30
0.0
 11
-1082.462342972701
 21
1637.543654825065
 31
0.0
  0
LINE
  5
143FD
330
1A
100
AcDbEntity
  8
ZISSEN1
  6
CONTINUOUS
100
AcDbLine
 10
-1082.962342972701
 20
1640.043654825064
 30
0.0
 11
-1085.962342972701
 21
1640.043654825064
 31
0.0
  0
LINE
  5
143FE
330
1A
100
AcDbEntity
  8
ZISSEN1
  6
CONTINUOUS
100
AcDbLine
 10
-1082.962342972701
 20
1638.043654825064
 30
0.0
 11
-1085.962342972701
 21
1638.043654825064
 31
0.0
  0
LINE
  5
143FF
330
1A
100
AcDbEntity
  8
ZISSEN1
  6
CONTINUOUS
100
AcDbLine
 10
-1066.9623429727
 20
1637.043654825065
 30
0.0
 11
-1067.362342972701
 21
1637.043654825065
 31
0.0
  0
LINE
  5
14400
330
1A
100
AcDbEntity
  8
ZISSEN1
  6
CONTINUOUS
100
AcDbLine
 10
-1066.562342972701
 20
1637.043654825065
 30
0.0
 11
-1066.9623429727
 21
1637.043654825065
 31
0.0
  0
LINE
  5
14401
330
1A
100
AcDbEntity
  8
ZISSEN1
100
AcDbLine
 10
-1077.710240501553
 20
1639.043662685828
 30
0.0
 11
-1079.962340987001
 21
1639.043662685828
 31
0.0
  0
DIMENSION
  5
14402
330
1A
100
AcDbEntity
  8
SUNPOU
100
AcDbDimension
  2
*D35
 10
-958.4589030628146
 20
1640.043654825064
 30
0.0
 11
-961.5617126708015
 21
1646.59148591317
 31
0.0
 70
   160
  3
標準スタイル
100
AcDbAlignedDimension
 13
-938.1818735568472
 23
1637.543654825065
 33
0.0
 14
-946.1807890839141
 24
1640.043654825064
 34
0.0
 50
90.0
100
AcDbRotatedDimension
1001
ACAD
1000
DSTYLE
1002
{
1070
   287
1070
     5
1070
   340
1005
10
1070
    40
1040
1.0
1070
   279
1070
     2
1002
}
  0
DIMENSION
  5
14403
330
1A
100
AcDbEntity
  8
SUNPOU
100
AcDbDimension
  2
*D36
 10
-958.4589030628146
 20
1572.543654825065
 30
0.0
 11
-961.2089030628149
 21
1605.043654825064
 31
0.0
 70
    32
  3
標準スタイル
100
AcDbAlignedDimension
 13
-938.1818735568472
 23
1637.543654825065
 33
0.0
 14
-938.1818735568472
 24
1572.543654825065
 34
0.0
 50
90.0
100
AcDbRotatedDimension
1001
ACAD
1000
DSTYLE
1002
{
1070
   340
1005
10
1070
    40
1040
1.0
1002
}
  0
LINE
  5
14404
330
1A
100
AcDbEntity
  8
ZISSEN1
100
AcDbLine
 10
-991.4623449584018
 20
1637.5436469643
 30
0.0
 11
-991.4623446336131
 21
1627.493959680877
 31
0.0
  0
LINE
  5
14405
330
1A
100
AcDbEntity
  8
ZISSEN1
100
AcDbLine
 10
-919.4807878792184
 20
1571.043654825064
 30
0.0
 11
-919.4807878792184
 21
1639.043656878979
 31
0.0
  0
LINE
  5
14406
330
1A
100
AcDbEntity
  8
ZISSEN1
100
AcDbLine
 10
-1000.16236479313
 20
1636.093651612787
 30
0.0
 11
-1000.16236479313
 21
1637.343651612787
 31
0.0
  0
LINE
  5
14407
330
1A
100
AcDbEntity
  8
ZISSEN1
100
AcDbLine
 10
-1002.16236479313
 20
1637.343651612787
 30
0.0
 11
-1002.16236479313
 21
1636.093651612787
 31
0.0
  0
LINE
  5
14408
330
1A
100
AcDbEntity
  8
ZISSEN1
100
AcDbLine
 10
-932.3796404158271
 20
1627.493959680876
 30
0.0
 11
-932.3796404158271
 21
1638.543656878979
 31
0.0
  0
LINE
  5
14409
330
1A
100
AcDbEntity
  8
ZISSEN1
100
AcDbLine
 10
-922.4807890839143
 20
1639.043656878979
 30
0.0
 11
-922.4807890839143
 21
1622.042546873083
 31
0.0
  0
LINE
  5
1440A
330
1A
100
AcDbEntity
  8
CL1
100
AcDbLine
 10
-938.1818735568472
 20
1633.793654825065
 30
0.0
 11
-938.1818735568472
 21
1639.043654825062
 31
0.0
  0
LINE
  5
1440B
330
1A
100
AcDbEntity
  8
ZISSEN1
  6
CONTINUOUS
100
AcDbLine
 10
-939.9318735568472
 20
1640.043654825064
 30
0.0
 11
-939.9318735568472
 21
1635.543654825064
 31
0.0
  0
LINE
  5
1440C
330
1A
100
AcDbEntity
  8
ZISSEN1
  6
CONTINUOUS
100
AcDbLine
 10
-936.4318735568472
 20
1640.043654825062
 30
0.0
 11
-936.4318735568472
 21
1635.543654825064
 31
0.0
  0
LINE
  5
1440D
330
1A
100
AcDbEntity
  8
ZISSEN1
  6
CONTINUOUS
100
AcDbLine
 10
-948.180789083914
 20
1638.043654825064
 30
0.0
 11
-948.180789083914
 21
1572.043654825064
 31
0.0
  0
LINE
  5
1440E
330
1A
100
AcDbEntity
  8
ZISSEN1
100
AcDbLine
 10
-933.9796404158274
 20
1638.543656878979
 30
0.0
 11
-933.9796404158274
 21
1627.493959680876
 31
0.0
  0
LINE
  5
1440F
330
1A
100
AcDbEntity
  8
ZISSEN1
100
AcDbLine
 10
-916.180789083914
 20
1571.043654825064
 30
0.0
 11
-916.180789083914
 21
1639.043654825065
 31
0.0
  0
LINE
  5
14410
330
1A
100
AcDbEntity
  8
ZISSEN1
100
AcDbLine
 10
-919.1807890839141
 20
1639.043654825065
 30
0.0
 11
-919.1807890839141
 21
1623.543646873083
 31
0.0
  0
LINE
  5
14411
330
1A
100
AcDbEntity
  8
ZISSEN1
100
AcDbLine
 10
-922.7807890839153
 20
1571.543654825064
 30
0.0
 11
-922.7807890839153
 21
1638.543656878979
 31
0.0
  0
LINE
  5
14412
330
1A
100
AcDbEntity
  8
ZISSEN1
100
AcDbLine
 10
-924.3807890839157
 20
1638.543656878979
 30
0.0
 11
-924.3807890839157
 21
1571.543654825064
 31
0.0
  0
CIRCLE
  5
14413
330
1A
100
AcDbEntity
  8
ZISSEN1
  6
CONTINUOUS
100
AcDbCircle
 10
-994.9623449584024
 20
1635.543646964301
 30
0.0
 40
2.75
  0
LINE
  5
14414
330
1A
100
AcDbEntity
  8
ZISSEN1
  6
CONTINUOUS
100
AcDbLine
 10
-995.362344958402
 20
1637.043646964301
 30
0.0
 11
-995.362344958402
 21
1635.943646964301
 31
0.0
  0
LINE
  5
14415
330
1A
100
AcDbEntity
  8
ZISSEN1
  6
CONTINUOUS
100
AcDbLine
 10
-994.5623449584017
 20
1635.943646964301
 30
0.0
 11
-994.5623449584017
 21
1637.043646964301
 31
0.0
  0
LINE
  5
14416
330
1A
100
AcDbEntity
  8
ZISSEN1
  6
CONTINUOUS
100
AcDbLine
 10
-990.9623429727016
 20
1638.0436449786
 30
0.0
 11
-990.9623445612609
 21
1630.04365968089
 31
0.0
  0
DIMENSION
  5
14417
330
1A
100
AcDbEntity
  8
SUNPOU
100
AcDbDimension
  2
*D37
 10
-948.180789083914
 20
1550.905194218491
 30
0.0
 11
-932.180789083914
 21
1553.655194218491
 31
0.0
 70
    32
  3
標準スタイル
100
AcDbAlignedDimension
 13
-916.180789083914
 23
1571.043654825064
 33
0.0
 14
-948.180789083914
 24
1572.043654825064
 34
0.0
100
AcDbRotatedDimension
1001
ACAD
1000
DSTYLE
1002
{
1070
   340
1005
10
1070
    40
1040
1.0
1002
}
  0
DIMENSION
  5
14418
330
1A
100
AcDbEntity
  8
SUNPOU
100
AcDbDimension
  2
*D38
 10
-938.1818735568472
 20
1560.827158006554
 30
0.0
 11
-927.1813313203805
 21
1563.577158006554
 31
0.0
 70
    32
  3
標準スタイル
100
AcDbAlignedDimension
 13
-916.180789083914
 23
1571.043654825064
 33
0.0
 14
-938.1818735568472
 24
1572.543654825065
 34
0.0
100
AcDbRotatedDimension
1001
ACAD
1000
DSTYLE
1002
{
1070
   340
1005
10
1070
    40
1040
1.0
1002
}
  0
LINE
  5
14419
330
1A
100
AcDbEntity
  8
ZISSEN1
  6
CONTINUOUS
100
AcDbLine
 10
-936.4318735568472
 20
1570.043654825064
 30
0.0
 11
-924.180789083914
 21
1570.043654825062
 31
0.0
  0
LINE
  5
1441A
330
1A
100
AcDbEntity
  8
ZISSEN1
100
AcDbLine
 10
-932.3807890839157
 20
1577.043654825065
 30
0.0
 11
-924.3807890839157
 21
1577.043654825065
 31
0.0
  0
LINE
  5
1441B
330
1A
100
AcDbEntity
  8
ZISSEN1
100
AcDbLine
 10
-932.3807890839157
 20
1572.043654825065
 30
0.0
 11
-924.3807890839157
 21
1572.043654825065
 31
0.0
  0
LINE
  5
1441C
330
1A
100
AcDbEntity
  8
ZISSEN1
100
AcDbLine
 10
-940.8807890839156
 20
1601.293961745503
 30
0.0
 11
-924.3807890839157
 21
1601.293961745503
 31
0.0
  0
LINE
  5
1441D
330
1A
100
AcDbEntity
  8
ZISSEN1
100
AcDbLine
 10
-940.8807890839156
 20
1585.193961745503
 30
0.0
 11
-924.3807890839157
 21
1585.193961745503
 31
0.0
  0
LINE
  5
1441E
330
1A
100
AcDbEntity
  8
ZISSEN1
100
AcDbLine
 10
-940.8807890839156
 20
1601.793961745503
 30
0.0
 11
-924.3807890839157
 21
1601.793961745503
 31
0.0
  0
LINE
  5
1441F
330
1A
100
AcDbEntity
  8
ZISSEN1
100
AcDbLine
 10
-940.8807890839156
 20
1617.893961745503
 30
0.0
 11
-924.3807890839157
 21
1617.893961745503
 31
0.0
  0
LINE
  5
14420
330
1A
100
AcDbEntity
  8
ZISSEN1
100
AcDbLine
 10
-940.8807890839156
 20
1618.393961745503
 30
0.0
 11
-924.3807890839157
 21
1618.393961745503
 31
0.0
  0
LINE
  5
14421
330
1A
100
AcDbEntity
  8
ZISSEN1
100
AcDbLine
 10
-940.8807890839156
 20
1627.493959680877
 30
0.0
 11
-924.3807890839157
 21
1627.493959680876
 31
0.0
  0
LINE
  5
14422
330
1A
100
AcDbEntity
  8
ZISSEN1
100
AcDbLine
 10
-932.3807890839157
 20
1584.043959680876
 30
0.0
 11
-924.3807890839157
 21
1584.043959680876
 31
0.0
  0
LINE
  5
14423
330
1A
100
AcDbEntity
  8
ZISSEN1
100
AcDbLine
 10
-932.3807890839157
 20
1579.043959680876
 30
0.0
 11
-924.3807890839157
 21
1579.043959680876
 31
0.0
  0
LINE
  5
14424
330
1A
100
AcDbEntity
  8
ZISSEN1
100
AcDbLine
 10
-932.3807890839157
 20
1633.043646964301
 30
0.0
 11
-924.3807890839157
 21
1633.043646964301
 31
0.0
  0
DIMENSION
  5
14425
330
1A
100
AcDbEntity
  8
SUNPOU
100
AcDbDimension
  2
*D39
 10
-980.8681644183277
 20
1571.043654825064
 30
0.0
 11
-981.4415404019449
 21
1566.559733645773
 31
0.0
 70
   160
  3
標準スタイル
100
AcDbAlignedDimension
 13
-994.2124119185677
 23
1573.543654825065
 33
0.0
 14
-991.9623429727016
 24
1571.043654825064
 34
0.0
 50
270.0
100
AcDbRotatedDimension
1001
ACAD
1000
DSTYLE
1002
{
1070
   287
1070
     4
1070
   340
1005
10
1070
    40
1040
1.0
1070
   279
1070
     1
1002
}
  0
DIMENSION
  5
14426
330
1A
100
AcDbEntity
  8
SUNPOU
100
AcDbDimension
  2
*D40
 10
-990.9623429727016
 20
1560.827158006554
 30
0.0
 11
-993.4623429727016
 21
1563.577158006554
 31
0.0
 70
    32
  3
標準スタイル
100
AcDbAlignedDimension
 13
-995.9623429727017
 23
1571.043654825064
 33
0.0
 14
-990.9623429727016
 24
1572.043654825064
 34
0.0
100
AcDbRotatedDimension
1001
ACAD
1000
DSTYLE
1002
{
1070
   340
1005
10
1070
    40
1040
1.0
1002
}
  0
DIMENSION
  5
14427
330
1A
100
AcDbEntity
  8
SUNPOU
100
AcDbDimension
  2
*D41
 10
-976.9600177585896
 20
1541.503489230843
 30
0.0
 11
-976.9600177585898
 21
1526.903489230843
 31
0.0
 70
   160
  1
(29)
  3
標準スタイル
100
AcDbAlignedDimension
 13
-990.9623429727016
 23
1512.203489230843
 33
0.0
 14
-1014.6623429727
 24
1541.503489230843
 34
0.0
 50
270.0
100
AcDbRotatedDimension
1001
ACAD
1000
DSTYLE
1002
{
1070
   340
1005
10
1070
    41
1040
2.5
1070
   140
1040
3.5
1070
    40
1040
1.0
1002
}
  0
LWPOLYLINE
  5
14428
330
1A
100
AcDbEntity
  8
ZISSEN1
  6
CONTINUOUS
100
AcDbPolyline
 90
        4
 70
     1
 43
0.0
 10
-1030.160560343308
 20
1515.503489230846
 10
-1030.160560343308
 20
1515.203489230847
 10
-991.4623429727017
 20
1515.203489230847
 10
-991.4623429727017
 20
1515.503489230847
  0
LWPOLYLINE
  5
14429
330
1A
100
AcDbEntity
  8
ZISSEN1
  6
CONTINUOUS
100
AcDbPolyline
 90
        4
 70
     1
 43
0.0
 10
-1030.160560343308
 20
1518.803489230842
 10
-1030.160560343308
 20
1518.503489230843
 10
-991.4623429727017
 20
1518.503489230843
 10
-991.4623429727017
 20
1518.803489230843
  0
LINE
  5
1442A
330
1A
100
AcDbEntity
  8
ZISSEN1
100
AcDbLine
 10
-1014.6623429727
 20
1541.503489230843
 30
0.0
 11
-1042.062342972701
 21
1541.503489230843
 31
0.0
  0
LINE
  5
1442B
330
1A
100
AcDbEntity
  8
ZISSEN1
100
AcDbLine
 10
-1042.062342972701
 20
1530.003489230843
 30
0.0
 11
-1042.062342972701
 21
1541.503489230843
 31
0.0
  0
LINE
  5
1442C
330
1A
100
AcDbEntity
  8
ZISSEN1
100
AcDbLine
 10
-1042.562342972701
 20
1530.003489230843
 30
0.0
 11
-1042.562342972701
 21
1541.503489230843
 31
0.0
  0
LINE
  5
1442D
330
1A
100
AcDbEntity
  8
ZISSEN1
100
AcDbLine
 10
-1020.564386021888
 20
1515.203489230844
 30
0.0
 11
-1020.564386021888
 21
1512.203489230843
 31
0.0
  0
LINE
  5
1442E
330
1A
100
AcDbEntity
  8
ZISSEN1
  6
CONTINUOUS
100
AcDbLine
 10
-1028.960560343308
 20
1518.503489230843
 30
0.0
 11
-1028.960560343308
 21
1515.503489230843
 31
0.0
  0
LINE
  5
1442F
330
1A
100
AcDbEntity
  8
ZISSEN1
100
AcDbLine
 10
-1014.6623429727
 20
1530.003489230843
 30
0.0
 11
-1014.6623429727
 21
1541.503489230843
 31
0.0
  0
LINE
  5
14430
330
1A
100
AcDbEntity
  8
ZISSEN1
100
AcDbLine
 10
-1003.7623429727
 20
1532.503489230842
 30
0.0
 11
-1009.1623429727
 21
1532.503489230842
 31
0.0
  0
LINE
  5
14431
330
1A
100
AcDbEntity
  8
ZISSEN1
100
AcDbLine
 10
-1009.1623429727
 20
1532.503489230842
 30
0.0
 11
-1009.1623429727
 21
1530.003489230843
 31
0.0
  0
LINE
  5
14432
330
1A
100
AcDbEntity
  8
ZISSEN1
100
AcDbLine
 10
-1005.862344519087
 20
1537.603398740567
 30
0.0
 11
-1005.862344519087
 21
1532.503489230842
 31
0.0
  0
LINE
  5
14433
330
1A
100
AcDbEntity
  8
ZISSEN1
100
AcDbLine
 10
-1009.462344519087
 20
1537.603398740567
 30
0.0
 11
-1005.862344519087
 21
1537.603398740567
 31
0.0
  0
LINE
  5
14434
330
1A
100
AcDbEntity
  8
ZISSEN1
100
AcDbLine
 10
-1009.462344519087
 20
1537.603398740567
 30
0.0
 11
-1009.462344519087
 21
1530.003489230843
 31
0.0
  0
LINE
  5
14435
330
1A
100
AcDbEntity
  8
CL1
100
AcDbLine
 10
-995.9623429727017
 20
1511.34199788384
 30
0.0
 11
-995.9623429727017
 21
1515.503489230847
 31
0.0
  0
LINE
  5
14436
330
1A
100
AcDbEntity
  8
ZISSEN1
100
AcDbLine
 10
-990.9623429727016
 20
1518.503489230843
 30
0.0
 11
-991.9623429727016
 21
1518.503489230843
 31
0.0
  0
LINE
  5
14437
330
1A
100
AcDbEntity
  8
ZISSEN1
100
AcDbLine
 10
-990.9623445190877
 20
1536.903489230843
 30
0.0
 11
-990.9623431323828
 21
1520.403489230843
 31
0.0
  0
LINE
  5
14438
330
1A
100
AcDbEntity
  8
ZISSEN1
100
AcDbLine
 10
-990.9623429727016
 20
1520.403489230843
 30
0.0
 11
-990.9623445190877
 21
1536.903489230843
 31
0.0
  0
LINE
  5
14439
330
1A
100
AcDbEntity
  8
ZISSEN1
100
AcDbLine
 10
-1003.7623429727
 20
1530.003489230843
 30
0.0
 11
-1003.7623429727
 21
1532.503489230842
 31
0.0
  0
LINE
  5
1443A
330
1A
100
AcDbEntity
  8
ZISSEN1
  6
CONTINUOUS
100
AcDbLine
 10
-991.4623429727017
 20
1515.503489230847
 30
0.0
 11
-990.9623429727016
 21
1515.503489230843
 31
0.0
  0
ARC
  5
1443B
330
1A
100
AcDbEntity
  8
ZISSEN1
100
AcDbCircle
 10
-994.963845316864
 20
1527.311690406327
 30
0.0
 40
4.06366340092025
100
AcDbArc
 50
47.4114170199188
 51
132.5885829800811
  0
LINE
  5
1443C
330
1A
100
AcDbEntity
  8
ZISSEN1
100
AcDbLine
 10
-997.7138453168645
 20
1530.00348923579
 30
0.0
 11
-997.7138453168645
 21
1530.30348923579
 31
0.0
  0
LINE
  5
1443D
330
1A
100
AcDbEntity
  8
ZISSEN1
100
AcDbLine
 10
-997.7138453168645
 20
1530.00348923579
 30
0.0
 11
-997.7138453168645
 21
1530.00348923579
 31
0.0
  0
LINE
  5
1443E
330
1A
100
AcDbEntity
  8
ZISSEN1
100
AcDbLine
 10
-992.2138453168646
 20
1530.30348923579
 30
0.0
 11
-992.2138453168646
 21
1530.00348923579
 31
0.0
  0
LINE
  5
1443F
330
1A
100
AcDbEntity
  8
ZISSEN1
  6
CONTINUOUS
100
AcDbLine
 10
-1000.462342972701
 20
1518.503489230843
 30
0.0
 11
-1000.462342972701
 21
1515.503489230843
 31
0.0
  0
LINE
  5
14440
330
1A
100
AcDbEntity
  8
ZISSEN1
  6
CONTINUOUS
100
AcDbLine
 10
-991.4623429727017
 20
1518.503489230843
 30
0.0
 11
-990.9623429727016
 21
1518.503489230843
 31
0.0
  0
LINE
  5
14441
330
1A
100
AcDbEntity
  8
ZISSEN1
100
AcDbLine
 10
-1000.362344519087
 20
1536.903489230843
 30
0.0
 11
-990.9623445190877
 21
1536.903489230843
 31
0.0
  0
LINE
  5
14442
330
1A
100
AcDbEntity
  8
ZISSEN1
100
AcDbLine
 10
-1000.862344519087
 20
1530.003489230843
 30
0.0
 11
-1000.862344519087
 21
1528.403489230843
 31
0.0
  0
LINE
  5
14443
330
1A
100
AcDbEntity
  8
ZISSEN1
100
AcDbLine
 10
-1000.362344519087
 20
1530.003489230843
 30
0.0
 11
-1000.362344519087
 21
1536.903489230843
 31
0.0
  0
LINE
  5
14444
330
1A
100
AcDbEntity
  8
ZISSEN1
  6
DASHEDX2
100
AcDbLine
 10
-992.7623445190874
 20
1528.403489230843
 30
0.0
 11
-992.7623445190874
 21
1520.403489230843
 31
0.0
  0
LINE
  5
14445
330
1A
100
AcDbEntity
  8
ZISSEN1
  6
CONTINUOUS
100
AcDbLine
 10
-992.4623429727017
 20
1528.403489230843
 30
0.0
 11
-992.4623429727017
 21
1530.003489230843
 31
0.0
  0
LINE
  5
14446
330
1A
100
AcDbEntity
  8
ZISSEN1
  6
CONTINUOUS
100
AcDbLine
 10
-992.4623429727017
 20
1518.803489230843
 30
0.0
 11
-992.4623429727017
 21
1520.403489230843
 31
0.0
  0
LINE
  5
14447
330
1A
100
AcDbEntity
  8
ZISSEN1
  6
CONTINUOUS
100
AcDbLine
 10
-991.9623429727016
 20
1518.803489230843
 30
0.0
 11
-991.9623429727016
 21
1518.503489230843
 31
0.0
  0
LINE
  5
14448
330
1A
100
AcDbEntity
  8
ZISSEN1
  6
CONTINUOUS
100
AcDbLine
 10
-991.9623429727016
 20
1518.503489230843
 30
0.0
 11
-991.9623429727016
 21
1515.503489230843
 31
0.0
  0
LINE
  5
14449
330
1A
100
AcDbEntity
  8
ZISSEN1
  6
CONTINUOUS
100
AcDbLine
 10
-991.9623429727016
 20
1512.203489230843
 30
0.0
 11
-991.9623429727016
 21
1515.203489230843
 31
0.0
  0
LINE
  5
1444A
330
1A
100
AcDbEntity
  8
ZISSEN1
100
AcDbLine
 10
-997.463845316864
 20
1528.403489230843
 30
0.0
 11
-997.463845316864
 21
1520.403489230843
 31
0.0
  0
LINE
  5
1444B
330
1A
100
AcDbEntity
  8
ZISSEN1
100
AcDbLine
 10
-992.463845316864
 20
1528.403489230843
 30
0.0
 11
-992.463845316864
 21
1520.403489230843
 31
0.0
  0
LINE
  5
1444C
330
1A
100
AcDbEntity
  8
ZISSEN1
100
AcDbLine
 10
-991.4623429727017
 20
1530.003489230843
 30
0.0
 11
-992.2623429727027
 21
1530.003489230843
 31
0.0
  0
LINE
  5
1444D
330
1A
100
AcDbEntity
  8
ZISSEN1
100
AcDbLine
 10
-1000.362344519087
 20
1520.403489230843
 30
0.0
 11
-1000.362344519087
 21
1528.403489230843
 31
0.0
  0
LINE
  5
1444E
330
1A
100
AcDbEntity
  8
ZISSEN1
  6
CONTINUOUS
100
AcDbLine
 10
-994.2124119185677
 20
1515.203489230843
 30
0.0
 11
-994.2124119185677
 21
1512.203489230843
 31
0.0
  0
LINE
  5
1444F
330
1A
100
AcDbEntity
  8
ZISSEN1
  6
CONTINUOUS
100
AcDbLine
 10
-990.9623429727016
 20
1512.203489230843
 30
0.0
 11
-990.9623429727016
 21
1515.203489230843
 31
0.0
  0
LINE
  5
14450
330
1A
100
AcDbEntity
  8
ZISSEN1
  6
CONTINUOUS
100
AcDbLine
 10
-991.4623429727017
 20
1518.803489230843
 30
0.0
 11
-991.4623429727017
 21
1520.403489230843
 31
0.0
  0
LINE
  5
14451
330
1A
100
AcDbEntity
  8
ZISSEN1
  6
CONTINUOUS
100
AcDbLine
 10
-990.9623429727016
 20
1518.503489230843
 30
0.0
 11
-990.9623429727016
 21
1515.503489230843
 31
0.0
  0
LINE
  5
14452
330
1A
100
AcDbEntity
  8
ZISSEN1
  6
CONTINUOUS
100
AcDbLine
 10
-997.7124119185678
 20
1515.203489230843
 30
0.0
 11
-997.7124119185678
 21
1512.203489230843
 31
0.0
  0
LINE
  5
14453
330
1A
100
AcDbEntity
  8
ZISSEN1
  6
CONTINUOUS
100
AcDbLine
 10
-998.7623429727014
 20
1520.403489230843
 30
0.0
 11
-990.9623431323828
 21
1520.403489230843
 31
0.0
  0
LINE
  5
14454
330
1A
100
AcDbEntity
  8
ZISSEN1
  6
CONTINUOUS
100
AcDbLine
 10
-991.4623429727017
 20
1528.403489230843
 30
0.0
 11
-991.4623429727017
 21
1530.003489230843
 31
0.0
  0
LINE
  5
14455
330
1A
100
AcDbEntity
  8
ZISSEN1
  6
CONTINUOUS
100
AcDbLine
 10
-991.4623429727017
 20
1515.203489230843
 30
0.0
 11
-990.9623429727016
 21
1515.203489230843
 31
0.0
  0
LINE
  5
14456
330
1A
100
AcDbEntity
  8
ZISSEN1
100
AcDbLine
 10
-1039.6123429727
 20
1626.143654825064
 30
0.0
 11
-1017.1123429727
 21
1626.143654825064
 31
0.0
  0
LINE
  5
14457
330
1A
100
AcDbEntity
  8
ZISSEN1
100
AcDbLine
 10
-1016.5123429727
 20
1626.743654825065
 30
0.0
 11
-1040.2123429727
 21
1626.743654825065
 31
0.0
  0
LINE
  5
14458
330
1A
100
AcDbEntity
  8
ZISSEN1
100
AcDbLine
 10
-1041.2123429727
 20
1631.343654825065
 30
0.0
 11
-1015.512342972699
 21
1631.343654825065
 31
0.0
  0
LINE
  5
14459
330
1A
100
AcDbEntity
  8
ZISSEN1
100
AcDbLine
 10
-1042.062342972701
 20
1632.043654825064
 30
0.0
 11
-1014.6623429727
 21
1632.043654825064
 31
0.0
  0
LINE
  5
1445A
330
1A
100
AcDbEntity
  8
ZISSEN1
100
AcDbLine
 10
-1014.6623429727
 20
1625.243654825065
 30
0.0
 11
-1026.6623429727
 21
1625.243654825064
 31
0.0
  0
LINE
  5
1445B
330
1A
100
AcDbEntity
  8
ZISSEN1
  6
CONTINUOUS
100
AcDbLine
 10
-997.714511918568
 20
1571.043654825064
 30
0.0
 11
-1020.564386021888
 21
1571.043654825064
 31
0.0
  0
LINE
  5
1445C
330
1A
100
AcDbEntity
  8
ZISSEN1
  6
CONTINUOUS
100
AcDbLine
 10
-1020.564386021888
 20
1571.543654825065
 30
0.0
 11
-1020.564386021888
 21
1571.043654825064
 31
0.0
  0
LINE
  5
1445D
330
1A
100
AcDbEntity
  8
ZISSEN1
100
AcDbLine
 10
-1030.062342972701
 20
1625.243654825065
 30
0.0
 11
-1042.062342972701
 21
1625.243654825065
 31
0.0
  0
LINE
  5
1445E
330
1A
100
AcDbEntity
  8
ZISSEN1
100
AcDbLine
 10
-1042.062342972701
 20
1625.243654825065
 30
0.0
 11
-1042.062342972701
 21
1632.043654825064
 31
0.0
  0
LINE
  5
1445F
330
1A
100
AcDbEntity
  8
ZISSEN1
100
AcDbLine
 10
-1041.2123429727
 20
1625.943654825064
 30
0.0
 11
-1041.2123429727
 21
1631.343654825065
 31
0.0
  0
LINE
  5
14460
330
1A
100
AcDbEntity
  8
ZISSEN1
100
AcDbLine
 10
-1040.2123429727
 20
1626.743654825065
 30
0.0
 11
-1040.2123429727
 21
1625.943654825064
 31
0.0
  0
LINE
  5
14461
330
1A
100
AcDbEntity
  8
ZISSEN1
100
AcDbLine
 10
-1039.6123429727
 20
1625.243654825065
 30
0.0
 11
-1039.6123429727
 21
1626.143654825064
 31
0.0
  0
LINE
  5
14462
330
1A
100
AcDbEntity
  8
ZISSEN1
100
AcDbLine
 10
-1040.2123429727
 20
1625.943654825064
 30
0.0
 11
-1041.2123429727
 21
1625.943654825064
 31
0.0
  0
LINE
  5
14463
330
1A
100
AcDbEntity
  8
ZISSEN1
100
AcDbLine
 10
-1043.4123429727
 20
1625.943654825064
 30
0.0
 11
-1044.4123429727
 21
1625.943654825064
 31
0.0
  0
LINE
  5
14464
330
1A
100
AcDbEntity
  8
ZISSEN1
100
AcDbLine
 10
-1044.4123429727
 20
1625.943654825064
 30
0.0
 11
-1044.4123429727
 21
1626.743654825065
 31
0.0
  0
LINE
  5
14465
330
1A
100
AcDbEntity
  8
ZISSEN1
100
AcDbLine
 10
-1045.0123429727
 20
1626.143654825064
 30
0.0
 11
-1045.0123429727
 21
1625.243654825065
 31
0.0
  0
LINE
  5
14466
330
1A
100
AcDbEntity
  8
ZISSEN1
100
AcDbLine
 10
-1042.562342972701
 20
1632.043654825064
 30
0.0
 11
-1042.562342972701
 21
1625.243654825065
 31
0.0
  0
LINE
  5
14467
330
1A
100
AcDbEntity
  8
ZISSEN1
100
AcDbLine
 10
-1043.4123429727
 20
1631.343654825065
 30
0.0
 11
-1043.4123429727
 21
1625.943654825064
 31
0.0
  0
LINE
  5
14468
330
1A
100
AcDbEntity
  8
ZISSEN1
100
AcDbLine
 10
-1043.4123429727
 20
1631.343654825065
 30
0.0
 11
-1043.4123429727
 21
1625.943654825064
 31
0.0
  0
LINE
  5
14469
330
1A
100
AcDbEntity
  8
ZISSEN1
100
AcDbLine
 10
-1043.4123429727
 20
1625.943654825064
 30
0.0
 11
-1043.4123429727
 21
1631.343654825065
 31
0.0
  0
LWPOLYLINE
  5
1446A
330
1A
100
AcDbEntity
  8
ZISSEN1
100
AcDbPolyline
 90
        4
 70
     1
 43
0.0
 10
-1032.3623429727
 20
1625.543654825065
 10
-1031.1123429727
 20
1625.543654825065
 10
-1031.1123429727
 20
1626.143654825064
 10
-1032.3623429727
 20
1626.143654825064
  0
LINE
  5
1446B
330
1A
100
AcDbEntity
  8
ZISSEN1
100
AcDbLine
 10
-1032.562342972701
 20
1626.143654825064
 30
0.0
 11
-1032.562342972701
 21
1625.243654825065
 31
0.0
  0
LINE
  5
1446C
330
1A
100
AcDbEntity
  8
ZISSEN1
100
AcDbLine
 10
-1025.812342972701
 20
1626.143654825064
 30
0.0
 11
-1025.812342972701
 21
1625.243654825065
 31
0.0
  0
LINE
  5
1446D
330
1A
100
AcDbEntity
  8
ZISSEN1
100
AcDbLine
 10
-1024.162342972699
 20
1626.143654825064
 30
0.0
 11
-1024.162342972699
 21
1625.243654825065
 31
0.0
  0
LINE
  5
1446E
330
1A
100
AcDbEntity
  8
ZISSEN1
100
AcDbLine
 10
-1030.912342972699
 20
1626.143654825064
 30
0.0
 11
-1030.912342972699
 21
1625.243654825065
 31
0.0
  0
LINE
  5
1446F
330
1A
100
AcDbEntity
  8
ZISSEN1
100
AcDbLine
 10
-1030.912342972699
 20
1625.243654825065
 30
0.0
 11
-1025.812342972701
 21
1625.243654825065
 31
0.0
  0
LWPOLYLINE
  5
14470
330
1A
100
AcDbEntity
  8
ZISSEN1
100
AcDbPolyline
 90
        4
 70
     1
 43
0.0
 10
-1025.6123429727
 20
1625.543654825065
 10
-1024.3623429727
 20
1625.543654825065
 10
-1024.3623429727
 20
1626.143654825064
 10
-1025.6123429727
 20
1626.143654825064
  0
LINE
  5
14471
330
1A
100
AcDbEntity
  8
ZISSEN1
100
AcDbLine
 10
-990.9623445190877
 20
1601.793959680876
 30
0.0
 11
-990.9623445190877
 21
1617.893959680876
 31
0.0
  0
LWPOLYLINE
  5
14472
330
1A
100
AcDbEntity
  8
ZISSEN1
100
AcDbPolyline
 90
        4
 70
     1
 43
0.0
 10
-1009.1623429727
 20
1608.483959680876
 10
-1009.1623429727
 20
1601.883959680876
 10
-1003.7623429727
 20
1601.883959680876
 10
-1003.7623429727
 20
1608.483959680876
  0
LWPOLYLINE
  5
14473
330
1A
100
AcDbEntity
  8
ZISSEN1
100
AcDbPolyline
 90
        4
 70
     1
 43
0.0
 10
-1009.0023429727
 20
1608.483959680876
 10
-1009.0023429727
 20
1601.883959680876
 10
-1003.9223429727
 20
1601.883959680876
 10
-1003.9223429727
 20
1608.483959680876
  0
LINE
  5
14474
330
1A
100
AcDbEntity
  8
ZISSEN1
100
AcDbLine
 10
-999.7623445190875
 20
1602.493959680876
 30
0.0
 11
-999.7623445190875
 21
1617.193959680877
 31
0.0
  0
LINE
  5
14475
330
1A
100
AcDbEntity
  8
ZISSEN1
100
AcDbLine
 10
-1000.362344519087
 20
1617.893959680876
 30
0.0
 11
-1000.362344519087
 21
1601.793959680876
 31
0.0
  0
LINE
  5
14476
330
1A
100
AcDbEntity
  8
ZISSEN1
100
AcDbLine
 10
-992.7623445190874
 20
1617.893959680876
 30
0.0
 11
-992.7623445190874
 21
1601.793959680876
 31
0.0
  0
LINE
  5
14477
330
1A
100
AcDbEntity
  8
ZISSEN1
100
AcDbLine
 10
-993.3623445190878
 20
1602.493959680876
 30
0.0
 11
-993.3623445190878
 21
1617.193959680877
 31
0.0
  0
LINE
  5
14478
330
1A
100
AcDbEntity
  8
ZISSEN1
100
AcDbLine
 10
-1000.862344519087
 20
1629.543959680876
 30
0.0
 11
-1000.862344519087
 21
1584.543959680876
 31
0.0
  0
LWPOLYLINE
  5
14479
330
1A
100
AcDbEntity
  8
ZISSEN1
100
AcDbPolyline
 90
        4
 70
     1
 43
0.0
 10
-1009.1623429727
 20
1591.493961745503
 10
-1009.1623429727
 20
1584.893961745503
 10
-1003.7623429727
 20
1584.893961745503
 10
-1003.7623429727
 20
1591.493961745503
  0
LWPOLYLINE
  5
1447A
330
1A
100
AcDbEntity
  8
ZISSEN1
100
AcDbPolyline
 90
        4
 70
     1
 43
0.0
 10
-1009.0023429727
 20
1591.493961745503
 10
-1009.0023429727
 20
1584.893961745503
 10
-1003.9223429727
 20
1584.893961745503
 10
-1003.9223429727
 20
1591.493961745503
  0
LWPOLYLINE
  5
1447B
330
1A
100
AcDbEntity
  8
ZISSEN1
100
AcDbPolyline
 90
        4
 70
     1
 43
0.0
 10
-1009.1623429727
 20
1584.393961745503
 10
-1009.1623429727
 20
1577.793961745503
 10
-1003.7623429727
 20
1577.793961745503
 10
-1003.7623429727
 20
1584.393961745503
  0
LWPOLYLINE
  5
1447C
330
1A
100
AcDbEntity
  8
ZISSEN1
100
AcDbPolyline
 90
        4
 70
     1
 43
0.0
 10
-1009.0023429727
 20
1584.393961745503
 10
-1009.0023429727
 20
1577.793961745503
 10
-1003.9223429727
 20
1577.793961745503
 10
-1003.9223429727
 20
1584.393961745503
  0
LINE
  5
1447D
330
1A
100
AcDbEntity
  8
ZISSEN1
100
AcDbLine
 10
-1004.462342972701
 20
1591.993961745503
 30
0.0
 11
-1004.462342972701
 21
1593.243961745502
 31
0.0
  0
LINE
  5
1447E
330
1A
100
AcDbEntity
  8
ZISSEN1
100
AcDbLine
 10
-1006.462342972701
 20
1593.243961745502
 30
0.0
 11
-1006.462342972701
 21
1591.993961745503
 31
0.0
  0
LINE
  5
1447F
330
1A
100
AcDbEntity
  8
ZISSEN1
100
AcDbLine
 10
-1004.462342972701
 20
1593.243961745502
 30
0.0
 11
-1006.462342972701
 21
1593.243961745502
 31
0.0
  0
LINE
  5
14480
330
1A
100
AcDbEntity
  8
ZISSEN1
100
AcDbLine
 10
-1006.462342972701
 20
1591.993961745503
 30
0.0
 11
-1004.462342972701
 21
1591.993961745503
 31
0.0
  0
LINE
  5
14481
330
1A
100
AcDbEntity
  8
ZISSEN1
100
AcDbLine
 10
-1004.462342972701
 20
1591.993961745503
 30
0.0
 11
-1004.762342972701
 21
1591.993961745503
 31
0.0
  0
LINE
  5
14482
330
1A
100
AcDbEntity
  8
ZISSEN1
100
AcDbLine
 10
-1009.462344519087
 20
1593.723961745503
 30
0.0
 11
-1009.462344519087
 21
1601.123961745503
 31
0.0
  0
LINE
  5
14483
330
1A
100
AcDbEntity
  8
ZISSEN1
100
AcDbLine
 10
-1005.862344519087
 20
1593.723961745503
 30
0.0
 11
-1005.862344519087
 21
1601.123961745503
 31
0.0
  0
LINE
  5
14484
330
1A
100
AcDbEntity
  8
ZISSEN1
100
AcDbLine
 10
-1009.462344519087
 20
1593.723961745503
 30
0.0
 11
-1005.862344519087
 21
1593.723961745503
 31
0.0
  0
LINE
  5
14485
330
1A
100
AcDbEntity
  8
ZISSEN1
100
AcDbLine
 10
-1005.862344519087
 20
1601.123961745503
 30
0.0
 11
-1009.462344519087
 21
1601.123961745503
 31
0.0
  0
LWPOLYLINE
  5
14486
330
1A
100
AcDbEntity
  8
ZISSEN1
100
AcDbPolyline
 90
        4
 70
     1
 43
0.0
 10
-1004.962342972701
 20
1603.572188454745
 10
-1004.962342972701
 20
1602.972188454745
 10
-1007.962342972701
 20
1602.972188454745
 10
-1007.962342972701
 20
1603.572188454745
  0
LWPOLYLINE
  5
14487
330
1A
100
AcDbEntity
  8
ZISSEN1
100
AcDbPolyline
 90
        4
 70
     1
 43
0.0
 10
-1004.962342972701
 20
1590.394266601315
 10
-1004.962342972701
 20
1589.794266601314
 10
-1007.962342972701
 20
1589.794266601314
 10
-1007.962342972701
 20
1590.394266601315
  0
LWPOLYLINE
  5
14488
330
1A
100
AcDbEntity
  8
ZISSEN1
100
AcDbPolyline
 90
        4
 70
     1
 43
0.0
 10
-1004.962342972701
 20
1589.122190519372
 10
-1004.962342972701
 20
1588.522190519372
 10
-1007.962342972701
 20
1588.522190519372
 10
-1007.962342972701
 20
1589.122190519372
  0
LWPOLYLINE
  5
14489
330
1A
100
AcDbEntity
  8
ZISSEN1
100
AcDbPolyline
 90
        4
 70
     1
 43
0.0
 10
-1004.962342972701
 20
1586.582190519372
 10
-1004.962342972701
 20
1585.982190519372
 10
-1007.962342972701
 20
1585.982190519372
 10
-1007.962342972701
 20
1586.582190519372
  0
LWPOLYLINE
  5
1448A
330
1A
100
AcDbEntity
  8
ZISSEN1
100
AcDbPolyline
 90
        4
 70
     1
 43
0.0
 10
-1004.962342972701
 20
1587.854266601315
 10
-1004.962342972701
 20
1587.254266601314
 10
-1007.962342972701
 20
1587.254266601314
 10
-1007.962342972701
 20
1587.854266601315
  0
LWPOLYLINE
  5
1448B
330
1A
100
AcDbEntity
  8
ZISSEN1
100
AcDbPolyline
 90
        4
 70
     1
 43
0.0
 10
-1004.962342972701
 20
1583.294266601315
 10
-1004.962342972701
 20
1582.694266601315
 10
-1007.962342972701
 20
1582.694266601315
 10
-1007.962342972701
 20
1583.294266601315
  0
LWPOLYLINE
  5
1448C
330
1A
100
AcDbEntity
  8
ZISSEN1
100
AcDbPolyline
 90
        4
 70
     1
 43
0.0
 10
-1004.962342972701
 20
1582.022190519372
 10
-1004.962342972701
 20
1581.422190519372
 10
-1007.962342972701
 20
1581.422190519372
 10
-1007.962342972701
 20
1582.022190519372
  0
LWPOLYLINE
  5
1448D
330
1A
100
AcDbEntity
  8
ZISSEN1
100
AcDbPolyline
 90
        4
 70
     1
 43
0.0
 10
-1004.962342972701
 20
1579.482190519372
 10
-1004.962342972701
 20
1578.882190519371
 10
-1007.962342972701
 20
1578.882190519371
 10
-1007.962342972701
 20
1579.482190519372
  0
LWPOLYLINE
  5
1448E
330
1A
100
AcDbEntity
  8
ZISSEN1
100
AcDbPolyline
 90
        4
 70
     1
 43
0.0
 10
-1004.962342972701
 20
1580.754266601315
 10
-1004.962342972701
 20
1580.154266601315
 10
-1007.962342972701
 20
1580.154266601315
 10
-1007.962342972701
 20
1580.754266601315
  0
LINE
  5
1448F
330
1A
100
AcDbEntity
  8
ZISSEN1
100
AcDbLine
 10
-991.4623432455403
 20
1584.543959680876
 30
0.0
 11
-991.4623432665473
 21
1585.193959680876
 31
0.0
  0
LINE
  5
14490
330
1A
100
AcDbEntity
  8
ZISSEN1
100
AcDbLine
 10
-991.4623437868726
 20
1601.293959680876
 30
0.0
 11
-991.4623438030316
 21
1601.793959680876
 31
0.0
  0
LINE
  5
14491
330
1A
100
AcDbEntity
  8
ZISSEN1
100
AcDbLine
 10
-991.4623430516202
 20
1579.543654825064
 30
0.0
 11
-991.4623432455405
 21
1584.543959680876
 31
0.0
  0
LINE
  5
14492
330
1A
100
AcDbEntity
  8
ZISSEN1
100
AcDbLine
 10
-992.7623445190874
 20
1601.793959680876
 30
0.0
 11
-990.9623445190877
 21
1601.793959680876
 31
0.0
  0
LINE
  5
14493
330
1A
100
AcDbEntity
  8
ZISSEN1
100
AcDbLine
 10
-990.9623445190877
 20
1601.293959680876
 30
0.0
 11
-992.7623445190874
 21
1601.293959680876
 31
0.0
  0
LINE
  5
14494
330
1A
100
AcDbEntity
  8
ZISSEN1
100
AcDbLine
 10
-990.9623445190877
 20
1585.193959680876
 30
0.0
 11
-990.9623445190877
 21
1601.293959680876
 31
0.0
  0
LINE
  5
14495
330
1A
100
AcDbEntity
  8
ZISSEN1
100
AcDbLine
 10
-992.7623445190874
 20
1585.193959680876
 30
0.0
 11
-990.9623445190877
 21
1585.193959680876
 31
0.0
  0
LINE
  5
14496
330
1A
100
AcDbEntity
  8
ZISSEN1
  6
CONTINUOUS
100
AcDbLine
 10
-990.9623416732797
 20
1579.043654825065
 30
0.0
 11
-991.9623416732797
 21
1578.043654825065
 31
0.0
  0
ARC
  5
14497
330
1A
100
AcDbEntity
  8
ZISSEN1
100
AcDbCircle
 10
-991.4623430516202
 20
1578.543654825064
 30
0.0
 40
1.000000000000085
100
AcDbArc
 50
90.0
 51
180.0
  0
LINE
  5
14498
330
1A
100
AcDbEntity
  8
ZISSEN1
100
AcDbLine
 10
-1000.462344519087
 20
1578.543654825064
 30
0.0
 11
-1000.462344519087
 21
1572.543654825064
 31
0.0
  0
LINE
  5
14499
330
1A
100
AcDbEntity
  8
ZISSEN1
100
AcDbLine
 10
-991.4623432455405
 20
1584.543959680876
 30
0.0
 11
-1000.862344519087
 21
1584.543959680876
 31
0.0
  0
CIRCLE
  5
1449A
330
1A
100
AcDbEntity
  8
ZISSEN1
  6
CONTINUOUS
100
AcDbCircle
 10
-994.9623432455414
 20
1581.543959680876
 30
0.0
 40
2.75
  0
LINE
  5
1449B
330
1A
100
AcDbEntity
  8
ZISSEN1
  6
CONTINUOUS
100
AcDbLine
 10
-993.4623432455405
 20
1581.143959680877
 30
0.0
 11
-993.4623432455405
 21
1581.543959680876
 31
0.0
  0
LINE
  5
1449C
330
1A
100
AcDbEntity
  8
ZISSEN1
  6
CONTINUOUS
100
AcDbLine
 10
-993.4623432455405
 20
1581.543959680876
 30
0.0
 11
-993.4623432455405
 21
1581.943959680877
 31
0.0
  0
LINE
  5
1449D
330
1A
100
AcDbEntity
  8
ZISSEN1
  6
CONTINUOUS
100
AcDbLine
 10
-994.5623432455409
 20
1580.043959680877
 30
0.0
 11
-994.9623432455405
 21
1580.043959680877
 31
0.0
  0
LINE
  5
1449E
330
1A
100
AcDbEntity
  8
ZISSEN1
  6
CONTINUOUS
100
AcDbLine
 10
-994.9623432455405
 20
1580.043959680877
 30
0.0
 11
-995.362343245541
 21
1580.043959680877
 31
0.0
  0
LINE
  5
1449F
330
1A
100
AcDbEntity
  8
ZISSEN1
  6
CONTINUOUS
100
AcDbLine
 10
-996.4623432455406
 20
1581.543959680876
 30
0.0
 11
-996.4623432455406
 21
1581.943959680877
 31
0.0
  0
LINE
  5
144A0
330
1A
100
AcDbEntity
  8
ZISSEN1
  6
CONTINUOUS
100
AcDbLine
 10
-996.4623432455406
 20
1581.143959680877
 30
0.0
 11
-996.4623432455406
 21
1581.543959680876
 31
0.0
  0
LINE
  5
144A1
330
1A
100
AcDbEntity
  8
ZISSEN1
  6
CONTINUOUS
100
AcDbLine
 10
-994.5623432455409
 20
1581.143959680877
 30
0.0
 11
-994.5623432455409
 21
1580.043959680877
 31
0.0
  0
LINE
  5
144A2
330
1A
100
AcDbEntity
  8
ZISSEN1
  6
CONTINUOUS
100
AcDbLine
 10
-995.362343245541
 20
1580.043959680877
 30
0.0
 11
-995.362343245541
 21
1581.143959680877
 31
0.0
  0
LINE
  5
144A3
330
1A
100
AcDbEntity
  8
ZISSEN1
  6
CONTINUOUS
100
AcDbLine
 10
-995.362343245541
 20
1581.143959680877
 30
0.0
 11
-996.4623432455406
 21
1581.143959680877
 31
0.0
  0
LINE
  5
144A4
330
1A
100
AcDbEntity
  8
ZISSEN1
  6
CONTINUOUS
100
AcDbLine
 10
-996.4623432455406
 20
1581.943959680877
 30
0.0
 11
-995.362343245541
 21
1581.943959680877
 31
0.0
  0
LINE
  5
144A5
330
1A
100
AcDbEntity
  8
ZISSEN1
  6
CONTINUOUS
100
AcDbLine
 10
-994.9623432455405
 20
1583.043959680877
 30
0.0
 11
-995.362343245541
 21
1583.043959680877
 31
0.0
  0
LINE
  5
144A6
330
1A
100
AcDbEntity
  8
ZISSEN1
  6
CONTINUOUS
100
AcDbLine
 10
-994.5623432455409
 20
1583.043959680877
 30
0.0
 11
-994.9623432455405
 21
1583.043959680877
 31
0.0
  0
LINE
  5
144A7
330
1A
100
AcDbEntity
  8
ZISSEN1
  6
CONTINUOUS
100
AcDbLine
 10
-995.362343245541
 20
1583.043959680877
 30
0.0
 11
-995.362343245541
 21
1581.943959680877
 31
0.0
  0
LINE
  5
144A8
330
1A
100
AcDbEntity
  8
ZISSEN1
  6
CONTINUOUS
100
AcDbLine
 10
-994.5623432455409
 20
1581.943959680877
 30
0.0
 11
-994.5623432455409
 21
1583.043959680877
 31
0.0
  0
LINE
  5
144A9
330
1A
100
AcDbEntity
  8
ZISSEN1
  6
CONTINUOUS
100
AcDbLine
 10
-993.4623432455405
 20
1581.943959680877
 30
0.0
 11
-994.5623432455409
 21
1581.943959680877
 31
0.0
  0
LINE
  5
144AA
330
1A
100
AcDbEntity
  8
ZISSEN1
  6
CONTINUOUS
100
AcDbLine
 10
-994.5623432455409
 20
1581.143959680877
 30
0.0
 11
-993.4623432455405
 21
1581.143959680877
 31
0.0
  0
LINE
  5
144AB
330
1A
100
AcDbEntity
  8
ZISSEN1
100
AcDbLine
 10
-1000.462344519087
 20
1578.543654825064
 30
0.0
 11
-992.4623430516204
 21
1578.543654825064
 31
0.0
  0
ARC
  5
144AC
330
1A
100
AcDbEntity
  8
ZISSEN1
100
AcDbCircle
 10
-1000.462344519087
 20
1571.543654825064
 30
0.0
 40
1.000000000000085
100
AcDbArc
 50
90.0
 51
180.0
  0
LINE
  5
144AD
330
1A
100
AcDbEntity
  8
ZISSEN1
100
AcDbLine
 10
-999.7623445190875
 20
1585.893959680876
 30
0.0
 11
-999.7623445190875
 21
1600.593959680876
 31
0.0
  0
LINE
  5
144AE
330
1A
100
AcDbEntity
  8
ZISSEN1
100
AcDbLine
 10
-1000.362344519087
 20
1601.293959680876
 30
0.0
 11
-1000.362344519087
 21
1585.193959680876
 31
0.0
  0
LINE
  5
144AF
330
1A
100
AcDbEntity
  8
ZISSEN1
100
AcDbLine
 10
-992.7623445190874
 20
1601.293959680876
 30
0.0
 11
-992.7623445190874
 21
1585.193959680876
 31
0.0
  0
LINE
  5
144B0
330
1A
100
AcDbEntity
  8
ZISSEN1
100
AcDbLine
 10
-993.3623445190878
 20
1585.893959680876
 30
0.0
 11
-993.3623445190878
 21
1600.593959680876
 31
0.0
  0
LINE
  5
144B1
330
1A
100
AcDbEntity
  8
ZISSEN1
100
AcDbLine
 10
-993.3623445190878
 20
1597.593959680876
 30
0.0
 11
-993.3623445190878
 21
1596.393959680876
 31
0.0
  0
LINE
  5
144B2
330
1A
100
AcDbEntity
  8
ZISSEN1
100
AcDbLine
 10
-992.7623445190874
 20
1593.243959680876
 30
0.0
 11
-992.7623445190874
 21
1597.593959680876
 31
0.0
  0
LINE
  5
144B3
330
1A
100
AcDbEntity
  8
ZISSEN1
100
AcDbLine
 10
-996.5623445190876
 20
1600.593959680876
 30
0.0
 11
-993.3623445190878
 21
1600.593959680876
 31
0.0
  0
LINE
  5
144B4
330
1A
100
AcDbEntity
  8
ZISSEN1
100
AcDbLine
 10
-992.7623445190874
 20
1601.293959680876
 30
0.0
 11
-996.5623445190876
 21
1601.293959680876
 31
0.0
  0
LINE
  5
144B5
330
1A
100
AcDbEntity
  8
ZISSEN1
100
AcDbLine
 10
-996.5623445190876
 20
1600.593959680876
 30
0.0
 11
-999.7623445190875
 21
1600.593959680876
 31
0.0
  0
LINE
  5
144B6
330
1A
100
AcDbEntity
  8
ZISSEN1
100
AcDbLine
 10
-1000.362344519087
 20
1601.293959680876
 30
0.0
 11
-996.5623445190876
 21
1601.293959680876
 31
0.0
  0
LINE
  5
144B7
330
1A
100
AcDbEntity
  8
ZISSEN1
100
AcDbLine
 10
-1000.362344519087
 20
1601.293959680876
 30
0.0
 11
-996.0823445190872
 21
1601.293959680876
 31
0.0
  0
LINE
  5
144B8
330
1A
100
AcDbEntity
  8
ZISSEN1
100
AcDbLine
 10
-992.7623445190874
 20
1597.593959680876
 30
0.0
 11
-993.3623445190878
 21
1597.593959680876
 31
0.0
  0
LINE
  5
144B9
330
1A
100
AcDbEntity
  8
ZISSEN1
100
AcDbLine
 10
-992.162344519088
 20
1592.043959680876
 30
0.0
 11
-992.162344519088
 21
1593.243959680876
 31
0.0
  0
LINE
  5
144BA
330
1A
100
AcDbEntity
  8
ZISSEN1
100
AcDbLine
 10
-992.7623445190874
 20
1593.243959680876
 30
0.0
 11
-992.7623445190874
 21
1592.043959680876
 31
0.0
  0
LINE
  5
144BB
330
1A
100
AcDbEntity
  8
ZISSEN1
100
AcDbLine
 10
-992.7623445190874
 20
1593.243959680876
 30
0.0
 11
-992.7623445190874
 21
1588.893959680876
 31
0.0
  0
LINE
  5
144BC
330
1A
100
AcDbEntity
  8
ZISSEN1
100
AcDbLine
 10
-992.7623445190874
 20
1592.043959680876
 30
0.0
 11
-992.162344519088
 21
1592.043959680876
 31
0.0
  0
LINE
  5
144BD
330
1A
100
AcDbEntity
  8
ZISSEN1
100
AcDbLine
 10
-993.3623445190878
 20
1590.093959680876
 30
0.0
 11
-992.7623445190874
 21
1590.093959680876
 31
0.0
  0
LINE
  5
144BE
330
1A
100
AcDbEntity
  8
ZISSEN1
100
AcDbLine
 10
-993.3623445190878
 20
1588.893959680876
 30
0.0
 11
-993.3623445190878
 21
1590.093959680876
 31
0.0
  0
LINE
  5
144BF
330
1A
100
AcDbEntity
  8
ZISSEN1
100
AcDbLine
 10
-992.7623445190874
 20
1588.893959680876
 30
0.0
 11
-993.3623445190878
 21
1588.893959680876
 31
0.0
  0
LINE
  5
144C0
330
1A
100
AcDbEntity
  8
ZISSEN1
100
AcDbLine
 10
-993.3623445190878
 20
1596.393959680876
 30
0.0
 11
-992.7623445190874
 21
1596.393959680876
 31
0.0
  0
LINE
  5
144C1
330
1A
100
AcDbEntity
  8
ZISSEN1
100
AcDbLine
 10
-992.7623445190874
 20
1594.443959680876
 30
0.0
 11
-992.162344519088
 21
1594.443959680876
 31
0.0
  0
LINE
  5
144C2
330
1A
100
AcDbEntity
  8
ZISSEN1
100
AcDbLine
 10
-992.7623445190874
 20
1593.243959680876
 30
0.0
 11
-992.7623445190874
 21
1594.443959680876
 31
0.0
  0
LINE
  5
144C3
330
1A
100
AcDbEntity
  8
ZISSEN1
100
AcDbLine
 10
-992.162344519088
 20
1594.443959680876
 30
0.0
 11
-992.162344519088
 21
1593.243959680876
 31
0.0
  0
LINE
  5
144C4
330
1A
100
AcDbEntity
  8
ZISSEN1
100
AcDbLine
 10
-1000.362344519087
 20
1585.193959680876
 30
0.0
 11
-996.5623445190876
 21
1585.193959680876
 31
0.0
  0
LINE
  5
144C5
330
1A
100
AcDbEntity
  8
ZISSEN1
100
AcDbLine
 10
-996.5623445190876
 20
1585.893959680876
 30
0.0
 11
-999.7623445190875
 21
1585.893959680876
 31
0.0
  0
LINE
  5
144C6
330
1A
100
AcDbEntity
  8
ZISSEN1
100
AcDbLine
 10
-992.7623445190874
 20
1585.193959680876
 30
0.0
 11
-996.5623445190876
 21
1585.193959680876
 31
0.0
  0
LINE
  5
144C7
330
1A
100
AcDbEntity
  8
ZISSEN1
100
AcDbLine
 10
-996.5623445190876
 20
1585.893959680876
 30
0.0
 11
-993.3623445190878
 21
1585.893959680876
 31
0.0
  0
LINE
  5
144C8
330
1A
100
AcDbEntity
  8
ZISSEN1
100
AcDbLine
 10
-993.5623445190886
 20
1585.193959680876
 30
0.0
 11
-1000.362344519087
 21
1585.193959680876
 31
0.0
  0
LINE
  5
144C9
330
1A
100
AcDbEntity
  8
ZISSEN1
100
AcDbLine
 10
-1000.362344519087
 20
1601.793959680876
 30
0.0
 11
-996.5623445190876
 21
1601.793959680876
 31
0.0
  0
LINE
  5
144CA
330
1A
100
AcDbEntity
  8
ZISSEN1
100
AcDbLine
 10
-996.5623445190876
 20
1602.493959680876
 30
0.0
 11
-999.7623445190875
 21
1602.493959680876
 31
0.0
  0
LINE
  5
144CB
330
1A
100
AcDbEntity
  8
ZISSEN1
100
AcDbLine
 10
-992.7623445190874
 20
1601.793959680876
 30
0.0
 11
-996.5623445190876
 21
1601.793959680876
 31
0.0
  0
LINE
  5
144CC
330
1A
100
AcDbEntity
  8
ZISSEN1
100
AcDbLine
 10
-996.5623445190876
 20
1602.493959680876
 30
0.0
 11
-993.3623445190878
 21
1602.493959680876
 31
0.0
  0
LINE
  5
144CD
330
1A
100
AcDbEntity
  8
ZISSEN1
100
AcDbLine
 10
-993.5623445190886
 20
1601.793959680876
 30
0.0
 11
-1000.362344519087
 21
1601.793959680876
 31
0.0
  0
LINE
  5
144CE
330
1A
100
AcDbEntity
  8
ZISSEN1
100
AcDbLine
 10
-994.214511918568
 20
1571.043654825064
 30
0.0
 11
-991.9623429727016
 21
1571.043654825064
 31
0.0
  0
LINE
  5
144CF
330
1A
100
AcDbEntity
  8
ZISSEN1
100
AcDbLine
 10
-1000.462344519087
 20
1578.043654825064
 30
0.0
 11
-991.9623416732797
 21
1578.043654825065
 31
0.0
  0
LINE
  5
144D0
330
1A
100
AcDbEntity
  8
ZISSEN1
100
AcDbLine
 10
-994.214511918568
 20
1571.043654825064
 30
0.0
 11
-994.214511918568
 21
1574.543654825064
 31
0.0
  0
LINE
  5
144D1
330
1A
100
AcDbEntity
  8
ZISSEN1
100
AcDbLine
 10
-997.714511918568
 20
1571.043654825064
 30
0.0
 11
-997.714511918568
 21
1574.543654825064
 31
0.0
  0
ARC
  5
144D2
330
1A
100
AcDbEntity
  8
ZISSEN1
100
AcDbCircle
 10
-995.964511918568
 20
1574.543654825064
 30
0.0
 40
1.749999999999772
100
AcDbArc
 50
0.0
 51
180.0
  0
LINE
  5
144D3
330
1A
100
AcDbEntity
  8
CL1
  6
DASHEDX2
100
AcDbLine
 10
-995.9623429727017
 20
1571.043654825064
 30
0.0
 11
-995.9623429727017
 21
1576.29365348097
 31
0.0
  0
LINE
  5
144D4
330
1A
100
AcDbEntity
  8
CL1
  6
DASHEDX2
100
AcDbLine
 10
-994.214511918568
 20
1573.543654825065
 30
0.0
 11
-997.714511918568
 21
1573.543654825065
 31
0.0
  0
LINE
  5
144D5
330
1A
100
AcDbEntity
  8
ZISSEN1
  6
CONTINUOUS
100
AcDbLine
 10
-990.9623429727016
 20
1585.043959680876
 30
0.0
 11
-991.4623429727017
 21
1585.043959680876
 31
0.0
  0
LINE
  5
144D6
330
1A
100
AcDbEntity
  8
ZISSEN1
  6
CONTINUOUS
100
AcDbLine
 10
-990.9623429727016
 20
1585.043959680876
 30
0.0
 11
-990.9623429727016
 21
1572.043654825064
 31
0.0
  0
LINE
  5
144D7
330
1A
100
AcDbEntity
  8
ZISSEN1
  6
CONTINUOUS
100
AcDbLine
 10
-990.9623429727016
 20
1572.043654825064
 30
0.0
 11
-991.9623429727016
 21
1571.043654825064
 31
0.0
  0
LWPOLYLINE
  5
144D8
330
1A
100
AcDbEntity
  8
ZISSEN1
100
AcDbPolyline
 90
        4
 70
     1
 43
0.0
 10
-1009.162342972699
 20
1632.543959680876
 10
-1009.162342972699
 20
1625.943959680876
 10
-1003.7623429727
 20
1625.943959680876
 10
-1003.7623429727
 20
1632.543959680876
  0
LWPOLYLINE
  5
144D9
330
1A
100
AcDbEntity
  8
ZISSEN1
100
AcDbPolyline
 90
        4
 70
     1
 43
0.0
 10
-1009.002342972699
 20
1632.543959680876
 10
-1009.002342972699
 20
1625.943959680876
 10
-1003.922342972699
 20
1625.943959680876
 10
-1003.922342972699
 20
1632.543959680876
  0
LWPOLYLINE
  5
144DA
330
1A
100
AcDbEntity
  8
ZISSEN1
100
AcDbPolyline
 90
        4
 70
     1
 43
0.0
 10
-1009.162342972699
 20
1615.583959680876
 10
-1009.162342972699
 20
1608.983959680876
 10
-1003.7623429727
 20
1608.983959680876
 10
-1003.7623429727
 20
1615.583959680876
  0
LWPOLYLINE
  5
144DB
330
1A
100
AcDbEntity
  8
ZISSEN1
100
AcDbPolyline
 90
        4
 70
     1
 43
0.0
 10
-1009.002342972699
 20
1615.583959680876
 10
-1009.002342972699
 20
1608.983959680876
 10
-1003.922342972699
 20
1608.983959680876
 10
-1003.922342972699
 20
1615.583959680876
  0
LINE
  5
144DC
330
1A
100
AcDbEntity
  8
ZISSEN1
100
AcDbLine
 10
-1004.4623429727
 20
1616.083959680876
 30
0.0
 11
-1004.4623429727
 21
1617.333959680876
 31
0.0
  0
LINE
  5
144DD
330
1A
100
AcDbEntity
  8
ZISSEN1
100
AcDbLine
 10
-1006.4623429727
 20
1617.333959680876
 30
0.0
 11
-1006.4623429727
 21
1616.083959680876
 31
0.0
  0
LINE
  5
144DE
330
1A
100
AcDbEntity
  8
ZISSEN1
100
AcDbLine
 10
-1004.4623429727
 20
1617.333959680876
 30
0.0
 11
-1006.4623429727
 21
1617.333959680876
 31
0.0
  0
LINE
  5
144DF
330
1A
100
AcDbEntity
  8
ZISSEN1
100
AcDbLine
 10
-1006.4623429727
 20
1616.083959680876
 30
0.0
 11
-1004.4623429727
 21
1616.083959680876
 31
0.0
  0
LINE
  5
144E0
330
1A
100
AcDbEntity
  8
ZISSEN1
100
AcDbLine
 10
-1004.4623429727
 20
1616.083959680876
 30
0.0
 11
-1004.7623429727
 21
1616.083959680876
 31
0.0
  0
LINE
  5
144E1
330
1A
100
AcDbEntity
  8
ZISSEN1
100
AcDbLine
 10
-1015.512342972699
 20
1625.943654825064
 30
0.0
 11
-1016.5123429727
 21
1625.943654825064
 31
0.0
  0
LINE
  5
144E2
330
1A
100
AcDbEntity
  8
ZISSEN1
100
AcDbLine
 10
-1016.5123429727
 20
1625.943654825064
 30
0.0
 11
-1016.5123429727
 21
1626.743654825065
 31
0.0
  0
LINE
  5
144E3
330
1A
100
AcDbEntity
  8
ZISSEN1
100
AcDbLine
 10
-1017.1123429727
 20
1626.143654825064
 30
0.0
 11
-1017.1123429727
 21
1625.243654825065
 31
0.0
  0
LINE
  5
144E4
330
1A
100
AcDbEntity
  8
ZISSEN1
100
AcDbLine
 10
-1014.6623429727
 20
1632.043654825064
 30
0.0
 11
-1014.6623429727
 21
1625.243654825065
 31
0.0
  0
LINE
  5
144E5
330
1A
100
AcDbEntity
  8
ZISSEN1
100
AcDbLine
 10
-1015.512342972699
 20
1631.343654825065
 30
0.0
 11
-1015.512342972699
 21
1625.943654825064
 31
0.0
  0
LINE
  5
144E6
330
1A
100
AcDbEntity
  8
ZISSEN1
100
AcDbLine
 10
-1015.512342972699
 20
1631.343654825065
 30
0.0
 11
-1015.512342972699
 21
1625.943654825064
 31
0.0
  0
LINE
  5
144E7
330
1A
100
AcDbEntity
  8
ZISSEN1
100
AcDbLine
 10
-1015.512342972699
 20
1625.943654825064
 30
0.0
 11
-1015.512342972699
 21
1631.343654825065
 31
0.0
  0
LINE
  5
144E8
330
1A
100
AcDbEntity
  8
ZISSEN1
100
AcDbLine
 10
-1009.462344519087
 20
1617.813959680876
 30
0.0
 11
-1009.462344519087
 21
1625.213959680876
 31
0.0
  0
LINE
  5
144E9
330
1A
100
AcDbEntity
  8
ZISSEN1
100
AcDbLine
 10
-1005.862344519087
 20
1617.813959680876
 30
0.0
 11
-1005.862344519087
 21
1625.213959680876
 31
0.0
  0
LINE
  5
144EA
330
1A
100
AcDbEntity
  8
ZISSEN1
100
AcDbLine
 10
-1009.462344519087
 20
1617.813959680876
 30
0.0
 11
-1005.862344519087
 21
1617.813959680876
 31
0.0
  0
LINE
  5
144EB
330
1A
100
AcDbEntity
  8
ZISSEN1
100
AcDbLine
 10
-1005.862344519087
 20
1625.213959680876
 30
0.0
 11
-1009.462344519087
 21
1625.213959680876
 31
0.0
  0
LWPOLYLINE
  5
144EC
330
1A
100
AcDbEntity
  8
ZISSEN1
100
AcDbPolyline
 90
        4
 70
     1
 43
0.0
 10
-1004.9623429727
 20
1631.444264536688
 10
-1004.9623429727
 20
1630.844264536688
 10
-1007.9623429727
 20
1630.844264536688
 10
-1007.9623429727
 20
1631.444264536688
  0
LWPOLYLINE
  5
144ED
330
1A
100
AcDbEntity
  8
ZISSEN1
100
AcDbPolyline
 90
        4
 70
     1
 43
0.0
 10
-1004.9623429727
 20
1630.172188454745
 10
-1004.9623429727
 20
1629.572188454745
 10
-1007.9623429727
 20
1629.572188454745
 10
-1007.9623429727
 20
1630.172188454745
  0
LWPOLYLINE
  5
144EE
330
1A
100
AcDbEntity
  8
ZISSEN1
100
AcDbPolyline
 90
        4
 70
     1
 43
0.0
 10
-1004.9623429727
 20
1627.632188454745
 10
-1004.9623429727
 20
1627.032188454745
 10
-1007.9623429727
 20
1627.032188454745
 10
-1007.9623429727
 20
1627.632188454745
  0
LWPOLYLINE
  5
144EF
330
1A
100
AcDbEntity
  8
ZISSEN1
100
AcDbPolyline
 90
        4
 70
     1
 43
0.0
 10
-1004.9623429727
 20
1628.904264536688
 10
-1004.9623429727
 20
1628.304264536688
 10
-1007.9623429727
 20
1628.304264536688
 10
-1007.9623429727
 20
1628.904264536688
  0
LWPOLYLINE
  5
144F0
330
1A
100
AcDbEntity
  8
ZISSEN1
100
AcDbPolyline
 90
        4
 70
     1
 43
0.0
 10
-1004.9623429727
 20
1614.484264536688
 10
-1004.9623429727
 20
1613.884264536688
 10
-1007.9623429727
 20
1613.884264536688
 10
-1007.9623429727
 20
1614.484264536688
  0
LWPOLYLINE
  5
144F1
330
1A
100
AcDbEntity
  8
ZISSEN1
100
AcDbPolyline
 90
        4
 70
     1
 43
0.0
 10
-1004.9623429727
 20
1613.212188454745
 10
-1004.9623429727
 20
1612.612188454745
 10
-1007.9623429727
 20
1612.612188454745
 10
-1007.9623429727
 20
1613.212188454745
  0
LWPOLYLINE
  5
144F2
330
1A
100
AcDbEntity
  8
ZISSEN1
100
AcDbPolyline
 90
        4
 70
     1
 43
0.0
 10
-1004.9623429727
 20
1610.672188454745
 10
-1004.9623429727
 20
1610.072188454745
 10
-1007.9623429727
 20
1610.072188454745
 10
-1007.9623429727
 20
1610.672188454745
  0
LWPOLYLINE
  5
144F3
330
1A
100
AcDbEntity
  8
ZISSEN1
100
AcDbPolyline
 90
        4
 70
     1
 43
0.0
 10
-1004.9623429727
 20
1611.944264536688
 10
-1004.9623429727
 20
1611.344264536688
 10
-1007.9623429727
 20
1611.344264536688
 10
-1007.9623429727
 20
1611.944264536688
  0
LWPOLYLINE
  5
144F4
330
1A
100
AcDbEntity
  8
ZISSEN1
100
AcDbPolyline
 90
        4
 70
     1
 43
0.0
 10
-1004.962342972701
 20
1607.384264536688
 10
-1004.962342972701
 20
1606.784264536688
 10
-1007.962342972701
 20
1606.784264536688
 10
-1007.962342972701
 20
1607.384264536688
  0
LWPOLYLINE
  5
144F5
330
1A
100
AcDbEntity
  8
ZISSEN1
100
AcDbPolyline
 90
        4
 70
     1
 43
0.0
 10
-1004.962342972701
 20
1606.112188454745
 10
-1004.962342972701
 20
1605.512188454745
 10
-1007.962342972701
 20
1605.512188454745
 10
-1007.962342972701
 20
1606.112188454745
  0
LWPOLYLINE
  5
144F6
330
1A
100
AcDbEntity
  8
ZISSEN1
100
AcDbPolyline
 90
        4
 70
     1
 43
0.0
 10
-1004.962342972701
 20
1604.844264536688
 10
-1004.962342972701
 20
1604.244264536688
 10
-1007.962342972701
 20
1604.244264536688
 10
-1007.962342972701
 20
1604.844264536688
  0
LINE
  5
144F7
330
1A
100
AcDbEntity
  8
ZISSEN1
100
AcDbLine
 10
-991.4623443233569
 20
1617.893959680876
 30
0.0
 11
-991.4623443395162
 21
1618.393959680877
 31
0.0
  0
LINE
  5
144F8
330
1A
100
AcDbEntity
  8
ZISSEN1
100
AcDbLine
 10
-990.9623445190877
 20
1618.393959680877
 30
0.0
 11
-992.7623445190874
 21
1618.393959680877
 31
0.0
  0
LINE
  5
144F9
330
1A
100
AcDbEntity
  8
ZISSEN1
100
AcDbLine
 10
-990.9623445190877
 20
1627.493959680877
 30
0.0
 11
-990.9623445190877
 21
1618.393959680877
 31
0.0
  0
LINE
  5
144FA
330
1A
100
AcDbEntity
  8
ZISSEN1
100
AcDbLine
 10
-992.7623445190874
 20
1627.493959680877
 30
0.0
 11
-990.9623445190877
 21
1627.493959680877
 31
0.0
  0
LINE
  5
144FB
330
1A
100
AcDbEntity
  8
ZISSEN1
100
AcDbLine
 10
-990.9623445190877
 20
1617.893959680876
 30
0.0
 11
-992.7623445190874
 21
1617.893959680876
 31
0.0
  0
LINE
  5
144FC
330
1A
100
AcDbEntity
  8
ZISSEN1
100
AcDbLine
 10
-1002.16236479313
 20
1636.093651612787
 30
0.0
 11
-1000.16236479313
 21
1636.093651612787
 31
0.0
  0
LINE
  5
144FD
330
1A
100
AcDbEntity
  8
ZISSEN1
100
AcDbLine
 10
-1000.16236479313
 20
1636.093651612787
 30
0.0
 11
-1000.462364793129
 21
1636.093651612787
 31
0.0
  0
LINE
  5
144FE
330
1A
100
AcDbEntity
  8
ZISSEN1
100
AcDbLine
 10
-1000.16236479313
 20
1634.343651612787
 30
0.0
 11
-1000.16236479313
 21
1635.593651612787
 31
0.0
  0
LINE
  5
144FF
330
1A
100
AcDbEntity
  8
ZISSEN1
100
AcDbLine
 10
-1002.16236479313
 20
1635.593651612787
 30
0.0
 11
-1002.16236479313
 21
1634.343651612787
 31
0.0
  0
LINE
  5
14500
330
1A
100
AcDbEntity
  8
ZISSEN1
100
AcDbLine
 10
-1000.16236479313
 20
1635.593651612787
 30
0.0
 11
-1002.16236479313
 21
1635.593651612787
 31
0.0
  0
LINE
  5
14501
330
1A
100
AcDbEntity
  8
ZISSEN1
100
AcDbLine
 10
-1002.16236479313
 20
1634.343651612787
 30
0.0
 11
-1000.16236479313
 21
1634.343651612787
 31
0.0
  0
LINE
  5
14502
330
1A
100
AcDbEntity
  8
ZISSEN1
100
AcDbLine
 10
-1000.16236479313
 20
1634.343651612787
 30
0.0
 11
-1000.462364793129
 21
1634.343651612787
 31
0.0
  0
LINE
  5
14503
330
1A
100
AcDbEntity
  8
ZISSEN1
100
AcDbLine
 10
-992.7623445190874
 20
1622.943959680876
 30
0.0
 11
-992.162344519088
 21
1622.943959680876
 31
0.0
  0
LINE
  5
14504
330
1A
100
AcDbEntity
  8
ZISSEN1
100
AcDbLine
 10
-999.7623445190875
 20
1626.793959680876
 30
0.0
 11
-999.7623445190875
 21
1619.093959680876
 31
0.0
  0
LINE
  5
14505
330
1A
100
AcDbEntity
  8
ZISSEN1
100
AcDbLine
 10
-1000.362344519087
 20
1618.393959680877
 30
0.0
 11
-1000.362344519087
 21
1627.493959680877
 31
0.0
  0
LINE
  5
14506
330
1A
100
AcDbEntity
  8
ZISSEN1
100
AcDbLine
 10
-993.3623445190878
 20
1626.793959680876
 30
0.0
 11
-993.3623445190878
 21
1619.093959680876
 31
0.0
  0
LINE
  5
14507
330
1A
100
AcDbEntity
  8
ZISSEN1
100
AcDbLine
 10
-992.7623445190874
 20
1627.493959680877
 30
0.0
 11
-992.7623445190874
 21
1618.393959680877
 31
0.0
  0
LINE
  5
14508
330
1A
100
AcDbEntity
  8
ZISSEN1
100
AcDbLine
 10
-992.162344519088
 20
1622.443959680876
 30
0.0
 11
-992.162344519088
 21
1623.443959680876
 31
0.0
  0
LINE
  5
14509
330
1A
100
AcDbEntity
  8
ZISSEN1
100
AcDbLine
 10
-992.7623445190874
 20
1622.443959680876
 30
0.0
 11
-992.162344519088
 21
1622.443959680876
 31
0.0
  0
LINE
  5
1450A
330
1A
100
AcDbEntity
  8
ZISSEN1
100
AcDbLine
 10
-992.7623445190874
 20
1623.443959680876
 30
0.0
 11
-992.162344519088
 21
1623.443959680876
 31
0.0
  0
LINE
  5
1450B
330
1A
100
AcDbEntity
  8
ZISSEN1
100
AcDbLine
 10
-993.3623445190878
 20
1622.943959680876
 30
0.0
 11
-993.3623445190878
 21
1623.443959680876
 31
0.0
  0
LINE
  5
1450C
330
1A
100
AcDbEntity
  8
ZISSEN1
100
AcDbLine
 10
-993.3623445190878
 20
1622.943959680876
 30
0.0
 11
-993.3623445190878
 21
1622.443959680876
 31
0.0
  0
LINE
  5
1450D
330
1A
100
AcDbEntity
  8
ZISSEN1
100
AcDbLine
 10
-993.3623445190878
 20
1624.993959680876
 30
0.0
 11
-992.7623445190874
 21
1624.993959680876
 31
0.0
  0
LINE
  5
1450E
330
1A
100
AcDbEntity
  8
ZISSEN1
100
AcDbLine
 10
-993.3623445190878
 20
1620.893959680877
 30
0.0
 11
-992.7623445190874
 21
1620.893959680877
 31
0.0
  0
LINE
  5
1450F
330
1A
100
AcDbEntity
  8
ZISSEN1
100
AcDbLine
 10
-993.3623445190878
 20
1619.893959680877
 30
0.0
 11
-992.7623445190874
 21
1619.893959680877
 31
0.0
  0
LINE
  5
14510
330
1A
100
AcDbEntity
  8
ZISSEN1
100
AcDbLine
 10
-993.3623445190878
 20
1622.943959680876
 30
0.0
 11
-993.3623445190878
 21
1619.893959680877
 31
0.0
  0
LINE
  5
14511
330
1A
100
AcDbEntity
  8
ZISSEN1
100
AcDbLine
 10
-993.3623445190878
 20
1625.993959680877
 30
0.0
 11
-992.7623445190874
 21
1625.993959680877
 31
0.0
  0
LINE
  5
14512
330
1A
100
AcDbEntity
  8
ZISSEN1
100
AcDbLine
 10
-993.3623445190878
 20
1622.943959680876
 30
0.0
 11
-993.3623445190878
 21
1625.993959680877
 31
0.0
  0
LINE
  5
14513
330
1A
100
AcDbEntity
  8
ZISSEN1
100
AcDbLine
 10
-993.3623445190878
 20
1619.093959680876
 30
0.0
 11
-993.3623445190878
 21
1622.943959680876
 31
0.0
  0
LINE
  5
14514
330
1A
100
AcDbEntity
  8
ZISSEN1
100
AcDbLine
 10
-993.3623445190878
 20
1619.093959680876
 30
0.0
 11
-999.7623445190875
 21
1619.093959680876
 31
0.0
  0
LINE
  5
14515
330
1A
100
AcDbEntity
  8
ZISSEN1
100
AcDbLine
 10
-992.7623445190874
 20
1618.393959680877
 30
0.0
 11
-1000.362344519087
 21
1618.393959680877
 31
0.0
  0
LINE
  5
14516
330
1A
100
AcDbEntity
  8
ZISSEN1
100
AcDbLine
 10
-993.3623445190878
 20
1622.043959680876
 30
0.0
 11
-993.3623445190878
 21
1620.843959680876
 31
0.0
  0
LINE
  5
14517
330
1A
100
AcDbEntity
  8
ZISSEN1
100
AcDbLine
 10
-1000.362344519087
 20
1627.493959680877
 30
0.0
 11
-996.0823445190872
 21
1627.493959680877
 31
0.0
  0
LINE
  5
14518
330
1A
100
AcDbEntity
  8
ZISSEN1
100
AcDbLine
 10
-992.7623445190874
 20
1627.493959680877
 30
0.0
 11
-996.5623445190876
 21
1627.493959680877
 31
0.0
  0
LINE
  5
14519
330
1A
100
AcDbEntity
  8
ZISSEN1
100
AcDbLine
 10
-996.5623445190876
 20
1626.793959680876
 30
0.0
 11
-993.3623445190878
 21
1626.793959680876
 31
0.0
  0
LINE
  5
1451A
330
1A
100
AcDbEntity
  8
ZISSEN1
100
AcDbLine
 10
-1000.362344519087
 20
1627.493959680877
 30
0.0
 11
-996.5623445190876
 21
1627.493959680877
 31
0.0
  0
LINE
  5
1451B
330
1A
100
AcDbEntity
  8
ZISSEN1
100
AcDbLine
 10
-996.5623445190876
 20
1626.793959680876
 30
0.0
 11
-999.7623445190875
 21
1626.793959680876
 31
0.0
  0
LINE
  5
1451C
330
1A
100
AcDbEntity
  8
ZISSEN1
100
AcDbLine
 10
-993.3623445190878
 20
1614.193959680877
 30
0.0
 11
-993.3623445190878
 21
1612.993959680876
 31
0.0
  0
LINE
  5
1451D
330
1A
100
AcDbEntity
  8
ZISSEN1
100
AcDbLine
 10
-992.7623445190874
 20
1609.843959680876
 30
0.0
 11
-992.7623445190874
 21
1614.193959680877
 31
0.0
  0
LINE
  5
1451E
330
1A
100
AcDbEntity
  8
ZISSEN1
100
AcDbLine
 10
-996.5623445190876
 20
1617.193959680877
 30
0.0
 11
-993.3623445190878
 21
1617.193959680877
 31
0.0
  0
LINE
  5
1451F
330
1A
100
AcDbEntity
  8
ZISSEN1
100
AcDbLine
 10
-992.7623445190874
 20
1617.893959680876
 30
0.0
 11
-996.5623445190876
 21
1617.893959680876
 31
0.0
  0
LINE
  5
14520
330
1A
100
AcDbEntity
  8
ZISSEN1
100
AcDbLine
 10
-996.5623445190876
 20
1617.193959680877
 30
0.0
 11
-999.7623445190875
 21
1617.193959680877
 31
0.0
  0
LINE
  5
14521
330
1A
100
AcDbEntity
  8
ZISSEN1
100
AcDbLine
 10
-1000.362344519087
 20
1617.893959680876
 30
0.0
 11
-996.5623445190876
 21
1617.893959680876
 31
0.0
  0
LINE
  5
14522
330
1A
100
AcDbEntity
  8
ZISSEN1
100
AcDbLine
 10
-1000.362344519087
 20
1617.893959680876
 30
0.0
 11
-996.0823445190872
 21
1617.893959680876
 31
0.0
  0
LINE
  5
14523
330
1A
100
AcDbEntity
  8
ZISSEN1
100
AcDbLine
 10
-992.7623445190874
 20
1614.193959680877
 30
0.0
 11
-993.3623445190878
 21
1614.193959680877
 31
0.0
  0
LINE
  5
14524
330
1A
100
AcDbEntity
  8
ZISSEN1
100
AcDbLine
 10
-992.162344519088
 20
1608.643959680876
 30
0.0
 11
-992.162344519088
 21
1609.843959680876
 31
0.0
  0
LINE
  5
14525
330
1A
100
AcDbEntity
  8
ZISSEN1
100
AcDbLine
 10
-992.7623445190874
 20
1609.843959680876
 30
0.0
 11
-992.7623445190874
 21
1608.643959680876
 31
0.0
  0
LINE
  5
14526
330
1A
100
AcDbEntity
  8
ZISSEN1
100
AcDbLine
 10
-992.7623445190874
 20
1609.843959680876
 30
0.0
 11
-992.7623445190874
 21
1605.493959680877
 31
0.0
  0
LINE
  5
14527
330
1A
100
AcDbEntity
  8
ZISSEN1
100
AcDbLine
 10
-992.7623445190874
 20
1608.643959680876
 30
0.0
 11
-992.162344519088
 21
1608.643959680876
 31
0.0
  0
LINE
  5
14528
330
1A
100
AcDbEntity
  8
ZISSEN1
100
AcDbLine
 10
-993.3623445190878
 20
1606.693959680876
 30
0.0
 11
-992.7623445190874
 21
1606.693959680876
 31
0.0
  0
LINE
  5
14529
330
1A
100
AcDbEntity
  8
ZISSEN1
100
AcDbLine
 10
-993.3623445190878
 20
1605.493959680877
 30
0.0
 11
-993.3623445190878
 21
1606.693959680876
 31
0.0
  0
LINE
  5
1452A
330
1A
100
AcDbEntity
  8
ZISSEN1
100
AcDbLine
 10
-992.7623445190874
 20
1605.493959680877
 30
0.0
 11
-993.3623445190878
 21
1605.493959680877
 31
0.0
  0
LINE
  5
1452B
330
1A
100
AcDbEntity
  8
ZISSEN1
100
AcDbLine
 10
-993.3623445190878
 20
1612.993959680876
 30
0.0
 11
-992.7623445190874
 21
1612.993959680876
 31
0.0
  0
LINE
  5
1452C
330
1A
100
AcDbEntity
  8
ZISSEN1
100
AcDbLine
 10
-992.7623445190874
 20
1611.043959680876
 30
0.0
 11
-992.162344519088
 21
1611.043959680876
 31
0.0
  0
LINE
  5
1452D
330
1A
100
AcDbEntity
  8
ZISSEN1
100
AcDbLine
 10
-992.7623445190874
 20
1609.843959680876
 30
0.0
 11
-992.7623445190874
 21
1611.043959680876
 31
0.0
  0
LINE
  5
1452E
330
1A
100
AcDbEntity
  8
ZISSEN1
100
AcDbLine
 10
-992.162344519088
 20
1611.043959680876
 30
0.0
 11
-992.162344519088
 21
1609.843959680876
 31
0.0
  0
LINE
  5
1452F
330
1A
100
AcDbEntity
  8
ZISSEN1
100
AcDbLine
 10
-991.4623429727017
 20
1629.543959680876
 30
0.0
 11
-1000.862344519087
 21
1629.543959680876
 31
0.0
  0
LINE
  5
14530
330
1A
100
AcDbEntity
  8
ZISSEN1
100
AcDbLine
 10
-990.9623449584014
 20
1630.04365968089
 30
0.0
 11
-991.4623449584015
 21
1630.04365968089
 31
0.0
  0
LINE
  5
14531
330
1A
100
AcDbEntity
  8
ZISSEN1
  6
CONTINUOUS
100
AcDbLine
 10
-993.4623449584014
 20
1635.143646964301
 30
0.0
 11
-993.4623449584014
 21
1635.543646964301
 31
0.0
  0
LINE
  5
14532
330
1A
100
AcDbEntity
  8
ZISSEN1
  6
CONTINUOUS
100
AcDbLine
 10
-993.4623449584014
 20
1635.543646964301
 30
0.0
 11
-993.4623449584014
 21
1635.943646964301
 31
0.0
  0
LINE
  5
14533
330
1A
100
AcDbEntity
  8
ZISSEN1
  6
CONTINUOUS
100
AcDbLine
 10
-994.5623449584017
 20
1634.043646964301
 30
0.0
 11
-994.9623449584015
 21
1634.043646964301
 31
0.0
  0
LINE
  5
14534
330
1A
100
AcDbEntity
  8
ZISSEN1
  6
CONTINUOUS
100
AcDbLine
 10
-994.9623449584015
 20
1634.043646964301
 30
0.0
 11
-995.362344958402
 21
1634.043646964301
 31
0.0
  0
LINE
  5
14535
330
1A
100
AcDbEntity
  8
ZISSEN1
  6
CONTINUOUS
100
AcDbLine
 10
-996.4623449584014
 20
1635.543646964301
 30
0.0
 11
-996.4623449584014
 21
1635.943646964301
 31
0.0
  0
LINE
  5
14536
330
1A
100
AcDbEntity
  8
ZISSEN1
  6
CONTINUOUS
100
AcDbLine
 10
-996.4623449584014
 20
1635.143646964301
 30
0.0
 11
-996.4623449584014
 21
1635.543646964301
 31
0.0
  0
LINE
  5
14537
330
1A
100
AcDbEntity
  8
ZISSEN1
  6
CONTINUOUS
100
AcDbLine
 10
-994.5623449584017
 20
1635.143646964301
 30
0.0
 11
-994.5623449584017
 21
1634.043646964301
 31
0.0
  0
LINE
  5
14538
330
1A
100
AcDbEntity
  8
ZISSEN1
  6
CONTINUOUS
100
AcDbLine
 10
-995.362344958402
 20
1634.043646964301
 30
0.0
 11
-995.362344958402
 21
1635.143646964301
 31
0.0
  0
LINE
  5
14539
330
1A
100
AcDbEntity
  8
ZISSEN1
  6
CONTINUOUS
100
AcDbLine
 10
-995.362344958402
 20
1635.143646964301
 30
0.0
 11
-996.4623449584014
 21
1635.143646964301
 31
0.0
  0
LINE
  5
1453A
330
1A
100
AcDbEntity
  8
ZISSEN1
  6
CONTINUOUS
100
AcDbLine
 10
-996.4623449584014
 20
1635.943646964301
 30
0.0
 11
-995.362344958402
 21
1635.943646964301
 31
0.0
  0
LINE
  5
1453B
330
1A
100
AcDbEntity
  8
ZISSEN1
  6
CONTINUOUS
100
AcDbLine
 10
-993.4623449584014
 20
1635.943646964301
 30
0.0
 11
-994.5623449584017
 21
1635.943646964301
 31
0.0
  0
LINE
  5
1453C
330
1A
100
AcDbEntity
  8
ZISSEN1
  6
CONTINUOUS
100
AcDbLine
 10
-994.5623449584017
 20
1635.143646964301
 30
0.0
 11
-993.4623449584014
 21
1635.143646964301
 31
0.0
  0
DIMENSION
  5
1453D
330
1A
100
AcDbEntity
  8
SUNPOU
100
AcDbDimension
  2
*D42
 10
-958.4589030628146
 20
1570.043654825065
 30
0.0
 11
-961.427398679414
 21
1565.898818743613
 31
0.0
 70
   160
  3
標準スタイル
100
AcDbAlignedDimension
 13
-938.1818735568472
 23
1572.543654825065
 33
0.0
 14
-946.1807890839141
 24
1570.043654825065
 34
0.0
 50
90.0
100
AcDbRotatedDimension
1001
ACAD
1000
DSTYLE
1002
{
1070
   287
1070
     5
1070
   340
1005
10
1070
    40
1040
1.0
1070
   279
1070
     2
1002
}
  0
LINE
  5
1453E
330
1A
100
AcDbEntity
  8
ZISSEN1
  6
CONTINUOUS
100
AcDbLine
 10
-936.4318735568472
 20
1570.043654825064
 30
0.0
 11
-936.4318735568472
 21
1574.543654825065
 31
0.0
  0
LINE
  5
1453F
330
1A
100
AcDbEntity
  8
ZISSEN1
  6
CONTINUOUS
100
AcDbLine
 10
-939.9318735568472
 20
1570.043654825065
 30
0.0
 11
-939.9318735568472
 21
1574.543654825065
 31
0.0
  0
LINE
  5
14540
330
1A
100
AcDbEntity
  8
ZISSEN1
  6
CONTINUOUS
100
AcDbLine
 10
-948.180789083914
 20
1572.043654825064
 30
0.0
 11
-946.1807890839141
 21
1570.043654825065
 31
0.0
  0
LINE
  5
14541
330
1A
100
AcDbEntity
  8
ZISSEN1
  6
CONTINUOUS
100
AcDbLine
 10
-946.1807890839141
 20
1570.043654825065
 30
0.0
 11
-939.9318735568472
 21
1570.043654825065
 31
0.0
  0
LINE
  5
14542
330
1A
100
AcDbEntity
  8
ZISSEN1
100
AcDbLine
 10
-940.8807890839156
 20
1617.893961745503
 30
0.0
 11
-940.8807890839156
 21
1601.793961745503
 31
0.0
  0
LINE
  5
14543
330
1A
100
AcDbEntity
  8
ZISSEN1
100
AcDbLine
 10
-936.4796404158273
 20
1584.393961745503
 30
0.0
 11
-933.9796404158274
 21
1584.393961745503
 31
0.0
  0
LINE
  5
14544
330
1A
100
AcDbEntity
  8
ZISSEN1
100
AcDbLine
 10
-936.4796404158273
 20
1577.793961745503
 30
0.0
 11
-936.4796404158273
 21
1584.393961745503
 31
0.0
  0
LINE
  5
14545
330
1A
100
AcDbEntity
  8
ZISSEN1
100
AcDbLine
 10
-933.9796404158274
 20
1577.793961745503
 30
0.0
 11
-936.4796404158273
 21
1577.793961745503
 31
0.0
  0
LINE
  5
14546
330
1A
100
AcDbEntity
  8
ZISSEN1
100
AcDbLine
 10
-940.8807890839156
 20
1601.123961745503
 30
0.0
 11
-941.579640415826
 21
1601.123961745503
 31
0.0
  0
LINE
  5
14547
330
1A
100
AcDbEntity
  8
KAKURESEN1
100
AcDbLine
 10
-933.9796404158263
 20
1601.123961745503
 30
0.0
 11
-940.8807890839156
 21
1601.123961745503
 31
0.0
  0
LINE
  5
14548
330
1A
100
AcDbEntity
  8
ZISSEN1
100
AcDbLine
 10
-940.8807890839156
 20
1593.723961745503
 30
0.0
 11
-941.579640415826
 21
1593.723961745503
 31
0.0
  0
LINE
  5
14549
330
1A
100
AcDbEntity
  8
KAKURESEN1
100
AcDbLine
 10
-933.9796404158263
 20
1593.723961745503
 30
0.0
 11
-940.8807890839156
 21
1593.723961745503
 31
0.0
  0
LINE
  5
1454A
330
1A
100
AcDbEntity
  8
ZISSEN1
100
AcDbLine
 10
-941.579640415826
 20
1593.723961745503
 30
0.0
 11
-941.579640415826
 21
1601.123961745503
 31
0.0
  0
LINE
  5
1454B
330
1A
100
AcDbEntity
  8
KAKURESEN1
100
AcDbLine
 10
-933.9796404158263
 20
1601.123961745503
 30
0.0
 11
-933.9796404158274
 21
1594.123959745503
 31
0.0
  0
LINE
  5
1454C
330
1A
100
AcDbEntity
  8
ZISSEN1
100
AcDbLine
 10
-940.8807890839156
 20
1585.193961745503
 30
0.0
 11
-940.8807890839156
 21
1601.293961745503
 31
0.0
  0
LINE
  5
1454D
330
1A
100
AcDbEntity
  8
ZISSEN1
 48
0.4
100
AcDbLine
 10
-933.9796404158274
 20
1577.293349969253
 30
0.0
 11
-934.7296404158273
 21
1577.293349969253
 31
0.0
  0
LINE
  5
1454E
330
1A
100
AcDbEntity
  8
ZISSEN1
 48
0.4
100
AcDbLine
 10
-934.7296404158273
 20
1571.793349969253
 30
0.0
 11
-933.9796404158274
 21
1571.793349969253
 31
0.0
  0
LINE
  5
1454F
330
1A
100
AcDbEntity
  8
ZISSEN1
  6
CONTINUOUS
 62
     0
100
AcDbLine
 10
-934.6770884158273
 20
1578.793961745503
 30
0.0
 11
-933.9796404158274
 21
1578.793961745503
 31
0.0
  0
LINE
  5
14550
330
1A
100
AcDbEntity
  8
ZISSEN1
100
AcDbLine
 10
-932.3796404158271
 20
1601.293961745503
 30
0.0
 11
-932.3796404158271
 21
1601.793961745503
 31
0.0
  0
LINE
  5
14551
330
1A
100
AcDbEntity
  8
ZISSEN1
100
AcDbLine
 10
-933.9796404158274
 20
1601.793961745503
 30
0.0
 11
-933.9796404158274
 21
1601.293961745503
 31
0.0
  0
LINE
  5
14552
330
1A
100
AcDbEntity
  8
ZISSEN1
100
AcDbLine
 10
-933.9796404158274
 20
1579.543654825065
 30
0.0
 11
-932.3796404158271
 21
1579.543654825065
 31
0.0
  0
LINE
  5
14553
330
1A
100
AcDbEntity
  8
ZISSEN1
100
AcDbLine
 10
-933.9796404158274
 20
1578.543654825065
 30
0.0
 11
-932.3796404158271
 21
1578.543654825065
 31
0.0
  0
LINE
  5
14554
330
1A
100
AcDbEntity
  8
ZISSEN1
100
AcDbLine
 10
-933.9796404158274
 20
1584.543959680876
 30
0.0
 11
-932.3796404158271
 21
1584.543959680876
 31
0.0
  0
LINE
  5
14555
330
1A
100
AcDbEntity
  8
ZISSEN1
100
AcDbLine
 10
-933.9796404158274
 20
1584.543959680876
 30
0.0
 11
-933.9796404158274
 21
1571.543654825064
 31
0.0
  0
LINE
  5
14556
330
1A
100
AcDbEntity
  8
ZISSEN1
100
AcDbLine
 10
-932.3796404158271
 20
1584.543959680876
 30
0.0
 11
-932.3796404158271
 21
1585.193961745503
 31
0.0
  0
LINE
  5
14557
330
1A
100
AcDbEntity
  8
ZISSEN1
100
AcDbLine
 10
-933.9796404158274
 20
1572.543654825064
 30
0.0
 11
-932.3796404158271
 21
1572.543654825064
 31
0.0
  0
ARC
  5
14558
330
1A
100
AcDbEntity
  8
ZISSEN1
  6
CONTINUOUS
100
AcDbCircle
 10
-938.1818735568472
 20
1574.543654825065
 30
0.0
 40
1.749999999999748
100
AcDbArc
 50
0.0
 51
180.0
  0
LINE
  5
14559
330
1A
100
AcDbEntity
  8
CL1
  6
CONTINUOUS
100
AcDbLine
 10
-939.9318735568472
 20
1572.543654825065
 30
0.0
 11
-936.4318735568472
 21
1572.543654825065
 31
0.0
  0
LINE
  5
1455A
330
1A
100
AcDbEntity
  8
CL1
  6
CONTINUOUS
100
AcDbLine
 10
-938.1818735568472
 20
1576.293654825065
 30
0.0
 11
-938.1818735568472
 21
1571.043654825064
 31
0.0
  0
LINE
  5
1455B
330
1A
100
AcDbEntity
  8
ZISSEN1
 48
0.4
100
AcDbLine
 10
-933.9796404158274
 20
1584.293654825065
 30
0.0
 11
-934.7296404158273
 21
1584.293654825065
 31
0.0
  0
LINE
  5
1455C
330
1A
100
AcDbEntity
  8
ZISSEN1
 48
0.4
100
AcDbLine
 10
-934.7296404158273
 20
1578.793654825065
 30
0.0
 11
-933.9796404158274
 21
1578.793654825065
 31
0.0
  0
LINE
  5
1455D
330
1A
100
AcDbEntity
  8
ZISSEN1
100
AcDbLine
 10
-932.3796404158271
 20
1571.543654825064
 30
0.0
 11
-932.3796404158271
 21
1584.543959680876
 31
0.0
  0
LINE
  5
1455E
330
1A
100
AcDbEntity
  8
ZISSEN1
100
AcDbLine
 10
-933.9796404158274
 20
1571.543654825064
 30
0.0
 11
-932.3796404158271
 21
1571.543654825064
 31
0.0
  0
LINE
  5
1455F
330
1A
100
AcDbEntity
  8
ZISSEN1
100
AcDbLine
 10
-936.4796404158273
 20
1632.543959680876
 30
0.0
 11
-936.4796404158273
 21
1627.493959680877
 31
0.0
  0
LINE
  5
14560
330
1A
100
AcDbEntity
  8
ZISSEN1
100
AcDbLine
 10
-933.9796404158274
 20
1632.543959680876
 30
0.0
 11
-936.4796404158273
 21
1632.543959680876
 31
0.0
  0
LINE
  5
14561
330
1A
100
AcDbEntity
  8
ZISSEN1
100
AcDbLine
 10
-941.579640415826
 20
1625.213959680876
 30
0.0
 11
-940.8807890839156
 21
1625.213959680876
 31
0.0
  0
LINE
  5
14562
330
1A
100
AcDbEntity
  8
ZISSEN1
100
AcDbLine
 10
-941.579640415826
 20
1617.813959680876
 30
0.0
 11
-941.579640415826
 21
1625.213959680876
 31
0.0
  0
LINE
  5
14563
330
1A
100
AcDbEntity
  8
ZISSEN1
100
AcDbLine
 10
-940.8807890839156
 20
1617.813959680876
 30
0.0
 11
-941.579640415826
 21
1617.813959680876
 31
0.0
  0
LINE
  5
14564
330
1A
100
AcDbEntity
  8
KAKURESEN1
100
AcDbLine
 10
-933.9796404158263
 20
1617.813959680876
 30
0.0
 11
-940.8807890839156
 21
1617.813959680876
 31
0.0
  0
LINE
  5
14565
330
1A
100
AcDbEntity
  8
KAKURESEN1
100
AcDbLine
 10
-933.9796404158263
 20
1625.213959680876
 30
0.0
 11
-933.9796404158263
 21
1617.813959680876
 31
0.0
  0
LINE
  5
14566
330
1A
100
AcDbEntity
  8
KAKURESEN1
100
AcDbLine
 10
-940.8807890839156
 20
1625.213959680876
 30
0.0
 11
-933.9796404158263
 21
1625.213959680876
 31
0.0
  0
LINE
  5
14567
330
1A
100
AcDbEntity
  8
ZISSEN1
100
AcDbLine
 10
-940.8807890839156
 20
1627.493959680877
 30
0.0
 11
-940.8807890839156
 21
1618.393961745503
 31
0.0
  0
LINE
  5
14568
330
1A
100
AcDbEntity
  8
ZISSEN1
100
AcDbLine
 10
-932.3796404158271
 20
1617.893961745503
 30
0.0
 11
-932.3796404158271
 21
1618.393961745503
 31
0.0
  0
LINE
  5
14569
330
1A
100
AcDbEntity
  8
KAKURESEN1
100
AcDbLine
 10
-933.9796404158274
 20
1618.393961745503
 30
0.0
 11
-933.9796404158274
 21
1617.893961745503
 31
0.0
  0
LINE
  5
1456A
330
1A
100
AcDbEntity
  8
ZISSEN1
100
AcDbLine
 10
-933.9796404158274
 20
1629.543959680876
 30
0.0
 11
-932.3796404158271
 21
1629.543959680876
 31
0.0
  0
ARC
  5
1456B
330
1A
100
AcDbEntity
  8
ZISSEN1
  6
CONTINUOUS
100
AcDbCircle
 10
-938.1818735568472
 20
1635.543654825064
 30
0.0
 40
1.749999999999777
100
AcDbArc
 50
180.000000000013
 51
359.9999999999869
  0
LINE
  5
1456C
330
1A
100
AcDbEntity
  8
ZISSEN1
 48
0.4
100
AcDbLine
 10
-934.7296404158273
 20
1632.793646964301
 30
0.0
 11
-933.9796404158274
 21
1632.793646964301
 31
0.0
  0
LINE
  5
1456D
330
1A
100
AcDbEntity
  8
ZISSEN1
100
AcDbLine
 10
-924.180789083914
 20
1570.043654825062
 30
0.0
 11
-922.6807911378278
 21
1571.543652771149
 31
0.0
  0
LINE
  5
1456E
330
1A
100
AcDbEntity
  8
ZISSEN1
100
AcDbLine
 10
-922.4807890839143
 20
1622.042546873083
 30
0.0
 11
-922.4807890839143
 21
1571.043654825064
 31
0.0
  0
LINE
  5
1456F
330
1A
100
AcDbEntity
  8
ZISSEN1
100
AcDbLine
 10
-919.1807890839141
 20
1571.043654825064
 30
0.0
 11
-919.1807890839141
 21
1623.543646873083
 31
0.0
  0
LINE
  5
14570
330
1A
100
AcDbEntity
  8
ZISSEN1
100
AcDbLine
 10
-919.4807878792184
 20
1571.543654825064
 30
0.0
 11
-919.1807878792173
 21
1571.543654825064
 31
0.0
  0
LINE
  5
14571
330
1A
100
AcDbEntity
  8
ZISSEN1
100
AcDbLine
 10
-922.7807890839153
 20
1571.543654825064
 30
0.0
 11
-922.4807890839143
 21
1571.543654825064
 31
0.0
  0
LINE
  5
14572
330
1A
100
AcDbEntity
  8
ZISSEN1
100
AcDbLine
 10
-922.4807890839143
 20
1579.043654825064
 30
0.0
 11
-919.4807890839141
 21
1579.043654825064
 31
0.0
  0
LINE
  5
14573
330
1A
100
AcDbEntity
  8
ZISSEN1
100
AcDbLine
 10
-922.4807890839151
 20
1571.043654825064
 30
0.0
 11
-919.1807890839141
 21
1571.043654825064
 31
0.0
  0
LINE
  5
14574
330
1A
100
AcDbEntity
  8
ZISSEN1
100
AcDbLine
 10
-924.3807890839157
 20
1578.543654825065
 30
0.0
 11
-922.7807890839153
 21
1578.543654825065
 31
0.0
  0
LINE
  5
14575
330
1A
100
AcDbEntity
  8
ZISSEN1
100
AcDbLine
 10
-924.3807890839157
 20
1572.543654825064
 30
0.0
 11
-922.7807890839153
 21
1572.543654825064
 31
0.0
  0
LINE
  5
14576
330
1A
100
AcDbEntity
  8
ZISSEN1
100
AcDbLine
 10
-922.7807890839153
 20
1578.043654825065
 30
0.0
 11
-919.4807890839141
 21
1578.043654825065
 31
0.0
  0
LINE
  5
14577
330
1A
100
AcDbEntity
  8
ZISSEN1
100
AcDbLine
 10
-919.1807890839141
 20
1572.043654825065
 30
0.0
 11
-916.180789083914
 21
1572.043654825065
 31
0.0
  0
LINE
  5
14578
330
1A
100
AcDbEntity
  8
ZISSEN1
100
AcDbLine
 10
-924.3807890839157
 20
1588.843645995241
 30
0.0
 11
-924.3807890839157
 21
1590.343645995241
 31
0.0
  0
LINE
  5
14579
330
1A
100
AcDbEntity
  8
ZISSEN1
100
AcDbLine
 10
-919.1807890839141
 20
1571.043654825064
 30
0.0
 11
-916.180789083914
 21
1571.043654825064
 31
0.0
  0
LINE
  5
1457A
330
1A
100
AcDbEntity
  8
ZISSEN1
100
AcDbLine
 10
-916.180789083914
 20
1585.043959680876
 30
0.0
 11
-919.1807890839141
 21
1585.043959680876
 31
0.0
  0
LINE
  5
1457B
330
1A
100
AcDbEntity
  8
ZISSEN1
100
AcDbLine
 10
-919.4807890839141
 20
1585.043959680876
 30
0.0
 11
-922.7807890839153
 21
1585.043959680876
 31
0.0
  0
LINE
  5
1457C
330
1A
100
AcDbEntity
  8
ZISSEN1
100
AcDbLine
 10
-924.3807890839157
 20
1571.543654825064
 30
0.0
 11
-922.7807890839153
 21
1571.543654825064
 31
0.0
  0
LINE
  5
1457D
330
1A
100
AcDbEntity
  8
ZISSEN1
100
AcDbLine
 10
-916.180789083914
 20
1628.093959680876
 30
0.0
 11
-919.1807890839141
 21
1628.093959680876
 31
0.0
  0
LINE
  5
1457E
330
1A
100
AcDbEntity
  8
ZISSEN1
100
AcDbLine
 10
-919.4807890839141
 20
1628.093959680876
 30
0.0
 11
-922.7807890839153
 21
1628.093959680876
 31
0.0
  0
LINE
  5
1457F
330
1A
100
AcDbEntity
  8
ZISSEN1
  6
CONTINUOUS
100
AcDbLine
 10
-936.4318735568472
 20
1640.043654825062
 30
0.0
 11
-924.180789083914
 21
1640.043654825064
 31
0.0
  0
LINE
  5
14580
330
1A
100
AcDbEntity
  8
ZISSEN1
100
AcDbLine
 10
-932.3807890839157
 20
1638.043646964301
 30
0.0
 11
-924.3807890839157
 21
1638.043646964301
 31
0.0
  0
LINE
  5
14581
330
1A
100
AcDbEntity
  8
ZISSEN1
100
AcDbLine
 10
-1000.16236479313
 20
1637.343651612787
 30
0.0
 11
-1002.16236479313
 21
1637.343651612787
 31
0.0
  0
LINE
  5
14582
330
1A
100
AcDbEntity
  8
ZISSEN1
  6
CONTINUOUS
100
AcDbLine
 10
-991.9623449584014
 20
1639.043646964301
 30
0.0
 11
-990.9623429727016
 21
1638.0436449786
 31
0.0
  0
ARC
  5
14583
330
1A
100
AcDbEntity
  8
ZISSEN1
100
AcDbCircle
 10
-991.4623449584015
 20
1638.543646964301
 30
0.0
 40
1.000000000000454
100
AcDbArc
 50
180.000000000039
 51
269.9999999999739
  0
LINE
  5
14584
330
1A
100
AcDbEntity
  8
ZISSEN1
  6
CONTINUOUS
100
AcDbLine
 10
-994.9623449584015
 20
1637.043646964301
 30
0.0
 11
-995.362344958402
 21
1637.043646964301
 31
0.0
  0
LINE
  5
14585
330
1A
100
AcDbEntity
  8
ZISSEN1
  6
CONTINUOUS
100
AcDbLine
 10
-994.5623449584017
 20
1637.043646964301
 30
0.0
 11
-994.9623449584015
 21
1637.043646964301
 31
0.0
  0
LINE
  5
14586
330
1A
100
AcDbEntity
  8
ZISSEN1
  6
CONTINUOUS
100
AcDbLine
 10
-946.1807890839141
 20
1640.043654825064
 30
0.0
 11
-939.9318735568472
 21
1640.043654825064
 31
0.0
  0
LINE
  5
14587
330
1A
100
AcDbEntity
  8
ZISSEN1
  6
CONTINUOUS
100
AcDbLine
 10
-946.1807890839141
 20
1640.043654825064
 30
0.0
 11
-948.180789083914
 21
1638.043654825064
 31
0.0
  0
LINE
  5
14588
330
1A
100
AcDbEntity
  8
ZISSEN1
100
AcDbLine
 10
-932.3796404158271
 20
1637.543656878978
 30
0.0
 11
-933.9796404158274
 21
1637.543656878978
 31
0.0
  0
LINE
  5
14589
330
1A
100
AcDbEntity
  8
CL1
100
AcDbLine
 10
-939.9297046109809
 20
1637.543654825065
 30
0.0
 11
-936.4297046109809
 21
1637.543654825065
 31
0.0
  0
LINE
  5
1458A
330
1A
100
AcDbEntity
  8
ZISSEN1
100
AcDbLine
 10
-932.3796404158271
 20
1638.543656878979
 30
0.0
 11
-933.9796404158274
 21
1638.543656878979
 31
0.0
  0
LINE
  5
1458B
330
1A
100
AcDbEntity
  8
ZISSEN1
 48
0.4
100
AcDbLine
 10
-933.9796404158274
 20
1638.293646964301
 30
0.0
 11
-934.7296404158273
 21
1638.293646964301
 31
0.0
  0
LINE
  5
1458C
330
1A
100
AcDbEntity
  8
ZISSEN1
100
AcDbLine
 10
-919.1807878792173
 20
1638.543656878979
 30
0.0
 11
-919.4807878792184
 21
1638.543656878979
 31
0.0
  0
LINE
  5
1458D
330
1A
100
AcDbEntity
  8
ZISSEN1
100
AcDbLine
 10
-924.180789083914
 20
1640.043654825064
 30
0.0
 11
-922.6807911378278
 21
1638.543656878979
 31
0.0
  0
LINE
  5
1458E
330
1A
100
AcDbEntity
  8
ZISSEN1
100
AcDbLine
 10
-916.1807878792174
 20
1639.043656878979
 30
0.0
 11
-919.1807878792173
 21
1639.043656878979
 31
0.0
  0
LINE
  5
1458F
330
1A
100
AcDbEntity
  8
ZISSEN1
100
AcDbLine
 10
-922.4807890839143
 20
1638.043656878979
 30
0.0
 11
-922.7807890839153
 21
1638.043656878979
 31
0.0
  0
LINE
  5
14590
330
1A
100
AcDbEntity
  8
ZISSEN1
100
AcDbLine
 10
-922.4807890839143
 20
1638.043656878979
 30
0.0
 11
-919.4807890839141
 21
1638.043656878979
 31
0.0
  0
LINE
  5
14591
330
1A
100
AcDbEntity
  8
ZISSEN1
100
AcDbLine
 10
-922.7807890839153
 20
1637.543656878978
 30
0.0
 11
-924.3807890839157
 21
1637.543656878978
 31
0.0
  0
LINE
  5
14592
330
1A
100
AcDbEntity
  8
ZISSEN1
100
AcDbLine
 10
-916.1807884815647
 20
1638.043654086793
 30
0.0
 11
-919.1807884815649
 21
1638.043654086793
 31
0.0
  0
LINE
  5
14593
330
1A
100
AcDbEntity
  8
ZISSEN1
100
AcDbLine
 10
-922.4807890839143
 20
1638.543656878979
 30
0.0
 11
-922.7807890839153
 21
1638.543656878979
 31
0.0
  0
LINE
  5
14594
330
1A
100
AcDbEntity
  8
ZISSEN1
100
AcDbLine
 10
-922.4807890839143
 20
1639.043656878979
 30
0.0
 11
-919.4807890839141
 21
1639.043656878979
 31
0.0
  0
LINE
  5
14595
330
1A
100
AcDbEntity
  8
ZISSEN1
100
AcDbLine
 10
-922.7807890839153
 20
1638.543656878979
 30
0.0
 11
-924.3807890839157
 21
1638.543656878979
 31
0.0
  0
VIEWPORT
  5
5D8F
330
5D8E
100
AcDbEntity
 67
     1
  8
0
100
AcDbViewport
 10
221.7773519364194
 20
157.6879887152104
 30
0.0
 40
468.5684599252842
 41
262.9519205487881
 68
     1
 69
     1
1001
ACAD
1000
MVIEW
1002
{
1070
    16
1010
0.0
1020
0.0
1030
0.0
1010
0.0
1020
0.0
1030
1.0
1040
0.0
1040
262.9519205487881
1040
221.7773519364194
1040
157.6879887152104
1040
50.0
1040
0.0
1040
0.0
1070
     0
1070
   100
1070
     1
1070
     0
1070
     0
1070
     0
1070
     0
1070
     0
1040
0.0
1040
0.0
1040
0.0
1040
1.0
1040
1.0
1040
10.0
1040
10.0
1070
     0
1002
{
1002
}
1002
}
  0
VIEWPORT
  5
6001
330
5D8E
100
AcDbEntity
 67
     1
  8
ZISSEN1
100
AcDbViewport
 10
221.7861955525412
 20
157.6960273330388
 30
0.0
 40
385.4999999999997
 41
259.9999999999999
 68
     2
 69
     2
1001
ACAD
1000
MVIEW
1002
{
1070
    16
1010
0.0
1020
0.0
1030
0.0
1010
0.0
1020
0.0
1030
1.0
1040
0.0
1040
259.9999999999999
1040
-1010.876867563766
1040
1592.674114480671
1040
50.0
1040
0.0
1040
0.0
1070
     0
1070
   100
1070
     1
1070
     0
1070
     0
1070
     0
1070
     0
1070
     0
1040
0.0
1040
0.0
1040
0.0
1040
1.0
1040
1.0
1040
10.0
1040
10.0
1070
     0
1002
{
1002
}
1002
}
  0
TEXT
  5
716F
330
5D8E
100
AcDbEntity
 67
     1
  8
SUNPOU
 62
     0
100
AcDbText
 10
374.1863124306944
 20
60.86794705907585
 30
0.0
 40
3.5
  1
縮尺 1/1
  7
ゴシック体
100
AcDbText
  0
ENDSEC
  0
SECTION
  2
OBJECTS
  0
DICTIONARY
  5
C
330
0
100
AcDbDictionary
  3
ACAD_GROUP
350
D
  3
ACAD_LAYOUT
350
5C7D
  3
ACAD_MLINESTYLE
350
E
  3
ACAD_PLOTSETTINGS
350
5C7E
  3
ACAD_PLOTSTYLENAME
350
5C7B
  3
DWGPROPS
350
12861
  3
ACDBHEADERROUNDTRIPXREC
350
14729
  0
DICTIONARY
  5
1409D
330
2
100
AcDbDictionary
280
     1
  3
ACAD_LAYERFILTERS
360
1409E
  0
DICTIONARY
  5
14749
330
1A
100
AcDbDictionary
280
     1
  3
ACAD_LAYOUTSELFREF
360
1474A
  0
DICTIONARY
  5
1474B
330
5D8E
100
AcDbDictionary
280
     1
  3
ACAD_LAYOUTSELFREF
360
1474C
  0
DICTIONARY
  5
D
102
{ACAD_REACTORS
330
C
102
}
330
C
100
AcDbDictionary
  3
*A1
350
477D
  3
*A2
350
4781
  3
*A3
350
4C0E
  3
*A4
350
4C0F
  3
*A5
350
13E2E
  3
*A6
350
4C10
  3
*A7
350
4C11
  3
*A8
350
4C12
  3
*A9
350
4C13
  3
*A10
350
4C14
  3
*A11
350
4C15
  3
*A12
350
4C16
  3
*A13
350
4C17
  3
*A14
350
477E
  3
*A15
350
477F
  3
*A16
350
4780
  0
DICTIONARY
  5
5C7D
102
{ACAD_REACTORS
330
C
102
}
330
C
100
AcDbDictionary
  0
DICTIONARY
  5
E
102
{ACAD_REACTORS
330
C
102
}
330
C
100
AcDbDictionary
  3
STANDARD
350
13
  0
DICTIONARY
  5
5C7E
102
{ACAD_REACTORS
330
C
102
}
330
C
100
AcDbDictionary
  0
ACDBDICTIONARYWDFLT
  5
5C7B
102
{ACAD_REACTORS
330
C
102
}
330
C
100
AcDbDictionary
281
     1
  3
Normal
350
5C7C
100
AcDbDictionaryWithDefault
340
5C7C
  0
XRECORD
  5
12861
102
{ACAD_REACTORS
330
C
102
}
330
C
100
AcDbXrecord
  1
DWGPROPS COOKIE
  2

  3

  4

  6

  7

  8

  9

300
=
301
=
302
=
303
=
304
=
305
=
306
=
307
=
308
=
309
=
 40
1.583646701388888
 41
2450495.493631365
 42
2455325.72058449
  1

 90
        0
  0
DICTIONARY
  5
14729
102
{ACAD_REACTORS
330
C
102
}
330
C
100
AcDbDictionary
  3
TSTACKALIGN
350
1472A
  3
TSTACKSIZE
350
1472B
  3
HYPERLINKBASE
350
1472C
  3
STYLESHEET
350
1472D
  3
LAYOUTDICT
350
1472E
  3
PLOTSETDICT
350
1472F
  3
PLOTSTYLNAMDICT
350
14730
  3
LWETCUNION
350
14731
  3
INSUNITS
350
14732
  3
CEPSNTYPE
350
14733
  3
FINGERPRINTGUID
350
14734
  3
VERSIONGUID
350
14735
  3
PSVPSCALE
350
14736
  3
PUCSORTHOREF
350
14737
  3
PUCSORTHOVIEW
350
14738
  3
PUCSBASE
350
14739
  3
PUCSORGTOP
350
1473A
  3
PUCSORGBOTTOM
350
1473B
  3
PUCSORGLEFT
350
1473C
  3
PUCSORGRIGHT
350
1473D
  3
PUCSORGFRONT
350
1473E
  3
PUCSORGBACK
350
1473F
  3
UCSORTHOREF
350
14740
  3
UCSORTHOVIEW
350
14741
  3
UCSBASE
350
14742
  3
UCSORGTOP
350
14743
  3
UCSORGBOTTOM
350
14744
  3
UCSORGLEFT
350
14745
  3
UCSORGRIGHT
350
14746
  3
UCSORGFRONT
350
14747
  3
UCSORGBACK
350
14748
  0
DICTIONARY
  5
1409E
102
{ACAD_REACTORS
330
1409D
102
}
330
1409D
100
AcDbDictionary
280
     1
  3
BASE
360
1409F
  3
CASE
360
140A0
  3
KIKOU
360
140A1
  0
XRECORD
  5
1474A
102
{ACAD_REACTORS
330
14749
102
}
330
14749
100
AcDbXrecord
340
1A
  0
XRECORD
  5
1474C
102
{ACAD_REACTORS
330
1474B
102
}
330
1474B
100
AcDbXrecord
340
5D8E
  0
GROUP
  5
477D
102
{ACAD_REACTORS
330
D
102
}
330
D
100
AcDbGroup
300

 70
     1
 71
     1
  0
GROUP
  5
4781
102
{ACAD_REACTORS
330
D
102
}
330
D
100
AcDbGroup
300

 70
     1
 71
     1
  0
GROUP
  5
4C0E
102
{ACAD_REACTORS
330
D
102
}
330
D
100
AcDbGroup
300

 70
     1
 71
     1
  0
GROUP
  5
4C0F
102
{ACAD_REACTORS
330
D
102
}
330
D
100
AcDbGroup
300

 70
     1
 71
     1
  0
GROUP
  5
13E2E
102
{ACAD_REACTORS
330
D
102
}
330
D
100
AcDbGroup
300

 70
     1
 71
     1
  0
GROUP
  5
4C10
102
{ACAD_REACTORS
330
D
102
}
330
D
100
AcDbGroup
300

 70
     1
 71
     1
  0
GROUP
  5
4C11
102
{ACAD_REACTORS
330
D
102
}
330
D
100
AcDbGroup
300

 70
     1
 71
     1
  0
GROUP
  5
4C12
102
{ACAD_REACTORS
330
D
102
}
330
D
100
AcDbGroup
300

 70
     1
 71
     1
  0
GROUP
  5
4C13
102
{ACAD_REACTORS
330
D
102
}
330
D
100
AcDbGroup
300

 70
     1
 71
     1
  0
GROUP
  5
4C14
102
{ACAD_REACTORS
330
D
102
}
330
D
100
AcDbGroup
300

 70
     1
 71
     1
  0
GROUP
  5
4C15
102
{ACAD_REACTORS
330
D
102
}
330
D
100
AcDbGroup
300

 70
     1
 71
     1
  0
GROUP
  5
4C16
102
{ACAD_REACTORS
330
D
102
}
330
D
100
AcDbGroup
300

 70
     1
 71
     1
  0
GROUP
  5
4C17
102
{ACAD_REACTORS
330
D
102
}
330
D
100
AcDbGroup
300

 70
     1
 71
     1
  0
GROUP
  5
477E
102
{ACAD_REACTORS
330
D
102
}
330
D
100
AcDbGroup
300

 70
     1
 71
     1
  0
GROUP
  5
477F
102
{ACAD_REACTORS
330
D
102
}
330
D
100
AcDbGroup
300

 70
     1
 71
     1
  0
GROUP
  5
4780
102
{ACAD_REACTORS
330
D
102
}
330
D
100
AcDbGroup
300

 70
     1
 71
     1
  0
MLINESTYLE
  5
13
102
{ACAD_REACTORS
330
E
102
}
330
E
100
AcDbMlineStyle
  2
STANDARD
 70
     0
  3

 62
     0
 51
90.0
 52
90.0
 71
     2
 49
0.5
 62
   256
  6
BYLAYER
 49
-0.5
 62
   256
  6
BYLAYER
  0
ACDBPLACEHOLDER
  5
5C7C
102
{ACAD_REACTORS
330
5C7B
102
}
330
5C7B
100
AcDbPlaceHolder
280
     0
  0
XRECORD
  5
1472A
102
{ACAD_REACTORS
330
14729
102
}
330
14729
100
AcDbXrecord
 90
        1
  0
XRECORD
  5
1472B
102
{ACAD_REACTORS
330
14729
102
}
330
14729
100
AcDbXrecord
 90
       70
  0
XRECORD
  5
1472C
102
{ACAD_REACTORS
330
14729
102
}
330
14729
100
AcDbXrecord
  1

  0
XRECORD
  5
1472D
102
{ACAD_REACTORS
330
14729
102
}
330
14729
100
AcDbXrecord
  1

  0
XRECORD
  5
1472E
102
{ACAD_REACTORS
330
14729
102
}
330
14729
100
AcDbXrecord
340
5C7D
  0
XRECORD
  5
1472F
102
{ACAD_REACTORS
330
14729
102
}
330
14729
100
AcDbXrecord
340
5C7E
  0
XRECORD
  5
14730
102
{ACAD_REACTORS
330
14729
102
}
330
14729
100
AcDbXrecord
340
5C7B
  0
XRECORD
  5
14731
102
{ACAD_REACTORS
330
14729
102
}
330
14729
100
AcDbXrecord
 90
    10781
  0
XRECORD
  5
14732
102
{ACAD_REACTORS
330
14729
102
}
330
14729
100
AcDbXrecord
 90
        0
  0
XRECORD
  5
14733
102
{ACAD_REACTORS
330
14729
102
}
330
14729
100
AcDbXrecord
 90
        0
  0
XRECORD
  5
14734
102
{ACAD_REACTORS
330
14729
102
}
330
14729
100
AcDbXrecord
  1
{225A7F0D-DA29-11D8-946A-0000E2416295}
  0
XRECORD
  5
14735
102
{ACAD_REACTORS
330
14729
102
}
330
14729
100
AcDbXrecord
  1
{12F8D4F4-2A90-4F49-9FBD-F4BAA905B7FC}
  0
XRECORD
  5
14736
102
{ACAD_REACTORS
330
14729
102
}
330
14729
100
AcDbXrecord
 40
0.0
  0
XRECORD
  5
14737
102
{ACAD_REACTORS
330
14729
102
}
330
14729
100
AcDbXrecord
340
0
  0
XRECORD
  5
14738
102
{ACAD_REACTORS
330
14729
102
}
330
14729
100
AcDbXrecord
 70
     0
  0
XRECORD
  5
14739
102
{ACAD_REACTORS
330
14729
102
}
330
14729
100
AcDbXrecord
340
0
  0
XRECORD
  5
1473A
102
{ACAD_REACTORS
330
14729
102
}
330
14729
100
AcDbXrecord
 10
0.0
 20
0.0
 30
0.0
  0
XRECORD
  5
1473B
102
{ACAD_REACTORS
330
14729
102
}
330
14729
100
AcDbXrecord
 10
0.0
 20
0.0
 30
0.0
  0
XRECORD
  5
1473C
102
{ACAD_REACTORS
330
14729
102
}
330
14729
100
AcDbXrecord
 10
0.0
 20
0.0
 30
0.0
  0
XRECORD
  5
1473D
102
{ACAD_REACTORS
330
14729
102
}
330
14729
100
AcDbXrecord
 10
0.0
 20
0.0
 30
0.0
  0
XRECORD
  5
1473E
102
{ACAD_REACTORS
330
14729
102
}
330
14729
100
AcDbXrecord
 10
0.0
 20
0.0
 30
0.0
  0
XRECORD
  5
1473F
102
{ACAD_REACTORS
330
14729
102
}
330
14729
100
AcDbXrecord
 10
0.0
 20
0.0
 30
0.0
  0
XRECORD
  5
14740
102
{ACAD_REACTORS
330
14729
102
}
330
14729
100
AcDbXrecord
340
0
  0
XRECORD
  5
14741
102
{ACAD_REACTORS
330
14729
102
}
330
14729
100
AcDbXrecord
 70
     0
  0
XRECORD
  5
14742
102
{ACAD_REACTORS
330
14729
102
}
330
14729
100
AcDbXrecord
340
0
  0
XRECORD
  5
14743
102
{ACAD_REACTORS
330
14729
102
}
330
14729
100
AcDbXrecord
 10
0.0
 20
0.0
 30
0.0
  0
XRECORD
  5
14744
102
{ACAD_REACTORS
330
14729
102
}
330
14729
100
AcDbXrecord
 10
0.0
 20
0.0
 30
0.0
  0
XRECORD
  5
14745
102
{ACAD_REACTORS
330
14729
102
}
330
14729
100
AcDbXrecord
 10
0.0
 20
0.0
 30
0.0
  0
XRECORD
  5
14746
102
{ACAD_REACTORS
330
14729
102
}
330
14729
100
AcDbXrecord
 10
0.0
 20
0.0
 30
0.0
  0
XRECORD
  5
14747
102
{ACAD_REACTORS
330
14729
102
}
330
14729
100
AcDbXrecord
 10
0.0
 20
0.0
 30
0.0
  0
XRECORD
  5
14748
102
{ACAD_REACTORS
330
14729
102
}
330
14729
100
AcDbXrecord
 10
0.0
 20
0.0
 30
0.0
  0
XRECORD
  5
1409F
102
{ACAD_REACTORS
330
1409E
102
}
330
1409E
100
AcDbXrecord
  1
BASE
  1
BASE*
  1
*
  1
*
 70
     0
  1
*
  1
*
  0
XRECORD
  5
140A0
102
{ACAD_REACTORS
330
1409E
102
}
330
1409E
100
AcDbXrecord
  1
CASE
  1
CASE*
  1
*
  1
*
 70
     0
  1
*
  1
*
  0
XRECORD
  5
140A1
102
{ACAD_REACTORS
330
1409E
102
}
330
1409E
100
AcDbXrecord
  1
KIKOU
  1
KIKOU*
  1
*
  1
*
 70
     0
  1
*
  1
*
  0
ENDSEC
  0
EOF
