  0
SECTION
  2
HEADER
  9
$ACADVER
  1
AC1014
  9
$ACADMAINTVER
 70
     9
  9
$DWGCODEPAGE
  3
ANSI_932
  9
$INSBASE
 10
0.0
 20
0.0
 30
0.0
  9
$EXTMIN
 10
-1132.112279872921
 20
1515.159480799864
 30
0.0
  9
$EXTMAX
 10
-979.2680552313631
 20
1689.682402445169
 30
0.0
  9
$LIMMIN
 10
0.0
 20
0.0
  9
$LIMMAX
 10
420.0
 20
297.0
  9
$ORTHOMODE
 70
     1
  9
$REGENMODE
 70
     1
  9
$FILLMODE
 70
     1
  9
$QTEXTMODE
 70
     0
  9
$MIRRTEXT
 70
     1
  9
$DRAGMODE
 70
     2
  9
$LTSCALE
 40
1.0
  9
$OSMODE
 70
    37
  9
$ATTMODE
 70
     1
  9
$TEXTSIZE
 40
2.5
  9
$TRACEWID
 40
1.0
  9
$TEXTSTYLE
  7
ゴシック体
  9
$CLAYER
  8
ZISSEN1
  9
$CELTYPE
  6
BYLAYER
  9
$CECOLOR
 62
   256
  9
$CELTSCALE
 40
1.0
  9
$DELOBJ
 70
     1
  9
$DISPSILH
 70
     0
  9
$DIMSCALE
 40
0.0
  9
$DIMASZ
 40
3.0
  9
$DIMEXO
 40
0.5
  9
$DIMDLI
 40
0.5
  9
$DIMRND
 40
0.0
  9
$DIMDLE
 40
0.0
  9
$DIMEXE
 40
0.5
  9
$DIMTP
 40
0.0
  9
$DIMTM
 40
0.0
  9
$DIMTXT
 40
3.5
  9
$DIMCEN
 40
0.0
  9
$DIMTSZ
 40
0.0
  9
$DIMTOL
 70
     0
  9
$DIMLIM
 70
     0
  9
$DIMTIH
 70
     0
  9
$DIMTOH
 70
     0
  9
$DIMSE1
 70
     0
  9
$DIMSE2
 70
     0
  9
$DIMTAD
 70
     1
  9
$DIMZIN
 70
     8
  9
$DIMBLK
  1

  9
$DIMASO
 70
     1
  9
$DIMSHO
 70
     1
  9
$DIMPOST
  1

  9
$DIMAPOST
  1

  9
$DIMALT
 70
     0
  9
$DIMALTD
 70
     2
  9
$DIMALTF
 40
25.4
  9
$DIMLFAC
 40
1.0
  9
$DIMTOFL
 70
     1
  9
$DIMTVP
 40
0.0
  9
$DIMTIX
 70
     0
  9
$DIMSOXD
 70
     0
  9
$DIMSAH
 70
     0
  9
$DIMBLK1
  1

  9
$DIMBLK2
  1

  9
$DIMSTYLE
  2
標準スタイル
  9
$DIMCLRD
 70
     1
  9
$DIMCLRE
 70
     1
  9
$DIMCLRT
 70
     1
  9
$DIMTFAC
 40
1.0
  9
$DIMGAP
 40
1.0
  9
$DIMJUST
 70
     0
  9
$DIMSD1
 70
     0
  9
$DIMSD2
 70
     0
  9
$DIMTOLJ
 70
     1
  9
$DIMTZIN
 70
     8
  9
$DIMALTZ
 70
     0
  9
$DIMALTTZ
 70
     0
  9
$DIMFIT
 70
     3
  9
$DIMUPT
 70
     0
  9
$DIMUNIT
 70
     2
  9
$DIMDEC
 70
     2
  9
$DIMTDEC
 70
     2
  9
$DIMALTU
 70
     2
  9
$DIMALTTD
 70
     2
  9
$DIMTXSTY
  7
ゴシック体
  9
$DIMAUNIT
 70
     0
  9
$LUNITS
 70
     2
  9
$LUPREC
 70
     4
  9
$SKETCHINC
 40
1.0
  9
$FILLETRAD
 40
0.0
  9
$AUNITS
 70
     0
  9
$AUPREC
 70
     0
  9
$MENU
  1
.
  9
$ELEVATION
 40
0.0
  9
$PELEVATION
 40
0.0
  9
$THICKNESS
 40
0.0
  9
$LIMCHECK
 70
     0
  9
$BLIPMODE
 70
     0
  9
$CHAMFERA
 40
10.0
  9
$CHAMFERB
 40
10.0
  9
$CHAMFERC
 40
2.0
  9
$CHAMFERD
 40
0.7853981633974483
  9
$SKPOLY
 70
     0
  9
$TDCREATE
 40
2450495.493631365
  9
$TDUPDATE
 40
2456315.763144340
  9
$TDINDWG
 40
1.8261648032
  9
$TDUSRTIMER
 40
1.8261648032
  9
$USRTIMER
 70
     1
  9
$ANGBASE
 50
0.0
  9
$ANGDIR
 70
     0
  9
$PDMODE
 70
    99
  9
$PDSIZE
 40
0.0
  9
$PLINEWID
 40
0.0
  9
$COORDS
 70
     1
  9
$SPLFRAME
 70
     0
  9
$SPLINETYPE
 70
     6
  9
$SPLINESEGS
 70
     8
  9
$ATTDIA
 70
     0
  9
$ATTREQ
 70
     1
  9
$HANDLING
 70
 10241
  9
$HANDSEED
  5
17268
  9
$SURFTAB1
 70
     6
  9
$SURFTAB2
 70
     6
  9
$SURFTYPE
 70
     6
  9
$SURFU
 70
     6
  9
$SURFV
 70
     6
  9
$UCSNAME
  2

  9
$UCSORG
 10
0.0
 20
0.0
 30
0.0
  9
$UCSXDIR
 10
1.0
 20
0.0
 30
0.0
  9
$UCSYDIR
 10
0.0
 20
1.0
 30
0.0
  9
$PUCSNAME
  2

  9
$PUCSORG
 10
0.0
 20
0.0
 30
0.0
  9
$PUCSXDIR
 10
1.0
 20
0.0
 30
0.0
  9
$PUCSYDIR
 10
0.0
 20
1.0
 30
0.0
  9
$USERI1
 70
     0
  9
$USERI2
 70
     0
  9
$USERI3
 70
     0
  9
$USERI4
 70
     0
  9
$USERI5
 70
     0
  9
$USERR1
 40
0.0
  9
$USERR2
 40
0.0
  9
$USERR3
 40
0.0
  9
$USERR4
 40
0.0
  9
$USERR5
 40
0.0
  9
$WORLDVIEW
 70
     1
  9
$SHADEDGE
 70
     3
  9
$SHADEDIF
 70
    70
  9
$TILEMODE
 70
     0
  9
$MAXACTVP
 70
    16
  9
$PINSBASE
 10
0.0
 20
0.0
 30
0.0
  9
$PLIMCHECK
 70
     0
  9
$PEXTMIN
 10
29.03300591007655
 20
27.68608307708484
 30
-0.0000000349181948
  9
$PEXTMAX
 10
414.5629514652001
 20
287.7108950483354
 30
0.0000000814935746
  9
$PLIMMIN
 10
11.80863037956071
 20
9.181832996613939
  9
$PLIMMAX
 10
431.7552856529982
 20
306.1924836313795
  9
$UNITMODE
 70
     0
  9
$VISRETAIN
 70
     0
  9
$PLINEGEN
 70
     0
  9
$PSLTSCALE
 70
     1
  9
$TREEDEPTH
 70
  3020
  9
$PICKSTYLE
 70
     1
  9
$CMLSTYLE
  2
STANDARD
  9
$CMLJUST
 70
     0
  9
$CMLSCALE
 40
1.0
  9
$PROXYGRAPHICS
 70
     1
  9
$MEASUREMENT
 70
     1
  0
ENDSEC
  0
SECTION
  2
CLASSES
  0
CLASS
  1
LWPOLYLINE
  2
AcDbPolyline
  3
AutoCAD 2000
 90
        0
280
     0
281
     1
  0
CLASS
  1
HATCH
  2
AcDbHatch
  3
AutoCAD 2000
 90
        0
280
     0
281
     1
  0
CLASS
  1
ACDBDICTIONARYWDFLT
  2
AcDbDictionaryWithDefault
  3
AutoCAD 2000
 90
        0
280
     0
281
     0
  0
CLASS
  1
ACDBPLACEHOLDER
  2
AcDbPlaceHolder
  3
AutoCAD 2000
 90
        0
280
     0
281
     0
  0
CLASS
  1
LAYOUT
  2
AcDbLayout
  3
AutoCAD 2000
 90
        0
280
     0
281
     0
  0
CLASS
  1
DICTIONARYVAR
  2
AcDbDictionaryVar
  3
AutoCAD 2000
 90
        0
280
     0
281
     0
  0
CLASS
  1
LONG_TRANSACTION
  2
AcDbLongTransaction
  3
AutoCAD 2000
 90
        0
280
     0
281
     0
  0
CLASS
  1
LWPOLYLINE
  2
AcDbPolyline
  3
AutoCAD 2000
 90
        0
280
     0
281
     1
  0
CLASS
  1
HATCH
  2
AcDbHatch
  3
AutoCAD 2000
 90
        0
280
     0
281
     1
  0
CLASS
  1
XRECORD
  2
AcDbXrecord
  3
AutoCAD 2000
 90
        0
280
     0
281
     0
  0
CLASS
  1
LONG_TRANSACTION
  2
AcDbLongTransaction
  3
AutoCAD 2000
 90
        0
280
     0
281
     0
  0
CLASS
  1
LWPOLYLINE
  2
AcDbPolyline
  3
AutoCAD 2000
 90
        0
280
     0
281
     1
  0
CLASS
  1
HATCH
  2
AcDbHatch
  3
AutoCAD 2000
 90
        0
280
     0
281
     1
  0
CLASS
  1
XRECORD
  2
AcDbXrecord
  3
AutoCAD 2000
 90
        0
280
     0
281
     0
  0
ENDSEC
  0
SECTION
  2
TABLES
  0
TABLE
  2
VPORT
  5
8
330
0
100
AcDbSymbolTable
 70
     2
  0
VPORT
  5
1722F
330
8
100
AcDbSymbolTableRecord
100
AcDbViewportTableRecord
  2
*ACTIVE
 70
     0
 10
0.0
 20
0.0
 11
1.0
 21
1.0
 12
-1055.66241074927
 22
1602.39572858872
 13
0.0
 23
0.0
 14
5.0
 24
5.0
 15
0.0
 25
0.0
 16
0.0
 26
0.0
 36
1.0
 17
0.0
 27
0.0
 37
0.0
 40
176.6428250359208
 41
1.781954887218045
 42
50.0
 43
0.0
 44
0.0
 50
0.0
 51
0.0
 71
     0
 72
   100
 73
     1
 74
     0
 75
     0
 76
     0
 77
     0
 78
     0
  0
ENDTAB
  0
TABLE
  2
LTYPE
  5
5
330
0
100
AcDbSymbolTable
 70
     4
  0
LTYPE
  5
14
330
5
100
AcDbSymbolTableRecord
100
AcDbLinetypeTableRecord
  2
BYBLOCK
 70
     0
  3

 72
    65
 73
     0
 40
0.0
  0
LTYPE
  5
15
330
5
100
AcDbSymbolTableRecord
100
AcDbLinetypeTableRecord
  2
BYLAYER
 70
     0
  3

 72
    65
 73
     0
 40
0.0
  0
LTYPE
  5
16
330
5
100
AcDbSymbolTableRecord
100
AcDbLinetypeTableRecord
  2
CONTINUOUS
 70
     0
  3
Solid line
 72
    65
 73
     0
 40
0.0
  0
LTYPE
  5
1956
330
5
100
AcDbSymbolTableRecord
100
AcDbLinetypeTableRecord
  2
CENTERX2
 70
     0
  3
________  __  ________  __  ________  __  _____
 72
    65
 73
     4
 40
4.0
 49
2.5
 74
     0
 49
-0.5
 74
     0
 49
0.5
 74
     0
 49
-0.5
 74
     0
  0
LTYPE
  5
1958
330
5
100
AcDbSymbolTableRecord
100
AcDbLinetypeTableRecord
  2
PHANTOMX2
 70
     0
  3
____________    ____    ____    ____________   
 72
    65
 73
     6
 40
5.0
 49
2.5
 74
     0
 49
-0.5
 74
     0
 49
0.5
 74
     0
 49
-0.5
 74
     0
 49
0.5
 74
     0
 49
-0.5
 74
     0
  0
LTYPE
  5
142A2
330
5
100
AcDbSymbolTableRecord
100
AcDbLinetypeTableRecord
  2
DASHEDX2
 70
     0
  3
____  ____  ____  ____  ____  ____  ____  ____ 
 72
    65
 73
     2
 40
1.5
 49
1.0
 74
     0
 49
-0.5
 74
     0
  0
ENDTAB
  0
TABLE
  2
LAYER
  5
2
102
{ACAD_XDICTIONARY
360
14053
102
}
330
0
100
AcDbSymbolTable
 70
     6
  0
LAYER
  5
F
330
2
100
AcDbSymbolTableRecord
100
AcDbLayerTableRecord
  2
0
 70
     0
 62
     7
  6
CONTINUOUS
  0
LAYER
  5
18F
330
2
100
AcDbSymbolTableRecord
100
AcDbLayerTableRecord
  2
ZISSEN1
 70
     0
 62
     7
  6
CONTINUOUS
  0
LAYER
  5
529
330
2
100
AcDbSymbolTableRecord
100
AcDbLayerTableRecord
  2
SUNPOU
 70
     0
 62
     1
  6
CONTINUOUS
  0
LAYER
  5
195A
330
2
100
AcDbSymbolTableRecord
100
AcDbLayerTableRecord
  2
CL1
 70
     0
 62
   210
  6
CENTERX2
  0
LAYER
  5
195C
330
2
100
AcDbSymbolTableRecord
100
AcDbLayerTableRecord
  2
SOUZOUSEN
 70
     0
 62
     5
  6
PHANTOMX2
  0
LAYER
  5
3A9B
330
2
100
AcDbSymbolTableRecord
100
AcDbLayerTableRecord
  2
DEFPOINTS
 70
     0
 62
     7
  6
CONTINUOUS
  0
ENDTAB
  0
TABLE
  2
STYLE
  5
3
330
0
100
AcDbSymbolTable
 70
     2
  0
STYLE
  5
10
330
3
100
AcDbSymbolTableRecord
100
AcDbTextStyleTableRecord
  2
STANDARD
 70
     0
 40
0.0
 41
1.0
 50
0.0
 71
     0
 42
3.0
  3
txt
  4
BigFont
  0
STYLE
  5
1960
330
3
100
AcDbSymbolTableRecord
100
AcDbTextStyleTableRecord
  2
ゴシック体
 70
     0
 40
0.0
 41
1.0
 50
0.0
 71
     0
 42
2.5
  3
MS Gothic.ttf
  4

1001
ACAD
1000
MS Gothic
1071
    32817
  0
ENDTAB
  0
TABLE
  2
VIEW
  5
6
330
0
100
AcDbSymbolTable
 70
     0
  0
ENDTAB
  0
TABLE
  2
UCS
  5
7
330
0
100
AcDbSymbolTable
 70
     0
  0
ENDTAB
  0
TABLE
  2
APPID
  5
9
330
0
100
AcDbSymbolTable
 70
     5
  0
APPID
  5
11
330
9
100
AcDbSymbolTableRecord
100
AcDbRegAppTableRecord
  2
ACAD
 70
     0
  0
APPID
  5
4005
330
9
100
AcDbSymbolTableRecord
100
AcDbRegAppTableRecord
  2
CONTENTTABDATA
 70
     0
  0
APPID
  5
4006
330
9
100
AcDbSymbolTableRecord
100
AcDbRegAppTableRecord
  2
CONTENTCURRENTTAB
 70
     0
  0
APPID
  5
477B
330
9
100
AcDbSymbolTableRecord
100
AcDbRegAppTableRecord
  2
CONTENTBLOCKDESCRIPTION
 70
     0
  0
APPID
  5
477C
330
9
100
AcDbSymbolTableRecord
100
AcDbRegAppTableRecord
  2
CONTENTBLOCKICON
 70
     0
  0
ENDTAB
  0
TABLE
  2
DIMSTYLE
  5
A
330
0
100
AcDbSymbolTable
 70
     3
  0
DIMSTYLE
105
1D
330
A
100
AcDbSymbolTableRecord
100
AcDbDimStyleTableRecord
  2
STANDARD
 70
     0
  3

  4

  5

  6

  7

 40
1.0
 41
0.18
 42
0.0625
 43
0.38
 44
0.18
 45
0.0
 46
0.0
 47
0.0
 48
0.0
140
0.18
141
0.09
142
0.0
143
25.4
144
1.0
145
0.0
146
1.0
147
0.09
 71
     0
 72
     0
 73
     1
 74
     1
 75
     0
 76
     0
 77
     0
 78
     0
170
     0
171
     2
172
     0
173
     0
174
     0
175
     0
176
     0
177
     0
178
     0
270
     2
271
     4
272
     4
273
     2
274
     2
340
10
275
     0
280
     0
281
     0
282
     0
283
     1
284
     0
285
     0
286
     0
287
     3
288
     0
  0
DIMSTYLE
105
52E
102
{ACAD_REACTORS
330
16F70
330
16FC5
330
16FE0
330
16FF7
330
17011
330
17053
330
17090
330
170C0
330
170CD
102
}
330
A
100
AcDbSymbolTableRecord
100
AcDbDimStyleTableRecord
  2
標準スタイル
 70
     0
  3

  4

  5

  6

  7

 40
0.0
 41
3.0
 42
0.5
 43
0.5
 44
0.5
 45
0.0
 46
0.0
 47
0.0
 48
0.0
140
3.5
141
0.0
142
0.0
143
25.4
144
1.0
145
0.0
146
1.0
147
1.0
 71
     0
 72
     0
 73
     0
 74
     0
 75
     0
 76
     0
 77
     1
 78
     8
170
     0
171
     2
172
     1
173
     0
174
     0
175
     0
176
     1
177
     1
178
     1
270
     2
271
     2
272
     2
273
     2
274
     2
340
1960
275
     0
280
     0
281
     0
282
     0
283
     1
284
     8
285
     0
286
     0
287
     3
288
     0
  0
DIMSTYLE
105
142B1
102
{ACAD_REACTORS
330
15B4E
102
}
330
A
100
AcDbSymbolTableRecord
100
AcDbDimStyleTableRecord
  2
矢2_5-字2_5
 70
     0
  3

  4

  5

  6

  7

 40
1.0
 41
2.5
 42
0.5
 43
0.5
 44
0.5
 45
0.0
 46
0.0
 47
0.0
 48
0.0
140
2.5
141
0.0
142
0.0
143
25.4
144
1.0
145
0.0
146
1.0
147
1.0
 71
     0
 72
     0
 73
     0
 74
     0
 75
     0
 76
     0
 77
     1
 78
     8
170
     0
171
     2
172
     1
173
     0
174
     0
175
     0
176
     1
177
     1
178
     1
270
     2
271
     2
272
     2
273
     2
274
     2
340
1960
275
     0
280
     0
281
     0
282
     0
283
     1
284
     8
285
     0
286
     0
287
     3
288
     0
  0
ENDTAB
  0
TABLE
  2
BLOCK_RECORD
  5
1
330
0
100
AcDbSymbolTable
 70
    10
  0
BLOCK_RECORD
  5
1A
102
{ACAD_XDICTIONARY
360
171B2
102
}
330
1
100
AcDbSymbolTableRecord
100
AcDbBlockTableRecord
  2
*MODEL_SPACE
  0
BLOCK_RECORD
  5
5D8E
102
{ACAD_XDICTIONARY
360
171B8
102
}
330
1
100
AcDbSymbolTableRecord
100
AcDbBlockTableRecord
  2
*PAPER_SPACE
  0
BLOCK_RECORD
  5
15DDA
330
1
100
AcDbSymbolTableRecord
100
AcDbBlockTableRecord
  2
*D0
  0
BLOCK_RECORD
  5
16F71
330
1
100
AcDbSymbolTableRecord
100
AcDbBlockTableRecord
  2
*D1
  0
BLOCK_RECORD
  5
16FC6
330
1
100
AcDbSymbolTableRecord
100
AcDbBlockTableRecord
  2
*D2
  0
BLOCK_RECORD
  5
16FE1
330
1
100
AcDbSymbolTableRecord
100
AcDbBlockTableRecord
  2
*D3
  0
BLOCK_RECORD
  5
16FF8
330
1
100
AcDbSymbolTableRecord
100
AcDbBlockTableRecord
  2
*D4
  0
BLOCK_RECORD
  5
17012
330
1
100
AcDbSymbolTableRecord
100
AcDbBlockTableRecord
  2
*D5
  0
BLOCK_RECORD
  5
17054
330
1
100
AcDbSymbolTableRecord
100
AcDbBlockTableRecord
  2
*D6
  0
BLOCK_RECORD
  5
17091
330
1
100
AcDbSymbolTableRecord
100
AcDbBlockTableRecord
  2
*D7
  0
BLOCK_RECORD
  5
170C1
330
1
100
AcDbSymbolTableRecord
100
AcDbBlockTableRecord
  2
*D8
  0
BLOCK_RECORD
  5
170CE
330
1
100
AcDbSymbolTableRecord
100
AcDbBlockTableRecord
  2
*D9
  0
ENDTAB
  0
ENDSEC
  0
SECTION
  2
BLOCKS
  0
BLOCK
  5
1B
330
1A
100
AcDbEntity
  8
0
100
AcDbBlockBegin
  2
*MODEL_SPACE
 70
     0
 10
0.0
 20
0.0
 30
0.0
  3
*MODEL_SPACE
  1

  0
ENDBLK
  5
1C
330
1A
100
AcDbEntity
  8
0
100
AcDbBlockEnd
  0
BLOCK
  5
5E60
330
5D8E
100
AcDbEntity
 67
     1
  8
0
100
AcDbBlockBegin
  2
*PAPER_SPACE
 70
     0
 10
0.0
 20
0.0
 30
0.0
  3
*PAPER_SPACE
  1

  0
ENDBLK
  5
5E61
330
5D8E
100
AcDbEntity
 67
     1
  8
0
100
AcDbBlockEnd
  0
BLOCK
  5
15DE4
330
15DDA
100
AcDbEntity
  8
0
100
AcDbBlockBegin
  2
*D0
 70
     1
 10
0.0
 20
0.0
 30
0.0
  3
*D0
  1

  0
LINE
  5
17167
330
15DDA
100
AcDbEntity
  8
SUNPOU
 62
     1
100
AcDbLine
 10
-1052.018055231361
 20
1527.373527651525
 30
0.0
 11
-1052.018055231361
 21
1515.159480799864
 31
0.0
  0
LINE
  5
17168
330
15DDA
100
AcDbEntity
  8
SUNPOU
 62
     1
100
AcDbLine
 10
-1118.018055231361
 20
1526.873527651525
 30
0.0
 11
-1118.018055231361
 21
1515.159480799864
 31
0.0
  0
LINE
  5
17169
330
15DDA
100
AcDbEntity
  8
SUNPOU
 62
     1
100
AcDbLine
 10
-1054.518055231361
 20
1515.659480799865
 30
0.0
 11
-1115.518055231361
 21
1515.659480799865
 31
0.0
  0
SOLID
  5
1716A
330
15DDA
100
AcDbEntity
  8
SUNPOU
 62
     1
100
AcDbTrace
 10
-1054.518055231361
 20
1516.076147466531
 30
0.0
 11
-1054.518055231361
 21
1515.242814133198
 31
0.0
 12
-1052.018055231361
 22
1515.659480799865
 32
0.0
 13
-1052.018055231361
 23
1515.659480799865
 33
0.0
  0
SOLID
  5
1716B
330
15DDA
100
AcDbEntity
  8
SUNPOU
 62
     1
100
AcDbTrace
 10
-1115.518055231361
 20
1516.076147466531
 30
0.0
 11
-1115.518055231361
 21
1515.242814133198
 31
0.0
 12
-1118.018055231361
 22
1515.659480799865
 32
0.0
 13
-1118.018055231361
 23
1515.659480799865
 33
0.0
  0
MTEXT
  5
1716C
330
15DDA
100
AcDbEntity
  8
SUNPOU
 62
     1
100
AcDbMText
 10
-1085.018055231361
 20
1518.409480799864
 30
0.0
 40
3.5
 41
0.0
 71
     5
 72
     1
  1
\A1;66
1001
ACAD
1000
MTEXTBEGIN
1070
    73
1070
     1
1070
    44
1040
1.0
1070
    74
1070
     0
1000
MTEXTEND
1000
MTEXTBEGIN
1070
    73
1070
     1
1070
    44
1040
1.0
1070
    74
1070
     0
1000
MTEXTEND
  0
POINT
  5
1716D
330
15DDA
100
AcDbEntity
  8
DEFPOINTS
 62
     0
100
AcDbPoint
 10
-1052.018055231361
 20
1527.873527651525
 30
0.0
  0
POINT
  5
1716E
330
15DDA
100
AcDbEntity
  8
DEFPOINTS
 62
     0
100
AcDbPoint
 10
-1118.018055231361
 20
1527.373527651525
 30
0.0
  0
POINT
  5
1716F
330
15DDA
100
AcDbEntity
  8
DEFPOINTS
 62
     0
100
AcDbPoint
 10
-1118.018055231361
 20
1515.659480799865
 30
0.0
  0
ENDBLK
  5
15DE5
330
15DDA
100
AcDbEntity
  8
0
100
AcDbBlockEnd
  0
BLOCK
  5
16F7B
330
16F71
100
AcDbEntity
  8
0
100
AcDbBlockBegin
  2
*D1
 70
     1
 10
0.0
 20
0.0
 30
0.0
  3
*D1
  1

  0
LINE
  5
170FF
330
16F71
100
AcDbEntity
  8
SUNPOU
 62
     1
100
AcDbLine
 10
-1069.518055231361
 20
1524.373527651526
 30
0.0
 11
-1042.063814065654
 21
1524.373527651526
 31
0.0
  0
LINE
  5
17100
330
16F71
100
AcDbEntity
  8
SUNPOU
 62
     1
100
AcDbLine
 10
-1052.818055231361
 20
1544.273527651525
 30
0.0
 11
-1042.063814065654
 21
1544.273527651525
 31
0.0
  0
LINE
  5
17101
330
16F71
100
AcDbEntity
  8
SUNPOU
 62
     1
100
AcDbLine
 10
-1042.563814065654
 20
1527.373527651526
 30
0.0
 11
-1042.563814065654
 21
1541.273527651525
 31
0.0
  0
SOLID
  5
17102
330
16F71
100
AcDbEntity
  8
SUNPOU
 62
     1
100
AcDbTrace
 10
-1043.063814065654
 20
1527.373527651526
 30
0.0
 11
-1042.063814065654
 21
1527.373527651526
 31
0.0
 12
-1042.563814065654
 22
1524.373527651526
 32
0.0
 13
-1042.563814065654
 23
1524.373527651526
 33
0.0
  0
SOLID
  5
17103
330
16F71
100
AcDbEntity
  8
SUNPOU
 62
     1
100
AcDbTrace
 10
-1043.063814065654
 20
1541.273527651525
 30
0.0
 11
-1042.063814065654
 21
1541.273527651525
 31
0.0
 12
-1042.563814065654
 22
1544.273527651525
 32
0.0
 13
-1042.563814065654
 23
1544.273527651525
 33
0.0
  0
MTEXT
  5
17104
330
16F71
100
AcDbEntity
  8
SUNPOU
 62
     1
100
AcDbMText
 10
-1045.313814065654
 20
1534.323527651525
 30
0.0
 40
3.5
 41
0.0
 71
     5
 72
     1
  1
\A1;(19.9)
 11
0.0000000000000001
 21
1.0
 31
0.0
1001
ACAD
1000
MTEXTBEGIN
1070
    73
1070
     1
1070
    44
1040
1.0
1070
    74
1070
     0
1000
MTEXTEND
1000
MTEXTBEGIN
1070
    73
1070
     1
1070
    44
1040
1.0
1070
    74
1070
     0
1000
MTEXTEND
  0
POINT
  5
17105
330
16F71
100
AcDbEntity
  8
DEFPOINTS
 62
     0
100
AcDbPoint
 10
-1070.018055231361
 20
1524.373527651526
 30
0.0
  0
POINT
  5
17106
330
16F71
100
AcDbEntity
  8
DEFPOINTS
 62
     0
100
AcDbPoint
 10
-1053.318055231361
 20
1544.273527651525
 30
0.0
  0
POINT
  5
17107
330
16F71
100
AcDbEntity
  8
DEFPOINTS
 62
     0
100
AcDbPoint
 10
-1042.563814065654
 20
1544.273527651525
 30
0.0
  0
ENDBLK
  5
16F7C
330
16F71
100
AcDbEntity
  8
0
100
AcDbBlockEnd
  0
BLOCK
  5
16FD2
330
16FC6
100
AcDbEntity
  8
0
100
AcDbBlockBegin
  2
*D2
 70
     1
 10
0.0
 20
0.0
 30
0.0
  3
*D2
  1

  0
LINE
  5
1715C
330
16FC6
100
AcDbEntity
  8
SUNPOU
 62
     1
100
AcDbLine
 10
-1118.018055231361
 20
1548.873527651525
 30
0.0
 11
-1118.018055231361
 21
1555.409337241107
 31
0.0
  0
LINE
  5
1715D
330
16FC6
100
AcDbEntity
  8
SUNPOU
 62
     1
100
AcDbLine
 10
-1115.018055231361
 20
1548.873527651525
 30
0.0
 11
-1115.018055231361
 21
1555.409337241107
 31
0.0
  0
LINE
  5
1715E
330
16FC6
100
AcDbEntity
  8
SUNPOU
 62
     1
100
AcDbLine
 10
-1121.018055231361
 20
1554.909337241108
 30
0.0
 11
-1124.018055231361
 21
1554.909337241108
 31
0.0
  0
LINE
  5
1715F
330
16FC6
100
AcDbEntity
  8
SUNPOU
 62
     1
100
AcDbLine
 10
-1112.018055231361
 20
1554.909337241108
 30
0.0
 11
-1104.684721898028
 21
1554.909337241108
 31
0.0
  0
LINE
  5
17160
330
16FC6
100
AcDbEntity
  8
SUNPOU
 62
     1
100
AcDbLine
 10
-1118.018055231361
 20
1554.909337241108
 30
0.0
 11
-1115.018055231361
 21
1554.909337241108
 31
0.0
  0
SOLID
  5
17161
330
16FC6
100
AcDbEntity
  8
SUNPOU
 62
     1
100
AcDbTrace
 10
-1121.018055231361
 20
1555.409337241107
 30
0.0
 11
-1121.018055231361
 21
1554.409337241108
 31
0.0
 12
-1118.018055231361
 22
1554.909337241108
 32
0.0
 13
-1118.018055231361
 23
1554.909337241108
 33
0.0
  0
SOLID
  5
17162
330
16FC6
100
AcDbEntity
  8
SUNPOU
 62
     1
100
AcDbTrace
 10
-1112.018055231361
 20
1555.409337241107
 30
0.0
 11
-1112.018055231361
 21
1554.409337241108
 31
0.0
 12
-1115.018055231361
 22
1554.909337241108
 32
0.0
 13
-1115.018055231361
 23
1554.909337241108
 33
0.0
  0
MTEXT
  5
17163
330
16FC6
100
AcDbEntity
  8
SUNPOU
 62
     1
100
AcDbMText
 10
-1106.851388564694
 20
1557.659337241108
 30
0.0
 40
3.5
 41
0.0
 71
     5
 72
     1
  1
\A1;3
1001
ACAD
1000
MTEXTBEGIN
1070
    73
1070
     1
1070
    44
1040
1.0
1070
    74
1070
     0
1000
MTEXTEND
1000
MTEXTBEGIN
1070
    73
1070
     1
1070
    44
1040
1.0
1070
    74
1070
     0
1000
MTEXTEND
  0
POINT
  5
17164
330
16FC6
100
AcDbEntity
  8
DEFPOINTS
 62
     0
100
AcDbPoint
 10
-1118.018055231361
 20
1548.373527651525
 30
0.0
  0
POINT
  5
17165
330
16FC6
100
AcDbEntity
  8
DEFPOINTS
 62
     0
100
AcDbPoint
 10
-1115.018055231361
 20
1548.373527651525
 30
0.0
  0
POINT
  5
17166
330
16FC6
100
AcDbEntity
  8
DEFPOINTS
 62
     0
100
AcDbPoint
 10
-1115.018055231361
 20
1554.909337241108
 30
0.0
  0
ENDBLK
  5
16FD3
330
16FC6
100
AcDbEntity
  8
0
100
AcDbBlockEnd
  0
BLOCK
  5
16FEB
330
16FE1
100
AcDbEntity
  8
0
100
AcDbBlockBegin
  2
*D3
 70
     1
 10
0.0
 20
0.0
 30
0.0
  3
*D3
  1

  0
LINE
  5
17179
330
16FE1
100
AcDbEntity
  8
SUNPOU
 62
     1
100
AcDbLine
 10
-1118.518055231363
 20
1648.573527651525
 30
0.0
 11
-1128.11227987292
 21
1648.573527651525
 31
0.0
  0
LINE
  5
1717A
330
16FE1
100
AcDbEntity
  8
SUNPOU
 62
     1
100
AcDbLine
 10
-1118.518055231363
 20
1578.573527651525
 30
0.0
 11
-1128.11227987292
 21
1578.573527651525
 31
0.0
  0
LINE
  5
1717B
330
16FE1
100
AcDbEntity
  8
SUNPOU
 62
     1
100
AcDbLine
 10
-1127.612279872921
 20
1645.573527651525
 30
0.0
 11
-1127.612279872921
 21
1581.573527651525
 31
0.0
  0
SOLID
  5
1717C
330
16FE1
100
AcDbEntity
  8
SUNPOU
 62
     1
100
AcDbTrace
 10
-1128.11227987292
 20
1645.573527651525
 30
0.0
 11
-1127.11227987292
 21
1645.573527651525
 31
0.0
 12
-1127.612279872921
 22
1648.573527651525
 32
0.0
 13
-1127.612279872921
 23
1648.573527651525
 33
0.0
  0
SOLID
  5
1717D
330
16FE1
100
AcDbEntity
  8
SUNPOU
 62
     1
100
AcDbTrace
 10
-1128.11227987292
 20
1581.573527651525
 30
0.0
 11
-1127.11227987292
 21
1581.573527651525
 31
0.0
 12
-1127.612279872921
 22
1578.573527651525
 32
0.0
 13
-1127.612279872921
 23
1578.573527651525
 33
0.0
  0
MTEXT
  5
1717E
330
16FE1
100
AcDbEntity
  8
SUNPOU
 62
     1
100
AcDbMText
 10
-1130.362279872921
 20
1613.573527651525
 30
0.0
 40
3.5
 41
0.0
 71
     5
 72
     1
  1
\A1;70
 11
0.0000000000000001
 21
1.0
 31
0.0
1001
ACAD
1000
MTEXTBEGIN
1070
    73
1070
     1
1070
    44
1040
1.0
1070
    74
1070
     0
1000
MTEXTEND
1000
MTEXTBEGIN
1070
    73
1070
     1
1070
    44
1040
1.0
1070
    74
1070
     0
1000
MTEXTEND
  0
POINT
  5
1717F
330
16FE1
100
AcDbEntity
  8
DEFPOINTS
 62
     0
100
AcDbPoint
 10
-1118.018055231363
 20
1648.573527651525
 30
0.0
  0
POINT
  5
17180
330
16FE1
100
AcDbEntity
  8
DEFPOINTS
 62
     0
100
AcDbPoint
 10
-1118.018055231363
 20
1578.573527651525
 30
0.0
  0
POINT
  5
17181
330
16FE1
100
AcDbEntity
  8
DEFPOINTS
 62
     0
100
AcDbPoint
 10
-1127.612279872921
 20
1578.573527651525
 30
0.0
  0
ENDBLK
  5
16FEC
330
16FE1
100
AcDbEntity
  8
0
100
AcDbBlockEnd
  0
BLOCK
  5
17004
330
16FF8
100
AcDbEntity
  8
0
100
AcDbBlockBegin
  2
*D4
 70
     1
 10
0.0
 20
0.0
 30
0.0
  3
*D4
  1

  0
LINE
  5
17134
330
16FF8
100
AcDbEntity
  8
SUNPOU
 62
     1
100
AcDbLine
 10
-997.7680552313632
 20
1649.073527651524
 30
0.0
 11
-997.7680552313632
 21
1657.194825407894
 31
0.0
  0
LINE
  5
17135
330
16FF8
100
AcDbEntity
  8
SUNPOU
 62
     1
100
AcDbLine
 10
-994.2680552313632
 20
1649.073527651524
 30
0.0
 11
-994.2680552313632
 21
1657.194825407894
 31
0.0
  0
LINE
  5
17136
330
16FF8
100
AcDbEntity
  8
SUNPOU
 62
     1
100
AcDbLine
 10
-1000.768055231363
 20
1656.694825407893
 30
0.0
 11
-1003.768055231363
 21
1656.694825407893
 31
0.0
  0
LINE
  5
17137
330
16FF8
100
AcDbEntity
  8
SUNPOU
 62
     1
100
AcDbLine
 10
-991.2680552313631
 20
1656.694825407893
 30
0.0
 11
-979.2680552313631
 21
1656.694825407893
 31
0.0
  0
LINE
  5
17138
330
16FF8
100
AcDbEntity
  8
SUNPOU
 62
     1
100
AcDbLine
 10
-997.7680552313632
 20
1656.694825407893
 30
0.0
 11
-994.2680552313632
 21
1656.694825407893
 31
0.0
  0
SOLID
  5
17139
330
16FF8
100
AcDbEntity
  8
SUNPOU
 62
     1
100
AcDbTrace
 10
-1000.768055231363
 20
1657.194825407894
 30
0.0
 11
-1000.768055231363
 21
1656.194825407894
 31
0.0
 12
-997.7680552313632
 22
1656.694825407893
 32
0.0
 13
-997.7680552313632
 23
1656.694825407893
 33
0.0
  0
SOLID
  5
1713A
330
16FF8
100
AcDbEntity
  8
SUNPOU
 62
     1
100
AcDbTrace
 10
-991.2680552313631
 20
1657.194825407894
 30
0.0
 11
-991.2680552313631
 21
1656.194825407894
 31
0.0
 12
-994.2680552313632
 22
1656.694825407893
 32
0.0
 13
-994.2680552313632
 23
1656.694825407893
 33
0.0
  0
MTEXT
  5
1713B
330
16FF8
100
AcDbEntity
  8
SUNPOU
 62
     1
100
AcDbMText
 10
-983.7680552313631
 20
1659.444825407893
 30
0.0
 40
3.5
 41
0.0
 71
     5
 72
     1
  1
\A1;3.5
1001
ACAD
1000
MTEXTBEGIN
1070
    73
1070
     1
1070
    44
1040
1.0
1070
    74
1070
     0
1000
MTEXTEND
1000
MTEXTBEGIN
1070
    73
1070
     1
1070
    44
1040
1.0
1070
    74
1070
     0
1000
MTEXTEND
  0
POINT
  5
1713C
330
16FF8
100
AcDbEntity
  8
DEFPOINTS
 62
     0
100
AcDbPoint
 10
-997.7680552313632
 20
1648.573527651524
 30
0.0
  0
POINT
  5
1713D
330
16FF8
100
AcDbEntity
  8
DEFPOINTS
 62
     0
100
AcDbPoint
 10
-994.2680552313632
 20
1648.573527651524
 30
0.0
  0
POINT
  5
1713E
330
16FF8
100
AcDbEntity
  8
DEFPOINTS
 62
     0
100
AcDbPoint
 10
-994.2680552313632
 20
1656.694825407893
 30
0.0
  0
ENDBLK
  5
17005
330
16FF8
100
AcDbEntity
  8
0
100
AcDbBlockEnd
  0
BLOCK
  5
1701C
330
17012
100
AcDbEntity
  8
0
100
AcDbBlockBegin
  2
*D5
 70
     1
 10
0.0
 20
0.0
 30
0.0
  3
*D5
  1

  0
LINE
  5
1712B
330
17012
100
AcDbEntity
  8
SUNPOU
 62
     1
100
AcDbLine
 10
-996.5180552313631
 20
1646.073527651524
 30
0.0
 11
-1018.008232993182
 21
1646.073527651524
 31
0.0
  0
LINE
  5
1712C
330
17012
100
AcDbEntity
  8
SUNPOU
 62
     1
100
AcDbLine
 10
-996.5180552313631
 20
1581.073527651525
 30
0.0
 11
-1018.008232993182
 21
1581.073527651525
 31
0.0
  0
LINE
  5
1712D
330
17012
100
AcDbEntity
  8
SUNPOU
 62
     1
100
AcDbLine
 10
-1017.508232993183
 20
1643.073527651524
 30
0.0
 11
-1017.508232993183
 21
1584.073527651525
 31
0.0
  0
SOLID
  5
1712E
330
17012
100
AcDbEntity
  8
SUNPOU
 62
     1
100
AcDbTrace
 10
-1018.008232993182
 20
1643.073527651524
 30
0.0
 11
-1017.008232993182
 21
1643.073527651524
 31
0.0
 12
-1017.508232993183
 22
1646.073527651524
 32
0.0
 13
-1017.508232993183
 23
1646.073527651524
 33
0.0
  0
SOLID
  5
1712F
330
17012
100
AcDbEntity
  8
SUNPOU
 62
     1
100
AcDbTrace
 10
-1018.008232993182
 20
1584.073527651525
 30
0.0
 11
-1017.008232993182
 21
1584.073527651525
 31
0.0
 12
-1017.508232993183
 22
1581.073527651525
 32
0.0
 13
-1017.508232993183
 23
1581.073527651525
 33
0.0
  0
MTEXT
  5
17130
330
17012
100
AcDbEntity
  8
SUNPOU
 62
     1
100
AcDbMText
 10
-1020.258232993183
 20
1613.573527651524
 30
0.0
 40
3.5
 41
0.0
 71
     5
 72
     1
  1
\A1;65
 11
0.0000000000000001
 21
1.0
 31
0.0
1001
ACAD
1000
MTEXTBEGIN
1070
    73
1070
     1
1070
    44
1040
1.0
1070
    74
1070
     0
1000
MTEXTEND
1000
MTEXTBEGIN
1070
    73
1070
     1
1070
    44
1040
1.0
1070
    74
1070
     0
1000
MTEXTEND
  0
POINT
  5
17131
330
17012
100
AcDbEntity
  8
DEFPOINTS
 62
     0
100
AcDbPoint
 10
-996.0180552313632
 20
1646.073527651524
 30
0.0
  0
POINT
  5
17132
330
17012
100
AcDbEntity
  8
DEFPOINTS
 62
     0
100
AcDbPoint
 10
-996.0180552313632
 20
1581.073527651525
 30
0.0
  0
POINT
  5
17133
330
17012
100
AcDbEntity
  8
DEFPOINTS
 62
     0
100
AcDbPoint
 10
-1017.508232993183
 20
1581.073527651525
 30
0.0
  0
ENDBLK
  5
1701D
330
17012
100
AcDbEntity
  8
0
100
AcDbBlockEnd
  0
BLOCK
  5
17060
330
17054
100
AcDbEntity
  8
0
100
AcDbBlockBegin
  2
*D6
 70
     1
 10
0.0
 20
0.0
 30
0.0
  3
*D6
  1

  0
LINE
  5
17252
330
17054
100
AcDbEntity
  8
SUNPOU
 62
     1
100
AcDbLine
 10
-996.5180552313631
 20
1581.073527651525
 30
0.0
 11
-1018.008232993182
 21
1581.073527651525
 31
0.0
  0
LINE
  5
17253
330
17054
100
AcDbEntity
  8
SUNPOU
 62
     1
100
AcDbLine
 10
-1007.518055231363
 20
1578.573527651524
 30
0.0
 11
-1018.008232993182
 21
1578.573527651524
 31
0.0
  0
LINE
  5
17254
330
17054
100
AcDbEntity
  8
SUNPOU
 62
     1
100
AcDbLine
 10
-1017.508232993183
 20
1584.073527651525
 30
0.0
 11
-1017.508232993183
 21
1587.073527651525
 31
0.0
  0
LINE
  5
17255
330
17054
100
AcDbEntity
  8
SUNPOU
 62
     1
100
AcDbLine
 10
-1017.508232993183
 20
1575.573527651524
 30
0.0
 11
-1017.508232993183
 21
1572.573527651524
 31
0.0
  0
MTEXT
  5
17256
330
17054
100
AcDbEntity
  8
SUNPOU
 62
     1
100
AcDbMText
 10
-1020.637687521511
 20
1573.076139269034
 30
0.0
 40
3.5
 41
0.0
 71
     5
 72
     1
  1
\A1;2.5
 11
0.0000000000000001
 21
1.0
 31
0.0
  0
LINE
  5
17257
330
17054
100
AcDbEntity
  8
SUNPOU
 62
     1
100
AcDbLine
 10
-1017.508232993183
 20
1581.073527651525
 30
0.0
 11
-1017.508232993183
 21
1578.573527651524
 31
0.0
  0
SOLID
  5
17258
330
17054
100
AcDbEntity
  8
SUNPOU
 62
     1
100
AcDbTrace
 10
-1018.008232993182
 20
1584.073527651525
 30
0.0
 11
-1017.008232993182
 21
1584.073527651525
 31
0.0
 12
-1017.508232993183
 22
1581.073527651525
 32
0.0
 13
-1017.508232993183
 23
1581.073527651525
 33
0.0
  0
SOLID
  5
17259
330
17054
100
AcDbEntity
  8
SUNPOU
 62
     1
100
AcDbTrace
 10
-1018.008232993182
 20
1575.573527651524
 30
0.0
 11
-1017.008232993182
 21
1575.573527651524
 31
0.0
 12
-1017.508232993183
 22
1578.573527651524
 32
0.0
 13
-1017.508232993183
 23
1578.573527651524
 33
0.0
  0
POINT
  5
1725A
330
17054
100
AcDbEntity
  8
DEFPOINTS
 62
     0
100
AcDbPoint
 10
-996.0180552313632
 20
1581.073527651525
 30
0.0
  0
POINT
  5
1725B
330
17054
100
AcDbEntity
  8
DEFPOINTS
 62
     0
100
AcDbPoint
 10
-1007.018055231363
 20
1578.573527651524
 30
0.0
  0
POINT
  5
1725C
330
17054
100
AcDbEntity
  8
DEFPOINTS
 62
     0
100
AcDbPoint
 10
-1017.508232993183
 20
1578.573527651524
 30
0.0
  0
ENDBLK
  5
17061
330
17054
100
AcDbEntity
  8
0
100
AcDbBlockEnd
  0
BLOCK
  5
1709D
330
17091
100
AcDbEntity
  8
0
100
AcDbBlockBegin
  2
*D7
 70
     1
 10
0.0
 20
0.0
 30
0.0
  3
*D7
  1

  0
LINE
  5
1725D
330
17091
100
AcDbEntity
  8
SUNPOU
 62
     1
100
AcDbLine
 10
-996.5180552313631
 20
1646.073527651524
 30
0.0
 11
-1018.008232993182
 21
1646.073527651524
 31
0.0
  0
LINE
  5
1725E
330
17091
100
AcDbEntity
  8
SUNPOU
 62
     1
100
AcDbLine
 10
-1007.518055231363
 20
1648.573527651524
 30
0.0
 11
-1018.008232993182
 21
1648.573527651524
 31
0.0
  0
LINE
  5
1725F
330
17091
100
AcDbEntity
  8
SUNPOU
 62
     1
100
AcDbLine
 10
-1017.508232993183
 20
1643.073527651524
 30
0.0
 11
-1017.508232993183
 21
1640.073527651525
 31
0.0
  0
LINE
  5
17260
330
17091
100
AcDbEntity
  8
SUNPOU
 62
     1
100
AcDbLine
 10
-1017.508232993183
 20
1651.573527651524
 30
0.0
 11
-1017.508232993183
 21
1654.573527651525
 31
0.0
  0
MTEXT
  5
17261
330
17091
100
AcDbEntity
  8
SUNPOU
 62
     1
100
AcDbMText
 10
-1020.34036635016
 20
1655.223199267503
 30
0.0
 40
3.5
 41
0.0
 71
     5
 72
     1
  1
\A1;2.5
 11
0.0000000000000001
 21
1.0
 31
0.0
  0
LINE
  5
17262
330
17091
100
AcDbEntity
  8
SUNPOU
 62
     1
100
AcDbLine
 10
-1017.508232993183
 20
1646.073527651524
 30
0.0
 11
-1017.508232993183
 21
1648.573527651524
 31
0.0
  0
SOLID
  5
17263
330
17091
100
AcDbEntity
  8
SUNPOU
 62
     1
100
AcDbTrace
 10
-1018.008232993182
 20
1643.073527651524
 30
0.0
 11
-1017.008232993182
 21
1643.073527651524
 31
0.0
 12
-1017.508232993183
 22
1646.073527651524
 32
0.0
 13
-1017.508232993183
 23
1646.073527651524
 33
0.0
  0
SOLID
  5
17264
330
17091
100
AcDbEntity
  8
SUNPOU
 62
     1
100
AcDbTrace
 10
-1018.008232993182
 20
1651.573527651524
 30
0.0
 11
-1017.008232993182
 21
1651.573527651524
 31
0.0
 12
-1017.508232993183
 22
1648.573527651524
 32
0.0
 13
-1017.508232993183
 23
1648.573527651524
 33
0.0
  0
POINT
  5
17265
330
17091
100
AcDbEntity
  8
DEFPOINTS
 62
     0
100
AcDbPoint
 10
-996.0180552313632
 20
1646.073527651524
 30
0.0
  0
POINT
  5
17266
330
17091
100
AcDbEntity
  8
DEFPOINTS
 62
     0
100
AcDbPoint
 10
-1007.018055231363
 20
1648.573527651524
 30
0.0
  0
POINT
  5
17267
330
17091
100
AcDbEntity
  8
DEFPOINTS
 62
     0
100
AcDbPoint
 10
-1017.508232993183
 20
1648.573527651524
 30
0.0
  0
ENDBLK
  5
1709E
330
17091
100
AcDbEntity
  8
0
100
AcDbBlockEnd
  0
BLOCK
  5
170CB
330
170C1
100
AcDbEntity
  8
0
100
AcDbBlockBegin
  2
*D8
 70
     1
 10
0.0
 20
0.0
 30
0.0
  3
*D8
  1

  0
LINE
  5
1713F
330
170C1
100
AcDbEntity
  8
SUNPOU
 62
     1
100
AcDbLine
 10
-984.0180552313631
 20
1584.573527651524
 30
0.0
 11
-984.0180552313631
 21
1569.728021901835
 31
0.0
  0
LINE
  5
17140
330
170C1
100
AcDbEntity
  8
SUNPOU
 62
     1
100
AcDbLine
 10
-996.0180552313632
 20
1580.573527651525
 30
0.0
 11
-996.0180552313632
 21
1569.728021901835
 31
0.0
  0
LINE
  5
17141
330
170C1
100
AcDbEntity
  8
SUNPOU
 62
     1
100
AcDbLine
 10
-987.0180552313632
 20
1570.228021901835
 30
0.0
 11
-993.0180552313631
 21
1570.228021901835
 31
0.0
  0
SOLID
  5
17142
330
170C1
100
AcDbEntity
  8
SUNPOU
 62
     1
100
AcDbTrace
 10
-987.0180552313632
 20
1570.728021901835
 30
0.0
 11
-987.0180552313632
 21
1569.728021901835
 31
0.0
 12
-984.0180552313631
 22
1570.228021901835
 32
0.0
 13
-984.0180552313631
 23
1570.228021901835
 33
0.0
  0
SOLID
  5
17143
330
170C1
100
AcDbEntity
  8
SUNPOU
 62
     1
100
AcDbTrace
 10
-993.0180552313631
 20
1570.728021901835
 30
0.0
 11
-993.0180552313631
 21
1569.728021901835
 31
0.0
 12
-996.0180552313632
 22
1570.228021901835
 32
0.0
 13
-996.0180552313632
 23
1570.228021901835
 33
0.0
  0
MTEXT
  5
17144
330
170C1
100
AcDbEntity
  8
SUNPOU
 62
     1
100
AcDbMText
 10
-990.0180552313631
 20
1572.978021901835
 30
0.0
 40
3.5
 41
0.0
 71
     5
 72
     1
  1
\A1;12
1001
ACAD
1000
MTEXTBEGIN
1070
    73
1070
     1
1070
    44
1040
1.0
1070
    74
1070
     0
1000
MTEXTEND
1000
MTEXTBEGIN
1070
    73
1070
     1
1070
    44
1040
1.0
1070
    74
1070
     0
1000
MTEXTEND
  0
POINT
  5
17145
330
170C1
100
AcDbEntity
  8
DEFPOINTS
 62
     0
100
AcDbPoint
 10
-984.0180552313631
 20
1585.073527651524
 30
0.0
  0
POINT
  5
17146
330
170C1
100
AcDbEntity
  8
DEFPOINTS
 62
     0
100
AcDbPoint
 10
-996.0180552313632
 20
1581.073527651525
 30
0.0
  0
POINT
  5
17147
330
170C1
100
AcDbEntity
  8
DEFPOINTS
 62
     0
100
AcDbPoint
 10
-996.0180552313632
 20
1570.228021901835
 30
0.0
  0
ENDBLK
  5
170CC
330
170C1
100
AcDbEntity
  8
0
100
AcDbBlockEnd
  0
BLOCK
  5
170D8
330
170CE
100
AcDbEntity
  8
0
100
AcDbBlockBegin
  2
*D9
 70
     1
 10
0.0
 20
0.0
 30
0.0
  3
*D9
  1

  0
LINE
  5
17148
330
170CE
100
AcDbEntity
  8
SUNPOU
 62
     1
100
AcDbLine
 10
-984.0180552313631
 20
1584.573527651524
 30
0.0
 11
-984.0180552313631
 21
1560.184259764402
 31
0.0
  0
LINE
  5
17149
330
170CE
100
AcDbEntity
  8
SUNPOU
 62
     1
100
AcDbLine
 10
-1008.018055231363
 20
1579.073527651524
 30
0.0
 11
-1008.018055231363
 21
1560.184259764402
 31
0.0
  0
LINE
  5
1714A
330
170CE
100
AcDbEntity
  8
SUNPOU
 62
     1
100
AcDbLine
 10
-987.0180552313632
 20
1560.684259764402
 30
0.0
 11
-1005.018055231363
 21
1560.684259764402
 31
0.0
  0
SOLID
  5
1714B
330
170CE
100
AcDbEntity
  8
SUNPOU
 62
     1
100
AcDbTrace
 10
-987.0180552313632
 20
1561.184259764402
 30
0.0
 11
-987.0180552313632
 21
1560.184259764402
 31
0.0
 12
-984.0180552313631
 22
1560.684259764402
 32
0.0
 13
-984.0180552313631
 23
1560.684259764402
 33
0.0
  0
SOLID
  5
1714C
330
170CE
100
AcDbEntity
  8
SUNPOU
 62
     1
100
AcDbTrace
 10
-1005.018055231363
 20
1561.184259764402
 30
0.0
 11
-1005.018055231363
 21
1560.184259764402
 31
0.0
 12
-1008.018055231363
 22
1560.684259764402
 32
0.0
 13
-1008.018055231363
 23
1560.684259764402
 33
0.0
  0
MTEXT
  5
1714D
330
170CE
100
AcDbEntity
  8
SUNPOU
 62
     1
100
AcDbMText
 10
-996.0180552313632
 20
1563.434259764402
 30
0.0
 40
3.5
 41
0.0
 71
     5
 72
     1
  1
\A1;24
1001
ACAD
1000
MTEXTBEGIN
1070
    73
1070
     1
1070
    44
1040
1.0
1070
    74
1070
     0
1000
MTEXTEND
1000
MTEXTBEGIN
1070
    73
1070
     1
1070
    44
1040
1.0
1070
    74
1070
     0
1000
MTEXTEND
  0
POINT
  5
1714E
330
170CE
100
AcDbEntity
  8
DEFPOINTS
 62
     0
100
AcDbPoint
 10
-984.0180552313631
 20
1585.073527651524
 30
0.0
  0
POINT
  5
1714F
330
170CE
100
AcDbEntity
  8
DEFPOINTS
 62
     0
100
AcDbPoint
 10
-1008.018055231363
 20
1579.573527651524
 30
0.0
  0
POINT
  5
17150
330
170CE
100
AcDbEntity
  8
DEFPOINTS
 62
     0
100
AcDbPoint
 10
-1008.018055231363
 20
1560.684259764402
 30
0.0
  0
ENDBLK
  5
170D9
330
170CE
100
AcDbEntity
  8
0
100
AcDbBlockEnd
  0
ENDSEC
  0
SECTION
  2
ENTITIES
  0
MTEXT
  5
5084
330
1A
100
AcDbEntity
  8
0
100
AcDbMText
 10
1985.239088685435
 20
-948.5420423450428
 30
0.0
 40
8.0
 41
0.0
 71
     7
 72
     5
  1

1001
ACAD
1000
MTEXTBEGIN
1070
    73
1070
     1
1070
    44
1040
1.0
1070
    74
1070
     0
1000
MTEXTEND
1000
MTEXTBEGIN
1070
    73
1070
     1
1070
    44
1040
1.0
1070
    74
1070
     0
1000
MTEXTEND
  0
MTEXT
  5
5085
330
1A
100
AcDbEntity
  8
0
100
AcDbMText
 10
4270.596778580329
 20
22.24825240601649
 30
0.0
 40
8.0
 41
0.0
 71
     7
 72
     5
  1

1001
ACAD
1000
MTEXTBEGIN
1070
    73
1070
     1
1070
    44
1040
1.0
1070
    74
1070
     0
1000
MTEXTEND
1000
MTEXTBEGIN
1070
    73
1070
     1
1070
    44
1040
1.0
1070
    74
1070
     0
1000
MTEXTEND
  0
MTEXT
  5
5343
330
1A
100
AcDbEntity
  8
SUNPOU
100
AcDbMText
 10
6936.493799262471
 20
9534.359644781135
 30
0.0
 40
10.5
 41
0.0
 71
     1
 72
     5
  1

1001
ACAD
1000
MTEXTBEGIN
1070
    73
1070
     1
1070
    44
1040
1.0
1070
    74
1070
     0
1000
MTEXTEND
1000
MTEXTBEGIN
1070
    73
1070
     1
1070
    44
1040
1.0
1070
    74
1070
     0
1000
MTEXTEND
  0
MTEXT
  5
544F
330
1A
100
AcDbEntity
  8
0
100
AcDbMText
 10
16317.2832773148
 20
12833.35428897674
 30
0.0
 40
8.0
 41
0.0
 71
     7
 72
     5
  1

1001
ACAD
1000
MTEXTBEGIN
1070
    73
1070
     1
1070
    44
1040
1.0
1070
    74
1070
     0
1000
MTEXTEND
1000
MTEXTBEGIN
1070
    73
1070
     1
1070
    44
1040
1.0
1070
    74
1070
     0
1000
MTEXTEND
  0
MTEXT
  5
5450
330
1A
100
AcDbEntity
  8
0
100
AcDbMText
 10
18602.64096720969
 20
13804.1445837278
 30
0.0
 40
8.0
 41
0.0
 71
     7
 72
     5
  1

1001
ACAD
1000
MTEXTBEGIN
1070
    73
1070
     1
1070
    44
1040
1.0
1070
    74
1070
     0
1000
MTEXTEND
1000
MTEXTBEGIN
1070
    73
1070
     1
1070
    44
1040
1.0
1070
    74
1070
     0
1000
MTEXTEND
  0
MTEXT
  5
5451
330
1A
100
AcDbEntity
  8
SUNPOU
100
AcDbMText
 10
21268.53798789184
 20
23316.25597610292
 30
0.0
 40
10.5
 41
0.0
 71
     1
 72
     5
  1

1001
ACAD
1000
MTEXTBEGIN
1070
    73
1070
     1
1070
    44
1040
1.0
1070
    74
1070
     0
1000
MTEXTEND
1000
MTEXTBEGIN
1070
    73
1070
     1
1070
    44
1040
1.0
1070
    74
1070
     0
1000
MTEXTEND
  0
MTEXT
  5
5452
330
1A
100
AcDbEntity
  8
SUNPOU
100
AcDbMText
 10
13337.6147919559
 20
22369.46284218996
 30
0.0
 40
10.5
 41
0.0
 71
     7
 72
     5
  1

1001
ACAD
1000
MTEXTBEGIN
1070
    73
1070
     1
1070
    44
1040
1.0
1070
    74
1070
     0
1000
MTEXTEND
1000
MTEXTBEGIN
1070
    73
1070
     1
1070
    44
1040
1.0
1070
    74
1070
     0
1000
MTEXTEND
  0
MTEXT
  5
5453
330
1A
100
AcDbEntity
  8
SUNPOU
100
AcDbMText
 10
16286.59845646867
 20
27270.13891403281
 30
0.0
 40
10.5
 41
0.0
 71
     7
 72
     5
  1

1001
ACAD
1000
MTEXTBEGIN
1070
    73
1070
     1
1070
    44
1040
1.0
1070
    74
1070
     0
1000
MTEXTEND
1000
MTEXTBEGIN
1070
    73
1070
     1
1070
    44
1040
1.0
1070
    74
1070
     0
1000
MTEXTEND
  0
MTEXT
  5
5454
330
1A
100
AcDbEntity
  8
SUNPOU
100
AcDbMText
 10
20795.67658441924
 20
29706.43966165288
 30
0.0
 40
10.5
 41
0.0
 71
     7
 72
     5
  1

1001
ACAD
1000
MTEXTBEGIN
1070
    73
1070
     1
1070
    44
1040
1.0
1070
    74
1070
     0
1000
MTEXTEND
1000
MTEXTBEGIN
1070
    73
1070
     1
1070
    44
1040
1.0
1070
    74
1070
     0
1000
MTEXTEND
  0
MTEXT
  5
5455
330
1A
100
AcDbEntity
  8
0
100
AcDbMText
 10
16611.93789220314
 20
14707.52144344448
 30
0.0
 40
8.0
 41
0.0
 71
     7
 72
     5
  1

1001
ACAD
1000
MTEXTBEGIN
1070
    73
1070
     1
1070
    44
1040
1.0
1070
    74
1070
     0
1000
MTEXTEND
1000
MTEXTBEGIN
1070
    73
1070
     1
1070
    44
1040
1.0
1070
    74
1070
     0
1000
MTEXTEND
  0
MTEXT
  5
5456
330
1A
100
AcDbEntity
  8
0
100
AcDbMText
 10
18897.29558209804
 20
15678.31173819554
 30
0.0
 40
8.0
 41
0.0
 71
     7
 72
     5
  1

1001
ACAD
1000
MTEXTBEGIN
1070
    73
1070
     1
1070
    44
1040
1.0
1070
    74
1070
     0
1000
MTEXTEND
1000
MTEXTBEGIN
1070
    73
1070
     1
1070
    44
1040
1.0
1070
    74
1070
     0
1000
MTEXTEND
  0
MTEXT
  5
5457
330
1A
100
AcDbEntity
  8
SUNPOU
100
AcDbMText
 10
21563.19260278019
 20
25190.42313057066
 30
0.0
 40
10.5
 41
0.0
 71
     1
 72
     5
  1

1001
ACAD
1000
MTEXTBEGIN
1070
    73
1070
     1
1070
    44
1040
1.0
1070
    74
1070
     0
1000
MTEXTEND
1000
MTEXTBEGIN
1070
    73
1070
     1
1070
    44
1040
1.0
1070
    74
1070
     0
1000
MTEXTEND
  0
MTEXT
  5
5458
330
1A
100
AcDbEntity
  8
SUNPOU
100
AcDbMText
 10
13632.26940684426
 20
24243.6299966577
 30
0.0
 40
10.5
 41
0.0
 71
     7
 72
     5
  1

1001
ACAD
1000
MTEXTBEGIN
1070
    73
1070
     1
1070
    44
1040
1.0
1070
    74
1070
     0
1000
MTEXTEND
1000
MTEXTBEGIN
1070
    73
1070
     1
1070
    44
1040
1.0
1070
    74
1070
     0
1000
MTEXTEND
  0
MTEXT
  5
5459
330
1A
100
AcDbEntity
  8
SUNPOU
100
AcDbMText
 10
16581.25307135702
 20
29144.30606850055
 30
0.0
 40
10.5
 41
0.0
 71
     7
 72
     5
  1

1001
ACAD
1000
MTEXTBEGIN
1070
    73
1070
     1
1070
    44
1040
1.0
1070
    74
1070
     0
1000
MTEXTEND
1000
MTEXTBEGIN
1070
    73
1070
     1
1070
    44
1040
1.0
1070
    74
1070
     0
1000
MTEXTEND
  0
MTEXT
  5
545A
330
1A
100
AcDbEntity
  8
SUNPOU
100
AcDbMText
 10
21090.33119930759
 20
31580.60681612062
 30
0.0
 40
10.5
 41
0.0
 71
     7
 72
     5
  1

1001
ACAD
1000
MTEXTBEGIN
1070
    73
1070
     1
1070
    44
1040
1.0
1070
    74
1070
     0
1000
MTEXTEND
1000
MTEXTBEGIN
1070
    73
1070
     1
1070
    44
1040
1.0
1070
    74
1070
     0
1000
MTEXTEND
  0
MTEXT
  5
545B
330
1A
100
AcDbEntity
  8
0
100
AcDbMText
 10
22871.60517627167
 20
23974.88367124799
 30
0.0
 40
8.0
 41
0.0
 71
     7
 72
     5
  1

1001
ACAD
1000
MTEXTBEGIN
1070
    73
1070
     1
1070
    44
1040
1.0
1070
    74
1070
     0
1000
MTEXTEND
1000
MTEXTBEGIN
1070
    73
1070
     1
1070
    44
1040
1.0
1070
    74
1070
     0
1000
MTEXTEND
  0
MTEXT
  5
545C
330
1A
100
AcDbEntity
  8
0
100
AcDbMText
 10
25156.96286616657
 20
24945.67396599906
 30
0.0
 40
8.0
 41
0.0
 71
     7
 72
     5
  1

1001
ACAD
1000
MTEXTBEGIN
1070
    73
1070
     1
1070
    44
1040
1.0
1070
    74
1070
     0
1000
MTEXTEND
1000
MTEXTBEGIN
1070
    73
1070
     1
1070
    44
1040
1.0
1070
    74
1070
     0
1000
MTEXTEND
  0
MTEXT
  5
545D
330
1A
100
AcDbEntity
  8
SUNPOU
100
AcDbMText
 10
27822.85988684871
 20
34457.78535837418
 30
0.0
 40
10.5
 41
0.0
 71
     1
 72
     5
  1

1001
ACAD
1000
MTEXTBEGIN
1070
    73
1070
     1
1070
    44
1040
1.0
1070
    74
1070
     0
1000
MTEXTEND
1000
MTEXTBEGIN
1070
    73
1070
     1
1070
    44
1040
1.0
1070
    74
1070
     0
1000
MTEXTEND
  0
MTEXT
  5
545E
330
1A
100
AcDbEntity
  8
SUNPOU
100
AcDbMText
 10
19891.93669091278
 20
33510.99222446122
 30
0.0
 40
10.5
 41
0.0
 71
     7
 72
     5
  1

1001
ACAD
1000
MTEXTBEGIN
1070
    73
1070
     1
1070
    44
1040
1.0
1070
    74
1070
     0
1000
MTEXTEND
1000
MTEXTBEGIN
1070
    73
1070
     1
1070
    44
1040
1.0
1070
    74
1070
     0
1000
MTEXTEND
  0
MTEXT
  5
545F
330
1A
100
AcDbEntity
  8
SUNPOU
100
AcDbMText
 10
22840.92035542555
 20
38411.66829630407
 30
0.0
 40
10.5
 41
0.0
 71
     7
 72
     5
  1

1001
ACAD
1000
MTEXTBEGIN
1070
    73
1070
     1
1070
    44
1040
1.0
1070
    74
1070
     0
1000
MTEXTEND
1000
MTEXTBEGIN
1070
    73
1070
     1
1070
    44
1040
1.0
1070
    74
1070
     0
1000
MTEXTEND
  0
MTEXT
  5
5460
330
1A
100
AcDbEntity
  8
SUNPOU
100
AcDbMText
 10
27349.99848337611
 20
40847.96904392415
 30
0.0
 40
10.5
 41
0.0
 71
     7
 72
     5
  1

1001
ACAD
1000
MTEXTBEGIN
1070
    73
1070
     1
1070
    44
1040
1.0
1070
    74
1070
     0
1000
MTEXTEND
1000
MTEXTBEGIN
1070
    73
1070
     1
1070
    44
1040
1.0
1070
    74
1070
     0
1000
MTEXTEND
  0
MTEXT
  5
55B7
330
1A
100
AcDbEntity
  8
SUNPOU
100
AcDbMText
 10
67424.23923338197
 20
64463.86602884816
 30
0.0
 40
10.5
 41
0.0
 71
     9
 72
     5
  1

1001
ACAD
1000
MTEXTBEGIN
1070
    73
1070
     1
1070
    44
1040
1.0
1070
    74
1070
     0
1000
MTEXTEND
1000
MTEXTBEGIN
1070
    73
1070
     1
1070
    44
1040
1.0
1070
    74
1070
     0
1000
MTEXTEND
  0
MTEXT
  5
55B8
330
1A
100
AcDbEntity
  8
SUNPOU
100
AcDbMText
 10
76146.40679929998
 20
71879.70056038563
 30
0.0
 40
10.5
 41
0.0
 71
     9
 72
     5
  1

1001
ACAD
1000
MTEXTBEGIN
1070
    73
1070
     1
1070
    44
1040
1.0
1070
    74
1070
     0
1000
MTEXTEND
1000
MTEXTBEGIN
1070
    73
1070
     1
1070
    44
1040
1.0
1070
    74
1070
     0
1000
MTEXTEND
  0
MTEXT
  5
55B9
330
1A
100
AcDbEntity
  8
SUNPOU
100
AcDbMText
 10
95100.16551662994
 20
89346.27661287766
 30
0.0
 40
10.5
 41
0.0
 71
     9
 72
     5
  1

1001
ACAD
1000
MTEXTBEGIN
1070
    73
1070
     1
1070
    44
1040
1.0
1070
    74
1070
     0
1000
MTEXTEND
1000
MTEXTBEGIN
1070
    73
1070
     1
1070
    44
1040
1.0
1070
    74
1070
     0
1000
MTEXTEND
  0
MTEXT
  5
55BA
330
1A
100
AcDbEntity
  8
SUNPOU
100
AcDbMText
 10
97043.57276333936
 20
87545.22753299966
 30
0.0
 40
3.5
 41
0.0
 71
     9
 72
     5
  1

1001
ACAD
1000
MTEXTBEGIN
1070
    73
1070
     1
1070
    44
1040
1.0
1070
    74
1070
     0
1000
MTEXTEND
1000
MTEXTBEGIN
1070
    73
1070
     1
1070
    44
1040
1.0
1070
    74
1070
     0
1000
MTEXTEND
  0
MTEXT
  5
55BB
330
1A
100
AcDbEntity
  8
SUNPOU
100
AcDbMText
 10
128169.752595959
 20
130040.1732006569
 30
0.0
 40
10.5
 41
0.0
 71
     9
 72
     5
  1

1001
ACAD
1000
MTEXTBEGIN
1070
    73
1070
     1
1070
    44
1040
1.0
1070
    74
1070
     0
1000
MTEXTEND
1000
MTEXTBEGIN
1070
    73
1070
     1
1070
    44
1040
1.0
1070
    74
1070
     0
1000
MTEXTEND
  0
MTEXT
  5
55BC
330
1A
100
AcDbEntity
  8
SUNPOU
100
AcDbMText
 10
130113.1598426684
 20
128239.1241207789
 30
0.0
 40
3.5
 41
0.0
 71
     9
 72
     5
  1

1001
ACAD
1000
MTEXTBEGIN
1070
    73
1070
     1
1070
    44
1040
1.0
1070
    74
1070
     0
1000
MTEXTEND
1000
MTEXTBEGIN
1070
    73
1070
     1
1070
    44
1040
1.0
1070
    74
1070
     0
1000
MTEXTEND
  0
MTEXT
  5
55BD
330
1A
100
AcDbEntity
  8
SUNPOU
100
AcDbMText
 10
78610.02030175463
 20
75873.33835563206
 30
0.0
 40
10.5
 41
0.0
 71
     9
 72
     5
  1

1001
ACAD
1000
MTEXTBEGIN
1070
    73
1070
     1
1070
    44
1040
1.0
1070
    74
1070
     0
1000
MTEXTEND
1000
MTEXTBEGIN
1070
    73
1070
     1
1070
    44
1040
1.0
1070
    74
1070
     0
1000
MTEXTEND
  0
MTEXT
  5
55BE
330
1A
100
AcDbEntity
  8
SUNPOU
100
AcDbMText
 10
64662.02020137863
 20
56700.93921651987
 30
0.0
 40
3.5
 41
0.0
 71
     7
 72
     5
  1

1001
ACAD
1000
MTEXTBEGIN
1070
    73
1070
     1
1070
    44
1040
1.0
1070
    74
1070
     0
1000
MTEXTEND
1000
MTEXTBEGIN
1070
    73
1070
     1
1070
    44
1040
1.0
1070
    74
1070
     0
1000
MTEXTEND
  0
MTEXT
  5
55BF
330
1A
100
AcDbEntity
  8
SUNPOU
100
AcDbMText
 10
45647.18959837178
 20
44463.08794733807
 30
0.0
 40
10.5
 41
0.0
 71
     7
 72
     5
  1

1001
ACAD
1000
MTEXTBEGIN
1070
    73
1070
     1
1070
    44
1040
1.0
1070
    74
1070
     0
1000
MTEXTEND
1000
MTEXTBEGIN
1070
    73
1070
     1
1070
    44
1040
1.0
1070
    74
1070
     0
1000
MTEXTEND
  0
MTEXT
  5
55C0
330
1A
100
AcDbEntity
  8
SUNPOU
100
AcDbMText
 10
33189.96133342368
 20
28618.15636923965
 30
0.0
 40
35.0
 41
0.0
 71
     9
 72
     5
  1

1001
ACAD
1000
MTEXTBEGIN
1070
    73
1070
     1
1070
    44
1040
1.0
1070
    74
1070
     0
1000
MTEXTEND
1000
MTEXTBEGIN
1070
    73
1070
     1
1070
    44
1040
1.0
1070
    74
1070
     0
1000
MTEXTEND
  0
MTEXT
  5
55C1
330
1A
100
AcDbEntity
  8
SUNPOU
100
AcDbMText
 10
32098.44639099864
 20
29226.93177928835
 30
0.0
 40
350.0000004171781
 41
0.0
 71
     7
 72
     5
  1

1001
ACAD
1000
MTEXTBEGIN
1070
    73
1070
     1
1070
    44
1040
1.0
1070
    74
1070
     0
1000
MTEXTEND
1000
MTEXTBEGIN
1070
    73
1070
     1
1070
    44
1040
1.0
1070
    74
1070
     0
1000
MTEXTEND
  0
MTEXT
  5
55C2
330
1A
100
AcDbEntity
  8
0
100
AcDbMText
 10
38142.39714894154
 20
27206.85414142458
 30
0.0
 40
8.0
 41
0.0
 71
     7
 72
     5
  1

1001
ACAD
1000
MTEXTBEGIN
1070
    73
1070
     1
1070
    44
1040
1.0
1070
    74
1070
     0
1000
MTEXTEND
1000
MTEXTBEGIN
1070
    73
1070
     1
1070
    44
1040
1.0
1070
    74
1070
     0
1000
MTEXTEND
  0
MTEXT
  5
55C3
330
1A
100
AcDbEntity
  8
0
100
AcDbMText
 10
40427.75483883644
 20
28177.64443617564
 30
0.0
 40
8.0
 41
0.0
 71
     7
 72
     5
  1

1001
ACAD
1000
MTEXTBEGIN
1070
    73
1070
     1
1070
    44
1040
1.0
1070
    74
1070
     0
1000
MTEXTEND
1000
MTEXTBEGIN
1070
    73
1070
     1
1070
    44
1040
1.0
1070
    74
1070
     0
1000
MTEXTEND
  0
MTEXT
  5
55C4
330
1A
100
AcDbEntity
  8
SUNPOU
100
AcDbMText
 10
43093.65185951858
 20
37689.75582855077
 30
0.0
 40
10.5
 41
0.0
 71
     1
 72
     5
  1

1001
ACAD
1000
MTEXTBEGIN
1070
    73
1070
     1
1070
    44
1040
1.0
1070
    74
1070
     0
1000
MTEXTEND
1000
MTEXTBEGIN
1070
    73
1070
     1
1070
    44
1040
1.0
1070
    74
1070
     0
1000
MTEXTEND
  0
MTEXT
  5
55C5
330
1A
100
AcDbEntity
  8
SUNPOU
100
AcDbMText
 10
35162.72866358265
 20
36742.96269463781
 30
0.0
 40
10.5
 41
0.0
 71
     7
 72
     5
  1

1001
ACAD
1000
MTEXTBEGIN
1070
    73
1070
     1
1070
    44
1040
1.0
1070
    74
1070
     0
1000
MTEXTEND
1000
MTEXTBEGIN
1070
    73
1070
     1
1070
    44
1040
1.0
1070
    74
1070
     0
1000
MTEXTEND
  0
MTEXT
  5
55C6
330
1A
100
AcDbEntity
  8
SUNPOU
100
AcDbMText
 10
38111.71232809542
 20
41643.63876648066
 30
0.0
 40
10.5
 41
0.0
 71
     7
 72
     5
  1

1001
ACAD
1000
MTEXTBEGIN
1070
    73
1070
     1
1070
    44
1040
1.0
1070
    74
1070
     0
1000
MTEXTEND
1000
MTEXTBEGIN
1070
    73
1070
     1
1070
    44
1040
1.0
1070
    74
1070
     0
1000
MTEXTEND
  0
MTEXT
  5
55C7
330
1A
100
AcDbEntity
  8
SUNPOU
100
AcDbMText
 10
42620.79045604597
 20
44079.93951410074
 30
0.0
 40
10.5
 41
0.0
 71
     7
 72
     5
  1

1001
ACAD
1000
MTEXTBEGIN
1070
    73
1070
     1
1070
    44
1040
1.0
1070
    74
1070
     0
1000
MTEXTEND
1000
MTEXTBEGIN
1070
    73
1070
     1
1070
    44
1040
1.0
1070
    74
1070
     0
1000
MTEXTEND
  0
MTEXT
  5
55C8
330
1A
100
AcDbEntity
  8
SUNPOU
100
AcDbMText
 10
26221.62834281429
 20
23077.53566448964
 30
0.0
 40
10.5
 41
0.0
 71
     7
 72
     5
  1

1001
ACAD
1000
MTEXTBEGIN
1070
    73
1070
     1
1070
    44
1040
1.0
1070
    74
1070
     0
1000
MTEXTEND
1000
MTEXTBEGIN
1070
    73
1070
     1
1070
    44
1040
1.0
1070
    74
1070
     0
1000
MTEXTEND
  0
MTEXT
  5
55C9
330
1A
100
AcDbEntity
  8
SUNPOU
100
AcDbMText
 10
77413.14677671455
 20
68750.51622813789
 30
0.0
 40
10.5
 41
0.0
 71
     9
 72
     5
  1

1001
ACAD
1000
MTEXTBEGIN
1070
    73
1070
     1
1070
    44
1040
1.0
1070
    74
1070
     0
1000
MTEXTEND
1000
MTEXTBEGIN
1070
    73
1070
     1
1070
    44
1040
1.0
1070
    74
1070
     0
1000
MTEXTEND
  0
MTEXT
  5
55CA
330
1A
100
AcDbEntity
  8
SUNPOU
100
AcDbMText
 10
86135.31434263256
 20
76166.35075967536
 30
0.0
 40
10.5
 41
0.0
 71
     9
 72
     5
  1

1001
ACAD
1000
MTEXTBEGIN
1070
    73
1070
     1
1070
    44
1040
1.0
1070
    74
1070
     0
1000
MTEXTEND
1000
MTEXTBEGIN
1070
    73
1070
     1
1070
    44
1040
1.0
1070
    74
1070
     0
1000
MTEXTEND
  0
MTEXT
  5
55CB
330
1A
100
AcDbEntity
  8
SUNPOU
100
AcDbMText
 10
105089.0730599625
 20
93632.92681216739
 30
0.0
 40
10.5
 41
0.0
 71
     9
 72
     5
  1

1001
ACAD
1000
MTEXTBEGIN
1070
    73
1070
     1
1070
    44
1040
1.0
1070
    74
1070
     0
1000
MTEXTEND
1000
MTEXTBEGIN
1070
    73
1070
     1
1070
    44
1040
1.0
1070
    74
1070
     0
1000
MTEXTEND
  0
MTEXT
  5
55CC
330
1A
100
AcDbEntity
  8
SUNPOU
100
AcDbMText
 10
107032.4803066719
 20
91831.8777322894
 30
0.0
 40
3.5
 41
0.0
 71
     9
 72
     5
  1

1001
ACAD
1000
MTEXTBEGIN
1070
    73
1070
     1
1070
    44
1040
1.0
1070
    74
1070
     0
1000
MTEXTEND
1000
MTEXTBEGIN
1070
    73
1070
     1
1070
    44
1040
1.0
1070
    74
1070
     0
1000
MTEXTEND
  0
MTEXT
  5
55CD
330
1A
100
AcDbEntity
  8
SUNPOU
100
AcDbMText
 10
138158.6601392916
 20
134326.8233999467
 30
0.0
 40
10.5
 41
0.0
 71
     9
 72
     5
  1

1001
ACAD
1000
MTEXTBEGIN
1070
    73
1070
     1
1070
    44
1040
1.0
1070
    74
1070
     0
1000
MTEXTEND
1000
MTEXTBEGIN
1070
    73
1070
     1
1070
    44
1040
1.0
1070
    74
1070
     0
1000
MTEXTEND
  0
MTEXT
  5
55CE
330
1A
100
AcDbEntity
  8
SUNPOU
100
AcDbMText
 10
140102.067386001
 20
132525.7743200686
 30
0.0
 40
3.5
 41
0.0
 71
     9
 72
     5
  1

1001
ACAD
1000
MTEXTBEGIN
1070
    73
1070
     1
1070
    44
1040
1.0
1070
    74
1070
     0
1000
MTEXTEND
1000
MTEXTBEGIN
1070
    73
1070
     1
1070
    44
1040
1.0
1070
    74
1070
     0
1000
MTEXTEND
  0
MTEXT
  5
55CF
330
1A
100
AcDbEntity
  8
SUNPOU
100
AcDbMText
 10
88598.92784508721
 20
80159.98855492179
 30
0.0
 40
10.5
 41
0.0
 71
     9
 72
     5
  1

1001
ACAD
1000
MTEXTBEGIN
1070
    73
1070
     1
1070
    44
1040
1.0
1070
    74
1070
     0
1000
MTEXTEND
1000
MTEXTBEGIN
1070
    73
1070
     1
1070
    44
1040
1.0
1070
    74
1070
     0
1000
MTEXTEND
  0
MTEXT
  5
55D0
330
1A
100
AcDbEntity
  8
SUNPOU
100
AcDbMText
 10
74650.92774471121
 20
60987.5894158096
 30
0.0
 40
3.5
 41
0.0
 71
     7
 72
     5
  1

1001
ACAD
1000
MTEXTBEGIN
1070
    73
1070
     1
1070
    44
1040
1.0
1070
    74
1070
     0
1000
MTEXTEND
1000
MTEXTBEGIN
1070
    73
1070
     1
1070
    44
1040
1.0
1070
    74
1070
     0
1000
MTEXTEND
  0
MTEXT
  5
55D1
330
1A
100
AcDbEntity
  8
SUNPOU
100
AcDbMText
 10
55636.09714170436
 20
48749.73814662781
 30
0.0
 40
10.5
 41
0.0
 71
     7
 72
     5
  1

1001
ACAD
1000
MTEXTBEGIN
1070
    73
1070
     1
1070
    44
1040
1.0
1070
    74
1070
     0
1000
MTEXTEND
1000
MTEXTBEGIN
1070
    73
1070
     1
1070
    44
1040
1.0
1070
    74
1070
     0
1000
MTEXTEND
  0
MTEXT
  5
55D2
330
1A
100
AcDbEntity
  8
SUNPOU
100
AcDbMText
 10
43178.86887675626
 20
32904.80656852938
 30
0.0
 40
35.0
 41
0.0
 71
     9
 72
     5
  1

1001
ACAD
1000
MTEXTBEGIN
1070
    73
1070
     1
1070
    44
1040
1.0
1070
    74
1070
     0
1000
MTEXTEND
1000
MTEXTBEGIN
1070
    73
1070
     1
1070
    44
1040
1.0
1070
    74
1070
     0
1000
MTEXTEND
  0
MTEXT
  5
55D3
330
1A
100
AcDbEntity
  8
SUNPOU
100
AcDbMText
 10
42087.35393433121
 20
33513.58197857809
 30
0.0
 40
350.0000004171781
 41
0.0
 71
     7
 72
     5
  1

1001
ACAD
1000
MTEXTBEGIN
1070
    73
1070
     1
1070
    44
1040
1.0
1070
    74
1070
     0
1000
MTEXTEND
1000
MTEXTBEGIN
1070
    73
1070
     1
1070
    44
1040
1.0
1070
    74
1070
     0
1000
MTEXTEND
  0
MTEXT
  5
55D4
330
1A
100
AcDbEntity
  8
0
100
AcDbMText
 10
48131.30469227412
 20
31493.50434071431
 30
0.0
 40
8.0
 41
0.0
 71
     7
 72
     5
  1

1001
ACAD
1000
MTEXTBEGIN
1070
    73
1070
     1
1070
    44
1040
1.0
1070
    74
1070
     0
1000
MTEXTEND
1000
MTEXTBEGIN
1070
    73
1070
     1
1070
    44
1040
1.0
1070
    74
1070
     0
1000
MTEXTEND
  0
MTEXT
  5
55D5
330
1A
100
AcDbEntity
  8
0
100
AcDbMText
 10
50416.66238216901
 20
32464.29463546537
 30
0.0
 40
8.0
 41
0.0
 71
     7
 72
     5
  1

1001
ACAD
1000
MTEXTBEGIN
1070
    73
1070
     1
1070
    44
1040
1.0
1070
    74
1070
     0
1000
MTEXTEND
1000
MTEXTBEGIN
1070
    73
1070
     1
1070
    44
1040
1.0
1070
    74
1070
     0
1000
MTEXTEND
  0
MTEXT
  5
55D6
330
1A
100
AcDbEntity
  8
SUNPOU
100
AcDbMText
 10
53082.55940285115
 20
41976.4060278405
 30
0.0
 40
10.5
 41
0.0
 71
     1
 72
     5
  1

1001
ACAD
1000
MTEXTBEGIN
1070
    73
1070
     1
1070
    44
1040
1.0
1070
    74
1070
     0
1000
MTEXTEND
1000
MTEXTBEGIN
1070
    73
1070
     1
1070
    44
1040
1.0
1070
    74
1070
     0
1000
MTEXTEND
  0
MTEXT
  5
55D7
330
1A
100
AcDbEntity
  8
SUNPOU
100
AcDbMText
 10
45151.63620691522
 20
41029.61289392755
 30
0.0
 40
10.5
 41
0.0
 71
     7
 72
     5
  1

1001
ACAD
1000
MTEXTBEGIN
1070
    73
1070
     1
1070
    44
1040
1.0
1070
    74
1070
     0
1000
MTEXTEND
1000
MTEXTBEGIN
1070
    73
1070
     1
1070
    44
1040
1.0
1070
    74
1070
     0
1000
MTEXTEND
  0
MTEXT
  5
55D8
330
1A
100
AcDbEntity
  8
SUNPOU
100
AcDbMText
 10
48100.61987142798
 20
45930.28896577039
 30
0.0
 40
10.5
 41
0.0
 71
     7
 72
     5
  1

1001
ACAD
1000
MTEXTBEGIN
1070
    73
1070
     1
1070
    44
1040
1.0
1070
    74
1070
     0
1000
MTEXTEND
1000
MTEXTBEGIN
1070
    73
1070
     1
1070
    44
1040
1.0
1070
    74
1070
     0
1000
MTEXTEND
  0
MTEXT
  5
55D9
330
1A
100
AcDbEntity
  8
SUNPOU
100
AcDbMText
 10
52609.69799937854
 20
48366.58971339046
 30
0.0
 40
10.5
 41
0.0
 71
     7
 72
     5
  1

1001
ACAD
1000
MTEXTBEGIN
1070
    73
1070
     1
1070
    44
1040
1.0
1070
    74
1070
     0
1000
MTEXTEND
1000
MTEXTBEGIN
1070
    73
1070
     1
1070
    44
1040
1.0
1070
    74
1070
     0
1000
MTEXTEND
  0
MTEXT
  5
55DA
330
1A
100
AcDbEntity
  8
SUNPOU
100
AcDbMText
 10
36210.53588614687
 20
27364.18586377937
 30
0.0
 40
10.5
 41
0.0
 71
     7
 72
     5
  1

1001
ACAD
1000
MTEXTBEGIN
1070
    73
1070
     1
1070
    44
1040
1.0
1070
    74
1070
     0
1000
MTEXTEND
1000
MTEXTBEGIN
1070
    73
1070
     1
1070
    44
1040
1.0
1070
    74
1070
     0
1000
MTEXTEND
  0
MTEXT
  5
55DB
330
1A
100
AcDbEntity
  8
SUNPOU
100
AcDbMText
 10
38021.29879752181
 20
33691.59985125794
 30
0.0
 40
10.5
 41
0.0
 71
     9
 72
     5
  1

1001
ACAD
1000
MTEXTBEGIN
1070
    73
1070
     1
1070
    44
1040
1.0
1070
    74
1070
     0
1000
MTEXTEND
1000
MTEXTBEGIN
1070
    73
1070
     1
1070
    44
1040
1.0
1070
    74
1070
     0
1000
MTEXTEND
  0
MTEXT
  5
55DC
330
1A
100
AcDbEntity
  8
SUNPOU
100
AcDbMText
 10
46743.46636343979
 20
41107.43438279541
 30
0.0
 40
10.5
 41
0.0
 71
     9
 72
     5
  1

1001
ACAD
1000
MTEXTBEGIN
1070
    73
1070
     1
1070
    44
1040
1.0
1070
    74
1070
     0
1000
MTEXTEND
1000
MTEXTBEGIN
1070
    73
1070
     1
1070
    44
1040
1.0
1070
    74
1070
     0
1000
MTEXTEND
  0
MTEXT
  5
55DD
330
1A
100
AcDbEntity
  8
SUNPOU
100
AcDbMText
 10
65697.22508076975
 20
58574.01043528746
 30
0.0
 40
10.5
 41
0.0
 71
     9
 72
     5
  1

1001
ACAD
1000
MTEXTBEGIN
1070
    73
1070
     1
1070
    44
1040
1.0
1070
    74
1070
     0
1000
MTEXTEND
1000
MTEXTBEGIN
1070
    73
1070
     1
1070
    44
1040
1.0
1070
    74
1070
     0
1000
MTEXTEND
  0
MTEXT
  5
55DE
330
1A
100
AcDbEntity
  8
SUNPOU
100
AcDbMText
 10
67640.63232747917
 20
56772.96135540945
 30
0.0
 40
3.5
 41
0.0
 71
     9
 72
     5
  1

1001
ACAD
1000
MTEXTBEGIN
1070
    73
1070
     1
1070
    44
1040
1.0
1070
    74
1070
     0
1000
MTEXTEND
1000
MTEXTBEGIN
1070
    73
1070
     1
1070
    44
1040
1.0
1070
    74
1070
     0
1000
MTEXTEND
  0
MTEXT
  5
55DF
330
1A
100
AcDbEntity
  8
SUNPOU
100
AcDbMText
 10
98766.81216009888
 20
99267.9070230668
 30
0.0
 40
10.5
 41
0.0
 71
     9
 72
     5
  1

1001
ACAD
1000
MTEXTBEGIN
1070
    73
1070
     1
1070
    44
1040
1.0
1070
    74
1070
     0
1000
MTEXTEND
1000
MTEXTBEGIN
1070
    73
1070
     1
1070
    44
1040
1.0
1070
    74
1070
     0
1000
MTEXTEND
  0
MTEXT
  5
55E0
330
1A
100
AcDbEntity
  8
SUNPOU
100
AcDbMText
 10
100710.2194068083
 20
97466.85794318878
 30
0.0
 40
3.5
 41
0.0
 71
     9
 72
     5
  1

1001
ACAD
1000
MTEXTBEGIN
1070
    73
1070
     1
1070
    44
1040
1.0
1070
    74
1070
     0
1000
MTEXTEND
1000
MTEXTBEGIN
1070
    73
1070
     1
1070
    44
1040
1.0
1070
    74
1070
     0
1000
MTEXTEND
  0
MTEXT
  5
55E1
330
1A
100
AcDbEntity
  8
SUNPOU
100
AcDbMText
 10
49207.07986589444
 20
45101.07217804185
 30
0.0
 40
10.5
 41
0.0
 71
     9
 72
     5
  1

1001
ACAD
1000
MTEXTBEGIN
1070
    73
1070
     1
1070
    44
1040
1.0
1070
    74
1070
     0
1000
MTEXTEND
1000
MTEXTBEGIN
1070
    73
1070
     1
1070
    44
1040
1.0
1070
    74
1070
     0
1000
MTEXTEND
  0
MTEXT
  5
55E2
330
1A
100
AcDbEntity
  8
SUNPOU
100
AcDbMText
 10
35259.07976551845
 20
25928.67303892964
 30
0.0
 40
3.5
 41
0.0
 71
     7
 72
     5
  1

1001
ACAD
1000
MTEXTBEGIN
1070
    73
1070
     1
1070
    44
1040
1.0
1070
    74
1070
     0
1000
MTEXTEND
1000
MTEXTBEGIN
1070
    73
1070
     1
1070
    44
1040
1.0
1070
    74
1070
     0
1000
MTEXTEND
  0
MTEXT
  5
55E3
330
1A
100
AcDbEntity
  8
SUNPOU
100
AcDbMText
 10
48951.43044828905
 20
35287.73625995099
 30
0.0
 40
10.5
 41
0.0
 71
     9
 72
     5
  1

1001
ACAD
1000
MTEXTBEGIN
1070
    73
1070
     1
1070
    44
1040
1.0
1070
    74
1070
     0
1000
MTEXTEND
1000
MTEXTBEGIN
1070
    73
1070
     1
1070
    44
1040
1.0
1070
    74
1070
     0
1000
MTEXTEND
  0
MTEXT
  5
55E4
330
1A
100
AcDbEntity
  8
SUNPOU
100
AcDbMText
 10
57673.59801420702
 20
42703.57079148847
 30
0.0
 40
10.5
 41
0.0
 71
     9
 72
     5
  1

1001
ACAD
1000
MTEXTBEGIN
1070
    73
1070
     1
1070
    44
1040
1.0
1070
    74
1070
     0
1000
MTEXTEND
1000
MTEXTBEGIN
1070
    73
1070
     1
1070
    44
1040
1.0
1070
    74
1070
     0
1000
MTEXTEND
  0
MTEXT
  5
55E5
330
1A
100
AcDbEntity
  8
SUNPOU
100
AcDbMText
 10
76627.35673153699
 20
60170.14684398051
 30
0.0
 40
10.5
 41
0.0
 71
     9
 72
     5
  1

1001
ACAD
1000
MTEXTBEGIN
1070
    73
1070
     1
1070
    44
1040
1.0
1070
    74
1070
     0
1000
MTEXTEND
1000
MTEXTBEGIN
1070
    73
1070
     1
1070
    44
1040
1.0
1070
    74
1070
     0
1000
MTEXTEND
  0
MTEXT
  5
55E6
330
1A
100
AcDbEntity
  8
SUNPOU
100
AcDbMText
 10
78570.76397824641
 20
58369.09776410251
 30
0.0
 40
3.5
 41
0.0
 71
     9
 72
     5
  1

1001
ACAD
1000
MTEXTBEGIN
1070
    73
1070
     1
1070
    44
1040
1.0
1070
    74
1070
     0
1000
MTEXTEND
1000
MTEXTBEGIN
1070
    73
1070
     1
1070
    44
1040
1.0
1070
    74
1070
     0
1000
MTEXTEND
  0
MTEXT
  5
55E7
330
1A
100
AcDbEntity
  8
SUNPOU
100
AcDbMText
 10
109696.9438108661
 20
100864.0434317598
 30
0.0
 40
10.5
 41
0.0
 71
     9
 72
     5
  1

1001
ACAD
1000
MTEXTBEGIN
1070
    73
1070
     1
1070
    44
1040
1.0
1070
    74
1070
     0
1000
MTEXTEND
1000
MTEXTBEGIN
1070
    73
1070
     1
1070
    44
1040
1.0
1070
    74
1070
     0
1000
MTEXTEND
  0
MTEXT
  5
55E8
330
1A
100
AcDbEntity
  8
SUNPOU
100
AcDbMText
 10
111640.3510575755
 20
99062.99435188183
 30
0.0
 40
3.5
 41
0.0
 71
     9
 72
     5
  1

1001
ACAD
1000
MTEXTBEGIN
1070
    73
1070
     1
1070
    44
1040
1.0
1070
    74
1070
     0
1000
MTEXTEND
1000
MTEXTBEGIN
1070
    73
1070
     1
1070
    44
1040
1.0
1070
    74
1070
     0
1000
MTEXTEND
  0
MTEXT
  5
55E9
330
1A
100
AcDbEntity
  8
SUNPOU
100
AcDbMText
 10
60137.21151666167
 20
46697.20858673491
 30
0.0
 40
10.5
 41
0.0
 71
     9
 72
     5
  1

1001
ACAD
1000
MTEXTBEGIN
1070
    73
1070
     1
1070
    44
1040
1.0
1070
    74
1070
     0
1000
MTEXTEND
1000
MTEXTBEGIN
1070
    73
1070
     1
1070
    44
1040
1.0
1070
    74
1070
     0
1000
MTEXTEND
  0
MTEXT
  5
55EA
330
1A
100
AcDbEntity
  8
SUNPOU
100
AcDbMText
 10
46189.21141628568
 20
27524.80944762269
 30
0.0
 40
3.5
 41
0.0
 71
     7
 72
     5
  1

1001
ACAD
1000
MTEXTBEGIN
1070
    73
1070
     1
1070
    44
1040
1.0
1070
    74
1070
     0
1000
MTEXTEND
1000
MTEXTBEGIN
1070
    73
1070
     1
1070
    44
1040
1.0
1070
    74
1070
     0
1000
MTEXTEND
  0
MTEXT
  5
55EB
330
1A
100
AcDbEntity
  8
SUNPOU
100
AcDbMText
 10
45007.68847015541
 20
38269.57947701874
 30
0.0
 40
10.5
 41
0.0
 71
     9
 72
     5
  1

1001
ACAD
1000
MTEXTBEGIN
1070
    73
1070
     1
1070
    44
1040
1.0
1070
    74
1070
     0
1000
MTEXTEND
1000
MTEXTBEGIN
1070
    73
1070
     1
1070
    44
1040
1.0
1070
    74
1070
     0
1000
MTEXTEND
  0
MTEXT
  5
55EC
330
1A
100
AcDbEntity
  8
SUNPOU
100
AcDbMText
 10
63961.44718748539
 20
55736.15552951081
 30
0.0
 40
10.5
 41
0.0
 71
     9
 72
     5
  1

1001
ACAD
1000
MTEXTBEGIN
1070
    73
1070
     1
1070
    44
1040
1.0
1070
    74
1070
     0
1000
MTEXTEND
1000
MTEXTBEGIN
1070
    73
1070
     1
1070
    44
1040
1.0
1070
    74
1070
     0
1000
MTEXTEND
  0
MTEXT
  5
55ED
330
1A
100
AcDbEntity
  8
SUNPOU
100
AcDbMText
 10
65904.85443419479
 20
53935.10644963279
 30
0.0
 40
3.5
 41
0.0
 71
     9
 72
     5
  1

1001
ACAD
1000
MTEXTBEGIN
1070
    73
1070
     1
1070
    44
1040
1.0
1070
    74
1070
     0
1000
MTEXTEND
1000
MTEXTBEGIN
1070
    73
1070
     1
1070
    44
1040
1.0
1070
    74
1070
     0
1000
MTEXTEND
  0
MTEXT
  5
55EE
330
1A
100
AcDbEntity
  8
SUNPOU
100
AcDbMText
 10
97031.03426681451
 20
96430.05211729015
 30
0.0
 40
10.5
 41
0.0
 71
     9
 72
     5
  1

1001
ACAD
1000
MTEXTBEGIN
1070
    73
1070
     1
1070
    44
1040
1.0
1070
    74
1070
     0
1000
MTEXTEND
1000
MTEXTBEGIN
1070
    73
1070
     1
1070
    44
1040
1.0
1070
    74
1070
     0
1000
MTEXTEND
  0
MTEXT
  5
55EF
330
1A
100
AcDbEntity
  8
SUNPOU
100
AcDbMText
 10
98974.44151352393
 20
94629.00303741212
 30
0.0
 40
3.5
 41
0.0
 71
     9
 72
     5
  1

1001
ACAD
1000
MTEXTBEGIN
1070
    73
1070
     1
1070
    44
1040
1.0
1070
    74
1070
     0
1000
MTEXTEND
1000
MTEXTBEGIN
1070
    73
1070
     1
1070
    44
1040
1.0
1070
    74
1070
     0
1000
MTEXTEND
  0
MTEXT
  5
55F0
330
1A
100
AcDbEntity
  8
SUNPOU
100
AcDbMText
 10
47471.30197261006
 20
42263.21727226519
 30
0.0
 40
10.5
 41
0.0
 71
     9
 72
     5
  1

1001
ACAD
1000
MTEXTBEGIN
1070
    73
1070
     1
1070
    44
1040
1.0
1070
    74
1070
     0
1000
MTEXTEND
1000
MTEXTBEGIN
1070
    73
1070
     1
1070
    44
1040
1.0
1070
    74
1070
     0
1000
MTEXTEND
  0
MTEXT
  5
55F1
330
1A
100
AcDbEntity
  8
SUNPOU
100
AcDbMText
 10
33523.30187223408
 20
23090.81813315298
 30
0.0
 40
3.5
 41
0.0
 71
     7
 72
     5
  1

1001
ACAD
1000
MTEXTBEGIN
1070
    73
1070
     1
1070
    44
1040
1.0
1070
    74
1070
     0
1000
MTEXTEND
1000
MTEXTBEGIN
1070
    73
1070
     1
1070
    44
1040
1.0
1070
    74
1070
     0
1000
MTEXTEND
  0
MTEXT
  5
55F2
330
1A
100
AcDbEntity
  8
SUNPOU
100
AcDbMText
 10
57959.46254102503
 20
50038.08111611015
 30
0.0
 40
10.5
 41
0.0
 71
     9
 72
     5
  1

1001
ACAD
1000
MTEXTBEGIN
1070
    73
1070
     1
1070
    44
1040
1.0
1070
    74
1070
     0
1000
MTEXTEND
1000
MTEXTBEGIN
1070
    73
1070
     1
1070
    44
1040
1.0
1070
    74
1070
     0
1000
MTEXTEND
  0
MTEXT
  5
55F3
330
1A
100
AcDbEntity
  8
SUNPOU
100
AcDbMText
 10
76913.22125835503
 20
67504.65716860222
 30
0.0
 40
10.5
 41
0.0
 71
     9
 72
     5
  1

1001
ACAD
1000
MTEXTBEGIN
1070
    73
1070
     1
1070
    44
1040
1.0
1070
    74
1070
     0
1000
MTEXTEND
1000
MTEXTBEGIN
1070
    73
1070
     1
1070
    44
1040
1.0
1070
    74
1070
     0
1000
MTEXTEND
  0
MTEXT
  5
55F4
330
1A
100
AcDbEntity
  8
SUNPOU
100
AcDbMText
 10
78856.62850506443
 20
65703.6080887242
 30
0.0
 40
3.5
 41
0.0
 71
     9
 72
     5
  1

1001
ACAD
1000
MTEXTBEGIN
1070
    73
1070
     1
1070
    44
1040
1.0
1070
    74
1070
     0
1000
MTEXTEND
1000
MTEXTBEGIN
1070
    73
1070
     1
1070
    44
1040
1.0
1070
    74
1070
     0
1000
MTEXTEND
  0
MTEXT
  5
55F5
330
1A
100
AcDbEntity
  8
SUNPOU
100
AcDbMText
 10
109982.8083376841
 20
108198.5537563815
 30
0.0
 40
10.5
 41
0.0
 71
     9
 72
     5
  1

1001
ACAD
1000
MTEXTBEGIN
1070
    73
1070
     1
1070
    44
1040
1.0
1070
    74
1070
     0
1000
MTEXTEND
1000
MTEXTBEGIN
1070
    73
1070
     1
1070
    44
1040
1.0
1070
    74
1070
     0
1000
MTEXTEND
  0
MTEXT
  5
55F6
330
1A
100
AcDbEntity
  8
SUNPOU
100
AcDbMText
 10
111926.2155843935
 20
106397.5046765035
 30
0.0
 40
3.5
 41
0.0
 71
     9
 72
     5
  1

1001
ACAD
1000
MTEXTBEGIN
1070
    73
1070
     1
1070
    44
1040
1.0
1070
    74
1070
     0
1000
MTEXTEND
1000
MTEXTBEGIN
1070
    73
1070
     1
1070
    44
1040
1.0
1070
    74
1070
     0
1000
MTEXTEND
  0
MTEXT
  5
55F7
330
1A
100
AcDbEntity
  8
SUNPOU
100
AcDbMText
 10
60423.07604347968
 20
54031.71891135659
 30
0.0
 40
10.5
 41
0.0
 71
     9
 72
     5
  1

1001
ACAD
1000
MTEXTBEGIN
1070
    73
1070
     1
1070
    44
1040
1.0
1070
    74
1070
     0
1000
MTEXTEND
1000
MTEXTBEGIN
1070
    73
1070
     1
1070
    44
1040
1.0
1070
    74
1070
     0
1000
MTEXTEND
  0
MTEXT
  5
55F8
330
1A
100
AcDbEntity
  8
SUNPOU
100
AcDbMText
 10
46475.07594310369
 20
34859.3197722444
 30
0.0
 40
3.5
 41
0.0
 71
     7
 72
     5
  1

1001
ACAD
1000
MTEXTBEGIN
1070
    73
1070
     1
1070
    44
1040
1.0
1070
    74
1070
     0
1000
MTEXTEND
1000
MTEXTBEGIN
1070
    73
1070
     1
1070
    44
1040
1.0
1070
    74
1070
     0
1000
MTEXTEND
  0
MTEXT
  5
55F9
330
1A
100
AcDbEntity
  8
SUNPOU
100
AcDbMText
 10
74027.35402123588
 20
68370.58278833383
 30
0.0
 40
10.5
 41
0.0
 71
     9
 72
     5
  1

1001
ACAD
1000
MTEXTBEGIN
1070
    73
1070
     1
1070
    44
1040
1.0
1070
    74
1070
     0
1000
MTEXTEND
1000
MTEXTBEGIN
1070
    73
1070
     1
1070
    44
1040
1.0
1070
    74
1070
     0
1000
MTEXTEND
  0
MTEXT
  5
55FA
330
1A
100
AcDbEntity
  8
SUNPOU
100
AcDbMText
 10
75970.7612679453
 20
66569.53370845583
 30
0.0
 40
3.5
 41
0.0
 71
     9
 72
     5
  1

1001
ACAD
1000
MTEXTBEGIN
1070
    73
1070
     1
1070
    44
1040
1.0
1070
    74
1070
     0
1000
MTEXTEND
1000
MTEXTBEGIN
1070
    73
1070
     1
1070
    44
1040
1.0
1070
    74
1070
     0
1000
MTEXTEND
  0
MTEXT
  5
55FB
330
1A
100
AcDbEntity
  8
SUNPOU
100
AcDbMText
 10
107096.941100565
 20
109064.4793761132
 30
0.0
 40
10.5
 41
0.0
 71
     9
 72
     5
  1

1001
ACAD
1000
MTEXTBEGIN
1070
    73
1070
     1
1070
    44
1040
1.0
1070
    74
1070
     0
1000
MTEXTEND
1000
MTEXTBEGIN
1070
    73
1070
     1
1070
    44
1040
1.0
1070
    74
1070
     0
1000
MTEXTEND
  0
MTEXT
  5
55FC
330
1A
100
AcDbEntity
  8
SUNPOU
100
AcDbMText
 10
109040.3483472744
 20
107263.4302962351
 30
0.0
 40
3.5
 41
0.0
 71
     9
 72
     5
  1

1001
ACAD
1000
MTEXTBEGIN
1070
    73
1070
     1
1070
    44
1040
1.0
1070
    74
1070
     0
1000
MTEXTEND
1000
MTEXTBEGIN
1070
    73
1070
     1
1070
    44
1040
1.0
1070
    74
1070
     0
1000
MTEXTEND
  0
MTEXT
  5
55FD
330
1A
100
AcDbEntity
  8
SUNPOU
100
AcDbMText
 10
105709.1709283621
 20
108141.3777665285
 30
0.0
 40
10.5
 41
0.0
 71
     9
 72
     5
  1

1001
ACAD
1000
MTEXTBEGIN
1070
    73
1070
     1
1070
    44
1040
1.0
1070
    74
1070
     0
1000
MTEXTEND
1000
MTEXTBEGIN
1070
    73
1070
     1
1070
    44
1040
1.0
1070
    74
1070
     0
1000
MTEXTEND
  0
MTEXT
  5
55FE
330
1A
100
AcDbEntity
  8
SUNPOU
100
AcDbMText
 10
107652.5781750715
 20
106340.3286866505
 30
0.0
 40
3.5
 41
0.0
 71
     9
 72
     5
  1

1001
ACAD
1000
MTEXTBEGIN
1070
    73
1070
     1
1070
    44
1040
1.0
1070
    74
1070
     0
1000
MTEXTEND
1000
MTEXTBEGIN
1070
    73
1070
     1
1070
    44
1040
1.0
1070
    74
1070
     0
1000
MTEXTEND
  0
MTEXT
  5
55FF
330
1A
100
AcDbEntity
  8
SUNPOU
100
AcDbMText
 10
73193.09268743351
 20
66158.78082845056
 30
0.0
 40
10.5
 41
0.0
 71
     9
 72
     5
  1

1001
ACAD
1000
MTEXTBEGIN
1070
    73
1070
     1
1070
    44
1040
1.0
1070
    74
1070
     0
1000
MTEXTEND
1000
MTEXTBEGIN
1070
    73
1070
     1
1070
    44
1040
1.0
1070
    74
1070
     0
1000
MTEXTEND
  0
MTEXT
  5
5600
330
1A
100
AcDbEntity
  8
SUNPOU
100
AcDbMText
 10
75916.39889159806
 20
66563.46252003162
 30
0.0
 40
3.5
 41
0.0
 71
     9
 72
     5
  1

1001
ACAD
1000
MTEXTBEGIN
1070
    73
1070
     1
1070
    44
1040
1.0
1070
    74
1070
     0
1000
MTEXTEND
1000
MTEXTBEGIN
1070
    73
1070
     1
1070
    44
1040
1.0
1070
    74
1070
     0
1000
MTEXTEND
  0
MTEXT
  5
5601
330
1A
100
AcDbEntity
  8
SUNPOU
100
AcDbMText
 10
75124.04436649058
 20
63402.1566819768
 30
0.0
 40
10.5
 41
0.0
 71
     9
 72
     5
  1

1001
ACAD
1000
MTEXTBEGIN
1070
    73
1070
     1
1070
    44
1040
1.0
1070
    74
1070
     0
1000
MTEXTEND
1000
MTEXTBEGIN
1070
    73
1070
     1
1070
    44
1040
1.0
1070
    74
1070
     0
1000
MTEXTEND
  0
MTEXT
  5
5602
330
1A
100
AcDbEntity
  8
SUNPOU
100
AcDbMText
 10
77067.4516132
 20
61601.1076020988
 30
0.0
 40
3.5
 41
0.0
 71
     9
 72
     5
  1

1001
ACAD
1000
MTEXTBEGIN
1070
    73
1070
     1
1070
    44
1040
1.0
1070
    74
1070
     0
1000
MTEXTEND
1000
MTEXTBEGIN
1070
    73
1070
     1
1070
    44
1040
1.0
1070
    74
1070
     0
1000
MTEXTEND
  0
MTEXT
  5
5603
330
1A
100
AcDbEntity
  8
SUNPOU
100
AcDbMText
 10
77012.54710378659
 20
61488.33571981449
 30
0.0
 40
3.5
 41
0.0
 71
     9
 72
     5
  1

1001
ACAD
1000
MTEXTBEGIN
1070
    73
1070
     1
1070
    44
1040
1.0
1070
    74
1070
     0
1000
MTEXTEND
1000
MTEXTBEGIN
1070
    73
1070
     1
1070
    44
1040
1.0
1070
    74
1070
     0
1000
MTEXTEND
  0
MTEXT
  5
5604
330
1A
100
AcDbEntity
  8
SUNPOU
100
AcDbMText
 10
76376.61896736668
 20
60677.01447874797
 30
0.0
 40
3.5
 41
0.0
 71
     9
 72
     5
  1

1001
ACAD
1000
MTEXTBEGIN
1070
    73
1070
     1
1070
    44
1040
1.0
1070
    74
1070
     0
1000
MTEXTEND
1000
MTEXTBEGIN
1070
    73
1070
     1
1070
    44
1040
1.0
1070
    74
1070
     0
1000
MTEXTEND
  0
MTEXT
  5
5605
330
1A
100
AcDbEntity
  8
SUNPOU
100
AcDbMText
 10
76375.37854794595
 20
60676.76650181047
 30
0.0
 40
10.5
 41
0.0
 71
     9
 72
     5
  1

1001
ACAD
1000
MTEXTBEGIN
1070
    73
1070
     1
1070
    44
1040
1.0
1070
    74
1070
     0
1000
MTEXTEND
1000
MTEXTBEGIN
1070
    73
1070
     1
1070
    44
1040
1.0
1070
    74
1070
     0
1000
MTEXTEND
  0
MTEXT
  5
5606
330
1A
100
AcDbEntity
  8
SUNPOU
100
AcDbMText
 10
84709.93991079748
 20
78034.0328293557
 30
0.0
 40
10.5
 41
0.0
 71
     9
 72
     5
  1

1001
ACAD
1000
MTEXTBEGIN
1070
    73
1070
     1
1070
    44
1040
1.0
1070
    74
1070
     0
1000
MTEXTEND
1000
MTEXTBEGIN
1070
    73
1070
     1
1070
    44
1040
1.0
1070
    74
1070
     0
1000
MTEXTEND
  0
MTEXT
  5
5607
330
1A
100
AcDbEntity
  8
SUNPOU
100
AcDbMText
 10
93432.10747671548
 20
85449.86736089315
 30
0.0
 40
10.5
 41
0.0
 71
     9
 72
     5
  1

1001
ACAD
1000
MTEXTBEGIN
1070
    73
1070
     1
1070
    44
1040
1.0
1070
    74
1070
     0
1000
MTEXTEND
1000
MTEXTBEGIN
1070
    73
1070
     1
1070
    44
1040
1.0
1070
    74
1070
     0
1000
MTEXTEND
  0
MTEXT
  5
5608
330
1A
100
AcDbEntity
  8
SUNPOU
100
AcDbMText
 10
112385.8661940454
 20
102916.4434133851
 30
0.0
 40
10.5
 41
0.0
 71
     9
 72
     5
  1

1001
ACAD
1000
MTEXTBEGIN
1070
    73
1070
     1
1070
    44
1040
1.0
1070
    74
1070
     0
1000
MTEXTEND
1000
MTEXTBEGIN
1070
    73
1070
     1
1070
    44
1040
1.0
1070
    74
1070
     0
1000
MTEXTEND
  0
MTEXT
  5
5609
330
1A
100
AcDbEntity
  8
SUNPOU
100
AcDbMText
 10
114329.2734407548
 20
101115.3943335072
 30
0.0
 40
3.5
 41
0.0
 71
     9
 72
     5
  1

1001
ACAD
1000
MTEXTBEGIN
1070
    73
1070
     1
1070
    44
1040
1.0
1070
    74
1070
     0
1000
MTEXTEND
1000
MTEXTBEGIN
1070
    73
1070
     1
1070
    44
1040
1.0
1070
    74
1070
     0
1000
MTEXTEND
  0
MTEXT
  5
560A
330
1A
100
AcDbEntity
  8
SUNPOU
100
AcDbMText
 10
145455.4532733745
 20
143610.3400011645
 30
0.0
 40
10.5
 41
0.0
 71
     9
 72
     5
  1

1001
ACAD
1000
MTEXTBEGIN
1070
    73
1070
     1
1070
    44
1040
1.0
1070
    74
1070
     0
1000
MTEXTEND
1000
MTEXTBEGIN
1070
    73
1070
     1
1070
    44
1040
1.0
1070
    74
1070
     0
1000
MTEXTEND
  0
MTEXT
  5
560B
330
1A
100
AcDbEntity
  8
SUNPOU
100
AcDbMText
 10
147398.8605200839
 20
141809.2909212864
 30
0.0
 40
3.5
 41
0.0
 71
     9
 72
     5
  1

1001
ACAD
1000
MTEXTBEGIN
1070
    73
1070
     1
1070
    44
1040
1.0
1070
    74
1070
     0
1000
MTEXTEND
1000
MTEXTBEGIN
1070
    73
1070
     1
1070
    44
1040
1.0
1070
    74
1070
     0
1000
MTEXTEND
  0
MTEXT
  5
560C
330
1A
100
AcDbEntity
  8
SUNPOU
100
AcDbMText
 10
95895.72097917013
 20
89443.5051561396
 30
0.0
 40
10.5
 41
0.0
 71
     9
 72
     5
  1

1001
ACAD
1000
MTEXTBEGIN
1070
    73
1070
     1
1070
    44
1040
1.0
1070
    74
1070
     0
1000
MTEXTEND
1000
MTEXTBEGIN
1070
    73
1070
     1
1070
    44
1040
1.0
1070
    74
1070
     0
1000
MTEXTEND
  0
MTEXT
  5
560D
330
1A
100
AcDbEntity
  8
SUNPOU
100
AcDbMText
 10
81947.72087879414
 20
70271.1060170274
 30
0.0
 40
3.5
 41
0.0
 71
     7
 72
     5
  1

1001
ACAD
1000
MTEXTBEGIN
1070
    73
1070
     1
1070
    44
1040
1.0
1070
    74
1070
     0
1000
MTEXTEND
1000
MTEXTBEGIN
1070
    73
1070
     1
1070
    44
1040
1.0
1070
    74
1070
     0
1000
MTEXTEND
  0
MTEXT
  5
560E
330
1A
100
AcDbEntity
  8
SUNPOU
100
AcDbMText
 10
62932.89027578729
 20
58033.25474784561
 30
0.0
 40
10.5
 41
0.0
 71
     7
 72
     5
  1

1001
ACAD
1000
MTEXTBEGIN
1070
    73
1070
     1
1070
    44
1040
1.0
1070
    74
1070
     0
1000
MTEXTEND
1000
MTEXTBEGIN
1070
    73
1070
     1
1070
    44
1040
1.0
1070
    74
1070
     0
1000
MTEXTEND
  0
MTEXT
  5
560F
330
1A
100
AcDbEntity
  8
SUNPOU
100
AcDbMText
 10
50475.66201083918
 20
42188.32316974719
 30
0.0
 40
35.0
 41
0.0
 71
     9
 72
     5
  1

1001
ACAD
1000
MTEXTBEGIN
1070
    73
1070
     1
1070
    44
1040
1.0
1070
    74
1070
     0
1000
MTEXTEND
1000
MTEXTBEGIN
1070
    73
1070
     1
1070
    44
1040
1.0
1070
    74
1070
     0
1000
MTEXTEND
  0
MTEXT
  5
5610
330
1A
100
AcDbEntity
  8
SUNPOU
100
AcDbMText
 10
49384.14706841413
 20
42797.0985797959
 30
0.0
 40
350.0000004171781
 41
0.0
 71
     7
 72
     5
  1

1001
ACAD
1000
MTEXTBEGIN
1070
    73
1070
     1
1070
    44
1040
1.0
1070
    74
1070
     0
1000
MTEXTEND
1000
MTEXTBEGIN
1070
    73
1070
     1
1070
    44
1040
1.0
1070
    74
1070
     0
1000
MTEXTEND
  0
MTEXT
  5
5611
330
1A
100
AcDbEntity
  8
0
100
AcDbMText
 10
55428.09782635704
 20
40777.02094193211
 30
0.0
 40
8.0
 41
0.0
 71
     7
 72
     5
  1

1001
ACAD
1000
MTEXTBEGIN
1070
    73
1070
     1
1070
    44
1040
1.0
1070
    74
1070
     0
1000
MTEXTEND
1000
MTEXTBEGIN
1070
    73
1070
     1
1070
    44
1040
1.0
1070
    74
1070
     0
1000
MTEXTEND
  0
MTEXT
  5
5612
330
1A
100
AcDbEntity
  8
0
100
AcDbMText
 10
57713.45551625194
 20
41747.81123668317
 30
0.0
 40
8.0
 41
0.0
 71
     7
 72
     5
  1

1001
ACAD
1000
MTEXTBEGIN
1070
    73
1070
     1
1070
    44
1040
1.0
1070
    74
1070
     0
1000
MTEXTEND
1000
MTEXTBEGIN
1070
    73
1070
     1
1070
    44
1040
1.0
1070
    74
1070
     0
1000
MTEXTEND
  0
MTEXT
  5
5613
330
1A
100
AcDbEntity
  8
SUNPOU
100
AcDbMText
 10
60379.35253693408
 20
51259.9226290583
 30
0.0
 40
10.5
 41
0.0
 71
     1
 72
     5
  1

1001
ACAD
1000
MTEXTBEGIN
1070
    73
1070
     1
1070
    44
1040
1.0
1070
    74
1070
     0
1000
MTEXTEND
1000
MTEXTBEGIN
1070
    73
1070
     1
1070
    44
1040
1.0
1070
    74
1070
     0
1000
MTEXTEND
  0
MTEXT
  5
5614
330
1A
100
AcDbEntity
  8
SUNPOU
100
AcDbMText
 10
52448.42934099814
 20
50313.12949514535
 30
0.0
 40
10.5
 41
0.0
 71
     7
 72
     5
  1

1001
ACAD
1000
MTEXTBEGIN
1070
    73
1070
     1
1070
    44
1040
1.0
1070
    74
1070
     0
1000
MTEXTEND
1000
MTEXTBEGIN
1070
    73
1070
     1
1070
    44
1040
1.0
1070
    74
1070
     0
1000
MTEXTEND
  0
MTEXT
  5
5615
330
1A
100
AcDbEntity
  8
SUNPOU
100
AcDbMText
 10
55397.41300551091
 20
55213.80556698819
 30
0.0
 40
10.5
 41
0.0
 71
     7
 72
     5
  1

1001
ACAD
1000
MTEXTBEGIN
1070
    73
1070
     1
1070
    44
1040
1.0
1070
    74
1070
     0
1000
MTEXTEND
1000
MTEXTBEGIN
1070
    73
1070
     1
1070
    44
1040
1.0
1070
    74
1070
     0
1000
MTEXTEND
  0
MTEXT
  5
5616
330
1A
100
AcDbEntity
  8
SUNPOU
100
AcDbMText
 10
59906.49113346147
 20
57650.10631460826
 30
0.0
 40
10.5
 41
0.0
 71
     7
 72
     5
  1

1001
ACAD
1000
MTEXTBEGIN
1070
    73
1070
     1
1070
    44
1040
1.0
1070
    74
1070
     0
1000
MTEXTEND
1000
MTEXTBEGIN
1070
    73
1070
     1
1070
    44
1040
1.0
1070
    74
1070
     0
1000
MTEXTEND
  0
MTEXT
  5
5617
330
1A
100
AcDbEntity
  8
SUNPOU
100
AcDbMText
 10
43507.32902022979
 20
36647.70246499718
 30
0.0
 40
10.5
 41
0.0
 71
     7
 72
     5
  1

1001
ACAD
1000
MTEXTBEGIN
1070
    73
1070
     1
1070
    44
1040
1.0
1070
    74
1070
     0
1000
MTEXTEND
1000
MTEXTBEGIN
1070
    73
1070
     1
1070
    44
1040
1.0
1070
    74
1070
     0
1000
MTEXTEND
  0
MTEXT
  5
5618
330
1A
100
AcDbEntity
  8
SUNPOU
100
AcDbMText
 10
94698.84745413006
 20
82320.68302864542
 30
0.0
 40
10.5
 41
0.0
 71
     9
 72
     5
  1

1001
ACAD
1000
MTEXTBEGIN
1070
    73
1070
     1
1070
    44
1040
1.0
1070
    74
1070
     0
1000
MTEXTEND
1000
MTEXTBEGIN
1070
    73
1070
     1
1070
    44
1040
1.0
1070
    74
1070
     0
1000
MTEXTEND
  0
MTEXT
  5
5619
330
1A
100
AcDbEntity
  8
SUNPOU
100
AcDbMText
 10
103421.015020048
 20
89736.5175601829
 30
0.0
 40
10.5
 41
0.0
 71
     9
 72
     5
  1

1001
ACAD
1000
MTEXTBEGIN
1070
    73
1070
     1
1070
    44
1040
1.0
1070
    74
1070
     0
1000
MTEXTEND
1000
MTEXTBEGIN
1070
    73
1070
     1
1070
    44
1040
1.0
1070
    74
1070
     0
1000
MTEXTEND
  0
MTEXT
  5
561A
330
1A
100
AcDbEntity
  8
SUNPOU
100
AcDbMText
 10
122374.773737378
 20
107203.0936126749
 30
0.0
 40
10.5
 41
0.0
 71
     9
 72
     5
  1

1001
ACAD
1000
MTEXTBEGIN
1070
    73
1070
     1
1070
    44
1040
1.0
1070
    74
1070
     0
1000
MTEXTEND
1000
MTEXTBEGIN
1070
    73
1070
     1
1070
    44
1040
1.0
1070
    74
1070
     0
1000
MTEXTEND
  0
MTEXT
  5
561B
330
1A
100
AcDbEntity
  8
SUNPOU
100
AcDbMText
 10
124318.1809840874
 20
105402.0445327969
 30
0.0
 40
3.5
 41
0.0
 71
     9
 72
     5
  1

1001
ACAD
1000
MTEXTBEGIN
1070
    73
1070
     1
1070
    44
1040
1.0
1070
    74
1070
     0
1000
MTEXTEND
1000
MTEXTBEGIN
1070
    73
1070
     1
1070
    44
1040
1.0
1070
    74
1070
     0
1000
MTEXTEND
  0
MTEXT
  5
561C
330
1A
100
AcDbEntity
  8
SUNPOU
100
AcDbMText
 10
155444.3608167071
 20
147896.9902004542
 30
0.0
 40
10.5
 41
0.0
 71
     9
 72
     5
  1

1001
ACAD
1000
MTEXTBEGIN
1070
    73
1070
     1
1070
    44
1040
1.0
1070
    74
1070
     0
1000
MTEXTEND
1000
MTEXTBEGIN
1070
    73
1070
     1
1070
    44
1040
1.0
1070
    74
1070
     0
1000
MTEXTEND
  0
MTEXT
  5
561D
330
1A
100
AcDbEntity
  8
SUNPOU
100
AcDbMText
 10
157387.7680634165
 20
146095.9411205762
 30
0.0
 40
3.5
 41
0.0
 71
     9
 72
     5
  1

1001
ACAD
1000
MTEXTBEGIN
1070
    73
1070
     1
1070
    44
1040
1.0
1070
    74
1070
     0
1000
MTEXTEND
1000
MTEXTBEGIN
1070
    73
1070
     1
1070
    44
1040
1.0
1070
    74
1070
     0
1000
MTEXTEND
  0
MTEXT
  5
561E
330
1A
100
AcDbEntity
  8
SUNPOU
100
AcDbMText
 10
105884.6285225027
 20
93730.15535542933
 30
0.0
 40
10.5
 41
0.0
 71
     9
 72
     5
  1

1001
ACAD
1000
MTEXTBEGIN
1070
    73
1070
     1
1070
    44
1040
1.0
1070
    74
1070
     0
1000
MTEXTEND
1000
MTEXTBEGIN
1070
    73
1070
     1
1070
    44
1040
1.0
1070
    74
1070
     0
1000
MTEXTEND
  0
MTEXT
  5
561F
330
1A
100
AcDbEntity
  8
SUNPOU
100
AcDbMText
 10
91936.6284221267
 20
74557.75621631714
 30
0.0
 40
3.5
 41
0.0
 71
     7
 72
     5
  1

1001
ACAD
1000
MTEXTBEGIN
1070
    73
1070
     1
1070
    44
1040
1.0
1070
    74
1070
     0
1000
MTEXTEND
1000
MTEXTBEGIN
1070
    73
1070
     1
1070
    44
1040
1.0
1070
    74
1070
     0
1000
MTEXTEND
  0
MTEXT
  5
5620
330
1A
100
AcDbEntity
  8
SUNPOU
100
AcDbMText
 10
72921.79781911986
 20
62319.90494713533
 30
0.0
 40
10.5
 41
0.0
 71
     7
 72
     5
  1

1001
ACAD
1000
MTEXTBEGIN
1070
    73
1070
     1
1070
    44
1040
1.0
1070
    74
1070
     0
1000
MTEXTEND
1000
MTEXTBEGIN
1070
    73
1070
     1
1070
    44
1040
1.0
1070
    74
1070
     0
1000
MTEXTEND
  0
MTEXT
  5
5621
330
1A
100
AcDbEntity
  8
SUNPOU
100
AcDbMText
 10
60464.56955417175
 20
46474.97336903692
 30
0.0
 40
35.0
 41
0.0
 71
     9
 72
     5
  1

1001
ACAD
1000
MTEXTBEGIN
1070
    73
1070
     1
1070
    44
1040
1.0
1070
    74
1070
     0
1000
MTEXTEND
1000
MTEXTBEGIN
1070
    73
1070
     1
1070
    44
1040
1.0
1070
    74
1070
     0
1000
MTEXTEND
  0
MTEXT
  5
5622
330
1A
100
AcDbEntity
  8
SUNPOU
100
AcDbMText
 10
59373.05461174672
 20
47083.74877908562
 30
0.0
 40
350.0000004171781
 41
0.0
 71
     7
 72
     5
  1

1001
ACAD
1000
MTEXTBEGIN
1070
    73
1070
     1
1070
    44
1040
1.0
1070
    74
1070
     0
1000
MTEXTEND
1000
MTEXTBEGIN
1070
    73
1070
     1
1070
    44
1040
1.0
1070
    74
1070
     0
1000
MTEXTEND
  0
MTEXT
  5
5623
330
1A
100
AcDbEntity
  8
0
100
AcDbMText
 10
65417.00536968962
 20
45063.67114122186
 30
0.0
 40
8.0
 41
0.0
 71
     7
 72
     5
  1

1001
ACAD
1000
MTEXTBEGIN
1070
    73
1070
     1
1070
    44
1040
1.0
1070
    74
1070
     0
1000
MTEXTEND
1000
MTEXTBEGIN
1070
    73
1070
     1
1070
    44
1040
1.0
1070
    74
1070
     0
1000
MTEXTEND
  0
MTEXT
  5
5624
330
1A
100
AcDbEntity
  8
0
100
AcDbMText
 10
67702.36305958452
 20
46034.46143597292
 30
0.0
 40
8.0
 41
0.0
 71
     7
 72
     5
  1

1001
ACAD
1000
MTEXTBEGIN
1070
    73
1070
     1
1070
    44
1040
1.0
1070
    74
1070
     0
1000
MTEXTEND
1000
MTEXTBEGIN
1070
    73
1070
     1
1070
    44
1040
1.0
1070
    74
1070
     0
1000
MTEXTEND
  0
MTEXT
  5
5625
330
1A
100
AcDbEntity
  8
SUNPOU
100
AcDbMText
 10
70368.26008026666
 20
55546.57282834803
 30
0.0
 40
10.5
 41
0.0
 71
     1
 72
     5
  1

1001
ACAD
1000
MTEXTBEGIN
1070
    73
1070
     1
1070
    44
1040
1.0
1070
    74
1070
     0
1000
MTEXTEND
1000
MTEXTBEGIN
1070
    73
1070
     1
1070
    44
1040
1.0
1070
    74
1070
     0
1000
MTEXTEND
  0
MTEXT
  5
5626
330
1A
100
AcDbEntity
  8
SUNPOU
100
AcDbMText
 10
62437.33688433072
 20
54599.77969443508
 30
0.0
 40
10.5
 41
0.0
 71
     7
 72
     5
  1

1001
ACAD
1000
MTEXTBEGIN
1070
    73
1070
     1
1070
    44
1040
1.0
1070
    74
1070
     0
1000
MTEXTEND
1000
MTEXTBEGIN
1070
    73
1070
     1
1070
    44
1040
1.0
1070
    74
1070
     0
1000
MTEXTEND
  0
MTEXT
  5
5627
330
1A
100
AcDbEntity
  8
SUNPOU
100
AcDbMText
 10
65386.32054884349
 20
59500.45576627792
 30
0.0
 40
10.5
 41
0.0
 71
     7
 72
     5
  1

1001
ACAD
1000
MTEXTBEGIN
1070
    73
1070
     1
1070
    44
1040
1.0
1070
    74
1070
     0
1000
MTEXTEND
1000
MTEXTBEGIN
1070
    73
1070
     1
1070
    44
1040
1.0
1070
    74
1070
     0
1000
MTEXTEND
  0
MTEXT
  5
5628
330
1A
100
AcDbEntity
  8
SUNPOU
100
AcDbMText
 10
69895.39867679405
 20
61936.756513898
 30
0.0
 40
10.5
 41
0.0
 71
     7
 72
     5
  1

1001
ACAD
1000
MTEXTBEGIN
1070
    73
1070
     1
1070
    44
1040
1.0
1070
    74
1070
     0
1000
MTEXTEND
1000
MTEXTBEGIN
1070
    73
1070
     1
1070
    44
1040
1.0
1070
    74
1070
     0
1000
MTEXTEND
  0
MTEXT
  5
5629
330
1A
100
AcDbEntity
  8
SUNPOU
100
AcDbMText
 10
53496.23656356237
 20
40934.35266428691
 30
0.0
 40
10.5
 41
0.0
 71
     7
 72
     5
  1

1001
ACAD
1000
MTEXTBEGIN
1070
    73
1070
     1
1070
    44
1040
1.0
1070
    74
1070
     0
1000
MTEXTEND
1000
MTEXTBEGIN
1070
    73
1070
     1
1070
    44
1040
1.0
1070
    74
1070
     0
1000
MTEXTEND
  0
MTEXT
  5
562A
330
1A
100
AcDbEntity
  8
SUNPOU
100
AcDbMText
 10
55306.99947493731
 20
47261.76665176547
 30
0.0
 40
10.5
 41
0.0
 71
     9
 72
     5
  1

1001
ACAD
1000
MTEXTBEGIN
1070
    73
1070
     1
1070
    44
1040
1.0
1070
    74
1070
     0
1000
MTEXTEND
1000
MTEXTBEGIN
1070
    73
1070
     1
1070
    44
1040
1.0
1070
    74
1070
     0
1000
MTEXTEND
  0
MTEXT
  5
562B
330
1A
100
AcDbEntity
  8
SUNPOU
100
AcDbMText
 10
64029.16704085528
 20
54677.60118330295
 30
0.0
 40
10.5
 41
0.0
 71
     9
 72
     5
  1

1001
ACAD
1000
MTEXTBEGIN
1070
    73
1070
     1
1070
    44
1040
1.0
1070
    74
1070
     0
1000
MTEXTEND
1000
MTEXTBEGIN
1070
    73
1070
     1
1070
    44
1040
1.0
1070
    74
1070
     0
1000
MTEXTEND
  0
MTEXT
  5
562C
330
1A
100
AcDbEntity
  8
SUNPOU
100
AcDbMText
 10
82982.92575818527
 20
72144.17723579499
 30
0.0
 40
10.5
 41
0.0
 71
     9
 72
     5
  1

1001
ACAD
1000
MTEXTBEGIN
1070
    73
1070
     1
1070
    44
1040
1.0
1070
    74
1070
     0
1000
MTEXTEND
1000
MTEXTBEGIN
1070
    73
1070
     1
1070
    44
1040
1.0
1070
    74
1070
     0
1000
MTEXTEND
  0
MTEXT
  5
562D
330
1A
100
AcDbEntity
  8
SUNPOU
100
AcDbMText
 10
84926.33300489467
 20
70343.12815591698
 30
0.0
 40
3.5
 41
0.0
 71
     9
 72
     5
  1

1001
ACAD
1000
MTEXTBEGIN
1070
    73
1070
     1
1070
    44
1040
1.0
1070
    74
1070
     0
1000
MTEXTEND
1000
MTEXTBEGIN
1070
    73
1070
     1
1070
    44
1040
1.0
1070
    74
1070
     0
1000
MTEXTEND
  0
MTEXT
  5
562E
330
1A
100
AcDbEntity
  8
SUNPOU
100
AcDbMText
 10
116052.5128375143
 20
112838.0738235743
 30
0.0
 40
10.5
 41
0.0
 71
     9
 72
     5
  1

1001
ACAD
1000
MTEXTBEGIN
1070
    73
1070
     1
1070
    44
1040
1.0
1070
    74
1070
     0
1000
MTEXTEND
1000
MTEXTBEGIN
1070
    73
1070
     1
1070
    44
1040
1.0
1070
    74
1070
     0
1000
MTEXTEND
  0
MTEXT
  5
562F
330
1A
100
AcDbEntity
  8
SUNPOU
100
AcDbMText
 10
117995.9200842238
 20
111037.0247436963
 30
0.0
 40
3.5
 41
0.0
 71
     9
 72
     5
  1

1001
ACAD
1000
MTEXTBEGIN
1070
    73
1070
     1
1070
    44
1040
1.0
1070
    74
1070
     0
1000
MTEXTEND
1000
MTEXTBEGIN
1070
    73
1070
     1
1070
    44
1040
1.0
1070
    74
1070
     0
1000
MTEXTEND
  0
MTEXT
  5
5630
330
1A
100
AcDbEntity
  8
SUNPOU
100
AcDbMText
 10
66492.78054330994
 20
58671.23897854939
 30
0.0
 40
10.5
 41
0.0
 71
     9
 72
     5
  1

1001
ACAD
1000
MTEXTBEGIN
1070
    73
1070
     1
1070
    44
1040
1.0
1070
    74
1070
     0
1000
MTEXTEND
1000
MTEXTBEGIN
1070
    73
1070
     1
1070
    44
1040
1.0
1070
    74
1070
     0
1000
MTEXTEND
  0
MTEXT
  5
5631
330
1A
100
AcDbEntity
  8
SUNPOU
100
AcDbMText
 10
52544.78044293396
 20
39498.83983943717
 30
0.0
 40
3.5
 41
0.0
 71
     7
 72
     5
  1

1001
ACAD
1000
MTEXTBEGIN
1070
    73
1070
     1
1070
    44
1040
1.0
1070
    74
1070
     0
1000
MTEXTEND
1000
MTEXTBEGIN
1070
    73
1070
     1
1070
    44
1040
1.0
1070
    74
1070
     0
1000
MTEXTEND
  0
MTEXT
  5
5632
330
1A
100
AcDbEntity
  8
SUNPOU
100
AcDbMText
 10
66237.13112570454
 20
48857.90306045851
 30
0.0
 40
10.5
 41
0.0
 71
     9
 72
     5
  1

1001
ACAD
1000
MTEXTBEGIN
1070
    73
1070
     1
1070
    44
1040
1.0
1070
    74
1070
     0
1000
MTEXTEND
1000
MTEXTBEGIN
1070
    73
1070
     1
1070
    44
1040
1.0
1070
    74
1070
     0
1000
MTEXTEND
  0
MTEXT
  5
5633
330
1A
100
AcDbEntity
  8
SUNPOU
100
AcDbMText
 10
74959.29869162252
 20
56273.737591996
 30
0.0
 40
10.5
 41
0.0
 71
     9
 72
     5
  1

1001
ACAD
1000
MTEXTBEGIN
1070
    73
1070
     1
1070
    44
1040
1.0
1070
    74
1070
     0
1000
MTEXTEND
1000
MTEXTBEGIN
1070
    73
1070
     1
1070
    44
1040
1.0
1070
    74
1070
     0
1000
MTEXTEND
  0
MTEXT
  5
5634
330
1A
100
AcDbEntity
  8
SUNPOU
100
AcDbMText
 10
93913.0574089525
 20
73740.31364448805
 30
0.0
 40
10.5
 41
0.0
 71
     9
 72
     5
  1

1001
ACAD
1000
MTEXTBEGIN
1070
    73
1070
     1
1070
    44
1040
1.0
1070
    74
1070
     0
1000
MTEXTEND
1000
MTEXTBEGIN
1070
    73
1070
     1
1070
    44
1040
1.0
1070
    74
1070
     0
1000
MTEXTEND
  0
MTEXT
  5
5635
330
1A
100
AcDbEntity
  8
SUNPOU
100
AcDbMText
 10
95856.46465566192
 20
71939.26456461004
 30
0.0
 40
3.5
 41
0.0
 71
     9
 72
     5
  1

1001
ACAD
1000
MTEXTBEGIN
1070
    73
1070
     1
1070
    44
1040
1.0
1070
    74
1070
     0
1000
MTEXTEND
1000
MTEXTBEGIN
1070
    73
1070
     1
1070
    44
1040
1.0
1070
    74
1070
     0
1000
MTEXTEND
  0
MTEXT
  5
5636
330
1A
100
AcDbEntity
  8
SUNPOU
100
AcDbMText
 10
126982.6444882816
 20
114434.2102322673
 30
0.0
 40
10.5
 41
0.0
 71
     9
 72
     5
  1

1001
ACAD
1000
MTEXTBEGIN
1070
    73
1070
     1
1070
    44
1040
1.0
1070
    74
1070
     0
1000
MTEXTEND
1000
MTEXTBEGIN
1070
    73
1070
     1
1070
    44
1040
1.0
1070
    74
1070
     0
1000
MTEXTEND
  0
MTEXT
  5
5637
330
1A
100
AcDbEntity
  8
SUNPOU
100
AcDbMText
 10
128926.051734991
 20
112633.1611523893
 30
0.0
 40
3.5
 41
0.0
 71
     9
 72
     5
  1

1001
ACAD
1000
MTEXTBEGIN
1070
    73
1070
     1
1070
    44
1040
1.0
1070
    74
1070
     0
1000
MTEXTEND
1000
MTEXTBEGIN
1070
    73
1070
     1
1070
    44
1040
1.0
1070
    74
1070
     0
1000
MTEXTEND
  0
MTEXT
  5
5638
330
1A
100
AcDbEntity
  8
SUNPOU
100
AcDbMText
 10
77422.91219407717
 20
60267.37538724244
 30
0.0
 40
10.5
 41
0.0
 71
     9
 72
     5
  1

1001
ACAD
1000
MTEXTBEGIN
1070
    73
1070
     1
1070
    44
1040
1.0
1070
    74
1070
     0
1000
MTEXTEND
1000
MTEXTBEGIN
1070
    73
1070
     1
1070
    44
1040
1.0
1070
    74
1070
     0
1000
MTEXTEND
  0
MTEXT
  5
5639
330
1A
100
AcDbEntity
  8
SUNPOU
100
AcDbMText
 10
63474.91209370119
 20
41094.97624813023
 30
0.0
 40
3.5
 41
0.0
 71
     7
 72
     5
  1

1001
ACAD
1000
MTEXTBEGIN
1070
    73
1070
     1
1070
    44
1040
1.0
1070
    74
1070
     0
1000
MTEXTEND
1000
MTEXTBEGIN
1070
    73
1070
     1
1070
    44
1040
1.0
1070
    74
1070
     0
1000
MTEXTEND
  0
MTEXT
  5
563A
330
1A
100
AcDbEntity
  8
SUNPOU
100
AcDbMText
 10
48117.65086229006
 20
40806.11043916631
 30
0.0
 40
10.5
 41
0.0
 71
     9
 72
     5
  1

1001
ACAD
1000
MTEXTBEGIN
1070
    73
1070
     1
1070
    44
1040
1.0
1070
    74
1070
     0
1000
MTEXTEND
1000
MTEXTBEGIN
1070
    73
1070
     1
1070
    44
1040
1.0
1070
    74
1070
     0
1000
MTEXTEND
  0
MTEXT
  5
563B
330
1A
100
AcDbEntity
  8
SUNPOU
100
AcDbMText
 10
67071.40957962004
 20
58272.68649165837
 30
0.0
 40
10.5
 41
0.0
 71
     9
 72
     5
  1

1001
ACAD
1000
MTEXTBEGIN
1070
    73
1070
     1
1070
    44
1040
1.0
1070
    74
1070
     0
1000
MTEXTEND
1000
MTEXTBEGIN
1070
    73
1070
     1
1070
    44
1040
1.0
1070
    74
1070
     0
1000
MTEXTEND
  0
MTEXT
  5
563C
330
1A
100
AcDbEntity
  8
SUNPOU
100
AcDbMText
 10
69014.81682632945
 20
56471.63741178035
 30
0.0
 40
3.5
 41
0.0
 71
     9
 72
     5
  1

1001
ACAD
1000
MTEXTBEGIN
1070
    73
1070
     1
1070
    44
1040
1.0
1070
    74
1070
     0
1000
MTEXTEND
1000
MTEXTBEGIN
1070
    73
1070
     1
1070
    44
1040
1.0
1070
    74
1070
     0
1000
MTEXTEND
  0
MTEXT
  5
563D
330
1A
100
AcDbEntity
  8
SUNPOU
100
AcDbMText
 10
100140.9966589491
 20
98966.58307943772
 30
0.0
 40
10.5
 41
0.0
 71
     9
 72
     5
  1

1001
ACAD
1000
MTEXTBEGIN
1070
    73
1070
     1
1070
    44
1040
1.0
1070
    74
1070
     0
1000
MTEXTEND
1000
MTEXTBEGIN
1070
    73
1070
     1
1070
    44
1040
1.0
1070
    74
1070
     0
1000
MTEXTEND
  0
MTEXT
  5
563E
330
1A
100
AcDbEntity
  8
SUNPOU
100
AcDbMText
 10
102084.4039056586
 20
97165.53399955969
 30
0.0
 40
3.5
 41
0.0
 71
     9
 72
     5
  1

1001
ACAD
1000
MTEXTBEGIN
1070
    73
1070
     1
1070
    44
1040
1.0
1070
    74
1070
     0
1000
MTEXTEND
1000
MTEXTBEGIN
1070
    73
1070
     1
1070
    44
1040
1.0
1070
    74
1070
     0
1000
MTEXTEND
  0
MTEXT
  5
563F
330
1A
100
AcDbEntity
  8
SUNPOU
100
AcDbMText
 10
50581.26436474472
 20
44799.74823441275
 30
0.0
 40
10.5
 41
0.0
 71
     9
 72
     5
  1

1001
ACAD
1000
MTEXTBEGIN
1070
    73
1070
     1
1070
    44
1040
1.0
1070
    74
1070
     0
1000
MTEXTEND
1000
MTEXTBEGIN
1070
    73
1070
     1
1070
    44
1040
1.0
1070
    74
1070
     0
1000
MTEXTEND
  0
MTEXT
  5
5640
330
1A
100
AcDbEntity
  8
SUNPOU
100
AcDbMText
 10
36633.26426436873
 20
25627.34909530054
 30
0.0
 40
3.5
 41
0.0
 71
     7
 72
     5
  1

1001
ACAD
1000
MTEXTBEGIN
1070
    73
1070
     1
1070
    44
1040
1.0
1070
    74
1070
     0
1000
MTEXTEND
1000
MTEXTBEGIN
1070
    73
1070
     1
1070
    44
1040
1.0
1070
    74
1070
     0
1000
MTEXTEND
  0
MTEXT
  5
5641
330
1A
100
AcDbEntity
  8
SUNPOU
100
AcDbMText
 10
61069.42493315968
 20
52574.61207825771
 30
0.0
 40
10.5
 41
0.0
 71
     9
 72
     5
  1

1001
ACAD
1000
MTEXTBEGIN
1070
    73
1070
     1
1070
    44
1040
1.0
1070
    74
1070
     0
1000
MTEXTEND
1000
MTEXTBEGIN
1070
    73
1070
     1
1070
    44
1040
1.0
1070
    74
1070
     0
1000
MTEXTEND
  0
MTEXT
  5
5642
330
1A
100
AcDbEntity
  8
SUNPOU
100
AcDbMText
 10
80023.18365048967
 20
70041.18813074978
 30
0.0
 40
10.5
 41
0.0
 71
     9
 72
     5
  1

1001
ACAD
1000
MTEXTBEGIN
1070
    73
1070
     1
1070
    44
1040
1.0
1070
    74
1070
     0
1000
MTEXTEND
1000
MTEXTBEGIN
1070
    73
1070
     1
1070
    44
1040
1.0
1070
    74
1070
     0
1000
MTEXTEND
  0
MTEXT
  5
5643
330
1A
100
AcDbEntity
  8
SUNPOU
100
AcDbMText
 10
81966.59089719908
 20
68240.13905087176
 30
0.0
 40
3.5
 41
0.0
 71
     9
 72
     5
  1

1001
ACAD
1000
MTEXTBEGIN
1070
    73
1070
     1
1070
    44
1040
1.0
1070
    74
1070
     0
1000
MTEXTEND
1000
MTEXTBEGIN
1070
    73
1070
     1
1070
    44
1040
1.0
1070
    74
1070
     0
1000
MTEXTEND
  0
MTEXT
  5
5644
330
1A
100
AcDbEntity
  8
SUNPOU
100
AcDbMText
 10
113092.7707298187
 20
110735.0847185291
 30
0.0
 40
10.5
 41
0.0
 71
     9
 72
     5
  1

1001
ACAD
1000
MTEXTBEGIN
1070
    73
1070
     1
1070
    44
1040
1.0
1070
    74
1070
     0
1000
MTEXTEND
1000
MTEXTBEGIN
1070
    73
1070
     1
1070
    44
1040
1.0
1070
    74
1070
     0
1000
MTEXTEND
  0
MTEXT
  5
5645
330
1A
100
AcDbEntity
  8
SUNPOU
100
AcDbMText
 10
115036.1779765282
 20
108934.0356386511
 30
0.0
 40
3.5
 41
0.0
 71
     9
 72
     5
  1

1001
ACAD
1000
MTEXTBEGIN
1070
    73
1070
     1
1070
    44
1040
1.0
1070
    74
1070
     0
1000
MTEXTEND
1000
MTEXTBEGIN
1070
    73
1070
     1
1070
    44
1040
1.0
1070
    74
1070
     0
1000
MTEXTEND
  0
MTEXT
  5
5646
330
1A
100
AcDbEntity
  8
SUNPOU
100
AcDbMText
 10
63533.03843561433
 20
56568.24987350415
 30
0.0
 40
10.5
 41
0.0
 71
     9
 72
     5
  1

1001
ACAD
1000
MTEXTBEGIN
1070
    73
1070
     1
1070
    44
1040
1.0
1070
    74
1070
     0
1000
MTEXTEND
1000
MTEXTBEGIN
1070
    73
1070
     1
1070
    44
1040
1.0
1070
    74
1070
     0
1000
MTEXTEND
  0
MTEXT
  5
5647
330
1A
100
AcDbEntity
  8
SUNPOU
100
AcDbMText
 10
49585.03833523835
 20
37395.85073439196
 30
0.0
 40
3.5
 41
0.0
 71
     7
 72
     5
  1

1001
ACAD
1000
MTEXTBEGIN
1070
    73
1070
     1
1070
    44
1040
1.0
1070
    74
1070
     0
1000
MTEXTEND
1000
MTEXTBEGIN
1070
    73
1070
     1
1070
    44
1040
1.0
1070
    74
1070
     0
1000
MTEXTEND
  0
MTEXT
  5
5648
330
1A
100
AcDbEntity
  8
SUNPOU
100
AcDbMText
 10
77137.31641337052
 20
70907.11375048141
 30
0.0
 40
10.5
 41
0.0
 71
     9
 72
     5
  1

1001
ACAD
1000
MTEXTBEGIN
1070
    73
1070
     1
1070
    44
1040
1.0
1070
    74
1070
     0
1000
MTEXTEND
1000
MTEXTBEGIN
1070
    73
1070
     1
1070
    44
1040
1.0
1070
    74
1070
     0
1000
MTEXTEND
  0
MTEXT
  5
5649
330
1A
100
AcDbEntity
  8
SUNPOU
100
AcDbMText
 10
79080.72366007995
 20
69106.06467060339
 30
0.0
 40
3.5
 41
0.0
 71
     9
 72
     5
  1

1001
ACAD
1000
MTEXTBEGIN
1070
    73
1070
     1
1070
    44
1040
1.0
1070
    74
1070
     0
1000
MTEXTEND
1000
MTEXTBEGIN
1070
    73
1070
     1
1070
    44
1040
1.0
1070
    74
1070
     0
1000
MTEXTEND
  0
MTEXT
  5
564A
330
1A
100
AcDbEntity
  8
SUNPOU
100
AcDbMText
 10
110206.9034926996
 20
111601.0103382607
 30
0.0
 40
10.5
 41
0.0
 71
     9
 72
     5
  1

1001
ACAD
1000
MTEXTBEGIN
1070
    73
1070
     1
1070
    44
1040
1.0
1070
    74
1070
     0
1000
MTEXTEND
1000
MTEXTBEGIN
1070
    73
1070
     1
1070
    44
1040
1.0
1070
    74
1070
     0
1000
MTEXTEND
  0
MTEXT
  5
564B
330
1A
100
AcDbEntity
  8
SUNPOU
100
AcDbMText
 10
112150.310739409
 20
109799.9612583827
 30
0.0
 40
3.5
 41
0.0
 71
     9
 72
     5
  1

1001
ACAD
1000
MTEXTBEGIN
1070
    73
1070
     1
1070
    44
1040
1.0
1070
    74
1070
     0
1000
MTEXTEND
1000
MTEXTBEGIN
1070
    73
1070
     1
1070
    44
1040
1.0
1070
    74
1070
     0
1000
MTEXTEND
  0
MTEXT
  5
564C
330
1A
100
AcDbEntity
  8
SUNPOU
100
AcDbMText
 10
108819.1333204968
 20
110677.9087286761
 30
0.0
 40
10.5
 41
0.0
 71
     9
 72
     5
  1

1001
ACAD
1000
MTEXTBEGIN
1070
    73
1070
     1
1070
    44
1040
1.0
1070
    74
1070
     0
1000
MTEXTEND
1000
MTEXTBEGIN
1070
    73
1070
     1
1070
    44
1040
1.0
1070
    74
1070
     0
1000
MTEXTEND
  0
MTEXT
  5
564D
330
1A
100
AcDbEntity
  8
SUNPOU
100
AcDbMText
 10
110762.5405672062
 20
108876.8596487981
 30
0.0
 40
3.5
 41
0.0
 71
     9
 72
     5
  1

1001
ACAD
1000
MTEXTBEGIN
1070
    73
1070
     1
1070
    44
1040
1.0
1070
    74
1070
     0
1000
MTEXTEND
1000
MTEXTBEGIN
1070
    73
1070
     1
1070
    44
1040
1.0
1070
    74
1070
     0
1000
MTEXTEND
  0
MTEXT
  5
564E
330
1A
100
AcDbEntity
  8
SUNPOU
100
AcDbMText
 10
76303.05507956816
 20
68695.31179059812
 30
0.0
 40
10.5
 41
0.0
 71
     9
 72
     5
  1

1001
ACAD
1000
MTEXTBEGIN
1070
    73
1070
     1
1070
    44
1040
1.0
1070
    74
1070
     0
1000
MTEXTEND
1000
MTEXTBEGIN
1070
    73
1070
     1
1070
    44
1040
1.0
1070
    74
1070
     0
1000
MTEXTEND
  0
MTEXT
  5
564F
330
1A
100
AcDbEntity
  8
SUNPOU
100
AcDbMText
 10
79026.36128373271
 20
69099.99348217918
 30
0.0
 40
3.5
 41
0.0
 71
     9
 72
     5
  1

1001
ACAD
1000
MTEXTBEGIN
1070
    73
1070
     1
1070
    44
1040
1.0
1070
    74
1070
     0
1000
MTEXTEND
1000
MTEXTBEGIN
1070
    73
1070
     1
1070
    44
1040
1.0
1070
    74
1070
     0
1000
MTEXTEND
  0
MTEXT
  5
5650
330
1A
100
AcDbEntity
  8
SUNPOU
100
AcDbMText
 10
78234.00675862522
 20
65938.68764412436
 30
0.0
 40
10.5
 41
0.0
 71
     9
 72
     5
  1

1001
ACAD
1000
MTEXTBEGIN
1070
    73
1070
     1
1070
    44
1040
1.0
1070
    74
1070
     0
1000
MTEXTEND
1000
MTEXTBEGIN
1070
    73
1070
     1
1070
    44
1040
1.0
1070
    74
1070
     0
1000
MTEXTEND
  0
MTEXT
  5
5651
330
1A
100
AcDbEntity
  8
SUNPOU
100
AcDbMText
 10
80177.41400533465
 20
64137.63856424636
 30
0.0
 40
3.5
 41
0.0
 71
     9
 72
     5
  1

1001
ACAD
1000
MTEXTBEGIN
1070
    73
1070
     1
1070
    44
1040
1.0
1070
    74
1070
     0
1000
MTEXTEND
1000
MTEXTBEGIN
1070
    73
1070
     1
1070
    44
1040
1.0
1070
    74
1070
     0
1000
MTEXTEND
  0
MTEXT
  5
5652
330
1A
100
AcDbEntity
  8
SUNPOU
100
AcDbMText
 10
80122.50949592123
 20
64024.86668196205
 30
0.0
 40
3.5
 41
0.0
 71
     9
 72
     5
  1

1001
ACAD
1000
MTEXTBEGIN
1070
    73
1070
     1
1070
    44
1040
1.0
1070
    74
1070
     0
1000
MTEXTEND
1000
MTEXTBEGIN
1070
    73
1070
     1
1070
    44
1040
1.0
1070
    74
1070
     0
1000
MTEXTEND
  0
MTEXT
  5
5653
330
1A
100
AcDbEntity
  8
SUNPOU
100
AcDbMText
 10
79486.58135950133
 20
63213.54544089553
 30
0.0
 40
3.5
 41
0.0
 71
     9
 72
     5
  1

1001
ACAD
1000
MTEXTBEGIN
1070
    73
1070
     1
1070
    44
1040
1.0
1070
    74
1070
     0
1000
MTEXTEND
1000
MTEXTBEGIN
1070
    73
1070
     1
1070
    44
1040
1.0
1070
    74
1070
     0
1000
MTEXTEND
  0
MTEXT
  5
5654
330
1A
100
AcDbEntity
  8
SUNPOU
100
AcDbMText
 10
79485.3409400806
 20
63213.29746395804
 30
0.0
 40
10.5
 41
0.0
 71
     9
 72
     5
  1

1001
ACAD
1000
MTEXTBEGIN
1070
    73
1070
     1
1070
    44
1040
1.0
1070
    74
1070
     0
1000
MTEXTEND
1000
MTEXTBEGIN
1070
    73
1070
     1
1070
    44
1040
1.0
1070
    74
1070
     0
1000
MTEXTEND
  0
MTEXT
  5
5655
330
1A
100
AcDbEntity
  8
SUNPOU
100
AcDbMText
 10
85473.63363627567
 20
80747.76348077064
 30
0.0
 40
10.5
 41
0.0
 71
     9
 72
     5
  1

1001
ACAD
1000
MTEXTBEGIN
1070
    73
1070
     1
1070
    44
1040
1.0
1070
    74
1070
     0
1000
MTEXTEND
1000
MTEXTBEGIN
1070
    73
1070
     1
1070
    44
1040
1.0
1070
    74
1070
     0
1000
MTEXTEND
  0
MTEXT
  5
5656
330
1A
100
AcDbEntity
  8
SUNPOU
100
AcDbMText
 10
94195.80120219368
 20
88163.59801230809
 30
0.0
 40
10.5
 41
0.0
 71
     9
 72
     5
  1

1001
ACAD
1000
MTEXTBEGIN
1070
    73
1070
     1
1070
    44
1040
1.0
1070
    74
1070
     0
1000
MTEXTEND
1000
MTEXTBEGIN
1070
    73
1070
     1
1070
    44
1040
1.0
1070
    74
1070
     0
1000
MTEXTEND
  0
MTEXT
  5
5657
330
1A
100
AcDbEntity
  8
SUNPOU
100
AcDbMText
 10
113149.5599195236
 20
105630.1740648001
 30
0.0
 40
10.5
 41
0.0
 71
     9
 72
     5
  1

1001
ACAD
1000
MTEXTBEGIN
1070
    73
1070
     1
1070
    44
1040
1.0
1070
    74
1070
     0
1000
MTEXTEND
1000
MTEXTBEGIN
1070
    73
1070
     1
1070
    44
1040
1.0
1070
    74
1070
     0
1000
MTEXTEND
  0
MTEXT
  5
5658
330
1A
100
AcDbEntity
  8
SUNPOU
100
AcDbMText
 10
115092.967166233
 20
103829.1249849221
 30
0.0
 40
3.5
 41
0.0
 71
     9
 72
     5
  1

1001
ACAD
1000
MTEXTBEGIN
1070
    73
1070
     1
1070
    44
1040
1.0
1070
    74
1070
     0
1000
MTEXTEND
1000
MTEXTBEGIN
1070
    73
1070
     1
1070
    44
1040
1.0
1070
    74
1070
     0
1000
MTEXTEND
  0
MTEXT
  5
5659
330
1A
100
AcDbEntity
  8
SUNPOU
100
AcDbMText
 10
146219.1469988527
 20
146324.0706525794
 30
0.0
 40
10.5
 41
0.0
 71
     9
 72
     5
  1

1001
ACAD
1000
MTEXTBEGIN
1070
    73
1070
     1
1070
    44
1040
1.0
1070
    74
1070
     0
1000
MTEXTEND
1000
MTEXTBEGIN
1070
    73
1070
     1
1070
    44
1040
1.0
1070
    74
1070
     0
1000
MTEXTEND
  0
MTEXT
  5
565A
330
1A
100
AcDbEntity
  8
SUNPOU
100
AcDbMText
 10
148162.5542455621
 20
144523.0215727014
 30
0.0
 40
3.5
 41
0.0
 71
     9
 72
     5
  1

1001
ACAD
1000
MTEXTBEGIN
1070
    73
1070
     1
1070
    44
1040
1.0
1070
    74
1070
     0
1000
MTEXTEND
1000
MTEXTBEGIN
1070
    73
1070
     1
1070
    44
1040
1.0
1070
    74
1070
     0
1000
MTEXTEND
  0
MTEXT
  5
565B
330
1A
100
AcDbEntity
  8
SUNPOU
100
AcDbMText
 10
96659.41470464833
 20
92157.23580755453
 30
0.0
 40
10.5
 41
0.0
 71
     9
 72
     5
  1

1001
ACAD
1000
MTEXTBEGIN
1070
    73
1070
     1
1070
    44
1040
1.0
1070
    74
1070
     0
1000
MTEXTEND
1000
MTEXTBEGIN
1070
    73
1070
     1
1070
    44
1040
1.0
1070
    74
1070
     0
1000
MTEXTEND
  0
MTEXT
  5
565C
330
1A
100
AcDbEntity
  8
SUNPOU
100
AcDbMText
 10
82711.41460427234
 20
72984.83666844234
 30
0.0
 40
3.5
 41
0.0
 71
     7
 72
     5
  1

1001
ACAD
1000
MTEXTBEGIN
1070
    73
1070
     1
1070
    44
1040
1.0
1070
    74
1070
     0
1000
MTEXTEND
1000
MTEXTBEGIN
1070
    73
1070
     1
1070
    44
1040
1.0
1070
    74
1070
     0
1000
MTEXTEND
  0
MTEXT
  5
565D
330
1A
100
AcDbEntity
  8
SUNPOU
100
AcDbMText
 10
63696.58400126548
 20
60746.98539926055
 30
0.0
 40
10.5
 41
0.0
 71
     7
 72
     5
  1

1001
ACAD
1000
MTEXTBEGIN
1070
    73
1070
     1
1070
    44
1040
1.0
1070
    74
1070
     0
1000
MTEXTEND
1000
MTEXTBEGIN
1070
    73
1070
     1
1070
    44
1040
1.0
1070
    74
1070
     0
1000
MTEXTEND
  0
MTEXT
  5
565E
330
1A
100
AcDbEntity
  8
SUNPOU
100
AcDbMText
 10
51239.35573631738
 20
44902.05382116213
 30
0.0
 40
35.0
 41
0.0
 71
     9
 72
     5
  1

1001
ACAD
1000
MTEXTBEGIN
1070
    73
1070
     1
1070
    44
1040
1.0
1070
    74
1070
     0
1000
MTEXTEND
1000
MTEXTBEGIN
1070
    73
1070
     1
1070
    44
1040
1.0
1070
    74
1070
     0
1000
MTEXTEND
  0
MTEXT
  5
565F
330
1A
100
AcDbEntity
  8
SUNPOU
100
AcDbMText
 10
50147.84079389233
 20
45510.82923121084
 30
0.0
 40
350.0000004171781
 41
0.0
 71
     7
 72
     5
  1

1001
ACAD
1000
MTEXTBEGIN
1070
    73
1070
     1
1070
    44
1040
1.0
1070
    74
1070
     0
1000
MTEXTEND
1000
MTEXTBEGIN
1070
    73
1070
     1
1070
    44
1040
1.0
1070
    74
1070
     0
1000
MTEXTEND
  0
MTEXT
  5
5660
330
1A
100
AcDbEntity
  8
0
100
AcDbMText
 10
56191.79155183523
 20
43490.75159334705
 30
0.0
 40
8.0
 41
0.0
 71
     7
 72
     5
  1

1001
ACAD
1000
MTEXTBEGIN
1070
    73
1070
     1
1070
    44
1040
1.0
1070
    74
1070
     0
1000
MTEXTEND
1000
MTEXTBEGIN
1070
    73
1070
     1
1070
    44
1040
1.0
1070
    74
1070
     0
1000
MTEXTEND
  0
MTEXT
  5
5661
330
1A
100
AcDbEntity
  8
0
100
AcDbMText
 10
58477.14924173013
 20
44461.54188809812
 30
0.0
 40
8.0
 41
0.0
 71
     7
 72
     5
  1

1001
ACAD
1000
MTEXTBEGIN
1070
    73
1070
     1
1070
    44
1040
1.0
1070
    74
1070
     0
1000
MTEXTEND
1000
MTEXTBEGIN
1070
    73
1070
     1
1070
    44
1040
1.0
1070
    74
1070
     0
1000
MTEXTEND
  0
MTEXT
  5
5662
330
1A
100
AcDbEntity
  8
SUNPOU
100
AcDbMText
 10
61143.04626241227
 20
53973.65328047324
 30
0.0
 40
10.5
 41
0.0
 71
     1
 72
     5
  1

1001
ACAD
1000
MTEXTBEGIN
1070
    73
1070
     1
1070
    44
1040
1.0
1070
    74
1070
     0
1000
MTEXTEND
1000
MTEXTBEGIN
1070
    73
1070
     1
1070
    44
1040
1.0
1070
    74
1070
     0
1000
MTEXTEND
  0
MTEXT
  5
5663
330
1A
100
AcDbEntity
  8
SUNPOU
100
AcDbMText
 10
53212.12306647634
 20
53026.86014656028
 30
0.0
 40
10.5
 41
0.0
 71
     7
 72
     5
  1

1001
ACAD
1000
MTEXTBEGIN
1070
    73
1070
     1
1070
    44
1040
1.0
1070
    74
1070
     0
1000
MTEXTEND
1000
MTEXTBEGIN
1070
    73
1070
     1
1070
    44
1040
1.0
1070
    74
1070
     0
1000
MTEXTEND
  0
MTEXT
  5
5664
330
1A
100
AcDbEntity
  8
SUNPOU
100
AcDbMText
 10
56161.1067309891
 20
57927.53621840312
 30
0.0
 40
10.5
 41
0.0
 71
     7
 72
     5
  1

1001
ACAD
1000
MTEXTBEGIN
1070
    73
1070
     1
1070
    44
1040
1.0
1070
    74
1070
     0
1000
MTEXTEND
1000
MTEXTBEGIN
1070
    73
1070
     1
1070
    44
1040
1.0
1070
    74
1070
     0
1000
MTEXTEND
  0
MTEXT
  5
5665
330
1A
100
AcDbEntity
  8
SUNPOU
100
AcDbMText
 10
60670.18485893966
 20
60363.8369660232
 30
0.0
 40
10.5
 41
0.0
 71
     7
 72
     5
  1

1001
ACAD
1000
MTEXTBEGIN
1070
    73
1070
     1
1070
    44
1040
1.0
1070
    74
1070
     0
1000
MTEXTEND
1000
MTEXTBEGIN
1070
    73
1070
     1
1070
    44
1040
1.0
1070
    74
1070
     0
1000
MTEXTEND
  0
MTEXT
  5
5666
330
1A
100
AcDbEntity
  8
SUNPOU
100
AcDbMText
 10
44271.02274570799
 20
39361.43311641212
 30
0.0
 40
10.5
 41
0.0
 71
     7
 72
     5
  1

1001
ACAD
1000
MTEXTBEGIN
1070
    73
1070
     1
1070
    44
1040
1.0
1070
    74
1070
     0
1000
MTEXTEND
1000
MTEXTBEGIN
1070
    73
1070
     1
1070
    44
1040
1.0
1070
    74
1070
     0
1000
MTEXTEND
  0
MTEXT
  5
5667
330
1A
100
AcDbEntity
  8
SUNPOU
100
AcDbMText
 10
95462.54117960824
 20
85034.41368006038
 30
0.0
 40
10.5
 41
0.0
 71
     9
 72
     5
  1

1001
ACAD
1000
MTEXTBEGIN
1070
    73
1070
     1
1070
    44
1040
1.0
1070
    74
1070
     0
1000
MTEXTEND
1000
MTEXTBEGIN
1070
    73
1070
     1
1070
    44
1040
1.0
1070
    74
1070
     0
1000
MTEXTEND
  0
MTEXT
  5
5668
330
1A
100
AcDbEntity
  8
SUNPOU
100
AcDbMText
 10
104184.7087455262
 20
92450.24821159784
 30
0.0
 40
10.5
 41
0.0
 71
     9
 72
     5
  1

1001
ACAD
1000
MTEXTBEGIN
1070
    73
1070
     1
1070
    44
1040
1.0
1070
    74
1070
     0
1000
MTEXTEND
1000
MTEXTBEGIN
1070
    73
1070
     1
1070
    44
1040
1.0
1070
    74
1070
     0
1000
MTEXTEND
  0
MTEXT
  5
5669
330
1A
100
AcDbEntity
  8
SUNPOU
100
AcDbMText
 10
123138.4674628562
 20
109916.8242640898
 30
0.0
 40
10.5
 41
0.0
 71
     9
 72
     5
  1

1001
ACAD
1000
MTEXTBEGIN
1070
    73
1070
     1
1070
    44
1040
1.0
1070
    74
1070
     0
1000
MTEXTEND
1000
MTEXTBEGIN
1070
    73
1070
     1
1070
    44
1040
1.0
1070
    74
1070
     0
1000
MTEXTEND
  0
MTEXT
  5
566A
330
1A
100
AcDbEntity
  8
SUNPOU
100
AcDbMText
 10
125081.8747095656
 20
108115.7751842118
 30
0.0
 40
3.5
 41
0.0
 71
     9
 72
     5
  1

1001
ACAD
1000
MTEXTBEGIN
1070
    73
1070
     1
1070
    44
1040
1.0
1070
    74
1070
     0
1000
MTEXTEND
1000
MTEXTBEGIN
1070
    73
1070
     1
1070
    44
1040
1.0
1070
    74
1070
     0
1000
MTEXTEND
  0
MTEXT
  5
566B
330
1A
100
AcDbEntity
  8
SUNPOU
100
AcDbMText
 10
156208.0545421853
 20
150610.7208518691
 30
0.0
 40
10.5
 41
0.0
 71
     9
 72
     5
  1

1001
ACAD
1000
MTEXTBEGIN
1070
    73
1070
     1
1070
    44
1040
1.0
1070
    74
1070
     0
1000
MTEXTEND
1000
MTEXTBEGIN
1070
    73
1070
     1
1070
    44
1040
1.0
1070
    74
1070
     0
1000
MTEXTEND
  0
MTEXT
  5
566C
330
1A
100
AcDbEntity
  8
SUNPOU
100
AcDbMText
 10
158151.4617888947
 20
148809.6717719911
 30
0.0
 40
3.5
 41
0.0
 71
     9
 72
     5
  1

1001
ACAD
1000
MTEXTBEGIN
1070
    73
1070
     1
1070
    44
1040
1.0
1070
    74
1070
     0
1000
MTEXTEND
1000
MTEXTBEGIN
1070
    73
1070
     1
1070
    44
1040
1.0
1070
    74
1070
     0
1000
MTEXTEND
  0
MTEXT
  5
566D
330
1A
100
AcDbEntity
  8
SUNPOU
100
AcDbMText
 10
106648.3222479809
 20
96443.88600684427
 30
0.0
 40
10.5
 41
0.0
 71
     9
 72
     5
  1

1001
ACAD
1000
MTEXTBEGIN
1070
    73
1070
     1
1070
    44
1040
1.0
1070
    74
1070
     0
1000
MTEXTEND
1000
MTEXTBEGIN
1070
    73
1070
     1
1070
    44
1040
1.0
1070
    74
1070
     0
1000
MTEXTEND
  0
MTEXT
  5
566E
330
1A
100
AcDbEntity
  8
SUNPOU
100
AcDbMText
 10
92700.3221476049
 20
77271.48686773207
 30
0.0
 40
3.5
 41
0.0
 71
     7
 72
     5
  1

1001
ACAD
1000
MTEXTBEGIN
1070
    73
1070
     1
1070
    44
1040
1.0
1070
    74
1070
     0
1000
MTEXTEND
1000
MTEXTBEGIN
1070
    73
1070
     1
1070
    44
1040
1.0
1070
    74
1070
     0
1000
MTEXTEND
  0
MTEXT
  5
566F
330
1A
100
AcDbEntity
  8
SUNPOU
100
AcDbMText
 10
73685.49154459806
 20
65033.63559855027
 30
0.0
 40
10.5
 41
0.0
 71
     7
 72
     5
  1

1001
ACAD
1000
MTEXTBEGIN
1070
    73
1070
     1
1070
    44
1040
1.0
1070
    74
1070
     0
1000
MTEXTEND
1000
MTEXTBEGIN
1070
    73
1070
     1
1070
    44
1040
1.0
1070
    74
1070
     0
1000
MTEXTEND
  0
MTEXT
  5
5670
330
1A
100
AcDbEntity
  8
SUNPOU
100
AcDbMText
 10
61228.26327964995
 20
49188.70402045185
 30
0.0
 40
35.0
 41
0.0
 71
     9
 72
     5
  1

1001
ACAD
1000
MTEXTBEGIN
1070
    73
1070
     1
1070
    44
1040
1.0
1070
    74
1070
     0
1000
MTEXTEND
1000
MTEXTBEGIN
1070
    73
1070
     1
1070
    44
1040
1.0
1070
    74
1070
     0
1000
MTEXTEND
  0
MTEXT
  5
5671
330
1A
100
AcDbEntity
  8
SUNPOU
100
AcDbMText
 10
60136.74833722491
 20
49797.47943050056
 30
0.0
 40
350.0000004171781
 41
0.0
 71
     7
 72
     5
  1

1001
ACAD
1000
MTEXTBEGIN
1070
    73
1070
     1
1070
    44
1040
1.0
1070
    74
1070
     0
1000
MTEXTEND
1000
MTEXTBEGIN
1070
    73
1070
     1
1070
    44
1040
1.0
1070
    74
1070
     0
1000
MTEXTEND
  0
MTEXT
  5
5672
330
1A
100
AcDbEntity
  8
0
100
AcDbMText
 10
66180.69909516782
 20
47777.40179263678
 30
0.0
 40
8.0
 41
0.0
 71
     7
 72
     5
  1

1001
ACAD
1000
MTEXTBEGIN
1070
    73
1070
     1
1070
    44
1040
1.0
1070
    74
1070
     0
1000
MTEXTEND
1000
MTEXTBEGIN
1070
    73
1070
     1
1070
    44
1040
1.0
1070
    74
1070
     0
1000
MTEXTEND
  0
MTEXT
  5
5673
330
1A
100
AcDbEntity
  8
0
100
AcDbMText
 10
68466.05678506271
 20
48748.19208738784
 30
0.0
 40
8.0
 41
0.0
 71
     7
 72
     5
  1

1001
ACAD
1000
MTEXTBEGIN
1070
    73
1070
     1
1070
    44
1040
1.0
1070
    74
1070
     0
1000
MTEXTEND
1000
MTEXTBEGIN
1070
    73
1070
     1
1070
    44
1040
1.0
1070
    74
1070
     0
1000
MTEXTEND
  0
MTEXT
  5
5674
330
1A
100
AcDbEntity
  8
SUNPOU
100
AcDbMText
 10
71131.95380574485
 20
58260.30347976296
 30
0.0
 40
10.5
 41
0.0
 71
     1
 72
     5
  1

1001
ACAD
1000
MTEXTBEGIN
1070
    73
1070
     1
1070
    44
1040
1.0
1070
    74
1070
     0
1000
MTEXTEND
1000
MTEXTBEGIN
1070
    73
1070
     1
1070
    44
1040
1.0
1070
    74
1070
     0
1000
MTEXTEND
  0
MTEXT
  5
5675
330
1A
100
AcDbEntity
  8
SUNPOU
100
AcDbMText
 10
63201.03060980891
 20
57313.51034585002
 30
0.0
 40
10.5
 41
0.0
 71
     7
 72
     5
  1

1001
ACAD
1000
MTEXTBEGIN
1070
    73
1070
     1
1070
    44
1040
1.0
1070
    74
1070
     0
1000
MTEXTEND
1000
MTEXTBEGIN
1070
    73
1070
     1
1070
    44
1040
1.0
1070
    74
1070
     0
1000
MTEXTEND
  0
MTEXT
  5
5676
330
1A
100
AcDbEntity
  8
SUNPOU
100
AcDbMText
 10
66150.01427432169
 20
62214.18641769286
 30
0.0
 40
10.5
 41
0.0
 71
     7
 72
     5
  1

1001
ACAD
1000
MTEXTBEGIN
1070
    73
1070
     1
1070
    44
1040
1.0
1070
    74
1070
     0
1000
MTEXTEND
1000
MTEXTBEGIN
1070
    73
1070
     1
1070
    44
1040
1.0
1070
    74
1070
     0
1000
MTEXTEND
  0
MTEXT
  5
5677
330
1A
100
AcDbEntity
  8
SUNPOU
100
AcDbMText
 10
70659.09240227225
 20
64650.48716531294
 30
0.0
 40
10.5
 41
0.0
 71
     7
 72
     5
  1

1001
ACAD
1000
MTEXTBEGIN
1070
    73
1070
     1
1070
    44
1040
1.0
1070
    74
1070
     0
1000
MTEXTEND
1000
MTEXTBEGIN
1070
    73
1070
     1
1070
    44
1040
1.0
1070
    74
1070
     0
1000
MTEXTEND
  0
MTEXT
  5
5678
330
1A
100
AcDbEntity
  8
SUNPOU
100
AcDbMText
 10
54259.93028904056
 20
43648.08331570185
 30
0.0
 40
10.5
 41
0.0
 71
     7
 72
     5
  1

1001
ACAD
1000
MTEXTBEGIN
1070
    73
1070
     1
1070
    44
1040
1.0
1070
    74
1070
     0
1000
MTEXTEND
1000
MTEXTBEGIN
1070
    73
1070
     1
1070
    44
1040
1.0
1070
    74
1070
     0
1000
MTEXTEND
  0
MTEXT
  5
5679
330
1A
100
AcDbEntity
  8
SUNPOU
100
AcDbMText
 10
56070.69320041551
 20
49975.4973031804
 30
0.0
 40
10.5
 41
0.0
 71
     9
 72
     5
  1

1001
ACAD
1000
MTEXTBEGIN
1070
    73
1070
     1
1070
    44
1040
1.0
1070
    74
1070
     0
1000
MTEXTEND
1000
MTEXTBEGIN
1070
    73
1070
     1
1070
    44
1040
1.0
1070
    74
1070
     0
1000
MTEXTEND
  0
MTEXT
  5
567A
330
1A
100
AcDbEntity
  8
SUNPOU
100
AcDbMText
 10
64792.86076633348
 20
57391.33183471788
 30
0.0
 40
10.5
 41
0.0
 71
     9
 72
     5
  1

1001
ACAD
1000
MTEXTBEGIN
1070
    73
1070
     1
1070
    44
1040
1.0
1070
    74
1070
     0
1000
MTEXTEND
1000
MTEXTBEGIN
1070
    73
1070
     1
1070
    44
1040
1.0
1070
    74
1070
     0
1000
MTEXTEND
  0
MTEXT
  5
567B
330
1A
100
AcDbEntity
  8
SUNPOU
100
AcDbMText
 10
83746.61948366345
 20
74857.90788720994
 30
0.0
 40
10.5
 41
0.0
 71
     9
 72
     5
  1

1001
ACAD
1000
MTEXTBEGIN
1070
    73
1070
     1
1070
    44
1040
1.0
1070
    74
1070
     0
1000
MTEXTEND
1000
MTEXTBEGIN
1070
    73
1070
     1
1070
    44
1040
1.0
1070
    74
1070
     0
1000
MTEXTEND
  0
MTEXT
  5
567C
330
1A
100
AcDbEntity
  8
SUNPOU
100
AcDbMText
 10
85690.02673037287
 20
73056.85880733192
 30
0.0
 40
3.5
 41
0.0
 71
     9
 72
     5
  1

1001
ACAD
1000
MTEXTBEGIN
1070
    73
1070
     1
1070
    44
1040
1.0
1070
    74
1070
     0
1000
MTEXTEND
1000
MTEXTBEGIN
1070
    73
1070
     1
1070
    44
1040
1.0
1070
    74
1070
     0
1000
MTEXTEND
  0
MTEXT
  5
567D
330
1A
100
AcDbEntity
  8
SUNPOU
100
AcDbMText
 10
116816.2065629925
 20
115551.8044749892
 30
0.0
 40
10.5
 41
0.0
 71
     9
 72
     5
  1

1001
ACAD
1000
MTEXTBEGIN
1070
    73
1070
     1
1070
    44
1040
1.0
1070
    74
1070
     0
1000
MTEXTEND
1000
MTEXTBEGIN
1070
    73
1070
     1
1070
    44
1040
1.0
1070
    74
1070
     0
1000
MTEXTEND
  0
MTEXT
  5
567E
330
1A
100
AcDbEntity
  8
SUNPOU
100
AcDbMText
 10
118759.613809702
 20
113750.7553951112
 30
0.0
 40
3.5
 41
0.0
 71
     9
 72
     5
  1

1001
ACAD
1000
MTEXTBEGIN
1070
    73
1070
     1
1070
    44
1040
1.0
1070
    74
1070
     0
1000
MTEXTEND
1000
MTEXTBEGIN
1070
    73
1070
     1
1070
    44
1040
1.0
1070
    74
1070
     0
1000
MTEXTEND
  0
MTEXT
  5
567F
330
1A
100
AcDbEntity
  8
SUNPOU
100
AcDbMText
 10
67256.47426878814
 20
61384.96962996432
 30
0.0
 40
10.5
 41
0.0
 71
     9
 72
     5
  1

1001
ACAD
1000
MTEXTBEGIN
1070
    73
1070
     1
1070
    44
1040
1.0
1070
    74
1070
     0
1000
MTEXTEND
1000
MTEXTBEGIN
1070
    73
1070
     1
1070
    44
1040
1.0
1070
    74
1070
     0
1000
MTEXTEND
  0
MTEXT
  5
5680
330
1A
100
AcDbEntity
  8
SUNPOU
100
AcDbMText
 10
53308.47416841216
 20
42212.57049085211
 30
0.0
 40
3.5
 41
0.0
 71
     7
 72
     5
  1

1001
ACAD
1000
MTEXTBEGIN
1070
    73
1070
     1
1070
    44
1040
1.0
1070
    74
1070
     0
1000
MTEXTEND
1000
MTEXTBEGIN
1070
    73
1070
     1
1070
    44
1040
1.0
1070
    74
1070
     0
1000
MTEXTEND
  0
MTEXT
  5
5681
330
1A
100
AcDbEntity
  8
SUNPOU
100
AcDbMText
 10
67000.82485118274
 20
51571.63371187345
 30
0.0
 40
10.5
 41
0.0
 71
     9
 72
     5
  1

1001
ACAD
1000
MTEXTBEGIN
1070
    73
1070
     1
1070
    44
1040
1.0
1070
    74
1070
     0
1000
MTEXTEND
1000
MTEXTBEGIN
1070
    73
1070
     1
1070
    44
1040
1.0
1070
    74
1070
     0
1000
MTEXTEND
  0
MTEXT
  5
5682
330
1A
100
AcDbEntity
  8
SUNPOU
100
AcDbMText
 10
75722.99241710071
 20
58987.46824341094
 30
0.0
 40
10.5
 41
0.0
 71
     9
 72
     5
  1

1001
ACAD
1000
MTEXTBEGIN
1070
    73
1070
     1
1070
    44
1040
1.0
1070
    74
1070
     0
1000
MTEXTEND
1000
MTEXTBEGIN
1070
    73
1070
     1
1070
    44
1040
1.0
1070
    74
1070
     0
1000
MTEXTEND
  0
MTEXT
  5
5683
330
1A
100
AcDbEntity
  8
SUNPOU
100
AcDbMText
 10
94676.75113443068
 20
76454.04429590299
 30
0.0
 40
10.5
 41
0.0
 71
     9
 72
     5
  1

1001
ACAD
1000
MTEXTBEGIN
1070
    73
1070
     1
1070
    44
1040
1.0
1070
    74
1070
     0
1000
MTEXTEND
1000
MTEXTBEGIN
1070
    73
1070
     1
1070
    44
1040
1.0
1070
    74
1070
     0
1000
MTEXTEND
  0
MTEXT
  5
5684
330
1A
100
AcDbEntity
  8
SUNPOU
100
AcDbMText
 10
96620.1583811401
 20
74652.99521602498
 30
0.0
 40
3.5
 41
0.0
 71
     9
 72
     5
  1

1001
ACAD
1000
MTEXTBEGIN
1070
    73
1070
     1
1070
    44
1040
1.0
1070
    74
1070
     0
1000
MTEXTEND
1000
MTEXTBEGIN
1070
    73
1070
     1
1070
    44
1040
1.0
1070
    74
1070
     0
1000
MTEXTEND
  0
MTEXT
  5
5685
330
1A
100
AcDbEntity
  8
SUNPOU
100
AcDbMText
 10
127746.3382137598
 20
117147.9408836823
 30
0.0
 40
10.5
 41
0.0
 71
     9
 72
     5
  1

1001
ACAD
1000
MTEXTBEGIN
1070
    73
1070
     1
1070
    44
1040
1.0
1070
    74
1070
     0
1000
MTEXTEND
1000
MTEXTBEGIN
1070
    73
1070
     1
1070
    44
1040
1.0
1070
    74
1070
     0
1000
MTEXTEND
  0
MTEXT
  5
5686
330
1A
100
AcDbEntity
  8
SUNPOU
100
AcDbMText
 10
129689.7454604692
 20
115346.8918038043
 30
0.0
 40
3.5
 41
0.0
 71
     9
 72
     5
  1

1001
ACAD
1000
MTEXTBEGIN
1070
    73
1070
     1
1070
    44
1040
1.0
1070
    74
1070
     0
1000
MTEXTEND
1000
MTEXTBEGIN
1070
    73
1070
     1
1070
    44
1040
1.0
1070
    74
1070
     0
1000
MTEXTEND
  0
MTEXT
  5
5687
330
1A
100
AcDbEntity
  8
SUNPOU
100
AcDbMText
 10
78186.60591955537
 20
62981.10603865738
 30
0.0
 40
10.5
 41
0.0
 71
     9
 72
     5
  1

1001
ACAD
1000
MTEXTBEGIN
1070
    73
1070
     1
1070
    44
1040
1.0
1070
    74
1070
     0
1000
MTEXTEND
1000
MTEXTBEGIN
1070
    73
1070
     1
1070
    44
1040
1.0
1070
    74
1070
     0
1000
MTEXTEND
  0
MTEXT
  5
5688
330
1A
100
AcDbEntity
  8
SUNPOU
100
AcDbMText
 10
64238.60581917939
 20
43808.70689954517
 30
0.0
 40
3.5
 41
0.0
 71
     7
 72
     5
  1

1001
ACAD
1000
MTEXTBEGIN
1070
    73
1070
     1
1070
    44
1040
1.0
1070
    74
1070
     0
1000
MTEXTEND
1000
MTEXTBEGIN
1070
    73
1070
     1
1070
    44
1040
1.0
1070
    74
1070
     0
1000
MTEXTEND
  0
MTEXT
  5
5689
330
1A
100
AcDbEntity
  8
SUNPOU
100
AcDbMText
 10
33428.13481137435
 20
32770.04710035564
 30
0.0
 40
10.5
 41
0.0
 71
     9
 72
     5
  1

1001
ACAD
1000
MTEXTBEGIN
1070
    73
1070
     1
1070
    44
1040
1.0
1070
    74
1070
     0
1000
MTEXTEND
1000
MTEXTBEGIN
1070
    73
1070
     1
1070
    44
1040
1.0
1070
    74
1070
     0
1000
MTEXTEND
  0
MTEXT
  5
568A
330
1A
100
AcDbEntity
  8
SUNPOU
100
AcDbMText
 10
52381.89352870432
 20
50236.62315284769
 30
0.0
 40
10.5
 41
0.0
 71
     9
 72
     5
  1

1001
ACAD
1000
MTEXTBEGIN
1070
    73
1070
     1
1070
    44
1040
1.0
1070
    74
1070
     0
1000
MTEXTEND
1000
MTEXTBEGIN
1070
    73
1070
     1
1070
    44
1040
1.0
1070
    74
1070
     0
1000
MTEXTEND
  0
MTEXT
  5
568B
330
1A
100
AcDbEntity
  8
SUNPOU
100
AcDbMText
 10
54325.30077541374
 20
48435.57407296968
 30
0.0
 40
3.5
 41
0.0
 71
     9
 72
     5
  1

1001
ACAD
1000
MTEXTBEGIN
1070
    73
1070
     1
1070
    44
1040
1.0
1070
    74
1070
     0
1000
MTEXTEND
1000
MTEXTBEGIN
1070
    73
1070
     1
1070
    44
1040
1.0
1070
    74
1070
     0
1000
MTEXTEND
  0
MTEXT
  5
568C
330
1A
100
AcDbEntity
  8
SUNPOU
100
AcDbMText
 10
85451.48060803343
 20
90930.51974062703
 30
0.0
 40
10.5
 41
0.0
 71
     9
 72
     5
  1

1001
ACAD
1000
MTEXTBEGIN
1070
    73
1070
     1
1070
    44
1040
1.0
1070
    74
1070
     0
1000
MTEXTEND
1000
MTEXTBEGIN
1070
    73
1070
     1
1070
    44
1040
1.0
1070
    74
1070
     0
1000
MTEXTEND
  0
MTEXT
  5
568D
330
1A
100
AcDbEntity
  8
SUNPOU
100
AcDbMText
 10
87394.88785474286
 20
89129.47066074901
 30
0.0
 40
3.5
 41
0.0
 71
     9
 72
     5
  1

1001
ACAD
1000
MTEXTBEGIN
1070
    73
1070
     1
1070
    44
1040
1.0
1070
    74
1070
     0
1000
MTEXTEND
1000
MTEXTBEGIN
1070
    73
1070
     1
1070
    44
1040
1.0
1070
    74
1070
     0
1000
MTEXTEND
  0
MTEXT
  5
568E
330
1A
100
AcDbEntity
  8
SUNPOU
100
AcDbMText
 10
35891.74831382901
 20
36763.68489560208
 30
0.0
 40
10.5
 41
0.0
 71
     9
 72
     5
  1

1001
ACAD
1000
MTEXTBEGIN
1070
    73
1070
     1
1070
    44
1040
1.0
1070
    74
1070
     0
1000
MTEXTEND
1000
MTEXTBEGIN
1070
    73
1070
     1
1070
    44
1040
1.0
1070
    74
1070
     0
1000
MTEXTEND
  0
MTEXT
  5
568F
330
1A
100
AcDbEntity
  8
SUNPOU
100
AcDbMText
 10
21943.74821345303
 20
17591.28575648986
 30
0.0
 40
3.5
 41
0.0
 71
     7
 72
     5
  1

1001
ACAD
1000
MTEXTBEGIN
1070
    73
1070
     1
1070
    44
1040
1.0
1070
    74
1070
     0
1000
MTEXTEND
1000
MTEXTBEGIN
1070
    73
1070
     1
1070
    44
1040
1.0
1070
    74
1070
     0
1000
MTEXTEND
  0
MTEXT
  5
11084
330
1A
100
AcDbEntity
  8
ZISSEN1
100
AcDbMText
 10
-1108.7416876153
 20
1689.682402445169
 30
0.0
 40
5.0
 41
108.3598999999999
 71
     1
 72
     5
  1
DB-2410BA  No.SS0001f95
1001
ACAD
1000
MTEXTBEGIN
1070
    73
1070
     1
1070
    44
1040
1.0
1070
    74
1070
     0
1000
MTEXTEND
1000
MTEXTBEGIN
1070
    73
1070
     1
1070
    44
1040
1.0
1070
    74
1070
     0
1000
MTEXTEND
1000
MTEXTBEGIN
1070
    73
1070
     1
1070
    44
1040
1.0
1070
    74
1070
     0
1000
MTEXTEND
1000
MTEXTBEGIN
1070
    73
1070
     1
1070
    44
1040
1.0
1070
    74
1070
     0
1000
MTEXTEND
  0
XLINE
  5
126D7
330
1A
100
AcDbEntity
  8
SOUZOUSEN
100
AcDbXline
 10
-2343.442450720007
 20
3248.111410528631
 30
0.0
 11
0.0
 21
1.0
 31
0.0
  0
XLINE
  5
126D8
330
1A
100
AcDbEntity
  8
SOUZOUSEN
100
AcDbXline
 10
-2343.419932224668
 20
3244.179140051123
 30
0.0
 11
0.0
 21
-1.0
 31
0.0
  0
LINE
  5
15039
330
1A
100
AcDbEntity
  8
ZISSEN1
100
AcDbLine
 10
-1053.318055231361
 20
1532.773527651526
 30
0.0
 11
-1053.318055231361
 21
1544.273527651526
 31
0.0
  0
LINE
  5
1503A
330
1A
100
AcDbEntity
  8
ZISSEN1
100
AcDbLine
 10
-1060.118055231361
 20
1534.044475374137
 30
0.0
 11
-1060.118055231361
 21
1544.273527651526
 31
0.0
  0
LINE
  5
15041
330
1A
100
AcDbEntity
  8
ZISSEN1
100
AcDbLine
 10
-1071.818055231362
 20
1544.273527651526
 30
0.0
 11
-1069.818055231362
 21
1544.273527651526
 31
0.0
  0
LINE
  5
15042
330
1A
100
AcDbEntity
  8
ZISSEN1
100
AcDbLine
 10
-1069.818055231362
 20
1544.273527651526
 30
0.0
 11
-1069.818055231362
 21
1532.773527651526
 31
0.0
  0
LINE
  5
15044
330
1A
100
AcDbEntity
  8
ZISSEN1
100
AcDbLine
 10
-1077.218055231362
 20
1544.273527651526
 30
0.0
 11
-1077.218055231362
 21
1532.773527651526
 31
0.0
  0
LINE
  5
15059
330
1A
100
AcDbEntity
  8
ZISSEN1
100
AcDbLine
 10
-1071.318055231362
 20
1532.773527651526
 30
0.0
 11
-1069.818055231362
 21
1532.773527651526
 31
0.0
  0
LINE
  5
1505F
330
1A
100
AcDbEntity
  8
ZISSEN1
100
AcDbLine
 10
-1077.218055231362
 20
1544.273527651526
 30
0.0
 11
-1069.818055231362
 21
1544.273527651526
 31
0.0
  0
LINE
  5
15060
330
1A
100
AcDbEntity
  8
ZISSEN1
100
AcDbLine
 10
-1069.818055231362
 20
1544.273527651526
 30
0.0
 11
-1069.818055231362
 21
1543.273527651526
 31
0.0
  0
LINE
  5
1509F
330
1A
100
AcDbEntity
  8
ZISSEN1
100
AcDbLine
 10
-1052.518055231362
 20
1544.273527651525
 30
0.0
 11
-1052.518055231362
 21
1543.273527651525
 31
0.0
  0
LINE
  5
150A0
330
1A
100
AcDbEntity
  8
ZISSEN1
100
AcDbLine
 10
-1052.518055231362
 20
1543.273527651525
 30
0.0
 11
-1053.318055231361
 21
1543.273527651525
 31
0.0
  0
LINE
  5
150A1
330
1A
100
AcDbEntity
  8
ZISSEN1
100
AcDbLine
 10
-1058.618055231361
 20
1544.273527651525
 30
0.0
 11
-1058.618055231361
 21
1541.273527651525
 31
0.0
  0
LINE
  5
150A2
330
1A
100
AcDbEntity
  8
ZISSEN1
100
AcDbLine
 10
-1058.618055231361
 20
1541.273527651525
 30
0.0
 11
-1053.318055231361
 21
1541.273527651525
 31
0.0
  0
LINE
  5
150A3
330
1A
100
AcDbEntity
  8
ZISSEN1
100
AcDbLine
 10
-1060.118055231361
 20
1544.273527651525
 30
0.0
 11
-1052.518055231362
 21
1544.273527651525
 31
0.0
  0
LINE
  5
150A4
330
1A
100
AcDbEntity
  8
ZISSEN1
100
AcDbLine
 10
-1091.618055231361
 20
1544.273527651526
 30
0.0
 11
-1089.618055231362
 21
1544.273527651526
 31
0.0
  0
LINE
  5
150A5
330
1A
100
AcDbEntity
  8
ZISSEN1
100
AcDbLine
 10
-1089.618055231362
 20
1544.273527651526
 30
0.0
 11
-1089.618055231362
 21
1532.773527651526
 31
0.0
  0
LINE
  5
150A7
330
1A
100
AcDbEntity
  8
ZISSEN1
100
AcDbLine
 10
-1112.018055231361
 20
1544.273527651526
 30
0.0
 11
-1112.018055231361
 21
1532.773527651526
 31
0.0
  0
LINE
  5
150CD
330
1A
100
AcDbEntity
  8
ZISSEN1
100
AcDbLine
 10
-1112.018055231361
 20
1532.773527651526
 30
0.0
 11
-1110.518055231361
 21
1532.773527651526
 31
0.0
  0
LINE
  5
150CE
330
1A
100
AcDbEntity
  8
ZISSEN1
100
AcDbLine
 10
-1091.118055231362
 20
1532.773527651526
 30
0.0
 11
-1089.618055231362
 21
1532.773527651526
 31
0.0
  0
LINE
  5
150DA
330
1A
100
AcDbEntity
  8
ZISSEN1
100
AcDbLine
 10
-1112.018055231361
 20
1544.273527651526
 30
0.0
 11
-1089.618055231362
 21
1544.273527651526
 31
0.0
  0
LINE
  5
150DB
330
1A
100
AcDbEntity
  8
ZISSEN1
100
AcDbLine
 10
-1089.618055231362
 20
1544.273527651526
 30
0.0
 11
-1089.618055231362
 21
1543.273527651526
 31
0.0
  0
LINE
  5
15189
330
1A
100
AcDbEntity
  8
ZISSEN1
100
AcDbLine
 10
-1053.018055231363
 20
1585.073527651525
 30
0.0
 11
-1114.018055231363
 21
1585.073527651525
 31
0.0
  0
LINE
  5
1518A
330
1A
100
AcDbEntity
  8
ZISSEN1
100
AcDbLine
 10
-1118.018055231363
 20
1578.573527651525
 30
0.0
 11
-1118.018055231363
 21
1648.573527651525
 31
0.0
  0
LINE
  5
1518B
330
1A
100
AcDbEntity
  8
ZISSEN1
100
AcDbLine
 10
-1118.018055231363
 20
1648.573527651525
 30
0.0
 11
-1115.018055231363
 21
1648.573527651525
 31
0.0
  0
LINE
  5
1518C
330
1A
100
AcDbEntity
  8
ZISSEN1
100
AcDbLine
 10
-1053.018055231364
 20
1642.073527651525
 30
0.0
 11
-1052.018055231364
 21
1641.073527651525
 31
0.0
  0
LINE
  5
1518D
330
1A
100
AcDbEntity
  8
ZISSEN1
100
AcDbLine
 10
-1052.018055231364
 20
1641.073527651525
 30
0.0
 11
-1052.018055231363
 21
1624.073527651525
 31
0.0
  0
LINE
  5
1518E
330
1A
100
AcDbEntity
  8
ZISSEN1
100
AcDbLine
 10
-1052.018055231363
 20
1624.073527651525
 30
0.0
 11
-1052.518055231364
 21
1624.073527651525
 31
0.0
  0
LINE
  5
1518F
330
1A
100
AcDbEntity
  8
ZISSEN1
100
AcDbLine
 10
-1115.018055231363
 20
1578.573527651525
 30
0.0
 11
-1115.018055231363
 21
1648.573527651525
 31
0.0
  0
LINE
  5
15190
330
1A
100
AcDbEntity
  8
ZISSEN1
100
AcDbLine
 10
-1115.018055231363
 20
1648.573527651525
 30
0.0
 11
-1118.018055231363
 21
1648.573527651525
 31
0.0
  0
LINE
  5
15191
330
1A
100
AcDbEntity
  8
ZISSEN1
100
AcDbLine
 10
-1115.018055231363
 20
1647.573527651525
 30
0.0
 11
-1118.018055231363
 21
1647.573527651525
 31
0.0
  0
LINE
  5
15192
330
1A
100
AcDbEntity
  8
ZISSEN1
100
AcDbLine
 10
-1115.018055231363
 20
1579.573527651525
 30
0.0
 11
-1118.018055231363
 21
1579.573527651525
 31
0.0
  0
LINE
  5
15196
330
1A
100
AcDbEntity
  8
ZISSEN1
100
AcDbLine
 10
-1052.518055231364
 20
1604.573527651525
 30
0.0
 11
-1052.018055231363
 21
1604.573527651525
 31
0.0
  0
LINE
  5
15197
330
1A
100
AcDbEntity
  8
ZISSEN1
100
AcDbLine
 10
-1052.018055231363
 20
1604.573527651525
 30
0.0
 11
-1052.018055231364
 21
1586.073527651525
 31
0.0
  0
LINE
  5
15198
330
1A
100
AcDbEntity
  8
ZISSEN1
100
AcDbLine
 10
-1052.018055231364
 20
1586.073527651525
 30
0.0
 11
-1053.018055231364
 21
1585.073527651525
 31
0.0
  0
LINE
  5
1519C
330
1A
100
AcDbEntity
  8
ZISSEN1
100
AcDbLine
 10
-1115.018055231363
 20
1578.573527651525
 30
0.0
 11
-1118.018055231363
 21
1578.573527651525
 31
0.0
  0
LINE
  5
1519D
330
1A
100
AcDbEntity
  8
ZISSEN1
100
AcDbLine
 10
-1114.018055231363
 20
1642.073527651525
 30
0.0
 11
-1053.018055231365
 21
1642.073527651526
 31
0.0
  0
LINE
  5
151A3
330
1A
100
AcDbEntity
  8
ZISSEN1
100
AcDbLine
 10
-1114.518055231363
 20
1585.573527651525
 30
0.0
 11
-1114.018055231363
 21
1585.073527651525
 31
0.0
  0
LINE
  5
151A4
330
1A
100
AcDbEntity
  8
ZISSEN1
100
AcDbLine
 10
-1114.018055231363
 20
1642.073527651525
 30
0.0
 11
-1114.518055231363
 21
1641.573527651525
 31
0.0
  0
LINE
  5
151CD
330
1A
100
AcDbEntity
  8
ZISSEN1
100
AcDbLine
 10
-1053.518055231363
 20
1585.573527651525
 30
0.0
 11
-1115.018055231363
 21
1585.573527651525
 31
0.0
  0
LINE
  5
151CF
330
1A
100
AcDbEntity
  8
ZISSEN1
100
AcDbLine
 10
-1115.018055231363
 20
1641.573527651525
 30
0.0
 11
-1053.518055231363
 21
1641.573527651526
 31
0.0
  0
LINE
  5
151D0
330
1A
100
AcDbEntity
  8
ZISSEN1
100
AcDbLine
 10
-1052.518055231363
 20
1640.573527651526
 30
0.0
 11
-1052.518055231363
 21
1586.573527651525
 31
0.0
  0
ARC
  5
151D1
330
1A
100
AcDbEntity
  8
ZISSEN1
100
AcDbCircle
 10
-1052.518055231363
 20
1641.573527651526
 30
0.0
 40
0.9999999999995452
100
AcDbArc
 50
179.9999999999739
 51
270.0
  0
ARC
  5
151D2
330
1A
100
AcDbEntity
  8
ZISSEN1
100
AcDbCircle
 10
-1052.518055231364
 20
1585.573527651526
 30
0.0
 40
0.9999999999997681
100
AcDbArc
 50
89.99999999994788
 51
180.000000000013
  0
LINE
  5
151D3
330
1A
100
AcDbEntity
  8
ZISSEN1
100
AcDbLine
 10
-1114.518055231363
 20
1589.573527651525
 30
0.0
 11
-1114.518055231363
 21
1637.573527651525
 31
0.0
  0
LINE
  5
151D4
330
1A
100
AcDbEntity
  8
ZISSEN1
100
AcDbLine
 10
-1114.518055231363
 20
1637.573527651525
 30
0.0
 11
-1115.018055231363
 21
1637.573527651525
 31
0.0
  0
LINE
  5
151D5
330
1A
100
AcDbEntity
  8
ZISSEN1
100
AcDbLine
 10
-1114.518055231363
 20
1589.573527651525
 30
0.0
 11
-1115.018055231363
 21
1589.573527651525
 31
0.0
  0
LINE
  5
151DA
330
1A
100
AcDbEntity
  8
ZISSEN1
100
AcDbLine
 10
-1089.618055231363
 20
1641.571451569582
 30
0.0
 11
-1089.618055231363
 21
1634.771451569582
 31
0.0
  0
LINE
  5
151EA
330
1A
100
AcDbEntity
  8
ZISSEN1
100
AcDbLine
 10
-1089.618055231363
 20
1634.771451569582
 30
0.0
 11
-1096.618055231363
 21
1634.771451569582
 31
0.0
  0
LINE
  5
151F9
330
1A
100
AcDbEntity
  8
ZISSEN1
100
AcDbLine
 10
-1112.018055231363
 20
1641.571451569582
 30
0.0
 11
-1089.618055231363
 21
1641.571451569582
 31
0.0
  0
LINE
  5
15205
330
1A
100
AcDbEntity
  8
ZISSEN1
100
AcDbLine
 10
-1083.522248331926
 20
1640.571451569582
 30
0.0
 11
-1087.122248331927
 21
1640.571451569582
 31
0.0
  0
LINE
  5
15206
330
1A
100
AcDbEntity
  8
ZISSEN1
100
AcDbLine
 10
-1087.122248331927
 20
1633.171451569582
 30
0.0
 11
-1083.522248331926
 21
1633.171451569582
 31
0.0
  0
LINE
  5
15207
330
1A
100
AcDbEntity
  8
ZISSEN1
100
AcDbLine
 10
-1083.522248331926
 20
1633.171451569582
 30
0.0
 11
-1083.522248331926
 21
1640.571451569582
 31
0.0
  0
LINE
  5
1520E
330
1A
100
AcDbEntity
  8
ZISSEN1
100
AcDbLine
 10
-1087.122248331927
 20
1633.171451569582
 30
0.0
 11
-1087.122248331927
 21
1640.571451569582
 31
0.0
  0
LWPOLYLINE
  5
15230
330
1A
100
AcDbEntity
  8
ZISSEN1
100
AcDbPolyline
 90
        4
 70
     1
 43
0.0
 10
-1080.422248331926
 20
1633.991451569583
 10
-1073.822248331927
 20
1633.991451569583
 10
-1073.822248331927
 20
1639.071451569583
 10
-1080.422248331926
 20
1639.071451569583
  0
LWPOLYLINE
  5
15231
330
1A
100
AcDbEntity
  8
ZISSEN1
100
AcDbPolyline
 90
        4
 70
     1
 43
0.0
 10
-1076.782553187738
 20
1638.031451569582
 10
-1076.182553187738
 20
1638.031451569582
 10
-1076.182553187738
 20
1635.031451569582
 10
-1076.782553187738
 20
1635.031451569582
  0
LWPOLYLINE
  5
15232
330
1A
100
AcDbEntity
  8
ZISSEN1
100
AcDbPolyline
 90
        4
 70
     1
 43
0.0
 10
-1075.510477105795
 20
1638.031451569582
 10
-1074.910477105795
 20
1638.031451569582
 10
-1074.910477105795
 20
1635.031451569582
 10
-1075.510477105795
 20
1635.031451569582
  0
LWPOLYLINE
  5
15233
330
1A
100
AcDbEntity
  8
ZISSEN1
100
AcDbPolyline
 90
        4
 70
     1
 43
0.0
 10
-1078.050477105795
 20
1638.031451569582
 10
-1077.450477105795
 20
1638.031451569582
 10
-1077.450477105795
 20
1635.031451569582
 10
-1078.050477105795
 20
1635.031451569582
  0
LWPOLYLINE
  5
15234
330
1A
100
AcDbEntity
  8
ZISSEN1
100
AcDbPolyline
 90
        4
 70
     1
 43
0.0
 10
-1079.322553187738
 20
1638.031451569582
 10
-1078.722553187738
 20
1638.031451569582
 10
-1078.722553187738
 20
1635.031451569582
 10
-1079.322553187738
 20
1635.031451569582
  0
LWPOLYLINE
  5
15239
330
1A
100
AcDbEntity
  8
ZISSEN1
100
AcDbPolyline
 90
        4
 70
     1
 43
0.0
 10
-1080.422248331926
 20
1633.831451569583
 10
-1073.822248331927
 20
1633.831451569583
 10
-1073.822248331927
 20
1639.231451569583
 10
-1080.422248331926
 20
1639.231451569583
  0
LWPOLYLINE
  5
1549D
330
1A
100
AcDbEntity
  8
ZISSEN1
100
AcDbPolyline
 90
        4
 70
     1
 43
0.0
 10
-1073.322248331926
 20
1633.991451569583
 10
-1066.722248331927
 20
1633.991451569583
 10
-1066.722248331927
 20
1639.071451569583
 10
-1073.322248331926
 20
1639.071451569583
  0
LWPOLYLINE
  5
1549E
330
1A
100
AcDbEntity
  8
ZISSEN1
100
AcDbPolyline
 90
        4
 70
     1
 43
0.0
 10
-1069.682553187738
 20
1638.031451569582
 10
-1069.082553187738
 20
1638.031451569582
 10
-1069.082553187738
 20
1635.031451569582
 10
-1069.682553187738
 20
1635.031451569582
  0
LWPOLYLINE
  5
1549F
330
1A
100
AcDbEntity
  8
ZISSEN1
100
AcDbPolyline
 90
        4
 70
     1
 43
0.0
 10
-1068.410477105795
 20
1638.031451569582
 10
-1067.810477105795
 20
1638.031451569582
 10
-1067.810477105795
 20
1635.031451569582
 10
-1068.410477105795
 20
1635.031451569582
  0
LWPOLYLINE
  5
154A0
330
1A
100
AcDbEntity
  8
ZISSEN1
100
AcDbPolyline
 90
        4
 70
     1
 43
0.0
 10
-1070.950477105796
 20
1638.031451569582
 10
-1070.350477105796
 20
1638.031451569582
 10
-1070.350477105796
 20
1635.031451569582
 10
-1070.950477105796
 20
1635.031451569582
  0
LWPOLYLINE
  5
154A1
330
1A
100
AcDbEntity
  8
ZISSEN1
100
AcDbPolyline
 90
        4
 70
     1
 43
0.0
 10
-1072.222553187739
 20
1638.031451569582
 10
-1071.622553187739
 20
1638.031451569582
 10
-1071.622553187739
 20
1635.031451569582
 10
-1072.222553187739
 20
1635.031451569582
  0
LWPOLYLINE
  5
154A6
330
1A
100
AcDbEntity
  8
ZISSEN1
100
AcDbPolyline
 90
        4
 70
     1
 43
0.0
 10
-1073.322248331926
 20
1633.831451569583
 10
-1066.722248331927
 20
1633.831451569583
 10
-1066.722248331927
 20
1639.231451569583
 10
-1073.322248331926
 20
1639.231451569583
  0
LINE
  5
154AD
330
1A
100
AcDbEntity
  8
ZISSEN1
  6
CONTINUOUS
100
AcDbLine
 10
-1060.618055231362
 20
1588.173527651525
 30
0.0
 11
-1059.518055231362
 21
1588.173527651525
 31
0.0
  0
LINE
  5
154AE
330
1A
100
AcDbEntity
  8
ZISSEN1
  6
CONTINUOUS
100
AcDbLine
 10
-1059.518055231362
 20
1588.973527651526
 30
0.0
 11
-1060.618055231362
 21
1588.973527651526
 31
0.0
  0
LINE
  5
154AF
330
1A
100
AcDbEntity
  8
ZISSEN1
  6
CONTINUOUS
100
AcDbLine
 10
-1060.618055231362
 20
1588.973527651526
 30
0.0
 11
-1060.618055231362
 21
1590.073527651526
 31
0.0
  0
LINE
  5
154B0
330
1A
100
AcDbEntity
  8
ZISSEN1
  6
CONTINUOUS
100
AcDbLine
 10
-1061.418055231363
 20
1590.073527651526
 30
0.0
 11
-1061.418055231363
 21
1588.973527651526
 31
0.0
  0
LINE
  5
154B1
330
1A
100
AcDbEntity
  8
ZISSEN1
  6
CONTINUOUS
100
AcDbLine
 10
-1060.618055231362
 20
1590.073527651526
 30
0.0
 11
-1061.018055231362
 21
1590.073527651526
 31
0.0
  0
LINE
  5
154B2
330
1A
100
AcDbEntity
  8
ZISSEN1
  6
CONTINUOUS
100
AcDbLine
 10
-1061.018055231362
 20
1590.073527651526
 30
0.0
 11
-1061.418055231363
 21
1590.073527651526
 31
0.0
  0
LINE
  5
154B3
330
1A
100
AcDbEntity
  8
ZISSEN1
  6
CONTINUOUS
100
AcDbLine
 10
-1062.518055231362
 20
1588.973527651526
 30
0.0
 11
-1061.418055231363
 21
1588.973527651526
 31
0.0
  0
LINE
  5
154B4
330
1A
100
AcDbEntity
  8
ZISSEN1
  6
CONTINUOUS
100
AcDbLine
 10
-1061.418055231363
 20
1588.173527651525
 30
0.0
 11
-1062.518055231362
 21
1588.173527651525
 31
0.0
  0
LINE
  5
154B5
330
1A
100
AcDbEntity
  8
ZISSEN1
  6
CONTINUOUS
100
AcDbLine
 10
-1061.418055231363
 20
1587.073527651525
 30
0.0
 11
-1061.418055231363
 21
1588.173527651525
 31
0.0
  0
LINE
  5
154B6
330
1A
100
AcDbEntity
  8
ZISSEN1
  6
CONTINUOUS
100
AcDbLine
 10
-1060.618055231362
 20
1588.173527651525
 30
0.0
 11
-1060.618055231362
 21
1587.073527651525
 31
0.0
  0
LINE
  5
154B7
330
1A
100
AcDbEntity
  8
ZISSEN1
  6
CONTINUOUS
100
AcDbLine
 10
-1062.518055231362
 20
1588.173527651525
 30
0.0
 11
-1062.518055231362
 21
1588.573527651525
 31
0.0
  0
LINE
  5
154B8
330
1A
100
AcDbEntity
  8
ZISSEN1
  6
CONTINUOUS
100
AcDbLine
 10
-1062.518055231362
 20
1588.573527651525
 30
0.0
 11
-1062.518055231362
 21
1588.973527651526
 31
0.0
  0
LINE
  5
154B9
330
1A
100
AcDbEntity
  8
ZISSEN1
  6
CONTINUOUS
100
AcDbLine
 10
-1061.018055231362
 20
1587.073527651525
 30
0.0
 11
-1061.418055231363
 21
1587.073527651525
 31
0.0
  0
LINE
  5
154BA
330
1A
100
AcDbEntity
  8
ZISSEN1
  6
CONTINUOUS
100
AcDbLine
 10
-1060.618055231362
 20
1587.073527651525
 30
0.0
 11
-1061.018055231362
 21
1587.073527651525
 31
0.0
  0
LINE
  5
154BB
330
1A
100
AcDbEntity
  8
ZISSEN1
  6
CONTINUOUS
100
AcDbLine
 10
-1059.518055231362
 20
1588.573527651525
 30
0.0
 11
-1059.518055231362
 21
1588.973527651526
 31
0.0
  0
LINE
  5
154BC
330
1A
100
AcDbEntity
  8
ZISSEN1
  6
CONTINUOUS
100
AcDbLine
 10
-1059.518055231362
 20
1588.173527651525
 30
0.0
 11
-1059.518055231362
 21
1588.573527651525
 31
0.0
  0
CIRCLE
  5
154BD
330
1A
100
AcDbEntity
  8
ZISSEN1
  6
CONTINUOUS
100
AcDbCircle
 10
-1061.018055231363
 20
1588.573527651526
 30
0.0
 40
2.75
  0
LINE
  5
154BF
330
1A
100
AcDbEntity
  8
ZISSEN1
  6
CONTINUOUS
100
AcDbLine
 10
-1060.618055231362
 20
1638.173527651525
 30
0.0
 11
-1059.518055231362
 21
1638.173527651525
 31
0.0
  0
LINE
  5
154C0
330
1A
100
AcDbEntity
  8
ZISSEN1
  6
CONTINUOUS
100
AcDbLine
 10
-1059.518055231362
 20
1638.973527651526
 30
0.0
 11
-1060.618055231362
 21
1638.973527651526
 31
0.0
  0
LINE
  5
154C1
330
1A
100
AcDbEntity
  8
ZISSEN1
  6
CONTINUOUS
100
AcDbLine
 10
-1060.618055231362
 20
1638.973527651526
 30
0.0
 11
-1060.618055231362
 21
1640.073527651526
 31
0.0
  0
LINE
  5
154C2
330
1A
100
AcDbEntity
  8
ZISSEN1
  6
CONTINUOUS
100
AcDbLine
 10
-1061.418055231363
 20
1640.073527651526
 30
0.0
 11
-1061.418055231363
 21
1638.973527651526
 31
0.0
  0
LINE
  5
154C3
330
1A
100
AcDbEntity
  8
ZISSEN1
  6
CONTINUOUS
100
AcDbLine
 10
-1060.618055231362
 20
1640.073527651526
 30
0.0
 11
-1061.018055231362
 21
1640.073527651526
 31
0.0
  0
LINE
  5
154C4
330
1A
100
AcDbEntity
  8
ZISSEN1
  6
CONTINUOUS
100
AcDbLine
 10
-1061.018055231362
 20
1640.073527651526
 30
0.0
 11
-1061.418055231363
 21
1640.073527651526
 31
0.0
  0
LINE
  5
154C5
330
1A
100
AcDbEntity
  8
ZISSEN1
  6
CONTINUOUS
100
AcDbLine
 10
-1062.518055231362
 20
1638.973527651526
 30
0.0
 11
-1061.418055231363
 21
1638.973527651526
 31
0.0
  0
LINE
  5
154C6
330
1A
100
AcDbEntity
  8
ZISSEN1
  6
CONTINUOUS
100
AcDbLine
 10
-1061.418055231363
 20
1638.173527651525
 30
0.0
 11
-1062.518055231362
 21
1638.173527651525
 31
0.0
  0
LINE
  5
154C7
330
1A
100
AcDbEntity
  8
ZISSEN1
  6
CONTINUOUS
100
AcDbLine
 10
-1061.418055231363
 20
1637.073527651525
 30
0.0
 11
-1061.418055231363
 21
1638.173527651525
 31
0.0
  0
LINE
  5
154C8
330
1A
100
AcDbEntity
  8
ZISSEN1
  6
CONTINUOUS
100
AcDbLine
 10
-1060.618055231362
 20
1638.173527651525
 30
0.0
 11
-1060.618055231362
 21
1637.073527651525
 31
0.0
  0
LINE
  5
154C9
330
1A
100
AcDbEntity
  8
ZISSEN1
  6
CONTINUOUS
100
AcDbLine
 10
-1062.518055231362
 20
1638.173527651525
 30
0.0
 11
-1062.518055231362
 21
1638.573527651525
 31
0.0
  0
LINE
  5
154CA
330
1A
100
AcDbEntity
  8
ZISSEN1
  6
CONTINUOUS
100
AcDbLine
 10
-1062.518055231362
 20
1638.573527651525
 30
0.0
 11
-1062.518055231362
 21
1638.973527651526
 31
0.0
  0
LINE
  5
154CB
330
1A
100
AcDbEntity
  8
ZISSEN1
  6
CONTINUOUS
100
AcDbLine
 10
-1061.018055231362
 20
1637.073527651525
 30
0.0
 11
-1061.418055231363
 21
1637.073527651525
 31
0.0
  0
LINE
  5
154CC
330
1A
100
AcDbEntity
  8
ZISSEN1
  6
CONTINUOUS
100
AcDbLine
 10
-1060.618055231362
 20
1637.073527651525
 30
0.0
 11
-1061.018055231362
 21
1637.073527651525
 31
0.0
  0
LINE
  5
154CD
330
1A
100
AcDbEntity
  8
ZISSEN1
  6
CONTINUOUS
100
AcDbLine
 10
-1059.518055231362
 20
1638.573527651525
 30
0.0
 11
-1059.518055231362
 21
1638.973527651526
 31
0.0
  0
LINE
  5
154CE
330
1A
100
AcDbEntity
  8
ZISSEN1
  6
CONTINUOUS
100
AcDbLine
 10
-1059.518055231362
 20
1638.173527651525
 30
0.0
 11
-1059.518055231362
 21
1638.573527651525
 31
0.0
  0
CIRCLE
  5
154CF
330
1A
100
AcDbEntity
  8
ZISSEN1
  6
CONTINUOUS
100
AcDbCircle
 10
-1061.018055231363
 20
1638.573527651526
 30
0.0
 40
2.75
  0
LINE
  5
157E6
330
1A
100
AcDbEntity
  8
ZISSEN1
100
AcDbLine
 10
-1060.118055231363
 20
1610.623527651525
 30
0.0
 11
-1053.318055231363
 21
1610.623527651525
 31
0.0
  0
LINE
  5
157EE
330
1A
100
AcDbEntity
  8
ZISSEN1
100
AcDbLine
 10
-1053.318055231363
 20
1623.023527651525
 30
0.0
 11
-1060.118055231363
 21
1623.023527651525
 31
0.0
  0
LINE
  5
15832
330
1A
100
AcDbEntity
  8
ZISSEN1
100
AcDbLine
 10
-1072.268055231363
 20
1592.769258873083
 30
0.0
 11
-1074.768055231363
 21
1592.769258873083
 31
0.0
  0
LINE
  5
15833
330
1A
100
AcDbEntity
  8
ZISSEN1
100
AcDbLine
 10
-1075.368055231363
 20
1593.369258873083
 30
0.0
 11
-1071.668055231363
 21
1593.369258873083
 31
0.0
  0
LINE
  5
15834
330
1A
100
AcDbEntity
  8
ZISSEN1
100
AcDbLine
 10
-1070.668055231363
 20
1597.969258873083
 30
0.0
 11
-1076.368055231363
 21
1597.969258873082
 31
0.0
  0
LINE
  5
15835
330
1A
100
AcDbEntity
  8
ZISSEN1
100
AcDbLine
 10
-1069.818055231364
 20
1598.669258873082
 30
0.0
 11
-1077.218055231363
 21
1598.669258873082
 31
0.0
  0
LINE
  5
15837
330
1A
100
AcDbEntity
  8
ZISSEN1
100
AcDbLine
 10
-1070.668055231363
 20
1592.569258873083
 30
0.0
 11
-1070.668055231363
 21
1597.969258873083
 31
0.0
  0
LINE
  5
15838
330
1A
100
AcDbEntity
  8
ZISSEN1
100
AcDbLine
 10
-1071.668055231363
 20
1593.369258873083
 30
0.0
 11
-1071.668055231363
 21
1592.569258873083
 31
0.0
  0
LINE
  5
15839
330
1A
100
AcDbEntity
  8
ZISSEN1
100
AcDbLine
 10
-1071.668055231363
 20
1592.569258873083
 30
0.0
 11
-1070.668055231363
 21
1592.569258873083
 31
0.0
  0
LINE
  5
1583A
330
1A
100
AcDbEntity
  8
ZISSEN1
100
AcDbLine
 10
-1072.268055231363
 20
1591.869258873083
 30
0.0
 11
-1072.268055231363
 21
1592.769258873083
 31
0.0
  0
LINE
  5
1583C
330
1A
100
AcDbEntity
  8
ZISSEN1
100
AcDbLine
 10
-1072.268055231363
 20
1591.869258873083
 30
0.0
 11
-1069.818055231364
 21
1591.869258873083
 31
0.0
  0
LINE
  5
1583E
330
1A
100
AcDbEntity
  8
ZISSEN1
100
AcDbLine
 10
-1076.368055231363
 20
1592.569258873083
 30
0.0
 11
-1076.368055231363
 21
1597.969258873082
 31
0.0
  0
LINE
  5
1583F
330
1A
100
AcDbEntity
  8
ZISSEN1
100
AcDbLine
 10
-1076.368055231363
 20
1597.969258873082
 30
0.0
 11
-1076.368055231363
 21
1592.569258873083
 31
0.0
  0
LINE
  5
15840
330
1A
100
AcDbEntity
  8
ZISSEN1
100
AcDbLine
 10
-1076.368055231363
 20
1597.969258873082
 30
0.0
 11
-1076.368055231363
 21
1592.569258873083
 31
0.0
  0
LINE
  5
15841
330
1A
100
AcDbEntity
  8
ZISSEN1
100
AcDbLine
 10
-1077.218055231363
 20
1598.669258873082
 30
0.0
 11
-1077.218055231363
 21
1591.869258873083
 31
0.0
  0
LINE
  5
15842
330
1A
100
AcDbEntity
  8
ZISSEN1
100
AcDbLine
 10
-1076.368055231363
 20
1592.569258873083
 30
0.0
 11
-1075.368055231363
 21
1592.569258873083
 31
0.0
  0
LINE
  5
15843
330
1A
100
AcDbEntity
  8
ZISSEN1
100
AcDbLine
 10
-1075.368055231363
 20
1592.569258873083
 30
0.0
 11
-1075.368055231363
 21
1593.369258873083
 31
0.0
  0
LINE
  5
15844
330
1A
100
AcDbEntity
  8
ZISSEN1
100
AcDbLine
 10
-1074.768055231363
 20
1592.769258873083
 30
0.0
 11
-1074.768055231363
 21
1591.869258873083
 31
0.0
  0
LINE
  5
15846
330
1A
100
AcDbEntity
  8
ZISSEN1
100
AcDbLine
 10
-1077.218055231363
 20
1591.869258873083
 30
0.0
 11
-1074.768055231363
 21
1591.869258873083
 31
0.0
  0
LWPOLYLINE
  5
15847
330
1A
100
AcDbEntity
  8
ZISSEN1
100
AcDbPolyline
 90
        4
 70
     1
 43
0.0
 10
-1072.893055231363
 20
1592.169258873083
 10
-1074.143055231363
 20
1592.169258873083
 10
-1074.143055231363
 20
1592.769258873083
 10
-1072.893055231363
 20
1592.769258873083
  0
LINE
  5
1584B
330
1A
100
AcDbEntity
  8
ZISSEN1
100
AcDbLine
 10
-1069.818055231364
 20
1591.869258873083
 30
0.0
 11
-1069.818055231364
 21
1598.669258873083
 31
0.0
  0
LINE
  5
1593F
330
1A
100
AcDbEntity
  8
ZISSEN1
100
AcDbLine
 10
-1070.518055231364
 20
1585.573527651526
 30
0.0
 11
-1053.518055231364
 21
1585.573527651526
 31
0.0
  0
LINE
  5
15940
330
1A
100
AcDbEntity
  8
ZISSEN1
100
AcDbLine
 10
-1053.518055231364
 20
1585.573527651526
 30
0.0
 11
-1052.518055231364
 21
1586.573527651526
 31
0.0
  0
LINE
  5
15941
330
1A
100
AcDbEntity
  8
ZISSEN1
100
AcDbLine
 10
-1052.518055231364
 20
1586.573527651526
 30
0.0
 11
-1052.518055231364
 21
1606.073527651526
 31
0.0
  0
LINE
  5
15942
330
1A
100
AcDbEntity
  8
ZISSEN1
100
AcDbLine
 10
-1053.518055231364
 20
1641.573527651526
 30
0.0
 11
-1052.518055231364
 21
1640.573527651526
 31
0.0
  0
LINE
  5
15943
330
1A
100
AcDbEntity
  8
ZISSEN1
100
AcDbLine
 10
-1052.518055231364
 20
1640.573527651526
 30
0.0
 11
-1052.518055231364
 21
1622.573527651526
 31
0.0
  0
LINE
  5
1594D
330
1A
100
AcDbEntity
  8
SOUZOUSEN
  6
DASHEDX2
 48
0.5
100
AcDbLine
 10
-1115.018055231363
 20
1643.323527651526
 30
0.0
 11
-1118.018055231363
 21
1643.323527651526
 31
0.0
  0
LINE
  5
1594E
330
1A
100
AcDbEntity
  8
SOUZOUSEN
  6
DASHEDX2
 48
0.5
100
AcDbLine
 10
-1115.018055231363
 20
1583.823527651525
 30
0.0
 11
-1118.018055231363
 21
1583.823527651525
 31
0.0
  0
LINE
  5
15951
330
1A
100
AcDbEntity
  8
ZISSEN1
100
AcDbLine
 10
-1007.018055231363
 20
1648.573527651524
 30
0.0
 11
-997.7680552313632
 21
1648.573527651524
 31
0.0
  0
LINE
  5
15952
330
1A
100
AcDbEntity
  8
ZISSEN1
100
AcDbLine
 10
-990.5180552313632
 20
1642.073527651525
 30
0.0
 11
-990.5180552313632
 21
1585.073527651524
 31
0.0
  0
LINE
  5
15953
330
1A
100
AcDbEntity
  8
ZISSEN1
100
AcDbLine
 10
-984.0180552313631
 20
1585.073527651524
 30
0.0
 11
-990.5180552313632
 21
1585.073527651524
 31
0.0
  0
LINE
  5
15954
330
1A
100
AcDbEntity
  8
ZISSEN1
100
AcDbLine
 10
-988.0180552313632
 20
1648.573527651524
 30
0.0
 11
-987.0180552313632
 21
1647.573527651524
 31
0.0
  0
LINE
  5
15955
330
1A
100
AcDbEntity
  8
ZISSEN1
100
AcDbLine
 10
-1008.018055231363
 20
1647.573527651524
 30
0.0
 11
-1007.018055231363
 21
1648.573527651524
 31
0.0
  0
LINE
  5
15956
330
1A
100
AcDbEntity
  8
ZISSEN1
100
AcDbLine
 10
-1008.018055231363
 20
1647.573527651524
 30
0.0
 11
-1008.018055231363
 21
1579.573527651524
 31
0.0
  0
LINE
  5
15957
330
1A
100
AcDbEntity
  8
ZISSEN1
100
AcDbLine
 10
-987.0180552313632
 20
1647.573527651524
 30
0.0
 11
-987.0180552313632
 21
1642.073527651525
 31
0.0
  0
LINE
  5
15958
330
1A
100
AcDbEntity
  8
ZISSEN1
100
AcDbLine
 10
-990.5180552313632
 20
1642.073527651525
 30
0.0
 11
-984.0180552313631
 21
1642.073527651525
 31
0.0
  0
LINE
  5
15959
330
1A
100
AcDbEntity
  8
ZISSEN1
100
AcDbLine
 10
-997.7680552313632
 20
1648.573527651524
 30
0.0
 11
-997.7680552313632
 21
1645.073527651524
 31
0.0
  0
LINE
  5
1595A
330
1A
100
AcDbEntity
  8
ZISSEN1
100
AcDbLine
 10
-994.2680552313632
 20
1648.573527651524
 30
0.0
 11
-994.2680552313632
 21
1645.073527651524
 31
0.0
  0
ARC
  5
1595B
330
1A
100
AcDbEntity
  8
ZISSEN1
100
AcDbCircle
 10
-996.018055231363
 20
1645.073527651525
 30
0.0
 40
1.75
100
AcDbArc
 50
180.000000000013
 51
359.9999999999739
  0
LINE
  5
1595C
330
1A
100
AcDbEntity
  8
ZISSEN1
100
AcDbLine
 10
-997.7680552313632
 20
1578.573527651524
 30
0.0
 11
-997.7680552313632
 21
1582.073527651524
 31
0.0
  0
LINE
  5
1595D
330
1A
100
AcDbEntity
  8
ZISSEN1
100
AcDbLine
 10
-994.2680552313632
 20
1578.573527651524
 30
0.0
 11
-994.2680552313632
 21
1582.073527651524
 31
0.0
  0
ARC
  5
1595E
330
1A
100
AcDbEntity
  8
ZISSEN1
100
AcDbCircle
 10
-996.0180552313632
 20
1582.073527651524
 30
0.0
 40
1.75
100
AcDbArc
 50
0.0000000000130148
 51
179.9999999999869
  0
LINE
  5
1595F
330
1A
100
AcDbEntity
  8
ZISSEN1
100
AcDbLine
 10
-997.7680552313632
 20
1578.573527651525
 30
0.0
 11
-1007.018055231363
 21
1578.573527651524
 31
0.0
  0
LINE
  5
15960
330
1A
100
AcDbEntity
  8
ZISSEN1
100
AcDbLine
 10
-990.5180552313632
 20
1641.073527651524
 30
0.0
 11
-987.5180552313631
 21
1641.073527651524
 31
0.0
  0
LINE
  5
15962
330
1A
100
AcDbEntity
  8
ZISSEN1
100
AcDbLine
 10
-987.5180552313631
 20
1586.073527651524
 30
0.0
 11
-990.5180552313632
 21
1586.073527651524
 31
0.0
  0
LINE
  5
1596A
330
1A
100
AcDbEntity
  8
ZISSEN1
100
AcDbLine
 10
-988.0180552313632
 20
1578.573527651524
 30
0.0
 11
-994.2680552313632
 21
1578.573527651525
 31
0.0
  0
LINE
  5
1596C
330
1A
100
AcDbEntity
  8
ZISSEN1
100
AcDbLine
 10
-994.2680552313632
 20
1648.573527651524
 30
0.0
 11
-988.0180552313632
 21
1648.573527651524
 31
0.0
  0
LINE
  5
15971
330
1A
100
AcDbEntity
  8
ZISSEN1
100
AcDbLine
 10
-988.0180552313632
 20
1578.573527651524
 30
0.0
 11
-987.0180552313632
 21
1579.573527651524
 31
0.0
  0
LINE
  5
15972
330
1A
100
AcDbEntity
  8
ZISSEN1
100
AcDbLine
 10
-1008.018055231363
 20
1579.573527651524
 30
0.0
 11
-1007.018055231363
 21
1578.573527651524
 31
0.0
  0
LINE
  5
15973
330
1A
100
AcDbEntity
  8
ZISSEN1
100
AcDbLine
 10
-984.0180552313631
 20
1642.073527651525
 30
0.0
 11
-984.0180552313631
 21
1585.073527651524
 31
0.0
  0
LINE
  5
15974
330
1A
100
AcDbEntity
  8
ZISSEN1
100
AcDbLine
 10
-987.5180552313631
 20
1642.073527651525
 30
0.0
 11
-987.5180552313631
 21
1585.073527651524
 31
0.0
  0
LINE
  5
15977
330
1A
100
AcDbEntity
  8
ZISSEN1
100
AcDbLine
 10
-987.0180552313632
 20
1585.073527651524
 30
0.0
 11
-987.0180552313632
 21
1579.573527651524
 31
0.0
  0
LINE
  5
15986
330
1A
100
AcDbEntity
  8
ZISSEN1
100
AcDbLine
 10
-1118.018055231361
 20
1548.373527651525
 30
0.0
 11
-1118.018055231359
 21
1527.373527651525
 31
0.0
  0
LINE
  5
15987
330
1A
100
AcDbEntity
  8
ZISSEN1
100
AcDbLine
 10
-1115.018055231361
 20
1524.373527651525
 30
0.0
 11
-1070.018055231361
 21
1524.373527651526
 31
0.0
  0
LINE
  5
15988
330
1A
100
AcDbEntity
  8
ZISSEN1
100
AcDbLine
 10
-1052.018055231361
 20
1527.873527651525
 30
0.0
 11
-1067.018055231361
 21
1527.873527651525
 31
0.0
  0
LINE
  5
15989
330
1A
100
AcDbEntity
  8
ZISSEN1
100
AcDbLine
 10
-1115.018055231361
 20
1524.373527651525
 30
0.0
 11
-1115.018055231361
 21
1548.373527651525
 31
0.0
  0
LINE
  5
1598A
330
1A
100
AcDbEntity
  8
ZISSEN1
100
AcDbLine
 10
-1115.018055231361
 20
1548.373527651525
 30
0.0
 11
-1118.018055231361
 21
1548.373527651525
 31
0.0
  0
LINE
  5
1598B
330
1A
100
AcDbEntity
  8
ZISSEN1
100
AcDbLine
 10
-1115.018055231361
 20
1547.373527651525
 30
0.0
 11
-1118.018055231361
 21
1547.373527651525
 31
0.0
  0
LINE
  5
15991
330
1A
100
AcDbEntity
  8
ZISSEN1
100
AcDbLine
 10
-1052.018055231361
 20
1527.873527651525
 30
0.0
 11
-1052.018055231361
 21
1530.873527651525
 31
0.0
  0
LINE
  5
15992
330
1A
100
AcDbEntity
  8
ZISSEN1
100
AcDbLine
 10
-1053.018055231361
 20
1527.873527651525
 30
0.0
 11
-1053.018055231361
 21
1530.873527651525
 31
0.0
  0
LINE
  5
15993
330
1A
100
AcDbEntity
  8
ZISSEN1
100
AcDbLine
 10
-1067.01805523136
 20
1530.873527651525
 30
0.0
 11
-1052.018055231361
 21
1530.873527651525
 31
0.0
  0
LINE
  5
15994
330
1A
100
AcDbEntity
  8
ZISSEN1
100
AcDbLine
 10
-1070.018055231361
 20
1527.373527651525
 30
0.0
 11
-1070.01805523136
 21
1527.873527651526
 31
0.0
  0
LINE
  5
15995
330
1A
100
AcDbEntity
  8
ZISSEN1
100
AcDbLine
 10
-1067.018055231361
 20
1527.373527651525
 30
0.0
 11
-1067.018055231361
 21
1527.873527651525
 31
0.0
  0
LINE
  5
15996
330
1A
100
AcDbEntity
  8
ZISSEN1
100
AcDbLine
 10
-1070.018055231361
 20
1527.373527651525
 30
0.0
 11
-1115.018055231361
 21
1527.373527651525
 31
0.0
  0
LINE
  5
15997
330
1A
100
AcDbEntity
  8
ZISSEN1
100
AcDbLine
 10
-1115.018055231361
 20
1527.373527651525
 30
0.0
 11
-1118.018055231359
 21
1527.373527651525
 31
0.0
  0
ARC
  5
15998
330
1A
100
AcDbEntity
  8
ZISSEN1
100
AcDbCircle
 10
-1115.018055231361
 20
1527.373527651525
 30
0.0
 40
2.999999999998635
100
AcDbArc
 50
179.9999999999739
 51
270.0000000000521
  0
ARC
  5
15999
330
1A
100
AcDbEntity
  8
ZISSEN1
100
AcDbCircle
 10
-1067.01805523136
 20
1527.873527651526
 30
0.0
 40
2.999999999999474
100
AcDbArc
 50
89.99999999999998
 51
180.0
  0
ARC
  5
1599C
330
1A
100
AcDbEntity
  8
ZISSEN1
100
AcDbCircle
 10
-1070.018055231361
 20
1527.373527651526
 30
0.0
 40
3.0
100
AcDbArc
 50
270.0
 51
359.9999999999739
  0
LINE
  5
159A7
330
1A
100
AcDbEntity
  8
ZISSEN1
 48
0.5
100
AcDbLine
 10
-990.8180552313643
 20
1585.573527651525
 30
0.0
 11
-990.5180552313641
 21
1585.573527651525
 31
0.0
  0
LINE
  5
159A8
330
1A
100
AcDbEntity
  8
ZISSEN1
 48
0.5
100
AcDbLine
 10
-990.5180552313641
 20
1585.573527651525
 30
0.0
 11
-990.5180552313641
 21
1641.573527651526
 31
0.0
  0
LINE
  5
159A9
330
1A
100
AcDbEntity
  8
ZISSEN1
 48
0.5
100
AcDbLine
 10
-990.5180552313641
 20
1641.573527651526
 30
0.0
 11
-990.8180552313643
 21
1641.573527651526
 31
0.0
  0
LINE
  5
159B2
330
1A
100
AcDbEntity
  8
ZISSEN1
 48
0.5
100
AcDbLine
 10
-992.4180552313647
 20
1641.573527651526
 30
0.0
 11
-990.8180552313643
 21
1641.573527651526
 31
0.0
  0
LINE
  5
159B4
330
1A
100
AcDbEntity
  8
ZISSEN1
 48
0.5
100
AcDbLine
 10
-990.8180552313643
 20
1585.573527651526
 30
0.0
 11
-992.4180552313647
 21
1585.573527651526
 31
0.0
  0
LINE
  5
159B5
330
1A
100
AcDbEntity
  8
ZISSEN1
 48
0.5
100
AcDbLine
 10
-992.4180552313647
 20
1585.573527651526
 30
0.0
 11
-992.4180552313647
 21
1641.573527651526
 31
0.0
  0
LINE
  5
159BE
330
1A
100
AcDbEntity
  8
ZISSEN1
 48
0.5
100
AcDbLine
 10
-992.4180552313618
 20
1641.323527651525
 30
0.0
 11
-992.4180552313618
 21
1635.823527651525
 31
0.0
  0
LINE
  5
159BF
330
1A
100
AcDbEntity
  8
ZISSEN1
100
AcDbLine
 10
-992.7180552313611
 20
1641.323527651525
 30
0.0
 11
-992.4180552313609
 21
1641.323527651525
 31
0.0
  0
ARC
  5
159C1
330
1A
100
AcDbEntity
  8
ZISSEN1
100
AcDbCircle
 10
-989.7262564018973
 20
1638.573527651525
 30
0.0
 40
4.06366340092025
100
AcDbArc
 50
137.4114170198907
 51
222.5885829801091
  0
LINE
  5
159C5
330
1A
100
AcDbEntity
  8
ZISSEN1
 48
0.5
100
AcDbLine
 10
-992.4180552313618
 20
1591.323527651525
 30
0.0
 11
-992.4180552313618
 21
1585.823527651525
 31
0.0
  0
LINE
  5
159C6
330
1A
100
AcDbEntity
  8
ZISSEN1
100
AcDbLine
 10
-992.7180552313611
 20
1591.323527651525
 30
0.0
 11
-992.4180552313609
 21
1591.323527651525
 31
0.0
  0
LINE
  5
159C7
330
1A
100
AcDbEntity
  8
ZISSEN1
100
AcDbLine
 10
-992.4180552313609
 20
1585.823527651525
 30
0.0
 11
-992.7180552313611
 21
1585.823527651525
 31
0.0
  0
ARC
  5
159C8
330
1A
100
AcDbEntity
  8
ZISSEN1
100
AcDbCircle
 10
-989.7262564018975
 20
1588.573527651525
 30
0.0
 40
4.06366340092025
100
AcDbArc
 50
137.4114170198907
 51
222.5885829801091
  0
LINE
  5
159F0
330
1A
100
AcDbEntity
  8
ZISSEN1
100
AcDbLine
 10
-1000.018055231364
 20
1639.971453569585
 30
0.0
 11
-1000.018055231364
 21
1633.771453569584
 31
0.0
  0
LINE
  5
159F2
330
1A
100
AcDbEntity
  8
ZISSEN1
100
AcDbLine
 10
-999.9980552313646
 20
1639.571401569584
 30
0.0
 11
-999.9980552313646
 21
1636.871453569585
 31
0.0
  0
LINE
  5
159F8
330
1A
100
AcDbEntity
  8
ZISSEN1
100
AcDbLine
 10
-999.1180552313645
 20
1633.191453569584
 30
0.0
 11
-993.7160412313643
 21
1633.191453569584
 31
0.0
  0
ARC
  5
159F9
330
1A
100
AcDbEntity
  8
ZISSEN1
100
AcDbCircle
 10
-993.5180552313649
 20
1633.521453569585
 30
0.0
 40
0.2
100
AcDbArc
 50
90.00000000010421
 51
180.0000024148
  0
LINE
  5
159FA
330
1A
100
AcDbEntity
  8
ZISSEN1
100
AcDbLine
 10
-992.4180552313647
 20
1633.571451569584
 30
0.0
 11
-992.4180552313647
 21
1633.981451569584
 31
0.0
  0
LINE
  5
159FB
330
1A
100
AcDbEntity
  8
ZISSEN1
100
AcDbLine
 10
-992.4180552313647
 20
1633.571453569585
 30
0.0
 11
-992.4180552313647
 21
1633.981451569584
 31
0.0
  0
LINE
  5
159FE
330
1A
100
AcDbEntity
  8
ZISSEN1
100
AcDbLine
 10
-993.7117052313642
 20
1633.571453569585
 30
0.0
 11
-992.4180552313647
 21
1633.571453569585
 31
0.0
  0
LINE
  5
159FF
330
1A
100
AcDbEntity
  8
ZISSEN1
100
AcDbLine
 10
-993.7180552313648
 20
1633.191453569584
 30
0.0
 11
-993.7180552313648
 21
1633.521453569585
 31
0.0
  0
LINE
  5
15A0C
330
1A
100
AcDbEntity
  8
ZISSEN1
100
AcDbLine
 10
-992.4180552313647
 20
1634.171453569584
 30
0.0
 11
-992.4180552313647
 21
1635.171453569584
 31
0.0
  0
LINE
  5
15A0F
330
1A
100
AcDbEntity
  8
ZISSEN1
100
AcDbLine
 10
-992.4180552313647
 20
1634.081455569585
 30
0.0
 11
-992.4180552313647
 21
1634.171453569584
 31
0.0
  0
LINE
  5
15A17
330
1A
100
AcDbEntity
  8
ZISSEN1
100
AcDbLine
 10
-993.3180552313642
 20
1633.721453569584
 30
0.0
 11
-993.5180552313649
 21
1633.721453569584
 31
0.0
  0
LINE
  5
15A18
330
1A
100
AcDbEntity
  8
ZISSEN1
100
AcDbLine
 10
-993.1180552313644
 20
1633.921453569584
 30
0.0
 11
-993.1180552313644
 21
1634.164771569585
 31
0.0
  0
LINE
  5
15A19
330
1A
100
AcDbEntity
  8
ZISSEN1
100
AcDbLine
 10
-993.3180552313642
 20
1633.721453569584
 30
0.0
 11
-993.1180552313644
 21
1633.921453569584
 31
0.0
  0
ARC
  5
15A34
330
1A
100
AcDbEntity
  8
ZISSEN1
100
AcDbCircle
 10
-999.3180552313642
 20
1633.521453569585
 30
0.0
 40
0.2
100
AcDbArc
 50
359.9999975851999
 51
90.00000000010421
  0
ARC
  5
15A35
330
1A
100
AcDbEntity
  8
ZISSEN1
100
AcDbCircle
 10
-999.8180552313641
 20
1633.771453569585
 30
0.0
 40
0.2
100
AcDbArc
 50
179.9999950217034
 51
269.999983835205
  0
LINE
  5
15A38
330
1A
100
AcDbEntity
  8
ZISSEN1
100
AcDbLine
 10
-997.9180552313646
 20
1633.171453569584
 30
0.0
 11
-994.9180552313647
 21
1633.171453569584
 31
0.0
  0
LINE
  5
15A39
330
1A
100
AcDbEntity
  8
ZISSEN1
100
AcDbLine
 10
-994.9180552313647
 20
1633.191453569584
 30
0.0
 11
-994.9180552313647
 21
1633.171453569584
 31
0.0
  0
LINE
  5
15A3A
330
1A
100
AcDbEntity
  8
ZISSEN1
100
AcDbLine
 10
-999.8180552313643
 20
1633.571453569585
 30
0.0
 11
-999.1244072313648
 21
1633.571453569585
 31
0.0
  0
LINE
  5
15A3B
330
1A
100
AcDbEntity
  8
ZISSEN1
100
AcDbLine
 10
-997.9180552313646
 20
1633.171453569584
 30
0.0
 11
-997.9180552313646
 21
1633.191453569584
 31
0.0
  0
LINE
  5
15A3C
330
1A
100
AcDbEntity
  8
ZISSEN1
100
AcDbLine
 10
-999.1180552313645
 20
1633.191453569584
 30
0.0
 11
-999.1180552313645
 21
1633.521453569585
 31
0.0
  0
LINE
  5
15A3F
330
1A
100
AcDbEntity
  8
ZISSEN1
100
AcDbLine
 10
-995.480634935242
 20
1637.564735281076
 30
0.0
 11
-995.805762821973
 21
1638.349663434729
 31
0.0
  0
LINE
  5
15A40
330
1A
100
AcDbEntity
  8
ZISSEN1
100
AcDbLine
 10
-995.8057646697325
 20
1638.349664200096
 30
0.0
 11
-996.5885892570122
 21
1638.025407639085
 31
0.0
  0
LINE
  5
15A41
330
1A
100
AcDbEntity
  8
ZISSEN1
100
AcDbLine
 10
-996.5230115465537
 20
1637.402004388925
 30
0.0
 11
-996.1976257737832
 21
1638.187555134551
 31
0.0
  0
LINE
  5
15A42
330
1A
100
AcDbEntity
  8
ZISSEN1
100
AcDbLine
 10
-995.9686838270473
 20
1637.172394329506
 30
0.0
 11
-995.6432980542768
 21
1637.957945075132
 31
0.0
  0
LINE
  5
15A43
330
1A
100
AcDbEntity
  8
ZISSEN1
100
AcDbLine
 10
-996.7189959912857
 20
1637.320824973903
 30
0.0
 11
-997.3177105790528
 21
1637.568820676147
 31
0.0
  0
LINE
  5
15A44
330
1A
100
AcDbEntity
  8
ZISSEN1
100
AcDbLine
 10
-996.9486060507042
 20
1636.766497254396
 30
0.0
 11
-997.5520453584003
 21
1637.016449999713
 31
0.0
  0
LINE
  5
15A45
330
1A
100
AcDbEntity
  8
ZISSEN1
100
AcDbLine
 10
-997.5493619490981
 20
1637.014676071159
 30
0.0
 11
-997.3203588256028
 21
1637.567538517728
 31
0.0
  0
LINE
  5
15A46
330
1A
100
AcDbEntity
  8
ZISSEN1
100
AcDbLine
 10
-996.1171144714445
 20
1636.422082165267
 30
0.0
 11
-996.3130989161754
 21
1636.340902750245
 31
0.0
  0
LINE
  5
15A47
330
1A
100
AcDbEntity
  8
ZISSEN1
100
AcDbLine
 10
-996.8674266356829
 20
1636.570512809664
 30
0.0
 11
-996.9486060507042
 21
1636.766497254396
 31
0.0
  0
LINE
  5
15A48
330
1A
100
AcDbEntity
  8
ZISSEN1
100
AcDbLine
 10
-997.230975131063
 20
1635.692829101538
 30
0.0
 11
-996.8674266356829
 21
1636.570512809664
 31
0.0
  0
LINE
  5
15A49
330
1A
100
AcDbEntity
  8
ZISSEN1
100
AcDbLine
 10
-996.6766474115557
 20
1635.463219042119
 30
0.0
 11
-996.3130989161754
 21
1636.340902750245
 31
0.0
  0
LINE
  5
15A4A
330
1A
100
AcDbEntity
  8
ZISSEN1
100
AcDbLine
 10
-996.6766481769226
 20
1635.46321719436
 30
0.0
 11
-997.2309758964293
 21
1635.692827253779
 31
0.0
  0
LINE
  5
15A4B
330
1A
100
AcDbEntity
  8
ZISSEN1
100
AcDbLine
 10
-995.4857503218327
 20
1637.567672432082
 30
0.0
 11
-995.7598191851511
 21
1637.681195472293
 31
0.0
  0
LINE
  5
15A4C
330
1A
100
AcDbEntity
  8
ZISSEN1
100
AcDbLine
 10
-995.887504412026
 20
1636.976409884774
 30
0.0
 11
-995.9686838270473
 21
1637.172394329506
 31
0.0
  0
LINE
  5
15A4D
330
1A
100
AcDbEntity
  8
ZISSEN1
100
AcDbLine
 10
-996.312681631719
 20
1637.910198595788
 30
0.0
 11
-996.5914752149684
 21
1638.025678679073
 31
0.0
  0
LINE
  5
15A4E
330
1A
100
AcDbEntity
  8
ZISSEN1
100
AcDbLine
 10
-996.7189959912857
 20
1637.320824973903
 30
0.0
 11
-996.5230115465537
 21
1637.402004388925
 31
0.0
  0
LINE
  5
15A4F
330
1A
100
AcDbEntity
  8
ZISSEN1
100
AcDbLine
 10
-995.2858223232006
 20
1636.727185003346
 30
0.0
 11
-995.887504412026
 21
1636.976409884774
 31
0.0
  0
LINE
  5
15A50
330
1A
100
AcDbEntity
  8
ZISSEN1
100
AcDbLine
 10
-995.5154323826191
 20
1636.172857283839
 30
0.0
 11
-996.1171144714445
 21
1636.422082165267
 31
0.0
  0
LINE
  5
15A51
330
1A
100
AcDbEntity
  8
ZISSEN1
100
AcDbLine
 10
-995.5168269775731
 20
1636.172772519956
 30
0.0
 11
-995.287823854078
 21
1636.725634966525
 31
0.0
  0
LINE
  5
15A53
330
1A
100
AcDbEntity
  8
ZISSEN1
100
AcDbLine
 10
-999.9980552313646
 20
1634.171505569585
 30
0.0
 11
-999.9980552313646
 21
1636.871453569585
 31
0.0
  0
LINE
  5
15A54
330
1A
100
AcDbEntity
  8
ZISSEN1
100
AcDbLine
 10
-999.518055231365
 20
1633.721453569584
 30
0.0
 11
-999.3180552313642
 21
1633.721453569584
 31
0.0
  0
LINE
  5
15A55
330
1A
100
AcDbEntity
  8
ZISSEN1
100
AcDbLine
 10
-999.9980552313646
 20
1634.171453569584
 30
0.0
 11
-999.7150672313646
 21
1634.171453569584
 31
0.0
  0
LINE
  5
15A56
330
1A
100
AcDbEntity
  8
ZISSEN1
100
AcDbLine
 10
-999.7180552313649
 20
1633.921453569584
 30
0.0
 11
-999.7180552313649
 21
1634.164771569585
 31
0.0
  0
LINE
  5
15A57
330
1A
100
AcDbEntity
  8
ZISSEN1
100
AcDbLine
 10
-999.518055231365
 20
1633.721451569584
 30
0.0
 11
-999.7180572313645
 21
1633.921453569584
 31
0.0
  0
LINE
  5
15A59
330
1A
100
AcDbEntity
  8
ZISSEN1
100
AcDbLine
 10
-999.1180552313645
 20
1640.551453569585
 30
0.0
 11
-993.7160412313643
 21
1640.551453569585
 31
0.0
  0
LINE
  5
15A5F
330
1A
100
AcDbEntity
  8
ZISSEN1
100
AcDbLine
 10
-993.7117052313642
 20
1640.171453569585
 30
0.0
 11
-993.1438020072649
 21
1640.171453569585
 31
0.0
  0
ARC
  5
15A6D
330
1A
100
AcDbEntity
  8
ZISSEN1
100
AcDbCircle
 10
-993.5180552313649
 20
1640.221453569585
 30
0.0
 40
0.2
100
AcDbArc
 50
180.0000024148
 51
270.0000050086768
  0
LINE
  5
15A71
330
1A
100
AcDbEntity
  8
ZISSEN1
100
AcDbLine
 10
-993.7180552313648
 20
1640.551453569585
 30
0.0
 11
-993.7180552313648
 21
1640.221453569584
 31
0.0
  0
LINE
  5
15A72
330
1A
100
AcDbEntity
  8
ZISSEN1
100
AcDbLine
 10
-993.3180552313642
 20
1640.021453569584
 30
0.0
 11
-993.5180552313649
 21
1640.021453569584
 31
0.0
  0
LINE
  5
15A77
330
1A
100
AcDbEntity
  8
ZISSEN1
100
AcDbLine
 10
-997.9180552313646
 20
1640.571453569585
 30
0.0
 11
-994.9180552313647
 21
1640.571453569585
 31
0.0
  0
LINE
  5
15A79
330
1A
100
AcDbEntity
  8
ZISSEN1
100
AcDbLine
 10
-994.9180552313647
 20
1640.571453569585
 30
0.0
 11
-994.9180552313647
 21
1640.551453569585
 31
0.0
  0
LINE
  5
15A7A
330
1A
100
AcDbEntity
  8
ZISSEN1
100
AcDbLine
 10
-999.8180552313643
 20
1640.171453569585
 30
0.0
 11
-999.1244072313648
 21
1640.171453569585
 31
0.0
  0
LINE
  5
15A7B
330
1A
100
AcDbEntity
  8
ZISSEN1
100
AcDbLine
 10
-999.518055231365
 20
1640.021453569584
 30
0.0
 11
-999.3180552313642
 21
1640.021453569584
 31
0.0
  0
ARC
  5
15A7C
330
1A
100
AcDbEntity
  8
ZISSEN1
100
AcDbCircle
 10
-999.3180552313642
 20
1640.221453569585
 30
0.0
 40
0.2
100
AcDbArc
 50
269.9999949911147
 51
359.9999975851999
  0
LINE
  5
15A7D
330
1A
100
AcDbEntity
  8
ZISSEN1
100
AcDbLine
 10
-997.9180552313646
 20
1640.571453569585
 30
0.0
 11
-997.9180552313646
 21
1640.551453569585
 31
0.0
  0
LINE
  5
15A7E
330
1A
100
AcDbEntity
  8
ZISSEN1
100
AcDbLine
 10
-999.1180552313645
 20
1640.551453569585
 30
0.0
 11
-999.1180552313645
 21
1640.221453569584
 31
0.0
  0
ARC
  5
15A7F
330
1A
100
AcDbEntity
  8
ZISSEN1
100
AcDbCircle
 10
-999.8180552313641
 20
1639.971453569585
 30
0.0
 40
0.2
100
AcDbArc
 50
90.00001616489914
 51
180.0000049782966
  0
LINE
  5
15A82
330
1A
100
AcDbEntity
  8
ZISSEN1
100
AcDbLine
 10
-999.9980552313646
 20
1639.571453569584
 30
0.0
 11
-999.7150672313646
 21
1639.571453569584
 31
0.0
  0
LINE
  5
15A83
330
1A
100
AcDbEntity
  8
ZISSEN1
100
AcDbLine
 10
-999.7180552313649
 20
1639.821453569584
 30
0.0
 11
-999.7180552313649
 21
1639.577725569584
 31
0.0
  0
LINE
  5
15A84
330
1A
100
AcDbEntity
  8
ZISSEN1
100
AcDbLine
 10
-999.7180552313649
 20
1639.821453569584
 30
0.0
 11
-999.518055231365
 21
1640.021453569584
 31
0.0
  0
LINE
  5
15A85
330
1A
100
AcDbEntity
  8
ZISSEN1
100
AcDbLine
 10
-1003.918055231363
 20
1633.971451569584
 30
0.0
 11
-1002.918055231363
 21
1633.971451569584
 31
0.0
  0
LINE
  5
15A86
330
1A
100
AcDbEntity
  8
ZISSEN1
100
AcDbLine
 10
-1002.918055231363
 20
1633.971451569584
 30
0.0
 11
-1002.918055231363
 21
1634.771451569585
 31
0.0
  0
LINE
  5
15A87
330
1A
100
AcDbEntity
  8
ZISSEN1
100
AcDbLine
 10
-1003.918055231363
 20
1641.571451569584
 30
0.0
 11
-1003.918055231363
 21
1640.071451569584
 31
0.0
  0
LINE
  5
15A88
330
1A
100
AcDbEntity
  8
ZISSEN1
100
AcDbLine
 10
-1003.918055231363
 20
1640.071451569584
 30
0.0
 11
-1000.918055231363
 21
1640.071451569584
 31
0.0
  0
LINE
  5
15A89
330
1A
100
AcDbEntity
  8
ZISSEN1
100
AcDbLine
 10
-1003.918055231363
 20
1641.571451569584
 30
0.0
 11
-1003.918055231363
 21
1634.771451569585
 31
0.0
  0
LINE
  5
15A8A
330
1A
100
AcDbEntity
  8
ZISSEN1
100
AcDbLine
 10
-1000.918055231363
 20
1640.071451569584
 30
0.0
 11
-1000.918055231363
 21
1634.771451569585
 31
0.0
  0
LINE
  5
15A8B
330
1A
100
AcDbEntity
  8
ZISSEN1
100
AcDbLine
 10
-1003.918055231363
 20
1641.571451569584
 30
0.0
 11
-1003.918055231363
 21
1633.971451569584
 31
0.0
  0
LINE
  5
15A8C
330
1A
100
AcDbEntity
  8
ZISSEN1
100
AcDbLine
 10
-992.4180552313647
 20
1641.571451569583
 30
0.0
 11
-1003.918055231363
 21
1641.571451569584
 31
0.0
  0
LINE
  5
15A8D
330
1A
100
AcDbEntity
  8
ZISSEN1
100
AcDbLine
 10
-1003.918055231363
 20
1634.771451569585
 30
0.0
 11
-1000.018055231364
 21
1634.771451569585
 31
0.0
  0
LINE
  5
15A8E
330
1A
100
AcDbEntity
  8
ZISSEN1
100
AcDbLine
 10
-1003.918055231364
 20
1621.023527651526
 30
0.0
 11
-1003.918055231364
 21
1623.023527651526
 31
0.0
  0
LINE
  5
15A8F
330
1A
100
AcDbEntity
  8
ZISSEN1
100
AcDbLine
 10
-1003.918055231364
 20
1623.023527651526
 30
0.0
 11
-992.4180552313647
 21
1623.023527651526
 31
0.0
  0
LINE
  5
15A91
330
1A
100
AcDbEntity
  8
ZISSEN1
100
AcDbLine
 10
-1003.918055231364
 20
1610.623527651527
 30
0.0
 11
-992.4180552313647
 21
1610.623527651527
 31
0.0
  0
LINE
  5
15AB7
330
1A
100
AcDbEntity
  8
ZISSEN1
100
AcDbLine
 10
-992.4180552313647
 20
1610.623527651527
 30
0.0
 11
-992.4180552313647
 21
1612.123527651527
 31
0.0
  0
LINE
  5
15AB8
330
1A
100
AcDbEntity
  8
ZISSEN1
100
AcDbLine
 10
-992.4180552313647
 20
1621.523527651526
 30
0.0
 11
-992.4180552313647
 21
1623.023527651526
 31
0.0
  0
LINE
  5
15AC4
330
1A
100
AcDbEntity
  8
ZISSEN1
100
AcDbLine
 10
-1003.918055231364
 20
1610.623527651527
 30
0.0
 11
-1003.918055231364
 21
1623.023527651526
 31
0.0
  0
LINE
  5
15AC5
330
1A
100
AcDbEntity
  8
ZISSEN1
100
AcDbLine
 10
-1003.918055231364
 20
1623.023527651526
 30
0.0
 11
-1002.918055231364
 21
1623.023527651526
 31
0.0
  0
LINE
  5
15B0C
330
1A
100
AcDbEntity
  8
ZISSEN1
100
AcDbLine
 10
-1003.918055231363
 20
1591.069258873083
 30
0.0
 11
-1002.918055231363
 21
1591.069258873083
 31
0.0
  0
LINE
  5
15B0D
330
1A
100
AcDbEntity
  8
ZISSEN1
100
AcDbLine
 10
-1002.918055231363
 20
1591.069258873083
 30
0.0
 11
-1002.918055231363
 21
1591.869258873083
 31
0.0
  0
LINE
  5
15B0E
330
1A
100
AcDbEntity
  8
ZISSEN1
100
AcDbLine
 10
-1003.918055231363
 20
1598.669258873083
 30
0.0
 11
-1003.918055231363
 21
1597.169258873083
 31
0.0
  0
LINE
  5
15B0F
330
1A
100
AcDbEntity
  8
ZISSEN1
100
AcDbLine
 10
-1003.918055231363
 20
1597.169258873083
 30
0.0
 11
-1000.918055231363
 21
1597.169258873083
 31
0.0
  0
LINE
  5
15B10
330
1A
100
AcDbEntity
  8
ZISSEN1
100
AcDbLine
 10
-1003.918055231363
 20
1598.669258873083
 30
0.0
 11
-1003.918055231363
 21
1591.869258873083
 31
0.0
  0
LINE
  5
15B11
330
1A
100
AcDbEntity
  8
ZISSEN1
100
AcDbLine
 10
-1000.918055231363
 20
1597.169258873083
 30
0.0
 11
-1000.918055231363
 21
1591.869258873083
 31
0.0
  0
LINE
  5
15B12
330
1A
100
AcDbEntity
  8
ZISSEN1
100
AcDbLine
 10
-1003.918055231363
 20
1598.669258873083
 30
0.0
 11
-1003.918055231363
 21
1591.069258873083
 31
0.0
  0
LINE
  5
15B13
330
1A
100
AcDbEntity
  8
ZISSEN1
100
AcDbLine
 10
-992.4180552313647
 20
1598.669258873082
 30
0.0
 11
-1003.918055231363
 21
1598.669258873083
 31
0.0
  0
LINE
  5
15B14
330
1A
100
AcDbEntity
  8
ZISSEN1
100
AcDbLine
 10
-1003.918055231363
 20
1591.869258873083
 30
0.0
 11
-992.4180552313647
 21
1591.869258873083
 31
0.0
  0
LINE
  5
15B15
330
1A
100
AcDbEntity
  8
ZISSEN1
100
AcDbLine
 10
-993.1155032313645
 20
1634.171453569584
 30
0.0
 11
-992.4180552313647
 21
1634.171453569584
 31
0.0
  0
LINE
  5
15B16
330
1A
100
AcDbEntity
  8
ZISSEN1
100
AcDbLine
 10
-993.1155032313645
 20
1634.171453569584
 30
0.0
 11
-992.9155152313642
 21
1634.171453569584
 31
0.0
  0
LINE
  5
15B30
330
1A
100
AcDbEntity
  8
ZISSEN1
 48
0.5
100
AcDbLine
 10
-1070.518055231361
 20
1531.173527651526
 30
0.0
 11
-1070.518055231361
 21
1530.873527651525
 31
0.0
  0
LINE
  5
15B31
330
1A
100
AcDbEntity
  8
ZISSEN1
 48
0.5
100
AcDbLine
 10
-1070.518055231361
 20
1530.873527651525
 30
0.0
 11
-1052.518055231361
 21
1530.873527651525
 31
0.0
  0
LINE
  5
15B32
330
1A
100
AcDbEntity
  8
ZISSEN1
 48
0.5
100
AcDbLine
 10
-1052.518055231361
 20
1530.873527651525
 30
0.0
 11
-1052.518055231361
 21
1531.173527651526
 31
0.0
  0
LINE
  5
15B33
330
1A
100
AcDbEntity
  8
ZISSEN1
 48
0.5
100
AcDbLine
 10
-1052.518055231361
 20
1531.173527651526
 30
0.0
 11
-1070.518055231361
 21
1531.173527651526
 31
0.0
  0
LINE
  5
15B34
330
1A
100
AcDbEntity
  8
ZISSEN1
 48
0.5
100
AcDbLine
 10
-1053.518055231361
 20
1530.873527651525
 30
0.0
 11
-1053.518055231361
 21
1531.173527651526
 31
0.0
  0
LINE
  5
15B3A
330
1A
100
AcDbEntity
  8
ZISSEN1
 48
0.5
100
AcDbLine
 10
-1115.018055231361
 20
1532.773527651526
 30
0.0
 11
-1052.518055231362
 21
1532.773527651526
 31
0.0
  0
LINE
  5
15B3B
330
1A
100
AcDbEntity
  8
ZISSEN1
 48
0.5
100
AcDbLine
 10
-1052.518055231362
 20
1531.173527651526
 30
0.0
 11
-1052.518055231362
 21
1532.773527651526
 31
0.0
  0
LINE
  5
15B3C
330
1A
100
AcDbEntity
  8
ZISSEN1
 48
0.5
100
AcDbLine
 10
-1115.018055231361
 20
1531.173527651526
 30
0.0
 11
-1052.518055231362
 21
1531.173527651526
 31
0.0
  0
LINE
  5
15B3D
330
1A
100
AcDbEntity
  8
ZISSEN1
 48
0.5
100
AcDbLine
 10
-1053.518055231364
 20
1531.173527651526
 30
0.0
 11
-1053.518055231364
 21
1532.773527651526
 31
0.0
  0
LINE
  5
15B45
330
1A
100
AcDbEntity
  8
ZISSEN1
 48
0.5
100
AcDbLine
 10
-1058.268055231361
 20
1532.773527651526
 30
0.0
 11
-1063.768055231361
 21
1532.773527651526
 31
0.0
  0
LINE
  5
15B46
330
1A
100
AcDbEntity
  8
ZISSEN1
100
AcDbLine
 10
-1058.268055231361
 20
1533.073527651525
 30
0.0
 11
-1058.268055231361
 21
1532.773527651525
 31
0.0
  0
LINE
  5
15B47
330
1A
100
AcDbEntity
  8
ZISSEN1
100
AcDbLine
 10
-1063.768055231361
 20
1532.773527651525
 30
0.0
 11
-1063.768055231361
 21
1533.073527651525
 31
0.0
  0
ARC
  5
15B48
330
1A
100
AcDbEntity
  8
ZISSEN1
100
AcDbCircle
 10
-1061.018055231362
 20
1530.081728822062
 30
0.0
 40
4.06366340092025
100
AcDbArc
 50
47.4114170199188
 51
132.5885829800811
  0
DIMENSION
  5
15B4E
330
1A
100
AcDbEntity
  8
SUNPOU
100
AcDbDimension
  2
*D0
 10
-1118.018055231361
 20
1515.659480799865
 30
0.0
 11
-1085.018055231361
 21
1515.659480799865
 31
0.0
 70
   160
  3
矢2_5-字2_5
100
AcDbAlignedDimension
 13
-1052.018055231361
 23
1527.873527651525
 33
0.0
 14
-1118.018055231361
 24
1527.373527651525
 34
0.0
100
AcDbRotatedDimension
1001
ACAD
1000
DSTYLE
1002
{
1070
   340
1005
10
1070
   140
1040
3.5
1002
}
  0
LINE
  5
1600F
102
{ACAD_REACTORS
330
16E43
102
}
330
1A
100
AcDbEntity
  8
ZISSEN1
100
AcDbLine
 10
-1107.018055231363
 20
1588.648647742691
 30
0.0
 11
-1106.018055231363
 21
1588.648647742691
 31
0.0
  0
LINE
  5
16010
102
{ACAD_REACTORS
330
16E43
102
}
330
1A
100
AcDbEntity
  8
ZISSEN1
100
AcDbLine
 10
-1107.018055231363
 20
1587.398647742691
 30
0.0
 11
-1106.718055231363
 21
1587.398647742691
 31
0.0
  0
LINE
  5
16011
102
{ACAD_REACTORS
330
16E43
102
}
330
1A
100
AcDbEntity
  8
ZISSEN1
100
AcDbLine
 10
-1105.018055231363
 20
1587.398647742691
 30
0.0
 11
-1105.318055231362
 21
1587.398647742691
 31
0.0
  0
LINE
  5
16012
102
{ACAD_REACTORS
330
16E43
102
}
330
1A
100
AcDbEntity
  8
ZISSEN1
100
AcDbLine
 10
-1107.018055231363
 20
1587.398647742691
 30
0.0
 11
-1107.018055231363
 21
1588.023647742691
 31
0.0
  0
LINE
  5
16016
102
{ACAD_REACTORS
330
16E43
102
}
330
1A
100
AcDbEntity
  8
ZISSEN1
100
AcDbLine
 10
-1107.018055231363
 20
1587.398647742691
 30
0.0
 11
-1107.018055231363
 21
1588.023647742691
 31
0.0
  0
LINE
  5
16017
102
{ACAD_REACTORS
330
16E43
102
}
330
1A
100
AcDbEntity
  8
ZISSEN1
100
AcDbLine
 10
-1105.018055231363
 20
1587.398647742691
 30
0.0
 11
-1105.318055231362
 21
1587.398647742691
 31
0.0
  0
LINE
  5
16018
102
{ACAD_REACTORS
330
16E43
102
}
330
1A
100
AcDbEntity
  8
ZISSEN1
100
AcDbLine
 10
-1107.018055231363
 20
1587.398647742691
 30
0.0
 11
-1106.718055231363
 21
1587.398647742691
 31
0.0
  0
LINE
  5
16019
102
{ACAD_REACTORS
330
16E43
102
}
330
1A
100
AcDbEntity
  8
ZISSEN1
100
AcDbLine
 10
-1107.018055231363
 20
1587.398647742691
 30
0.0
 11
-1105.018055231363
 21
1587.398647742691
 31
0.0
  0
LINE
  5
16022
102
{ACAD_REACTORS
330
16E43
102
}
330
1A
100
AcDbEntity
  8
ZISSEN1
100
AcDbLine
 10
-1107.018055231363
 20
1588.648647742691
 30
0.0
 11
-1106.018055231363
 21
1588.648647742691
 31
0.0
  0
LINE
  5
16023
102
{ACAD_REACTORS
330
16E43
102
}
330
1A
100
AcDbEntity
  8
ZISSEN1
100
AcDbLine
 10
-1105.018055231363
 20
1588.648647742691
 30
0.0
 11
-1107.018055231363
 21
1588.648647742691
 31
0.0
  0
LINE
  5
16024
102
{ACAD_REACTORS
330
16E43
102
}
330
1A
100
AcDbEntity
  8
ZISSEN1
100
AcDbLine
 10
-1107.018055231363
 20
1588.648647742691
 30
0.0
 11
-1107.018055231363
 21
1587.398647742691
 31
0.0
  0
LINE
  5
16025
102
{ACAD_REACTORS
330
16E43
102
}
330
1A
100
AcDbEntity
  8
ZISSEN1
100
AcDbLine
 10
-1105.018055231363
 20
1587.398647742691
 30
0.0
 11
-1105.018055231363
 21
1588.648647742691
 31
0.0
  0
LINE
  5
1656D
102
{ACAD_REACTORS
330
16F37
102
}
330
1A
100
AcDbEntity
  8
ZISSEN1
100
AcDbLine
 10
-1052.512285319933
 20
1610.623527651524
 30
0.0
 11
-1052.518055231363
 21
1623.023527651525
 31
0.0
  0
LINE
  5
1656E
102
{ACAD_REACTORS
330
16F37
102
}
330
1A
100
AcDbEntity
  8
ZISSEN1
100
AcDbLine
 10
-1054.012285319932
 20
1622.173527651524
 30
0.0
 11
-1054.012285319932
 21
1621.173527651524
 31
0.0
  0
LINE
  5
1656F
102
{ACAD_REACTORS
330
16F37
102
}
330
1A
100
AcDbEntity
  8
ZISSEN1
100
AcDbLine
 10
-1053.312285319933
 20
1623.023527651525
 30
0.0
 11
-1053.312285319933
 21
1619.773527651525
 31
0.0
  0
LINE
  5
16570
102
{ACAD_REACTORS
330
16F37
102
}
330
1A
100
AcDbEntity
  8
ZISSEN1
100
AcDbLine
 10
-1059.412285319933
 20
1611.473527651524
 30
0.0
 11
-1059.412285319933
 21
1622.173527651524
 31
0.0
  0
LINE
  5
16571
102
{ACAD_REACTORS
330
16F37
102
}
330
1A
100
AcDbEntity
  8
ZISSEN1
100
AcDbLine
 10
-1060.112285319934
 20
1610.623527651524
 30
0.0
 11
-1060.112285319933
 21
1623.023527651525
 31
0.0
  0
LINE
  5
16572
102
{ACAD_REACTORS
330
16F37
102
}
330
1A
100
AcDbEntity
  8
ZISSEN1
100
AcDbLine
 10
-1052.512285319933
 20
1610.623527651524
 30
0.0
 11
-1060.112285319934
 21
1610.623527651524
 31
0.0
  0
LINE
  5
16573
102
{ACAD_REACTORS
330
16F37
102
}
330
1A
100
AcDbEntity
  8
ZISSEN1
100
AcDbLine
 10
-1053.312285319933
 20
1610.623527651524
 30
0.0
 11
-1060.112285319934
 21
1610.623527651524
 31
0.0
  0
LINE
  5
16574
102
{ACAD_REACTORS
330
16F37
102
}
330
1A
100
AcDbEntity
  8
ZISSEN1
100
AcDbLine
 10
-1054.012285319933
 20
1611.473527651524
 30
0.0
 11
-1059.412285319933
 21
1611.473527651524
 31
0.0
  0
LINE
  5
16575
102
{ACAD_REACTORS
330
16F37
102
}
330
1A
100
AcDbEntity
  8
ZISSEN1
100
AcDbLine
 10
-1053.312285319933
 20
1613.873527651525
 30
0.0
 11
-1053.312285319933
 21
1610.623527651524
 31
0.0
  0
LINE
  5
16576
102
{ACAD_REACTORS
330
16F37
102
}
330
1A
100
AcDbEntity
  8
ZISSEN1
100
AcDbLine
 10
-1053.312285319933
 20
1613.073527651524
 30
0.0
 11
-1054.212285319933
 21
1613.073527651524
 31
0.0
  0
LINE
  5
16577
102
{ACAD_REACTORS
330
16F37
102
}
330
1A
100
AcDbEntity
  8
ZISSEN1
100
AcDbLine
 10
-1054.012285319933
 20
1612.473527651525
 30
0.0
 11
-1054.012285319933
 21
1611.473527651524
 31
0.0
  0
LINE
  5
16578
102
{ACAD_REACTORS
330
16F37
102
}
330
1A
100
AcDbEntity
  8
ZISSEN1
100
AcDbLine
 10
-1054.812285319932
 20
1612.473527651525
 30
0.0
 11
-1054.012285319933
 21
1612.473527651525
 31
0.0
  0
LINE
  5
16579
102
{ACAD_REACTORS
330
16F37
102
}
330
1A
100
AcDbEntity
  8
ZISSEN1
100
AcDbLine
 10
-1054.212285319934
 20
1613.873527651525
 30
0.0
 11
-1053.312285319933
 21
1613.873527651525
 31
0.0
  0
LINE
  5
1657A
102
{ACAD_REACTORS
330
16F37
102
}
330
1A
100
AcDbEntity
  8
ZISSEN1
100
AcDbLine
 10
-1054.212285319934
 20
1615.523527651524
 30
0.0
 11
-1053.312285319933
 21
1615.523527651524
 31
0.0
  0
LINE
  5
1657B
102
{ACAD_REACTORS
330
16F37
102
}
330
1A
100
AcDbEntity
  8
ZISSEN1
100
AcDbLine
 10
-1053.312285319933
 20
1615.523527651524
 30
0.0
 11
-1053.312285319933
 21
1618.123527651525
 31
0.0
  0
LWPOLYLINE
  5
1657C
102
{ACAD_REACTORS
330
16F37
102
}
330
1A
100
AcDbEntity
  8
ZISSEN1
100
AcDbPolyline
 90
        4
 70
     1
 43
0.0
 10
-1053.612285319934
 20
1618.323527651524
 10
-1053.612285319934
 20
1619.573527651524
 10
-1054.212285319933
 20
1619.573527651524
 10
-1054.212285319933
 20
1618.323527651524
  0
LINE
  5
1657D
102
{ACAD_REACTORS
330
16F37
102
}
330
1A
100
AcDbEntity
  8
ZISSEN1
100
AcDbLine
 10
-1054.212285319933
 20
1619.773527651525
 30
0.0
 11
-1053.312285319933
 21
1619.773527651525
 31
0.0
  0
LINE
  5
1657E
102
{ACAD_REACTORS
330
16F37
102
}
330
1A
100
AcDbEntity
  8
ZISSEN1
100
AcDbLine
 10
-1054.212285319933
 20
1618.123527651525
 30
0.0
 11
-1053.312285319933
 21
1618.123527651525
 31
0.0
  0
LINE
  5
1657F
102
{ACAD_REACTORS
330
16F37
102
}
330
1A
100
AcDbEntity
  8
ZISSEN1
100
AcDbLine
 10
-1054.012285319932
 20
1621.173527651524
 30
0.0
 11
-1054.812285319932
 21
1621.173527651524
 31
0.0
  0
LINE
  5
16580
102
{ACAD_REACTORS
330
16F37
102
}
330
1A
100
AcDbEntity
  8
ZISSEN1
100
AcDbLine
 10
-1054.212285319933
 20
1620.573527651525
 30
0.0
 11
-1053.312285319933
 21
1620.573527651525
 31
0.0
  0
LWPOLYLINE
  5
16581
102
{ACAD_REACTORS
330
16F37
102
}
330
1A
100
AcDbEntity
  8
ZISSEN1
100
AcDbPolyline
 90
        4
 70
     1
 43
0.0
 10
-1053.612285319934
 20
1614.073527651525
 10
-1053.612285319934
 20
1615.323527651524
 10
-1054.212285319934
 20
1615.323527651524
 10
-1054.212285319934
 20
1614.073527651525
  0
LINE
  5
16582
102
{ACAD_REACTORS
330
16F37
102
}
330
1A
100
AcDbEntity
  8
ZISSEN1
100
AcDbLine
 10
-1054.812285319932
 20
1621.173527651524
 30
0.0
 11
-1054.812285319932
 21
1612.473527651525
 31
0.0
  0
LINE
  5
16583
102
{ACAD_REACTORS
330
16F37
102
}
330
1A
100
AcDbEntity
  8
ZISSEN1
100
AcDbLine
 10
-1054.212285319934
 20
1613.073527651524
 30
0.0
 11
-1054.212285319933
 21
1620.573527651525
 31
0.0
  0
LINE
  5
16584
102
{ACAD_REACTORS
330
16F37
102
}
330
1A
100
AcDbEntity
  8
ZISSEN1
100
AcDbLine
 10
-1052.518055231363
 20
1623.023527651525
 30
0.0
 11
-1060.118055231363
 21
1623.023527651525
 31
0.0
  0
LINE
  5
16585
102
{ACAD_REACTORS
330
16F37
102
}
330
1A
100
AcDbEntity
  8
ZISSEN1
100
AcDbLine
 10
-1054.012285319932
 20
1622.173527651524
 30
0.0
 11
-1059.412285319933
 21
1622.173527651524
 31
0.0
  0
LINE
  5
16586
102
{ACAD_REACTORS
330
16F37
102
}
330
1A
100
AcDbEntity
  8
ZISSEN1
100
AcDbLine
 10
-1059.412285319933
 20
1622.173527651524
 30
0.0
 11
-1054.012285319932
 21
1622.173527651524
 31
0.0
  0
LINE
  5
16587
102
{ACAD_REACTORS
330
16F37
102
}
330
1A
100
AcDbEntity
  8
ZISSEN1
100
AcDbLine
 10
-1059.412285319933
 20
1622.173527651524
 30
0.0
 11
-1054.012285319932
 21
1622.173527651524
 31
0.0
  0
LINE
  5
16588
102
{ACAD_REACTORS
330
16F37
102
}
330
1A
100
AcDbEntity
  8
ZISSEN1
100
AcDbLine
 10
-1060.112285319933
 20
1623.023527651525
 30
0.0
 11
-1053.312285319933
 21
1623.023527651525
 31
0.0
  0
LINE
  5
16E0F
330
1A
100
AcDbEntity
  8
ZISSEN1
100
AcDbLine
 10
-994.918055231361
 20
1639.231451569583
 30
0.0
 11
-994.918055231361
 21
1634.771451569582
 31
0.0
  0
LINE
  5
16E10
330
1A
100
AcDbEntity
  8
ZISSEN1
100
AcDbLine
 10
-994.918055231361
 20
1634.771451569582
 30
0.0
 11
-992.4180552313647
 21
1634.771451569582
 31
0.0
  0
LINE
  5
16E11
330
1A
100
AcDbEntity
  8
ZISSEN1
100
AcDbLine
 10
-994.918055231361
 20
1639.231451569583
 30
0.0
 11
-993.5423202321969
 21
1639.231451569583
 31
0.0
  0
LINE
  5
16E19
330
1A
100
AcDbEntity
  8
ZISSEN1
100
AcDbLine
 10
-993.5423202321969
 20
1639.231451569583
 30
0.0
 11
-994.918055231361
 21
1639.231451569583
 31
0.0
  0
LINE
  5
16E1A
330
1A
100
AcDbEntity
  8
ZISSEN1
100
AcDbLine
 10
-992.7180552313595
 20
1635.823527651523
 30
0.0
 11
-992.4180552313618
 21
1635.823527651525
 31
0.0
  0
ARC
  5
16E1C
330
1A
100
AcDbEntity
  8
ZISSEN1
100
AcDbCircle
 10
-996.4180552313646
 20
1636.871453569585
 30
0.0
 40
1.7
100
AcDbArc
 50
27.50007301674917
 51
332.4805706628632
  0
LINE
  5
16E45
102
{ACAD_REACTORS
330
16E51
102
}
330
1A
100
AcDbEntity
  8
ZISSEN1
100
AcDbLine
 10
-1100.018055231363
 20
1588.648647742691
 30
0.0
 11
-1102.018055231363
 21
1588.648647742691
 31
0.0
  0
LINE
  5
16E46
102
{ACAD_REACTORS
330
16E51
102
}
330
1A
100
AcDbEntity
  8
ZISSEN1
100
AcDbLine
 10
-1100.018055231363
 20
1587.398647742691
 30
0.0
 11
-1100.018055231363
 21
1588.648647742691
 31
0.0
  0
LINE
  5
16E47
102
{ACAD_REACTORS
330
16E51
102
}
330
1A
100
AcDbEntity
  8
ZISSEN1
100
AcDbLine
 10
-1102.018055231363
 20
1588.648647742691
 30
0.0
 11
-1101.018055231363
 21
1588.648647742691
 31
0.0
  0
LINE
  5
16E48
102
{ACAD_REACTORS
330
16E51
102
}
330
1A
100
AcDbEntity
  8
ZISSEN1
100
AcDbLine
 10
-1102.018055231363
 20
1587.398647742691
 30
0.0
 11
-1100.018055231363
 21
1587.398647742691
 31
0.0
  0
LINE
  5
16E49
102
{ACAD_REACTORS
330
16E51
102
}
330
1A
100
AcDbEntity
  8
ZISSEN1
100
AcDbLine
 10
-1102.018055231363
 20
1587.398647742691
 30
0.0
 11
-1101.718055231363
 21
1587.398647742691
 31
0.0
  0
LINE
  5
16E4A
102
{ACAD_REACTORS
330
16E51
102
}
330
1A
100
AcDbEntity
  8
ZISSEN1
100
AcDbLine
 10
-1100.018055231363
 20
1587.398647742691
 30
0.0
 11
-1100.318055231362
 21
1587.398647742691
 31
0.0
  0
LINE
  5
16E4B
102
{ACAD_REACTORS
330
16E51
102
}
330
1A
100
AcDbEntity
  8
ZISSEN1
100
AcDbLine
 10
-1102.018055231363
 20
1587.398647742691
 30
0.0
 11
-1102.018055231363
 21
1588.023647742691
 31
0.0
  0
LINE
  5
16E4C
102
{ACAD_REACTORS
330
16E51
102
}
330
1A
100
AcDbEntity
  8
ZISSEN1
100
AcDbLine
 10
-1102.018055231363
 20
1587.398647742691
 30
0.0
 11
-1102.018055231363
 21
1588.023647742691
 31
0.0
  0
LINE
  5
16E4D
102
{ACAD_REACTORS
330
16E51
102
}
330
1A
100
AcDbEntity
  8
ZISSEN1
100
AcDbLine
 10
-1100.018055231363
 20
1587.398647742691
 30
0.0
 11
-1100.318055231362
 21
1587.398647742691
 31
0.0
  0
LINE
  5
16E4E
102
{ACAD_REACTORS
330
16E51
102
}
330
1A
100
AcDbEntity
  8
ZISSEN1
100
AcDbLine
 10
-1102.018055231363
 20
1587.398647742691
 30
0.0
 11
-1101.718055231363
 21
1587.398647742691
 31
0.0
  0
LINE
  5
16E4F
102
{ACAD_REACTORS
330
16E51
102
}
330
1A
100
AcDbEntity
  8
ZISSEN1
100
AcDbLine
 10
-1102.018055231363
 20
1588.648647742691
 30
0.0
 11
-1101.018055231363
 21
1588.648647742691
 31
0.0
  0
LINE
  5
16E50
102
{ACAD_REACTORS
330
16E51
102
}
330
1A
100
AcDbEntity
  8
ZISSEN1
100
AcDbLine
 10
-1102.018055231363
 20
1588.648647742691
 30
0.0
 11
-1102.018055231363
 21
1587.398647742691
 31
0.0
  0
LINE
  5
16EAE
102
{ACAD_REACTORS
330
16F39
102
}
330
1A
100
AcDbEntity
  8
ZISSEN1
100
AcDbLine
 10
-1112.018055231363
 20
1633.971451569581
 30
0.0
 11
-1112.018055231363
 21
1641.571451569582
 31
0.0
  0
LINE
  5
16EAF
102
{ACAD_REACTORS
330
16F39
102
}
330
1A
100
AcDbEntity
  8
ZISSEN1
100
AcDbLine
 10
-1089.618055231363
 20
1633.97722148101
 30
0.0
 11
-1089.618055231363
 21
1641.57722148101
 31
0.0
  0
LINE
  5
16EB0
102
{ACAD_REACTORS
330
16F39
102
}
330
1A
100
AcDbEntity
  8
ZISSEN1
100
AcDbLine
 10
-1112.018055231363
 20
1633.971451569581
 30
0.0
 11
-1089.618055231363
 21
1633.97722148101
 31
0.0
  0
LINE
  5
16EB1
102
{ACAD_REACTORS
330
16F39
102
}
330
1A
100
AcDbEntity
  8
ZISSEN1
100
AcDbLine
 10
-1111.168055231363
 20
1640.871451569581
 30
0.0
 11
-1090.468055231364
 21
1640.871451569581
 31
0.0
  0
LINE
  5
16EB2
102
{ACAD_REACTORS
330
16F39
102
}
330
1A
100
AcDbEntity
  8
ZISSEN1
100
AcDbLine
 10
-1112.018055231363
 20
1641.571451569581
 30
0.0
 11
-1089.618055231363
 21
1641.571451569581
 31
0.0
  0
LINE
  5
16EB3
102
{ACAD_REACTORS
330
16F39
102
}
330
1A
100
AcDbEntity
  8
ZISSEN1
100
AcDbLine
 10
-1090.468055231364
 20
1635.471451569581
 30
0.0
 11
-1091.468055231363
 21
1635.471451569581
 31
0.0
  0
LINE
  5
16EB4
102
{ACAD_REACTORS
330
16F39
102
}
330
1A
100
AcDbEntity
  8
ZISSEN1
100
AcDbLine
 10
-1091.468055231363
 20
1635.471451569581
 30
0.0
 11
-1091.468055231363
 21
1636.271451569581
 31
0.0
  0
LINE
  5
16EB5
102
{ACAD_REACTORS
330
16F39
102
}
330
1A
100
AcDbEntity
  8
ZISSEN1
100
AcDbLine
 10
-1091.468055231363
 20
1636.271451569581
 30
0.0
 11
-1110.168055231363
 21
1636.271451569581
 31
0.0
  0
LINE
  5
16EB6
102
{ACAD_REACTORS
330
16F39
102
}
330
1A
100
AcDbEntity
  8
ZISSEN1
100
AcDbLine
 10
-1110.168055231363
 20
1636.271451569581
 30
0.0
 11
-1110.168055231363
 21
1635.471451569581
 31
0.0
  0
LINE
  5
16EB7
102
{ACAD_REACTORS
330
16F39
102
}
330
1A
100
AcDbEntity
  8
ZISSEN1
100
AcDbLine
 10
-1110.168055231363
 20
1635.471451569581
 30
0.0
 11
-1111.168055231363
 21
1635.471451569581
 31
0.0
  0
LINE
  5
16EB8
102
{ACAD_REACTORS
330
16F39
102
}
330
1A
100
AcDbEntity
  8
ZISSEN1
100
AcDbLine
 10
-1109.568055231364
 20
1634.771451569581
 30
0.0
 11
-1109.568055231364
 21
1635.671451569581
 31
0.0
  0
LINE
  5
16EB9
102
{ACAD_REACTORS
330
16F39
102
}
330
1A
100
AcDbEntity
  8
ZISSEN1
100
AcDbLine
 10
-1109.568055231364
 20
1635.671451569581
 30
0.0
 11
-1092.068055231364
 21
1635.67145156958
 31
0.0
  0
LINE
  5
16EBA
102
{ACAD_REACTORS
330
16F39
102
}
330
1A
100
AcDbEntity
  8
ZISSEN1
100
AcDbLine
 10
-1092.068055231364
 20
1635.67145156958
 30
0.0
 11
-1092.068055231364
 21
1634.771451569581
 31
0.0
  0
LINE
  5
16EBB
102
{ACAD_REACTORS
330
16F39
102
}
330
1A
100
AcDbEntity
  8
ZISSEN1
100
AcDbLine
 10
-1098.268055231363
 20
1635.67145156958
 30
0.0
 11
-1098.268055231363
 21
1634.771451569581
 31
0.0
  0
LINE
  5
16EBC
102
{ACAD_REACTORS
330
16F39
102
}
330
1A
100
AcDbEntity
  8
ZISSEN1
100
AcDbLine
 10
-1096.618055231364
 20
1635.67145156958
 30
0.0
 11
-1096.618055231364
 21
1634.771451569581
 31
0.0
  0
LINE
  5
16EBD
102
{ACAD_REACTORS
330
16F39
102
}
330
1A
100
AcDbEntity
  8
ZISSEN1
100
AcDbLine
 10
-1105.018055231363
 20
1635.671451569581
 30
0.0
 11
-1105.018055231363
 21
1634.771451569581
 31
0.0
  0
LINE
  5
16EBE
102
{ACAD_REACTORS
330
16F39
102
}
330
1A
100
AcDbEntity
  8
ZISSEN1
100
AcDbLine
 10
-1103.368055231363
 20
1635.671451569581
 30
0.0
 11
-1103.368055231363
 21
1634.771451569581
 31
0.0
  0
LINE
  5
16EBF
102
{ACAD_REACTORS
330
16F39
102
}
330
1A
100
AcDbEntity
  8
ZISSEN1
100
AcDbLine
 10
-1105.018055231363
 20
1634.771451569581
 30
0.0
 11
-1112.018055231363
 21
1634.771451569581
 31
0.0
  0
LINE
  5
16EC0
102
{ACAD_REACTORS
330
16F39
102
}
330
1A
100
AcDbEntity
  8
ZISSEN1
100
AcDbLine
 10
-1089.618055231363
 20
1634.771451569581
 30
0.0
 11
-1096.618055231364
 21
1634.771451569581
 31
0.0
  0
LINE
  5
16EC1
102
{ACAD_REACTORS
330
16F39
102
}
330
1A
100
AcDbEntity
  8
ZISSEN1
100
AcDbLine
 10
-1103.368055231363
 20
1634.771451569581
 30
0.0
 11
-1098.268055231363
 21
1634.771451569581
 31
0.0
  0
LWPOLYLINE
  5
16EC2
102
{ACAD_REACTORS
330
16F39
102
}
330
1A
100
AcDbEntity
  8
ZISSEN1
100
AcDbPolyline
 90
        4
 70
     1
 43
0.0
 10
-1104.818055231363
 20
1635.071451569581
 10
-1103.568055231363
 20
1635.071451569581
 10
-1103.568055231363
 20
1635.671451569581
 10
-1104.818055231363
 20
1635.671451569581
  0
LWPOLYLINE
  5
16EC3
102
{ACAD_REACTORS
330
16F39
102
}
330
1A
100
AcDbEntity
  8
ZISSEN1
100
AcDbPolyline
 90
        4
 70
     1
 43
0.0
 10
-1098.068055231363
 20
1635.071451569581
 10
-1096.818055231364
 20
1635.071451569581
 10
-1096.818055231364
 20
1635.67145156958
 10
-1098.068055231363
 20
1635.67145156958
  0
LINE
  5
16EC4
102
{ACAD_REACTORS
330
16F39
102
}
330
1A
100
AcDbEntity
  8
ZISSEN1
100
AcDbLine
 10
-1090.468055231364
 20
1635.471451569581
 30
0.0
 11
-1090.468055231364
 21
1640.871451569581
 31
0.0
  0
LINE
  5
16EC5
102
{ACAD_REACTORS
330
16F39
102
}
330
1A
100
AcDbEntity
  8
ZISSEN1
100
AcDbLine
 10
-1090.468055231364
 20
1640.871451569581
 30
0.0
 11
-1090.468055231364
 21
1635.471451569581
 31
0.0
  0
LINE
  5
16EC6
102
{ACAD_REACTORS
330
16F39
102
}
330
1A
100
AcDbEntity
  8
ZISSEN1
100
AcDbLine
 10
-1111.168055231363
 20
1635.471451569581
 30
0.0
 11
-1111.168055231363
 21
1640.871451569581
 31
0.0
  0
LINE
  5
16EC7
102
{ACAD_REACTORS
330
16F39
102
}
330
1A
100
AcDbEntity
  8
ZISSEN1
100
AcDbLine
 10
-1090.468055231364
 20
1640.871451569581
 30
0.0
 11
-1090.468055231364
 21
1635.471451569581
 31
0.0
  0
LINE
  5
16EC8
102
{ACAD_REACTORS
330
16F39
102
}
330
1A
100
AcDbEntity
  8
ZISSEN1
100
AcDbLine
 10
-1112.018055231363
 20
1634.771451569581
 30
0.0
 11
-1112.018055231363
 21
1641.571451569581
 31
0.0
  0
LINE
  5
16EC9
102
{ACAD_REACTORS
330
16F39
102
}
330
1A
100
AcDbEntity
  8
ZISSEN1
100
AcDbLine
 10
-1089.618055231363
 20
1641.571451569581
 30
0.0
 11
-1089.618055231363
 21
1634.771451569581
 31
0.0
  0
LINE
  5
16F0A
102
{ACAD_REACTORS
330
16F36
102
}
330
1A
100
AcDbEntity
  8
ZISSEN1
100
AcDbLine
 10
-1077.218055231365
 20
1598.669258873082
 30
0.0
 11
-1069.818055231364
 21
1598.669258873082
 31
0.0
  0
LINE
  5
16F0B
102
{ACAD_REACTORS
330
16F36
102
}
330
1A
100
AcDbEntity
  8
ZISSEN1
100
AcDbLine
 10
-1069.818055231364
 20
1591.069258873082
 30
0.0
 11
-1069.818055231364
 21
1598.669258873082
 31
0.0
  0
LINE
  5
16F0C
102
{ACAD_REACTORS
330
16F36
102
}
330
1A
100
AcDbEntity
  8
ZISSEN1
100
AcDbLine
 10
-1077.218055231365
 20
1591.069258873082
 30
0.0
 11
-1077.218055231365
 21
1598.669258873082
 31
0.0
  0
LINE
  5
16F0D
102
{ACAD_REACTORS
330
16F36
102
}
330
1A
100
AcDbEntity
  8
ZISSEN1
100
AcDbLine
 10
-1077.218055231365
 20
1591.069258873082
 30
0.0
 11
-1069.818055231364
 21
1591.069258873082
 31
0.0
  0
LWPOLYLINE
  5
16F17
102
{ACAD_REACTORS
330
16F36
102
}
330
1A
100
AcDbEntity
  8
ZISSEN1
100
AcDbPolyline
 90
        4
 70
     1
 43
0.0
 10
-1074.143055231365
 20
1592.169258873082
 10
-1072.893055231365
 20
1592.169258873082
 10
-1072.893055231365
 20
1592.769258873082
 10
-1074.143055231365
 20
1592.769258873082
  0
LINE
  5
16F18
102
{ACAD_REACTORS
330
16F36
102
}
330
1A
100
AcDbEntity
  8
ZISSEN1
100
AcDbLine
 10
-1069.818055231365
 20
1591.869258873082
 30
0.0
 11
-1072.268055231365
 21
1591.869258873082
 31
0.0
  0
LINE
  5
16F19
102
{ACAD_REACTORS
330
16F36
102
}
330
1A
100
AcDbEntity
  8
ZISSEN1
100
AcDbLine
 10
-1072.268055231365
 20
1592.769258873082
 30
0.0
 11
-1072.268055231365
 21
1591.869258873082
 31
0.0
  0
LINE
  5
16F1A
102
{ACAD_REACTORS
330
16F36
102
}
330
1A
100
AcDbEntity
  8
ZISSEN1
100
AcDbLine
 10
-1071.668055231364
 20
1592.569258873082
 30
0.0
 11
-1071.668055231364
 21
1593.369258873081
 31
0.0
  0
LINE
  5
16F1B
102
{ACAD_REACTORS
330
16F36
102
}
330
1A
100
AcDbEntity
  8
ZISSEN1
100
AcDbLine
 10
-1070.668055231364
 20
1592.569258873082
 30
0.0
 11
-1071.668055231364
 21
1592.569258873082
 31
0.0
  0
LINE
  5
16F1C
102
{ACAD_REACTORS
330
16F36
102
}
330
1A
100
AcDbEntity
  8
ZISSEN1
100
AcDbLine
 10
-1069.818055231365
 20
1598.669258873082
 30
0.0
 11
-1069.818055231365
 21
1591.869258873082
 31
0.0
  0
LINE
  5
16F1D
102
{ACAD_REACTORS
330
16F36
102
}
330
1A
100
AcDbEntity
  8
ZISSEN1
100
AcDbLine
 10
-1070.668055231364
 20
1597.969258873082
 30
0.0
 11
-1070.668055231364
 21
1592.569258873082
 31
0.0
  0
LINE
  5
16F1E
102
{ACAD_REACTORS
330
16F36
102
}
330
1A
100
AcDbEntity
  8
ZISSEN1
100
AcDbLine
 10
-1070.668055231364
 20
1597.969258873082
 30
0.0
 11
-1070.668055231364
 21
1592.569258873082
 31
0.0
  0
LINE
  5
16F1F
102
{ACAD_REACTORS
330
16F36
102
}
330
1A
100
AcDbEntity
  8
ZISSEN1
100
AcDbLine
 10
-1070.668055231364
 20
1592.569258873082
 30
0.0
 11
-1070.668055231364
 21
1597.969258873082
 31
0.0
  0
LINE
  5
16F20
102
{ACAD_REACTORS
330
16F36
102
}
330
1A
100
AcDbEntity
  8
ZISSEN1
100
AcDbLine
 10
-1074.768055231365
 20
1591.869258873082
 30
0.0
 11
-1077.218055231365
 21
1591.869258873082
 31
0.0
  0
LINE
  5
16F21
102
{ACAD_REACTORS
330
16F36
102
}
330
1A
100
AcDbEntity
  8
ZISSEN1
100
AcDbLine
 10
-1074.768055231365
 20
1591.869258873082
 30
0.0
 11
-1074.768055231365
 21
1592.769258873082
 31
0.0
  0
LINE
  5
16F22
102
{ACAD_REACTORS
330
16F36
102
}
330
1A
100
AcDbEntity
  8
ZISSEN1
100
AcDbLine
 10
-1075.368055231364
 20
1592.569258873082
 30
0.0
 11
-1076.368055231364
 21
1592.569258873082
 31
0.0
  0
LINE
  5
16F23
102
{ACAD_REACTORS
330
16F36
102
}
330
1A
100
AcDbEntity
  8
ZISSEN1
100
AcDbLine
 10
-1075.368055231364
 20
1593.369258873081
 30
0.0
 11
-1075.368055231364
 21
1592.569258873082
 31
0.0
  0
LINE
  5
16F24
102
{ACAD_REACTORS
330
16F36
102
}
330
1A
100
AcDbEntity
  8
ZISSEN1
100
AcDbLine
 10
-1077.218055231365
 20
1591.869258873082
 30
0.0
 11
-1077.218055231365
 21
1598.669258873082
 31
0.0
  0
LINE
  5
16F25
102
{ACAD_REACTORS
330
16F36
102
}
330
1A
100
AcDbEntity
  8
ZISSEN1
100
AcDbLine
 10
-1076.368055231364
 20
1592.569258873082
 30
0.0
 11
-1076.368055231364
 21
1597.969258873082
 31
0.0
  0
LINE
  5
16F26
102
{ACAD_REACTORS
330
16F36
102
}
330
1A
100
AcDbEntity
  8
ZISSEN1
100
AcDbLine
 10
-1077.218055231365
 20
1598.669258873082
 30
0.0
 11
-1069.818055231365
 21
1598.669258873082
 31
0.0
  0
LINE
  5
16F27
102
{ACAD_REACTORS
330
16F36
102
}
330
1A
100
AcDbEntity
  8
ZISSEN1
100
AcDbLine
 10
-1076.368055231364
 20
1597.969258873082
 30
0.0
 11
-1070.668055231364
 21
1597.969258873082
 31
0.0
  0
LINE
  5
16F28
102
{ACAD_REACTORS
330
16F36
102
}
330
1A
100
AcDbEntity
  8
ZISSEN1
100
AcDbLine
 10
-1071.668055231364
 20
1593.369258873081
 30
0.0
 11
-1075.368055231364
 21
1593.369258873081
 31
0.0
  0
LINE
  5
16F29
102
{ACAD_REACTORS
330
16F36
102
}
330
1A
100
AcDbEntity
  8
ZISSEN1
100
AcDbLine
 10
-1074.768055231365
 20
1592.769258873082
 30
0.0
 11
-1072.268055231365
 21
1592.769258873082
 31
0.0
  0
LINE
  5
16F4E
330
1A
100
AcDbEntity
  8
ZISSEN1
100
AcDbLine
 10
-990.8180552313647
 20
1641.573527651526
 30
0.0
 11
-990.8180552313647
 21
1585.573527651525
 31
0.0
  0
LINE
  5
16F68
330
1A
100
AcDbEntity
  8
CL1
100
AcDbLine
 10
-997.7680552313632
 20
1581.073527651525
 30
0.0
 11
-994.2680552313632
 21
1581.073527651525
 31
0.0
  0
LINE
  5
16F69
330
1A
100
AcDbEntity
  8
CL1
100
AcDbLine
 10
-996.0180552313632
 20
1578.573527651525
 30
0.0
 11
-996.0180552313632
 21
1583.823527651524
 31
0.0
  0
LINE
  5
16F6B
330
1A
100
AcDbEntity
  8
CL1
100
AcDbLine
 10
-1118.448290887666
 20
1581.073527651525
 30
0.0
 11
-1114.580768205473
 21
1581.073527651525
 31
0.0
  0
LINE
  5
16F6C
330
1A
100
AcDbEntity
  8
CL1
100
AcDbLine
 10
-1118.532981052749
 20
1646.073527651524
 30
0.0
 11
-1114.496078040391
 21
1646.073527651524
 31
0.0
  0
LINE
  5
16F6D
330
1A
100
AcDbEntity
  8
CL1
100
AcDbLine
 10
-997.7680552313632
 20
1646.073527651524
 30
0.0
 11
-994.2680552313632
 21
1646.073527651524
 31
0.0
  0
LINE
  5
16F6E
330
1A
100
AcDbEntity
  8
CL1
100
AcDbLine
 10
-996.0180552313632
 20
1643.323527651526
 30
0.0
 11
-996.0180552313632
 21
1648.573527651524
 31
0.0
  0
DIMENSION
  5
16F70
330
1A
100
AcDbEntity
  8
SUNPOU
100
AcDbDimension
  2
*D1
 10
-1042.563814065654
 20
1544.273527651525
 30
0.0
 11
-1045.313814065654
 21
1534.323527651525
 31
0.0
 70
    32
  1
(19.9)
  3
標準スタイル
100
AcDbAlignedDimension
 13
-1070.018055231361
 23
1524.373527651526
 33
0.0
 14
-1053.318055231361
 24
1544.273527651525
 34
0.0
 50
90.0
100
AcDbRotatedDimension
1001
ACAD
1000
DSTYLE
1002
{
1070
   340
1005
10
1070
    40
1040
1.0
1002
}
  0
DIMENSION
  5
16FC5
330
1A
100
AcDbEntity
  8
SUNPOU
100
AcDbDimension
  2
*D2
 10
-1115.018055231361
 20
1554.909337241108
 30
0.0
 11
-1106.851388564694
 21
1557.659337241108
 31
0.0
 70
    32
  3
標準スタイル
100
AcDbAlignedDimension
 13
-1118.018055231361
 23
1548.373527651525
 33
0.0
 14
-1115.018055231361
 24
1548.373527651525
 34
0.0
100
AcDbRotatedDimension
1001
ACAD
1000
DSTYLE
1002
{
1070
   340
1005
10
1070
    40
1040
1.0
1002
}
  0
DIMENSION
  5
16FE0
330
1A
100
AcDbEntity
  8
SUNPOU
100
AcDbDimension
  2
*D3
 10
-1127.612279872921
 20
1578.573527651525
 30
0.0
 11
-1130.362279872921
 21
1613.573527651525
 31
0.0
 70
    32
  3
標準スタイル
100
AcDbAlignedDimension
 13
-1118.018055231363
 23
1648.573527651525
 33
0.0
 14
-1118.018055231363
 24
1578.573527651525
 34
0.0
 50
90.0
100
AcDbRotatedDimension
1001
ACAD
1000
DSTYLE
1002
{
1070
   340
1005
10
1070
    40
1040
1.0
1002
}
  0
DIMENSION
  5
16FF7
330
1A
100
AcDbEntity
  8
SUNPOU
100
AcDbDimension
  2
*D4
 10
-994.2680552313632
 20
1656.694825407893
 30
0.0
 11
-983.7680552313631
 21
1659.444825407893
 31
0.0
 70
    32
  3
標準スタイル
100
AcDbAlignedDimension
 13
-997.7680552313632
 23
1648.573527651524
 33
0.0
 14
-994.2680552313632
 24
1648.573527651524
 34
0.0
100
AcDbRotatedDimension
1001
ACAD
1000
DSTYLE
1002
{
1070
   340
1005
10
1070
    40
1040
1.0
1002
}
  0
DIMENSION
  5
17011
330
1A
100
AcDbEntity
  8
SUNPOU
100
AcDbDimension
  2
*D5
 10
-1017.508232993183
 20
1581.073527651525
 30
0.0
 11
-1020.258232993183
 21
1613.573527651524
 31
0.0
 70
    32
  3
標準スタイル
100
AcDbAlignedDimension
 13
-996.0180552313632
 23
1646.073527651524
 33
0.0
 14
-996.0180552313632
 24
1581.073527651525
 34
0.0
 50
90.0
100
AcDbRotatedDimension
1001
ACAD
1000
DSTYLE
1002
{
1070
   340
1005
10
1070
    40
1040
1.0
1002
}
  0
DIMENSION
  5
17053
330
1A
100
AcDbEntity
  8
SUNPOU
100
AcDbDimension
  2
*D6
 10
-1017.508232993183
 20
1578.573527651524
 30
0.0
 11
-1020.637687521511
 21
1573.076139269034
 31
0.0
 70
   160
  3
標準スタイル
100
AcDbAlignedDimension
 13
-996.0180552313632
 23
1581.073527651525
 33
0.0
 14
-1007.018055231363
 24
1578.573527651524
 34
0.0
 50
90.0
100
AcDbRotatedDimension
1001
ACAD
1000
DSTYLE
1002
{
1070
   287
1070
     5
1070
   287
1070
     5
1070
   340
1005
10
1070
    40
1040
1.0
1070
    77
1070
     3
1070
   279
1070
     2
1002
}
  0
DIMENSION
  5
17090
330
1A
100
AcDbEntity
  8
SUNPOU
100
AcDbDimension
  2
*D7
 10
-1017.508232993183
 20
1648.573527651524
 30
0.0
 11
-1020.34036635016
 21
1655.223199267503
 31
0.0
 70
   160
  3
標準スタイル
100
AcDbAlignedDimension
 13
-996.0180552313632
 23
1646.073527651524
 33
0.0
 14
-1007.018055231363
 24
1648.573527651524
 34
0.0
 50
90.0
100
AcDbRotatedDimension
1001
ACAD
1000
DSTYLE
1002
{
1070
   287
1070
     5
1070
   287
1070
     5
1070
   340
1005
10
1070
    40
1040
1.0
1070
   279
1070
     2
1002
}
  0
DIMENSION
  5
170C0
330
1A
100
AcDbEntity
  8
SUNPOU
100
AcDbDimension
  2
*D8
 10
-996.0180552313632
 20
1570.228021901835
 30
0.0
 11
-990.0180552313631
 21
1572.978021901835
 31
0.0
 70
    32
  3
標準スタイル
100
AcDbAlignedDimension
 13
-984.0180552313631
 23
1585.073527651524
 33
0.0
 14
-996.0180552313632
 24
1581.073527651525
 34
0.0
100
AcDbRotatedDimension
1001
ACAD
1000
DSTYLE
1002
{
1070
   340
1005
10
1070
    40
1040
1.0
1002
}
  0
DIMENSION
  5
170CD
330
1A
100
AcDbEntity
  8
SUNPOU
100
AcDbDimension
  2
*D9
 10
-1008.018055231363
 20
1560.684259764402
 30
0.0
 11
-996.0180552313632
 21
1563.434259764402
 31
0.0
 70
    32
  3
標準スタイル
100
AcDbAlignedDimension
 13
-984.0180552313631
 23
1585.073527651524
 33
0.0
 14
-1008.018055231363
 24
1579.573527651524
 34
0.0
100
AcDbRotatedDimension
1001
ACAD
1000
DSTYLE
1002
{
1070
   340
1005
10
1070
    40
1040
1.0
1002
}
  0
LINE
  5
17188
330
1A
100
AcDbEntity
  8
CL1
100
AcDbLine
 10
-1118.674132062661
 20
1536.373527651526
 30
0.0
 11
-1114.411387875308
 21
1536.373527651526
 31
0.0
  0
LINE
  5
17189
330
1A
100
AcDbEntity
  8
ZISSEN1
100
AcDbLine
 10
-1118.01805523136
 20
1538.123527651526
 30
0.0
 11
-1115.018055231361
 21
1538.123527651526
 31
0.0
  0
LINE
  5
1718A
330
1A
100
AcDbEntity
  8
ZISSEN1
100
AcDbLine
 10
-1118.01805523136
 20
1534.623527651526
 30
0.0
 11
-1115.018055231361
 21
1534.623527651526
 31
0.0
  0
VIEWPORT
  5
5D8F
330
5D8E
100
AcDbEntity
 67
     1
  8
0
100
AcDbViewport
 10
221.7979786876383
 20
157.6984890627101
 30
0.0
 40
468.5684599252842
 41
262.9519205487881
 68
     1
 69
     1
1001
ACAD
1000
MVIEW
1002
{
1070
    16
1010
0.0
1020
0.0
1030
0.0
1010
0.0
1020
0.0
1030
1.0
1040
0.0
1040
262.9519205487881
1040
221.7979786876383
1040
157.6984890627101
1040
50.0
1040
0.0
1040
0.0
1070
     0
1070
   100
1070
     1
1070
     0
1070
     0
1070
     0
1070
     0
1070
     0
1040
0.0
1040
0.0
1040
0.0
1040
1.0
1040
1.0
1040
10.0
1040
10.0
1070
     0
1002
{
1002
}
1002
}
  0
VIEWPORT
  5
6001
330
5D8E
100
AcDbEntity
 67
     1
  8
ZISSEN1
100
AcDbViewport
 10
221.7861955525412
 20
157.6960273330388
 30
0.0
 40
385.4999999999997
 41
259.9999999999999
 68
     2
 69
     2
1001
ACAD
1000
MVIEW
1002
{
1070
    16
1010
0.0
1020
0.0
1030
0.0
1010
0.0
1020
0.0
1030
1.0
1040
0.0
1040
260.0000006924742
1040
-1062.177415165843
1040
1601.117148324707
1040
50.0
1040
0.0
1040
0.0
1070
     0
1070
   100
1070
     1
1070
     0
1070
     0
1070
     0
1070
     0
1070
     0
1040
0.0
1040
0.0
1040
0.0
1040
1.0
1040
1.0
1040
10.0
1040
10.0
1070
     0
1002
{
1002
}
1002
}
  0
TEXT
  5
716F
330
5D8E
100
AcDbEntity
 67
     1
  8
SUNPOU
 62
     0
100
AcDbText
 10
374.1863124306944
 20
60.86794705907585
 30
0.0
 40
3.5
  1
縮尺 1/1
  7
ゴシック体
100
AcDbText
  0
ENDSEC
  0
SECTION
  2
OBJECTS
  0
DICTIONARY
  5
C
330
0
100
AcDbDictionary
  3
ACAD_GROUP
350
D
  3
ACAD_LAYOUT
350
5C7D
  3
ACAD_MLINESTYLE
350
E
  3
ACAD_PLOTSETTINGS
350
5C7E
  3
ACAD_PLOTSTYLENAME
350
5C7B
  3
DWGPROPS
350
12861
  3
ACDBHEADERROUNDTRIPXREC
350
17230
  0
DICTIONARY
  5
14053
330
2
100
AcDbDictionary
280
     1
  3
ACAD_LAYERFILTERS
360
14054
  0
DICTIONARY
  5
171B2
330
1A
100
AcDbDictionary
280
     1
  3
ACAD_LAYOUTSELFREF
360
17250
  0
DICTIONARY
  5
171B8
330
5D8E
100
AcDbDictionary
280
     1
  3
ACAD_LAYOUTSELFREF
360
17251
  0
DICTIONARY
  5
D
102
{ACAD_REACTORS
330
C
102
}
330
C
100
AcDbDictionary
  3
*A1
350
477D
  3
*A2
350
4C16
  3
*A3
350
4C17
  3
*A4
350
4781
  3
*A5
350
477E
  3
*A6
350
477F
  3
*A7
350
4780
  3
*A8
350
4C0E
  3
*A9
350
4C0F
  3
*A10
350
13E2E
  3
*A11
350
4C10
  3
*A12
350
16E43
  3
*A13
350
4C11
  3
*A14
350
4C12
  3
*A15
350
16DE9
  3
*A16
350
16E51
  3
*A17
350
4C13
  3
*A18
350
16F36
  3
*A19
350
16F37
  3
*A20
350
16F39
  3
*A21
350
4C14
  3
*A22
350
4C15
  0
DICTIONARY
  5
5C7D
102
{ACAD_REACTORS
330
C
102
}
330
C
100
AcDbDictionary
  0
DICTIONARY
  5
E
102
{ACAD_REACTORS
330
C
102
}
330
C
100
AcDbDictionary
  3
STANDARD
350
13
  0
DICTIONARY
  5
5C7E
102
{ACAD_REACTORS
330
C
102
}
330
C
100
AcDbDictionary
  0
ACDBDICTIONARYWDFLT
  5
5C7B
102
{ACAD_REACTORS
330
C
102
}
330
C
100
AcDbDictionary
281
     1
  3
Normal
350
5C7C
100
AcDbDictionaryWithDefault
340
5C7C
  0
XRECORD
  5
12861
102
{ACAD_REACTORS
330
C
102
}
330
C
100
AcDbXrecord
  1
DWGPROPS COOKIE
  2

  3

  4

  6

  7

  8

  9

300
=
301
=
302
=
303
=
304
=
305
=
306
=
307
=
308
=
309
=
 40
1.583646701388888
 41
2450495.493631365
 42
2455325.72058449
  1

 90
        0
  0
DICTIONARY
  5
17230
102
{ACAD_REACTORS
330
C
102
}
330
C
100
AcDbDictionary
  3
TSTACKALIGN
350
17231
  3
TSTACKSIZE
350
17232
  3
HYPERLINKBASE
350
17233
  3
STYLESHEET
350
17234
  3
LAYOUTDICT
350
17235
  3
PLOTSETDICT
350
17236
  3
PLOTSTYLNAMDICT
350
17237
  3
LWETCUNION
350
17238
  3
INSUNITS
350
17239
  3
CEPSNTYPE
350
1723A
  3
FINGERPRINTGUID
350
1723B
  3
VERSIONGUID
350
1723C
  3
PSVPSCALE
350
1723D
  3
PUCSORTHOREF
350
1723E
  3
PUCSORTHOVIEW
350
1723F
  3
PUCSBASE
350
17240
  3
PUCSORGTOP
350
17241
  3
PUCSORGBOTTOM
350
17242
  3
PUCSORGLEFT
350
17243
  3
PUCSORGRIGHT
350
17244
  3
PUCSORGFRONT
350
17245
  3
PUCSORGBACK
350
17246
  3
UCSORTHOREF
350
17247
  3
UCSORTHOVIEW
350
17248
  3
UCSBASE
350
17249
  3
UCSORGTOP
350
1724A
  3
UCSORGBOTTOM
350
1724B
  3
UCSORGLEFT
350
1724C
  3
UCSORGRIGHT
350
1724D
  3
UCSORGFRONT
350
1724E
  3
UCSORGBACK
350
1724F
  0
DICTIONARY
  5
14054
102
{ACAD_REACTORS
330
14053
102
}
330
14053
100
AcDbDictionary
280
     1
  3
BASE
360
14055
  3
CASE
360
14056
  3
KIKOU
360
14057
  0
XRECORD
  5
17250
102
{ACAD_REACTORS
330
171B2
102
}
330
171B2
100
AcDbXrecord
340
1A
  0
XRECORD
  5
17251
102
{ACAD_REACTORS
330
171B8
102
}
330
171B8
100
AcDbXrecord
340
5D8E
  0
GROUP
  5
477D
102
{ACAD_REACTORS
330
D
102
}
330
D
100
AcDbGroup
300

 70
     1
 71
     1
  0
GROUP
  5
4C16
102
{ACAD_REACTORS
330
D
102
}
330
D
100
AcDbGroup
300

 70
     1
 71
     1
  0
GROUP
  5
4C17
102
{ACAD_REACTORS
330
D
102
}
330
D
100
AcDbGroup
300

 70
     1
 71
     1
  0
GROUP
  5
4781
102
{ACAD_REACTORS
330
D
102
}
330
D
100
AcDbGroup
300

 70
     1
 71
     1
  0
GROUP
  5
477E
102
{ACAD_REACTORS
330
D
102
}
330
D
100
AcDbGroup
300

 70
     1
 71
     1
  0
GROUP
  5
477F
102
{ACAD_REACTORS
330
D
102
}
330
D
100
AcDbGroup
300

 70
     1
 71
     1
  0
GROUP
  5
4780
102
{ACAD_REACTORS
330
D
102
}
330
D
100
AcDbGroup
300

 70
     1
 71
     1
  0
GROUP
  5
4C0E
102
{ACAD_REACTORS
330
D
102
}
330
D
100
AcDbGroup
300

 70
     1
 71
     1
  0
GROUP
  5
4C0F
102
{ACAD_REACTORS
330
D
102
}
330
D
100
AcDbGroup
300

 70
     1
 71
     1
  0
GROUP
  5
13E2E
102
{ACAD_REACTORS
330
D
102
}
330
D
100
AcDbGroup
300

 70
     1
 71
     1
  0
GROUP
  5
4C10
102
{ACAD_REACTORS
330
D
102
}
330
D
100
AcDbGroup
300

 70
     1
 71
     1
  0
GROUP
  5
16E43
102
{ACAD_REACTORS
330
D
102
}
330
D
100
AcDbGroup
300

 70
     1
 71
     1
340
16025
340
16023
340
16022
340
16019
340
16018
340
16017
340
16016
340
16012
340
16011
340
16010
340
1600F
340
16024
  0
GROUP
  5
4C11
102
{ACAD_REACTORS
330
D
102
}
330
D
100
AcDbGroup
300

 70
     1
 71
     1
  0
GROUP
  5
4C12
102
{ACAD_REACTORS
330
D
102
}
330
D
100
AcDbGroup
300

 70
     1
 71
     1
  0
GROUP
  5
16DE9
102
{ACAD_REACTORS
330
D
102
}
330
D
100
AcDbGroup
300

 70
     1
 71
     1
  0
GROUP
  5
16E51
102
{ACAD_REACTORS
330
D
102
}
330
D
100
AcDbGroup
300

 70
     1
 71
     1
340
16E46
340
16E45
340
16E47
340
16E48
340
16E49
340
16E4A
340
16E4B
340
16E4C
340
16E4D
340
16E4E
340
16E4F
340
16E50
  0
GROUP
  5
4C13
102
{ACAD_REACTORS
330
D
102
}
330
D
100
AcDbGroup
300

 70
     1
 71
     1
  0
GROUP
  5
16F36
102
{ACAD_REACTORS
330
D
102
}
330
D
100
AcDbGroup
300

 70
     1
 71
     1
340
16F29
340
16F28
340
16F27
340
16F26
340
16F17
340
16F0D
340
16F0A
340
16F25
340
16F24
340
16F23
340
16F22
340
16F21
340
16F20
340
16F0C
340
16F1F
340
16F1E
340
16F1D
340
16F1C
340
16F1B
340
16F1A
340
16F19
340
16F18
340
16F0B
  0
GROUP
  5
16F37
102
{ACAD_REACTORS
330
D
102
}
330
D
100
AcDbGroup
300

 70
     1
 71
     1
340
16582
340
16575
340
16571
340
16570
340
1656D
340
16578
340
16577
340
16574
340
16573
340
16572
340
16588
340
16587
340
16586
340
16585
340
16584
340
16583
340
16581
340
16580
340
1657F
340
1657E
340
1657D
340
1657C
340
1657B
340
1657A
340
16579
340
16576
340
1656F
340
1656E
  0
GROUP
  5
16F39
102
{ACAD_REACTORS
330
D
102
}
330
D
100
AcDbGroup
300

 70
     1
 71
     1
340
16EC9
340
16EC8
340
16EC7
340
16EC6
340
16EC5
340
16EC4
340
16EC3
340
16EC2
340
16EC1
340
16EC0
340
16EBF
340
16EBE
340
16EBD
340
16EBC
340
16EBB
340
16EBA
340
16EB9
340
16EB8
340
16EB7
340
16EB6
340
16EB5
340
16EB4
340
16EB3
340
16EB2
340
16EB1
340
16EB0
340
16EAF
340
16EAE
  0
GROUP
  5
4C14
102
{ACAD_REACTORS
330
D
102
}
330
D
100
AcDbGroup
300

 70
     1
 71
     1
  0
GROUP
  5
4C15
102
{ACAD_REACTORS
330
D
102
}
330
D
100
AcDbGroup
300

 70
     1
 71
     1
  0
MLINESTYLE
  5
13
102
{ACAD_REACTORS
330
E
102
}
330
E
100
AcDbMlineStyle
  2
STANDARD
 70
     0
  3

 62
     0
 51
90.0
 52
90.0
 71
     2
 49
0.5
 62
   256
  6
BYLAYER
 49
-0.5
 62
   256
  6
BYLAYER
  0
ACDBPLACEHOLDER
  5
5C7C
102
{ACAD_REACTORS
330
5C7B
102
}
330
5C7B
100
AcDbPlaceHolder
280
     0
  0
XRECORD
  5
17231
102
{ACAD_REACTORS
330
17230
102
}
330
17230
100
AcDbXrecord
 90
        1
  0
XRECORD
  5
17232
102
{ACAD_REACTORS
330
17230
102
}
330
17230
100
AcDbXrecord
 90
       70
  0
XRECORD
  5
17233
102
{ACAD_REACTORS
330
17230
102
}
330
17230
100
AcDbXrecord
  1

  0
XRECORD
  5
17234
102
{ACAD_REACTORS
330
17230
102
}
330
17230
100
AcDbXrecord
  1

  0
XRECORD
  5
17235
102
{ACAD_REACTORS
330
17230
102
}
330
17230
100
AcDbXrecord
340
5C7D
  0
XRECORD
  5
17236
102
{ACAD_REACTORS
330
17230
102
}
330
17230
100
AcDbXrecord
340
5C7E
  0
XRECORD
  5
17237
102
{ACAD_REACTORS
330
17230
102
}
330
17230
100
AcDbXrecord
340
5C7B
  0
XRECORD
  5
17238
102
{ACAD_REACTORS
330
17230
102
}
330
17230
100
AcDbXrecord
 90
    10781
  0
XRECORD
  5
17239
102
{ACAD_REACTORS
330
17230
102
}
330
17230
100
AcDbXrecord
 90
        0
  0
XRECORD
  5
1723A
102
{ACAD_REACTORS
330
17230
102
}
330
17230
100
AcDbXrecord
 90
        0
  0
XRECORD
  5
1723B
102
{ACAD_REACTORS
330
17230
102
}
330
17230
100
AcDbXrecord
  1
{225A7F0D-DA29-11D8-946A-0000E2416295}
  0
XRECORD
  5
1723C
102
{ACAD_REACTORS
330
17230
102
}
330
17230
100
AcDbXrecord
  1
{A1969CD7-B7AC-4672-B4BD-CCFB09249287}
  0
XRECORD
  5
1723D
102
{ACAD_REACTORS
330
17230
102
}
330
17230
100
AcDbXrecord
 40
0.0
  0
XRECORD
  5
1723E
102
{ACAD_REACTORS
330
17230
102
}
330
17230
100
AcDbXrecord
340
0
  0
XRECORD
  5
1723F
102
{ACAD_REACTORS
330
17230
102
}
330
17230
100
AcDbXrecord
 70
     0
  0
XRECORD
  5
17240
102
{ACAD_REACTORS
330
17230
102
}
330
17230
100
AcDbXrecord
340
0
  0
XRECORD
  5
17241
102
{ACAD_REACTORS
330
17230
102
}
330
17230
100
AcDbXrecord
 10
0.0
 20
0.0
 30
0.0
  0
XRECORD
  5
17242
102
{ACAD_REACTORS
330
17230
102
}
330
17230
100
AcDbXrecord
 10
0.0
 20
0.0
 30
0.0
  0
XRECORD
  5
17243
102
{ACAD_REACTORS
330
17230
102
}
330
17230
100
AcDbXrecord
 10
0.0
 20
0.0
 30
0.0
  0
XRECORD
  5
17244
102
{ACAD_REACTORS
330
17230
102
}
330
17230
100
AcDbXrecord
 10
0.0
 20
0.0
 30
0.0
  0
XRECORD
  5
17245
102
{ACAD_REACTORS
330
17230
102
}
330
17230
100
AcDbXrecord
 10
0.0
 20
0.0
 30
0.0
  0
XRECORD
  5
17246
102
{ACAD_REACTORS
330
17230
102
}
330
17230
100
AcDbXrecord
 10
0.0
 20
0.0
 30
0.0
  0
XRECORD
  5
17247
102
{ACAD_REACTORS
330
17230
102
}
330
17230
100
AcDbXrecord
340
0
  0
XRECORD
  5
17248
102
{ACAD_REACTORS
330
17230
102
}
330
17230
100
AcDbXrecord
 70
     0
  0
XRECORD
  5
17249
102
{ACAD_REACTORS
330
17230
102
}
330
17230
100
AcDbXrecord
340
0
  0
XRECORD
  5
1724A
102
{ACAD_REACTORS
330
17230
102
}
330
17230
100
AcDbXrecord
 10
0.0
 20
0.0
 30
0.0
  0
XRECORD
  5
1724B
102
{ACAD_REACTORS
330
17230
102
}
330
17230
100
AcDbXrecord
 10
0.0
 20
0.0
 30
0.0
  0
XRECORD
  5
1724C
102
{ACAD_REACTORS
330
17230
102
}
330
17230
100
AcDbXrecord
 10
0.0
 20
0.0
 30
0.0
  0
XRECORD
  5
1724D
102
{ACAD_REACTORS
330
17230
102
}
330
17230
100
AcDbXrecord
 10
0.0
 20
0.0
 30
0.0
  0
XRECORD
  5
1724E
102
{ACAD_REACTORS
330
17230
102
}
330
17230
100
AcDbXrecord
 10
0.0
 20
0.0
 30
0.0
  0
XRECORD
  5
1724F
102
{ACAD_REACTORS
330
17230
102
}
330
17230
100
AcDbXrecord
 10
0.0
 20
0.0
 30
0.0
  0
XRECORD
  5
14055
102
{ACAD_REACTORS
330
14054
102
}
330
14054
100
AcDbXrecord
  1
BASE
  1
BASE*
  1
*
  1
*
 70
     0
  1
*
  1
*
  0
XRECORD
  5
14056
102
{ACAD_REACTORS
330
14054
102
}
330
14054
100
AcDbXrecord
  1
CASE
  1
CASE*
  1
*
  1
*
 70
     0
  1
*
  1
*
  0
XRECORD
  5
14057
102
{ACAD_REACTORS
330
14054
102
}
330
14054
100
AcDbXrecord
  1
KIKOU
  1
KIKOU*
  1
*
  1
*
 70
     0
  1
*
  1
*
  0
ENDSEC
  0
EOF
