  0
SECTION
  2
HEADER
  9
$ACADVER
  1
AC1014
  9
$ACADMAINTVER
 70
     9
  9
$DWGCODEPAGE
  3
ANSI_932
  9
$INSBASE
 10
0.0
 20
0.0
 30
0.0
  9
$EXTMIN
 10
-1751.510909169386
 20
1672.448949095366
 30
-0.00000001
  9
$EXTMAX
 10
-1448.787932415434
 20
1891.907349776612
 30
0.00000001
  9
$LIMMIN
 10
0.0
 20
0.0
  9
$LIMMAX
 10
420.0
 20
297.0
  9
$ORTHOMODE
 70
     1
  9
$REGENMODE
 70
     1
  9
$FILLMODE
 70
     1
  9
$QTEXTMODE
 70
     0
  9
$MIRRTEXT
 70
     1
  9
$DRAGMODE
 70
     2
  9
$LTSCALE
 40
1.0
  9
$OSMODE
 70
    37
  9
$ATTMODE
 70
     1
  9
$TEXTSIZE
 40
2.5
  9
$TRACEWID
 40
1.0
  9
$TEXTSTYLE
  7
ゴシック体
  9
$CLAYER
  8
SUNPOU
  9
$CELTYPE
  6
BYLAYER
  9
$CECOLOR
 62
   256
  9
$CELTSCALE
 40
1.0
  9
$DELOBJ
 70
     1
  9
$DISPSILH
 70
     0
  9
$DIMSCALE
 40
0.0
  9
$DIMASZ
 40
3.0
  9
$DIMEXO
 40
0.5
  9
$DIMDLI
 40
0.5
  9
$DIMRND
 40
0.0
  9
$DIMDLE
 40
0.0
  9
$DIMEXE
 40
0.5
  9
$DIMTP
 40
0.0
  9
$DIMTM
 40
0.0
  9
$DIMTXT
 40
3.5
  9
$DIMCEN
 40
0.0
  9
$DIMTSZ
 40
0.0
  9
$DIMTOL
 70
     0
  9
$DIMLIM
 70
     0
  9
$DIMTIH
 70
     0
  9
$DIMTOH
 70
     0
  9
$DIMSE1
 70
     0
  9
$DIMSE2
 70
     0
  9
$DIMTAD
 70
     1
  9
$DIMZIN
 70
     8
  9
$DIMBLK
  1

  9
$DIMASO
 70
     1
  9
$DIMSHO
 70
     1
  9
$DIMPOST
  1

  9
$DIMAPOST
  1

  9
$DIMALT
 70
     0
  9
$DIMALTD
 70
     2
  9
$DIMALTF
 40
25.4
  9
$DIMLFAC
 40
1.0
  9
$DIMTOFL
 70
     1
  9
$DIMTVP
 40
0.0
  9
$DIMTIX
 70
     0
  9
$DIMSOXD
 70
     0
  9
$DIMSAH
 70
     0
  9
$DIMBLK1
  1

  9
$DIMBLK2
  1

  9
$DIMSTYLE
  2
標準スタイル
  9
$DIMCLRD
 70
     1
  9
$DIMCLRE
 70
     1
  9
$DIMCLRT
 70
     1
  9
$DIMTFAC
 40
1.0
  9
$DIMGAP
 40
1.0
  9
$DIMJUST
 70
     0
  9
$DIMSD1
 70
     0
  9
$DIMSD2
 70
     0
  9
$DIMTOLJ
 70
     1
  9
$DIMTZIN
 70
     8
  9
$DIMALTZ
 70
     0
  9
$DIMALTTZ
 70
     0
  9
$DIMFIT
 70
     3
  9
$DIMUPT
 70
     0
  9
$DIMUNIT
 70
     2
  9
$DIMDEC
 70
     2
  9
$DIMTDEC
 70
     2
  9
$DIMALTU
 70
     2
  9
$DIMALTTD
 70
     2
  9
$DIMTXSTY
  7
ゴシック体
  9
$DIMAUNIT
 70
     0
  9
$LUNITS
 70
     2
  9
$LUPREC
 70
     4
  9
$SKETCHINC
 40
1.0
  9
$FILLETRAD
 40
0.0
  9
$AUNITS
 70
     0
  9
$AUPREC
 70
     0
  9
$MENU
  1
.
  9
$ELEVATION
 40
0.0
  9
$PELEVATION
 40
0.0
  9
$THICKNESS
 40
0.0
  9
$LIMCHECK
 70
     0
  9
$BLIPMODE
 70
     0
  9
$CHAMFERA
 40
10.0
  9
$CHAMFERB
 40
10.0
  9
$CHAMFERC
 40
2.0
  9
$CHAMFERD
 40
0.7853981633974483
  9
$SKPOLY
 70
     0
  9
$TDCREATE
 40
2450495.493631365
  9
$TDUPDATE
 40
2455482.780292245
  9
$TDINDWG
 40
1.5939590509
  9
$TDUSRTIMER
 40
1.5939590509
  9
$USRTIMER
 70
     1
  9
$ANGBASE
 50
0.0
  9
$ANGDIR
 70
     0
  9
$PDMODE
 70
    99
  9
$PDSIZE
 40
0.0
  9
$PLINEWID
 40
0.0
  9
$COORDS
 70
     1
  9
$SPLFRAME
 70
     0
  9
$SPLINETYPE
 70
     6
  9
$SPLINESEGS
 70
     8
  9
$ATTDIA
 70
     0
  9
$ATTREQ
 70
     1
  9
$HANDLING
 70
 10241
  9
$HANDSEED
  5
13703
  9
$SURFTAB1
 70
     6
  9
$SURFTAB2
 70
     6
  9
$SURFTYPE
 70
     6
  9
$SURFU
 70
     6
  9
$SURFV
 70
     6
  9
$UCSNAME
  2

  9
$UCSORG
 10
0.0
 20
0.0
 30
0.0
  9
$UCSXDIR
 10
1.0
 20
0.0
 30
0.0
  9
$UCSYDIR
 10
0.0
 20
1.0
 30
0.0
  9
$PUCSNAME
  2

  9
$PUCSORG
 10
0.0
 20
0.0
 30
0.0
  9
$PUCSXDIR
 10
1.0
 20
0.0
 30
0.0
  9
$PUCSYDIR
 10
0.0
 20
1.0
 30
0.0
  9
$USERI1
 70
     0
  9
$USERI2
 70
     0
  9
$USERI3
 70
     0
  9
$USERI4
 70
     0
  9
$USERI5
 70
     0
  9
$USERR1
 40
0.0
  9
$USERR2
 40
0.0
  9
$USERR3
 40
0.0
  9
$USERR4
 40
0.0
  9
$USERR5
 40
0.0
  9
$WORLDVIEW
 70
     1
  9
$SHADEDGE
 70
     3
  9
$SHADEDIF
 70
    70
  9
$TILEMODE
 70
     0
  9
$MAXACTVP
 70
    16
  9
$PINSBASE
 10
0.0
 20
0.0
 30
0.0
  9
$PLIMCHECK
 70
     0
  9
$PEXTMIN
 10
29.03619555254135
 20
27.69602733303884
 30
0.0
  9
$PEXTMAX
 10
414.5361955525411
 20
287.6960273330388
 30
0.0
  9
$PLIMMIN
 10
11.80443784427022
 20
9.199166450816511
  9
$PLIMMAX
 10
431.7510931177077
 20
306.2098170855821
  9
$UNITMODE
 70
     0
  9
$VISRETAIN
 70
     0
  9
$PLINEGEN
 70
     0
  9
$PSLTSCALE
 70
     1
  9
$TREEDEPTH
 70
  3020
  9
$PICKSTYLE
 70
     1
  9
$CMLSTYLE
  2
STANDARD
  9
$CMLJUST
 70
     0
  9
$CMLSCALE
 40
1.0
  9
$PROXYGRAPHICS
 70
     1
  9
$MEASUREMENT
 70
     1
  0
ENDSEC
  0
SECTION
  2
CLASSES
  0
CLASS
  1
LWPOLYLINE
  2
AcDbPolyline
  3
AutoCAD 2000
 90
        0
280
     0
281
     1
  0
CLASS
  1
HATCH
  2
AcDbHatch
  3
AutoCAD 2000
 90
        0
280
     0
281
     1
  0
CLASS
  1
ACDBDICTIONARYWDFLT
  2
AcDbDictionaryWithDefault
  3
AutoCAD 2000
 90
        0
280
     0
281
     0
  0
CLASS
  1
ACDBPLACEHOLDER
  2
AcDbPlaceHolder
  3
AutoCAD 2000
 90
        0
280
     0
281
     0
  0
CLASS
  1
LAYOUT
  2
AcDbLayout
  3
AutoCAD 2000
 90
        0
280
     0
281
     0
  0
CLASS
  1
LONG_TRANSACTION
  2
AcDbLongTransaction
  3
AutoCAD 2000
 90
        0
280
     0
281
     0
  0
CLASS
  1
LWPOLYLINE
  2
AcDbPolyline
  3
AutoCAD 2000
 90
        0
280
     0
281
     1
  0
CLASS
  1
HATCH
  2
AcDbHatch
  3
AutoCAD 2000
 90
        0
280
     0
281
     1
  0
CLASS
  1
XRECORD
  2
AcDbXrecord
  3
AutoCAD 2000
 90
        0
280
     0
281
     0
  0
ENDSEC
  0
SECTION
  2
TABLES
  0
TABLE
  2
VPORT
  5
8
330
0
100
AcDbSymbolTable
 70
     1
  0
VPORT
  5
136D8
330
8
100
AcDbSymbolTableRecord
100
AcDbViewportTableRecord
  2
*ACTIVE
 70
     0
 10
0.0
 20
0.0
 11
1.0
 21
1.0
 12
-1600.151929476648
 22
1782.193703378544
 13
0.0
 23
0.0
 14
5.0
 24
5.0
 15
0.0
 25
0.0
 16
0.0
 26
0.0
 36
1.0
 17
0.0
 27
0.0
 37
0.0
 40
221.9912068958542
 41
1.741154562383612
 42
50.0
 43
0.0
 44
0.0
 50
0.0
 51
0.0
 71
     0
 72
   100
 73
     1
 74
     0
 75
     0
 76
     0
 77
     0
 78
     0
  0
ENDTAB
  0
TABLE
  2
LTYPE
  5
5
330
0
100
AcDbSymbolTable
 70
     3
  0
LTYPE
  5
14
330
5
100
AcDbSymbolTableRecord
100
AcDbLinetypeTableRecord
  2
BYBLOCK
 70
     0
  3

 72
    65
 73
     0
 40
0.0
  0
LTYPE
  5
15
330
5
100
AcDbSymbolTableRecord
100
AcDbLinetypeTableRecord
  2
BYLAYER
 70
     0
  3

 72
    65
 73
     0
 40
0.0
  0
LTYPE
  5
16
330
5
100
AcDbSymbolTableRecord
100
AcDbLinetypeTableRecord
  2
CONTINUOUS
 70
     0
  3
Solid line
 72
    65
 73
     0
 40
0.0
  0
LTYPE
  5
1956
330
5
100
AcDbSymbolTableRecord
100
AcDbLinetypeTableRecord
  2
CENTERX2
 70
     0
  3
________  __  ________  __  ________  __  _____
 72
    65
 73
     4
 40
4.0
 49
2.5
 74
     0
 49
-0.5
 74
     0
 49
0.5
 74
     0
 49
-0.5
 74
     0
  0
LTYPE
  5
1958
330
5
100
AcDbSymbolTableRecord
100
AcDbLinetypeTableRecord
  2
PHANTOMX2
 70
     0
  3
____________    ____    ____    ____________   
 72
    65
 73
     6
 40
5.0
 49
2.5
 74
     0
 49
-0.5
 74
     0
 49
0.5
 74
     0
 49
-0.5
 74
     0
 49
0.5
 74
     0
 49
-0.5
 74
     0
  0
ENDTAB
  0
TABLE
  2
LAYER
  5
2
102
{ACAD_XDICTIONARY
360
12CB6
102
}
330
0
100
AcDbSymbolTable
 70
     6
  0
LAYER
  5
F
330
2
100
AcDbSymbolTableRecord
100
AcDbLayerTableRecord
  2
0
 70
     0
 62
     7
  6
CONTINUOUS
  0
LAYER
  5
18F
330
2
100
AcDbSymbolTableRecord
100
AcDbLayerTableRecord
  2
ZISSEN1
 70
     0
 62
     7
  6
CONTINUOUS
  0
LAYER
  5
529
330
2
100
AcDbSymbolTableRecord
100
AcDbLayerTableRecord
  2
SUNPOU
 70
     0
 62
     1
  6
CONTINUOUS
  0
LAYER
  5
195A
330
2
100
AcDbSymbolTableRecord
100
AcDbLayerTableRecord
  2
CL1
 70
     0
 62
   210
  6
CENTERX2
  0
LAYER
  5
195C
330
2
100
AcDbSymbolTableRecord
100
AcDbLayerTableRecord
  2
SOUZOUSEN
 70
     0
 62
     5
  6
PHANTOMX2
  0
LAYER
  5
3A9B
330
2
100
AcDbSymbolTableRecord
100
AcDbLayerTableRecord
  2
DEFPOINTS
 70
     0
 62
     7
  6
CONTINUOUS
  0
ENDTAB
  0
TABLE
  2
STYLE
  5
3
330
0
100
AcDbSymbolTable
 70
     3
  0
STYLE
  5
10
330
3
100
AcDbSymbolTableRecord
100
AcDbTextStyleTableRecord
  2
STANDARD
 70
     0
 40
0.0
 41
1.0
 50
0.0
 71
     0
 42
3.0
  3
txt
  4
BigFont
  0
STYLE
  5
1960
330
3
100
AcDbSymbolTableRecord
100
AcDbTextStyleTableRecord
  2
ゴシック体
 70
     0
 40
0.0
 41
1.0
 50
0.0
 71
     0
 42
2.5
  3
MS Gothic.ttf
  4

1001
ACAD
1000
MS Gothic
1071
    32817
  0
STYLE
  5
12D36
330
3
100
AcDbSymbolTableRecord
100
AcDbTextStyleTableRecord
  2
ｽﾀｲﾙ2
 70
     0
 40
0.0
 41
1.0
 50
0.0
 71
     0
 42
3.0
  3
ARIAL.TTF
  4

1001
ACAD
1000
Arial
1071
       34
  0
ENDTAB
  0
TABLE
  2
VIEW
  5
6
330
0
100
AcDbSymbolTable
 70
     0
  0
ENDTAB
  0
TABLE
  2
UCS
  5
7
330
0
100
AcDbSymbolTable
 70
     0
  0
ENDTAB
  0
TABLE
  2
APPID
  5
9
330
0
100
AcDbSymbolTable
 70
     5
  0
APPID
  5
11
330
9
100
AcDbSymbolTableRecord
100
AcDbRegAppTableRecord
  2
ACAD
 70
     0
  0
APPID
  5
4005
330
9
100
AcDbSymbolTableRecord
100
AcDbRegAppTableRecord
  2
CONTENTTABDATA
 70
     0
  0
APPID
  5
4006
330
9
100
AcDbSymbolTableRecord
100
AcDbRegAppTableRecord
  2
CONTENTCURRENTTAB
 70
     0
  0
APPID
  5
477B
330
9
100
AcDbSymbolTableRecord
100
AcDbRegAppTableRecord
  2
CONTENTBLOCKDESCRIPTION
 70
     0
  0
APPID
  5
477C
330
9
100
AcDbSymbolTableRecord
100
AcDbRegAppTableRecord
  2
CONTENTBLOCKICON
 70
     0
  0
ENDTAB
  0
TABLE
  2
DIMSTYLE
  5
A
330
0
100
AcDbSymbolTable
 70
     3
  0
DIMSTYLE
105
1D
330
A
100
AcDbSymbolTableRecord
100
AcDbDimStyleTableRecord
  2
STANDARD
 70
     0
  3

  4

  5

  6

  7

 40
1.0
 41
0.18
 42
0.0625
 43
0.38
 44
0.18
 45
0.0
 46
0.0
 47
0.0
 48
0.0
140
0.18
141
0.09
142
0.0
143
25.4
144
1.0
145
0.0
146
1.0
147
0.09
 71
     0
 72
     0
 73
     1
 74
     1
 75
     0
 76
     0
 77
     0
 78
     0
170
     0
171
     2
172
     0
173
     0
174
     0
175
     0
176
     0
177
     0
178
     0
270
     2
271
     4
272
     4
273
     2
274
     2
340
10
275
     0
280
     0
281
     0
282
     0
283
     1
284
     0
285
     0
286
     0
287
     3
288
     0
  0
DIMSTYLE
105
52E
102
{ACAD_REACTORS
330
13629
330
13666
102
}
330
A
100
AcDbSymbolTableRecord
100
AcDbDimStyleTableRecord
  2
標準スタイル
 70
     0
  3

  4

  5

  6

  7

 40
0.0
 41
3.0
 42
0.5
 43
0.5
 44
0.5
 45
0.0
 46
0.0
 47
0.0
 48
0.0
140
3.5
141
0.0
142
0.0
143
25.4
144
1.0
145
0.0
146
1.0
147
1.0
 71
     0
 72
     0
 73
     0
 74
     0
 75
     0
 76
     0
 77
     1
 78
     8
170
     0
171
     2
172
     1
173
     0
174
     0
175
     0
176
     1
177
     1
178
     1
270
     2
271
     2
272
     2
273
     2
274
     2
340
1960
275
     0
280
     0
281
     0
282
     0
283
     1
284
     8
285
     0
286
     0
287
     3
288
     0
  0
DIMSTYLE
105
12D37
102
{ACAD_REACTORS
330
12FFA
330
13092
330
13093
330
13095
330
13096
330
130A6
330
130D8
330
130DA
102
}
330
A
100
AcDbSymbolTableRecord
100
AcDbDimStyleTableRecord
  2
ATSUSHI
 70
     0
  3

  4

  5

  6

  7

 40
0.0
 41
2.0
 42
0.5
 43
0.5
 44
0.5
 45
0.0
 46
0.0
 47
0.0
 48
0.0
140
2.5
141
0.0
142
0.0
143
25.4
144
1.0
145
0.0
146
1.0
147
0.5
 71
     0
 72
     0
 73
     0
 74
     0
 75
     0
 76
     0
 77
     1
 78
     8
170
     0
171
     2
172
     1
173
     0
174
     0
175
     0
176
   256
177
   256
178
   256
270
     2
271
     2
272
     2
273
     2
274
     2
340
1960
275
     0
280
     0
281
     0
282
     0
283
     1
284
     8
285
     0
286
     0
287
     3
288
     0
  0
ENDTAB
  0
TABLE
  2
BLOCK_RECORD
  5
1
330
0
100
AcDbSymbolTable
 70
    10
  0
BLOCK_RECORD
  5
1A
102
{ACAD_XDICTIONARY
360
136FF
102
}
330
1
100
AcDbSymbolTableRecord
100
AcDbBlockTableRecord
  2
*MODEL_SPACE
  0
BLOCK_RECORD
  5
5D8E
102
{ACAD_XDICTIONARY
360
13701
102
}
330
1
100
AcDbSymbolTableRecord
100
AcDbBlockTableRecord
  2
*PAPER_SPACE
  0
BLOCK_RECORD
  5
132AF
330
1
100
AcDbSymbolTableRecord
100
AcDbBlockTableRecord
  2
*D0
  0
BLOCK_RECORD
  5
132D3
330
1
100
AcDbSymbolTableRecord
100
AcDbBlockTableRecord
  2
*D1
  0
BLOCK_RECORD
  5
132DF
330
1
100
AcDbSymbolTableRecord
100
AcDbBlockTableRecord
  2
*D2
  0
BLOCK_RECORD
  5
132ED
330
1
100
AcDbSymbolTableRecord
100
AcDbBlockTableRecord
  2
*D3
  0
BLOCK_RECORD
  5
132F9
330
1
100
AcDbSymbolTableRecord
100
AcDbBlockTableRecord
  2
*D4
  0
BLOCK_RECORD
  5
13305
330
1
100
AcDbSymbolTableRecord
100
AcDbBlockTableRecord
  2
*D5
  0
BLOCK_RECORD
  5
13311
330
1
100
AcDbSymbolTableRecord
100
AcDbBlockTableRecord
  2
*D6
  0
BLOCK_RECORD
  5
1331D
330
1
100
AcDbSymbolTableRecord
100
AcDbBlockTableRecord
  2
*D7
  0
BLOCK_RECORD
  5
1362A
330
1
100
AcDbSymbolTableRecord
100
AcDbBlockTableRecord
  2
*D8
  0
BLOCK_RECORD
  5
13667
330
1
100
AcDbSymbolTableRecord
100
AcDbBlockTableRecord
  2
*D9
  0
ENDTAB
  0
ENDSEC
  0
SECTION
  2
BLOCKS
  0
BLOCK
  5
1B
330
1A
100
AcDbEntity
  8
0
100
AcDbBlockBegin
  2
*MODEL_SPACE
 70
     0
 10
0.0
 20
0.0
 30
0.0
  3
*MODEL_SPACE
  1

  0
ENDBLK
  5
1C
330
1A
100
AcDbEntity
  8
0
100
AcDbBlockEnd
  0
BLOCK
  5
5E60
330
5D8E
100
AcDbEntity
 67
     1
  8
0
100
AcDbBlockBegin
  2
*PAPER_SPACE
 70
     0
 10
0.0
 20
0.0
 30
0.0
  3
*PAPER_SPACE
  1

  0
ENDBLK
  5
5E61
330
5D8E
100
AcDbEntity
 67
     1
  8
0
100
AcDbBlockEnd
  0
BLOCK
  5
132B9
330
132AF
100
AcDbEntity
  8
0
100
AcDbBlockBegin
  2
*D0
 70
     1
 10
0.0
 20
0.0
 30
0.0
  3
*D0
  1

  0
LINE
  5
136C2
330
132AF
100
AcDbEntity
  8
SUNPOU
100
AcDbLine
 10
-1724.087943453271
 20
1677.258817223039
 30
0.0
 11
-1747.510909169386
 21
1677.258817223039
 31
0.0
  0
LINE
  5
136C3
330
132AF
100
AcDbEntity
  8
SUNPOU
100
AcDbLine
 10
-1720.787943453268
 20
1754.558810168092
 30
0.0
 11
-1747.510909169386
 21
1754.558810168092
 31
0.0
  0
LINE
  5
136C4
330
132AF
100
AcDbEntity
  8
SUNPOU
100
AcDbLine
 10
-1747.010909169385
 20
1679.258817223039
 30
0.0
 11
-1747.010909169385
 21
1752.558810168092
 31
0.0
  0
SOLID
  5
136C5
330
132AF
100
AcDbEntity
  8
SUNPOU
100
AcDbTrace
 10
-1747.344242502719
 20
1679.258817223039
 30
0.0
 11
-1746.677575836052
 21
1679.258817223039
 31
0.0
 12
-1747.010909169385
 22
1677.258817223039
 32
0.0
 13
-1747.010909169385
 23
1677.258817223039
 33
0.0
  0
SOLID
  5
136C6
330
132AF
100
AcDbEntity
  8
SUNPOU
100
AcDbTrace
 10
-1747.344242502719
 20
1752.558810168092
 30
0.0
 11
-1746.677575836052
 21
1752.558810168092
 31
0.0
 12
-1747.010909169385
 22
1754.558810168092
 32
0.0
 13
-1747.010909169385
 23
1754.558810168092
 33
0.0
  0
MTEXT
  5
136C7
330
132AF
100
AcDbEntity
  8
SUNPOU
100
AcDbMText
 10
-1749.260909169386
 20
1715.908813695565
 30
0.0
 40
3.5
 41
0.0
 71
     5
 72
     1
  1
\A1;77.3
 11
0.0000000000000001
 21
1.0
 31
0.0
1001
ACAD
1000
MTEXTBEGIN
1070
    73
1070
     1
1070
    44
1040
1.0
1070
    74
1070
     0
1000
MTEXTEND
  0
POINT
  5
136C8
330
132AF
100
AcDbEntity
  8
DEFPOINTS
 62
     0
100
AcDbPoint
 10
-1723.587943453271
 20
1677.258817223039
 30
0.0
  0
POINT
  5
136C9
330
132AF
100
AcDbEntity
  8
DEFPOINTS
 62
     0
100
AcDbPoint
 10
-1720.287943453268
 20
1754.558810168092
 30
0.0
  0
POINT
  5
136CA
330
132AF
100
AcDbEntity
  8
DEFPOINTS
 62
     0
100
AcDbPoint
 10
-1747.010909169385
 20
1754.558810168092
 30
0.0
  0
ENDBLK
  5
132BA
330
132AF
100
AcDbEntity
  8
0
100
AcDbBlockEnd
  0
BLOCK
  5
132DD
330
132D3
100
AcDbEntity
  8
0
100
AcDbBlockBegin
  2
*D1
 70
     1
 10
0.0
 20
0.0
 30
0.0
  3
*D1
  1

  0
LINE
  5
1359E
330
132D3
100
AcDbEntity
  8
SUNPOU
100
AcDbLine
 10
-1538.187932415431
 20
1871.361588116655
 30
0.0
 11
-1507.340921195195
 21
1871.361588116655
 31
0.0
  0
LINE
  5
1359F
330
132D3
100
AcDbEntity
  8
SUNPOU
100
AcDbLine
 10
-1587.887932415432
 20
1825.661588116657
 30
0.0
 11
-1507.340921195195
 21
1825.661588116657
 31
0.0
  0
LINE
  5
135A0
330
132D3
100
AcDbEntity
  8
SUNPOU
100
AcDbLine
 10
-1507.840921195195
 20
1869.361588116655
 30
0.0
 11
-1507.840921195195
 21
1827.661588116657
 31
0.0
  0
SOLID
  5
135A1
330
132D3
100
AcDbEntity
  8
SUNPOU
100
AcDbTrace
 10
-1508.174254528528
 20
1869.361588116655
 30
0.0
 11
-1507.507587861862
 21
1869.361588116655
 31
0.0
 12
-1507.840921195195
 22
1871.361588116655
 32
0.0
 13
-1507.840921195195
 23
1871.361588116655
 33
0.0
  0
SOLID
  5
135A2
330
132D3
100
AcDbEntity
  8
SUNPOU
100
AcDbTrace
 10
-1508.174254528528
 20
1827.661588116657
 30
0.0
 11
-1507.507587861862
 21
1827.661588116657
 31
0.0
 12
-1507.840921195195
 22
1825.661588116657
 32
0.0
 13
-1507.840921195195
 23
1825.661588116657
 33
0.0
  0
MTEXT
  5
135A3
330
132D3
100
AcDbEntity
  8
SUNPOU
100
AcDbMText
 10
-1510.090921195196
 20
1848.511588116656
 30
0.0
 40
3.5
 41
0.0
 71
     5
 72
     1
  1
\A1;45.7
 11
0.0000000000000001
 21
1.0
 31
0.0
1001
ACAD
1000
MTEXTBEGIN
1070
    73
1070
     1
1070
    44
1040
1.0
1070
    74
1070
     0
1000
MTEXTEND
  0
POINT
  5
135A4
330
132D3
100
AcDbEntity
  8
DEFPOINTS
 62
     0
100
AcDbPoint
 10
-1538.687932415431
 20
1871.361588116655
 30
0.0
  0
POINT
  5
135A5
330
132D3
100
AcDbEntity
  8
DEFPOINTS
 62
     0
100
AcDbPoint
 10
-1588.387932415432
 20
1825.661588116657
 30
0.0
  0
POINT
  5
135A6
330
132D3
100
AcDbEntity
  8
DEFPOINTS
 62
     0
100
AcDbPoint
 10
-1507.840921195195
 20
1825.661588116657
 30
0.0
  0
ENDBLK
  5
132DE
330
132D3
100
AcDbEntity
  8
0
100
AcDbBlockEnd
  0
BLOCK
  5
132EB
330
132DF
100
AcDbEntity
  8
0
100
AcDbBlockBegin
  2
*D2
 70
     1
 10
0.0
 20
0.0
 30
0.0
  3
*D2
  1

  0
LINE
  5
133DD
330
132DF
100
AcDbEntity
  8
SUNPOU
100
AcDbLine
 10
-1657.687932415429
 20
1851.611588116655
 30
0.0
 11
-1664.150364663643
 21
1851.611588116655
 31
0.0
  0
LINE
  5
133DE
330
132DF
100
AcDbEntity
  8
SUNPOU
100
AcDbLine
 10
-1657.687932415429
 20
1847.111588116655
 30
0.0
 11
-1664.150364663643
 21
1847.111588116655
 31
0.0
  0
LINE
  5
133DF
330
132DF
100
AcDbEntity
  8
SUNPOU
100
AcDbLine
 10
-1663.650364663643
 20
1853.611588116655
 30
0.0
 11
-1663.650364663643
 21
1855.611588116655
 31
0.0
  0
LINE
  5
133E0
330
132DF
100
AcDbEntity
  8
SUNPOU
100
AcDbLine
 10
-1663.650364663643
 20
1845.111588116655
 30
0.0
 11
-1663.650364663643
 21
1832.611588116655
 31
0.0
  0
LINE
  5
133E1
330
132DF
100
AcDbEntity
  8
SUNPOU
100
AcDbLine
 10
-1663.650364663643
 20
1851.611588116655
 30
0.0
 11
-1663.650364663643
 21
1847.111588116655
 31
0.0
  0
SOLID
  5
133E2
330
132DF
100
AcDbEntity
  8
SUNPOU
100
AcDbTrace
 10
-1663.983697996976
 20
1853.611588116655
 30
0.0
 11
-1663.31703133031
 21
1853.611588116655
 31
0.0
 12
-1663.650364663643
 22
1851.611588116655
 32
0.0
 13
-1663.650364663643
 23
1851.611588116655
 33
0.0
  0
SOLID
  5
133E3
330
132DF
100
AcDbEntity
  8
SUNPOU
100
AcDbTrace
 10
-1663.983697996976
 20
1845.111588116655
 30
0.0
 11
-1663.31703133031
 21
1845.111588116655
 31
0.0
 12
-1663.650364663643
 22
1847.111588116655
 32
0.0
 13
-1663.650364663643
 23
1847.111588116655
 33
0.0
  0
MTEXT
  5
133E4
330
132DF
100
AcDbEntity
  8
SUNPOU
100
AcDbMText
 10
-1665.900364663643
 20
1836.611588116655
 30
0.0
 40
3.5
 41
0.0
 71
     5
 72
     1
  1
\A1;4.5
 11
0.0000000000000001
 21
1.0
 31
0.0
1001
ACAD
1000
MTEXTBEGIN
1070
    73
1070
     1
1070
    44
1040
1.0
1070
    74
1070
     0
1000
MTEXTEND
  0
POINT
  5
133E5
330
132DF
100
AcDbEntity
  8
DEFPOINTS
 62
     0
100
AcDbPoint
 10
-1657.187932415429
 20
1851.611588116655
 30
0.0
  0
POINT
  5
133E6
330
132DF
100
AcDbEntity
  8
DEFPOINTS
 62
     0
100
AcDbPoint
 10
-1657.187932415429
 20
1847.111588116655
 30
0.0
  0
POINT
  5
133E7
330
132DF
100
AcDbEntity
  8
DEFPOINTS
 62
     0
100
AcDbPoint
 10
-1663.650364663643
 20
1847.111588116655
 30
0.0
  0
ENDBLK
  5
132EC
330
132DF
100
AcDbEntity
  8
0
100
AcDbBlockEnd
  0
BLOCK
  5
132F7
330
132ED
100
AcDbEntity
  8
0
100
AcDbBlockBegin
  2
*D3
 70
     1
 10
0.0
 20
0.0
 30
0.0
  3
*D3
  1

  0
LINE
  5
1357D
330
132ED
100
AcDbEntity
  8
SUNPOU
100
AcDbLine
 10
-1537.187932415293
 20
1826.461588116655
 30
0.0
 11
-1519.687932415431
 21
1826.461588116655
 31
0.0
  0
LINE
  5
1357E
330
132ED
100
AcDbEntity
  8
SUNPOU
100
AcDbLine
 10
-1528.728378380848
 20
1849.361588116657
 30
0.0
 11
-1519.687932415431
 21
1849.361588116657
 31
0.0
  0
LINE
  5
1357F
330
132ED
100
AcDbEntity
  8
SUNPOU
100
AcDbLine
 10
-1520.187932415431
 20
1828.461588116655
 30
0.0
 11
-1520.187932415431
 21
1847.361588116657
 31
0.0
  0
SOLID
  5
13580
330
132ED
100
AcDbEntity
  8
SUNPOU
100
AcDbTrace
 10
-1520.521265748764
 20
1828.461588116655
 30
0.0
 11
-1519.854599082098
 21
1828.461588116655
 31
0.0
 12
-1520.187932415431
 22
1826.461588116655
 32
0.0
 13
-1520.187932415431
 23
1826.461588116655
 33
0.0
  0
SOLID
  5
13581
330
132ED
100
AcDbEntity
  8
SUNPOU
100
AcDbTrace
 10
-1520.521265748764
 20
1847.361588116657
 30
0.0
 11
-1519.854599082098
 21
1847.361588116657
 31
0.0
 12
-1520.187932415431
 22
1849.361588116657
 32
0.0
 13
-1520.187932415431
 23
1849.361588116657
 33
0.0
  0
MTEXT
  5
13582
330
132ED
100
AcDbEntity
  8
SUNPOU
100
AcDbMText
 10
-1522.437932415432
 20
1837.911588116656
 30
0.0
 40
3.5
 41
0.0
 71
     5
 72
     1
  1
\A1;22.9
 11
0.0000000000000001
 21
1.0
 31
0.0
1001
ACAD
1000
MTEXTBEGIN
1070
    73
1070
     1
1070
    44
1040
1.0
1070
    74
1070
     0
1000
MTEXTEND
  0
POINT
  5
13583
330
132ED
100
AcDbEntity
  8
DEFPOINTS
 62
     0
100
AcDbPoint
 10
-1537.687932415293
 20
1826.461588116655
 30
0.0
  0
POINT
  5
13584
330
132ED
100
AcDbEntity
  8
DEFPOINTS
 62
     0
100
AcDbPoint
 10
-1529.228378380848
 20
1849.361588116657
 30
0.0
  0
POINT
  5
13585
330
132ED
100
AcDbEntity
  8
DEFPOINTS
 62
     0
100
AcDbPoint
 10
-1520.187932415431
 20
1849.361588116657
 30
0.0
  0
ENDBLK
  5
132F8
330
132ED
100
AcDbEntity
  8
0
100
AcDbBlockEnd
  0
BLOCK
  5
13303
330
132F9
100
AcDbEntity
  8
0
100
AcDbBlockBegin
  2
*D4
 70
     1
 10
0.0
 20
0.0
 30
0.0
  3
*D4
  1

  0
LINE
  5
13574
330
132F9
100
AcDbEntity
  8
SUNPOU
100
AcDbLine
 10
-1653.683069209304
 20
1844.722290606437
 30
0.0
 11
-1653.683069209304
 21
1807.709498888108
 31
0.0
  0
LINE
  5
13575
330
132F9
100
AcDbEntity
  8
SUNPOU
100
AcDbLine
 10
-1533.687932415433
 20
1845.60949888811
 30
0.0
 11
-1533.687932415433
 21
1807.709498888108
 31
0.0
  0
LINE
  5
13576
330
132F9
100
AcDbEntity
  8
SUNPOU
100
AcDbLine
 10
-1651.683069209304
 20
1808.209498888108
 30
0.0
 11
-1535.687932415433
 21
1808.209498888108
 31
0.0
  0
SOLID
  5
13577
330
132F9
100
AcDbEntity
  8
SUNPOU
100
AcDbTrace
 10
-1651.683069209304
 20
1808.542832221441
 30
0.0
 11
-1651.683069209304
 21
1807.876165554775
 31
0.0
 12
-1653.683069209304
 22
1808.209498888108
 32
0.0
 13
-1653.683069209304
 23
1808.209498888108
 33
0.0
  0
SOLID
  5
13578
330
132F9
100
AcDbEntity
  8
SUNPOU
100
AcDbTrace
 10
-1535.687932415433
 20
1808.542832221441
 30
0.0
 11
-1535.687932415433
 21
1807.876165554775
 31
0.0
 12
-1533.687932415433
 22
1808.209498888108
 32
0.0
 13
-1533.687932415433
 23
1808.209498888108
 33
0.0
  0
MTEXT
  5
13579
330
132F9
100
AcDbEntity
  8
SUNPOU
100
AcDbMText
 10
-1593.685500812369
 20
1810.459498888108
 30
0.0
 40
3.5
 41
0.0
 71
     5
 72
     1
  1
\A1;120
1001
ACAD
1000
MTEXTBEGIN
1070
    73
1070
     1
1070
    44
1040
1.0
1070
    74
1070
     0
1000
MTEXTEND
  0
POINT
  5
1357A
330
132F9
100
AcDbEntity
  8
DEFPOINTS
 62
     0
100
AcDbPoint
 10
-1653.683069209304
 20
1845.222290606437
 30
0.0
  0
POINT
  5
1357B
330
132F9
100
AcDbEntity
  8
DEFPOINTS
 62
     0
100
AcDbPoint
 10
-1533.687932415433
 20
1846.10949888811
 30
0.0
  0
POINT
  5
1357C
330
132F9
100
AcDbEntity
  8
DEFPOINTS
 62
     0
100
AcDbPoint
 10
-1533.687932415433
 20
1808.209498888108
 30
0.0
  0
ENDBLK
  5
13304
330
132F9
100
AcDbEntity
  8
0
100
AcDbBlockEnd
  0
BLOCK
  5
1330F
330
13305
100
AcDbEntity
  8
0
100
AcDbBlockBegin
  2
*D5
 70
     1
 10
0.0
 20
0.0
 30
0.0
  3
*D5
  1

  0
LINE
  5
13415
330
13305
100
AcDbEntity
  8
SUNPOU
100
AcDbLine
 10
-1496.187932415431
 20
1677.258817223038
 30
0.0
 11
-1508.425004750928
 21
1677.258817223038
 31
0.0
  0
LINE
  5
13416
330
13305
100
AcDbEntity
  8
SUNPOU
100
AcDbLine
 10
-1489.787932415434
 20
1759.758817223039
 30
0.0
 11
-1508.425004750928
 21
1759.758817223039
 31
0.0
  0
LINE
  5
13417
330
13305
100
AcDbEntity
  8
SUNPOU
100
AcDbLine
 10
-1507.925004750928
 20
1679.258817223038
 30
0.0
 11
-1507.925004750928
 21
1757.758817223039
 31
0.0
  0
SOLID
  5
13418
330
13305
100
AcDbEntity
  8
SUNPOU
100
AcDbTrace
 10
-1508.258338084262
 20
1679.258817223038
 30
0.0
 11
-1507.591671417595
 21
1679.258817223038
 31
0.0
 12
-1507.925004750928
 22
1677.258817223038
 32
0.0
 13
-1507.925004750928
 23
1677.258817223038
 33
0.0
  0
SOLID
  5
13419
330
13305
100
AcDbEntity
  8
SUNPOU
100
AcDbTrace
 10
-1508.258338084262
 20
1757.758817223039
 30
0.0
 11
-1507.591671417595
 21
1757.758817223039
 31
0.0
 12
-1507.925004750928
 22
1759.758817223039
 32
0.0
 13
-1507.925004750928
 23
1759.758817223039
 33
0.0
  0
MTEXT
  5
1341A
330
13305
100
AcDbEntity
  8
SUNPOU
100
AcDbMText
 10
-1510.175004750929
 20
1718.508817223039
 30
0.0
 40
3.5
 41
0.0
 71
     5
 72
     1
  1
\A1;82.5
 11
0.0000000000000001
 21
1.0
 31
0.0
1001
ACAD
1000
MTEXTBEGIN
1070
    73
1070
     1
1070
    44
1040
1.0
1070
    74
1070
     0
1000
MTEXTEND
  0
POINT
  5
1341B
330
13305
100
AcDbEntity
  8
DEFPOINTS
 62
     0
100
AcDbPoint
 10
-1495.687932415431
 20
1677.258817223038
 30
0.0
  0
POINT
  5
1341C
330
13305
100
AcDbEntity
  8
DEFPOINTS
 62
     0
100
AcDbPoint
 10
-1489.287932415433
 20
1759.758817223039
 30
0.0
  0
POINT
  5
1341D
330
13305
100
AcDbEntity
  8
DEFPOINTS
 62
     0
100
AcDbPoint
 10
-1507.925004750928
 20
1759.758817223039
 30
0.0
  0
ENDBLK
  5
13310
330
13305
100
AcDbEntity
  8
0
100
AcDbBlockEnd
  0
BLOCK
  5
1331B
330
13311
100
AcDbEntity
  8
0
100
AcDbBlockBegin
  2
*D6
 70
     1
 10
0.0
 20
0.0
 30
0.0
  3
*D6
  1

  0
LINE
  5
133FA
330
13311
100
AcDbEntity
  8
SUNPOU
100
AcDbLine
 10
-1530.187932415431
 20
1839.861588116655
 30
0.0
 11
-1530.187932415431
 21
1797.689653996186
 31
0.0
  0
LINE
  5
133FB
330
13311
100
AcDbEntity
  8
SUNPOU
100
AcDbLine
 10
-1657.187932415429
 20
1832.961588116655
 30
0.0
 11
-1657.187932415429
 21
1797.689653996186
 31
0.0
  0
LINE
  5
133FC
330
13311
100
AcDbEntity
  8
SUNPOU
100
AcDbLine
 10
-1532.187932415431
 20
1798.189653996186
 30
0.0
 11
-1655.187932415429
 21
1798.189653996186
 31
0.0
  0
SOLID
  5
133FD
330
13311
100
AcDbEntity
  8
SUNPOU
100
AcDbTrace
 10
-1532.187932415431
 20
1798.522987329519
 30
0.0
 11
-1532.187932415431
 21
1797.856320662853
 31
0.0
 12
-1530.187932415431
 22
1798.189653996186
 32
0.0
 13
-1530.187932415431
 23
1798.189653996186
 33
0.0
  0
SOLID
  5
133FE
330
13311
100
AcDbEntity
  8
SUNPOU
100
AcDbTrace
 10
-1655.187932415429
 20
1798.522987329519
 30
0.0
 11
-1655.187932415429
 21
1797.856320662853
 31
0.0
 12
-1657.187932415429
 22
1798.189653996186
 32
0.0
 13
-1657.187932415429
 23
1798.189653996186
 33
0.0
  0
MTEXT
  5
133FF
330
13311
100
AcDbEntity
  8
SUNPOU
100
AcDbMText
 10
-1593.68793241543
 20
1800.439653996186
 30
0.0
 40
3.5
 41
0.0
 71
     5
 72
     1
  1
\A1;127
1001
ACAD
1000
MTEXTBEGIN
1070
    73
1070
     1
1070
    44
1040
1.0
1070
    74
1070
     0
1000
MTEXTEND
  0
POINT
  5
13400
330
13311
100
AcDbEntity
  8
DEFPOINTS
 62
     0
100
AcDbPoint
 10
-1530.187932415431
 20
1840.361588116655
 30
0.0
  0
POINT
  5
13401
330
13311
100
AcDbEntity
  8
DEFPOINTS
 62
     0
100
AcDbPoint
 10
-1657.187932415429
 20
1833.461588116655
 30
0.0
  0
POINT
  5
13402
330
13311
100
AcDbEntity
  8
DEFPOINTS
 62
     0
100
AcDbPoint
 10
-1657.187932415429
 20
1798.189653996186
 30
0.0
  0
ENDBLK
  5
1331C
330
13311
100
AcDbEntity
  8
0
100
AcDbBlockEnd
  0
BLOCK
  5
13327
330
1331D
100
AcDbEntity
  8
0
100
AcDbBlockBegin
  2
*D7
 70
     1
 10
0.0
 20
0.0
 30
0.0
  3
*D7
  1

  0
LINE
  5
133E8
330
1331D
100
AcDbEntity
  8
SUNPOU
100
AcDbLine
 10
-1649.487932415429
 20
1826.761588116654
 30
0.0
 11
-1649.487932415429
 21
1815.961588116654
 31
0.0
  0
LINE
  5
133E9
330
1331D
100
AcDbEntity
  8
SUNPOU
100
AcDbLine
 10
-1537.88793241543
 20
1826.761588116654
 30
0.0
 11
-1537.88793241543
 21
1815.961588116654
 31
0.0
  0
LINE
  5
133EA
330
1331D
100
AcDbEntity
  8
SUNPOU
100
AcDbLine
 10
-1647.487932415429
 20
1816.461588116655
 30
0.0
 11
-1539.88793241543
 21
1816.461588116655
 31
0.0
  0
SOLID
  5
133EB
330
1331D
100
AcDbEntity
  8
SUNPOU
100
AcDbTrace
 10
-1647.487932415429
 20
1816.794921449988
 30
0.0
 11
-1647.487932415429
 21
1816.128254783321
 31
0.0
 12
-1649.487932415429
 22
1816.461588116655
 32
0.0
 13
-1649.487932415429
 23
1816.461588116655
 33
0.0
  0
SOLID
  5
133EC
330
1331D
100
AcDbEntity
  8
SUNPOU
100
AcDbTrace
 10
-1539.88793241543
 20
1816.794921449988
 30
0.0
 11
-1539.88793241543
 21
1816.128254783321
 31
0.0
 12
-1537.88793241543
 22
1816.461588116655
 32
0.0
 13
-1537.88793241543
 23
1816.461588116655
 33
0.0
  0
MTEXT
  5
133ED
330
1331D
100
AcDbEntity
  8
SUNPOU
100
AcDbMText
 10
-1593.68793241543
 20
1818.711588116654
 30
0.0
 40
3.5
 41
0.0
 71
     5
 72
     1
  1
\A1;111.6
1001
ACAD
1000
MTEXTBEGIN
1070
    73
1070
     1
1070
    44
1040
1.0
1070
    74
1070
     0
1000
MTEXTEND
  0
POINT
  5
133EE
330
1331D
100
AcDbEntity
  8
DEFPOINTS
 62
     0
100
AcDbPoint
 10
-1649.487932415429
 20
1827.261588116654
 30
0.0
  0
POINT
  5
133EF
330
1331D
100
AcDbEntity
  8
DEFPOINTS
 62
     0
100
AcDbPoint
 10
-1537.88793241543
 20
1827.261588116654
 30
0.0
  0
POINT
  5
133F0
330
1331D
100
AcDbEntity
  8
DEFPOINTS
 62
     0
100
AcDbPoint
 10
-1537.88793241543
 20
1816.461588116655
 30
0.0
  0
ENDBLK
  5
13328
330
1331D
100
AcDbEntity
  8
0
100
AcDbBlockEnd
  0
BLOCK
  5
13634
330
1362A
100
AcDbEntity
  8
0
100
AcDbBlockBegin
  2
*D8
 70
     1
 10
0.0
 20
0.0
 30
0.0
  3
*D8
  1

  0
LINE
  5
13651
330
1362A
100
AcDbEntity
  8
SUNPOU
 62
     1
100
AcDbLine
 10
-1711.626615524472
 20
1801.558174133053
 30
0.0
 11
-1747.510909169386
 21
1801.558174133053
 31
0.0
  0
LINE
  5
13652
330
1362A
100
AcDbEntity
  8
SUNPOU
 62
     1
100
AcDbLine
 10
-1727.487943453267
 20
1754.558810168092
 30
0.0
 11
-1747.510909169386
 21
1754.558810168092
 31
0.0
  0
LINE
  5
13653
330
1362A
100
AcDbEntity
  8
SUNPOU
 62
     1
100
AcDbLine
 10
-1747.010909169385
 20
1799.558174133053
 30
0.0
 11
-1747.010909169385
 21
1756.558810168092
 31
0.0
  0
SOLID
  5
13654
330
1362A
100
AcDbEntity
  8
SUNPOU
 62
     1
100
AcDbTrace
 10
-1747.344242502719
 20
1799.558174133053
 30
0.0
 11
-1746.677575836052
 21
1799.558174133053
 31
0.0
 12
-1747.010909169385
 22
1801.558174133053
 32
0.0
 13
-1747.010909169385
 23
1801.558174133053
 33
0.0
  0
SOLID
  5
13655
330
1362A
100
AcDbEntity
  8
SUNPOU
 62
     1
100
AcDbTrace
 10
-1747.344242502719
 20
1756.558810168092
 30
0.0
 11
-1746.677575836052
 21
1756.558810168092
 31
0.0
 12
-1747.010909169385
 22
1754.558810168092
 32
0.0
 13
-1747.010909169385
 23
1754.558810168092
 33
0.0
  0
MTEXT
  5
13656
330
1362A
100
AcDbEntity
  8
SUNPOU
 62
     1
100
AcDbMText
 10
-1749.760909169386
 20
1778.058492150572
 30
0.0
 40
3.5
 41
0.0
 71
     5
 72
     1
  1
\A1;(47)
 11
0.0000000000000001
 21
1.0
 31
0.0
1001
ACAD
1000
MTEXTBEGIN
1070
    73
1070
     1
1070
    44
1040
1.0
1070
    74
1070
     0
1000
MTEXTEND
  0
POINT
  5
13657
330
1362A
100
AcDbEntity
  8
DEFPOINTS
 62
     0
100
AcDbPoint
 10
-1711.126615524471
 20
1801.558174133053
 30
0.0
  0
POINT
  5
13658
330
1362A
100
AcDbEntity
  8
DEFPOINTS
 62
     0
100
AcDbPoint
 10
-1726.987943453267
 20
1754.558810168092
 30
0.0
  0
POINT
  5
13659
330
1362A
100
AcDbEntity
  8
DEFPOINTS
 62
     0
100
AcDbPoint
 10
-1747.010909169385
 20
1754.558810168092
 30
0.0
  0
ENDBLK
  5
13635
330
1362A
100
AcDbEntity
  8
0
100
AcDbBlockEnd
  0
BLOCK
  5
13671
330
13667
100
AcDbEntity
  8
0
100
AcDbBlockBegin
  2
*D9
 70
     1
 10
0.0
 20
0.0
 30
0.0
  3
*D9
  1

  0
LINE
  5
13685
330
13667
100
AcDbEntity
  8
SUNPOU
 62
     1
100
AcDbLine
 10
-1726.587943453265
 20
1754.558810168092
 30
0.0
 11
-1737.587388616113
 21
1754.558810168092
 31
0.0
  0
LINE
  5
13686
330
13667
100
AcDbEntity
  8
SUNPOU
 62
     1
100
AcDbLine
 10
-1726.792790604541
 20
1770.562568687642
 30
0.0
 11
-1737.587388616113
 21
1770.562568687642
 31
0.0
  0
LINE
  5
13687
330
13667
100
AcDbEntity
  8
SUNPOU
 62
     1
100
AcDbLine
 10
-1737.087388616113
 20
1756.558810168092
 30
0.0
 11
-1737.087388616113
 21
1768.562568687642
 31
0.0
  0
SOLID
  5
13688
330
13667
100
AcDbEntity
  8
SUNPOU
 62
     1
100
AcDbTrace
 10
-1737.420721949446
 20
1756.558810168092
 30
0.0
 11
-1736.754055282779
 21
1756.558810168092
 31
0.0
 12
-1737.087388616113
 22
1754.558810168092
 32
0.0
 13
-1737.087388616113
 23
1754.558810168092
 33
0.0
  0
SOLID
  5
13689
330
13667
100
AcDbEntity
  8
SUNPOU
 62
     1
100
AcDbTrace
 10
-1737.420721949446
 20
1768.562568687642
 30
0.0
 11
-1736.754055282779
 21
1768.562568687642
 31
0.0
 12
-1737.087388616113
 22
1770.562568687642
 32
0.0
 13
-1737.087388616113
 23
1770.562568687642
 33
0.0
  0
MTEXT
  5
1368A
330
13667
100
AcDbEntity
  8
SUNPOU
 62
     1
100
AcDbMText
 10
-1739.837388616113
 20
1762.560689427867
 30
0.0
 40
3.5
 41
0.0
 71
     5
 72
     1
  1
\A1;(16)
 11
0.0000000000000001
 21
1.0
 31
0.0
1001
ACAD
1000
MTEXTBEGIN
1070
    73
1070
     1
1070
    44
1040
1.0
1070
    74
1070
     0
1000
MTEXTEND
  0
POINT
  5
1368B
330
13667
100
AcDbEntity
  8
DEFPOINTS
 62
     0
100
AcDbPoint
 10
-1726.087943453265
 20
1754.558810168092
 30
0.0
  0
POINT
  5
1368C
330
13667
100
AcDbEntity
  8
DEFPOINTS
 62
     0
100
AcDbPoint
 10
-1726.292790604541
 20
1770.562568687642
 30
0.0
  0
POINT
  5
1368D
330
13667
100
AcDbEntity
  8
DEFPOINTS
 62
     0
100
AcDbPoint
 10
-1737.087388616113
 20
1770.562568687642
 30
0.0
  0
ENDBLK
  5
13672
330
13667
100
AcDbEntity
  8
0
100
AcDbBlockEnd
  0
ENDSEC
  0
SECTION
  2
ENTITIES
  0
MTEXT
  5
5084
330
1A
100
AcDbEntity
  8
0
100
AcDbMText
 10
1985.239088685435
 20
-948.5420423450428
 30
0.0
 40
8.0
 41
0.0
 71
     7
 72
     5
  1

1001
ACAD
1000
MTEXTBEGIN
1070
    73
1070
     1
1070
    44
1040
1.0
1070
    74
1070
     0
1000
MTEXTEND
  0
MTEXT
  5
5085
330
1A
100
AcDbEntity
  8
0
100
AcDbMText
 10
4270.596778580329
 20
22.24825240601649
 30
0.0
 40
8.0
 41
0.0
 71
     7
 72
     5
  1

1001
ACAD
1000
MTEXTBEGIN
1070
    73
1070
     1
1070
    44
1040
1.0
1070
    74
1070
     0
1000
MTEXTEND
  0
MTEXT
  5
5343
330
1A
100
AcDbEntity
  8
SUNPOU
100
AcDbMText
 10
6936.493799262471
 20
9534.359644781135
 30
0.0
 40
10.5
 41
0.0
 71
     1
 72
     5
  1

1001
ACAD
1000
MTEXTBEGIN
1070
    73
1070
     1
1070
    44
1040
1.0
1070
    74
1070
     0
1000
MTEXTEND
  0
MTEXT
  5
544F
330
1A
100
AcDbEntity
  8
0
100
AcDbMText
 10
16317.2832773148
 20
12833.35428897674
 30
0.0
 40
8.0
 41
0.0
 71
     7
 72
     5
  1

1001
ACAD
1000
MTEXTBEGIN
1070
    73
1070
     1
1070
    44
1040
1.0
1070
    74
1070
     0
1000
MTEXTEND
  0
MTEXT
  5
5450
330
1A
100
AcDbEntity
  8
0
100
AcDbMText
 10
18602.64096720969
 20
13804.1445837278
 30
0.0
 40
8.0
 41
0.0
 71
     7
 72
     5
  1

1001
ACAD
1000
MTEXTBEGIN
1070
    73
1070
     1
1070
    44
1040
1.0
1070
    74
1070
     0
1000
MTEXTEND
  0
MTEXT
  5
5451
330
1A
100
AcDbEntity
  8
SUNPOU
100
AcDbMText
 10
21268.53798789184
 20
23316.25597610292
 30
0.0
 40
10.5
 41
0.0
 71
     1
 72
     5
  1

1001
ACAD
1000
MTEXTBEGIN
1070
    73
1070
     1
1070
    44
1040
1.0
1070
    74
1070
     0
1000
MTEXTEND
  0
MTEXT
  5
5452
330
1A
100
AcDbEntity
  8
SUNPOU
100
AcDbMText
 10
13337.6147919559
 20
22369.46284218996
 30
0.0
 40
10.5
 41
0.0
 71
     7
 72
     5
  1

1001
ACAD
1000
MTEXTBEGIN
1070
    73
1070
     1
1070
    44
1040
1.0
1070
    74
1070
     0
1000
MTEXTEND
  0
MTEXT
  5
5453
330
1A
100
AcDbEntity
  8
SUNPOU
100
AcDbMText
 10
16286.59845646867
 20
27270.13891403281
 30
0.0
 40
10.5
 41
0.0
 71
     7
 72
     5
  1

1001
ACAD
1000
MTEXTBEGIN
1070
    73
1070
     1
1070
    44
1040
1.0
1070
    74
1070
     0
1000
MTEXTEND
  0
MTEXT
  5
5454
330
1A
100
AcDbEntity
  8
SUNPOU
100
AcDbMText
 10
20795.67658441924
 20
29706.43966165288
 30
0.0
 40
10.5
 41
0.0
 71
     7
 72
     5
  1

1001
ACAD
1000
MTEXTBEGIN
1070
    73
1070
     1
1070
    44
1040
1.0
1070
    74
1070
     0
1000
MTEXTEND
  0
MTEXT
  5
5455
330
1A
100
AcDbEntity
  8
0
100
AcDbMText
 10
16611.93789220314
 20
14707.52144344448
 30
0.0
 40
8.0
 41
0.0
 71
     7
 72
     5
  1

1001
ACAD
1000
MTEXTBEGIN
1070
    73
1070
     1
1070
    44
1040
1.0
1070
    74
1070
     0
1000
MTEXTEND
  0
MTEXT
  5
5456
330
1A
100
AcDbEntity
  8
0
100
AcDbMText
 10
18897.29558209804
 20
15678.31173819554
 30
0.0
 40
8.0
 41
0.0
 71
     7
 72
     5
  1

1001
ACAD
1000
MTEXTBEGIN
1070
    73
1070
     1
1070
    44
1040
1.0
1070
    74
1070
     0
1000
MTEXTEND
  0
MTEXT
  5
5457
330
1A
100
AcDbEntity
  8
SUNPOU
100
AcDbMText
 10
21563.19260278019
 20
25190.42313057066
 30
0.0
 40
10.5
 41
0.0
 71
     1
 72
     5
  1

1001
ACAD
1000
MTEXTBEGIN
1070
    73
1070
     1
1070
    44
1040
1.0
1070
    74
1070
     0
1000
MTEXTEND
  0
MTEXT
  5
5458
330
1A
100
AcDbEntity
  8
SUNPOU
100
AcDbMText
 10
13632.26940684426
 20
24243.6299966577
 30
0.0
 40
10.5
 41
0.0
 71
     7
 72
     5
  1

1001
ACAD
1000
MTEXTBEGIN
1070
    73
1070
     1
1070
    44
1040
1.0
1070
    74
1070
     0
1000
MTEXTEND
  0
MTEXT
  5
5459
330
1A
100
AcDbEntity
  8
SUNPOU
100
AcDbMText
 10
16581.25307135702
 20
29144.30606850055
 30
0.0
 40
10.5
 41
0.0
 71
     7
 72
     5
  1

1001
ACAD
1000
MTEXTBEGIN
1070
    73
1070
     1
1070
    44
1040
1.0
1070
    74
1070
     0
1000
MTEXTEND
  0
MTEXT
  5
545A
330
1A
100
AcDbEntity
  8
SUNPOU
100
AcDbMText
 10
21090.33119930759
 20
31580.60681612062
 30
0.0
 40
10.5
 41
0.0
 71
     7
 72
     5
  1

1001
ACAD
1000
MTEXTBEGIN
1070
    73
1070
     1
1070
    44
1040
1.0
1070
    74
1070
     0
1000
MTEXTEND
  0
MTEXT
  5
545B
330
1A
100
AcDbEntity
  8
0
100
AcDbMText
 10
22871.60517627167
 20
23974.88367124799
 30
0.0
 40
8.0
 41
0.0
 71
     7
 72
     5
  1

1001
ACAD
1000
MTEXTBEGIN
1070
    73
1070
     1
1070
    44
1040
1.0
1070
    74
1070
     0
1000
MTEXTEND
  0
MTEXT
  5
545C
330
1A
100
AcDbEntity
  8
0
100
AcDbMText
 10
25156.96286616657
 20
24945.67396599906
 30
0.0
 40
8.0
 41
0.0
 71
     7
 72
     5
  1

1001
ACAD
1000
MTEXTBEGIN
1070
    73
1070
     1
1070
    44
1040
1.0
1070
    74
1070
     0
1000
MTEXTEND
  0
MTEXT
  5
545D
330
1A
100
AcDbEntity
  8
SUNPOU
100
AcDbMText
 10
27822.85988684871
 20
34457.78535837418
 30
0.0
 40
10.5
 41
0.0
 71
     1
 72
     5
  1

1001
ACAD
1000
MTEXTBEGIN
1070
    73
1070
     1
1070
    44
1040
1.0
1070
    74
1070
     0
1000
MTEXTEND
  0
MTEXT
  5
545E
330
1A
100
AcDbEntity
  8
SUNPOU
100
AcDbMText
 10
19891.93669091278
 20
33510.99222446122
 30
0.0
 40
10.5
 41
0.0
 71
     7
 72
     5
  1

1001
ACAD
1000
MTEXTBEGIN
1070
    73
1070
     1
1070
    44
1040
1.0
1070
    74
1070
     0
1000
MTEXTEND
  0
MTEXT
  5
545F
330
1A
100
AcDbEntity
  8
SUNPOU
100
AcDbMText
 10
22840.92035542555
 20
38411.66829630407
 30
0.0
 40
10.5
 41
0.0
 71
     7
 72
     5
  1

1001
ACAD
1000
MTEXTBEGIN
1070
    73
1070
     1
1070
    44
1040
1.0
1070
    74
1070
     0
1000
MTEXTEND
  0
MTEXT
  5
5460
330
1A
100
AcDbEntity
  8
SUNPOU
100
AcDbMText
 10
27349.99848337611
 20
40847.96904392415
 30
0.0
 40
10.5
 41
0.0
 71
     7
 72
     5
  1

1001
ACAD
1000
MTEXTBEGIN
1070
    73
1070
     1
1070
    44
1040
1.0
1070
    74
1070
     0
1000
MTEXTEND
  0
MTEXT
  5
55B7
330
1A
100
AcDbEntity
  8
SUNPOU
100
AcDbMText
 10
67424.23923338197
 20
64463.86602884816
 30
0.0
 40
10.5
 41
0.0
 71
     9
 72
     5
  1

1001
ACAD
1000
MTEXTBEGIN
1070
    73
1070
     1
1070
    44
1040
1.0
1070
    74
1070
     0
1000
MTEXTEND
  0
MTEXT
  5
55B8
330
1A
100
AcDbEntity
  8
SUNPOU
100
AcDbMText
 10
76146.40679929998
 20
71879.70056038563
 30
0.0
 40
10.5
 41
0.0
 71
     9
 72
     5
  1

1001
ACAD
1000
MTEXTBEGIN
1070
    73
1070
     1
1070
    44
1040
1.0
1070
    74
1070
     0
1000
MTEXTEND
  0
MTEXT
  5
55B9
330
1A
100
AcDbEntity
  8
SUNPOU
100
AcDbMText
 10
95100.16551662994
 20
89346.27661287766
 30
0.0
 40
10.5
 41
0.0
 71
     9
 72
     5
  1

1001
ACAD
1000
MTEXTBEGIN
1070
    73
1070
     1
1070
    44
1040
1.0
1070
    74
1070
     0
1000
MTEXTEND
  0
MTEXT
  5
55BA
330
1A
100
AcDbEntity
  8
SUNPOU
100
AcDbMText
 10
97043.57276333936
 20
87545.22753299966
 30
0.0
 40
3.5
 41
0.0
 71
     9
 72
     5
  1

1001
ACAD
1000
MTEXTBEGIN
1070
    73
1070
     1
1070
    44
1040
1.0
1070
    74
1070
     0
1000
MTEXTEND
  0
MTEXT
  5
55BB
330
1A
100
AcDbEntity
  8
SUNPOU
100
AcDbMText
 10
128169.752595959
 20
130040.1732006569
 30
0.0
 40
10.5
 41
0.0
 71
     9
 72
     5
  1

1001
ACAD
1000
MTEXTBEGIN
1070
    73
1070
     1
1070
    44
1040
1.0
1070
    74
1070
     0
1000
MTEXTEND
  0
MTEXT
  5
55BC
330
1A
100
AcDbEntity
  8
SUNPOU
100
AcDbMText
 10
130113.1598426684
 20
128239.1241207789
 30
0.0
 40
3.5
 41
0.0
 71
     9
 72
     5
  1

1001
ACAD
1000
MTEXTBEGIN
1070
    73
1070
     1
1070
    44
1040
1.0
1070
    74
1070
     0
1000
MTEXTEND
  0
MTEXT
  5
55BD
330
1A
100
AcDbEntity
  8
SUNPOU
100
AcDbMText
 10
78610.02030175463
 20
75873.33835563206
 30
0.0
 40
10.5
 41
0.0
 71
     9
 72
     5
  1

1001
ACAD
1000
MTEXTBEGIN
1070
    73
1070
     1
1070
    44
1040
1.0
1070
    74
1070
     0
1000
MTEXTEND
  0
MTEXT
  5
55BE
330
1A
100
AcDbEntity
  8
SUNPOU
100
AcDbMText
 10
64662.02020137863
 20
56700.93921651987
 30
0.0
 40
3.5
 41
0.0
 71
     7
 72
     5
  1

1001
ACAD
1000
MTEXTBEGIN
1070
    73
1070
     1
1070
    44
1040
1.0
1070
    74
1070
     0
1000
MTEXTEND
  0
MTEXT
  5
55BF
330
1A
100
AcDbEntity
  8
SUNPOU
100
AcDbMText
 10
45647.18959837178
 20
44463.08794733807
 30
0.0
 40
10.5
 41
0.0
 71
     7
 72
     5
  1

1001
ACAD
1000
MTEXTBEGIN
1070
    73
1070
     1
1070
    44
1040
1.0
1070
    74
1070
     0
1000
MTEXTEND
  0
MTEXT
  5
55C0
330
1A
100
AcDbEntity
  8
SUNPOU
100
AcDbMText
 10
33189.96133342368
 20
28618.15636923965
 30
0.0
 40
35.0
 41
0.0
 71
     9
 72
     5
  1

1001
ACAD
1000
MTEXTBEGIN
1070
    73
1070
     1
1070
    44
1040
1.0
1070
    74
1070
     0
1000
MTEXTEND
  0
MTEXT
  5
55C1
330
1A
100
AcDbEntity
  8
SUNPOU
100
AcDbMText
 10
32098.44639099864
 20
29226.93177928835
 30
0.0
 40
350.0000004171781
 41
0.0
 71
     7
 72
     5
  1

1001
ACAD
1000
MTEXTBEGIN
1070
    73
1070
     1
1070
    44
1040
1.0
1070
    74
1070
     0
1000
MTEXTEND
  0
MTEXT
  5
55C2
330
1A
100
AcDbEntity
  8
0
100
AcDbMText
 10
38142.39714894154
 20
27206.85414142458
 30
0.0
 40
8.0
 41
0.0
 71
     7
 72
     5
  1

1001
ACAD
1000
MTEXTBEGIN
1070
    73
1070
     1
1070
    44
1040
1.0
1070
    74
1070
     0
1000
MTEXTEND
  0
MTEXT
  5
55C3
330
1A
100
AcDbEntity
  8
0
100
AcDbMText
 10
40427.75483883644
 20
28177.64443617564
 30
0.0
 40
8.0
 41
0.0
 71
     7
 72
     5
  1

1001
ACAD
1000
MTEXTBEGIN
1070
    73
1070
     1
1070
    44
1040
1.0
1070
    74
1070
     0
1000
MTEXTEND
  0
MTEXT
  5
55C4
330
1A
100
AcDbEntity
  8
SUNPOU
100
AcDbMText
 10
43093.65185951858
 20
37689.75582855077
 30
0.0
 40
10.5
 41
0.0
 71
     1
 72
     5
  1

1001
ACAD
1000
MTEXTBEGIN
1070
    73
1070
     1
1070
    44
1040
1.0
1070
    74
1070
     0
1000
MTEXTEND
  0
MTEXT
  5
55C5
330
1A
100
AcDbEntity
  8
SUNPOU
100
AcDbMText
 10
35162.72866358265
 20
36742.96269463781
 30
0.0
 40
10.5
 41
0.0
 71
     7
 72
     5
  1

1001
ACAD
1000
MTEXTBEGIN
1070
    73
1070
     1
1070
    44
1040
1.0
1070
    74
1070
     0
1000
MTEXTEND
  0
MTEXT
  5
55C6
330
1A
100
AcDbEntity
  8
SUNPOU
100
AcDbMText
 10
38111.71232809542
 20
41643.63876648066
 30
0.0
 40
10.5
 41
0.0
 71
     7
 72
     5
  1

1001
ACAD
1000
MTEXTBEGIN
1070
    73
1070
     1
1070
    44
1040
1.0
1070
    74
1070
     0
1000
MTEXTEND
  0
MTEXT
  5
55C7
330
1A
100
AcDbEntity
  8
SUNPOU
100
AcDbMText
 10
42620.79045604597
 20
44079.93951410074
 30
0.0
 40
10.5
 41
0.0
 71
     7
 72
     5
  1

1001
ACAD
1000
MTEXTBEGIN
1070
    73
1070
     1
1070
    44
1040
1.0
1070
    74
1070
     0
1000
MTEXTEND
  0
MTEXT
  5
55C8
330
1A
100
AcDbEntity
  8
SUNPOU
100
AcDbMText
 10
26221.62834281429
 20
23077.53566448964
 30
0.0
 40
10.5
 41
0.0
 71
     7
 72
     5
  1

1001
ACAD
1000
MTEXTBEGIN
1070
    73
1070
     1
1070
    44
1040
1.0
1070
    74
1070
     0
1000
MTEXTEND
  0
MTEXT
  5
55C9
330
1A
100
AcDbEntity
  8
SUNPOU
100
AcDbMText
 10
77413.14677671455
 20
68750.51622813789
 30
0.0
 40
10.5
 41
0.0
 71
     9
 72
     5
  1

1001
ACAD
1000
MTEXTBEGIN
1070
    73
1070
     1
1070
    44
1040
1.0
1070
    74
1070
     0
1000
MTEXTEND
  0
MTEXT
  5
55CA
330
1A
100
AcDbEntity
  8
SUNPOU
100
AcDbMText
 10
86135.31434263256
 20
76166.35075967536
 30
0.0
 40
10.5
 41
0.0
 71
     9
 72
     5
  1

1001
ACAD
1000
MTEXTBEGIN
1070
    73
1070
     1
1070
    44
1040
1.0
1070
    74
1070
     0
1000
MTEXTEND
  0
MTEXT
  5
55CB
330
1A
100
AcDbEntity
  8
SUNPOU
100
AcDbMText
 10
105089.0730599625
 20
93632.92681216739
 30
0.0
 40
10.5
 41
0.0
 71
     9
 72
     5
  1

1001
ACAD
1000
MTEXTBEGIN
1070
    73
1070
     1
1070
    44
1040
1.0
1070
    74
1070
     0
1000
MTEXTEND
  0
MTEXT
  5
55CC
330
1A
100
AcDbEntity
  8
SUNPOU
100
AcDbMText
 10
107032.4803066719
 20
91831.8777322894
 30
0.0
 40
3.5
 41
0.0
 71
     9
 72
     5
  1

1001
ACAD
1000
MTEXTBEGIN
1070
    73
1070
     1
1070
    44
1040
1.0
1070
    74
1070
     0
1000
MTEXTEND
  0
MTEXT
  5
55CD
330
1A
100
AcDbEntity
  8
SUNPOU
100
AcDbMText
 10
138158.6601392916
 20
134326.8233999467
 30
0.0
 40
10.5
 41
0.0
 71
     9
 72
     5
  1

1001
ACAD
1000
MTEXTBEGIN
1070
    73
1070
     1
1070
    44
1040
1.0
1070
    74
1070
     0
1000
MTEXTEND
  0
MTEXT
  5
55CE
330
1A
100
AcDbEntity
  8
SUNPOU
100
AcDbMText
 10
140102.067386001
 20
132525.7743200686
 30
0.0
 40
3.5
 41
0.0
 71
     9
 72
     5
  1

1001
ACAD
1000
MTEXTBEGIN
1070
    73
1070
     1
1070
    44
1040
1.0
1070
    74
1070
     0
1000
MTEXTEND
  0
MTEXT
  5
55CF
330
1A
100
AcDbEntity
  8
SUNPOU
100
AcDbMText
 10
88598.92784508721
 20
80159.98855492179
 30
0.0
 40
10.5
 41
0.0
 71
     9
 72
     5
  1

1001
ACAD
1000
MTEXTBEGIN
1070
    73
1070
     1
1070
    44
1040
1.0
1070
    74
1070
     0
1000
MTEXTEND
  0
MTEXT
  5
55D0
330
1A
100
AcDbEntity
  8
SUNPOU
100
AcDbMText
 10
74650.92774471121
 20
60987.5894158096
 30
0.0
 40
3.5
 41
0.0
 71
     7
 72
     5
  1

1001
ACAD
1000
MTEXTBEGIN
1070
    73
1070
     1
1070
    44
1040
1.0
1070
    74
1070
     0
1000
MTEXTEND
  0
MTEXT
  5
55D1
330
1A
100
AcDbEntity
  8
SUNPOU
100
AcDbMText
 10
55636.09714170436
 20
48749.73814662781
 30
0.0
 40
10.5
 41
0.0
 71
     7
 72
     5
  1

1001
ACAD
1000
MTEXTBEGIN
1070
    73
1070
     1
1070
    44
1040
1.0
1070
    74
1070
     0
1000
MTEXTEND
  0
MTEXT
  5
55D2
330
1A
100
AcDbEntity
  8
SUNPOU
100
AcDbMText
 10
43178.86887675626
 20
32904.80656852938
 30
0.0
 40
35.0
 41
0.0
 71
     9
 72
     5
  1

1001
ACAD
1000
MTEXTBEGIN
1070
    73
1070
     1
1070
    44
1040
1.0
1070
    74
1070
     0
1000
MTEXTEND
  0
MTEXT
  5
55D3
330
1A
100
AcDbEntity
  8
SUNPOU
100
AcDbMText
 10
42087.35393433121
 20
33513.58197857809
 30
0.0
 40
350.0000004171781
 41
0.0
 71
     7
 72
     5
  1

1001
ACAD
1000
MTEXTBEGIN
1070
    73
1070
     1
1070
    44
1040
1.0
1070
    74
1070
     0
1000
MTEXTEND
  0
MTEXT
  5
55D4
330
1A
100
AcDbEntity
  8
0
100
AcDbMText
 10
48131.30469227412
 20
31493.50434071431
 30
0.0
 40
8.0
 41
0.0
 71
     7
 72
     5
  1

1001
ACAD
1000
MTEXTBEGIN
1070
    73
1070
     1
1070
    44
1040
1.0
1070
    74
1070
     0
1000
MTEXTEND
  0
MTEXT
  5
55D5
330
1A
100
AcDbEntity
  8
0
100
AcDbMText
 10
50416.66238216901
 20
32464.29463546537
 30
0.0
 40
8.0
 41
0.0
 71
     7
 72
     5
  1

1001
ACAD
1000
MTEXTBEGIN
1070
    73
1070
     1
1070
    44
1040
1.0
1070
    74
1070
     0
1000
MTEXTEND
  0
MTEXT
  5
55D6
330
1A
100
AcDbEntity
  8
SUNPOU
100
AcDbMText
 10
53082.55940285115
 20
41976.4060278405
 30
0.0
 40
10.5
 41
0.0
 71
     1
 72
     5
  1

1001
ACAD
1000
MTEXTBEGIN
1070
    73
1070
     1
1070
    44
1040
1.0
1070
    74
1070
     0
1000
MTEXTEND
  0
MTEXT
  5
55D7
330
1A
100
AcDbEntity
  8
SUNPOU
100
AcDbMText
 10
45151.63620691522
 20
41029.61289392755
 30
0.0
 40
10.5
 41
0.0
 71
     7
 72
     5
  1

1001
ACAD
1000
MTEXTBEGIN
1070
    73
1070
     1
1070
    44
1040
1.0
1070
    74
1070
     0
1000
MTEXTEND
  0
MTEXT
  5
55D8
330
1A
100
AcDbEntity
  8
SUNPOU
100
AcDbMText
 10
48100.61987142798
 20
45930.28896577039
 30
0.0
 40
10.5
 41
0.0
 71
     7
 72
     5
  1

1001
ACAD
1000
MTEXTBEGIN
1070
    73
1070
     1
1070
    44
1040
1.0
1070
    74
1070
     0
1000
MTEXTEND
  0
MTEXT
  5
55D9
330
1A
100
AcDbEntity
  8
SUNPOU
100
AcDbMText
 10
52609.69799937854
 20
48366.58971339046
 30
0.0
 40
10.5
 41
0.0
 71
     7
 72
     5
  1

1001
ACAD
1000
MTEXTBEGIN
1070
    73
1070
     1
1070
    44
1040
1.0
1070
    74
1070
     0
1000
MTEXTEND
  0
MTEXT
  5
55DA
330
1A
100
AcDbEntity
  8
SUNPOU
100
AcDbMText
 10
36210.53588614687
 20
27364.18586377937
 30
0.0
 40
10.5
 41
0.0
 71
     7
 72
     5
  1

1001
ACAD
1000
MTEXTBEGIN
1070
    73
1070
     1
1070
    44
1040
1.0
1070
    74
1070
     0
1000
MTEXTEND
  0
MTEXT
  5
55DB
330
1A
100
AcDbEntity
  8
SUNPOU
100
AcDbMText
 10
38021.29879752181
 20
33691.59985125794
 30
0.0
 40
10.5
 41
0.0
 71
     9
 72
     5
  1

1001
ACAD
1000
MTEXTBEGIN
1070
    73
1070
     1
1070
    44
1040
1.0
1070
    74
1070
     0
1000
MTEXTEND
  0
MTEXT
  5
55DC
330
1A
100
AcDbEntity
  8
SUNPOU
100
AcDbMText
 10
46743.46636343979
 20
41107.43438279541
 30
0.0
 40
10.5
 41
0.0
 71
     9
 72
     5
  1

1001
ACAD
1000
MTEXTBEGIN
1070
    73
1070
     1
1070
    44
1040
1.0
1070
    74
1070
     0
1000
MTEXTEND
  0
MTEXT
  5
55DD
330
1A
100
AcDbEntity
  8
SUNPOU
100
AcDbMText
 10
65697.22508076975
 20
58574.01043528746
 30
0.0
 40
10.5
 41
0.0
 71
     9
 72
     5
  1

1001
ACAD
1000
MTEXTBEGIN
1070
    73
1070
     1
1070
    44
1040
1.0
1070
    74
1070
     0
1000
MTEXTEND
  0
MTEXT
  5
55DE
330
1A
100
AcDbEntity
  8
SUNPOU
100
AcDbMText
 10
67640.63232747917
 20
56772.96135540945
 30
0.0
 40
3.5
 41
0.0
 71
     9
 72
     5
  1

1001
ACAD
1000
MTEXTBEGIN
1070
    73
1070
     1
1070
    44
1040
1.0
1070
    74
1070
     0
1000
MTEXTEND
  0
MTEXT
  5
55DF
330
1A
100
AcDbEntity
  8
SUNPOU
100
AcDbMText
 10
98766.81216009888
 20
99267.9070230668
 30
0.0
 40
10.5
 41
0.0
 71
     9
 72
     5
  1

1001
ACAD
1000
MTEXTBEGIN
1070
    73
1070
     1
1070
    44
1040
1.0
1070
    74
1070
     0
1000
MTEXTEND
  0
MTEXT
  5
55E0
330
1A
100
AcDbEntity
  8
SUNPOU
100
AcDbMText
 10
100710.2194068083
 20
97466.85794318878
 30
0.0
 40
3.5
 41
0.0
 71
     9
 72
     5
  1

1001
ACAD
1000
MTEXTBEGIN
1070
    73
1070
     1
1070
    44
1040
1.0
1070
    74
1070
     0
1000
MTEXTEND
  0
MTEXT
  5
55E1
330
1A
100
AcDbEntity
  8
SUNPOU
100
AcDbMText
 10
49207.07986589444
 20
45101.07217804185
 30
0.0
 40
10.5
 41
0.0
 71
     9
 72
     5
  1

1001
ACAD
1000
MTEXTBEGIN
1070
    73
1070
     1
1070
    44
1040
1.0
1070
    74
1070
     0
1000
MTEXTEND
  0
MTEXT
  5
55E2
330
1A
100
AcDbEntity
  8
SUNPOU
100
AcDbMText
 10
35259.07976551845
 20
25928.67303892964
 30
0.0
 40
3.5
 41
0.0
 71
     7
 72
     5
  1

1001
ACAD
1000
MTEXTBEGIN
1070
    73
1070
     1
1070
    44
1040
1.0
1070
    74
1070
     0
1000
MTEXTEND
  0
MTEXT
  5
55E3
330
1A
100
AcDbEntity
  8
SUNPOU
100
AcDbMText
 10
48951.43044828905
 20
35287.73625995099
 30
0.0
 40
10.5
 41
0.0
 71
     9
 72
     5
  1

1001
ACAD
1000
MTEXTBEGIN
1070
    73
1070
     1
1070
    44
1040
1.0
1070
    74
1070
     0
1000
MTEXTEND
  0
MTEXT
  5
55E4
330
1A
100
AcDbEntity
  8
SUNPOU
100
AcDbMText
 10
57673.59801420702
 20
42703.57079148847
 30
0.0
 40
10.5
 41
0.0
 71
     9
 72
     5
  1

1001
ACAD
1000
MTEXTBEGIN
1070
    73
1070
     1
1070
    44
1040
1.0
1070
    74
1070
     0
1000
MTEXTEND
  0
MTEXT
  5
55E5
330
1A
100
AcDbEntity
  8
SUNPOU
100
AcDbMText
 10
76627.35673153699
 20
60170.14684398051
 30
0.0
 40
10.5
 41
0.0
 71
     9
 72
     5
  1

1001
ACAD
1000
MTEXTBEGIN
1070
    73
1070
     1
1070
    44
1040
1.0
1070
    74
1070
     0
1000
MTEXTEND
  0
MTEXT
  5
55E6
330
1A
100
AcDbEntity
  8
SUNPOU
100
AcDbMText
 10
78570.76397824641
 20
58369.09776410251
 30
0.0
 40
3.5
 41
0.0
 71
     9
 72
     5
  1

1001
ACAD
1000
MTEXTBEGIN
1070
    73
1070
     1
1070
    44
1040
1.0
1070
    74
1070
     0
1000
MTEXTEND
  0
MTEXT
  5
55E7
330
1A
100
AcDbEntity
  8
SUNPOU
100
AcDbMText
 10
109696.9438108661
 20
100864.0434317598
 30
0.0
 40
10.5
 41
0.0
 71
     9
 72
     5
  1

1001
ACAD
1000
MTEXTBEGIN
1070
    73
1070
     1
1070
    44
1040
1.0
1070
    74
1070
     0
1000
MTEXTEND
  0
MTEXT
  5
55E8
330
1A
100
AcDbEntity
  8
SUNPOU
100
AcDbMText
 10
111640.3510575755
 20
99062.99435188183
 30
0.0
 40
3.5
 41
0.0
 71
     9
 72
     5
  1

1001
ACAD
1000
MTEXTBEGIN
1070
    73
1070
     1
1070
    44
1040
1.0
1070
    74
1070
     0
1000
MTEXTEND
  0
MTEXT
  5
55E9
330
1A
100
AcDbEntity
  8
SUNPOU
100
AcDbMText
 10
60137.21151666167
 20
46697.20858673491
 30
0.0
 40
10.5
 41
0.0
 71
     9
 72
     5
  1

1001
ACAD
1000
MTEXTBEGIN
1070
    73
1070
     1
1070
    44
1040
1.0
1070
    74
1070
     0
1000
MTEXTEND
  0
MTEXT
  5
55EA
330
1A
100
AcDbEntity
  8
SUNPOU
100
AcDbMText
 10
46189.21141628568
 20
27524.80944762269
 30
0.0
 40
3.5
 41
0.0
 71
     7
 72
     5
  1

1001
ACAD
1000
MTEXTBEGIN
1070
    73
1070
     1
1070
    44
1040
1.0
1070
    74
1070
     0
1000
MTEXTEND
  0
MTEXT
  5
55EB
330
1A
100
AcDbEntity
  8
SUNPOU
100
AcDbMText
 10
45007.68847015541
 20
38269.57947701874
 30
0.0
 40
10.5
 41
0.0
 71
     9
 72
     5
  1

1001
ACAD
1000
MTEXTBEGIN
1070
    73
1070
     1
1070
    44
1040
1.0
1070
    74
1070
     0
1000
MTEXTEND
  0
MTEXT
  5
55EC
330
1A
100
AcDbEntity
  8
SUNPOU
100
AcDbMText
 10
63961.44718748539
 20
55736.15552951081
 30
0.0
 40
10.5
 41
0.0
 71
     9
 72
     5
  1

1001
ACAD
1000
MTEXTBEGIN
1070
    73
1070
     1
1070
    44
1040
1.0
1070
    74
1070
     0
1000
MTEXTEND
  0
MTEXT
  5
55ED
330
1A
100
AcDbEntity
  8
SUNPOU
100
AcDbMText
 10
65904.85443419479
 20
53935.10644963279
 30
0.0
 40
3.5
 41
0.0
 71
     9
 72
     5
  1

1001
ACAD
1000
MTEXTBEGIN
1070
    73
1070
     1
1070
    44
1040
1.0
1070
    74
1070
     0
1000
MTEXTEND
  0
MTEXT
  5
55EE
330
1A
100
AcDbEntity
  8
SUNPOU
100
AcDbMText
 10
97031.03426681451
 20
96430.05211729015
 30
0.0
 40
10.5
 41
0.0
 71
     9
 72
     5
  1

1001
ACAD
1000
MTEXTBEGIN
1070
    73
1070
     1
1070
    44
1040
1.0
1070
    74
1070
     0
1000
MTEXTEND
  0
MTEXT
  5
55EF
330
1A
100
AcDbEntity
  8
SUNPOU
100
AcDbMText
 10
98974.44151352393
 20
94629.00303741212
 30
0.0
 40
3.5
 41
0.0
 71
     9
 72
     5
  1

1001
ACAD
1000
MTEXTBEGIN
1070
    73
1070
     1
1070
    44
1040
1.0
1070
    74
1070
     0
1000
MTEXTEND
  0
MTEXT
  5
55F0
330
1A
100
AcDbEntity
  8
SUNPOU
100
AcDbMText
 10
47471.30197261006
 20
42263.21727226519
 30
0.0
 40
10.5
 41
0.0
 71
     9
 72
     5
  1

1001
ACAD
1000
MTEXTBEGIN
1070
    73
1070
     1
1070
    44
1040
1.0
1070
    74
1070
     0
1000
MTEXTEND
  0
MTEXT
  5
55F1
330
1A
100
AcDbEntity
  8
SUNPOU
100
AcDbMText
 10
33523.30187223408
 20
23090.81813315298
 30
0.0
 40
3.5
 41
0.0
 71
     7
 72
     5
  1

1001
ACAD
1000
MTEXTBEGIN
1070
    73
1070
     1
1070
    44
1040
1.0
1070
    74
1070
     0
1000
MTEXTEND
  0
MTEXT
  5
55F2
330
1A
100
AcDbEntity
  8
SUNPOU
100
AcDbMText
 10
57959.46254102503
 20
50038.08111611015
 30
0.0
 40
10.5
 41
0.0
 71
     9
 72
     5
  1

1001
ACAD
1000
MTEXTBEGIN
1070
    73
1070
     1
1070
    44
1040
1.0
1070
    74
1070
     0
1000
MTEXTEND
  0
MTEXT
  5
55F3
330
1A
100
AcDbEntity
  8
SUNPOU
100
AcDbMText
 10
76913.22125835503
 20
67504.65716860222
 30
0.0
 40
10.5
 41
0.0
 71
     9
 72
     5
  1

1001
ACAD
1000
MTEXTBEGIN
1070
    73
1070
     1
1070
    44
1040
1.0
1070
    74
1070
     0
1000
MTEXTEND
  0
MTEXT
  5
55F4
330
1A
100
AcDbEntity
  8
SUNPOU
100
AcDbMText
 10
78856.62850506443
 20
65703.6080887242
 30
0.0
 40
3.5
 41
0.0
 71
     9
 72
     5
  1

1001
ACAD
1000
MTEXTBEGIN
1070
    73
1070
     1
1070
    44
1040
1.0
1070
    74
1070
     0
1000
MTEXTEND
  0
MTEXT
  5
55F5
330
1A
100
AcDbEntity
  8
SUNPOU
100
AcDbMText
 10
109982.8083376841
 20
108198.5537563815
 30
0.0
 40
10.5
 41
0.0
 71
     9
 72
     5
  1

1001
ACAD
1000
MTEXTBEGIN
1070
    73
1070
     1
1070
    44
1040
1.0
1070
    74
1070
     0
1000
MTEXTEND
  0
MTEXT
  5
55F6
330
1A
100
AcDbEntity
  8
SUNPOU
100
AcDbMText
 10
111926.2155843935
 20
106397.5046765035
 30
0.0
 40
3.5
 41
0.0
 71
     9
 72
     5
  1

1001
ACAD
1000
MTEXTBEGIN
1070
    73
1070
     1
1070
    44
1040
1.0
1070
    74
1070
     0
1000
MTEXTEND
  0
MTEXT
  5
55F7
330
1A
100
AcDbEntity
  8
SUNPOU
100
AcDbMText
 10
60423.07604347968
 20
54031.71891135659
 30
0.0
 40
10.5
 41
0.0
 71
     9
 72
     5
  1

1001
ACAD
1000
MTEXTBEGIN
1070
    73
1070
     1
1070
    44
1040
1.0
1070
    74
1070
     0
1000
MTEXTEND
  0
MTEXT
  5
55F8
330
1A
100
AcDbEntity
  8
SUNPOU
100
AcDbMText
 10
46475.07594310369
 20
34859.3197722444
 30
0.0
 40
3.5
 41
0.0
 71
     7
 72
     5
  1

1001
ACAD
1000
MTEXTBEGIN
1070
    73
1070
     1
1070
    44
1040
1.0
1070
    74
1070
     0
1000
MTEXTEND
  0
MTEXT
  5
55F9
330
1A
100
AcDbEntity
  8
SUNPOU
100
AcDbMText
 10
74027.35402123588
 20
68370.58278833383
 30
0.0
 40
10.5
 41
0.0
 71
     9
 72
     5
  1

1001
ACAD
1000
MTEXTBEGIN
1070
    73
1070
     1
1070
    44
1040
1.0
1070
    74
1070
     0
1000
MTEXTEND
  0
MTEXT
  5
55FA
330
1A
100
AcDbEntity
  8
SUNPOU
100
AcDbMText
 10
75970.7612679453
 20
66569.53370845583
 30
0.0
 40
3.5
 41
0.0
 71
     9
 72
     5
  1

1001
ACAD
1000
MTEXTBEGIN
1070
    73
1070
     1
1070
    44
1040
1.0
1070
    74
1070
     0
1000
MTEXTEND
  0
MTEXT
  5
55FB
330
1A
100
AcDbEntity
  8
SUNPOU
100
AcDbMText
 10
107096.941100565
 20
109064.4793761132
 30
0.0
 40
10.5
 41
0.0
 71
     9
 72
     5
  1

1001
ACAD
1000
MTEXTBEGIN
1070
    73
1070
     1
1070
    44
1040
1.0
1070
    74
1070
     0
1000
MTEXTEND
  0
MTEXT
  5
55FC
330
1A
100
AcDbEntity
  8
SUNPOU
100
AcDbMText
 10
109040.3483472744
 20
107263.4302962351
 30
0.0
 40
3.5
 41
0.0
 71
     9
 72
     5
  1

1001
ACAD
1000
MTEXTBEGIN
1070
    73
1070
     1
1070
    44
1040
1.0
1070
    74
1070
     0
1000
MTEXTEND
  0
MTEXT
  5
55FD
330
1A
100
AcDbEntity
  8
SUNPOU
100
AcDbMText
 10
105709.1709283621
 20
108141.3777665285
 30
0.0
 40
10.5
 41
0.0
 71
     9
 72
     5
  1

1001
ACAD
1000
MTEXTBEGIN
1070
    73
1070
     1
1070
    44
1040
1.0
1070
    74
1070
     0
1000
MTEXTEND
  0
MTEXT
  5
55FE
330
1A
100
AcDbEntity
  8
SUNPOU
100
AcDbMText
 10
107652.5781750715
 20
106340.3286866505
 30
0.0
 40
3.5
 41
0.0
 71
     9
 72
     5
  1

1001
ACAD
1000
MTEXTBEGIN
1070
    73
1070
     1
1070
    44
1040
1.0
1070
    74
1070
     0
1000
MTEXTEND
  0
MTEXT
  5
55FF
330
1A
100
AcDbEntity
  8
SUNPOU
100
AcDbMText
 10
73193.09268743351
 20
66158.78082845056
 30
0.0
 40
10.5
 41
0.0
 71
     9
 72
     5
  1

1001
ACAD
1000
MTEXTBEGIN
1070
    73
1070
     1
1070
    44
1040
1.0
1070
    74
1070
     0
1000
MTEXTEND
  0
MTEXT
  5
5600
330
1A
100
AcDbEntity
  8
SUNPOU
100
AcDbMText
 10
75916.39889159806
 20
66563.46252003162
 30
0.0
 40
3.5
 41
0.0
 71
     9
 72
     5
  1

1001
ACAD
1000
MTEXTBEGIN
1070
    73
1070
     1
1070
    44
1040
1.0
1070
    74
1070
     0
1000
MTEXTEND
  0
MTEXT
  5
5601
330
1A
100
AcDbEntity
  8
SUNPOU
100
AcDbMText
 10
75124.04436649058
 20
63402.1566819768
 30
0.0
 40
10.5
 41
0.0
 71
     9
 72
     5
  1

1001
ACAD
1000
MTEXTBEGIN
1070
    73
1070
     1
1070
    44
1040
1.0
1070
    74
1070
     0
1000
MTEXTEND
  0
MTEXT
  5
5602
330
1A
100
AcDbEntity
  8
SUNPOU
100
AcDbMText
 10
77067.4516132
 20
61601.1076020988
 30
0.0
 40
3.5
 41
0.0
 71
     9
 72
     5
  1

1001
ACAD
1000
MTEXTBEGIN
1070
    73
1070
     1
1070
    44
1040
1.0
1070
    74
1070
     0
1000
MTEXTEND
  0
MTEXT
  5
5603
330
1A
100
AcDbEntity
  8
SUNPOU
100
AcDbMText
 10
77012.54710378659
 20
61488.33571981449
 30
0.0
 40
3.5
 41
0.0
 71
     9
 72
     5
  1

1001
ACAD
1000
MTEXTBEGIN
1070
    73
1070
     1
1070
    44
1040
1.0
1070
    74
1070
     0
1000
MTEXTEND
  0
MTEXT
  5
5604
330
1A
100
AcDbEntity
  8
SUNPOU
100
AcDbMText
 10
76376.61896736668
 20
60677.01447874797
 30
0.0
 40
3.5
 41
0.0
 71
     9
 72
     5
  1

1001
ACAD
1000
MTEXTBEGIN
1070
    73
1070
     1
1070
    44
1040
1.0
1070
    74
1070
     0
1000
MTEXTEND
  0
MTEXT
  5
5605
330
1A
100
AcDbEntity
  8
SUNPOU
100
AcDbMText
 10
76375.37854794595
 20
60676.76650181047
 30
0.0
 40
10.5
 41
0.0
 71
     9
 72
     5
  1

1001
ACAD
1000
MTEXTBEGIN
1070
    73
1070
     1
1070
    44
1040
1.0
1070
    74
1070
     0
1000
MTEXTEND
  0
MTEXT
  5
5606
330
1A
100
AcDbEntity
  8
SUNPOU
100
AcDbMText
 10
84709.93991079748
 20
78034.0328293557
 30
0.0
 40
10.5
 41
0.0
 71
     9
 72
     5
  1

1001
ACAD
1000
MTEXTBEGIN
1070
    73
1070
     1
1070
    44
1040
1.0
1070
    74
1070
     0
1000
MTEXTEND
  0
MTEXT
  5
5607
330
1A
100
AcDbEntity
  8
SUNPOU
100
AcDbMText
 10
93432.10747671548
 20
85449.86736089315
 30
0.0
 40
10.5
 41
0.0
 71
     9
 72
     5
  1

1001
ACAD
1000
MTEXTBEGIN
1070
    73
1070
     1
1070
    44
1040
1.0
1070
    74
1070
     0
1000
MTEXTEND
  0
MTEXT
  5
5608
330
1A
100
AcDbEntity
  8
SUNPOU
100
AcDbMText
 10
112385.8661940454
 20
102916.4434133851
 30
0.0
 40
10.5
 41
0.0
 71
     9
 72
     5
  1

1001
ACAD
1000
MTEXTBEGIN
1070
    73
1070
     1
1070
    44
1040
1.0
1070
    74
1070
     0
1000
MTEXTEND
  0
MTEXT
  5
5609
330
1A
100
AcDbEntity
  8
SUNPOU
100
AcDbMText
 10
114329.2734407548
 20
101115.3943335072
 30
0.0
 40
3.5
 41
0.0
 71
     9
 72
     5
  1

1001
ACAD
1000
MTEXTBEGIN
1070
    73
1070
     1
1070
    44
1040
1.0
1070
    74
1070
     0
1000
MTEXTEND
  0
MTEXT
  5
560A
330
1A
100
AcDbEntity
  8
SUNPOU
100
AcDbMText
 10
145455.4532733745
 20
143610.3400011645
 30
0.0
 40
10.5
 41
0.0
 71
     9
 72
     5
  1

1001
ACAD
1000
MTEXTBEGIN
1070
    73
1070
     1
1070
    44
1040
1.0
1070
    74
1070
     0
1000
MTEXTEND
  0
MTEXT
  5
560B
330
1A
100
AcDbEntity
  8
SUNPOU
100
AcDbMText
 10
147398.8605200839
 20
141809.2909212864
 30
0.0
 40
3.5
 41
0.0
 71
     9
 72
     5
  1

1001
ACAD
1000
MTEXTBEGIN
1070
    73
1070
     1
1070
    44
1040
1.0
1070
    74
1070
     0
1000
MTEXTEND
  0
MTEXT
  5
560C
330
1A
100
AcDbEntity
  8
SUNPOU
100
AcDbMText
 10
95895.72097917013
 20
89443.5051561396
 30
0.0
 40
10.5
 41
0.0
 71
     9
 72
     5
  1

1001
ACAD
1000
MTEXTBEGIN
1070
    73
1070
     1
1070
    44
1040
1.0
1070
    74
1070
     0
1000
MTEXTEND
  0
MTEXT
  5
560D
330
1A
100
AcDbEntity
  8
SUNPOU
100
AcDbMText
 10
81947.72087879414
 20
70271.1060170274
 30
0.0
 40
3.5
 41
0.0
 71
     7
 72
     5
  1

1001
ACAD
1000
MTEXTBEGIN
1070
    73
1070
     1
1070
    44
1040
1.0
1070
    74
1070
     0
1000
MTEXTEND
  0
MTEXT
  5
560E
330
1A
100
AcDbEntity
  8
SUNPOU
100
AcDbMText
 10
62932.89027578729
 20
58033.25474784561
 30
0.0
 40
10.5
 41
0.0
 71
     7
 72
     5
  1

1001
ACAD
1000
MTEXTBEGIN
1070
    73
1070
     1
1070
    44
1040
1.0
1070
    74
1070
     0
1000
MTEXTEND
  0
MTEXT
  5
560F
330
1A
100
AcDbEntity
  8
SUNPOU
100
AcDbMText
 10
50475.66201083918
 20
42188.32316974719
 30
0.0
 40
35.0
 41
0.0
 71
     9
 72
     5
  1

1001
ACAD
1000
MTEXTBEGIN
1070
    73
1070
     1
1070
    44
1040
1.0
1070
    74
1070
     0
1000
MTEXTEND
  0
MTEXT
  5
5610
330
1A
100
AcDbEntity
  8
SUNPOU
100
AcDbMText
 10
49384.14706841413
 20
42797.0985797959
 30
0.0
 40
350.0000004171781
 41
0.0
 71
     7
 72
     5
  1

1001
ACAD
1000
MTEXTBEGIN
1070
    73
1070
     1
1070
    44
1040
1.0
1070
    74
1070
     0
1000
MTEXTEND
  0
MTEXT
  5
5611
330
1A
100
AcDbEntity
  8
0
100
AcDbMText
 10
55428.09782635704
 20
40777.02094193211
 30
0.0
 40
8.0
 41
0.0
 71
     7
 72
     5
  1

1001
ACAD
1000
MTEXTBEGIN
1070
    73
1070
     1
1070
    44
1040
1.0
1070
    74
1070
     0
1000
MTEXTEND
  0
MTEXT
  5
5612
330
1A
100
AcDbEntity
  8
0
100
AcDbMText
 10
57713.45551625194
 20
41747.81123668317
 30
0.0
 40
8.0
 41
0.0
 71
     7
 72
     5
  1

1001
ACAD
1000
MTEXTBEGIN
1070
    73
1070
     1
1070
    44
1040
1.0
1070
    74
1070
     0
1000
MTEXTEND
  0
MTEXT
  5
5613
330
1A
100
AcDbEntity
  8
SUNPOU
100
AcDbMText
 10
60379.35253693408
 20
51259.9226290583
 30
0.0
 40
10.5
 41
0.0
 71
     1
 72
     5
  1

1001
ACAD
1000
MTEXTBEGIN
1070
    73
1070
     1
1070
    44
1040
1.0
1070
    74
1070
     0
1000
MTEXTEND
  0
MTEXT
  5
5614
330
1A
100
AcDbEntity
  8
SUNPOU
100
AcDbMText
 10
52448.42934099814
 20
50313.12949514535
 30
0.0
 40
10.5
 41
0.0
 71
     7
 72
     5
  1

1001
ACAD
1000
MTEXTBEGIN
1070
    73
1070
     1
1070
    44
1040
1.0
1070
    74
1070
     0
1000
MTEXTEND
  0
MTEXT
  5
5615
330
1A
100
AcDbEntity
  8
SUNPOU
100
AcDbMText
 10
55397.41300551091
 20
55213.80556698819
 30
0.0
 40
10.5
 41
0.0
 71
     7
 72
     5
  1

1001
ACAD
1000
MTEXTBEGIN
1070
    73
1070
     1
1070
    44
1040
1.0
1070
    74
1070
     0
1000
MTEXTEND
  0
MTEXT
  5
5616
330
1A
100
AcDbEntity
  8
SUNPOU
100
AcDbMText
 10
59906.49113346147
 20
57650.10631460826
 30
0.0
 40
10.5
 41
0.0
 71
     7
 72
     5
  1

1001
ACAD
1000
MTEXTBEGIN
1070
    73
1070
     1
1070
    44
1040
1.0
1070
    74
1070
     0
1000
MTEXTEND
  0
MTEXT
  5
5617
330
1A
100
AcDbEntity
  8
SUNPOU
100
AcDbMText
 10
43507.32902022979
 20
36647.70246499718
 30
0.0
 40
10.5
 41
0.0
 71
     7
 72
     5
  1

1001
ACAD
1000
MTEXTBEGIN
1070
    73
1070
     1
1070
    44
1040
1.0
1070
    74
1070
     0
1000
MTEXTEND
  0
MTEXT
  5
5618
330
1A
100
AcDbEntity
  8
SUNPOU
100
AcDbMText
 10
94698.84745413006
 20
82320.68302864542
 30
0.0
 40
10.5
 41
0.0
 71
     9
 72
     5
  1

1001
ACAD
1000
MTEXTBEGIN
1070
    73
1070
     1
1070
    44
1040
1.0
1070
    74
1070
     0
1000
MTEXTEND
  0
MTEXT
  5
5619
330
1A
100
AcDbEntity
  8
SUNPOU
100
AcDbMText
 10
103421.015020048
 20
89736.5175601829
 30
0.0
 40
10.5
 41
0.0
 71
     9
 72
     5
  1

1001
ACAD
1000
MTEXTBEGIN
1070
    73
1070
     1
1070
    44
1040
1.0
1070
    74
1070
     0
1000
MTEXTEND
  0
MTEXT
  5
561A
330
1A
100
AcDbEntity
  8
SUNPOU
100
AcDbMText
 10
122374.773737378
 20
107203.0936126749
 30
0.0
 40
10.5
 41
0.0
 71
     9
 72
     5
  1

1001
ACAD
1000
MTEXTBEGIN
1070
    73
1070
     1
1070
    44
1040
1.0
1070
    74
1070
     0
1000
MTEXTEND
  0
MTEXT
  5
561B
330
1A
100
AcDbEntity
  8
SUNPOU
100
AcDbMText
 10
124318.1809840874
 20
105402.0445327969
 30
0.0
 40
3.5
 41
0.0
 71
     9
 72
     5
  1

1001
ACAD
1000
MTEXTBEGIN
1070
    73
1070
     1
1070
    44
1040
1.0
1070
    74
1070
     0
1000
MTEXTEND
  0
MTEXT
  5
561C
330
1A
100
AcDbEntity
  8
SUNPOU
100
AcDbMText
 10
155444.3608167071
 20
147896.9902004542
 30
0.0
 40
10.5
 41
0.0
 71
     9
 72
     5
  1

1001
ACAD
1000
MTEXTBEGIN
1070
    73
1070
     1
1070
    44
1040
1.0
1070
    74
1070
     0
1000
MTEXTEND
  0
MTEXT
  5
561D
330
1A
100
AcDbEntity
  8
SUNPOU
100
AcDbMText
 10
157387.7680634165
 20
146095.9411205762
 30
0.0
 40
3.5
 41
0.0
 71
     9
 72
     5
  1

1001
ACAD
1000
MTEXTBEGIN
1070
    73
1070
     1
1070
    44
1040
1.0
1070
    74
1070
     0
1000
MTEXTEND
  0
MTEXT
  5
561E
330
1A
100
AcDbEntity
  8
SUNPOU
100
AcDbMText
 10
105884.6285225027
 20
93730.15535542933
 30
0.0
 40
10.5
 41
0.0
 71
     9
 72
     5
  1

1001
ACAD
1000
MTEXTBEGIN
1070
    73
1070
     1
1070
    44
1040
1.0
1070
    74
1070
     0
1000
MTEXTEND
  0
MTEXT
  5
561F
330
1A
100
AcDbEntity
  8
SUNPOU
100
AcDbMText
 10
91936.6284221267
 20
74557.75621631714
 30
0.0
 40
3.5
 41
0.0
 71
     7
 72
     5
  1

1001
ACAD
1000
MTEXTBEGIN
1070
    73
1070
     1
1070
    44
1040
1.0
1070
    74
1070
     0
1000
MTEXTEND
  0
MTEXT
  5
5620
330
1A
100
AcDbEntity
  8
SUNPOU
100
AcDbMText
 10
72921.79781911986
 20
62319.90494713533
 30
0.0
 40
10.5
 41
0.0
 71
     7
 72
     5
  1

1001
ACAD
1000
MTEXTBEGIN
1070
    73
1070
     1
1070
    44
1040
1.0
1070
    74
1070
     0
1000
MTEXTEND
  0
MTEXT
  5
5621
330
1A
100
AcDbEntity
  8
SUNPOU
100
AcDbMText
 10
60464.56955417175
 20
46474.97336903692
 30
0.0
 40
35.0
 41
0.0
 71
     9
 72
     5
  1

1001
ACAD
1000
MTEXTBEGIN
1070
    73
1070
     1
1070
    44
1040
1.0
1070
    74
1070
     0
1000
MTEXTEND
  0
MTEXT
  5
5622
330
1A
100
AcDbEntity
  8
SUNPOU
100
AcDbMText
 10
59373.05461174672
 20
47083.74877908562
 30
0.0
 40
350.0000004171781
 41
0.0
 71
     7
 72
     5
  1

1001
ACAD
1000
MTEXTBEGIN
1070
    73
1070
     1
1070
    44
1040
1.0
1070
    74
1070
     0
1000
MTEXTEND
  0
MTEXT
  5
5623
330
1A
100
AcDbEntity
  8
0
100
AcDbMText
 10
65417.00536968962
 20
45063.67114122186
 30
0.0
 40
8.0
 41
0.0
 71
     7
 72
     5
  1

1001
ACAD
1000
MTEXTBEGIN
1070
    73
1070
     1
1070
    44
1040
1.0
1070
    74
1070
     0
1000
MTEXTEND
  0
MTEXT
  5
5624
330
1A
100
AcDbEntity
  8
0
100
AcDbMText
 10
67702.36305958452
 20
46034.46143597292
 30
0.0
 40
8.0
 41
0.0
 71
     7
 72
     5
  1

1001
ACAD
1000
MTEXTBEGIN
1070
    73
1070
     1
1070
    44
1040
1.0
1070
    74
1070
     0
1000
MTEXTEND
  0
MTEXT
  5
5625
330
1A
100
AcDbEntity
  8
SUNPOU
100
AcDbMText
 10
70368.26008026666
 20
55546.57282834803
 30
0.0
 40
10.5
 41
0.0
 71
     1
 72
     5
  1

1001
ACAD
1000
MTEXTBEGIN
1070
    73
1070
     1
1070
    44
1040
1.0
1070
    74
1070
     0
1000
MTEXTEND
  0
MTEXT
  5
5626
330
1A
100
AcDbEntity
  8
SUNPOU
100
AcDbMText
 10
62437.33688433072
 20
54599.77969443508
 30
0.0
 40
10.5
 41
0.0
 71
     7
 72
     5
  1

1001
ACAD
1000
MTEXTBEGIN
1070
    73
1070
     1
1070
    44
1040
1.0
1070
    74
1070
     0
1000
MTEXTEND
  0
MTEXT
  5
5627
330
1A
100
AcDbEntity
  8
SUNPOU
100
AcDbMText
 10
65386.32054884349
 20
59500.45576627792
 30
0.0
 40
10.5
 41
0.0
 71
     7
 72
     5
  1

1001
ACAD
1000
MTEXTBEGIN
1070
    73
1070
     1
1070
    44
1040
1.0
1070
    74
1070
     0
1000
MTEXTEND
  0
MTEXT
  5
5628
330
1A
100
AcDbEntity
  8
SUNPOU
100
AcDbMText
 10
69895.39867679405
 20
61936.756513898
 30
0.0
 40
10.5
 41
0.0
 71
     7
 72
     5
  1

1001
ACAD
1000
MTEXTBEGIN
1070
    73
1070
     1
1070
    44
1040
1.0
1070
    74
1070
     0
1000
MTEXTEND
  0
MTEXT
  5
5629
330
1A
100
AcDbEntity
  8
SUNPOU
100
AcDbMText
 10
53496.23656356237
 20
40934.35266428691
 30
0.0
 40
10.5
 41
0.0
 71
     7
 72
     5
  1

1001
ACAD
1000
MTEXTBEGIN
1070
    73
1070
     1
1070
    44
1040
1.0
1070
    74
1070
     0
1000
MTEXTEND
  0
MTEXT
  5
562A
330
1A
100
AcDbEntity
  8
SUNPOU
100
AcDbMText
 10
55306.99947493731
 20
47261.76665176547
 30
0.0
 40
10.5
 41
0.0
 71
     9
 72
     5
  1

1001
ACAD
1000
MTEXTBEGIN
1070
    73
1070
     1
1070
    44
1040
1.0
1070
    74
1070
     0
1000
MTEXTEND
  0
MTEXT
  5
562B
330
1A
100
AcDbEntity
  8
SUNPOU
100
AcDbMText
 10
64029.16704085528
 20
54677.60118330295
 30
0.0
 40
10.5
 41
0.0
 71
     9
 72
     5
  1

1001
ACAD
1000
MTEXTBEGIN
1070
    73
1070
     1
1070
    44
1040
1.0
1070
    74
1070
     0
1000
MTEXTEND
  0
MTEXT
  5
562C
330
1A
100
AcDbEntity
  8
SUNPOU
100
AcDbMText
 10
82982.92575818527
 20
72144.17723579499
 30
0.0
 40
10.5
 41
0.0
 71
     9
 72
     5
  1

1001
ACAD
1000
MTEXTBEGIN
1070
    73
1070
     1
1070
    44
1040
1.0
1070
    74
1070
     0
1000
MTEXTEND
  0
MTEXT
  5
562D
330
1A
100
AcDbEntity
  8
SUNPOU
100
AcDbMText
 10
84926.33300489467
 20
70343.12815591698
 30
0.0
 40
3.5
 41
0.0
 71
     9
 72
     5
  1

1001
ACAD
1000
MTEXTBEGIN
1070
    73
1070
     1
1070
    44
1040
1.0
1070
    74
1070
     0
1000
MTEXTEND
  0
MTEXT
  5
562E
330
1A
100
AcDbEntity
  8
SUNPOU
100
AcDbMText
 10
116052.5128375143
 20
112838.0738235743
 30
0.0
 40
10.5
 41
0.0
 71
     9
 72
     5
  1

1001
ACAD
1000
MTEXTBEGIN
1070
    73
1070
     1
1070
    44
1040
1.0
1070
    74
1070
     0
1000
MTEXTEND
  0
MTEXT
  5
562F
330
1A
100
AcDbEntity
  8
SUNPOU
100
AcDbMText
 10
117995.9200842238
 20
111037.0247436963
 30
0.0
 40
3.5
 41
0.0
 71
     9
 72
     5
  1

1001
ACAD
1000
MTEXTBEGIN
1070
    73
1070
     1
1070
    44
1040
1.0
1070
    74
1070
     0
1000
MTEXTEND
  0
MTEXT
  5
5630
330
1A
100
AcDbEntity
  8
SUNPOU
100
AcDbMText
 10
66492.78054330994
 20
58671.23897854939
 30
0.0
 40
10.5
 41
0.0
 71
     9
 72
     5
  1

1001
ACAD
1000
MTEXTBEGIN
1070
    73
1070
     1
1070
    44
1040
1.0
1070
    74
1070
     0
1000
MTEXTEND
  0
MTEXT
  5
5631
330
1A
100
AcDbEntity
  8
SUNPOU
100
AcDbMText
 10
52544.78044293396
 20
39498.83983943717
 30
0.0
 40
3.5
 41
0.0
 71
     7
 72
     5
  1

1001
ACAD
1000
MTEXTBEGIN
1070
    73
1070
     1
1070
    44
1040
1.0
1070
    74
1070
     0
1000
MTEXTEND
  0
MTEXT
  5
5632
330
1A
100
AcDbEntity
  8
SUNPOU
100
AcDbMText
 10
66237.13112570454
 20
48857.90306045851
 30
0.0
 40
10.5
 41
0.0
 71
     9
 72
     5
  1

1001
ACAD
1000
MTEXTBEGIN
1070
    73
1070
     1
1070
    44
1040
1.0
1070
    74
1070
     0
1000
MTEXTEND
  0
MTEXT
  5
5633
330
1A
100
AcDbEntity
  8
SUNPOU
100
AcDbMText
 10
74959.29869162252
 20
56273.737591996
 30
0.0
 40
10.5
 41
0.0
 71
     9
 72
     5
  1

1001
ACAD
1000
MTEXTBEGIN
1070
    73
1070
     1
1070
    44
1040
1.0
1070
    74
1070
     0
1000
MTEXTEND
  0
MTEXT
  5
5634
330
1A
100
AcDbEntity
  8
SUNPOU
100
AcDbMText
 10
93913.0574089525
 20
73740.31364448805
 30
0.0
 40
10.5
 41
0.0
 71
     9
 72
     5
  1

1001
ACAD
1000
MTEXTBEGIN
1070
    73
1070
     1
1070
    44
1040
1.0
1070
    74
1070
     0
1000
MTEXTEND
  0
MTEXT
  5
5635
330
1A
100
AcDbEntity
  8
SUNPOU
100
AcDbMText
 10
95856.46465566192
 20
71939.26456461004
 30
0.0
 40
3.5
 41
0.0
 71
     9
 72
     5
  1

1001
ACAD
1000
MTEXTBEGIN
1070
    73
1070
     1
1070
    44
1040
1.0
1070
    74
1070
     0
1000
MTEXTEND
  0
MTEXT
  5
5636
330
1A
100
AcDbEntity
  8
SUNPOU
100
AcDbMText
 10
126982.6444882816
 20
114434.2102322673
 30
0.0
 40
10.5
 41
0.0
 71
     9
 72
     5
  1

1001
ACAD
1000
MTEXTBEGIN
1070
    73
1070
     1
1070
    44
1040
1.0
1070
    74
1070
     0
1000
MTEXTEND
  0
MTEXT
  5
5637
330
1A
100
AcDbEntity
  8
SUNPOU
100
AcDbMText
 10
128926.051734991
 20
112633.1611523893
 30
0.0
 40
3.5
 41
0.0
 71
     9
 72
     5
  1

1001
ACAD
1000
MTEXTBEGIN
1070
    73
1070
     1
1070
    44
1040
1.0
1070
    74
1070
     0
1000
MTEXTEND
  0
MTEXT
  5
5638
330
1A
100
AcDbEntity
  8
SUNPOU
100
AcDbMText
 10
77422.91219407717
 20
60267.37538724244
 30
0.0
 40
10.5
 41
0.0
 71
     9
 72
     5
  1

1001
ACAD
1000
MTEXTBEGIN
1070
    73
1070
     1
1070
    44
1040
1.0
1070
    74
1070
     0
1000
MTEXTEND
  0
MTEXT
  5
5639
330
1A
100
AcDbEntity
  8
SUNPOU
100
AcDbMText
 10
63474.91209370119
 20
41094.97624813023
 30
0.0
 40
3.5
 41
0.0
 71
     7
 72
     5
  1

1001
ACAD
1000
MTEXTBEGIN
1070
    73
1070
     1
1070
    44
1040
1.0
1070
    74
1070
     0
1000
MTEXTEND
  0
MTEXT
  5
563A
330
1A
100
AcDbEntity
  8
SUNPOU
100
AcDbMText
 10
48117.65086229006
 20
40806.11043916631
 30
0.0
 40
10.5
 41
0.0
 71
     9
 72
     5
  1

1001
ACAD
1000
MTEXTBEGIN
1070
    73
1070
     1
1070
    44
1040
1.0
1070
    74
1070
     0
1000
MTEXTEND
  0
MTEXT
  5
563B
330
1A
100
AcDbEntity
  8
SUNPOU
100
AcDbMText
 10
67071.40957962004
 20
58272.68649165837
 30
0.0
 40
10.5
 41
0.0
 71
     9
 72
     5
  1

1001
ACAD
1000
MTEXTBEGIN
1070
    73
1070
     1
1070
    44
1040
1.0
1070
    74
1070
     0
1000
MTEXTEND
  0
MTEXT
  5
563C
330
1A
100
AcDbEntity
  8
SUNPOU
100
AcDbMText
 10
69014.81682632945
 20
56471.63741178035
 30
0.0
 40
3.5
 41
0.0
 71
     9
 72
     5
  1

1001
ACAD
1000
MTEXTBEGIN
1070
    73
1070
     1
1070
    44
1040
1.0
1070
    74
1070
     0
1000
MTEXTEND
  0
MTEXT
  5
563D
330
1A
100
AcDbEntity
  8
SUNPOU
100
AcDbMText
 10
100140.9966589491
 20
98966.58307943772
 30
0.0
 40
10.5
 41
0.0
 71
     9
 72
     5
  1

1001
ACAD
1000
MTEXTBEGIN
1070
    73
1070
     1
1070
    44
1040
1.0
1070
    74
1070
     0
1000
MTEXTEND
  0
MTEXT
  5
563E
330
1A
100
AcDbEntity
  8
SUNPOU
100
AcDbMText
 10
102084.4039056586
 20
97165.53399955969
 30
0.0
 40
3.5
 41
0.0
 71
     9
 72
     5
  1

1001
ACAD
1000
MTEXTBEGIN
1070
    73
1070
     1
1070
    44
1040
1.0
1070
    74
1070
     0
1000
MTEXTEND
  0
MTEXT
  5
563F
330
1A
100
AcDbEntity
  8
SUNPOU
100
AcDbMText
 10
50581.26436474472
 20
44799.74823441275
 30
0.0
 40
10.5
 41
0.0
 71
     9
 72
     5
  1

1001
ACAD
1000
MTEXTBEGIN
1070
    73
1070
     1
1070
    44
1040
1.0
1070
    74
1070
     0
1000
MTEXTEND
  0
MTEXT
  5
5640
330
1A
100
AcDbEntity
  8
SUNPOU
100
AcDbMText
 10
36633.26426436873
 20
25627.34909530054
 30
0.0
 40
3.5
 41
0.0
 71
     7
 72
     5
  1

1001
ACAD
1000
MTEXTBEGIN
1070
    73
1070
     1
1070
    44
1040
1.0
1070
    74
1070
     0
1000
MTEXTEND
  0
MTEXT
  5
5641
330
1A
100
AcDbEntity
  8
SUNPOU
100
AcDbMText
 10
61069.42493315968
 20
52574.61207825771
 30
0.0
 40
10.5
 41
0.0
 71
     9
 72
     5
  1

1001
ACAD
1000
MTEXTBEGIN
1070
    73
1070
     1
1070
    44
1040
1.0
1070
    74
1070
     0
1000
MTEXTEND
  0
MTEXT
  5
5642
330
1A
100
AcDbEntity
  8
SUNPOU
100
AcDbMText
 10
80023.18365048967
 20
70041.18813074978
 30
0.0
 40
10.5
 41
0.0
 71
     9
 72
     5
  1

1001
ACAD
1000
MTEXTBEGIN
1070
    73
1070
     1
1070
    44
1040
1.0
1070
    74
1070
     0
1000
MTEXTEND
  0
MTEXT
  5
5643
330
1A
100
AcDbEntity
  8
SUNPOU
100
AcDbMText
 10
81966.59089719908
 20
68240.13905087176
 30
0.0
 40
3.5
 41
0.0
 71
     9
 72
     5
  1

1001
ACAD
1000
MTEXTBEGIN
1070
    73
1070
     1
1070
    44
1040
1.0
1070
    74
1070
     0
1000
MTEXTEND
  0
MTEXT
  5
5644
330
1A
100
AcDbEntity
  8
SUNPOU
100
AcDbMText
 10
113092.7707298187
 20
110735.0847185291
 30
0.0
 40
10.5
 41
0.0
 71
     9
 72
     5
  1

1001
ACAD
1000
MTEXTBEGIN
1070
    73
1070
     1
1070
    44
1040
1.0
1070
    74
1070
     0
1000
MTEXTEND
  0
MTEXT
  5
5645
330
1A
100
AcDbEntity
  8
SUNPOU
100
AcDbMText
 10
115036.1779765282
 20
108934.0356386511
 30
0.0
 40
3.5
 41
0.0
 71
     9
 72
     5
  1

1001
ACAD
1000
MTEXTBEGIN
1070
    73
1070
     1
1070
    44
1040
1.0
1070
    74
1070
     0
1000
MTEXTEND
  0
MTEXT
  5
5646
330
1A
100
AcDbEntity
  8
SUNPOU
100
AcDbMText
 10
63533.03843561433
 20
56568.24987350415
 30
0.0
 40
10.5
 41
0.0
 71
     9
 72
     5
  1

1001
ACAD
1000
MTEXTBEGIN
1070
    73
1070
     1
1070
    44
1040
1.0
1070
    74
1070
     0
1000
MTEXTEND
  0
MTEXT
  5
5647
330
1A
100
AcDbEntity
  8
SUNPOU
100
AcDbMText
 10
49585.03833523835
 20
37395.85073439196
 30
0.0
 40
3.5
 41
0.0
 71
     7
 72
     5
  1

1001
ACAD
1000
MTEXTBEGIN
1070
    73
1070
     1
1070
    44
1040
1.0
1070
    74
1070
     0
1000
MTEXTEND
  0
MTEXT
  5
5648
330
1A
100
AcDbEntity
  8
SUNPOU
100
AcDbMText
 10
77137.31641337052
 20
70907.11375048141
 30
0.0
 40
10.5
 41
0.0
 71
     9
 72
     5
  1

1001
ACAD
1000
MTEXTBEGIN
1070
    73
1070
     1
1070
    44
1040
1.0
1070
    74
1070
     0
1000
MTEXTEND
  0
MTEXT
  5
5649
330
1A
100
AcDbEntity
  8
SUNPOU
100
AcDbMText
 10
79080.72366007995
 20
69106.06467060339
 30
0.0
 40
3.5
 41
0.0
 71
     9
 72
     5
  1

1001
ACAD
1000
MTEXTBEGIN
1070
    73
1070
     1
1070
    44
1040
1.0
1070
    74
1070
     0
1000
MTEXTEND
  0
MTEXT
  5
564A
330
1A
100
AcDbEntity
  8
SUNPOU
100
AcDbMText
 10
110206.9034926996
 20
111601.0103382607
 30
0.0
 40
10.5
 41
0.0
 71
     9
 72
     5
  1

1001
ACAD
1000
MTEXTBEGIN
1070
    73
1070
     1
1070
    44
1040
1.0
1070
    74
1070
     0
1000
MTEXTEND
  0
MTEXT
  5
564B
330
1A
100
AcDbEntity
  8
SUNPOU
100
AcDbMText
 10
112150.310739409
 20
109799.9612583827
 30
0.0
 40
3.5
 41
0.0
 71
     9
 72
     5
  1

1001
ACAD
1000
MTEXTBEGIN
1070
    73
1070
     1
1070
    44
1040
1.0
1070
    74
1070
     0
1000
MTEXTEND
  0
MTEXT
  5
564C
330
1A
100
AcDbEntity
  8
SUNPOU
100
AcDbMText
 10
108819.1333204968
 20
110677.9087286761
 30
0.0
 40
10.5
 41
0.0
 71
     9
 72
     5
  1

1001
ACAD
1000
MTEXTBEGIN
1070
    73
1070
     1
1070
    44
1040
1.0
1070
    74
1070
     0
1000
MTEXTEND
  0
MTEXT
  5
564D
330
1A
100
AcDbEntity
  8
SUNPOU
100
AcDbMText
 10
110762.5405672062
 20
108876.8596487981
 30
0.0
 40
3.5
 41
0.0
 71
     9
 72
     5
  1

1001
ACAD
1000
MTEXTBEGIN
1070
    73
1070
     1
1070
    44
1040
1.0
1070
    74
1070
     0
1000
MTEXTEND
  0
MTEXT
  5
564E
330
1A
100
AcDbEntity
  8
SUNPOU
100
AcDbMText
 10
76303.05507956816
 20
68695.31179059812
 30
0.0
 40
10.5
 41
0.0
 71
     9
 72
     5
  1

1001
ACAD
1000
MTEXTBEGIN
1070
    73
1070
     1
1070
    44
1040
1.0
1070
    74
1070
     0
1000
MTEXTEND
  0
MTEXT
  5
564F
330
1A
100
AcDbEntity
  8
SUNPOU
100
AcDbMText
 10
79026.36128373271
 20
69099.99348217918
 30
0.0
 40
3.5
 41
0.0
 71
     9
 72
     5
  1

1001
ACAD
1000
MTEXTBEGIN
1070
    73
1070
     1
1070
    44
1040
1.0
1070
    74
1070
     0
1000
MTEXTEND
  0
MTEXT
  5
5650
330
1A
100
AcDbEntity
  8
SUNPOU
100
AcDbMText
 10
78234.00675862522
 20
65938.68764412436
 30
0.0
 40
10.5
 41
0.0
 71
     9
 72
     5
  1

1001
ACAD
1000
MTEXTBEGIN
1070
    73
1070
     1
1070
    44
1040
1.0
1070
    74
1070
     0
1000
MTEXTEND
  0
MTEXT
  5
5651
330
1A
100
AcDbEntity
  8
SUNPOU
100
AcDbMText
 10
80177.41400533465
 20
64137.63856424636
 30
0.0
 40
3.5
 41
0.0
 71
     9
 72
     5
  1

1001
ACAD
1000
MTEXTBEGIN
1070
    73
1070
     1
1070
    44
1040
1.0
1070
    74
1070
     0
1000
MTEXTEND
  0
MTEXT
  5
5652
330
1A
100
AcDbEntity
  8
SUNPOU
100
AcDbMText
 10
80122.50949592123
 20
64024.86668196205
 30
0.0
 40
3.5
 41
0.0
 71
     9
 72
     5
  1

1001
ACAD
1000
MTEXTBEGIN
1070
    73
1070
     1
1070
    44
1040
1.0
1070
    74
1070
     0
1000
MTEXTEND
  0
MTEXT
  5
5653
330
1A
100
AcDbEntity
  8
SUNPOU
100
AcDbMText
 10
79486.58135950133
 20
63213.54544089553
 30
0.0
 40
3.5
 41
0.0
 71
     9
 72
     5
  1

1001
ACAD
1000
MTEXTBEGIN
1070
    73
1070
     1
1070
    44
1040
1.0
1070
    74
1070
     0
1000
MTEXTEND
  0
MTEXT
  5
5654
330
1A
100
AcDbEntity
  8
SUNPOU
100
AcDbMText
 10
79485.3409400806
 20
63213.29746395804
 30
0.0
 40
10.5
 41
0.0
 71
     9
 72
     5
  1

1001
ACAD
1000
MTEXTBEGIN
1070
    73
1070
     1
1070
    44
1040
1.0
1070
    74
1070
     0
1000
MTEXTEND
  0
MTEXT
  5
5655
330
1A
100
AcDbEntity
  8
SUNPOU
100
AcDbMText
 10
85473.63363627567
 20
80747.76348077064
 30
0.0
 40
10.5
 41
0.0
 71
     9
 72
     5
  1

1001
ACAD
1000
MTEXTBEGIN
1070
    73
1070
     1
1070
    44
1040
1.0
1070
    74
1070
     0
1000
MTEXTEND
  0
MTEXT
  5
5656
330
1A
100
AcDbEntity
  8
SUNPOU
100
AcDbMText
 10
94195.80120219368
 20
88163.59801230809
 30
0.0
 40
10.5
 41
0.0
 71
     9
 72
     5
  1

1001
ACAD
1000
MTEXTBEGIN
1070
    73
1070
     1
1070
    44
1040
1.0
1070
    74
1070
     0
1000
MTEXTEND
  0
MTEXT
  5
5657
330
1A
100
AcDbEntity
  8
SUNPOU
100
AcDbMText
 10
113149.5599195236
 20
105630.1740648001
 30
0.0
 40
10.5
 41
0.0
 71
     9
 72
     5
  1

1001
ACAD
1000
MTEXTBEGIN
1070
    73
1070
     1
1070
    44
1040
1.0
1070
    74
1070
     0
1000
MTEXTEND
  0
MTEXT
  5
5658
330
1A
100
AcDbEntity
  8
SUNPOU
100
AcDbMText
 10
115092.967166233
 20
103829.1249849221
 30
0.0
 40
3.5
 41
0.0
 71
     9
 72
     5
  1

1001
ACAD
1000
MTEXTBEGIN
1070
    73
1070
     1
1070
    44
1040
1.0
1070
    74
1070
     0
1000
MTEXTEND
  0
MTEXT
  5
5659
330
1A
100
AcDbEntity
  8
SUNPOU
100
AcDbMText
 10
146219.1469988527
 20
146324.0706525794
 30
0.0
 40
10.5
 41
0.0
 71
     9
 72
     5
  1

1001
ACAD
1000
MTEXTBEGIN
1070
    73
1070
     1
1070
    44
1040
1.0
1070
    74
1070
     0
1000
MTEXTEND
  0
MTEXT
  5
565A
330
1A
100
AcDbEntity
  8
SUNPOU
100
AcDbMText
 10
148162.5542455621
 20
144523.0215727014
 30
0.0
 40
3.5
 41
0.0
 71
     9
 72
     5
  1

1001
ACAD
1000
MTEXTBEGIN
1070
    73
1070
     1
1070
    44
1040
1.0
1070
    74
1070
     0
1000
MTEXTEND
  0
MTEXT
  5
565B
330
1A
100
AcDbEntity
  8
SUNPOU
100
AcDbMText
 10
96659.41470464833
 20
92157.23580755453
 30
0.0
 40
10.5
 41
0.0
 71
     9
 72
     5
  1

1001
ACAD
1000
MTEXTBEGIN
1070
    73
1070
     1
1070
    44
1040
1.0
1070
    74
1070
     0
1000
MTEXTEND
  0
MTEXT
  5
565C
330
1A
100
AcDbEntity
  8
SUNPOU
100
AcDbMText
 10
82711.41460427234
 20
72984.83666844234
 30
0.0
 40
3.5
 41
0.0
 71
     7
 72
     5
  1

1001
ACAD
1000
MTEXTBEGIN
1070
    73
1070
     1
1070
    44
1040
1.0
1070
    74
1070
     0
1000
MTEXTEND
  0
MTEXT
  5
565D
330
1A
100
AcDbEntity
  8
SUNPOU
100
AcDbMText
 10
63696.58400126548
 20
60746.98539926055
 30
0.0
 40
10.5
 41
0.0
 71
     7
 72
     5
  1

1001
ACAD
1000
MTEXTBEGIN
1070
    73
1070
     1
1070
    44
1040
1.0
1070
    74
1070
     0
1000
MTEXTEND
  0
MTEXT
  5
565E
330
1A
100
AcDbEntity
  8
SUNPOU
100
AcDbMText
 10
51239.35573631738
 20
44902.05382116213
 30
0.0
 40
35.0
 41
0.0
 71
     9
 72
     5
  1

1001
ACAD
1000
MTEXTBEGIN
1070
    73
1070
     1
1070
    44
1040
1.0
1070
    74
1070
     0
1000
MTEXTEND
  0
MTEXT
  5
565F
330
1A
100
AcDbEntity
  8
SUNPOU
100
AcDbMText
 10
50147.84079389233
 20
45510.82923121084
 30
0.0
 40
350.0000004171781
 41
0.0
 71
     7
 72
     5
  1

1001
ACAD
1000
MTEXTBEGIN
1070
    73
1070
     1
1070
    44
1040
1.0
1070
    74
1070
     0
1000
MTEXTEND
  0
MTEXT
  5
5660
330
1A
100
AcDbEntity
  8
0
100
AcDbMText
 10
56191.79155183523
 20
43490.75159334705
 30
0.0
 40
8.0
 41
0.0
 71
     7
 72
     5
  1

1001
ACAD
1000
MTEXTBEGIN
1070
    73
1070
     1
1070
    44
1040
1.0
1070
    74
1070
     0
1000
MTEXTEND
  0
MTEXT
  5
5661
330
1A
100
AcDbEntity
  8
0
100
AcDbMText
 10
58477.14924173013
 20
44461.54188809812
 30
0.0
 40
8.0
 41
0.0
 71
     7
 72
     5
  1

1001
ACAD
1000
MTEXTBEGIN
1070
    73
1070
     1
1070
    44
1040
1.0
1070
    74
1070
     0
1000
MTEXTEND
  0
MTEXT
  5
5662
330
1A
100
AcDbEntity
  8
SUNPOU
100
AcDbMText
 10
61143.04626241227
 20
53973.65328047324
 30
0.0
 40
10.5
 41
0.0
 71
     1
 72
     5
  1

1001
ACAD
1000
MTEXTBEGIN
1070
    73
1070
     1
1070
    44
1040
1.0
1070
    74
1070
     0
1000
MTEXTEND
  0
MTEXT
  5
5663
330
1A
100
AcDbEntity
  8
SUNPOU
100
AcDbMText
 10
53212.12306647634
 20
53026.86014656028
 30
0.0
 40
10.5
 41
0.0
 71
     7
 72
     5
  1

1001
ACAD
1000
MTEXTBEGIN
1070
    73
1070
     1
1070
    44
1040
1.0
1070
    74
1070
     0
1000
MTEXTEND
  0
MTEXT
  5
5664
330
1A
100
AcDbEntity
  8
SUNPOU
100
AcDbMText
 10
56161.1067309891
 20
57927.53621840312
 30
0.0
 40
10.5
 41
0.0
 71
     7
 72
     5
  1

1001
ACAD
1000
MTEXTBEGIN
1070
    73
1070
     1
1070
    44
1040
1.0
1070
    74
1070
     0
1000
MTEXTEND
  0
MTEXT
  5
5665
330
1A
100
AcDbEntity
  8
SUNPOU
100
AcDbMText
 10
60670.18485893966
 20
60363.8369660232
 30
0.0
 40
10.5
 41
0.0
 71
     7
 72
     5
  1

1001
ACAD
1000
MTEXTBEGIN
1070
    73
1070
     1
1070
    44
1040
1.0
1070
    74
1070
     0
1000
MTEXTEND
  0
MTEXT
  5
5666
330
1A
100
AcDbEntity
  8
SUNPOU
100
AcDbMText
 10
44271.02274570799
 20
39361.43311641212
 30
0.0
 40
10.5
 41
0.0
 71
     7
 72
     5
  1

1001
ACAD
1000
MTEXTBEGIN
1070
    73
1070
     1
1070
    44
1040
1.0
1070
    74
1070
     0
1000
MTEXTEND
  0
MTEXT
  5
5667
330
1A
100
AcDbEntity
  8
SUNPOU
100
AcDbMText
 10
95462.54117960824
 20
85034.41368006038
 30
0.0
 40
10.5
 41
0.0
 71
     9
 72
     5
  1

1001
ACAD
1000
MTEXTBEGIN
1070
    73
1070
     1
1070
    44
1040
1.0
1070
    74
1070
     0
1000
MTEXTEND
  0
MTEXT
  5
5668
330
1A
100
AcDbEntity
  8
SUNPOU
100
AcDbMText
 10
104184.7087455262
 20
92450.24821159784
 30
0.0
 40
10.5
 41
0.0
 71
     9
 72
     5
  1

1001
ACAD
1000
MTEXTBEGIN
1070
    73
1070
     1
1070
    44
1040
1.0
1070
    74
1070
     0
1000
MTEXTEND
  0
MTEXT
  5
5669
330
1A
100
AcDbEntity
  8
SUNPOU
100
AcDbMText
 10
123138.4674628562
 20
109916.8242640898
 30
0.0
 40
10.5
 41
0.0
 71
     9
 72
     5
  1

1001
ACAD
1000
MTEXTBEGIN
1070
    73
1070
     1
1070
    44
1040
1.0
1070
    74
1070
     0
1000
MTEXTEND
  0
MTEXT
  5
566A
330
1A
100
AcDbEntity
  8
SUNPOU
100
AcDbMText
 10
125081.8747095656
 20
108115.7751842118
 30
0.0
 40
3.5
 41
0.0
 71
     9
 72
     5
  1

1001
ACAD
1000
MTEXTBEGIN
1070
    73
1070
     1
1070
    44
1040
1.0
1070
    74
1070
     0
1000
MTEXTEND
  0
MTEXT
  5
566B
330
1A
100
AcDbEntity
  8
SUNPOU
100
AcDbMText
 10
156208.0545421853
 20
150610.7208518691
 30
0.0
 40
10.5
 41
0.0
 71
     9
 72
     5
  1

1001
ACAD
1000
MTEXTBEGIN
1070
    73
1070
     1
1070
    44
1040
1.0
1070
    74
1070
     0
1000
MTEXTEND
  0
MTEXT
  5
566C
330
1A
100
AcDbEntity
  8
SUNPOU
100
AcDbMText
 10
158151.4617888947
 20
148809.6717719911
 30
0.0
 40
3.5
 41
0.0
 71
     9
 72
     5
  1

1001
ACAD
1000
MTEXTBEGIN
1070
    73
1070
     1
1070
    44
1040
1.0
1070
    74
1070
     0
1000
MTEXTEND
  0
MTEXT
  5
566D
330
1A
100
AcDbEntity
  8
SUNPOU
100
AcDbMText
 10
106648.3222479809
 20
96443.88600684427
 30
0.0
 40
10.5
 41
0.0
 71
     9
 72
     5
  1

1001
ACAD
1000
MTEXTBEGIN
1070
    73
1070
     1
1070
    44
1040
1.0
1070
    74
1070
     0
1000
MTEXTEND
  0
MTEXT
  5
566E
330
1A
100
AcDbEntity
  8
SUNPOU
100
AcDbMText
 10
92700.3221476049
 20
77271.48686773207
 30
0.0
 40
3.5
 41
0.0
 71
     7
 72
     5
  1

1001
ACAD
1000
MTEXTBEGIN
1070
    73
1070
     1
1070
    44
1040
1.0
1070
    74
1070
     0
1000
MTEXTEND
  0
MTEXT
  5
566F
330
1A
100
AcDbEntity
  8
SUNPOU
100
AcDbMText
 10
73685.49154459806
 20
65033.63559855027
 30
0.0
 40
10.5
 41
0.0
 71
     7
 72
     5
  1

1001
ACAD
1000
MTEXTBEGIN
1070
    73
1070
     1
1070
    44
1040
1.0
1070
    74
1070
     0
1000
MTEXTEND
  0
MTEXT
  5
5670
330
1A
100
AcDbEntity
  8
SUNPOU
100
AcDbMText
 10
61228.26327964995
 20
49188.70402045185
 30
0.0
 40
35.0
 41
0.0
 71
     9
 72
     5
  1

1001
ACAD
1000
MTEXTBEGIN
1070
    73
1070
     1
1070
    44
1040
1.0
1070
    74
1070
     0
1000
MTEXTEND
  0
MTEXT
  5
5671
330
1A
100
AcDbEntity
  8
SUNPOU
100
AcDbMText
 10
60136.74833722491
 20
49797.47943050056
 30
0.0
 40
350.0000004171781
 41
0.0
 71
     7
 72
     5
  1

1001
ACAD
1000
MTEXTBEGIN
1070
    73
1070
     1
1070
    44
1040
1.0
1070
    74
1070
     0
1000
MTEXTEND
  0
MTEXT
  5
5672
330
1A
100
AcDbEntity
  8
0
100
AcDbMText
 10
66180.69909516782
 20
47777.40179263678
 30
0.0
 40
8.0
 41
0.0
 71
     7
 72
     5
  1

1001
ACAD
1000
MTEXTBEGIN
1070
    73
1070
     1
1070
    44
1040
1.0
1070
    74
1070
     0
1000
MTEXTEND
  0
MTEXT
  5
5673
330
1A
100
AcDbEntity
  8
0
100
AcDbMText
 10
68466.05678506271
 20
48748.19208738784
 30
0.0
 40
8.0
 41
0.0
 71
     7
 72
     5
  1

1001
ACAD
1000
MTEXTBEGIN
1070
    73
1070
     1
1070
    44
1040
1.0
1070
    74
1070
     0
1000
MTEXTEND
  0
MTEXT
  5
5674
330
1A
100
AcDbEntity
  8
SUNPOU
100
AcDbMText
 10
71131.95380574485
 20
58260.30347976296
 30
0.0
 40
10.5
 41
0.0
 71
     1
 72
     5
  1

1001
ACAD
1000
MTEXTBEGIN
1070
    73
1070
     1
1070
    44
1040
1.0
1070
    74
1070
     0
1000
MTEXTEND
  0
MTEXT
  5
5675
330
1A
100
AcDbEntity
  8
SUNPOU
100
AcDbMText
 10
63201.03060980891
 20
57313.51034585002
 30
0.0
 40
10.5
 41
0.0
 71
     7
 72
     5
  1

1001
ACAD
1000
MTEXTBEGIN
1070
    73
1070
     1
1070
    44
1040
1.0
1070
    74
1070
     0
1000
MTEXTEND
  0
MTEXT
  5
5676
330
1A
100
AcDbEntity
  8
SUNPOU
100
AcDbMText
 10
66150.01427432169
 20
62214.18641769286
 30
0.0
 40
10.5
 41
0.0
 71
     7
 72
     5
  1

1001
ACAD
1000
MTEXTBEGIN
1070
    73
1070
     1
1070
    44
1040
1.0
1070
    74
1070
     0
1000
MTEXTEND
  0
MTEXT
  5
5677
330
1A
100
AcDbEntity
  8
SUNPOU
100
AcDbMText
 10
70659.09240227225
 20
64650.48716531294
 30
0.0
 40
10.5
 41
0.0
 71
     7
 72
     5
  1

1001
ACAD
1000
MTEXTBEGIN
1070
    73
1070
     1
1070
    44
1040
1.0
1070
    74
1070
     0
1000
MTEXTEND
  0
MTEXT
  5
5678
330
1A
100
AcDbEntity
  8
SUNPOU
100
AcDbMText
 10
54259.93028904056
 20
43648.08331570185
 30
0.0
 40
10.5
 41
0.0
 71
     7
 72
     5
  1

1001
ACAD
1000
MTEXTBEGIN
1070
    73
1070
     1
1070
    44
1040
1.0
1070
    74
1070
     0
1000
MTEXTEND
  0
MTEXT
  5
5679
330
1A
100
AcDbEntity
  8
SUNPOU
100
AcDbMText
 10
56070.69320041551
 20
49975.4973031804
 30
0.0
 40
10.5
 41
0.0
 71
     9
 72
     5
  1

1001
ACAD
1000
MTEXTBEGIN
1070
    73
1070
     1
1070
    44
1040
1.0
1070
    74
1070
     0
1000
MTEXTEND
  0
MTEXT
  5
567A
330
1A
100
AcDbEntity
  8
SUNPOU
100
AcDbMText
 10
64792.86076633348
 20
57391.33183471788
 30
0.0
 40
10.5
 41
0.0
 71
     9
 72
     5
  1

1001
ACAD
1000
MTEXTBEGIN
1070
    73
1070
     1
1070
    44
1040
1.0
1070
    74
1070
     0
1000
MTEXTEND
  0
MTEXT
  5
567B
330
1A
100
AcDbEntity
  8
SUNPOU
100
AcDbMText
 10
83746.61948366345
 20
74857.90788720994
 30
0.0
 40
10.5
 41
0.0
 71
     9
 72
     5
  1

1001
ACAD
1000
MTEXTBEGIN
1070
    73
1070
     1
1070
    44
1040
1.0
1070
    74
1070
     0
1000
MTEXTEND
  0
MTEXT
  5
567C
330
1A
100
AcDbEntity
  8
SUNPOU
100
AcDbMText
 10
85690.02673037287
 20
73056.85880733192
 30
0.0
 40
3.5
 41
0.0
 71
     9
 72
     5
  1

1001
ACAD
1000
MTEXTBEGIN
1070
    73
1070
     1
1070
    44
1040
1.0
1070
    74
1070
     0
1000
MTEXTEND
  0
MTEXT
  5
567D
330
1A
100
AcDbEntity
  8
SUNPOU
100
AcDbMText
 10
116816.2065629925
 20
115551.8044749892
 30
0.0
 40
10.5
 41
0.0
 71
     9
 72
     5
  1

1001
ACAD
1000
MTEXTBEGIN
1070
    73
1070
     1
1070
    44
1040
1.0
1070
    74
1070
     0
1000
MTEXTEND
  0
MTEXT
  5
567E
330
1A
100
AcDbEntity
  8
SUNPOU
100
AcDbMText
 10
118759.613809702
 20
113750.7553951112
 30
0.0
 40
3.5
 41
0.0
 71
     9
 72
     5
  1

1001
ACAD
1000
MTEXTBEGIN
1070
    73
1070
     1
1070
    44
1040
1.0
1070
    74
1070
     0
1000
MTEXTEND
  0
MTEXT
  5
567F
330
1A
100
AcDbEntity
  8
SUNPOU
100
AcDbMText
 10
67256.47426878814
 20
61384.96962996432
 30
0.0
 40
10.5
 41
0.0
 71
     9
 72
     5
  1

1001
ACAD
1000
MTEXTBEGIN
1070
    73
1070
     1
1070
    44
1040
1.0
1070
    74
1070
     0
1000
MTEXTEND
  0
MTEXT
  5
5680
330
1A
100
AcDbEntity
  8
SUNPOU
100
AcDbMText
 10
53308.47416841216
 20
42212.57049085211
 30
0.0
 40
3.5
 41
0.0
 71
     7
 72
     5
  1

1001
ACAD
1000
MTEXTBEGIN
1070
    73
1070
     1
1070
    44
1040
1.0
1070
    74
1070
     0
1000
MTEXTEND
  0
MTEXT
  5
5681
330
1A
100
AcDbEntity
  8
SUNPOU
100
AcDbMText
 10
67000.82485118274
 20
51571.63371187345
 30
0.0
 40
10.5
 41
0.0
 71
     9
 72
     5
  1

1001
ACAD
1000
MTEXTBEGIN
1070
    73
1070
     1
1070
    44
1040
1.0
1070
    74
1070
     0
1000
MTEXTEND
  0
MTEXT
  5
5682
330
1A
100
AcDbEntity
  8
SUNPOU
100
AcDbMText
 10
75722.99241710071
 20
58987.46824341094
 30
0.0
 40
10.5
 41
0.0
 71
     9
 72
     5
  1

1001
ACAD
1000
MTEXTBEGIN
1070
    73
1070
     1
1070
    44
1040
1.0
1070
    74
1070
     0
1000
MTEXTEND
  0
MTEXT
  5
5683
330
1A
100
AcDbEntity
  8
SUNPOU
100
AcDbMText
 10
94676.75113443068
 20
76454.04429590299
 30
0.0
 40
10.5
 41
0.0
 71
     9
 72
     5
  1

1001
ACAD
1000
MTEXTBEGIN
1070
    73
1070
     1
1070
    44
1040
1.0
1070
    74
1070
     0
1000
MTEXTEND
  0
MTEXT
  5
5684
330
1A
100
AcDbEntity
  8
SUNPOU
100
AcDbMText
 10
96620.1583811401
 20
74652.99521602498
 30
0.0
 40
3.5
 41
0.0
 71
     9
 72
     5
  1

1001
ACAD
1000
MTEXTBEGIN
1070
    73
1070
     1
1070
    44
1040
1.0
1070
    74
1070
     0
1000
MTEXTEND
  0
MTEXT
  5
5685
330
1A
100
AcDbEntity
  8
SUNPOU
100
AcDbMText
 10
127746.3382137598
 20
117147.9408836823
 30
0.0
 40
10.5
 41
0.0
 71
     9
 72
     5
  1

1001
ACAD
1000
MTEXTBEGIN
1070
    73
1070
     1
1070
    44
1040
1.0
1070
    74
1070
     0
1000
MTEXTEND
  0
MTEXT
  5
5686
330
1A
100
AcDbEntity
  8
SUNPOU
100
AcDbMText
 10
129689.7454604692
 20
115346.8918038043
 30
0.0
 40
3.5
 41
0.0
 71
     9
 72
     5
  1

1001
ACAD
1000
MTEXTBEGIN
1070
    73
1070
     1
1070
    44
1040
1.0
1070
    74
1070
     0
1000
MTEXTEND
  0
MTEXT
  5
5687
330
1A
100
AcDbEntity
  8
SUNPOU
100
AcDbMText
 10
78186.60591955537
 20
62981.10603865738
 30
0.0
 40
10.5
 41
0.0
 71
     9
 72
     5
  1

1001
ACAD
1000
MTEXTBEGIN
1070
    73
1070
     1
1070
    44
1040
1.0
1070
    74
1070
     0
1000
MTEXTEND
  0
MTEXT
  5
5688
330
1A
100
AcDbEntity
  8
SUNPOU
100
AcDbMText
 10
64238.60581917939
 20
43808.70689954517
 30
0.0
 40
3.5
 41
0.0
 71
     7
 72
     5
  1

1001
ACAD
1000
MTEXTBEGIN
1070
    73
1070
     1
1070
    44
1040
1.0
1070
    74
1070
     0
1000
MTEXTEND
  0
MTEXT
  5
5689
330
1A
100
AcDbEntity
  8
SUNPOU
100
AcDbMText
 10
33428.13481137435
 20
32770.04710035564
 30
0.0
 40
10.5
 41
0.0
 71
     9
 72
     5
  1

1001
ACAD
1000
MTEXTBEGIN
1070
    73
1070
     1
1070
    44
1040
1.0
1070
    74
1070
     0
1000
MTEXTEND
  0
MTEXT
  5
568A
330
1A
100
AcDbEntity
  8
SUNPOU
100
AcDbMText
 10
52381.89352870432
 20
50236.62315284769
 30
0.0
 40
10.5
 41
0.0
 71
     9
 72
     5
  1

1001
ACAD
1000
MTEXTBEGIN
1070
    73
1070
     1
1070
    44
1040
1.0
1070
    74
1070
     0
1000
MTEXTEND
  0
MTEXT
  5
568B
330
1A
100
AcDbEntity
  8
SUNPOU
100
AcDbMText
 10
54325.30077541374
 20
48435.57407296968
 30
0.0
 40
3.5
 41
0.0
 71
     9
 72
     5
  1

1001
ACAD
1000
MTEXTBEGIN
1070
    73
1070
     1
1070
    44
1040
1.0
1070
    74
1070
     0
1000
MTEXTEND
  0
MTEXT
  5
568C
330
1A
100
AcDbEntity
  8
SUNPOU
100
AcDbMText
 10
85451.48060803343
 20
90930.51974062703
 30
0.0
 40
10.5
 41
0.0
 71
     9
 72
     5
  1

1001
ACAD
1000
MTEXTBEGIN
1070
    73
1070
     1
1070
    44
1040
1.0
1070
    74
1070
     0
1000
MTEXTEND
  0
MTEXT
  5
568D
330
1A
100
AcDbEntity
  8
SUNPOU
100
AcDbMText
 10
87394.88785474286
 20
89129.47066074901
 30
0.0
 40
3.5
 41
0.0
 71
     9
 72
     5
  1

1001
ACAD
1000
MTEXTBEGIN
1070
    73
1070
     1
1070
    44
1040
1.0
1070
    74
1070
     0
1000
MTEXTEND
  0
MTEXT
  5
568E
330
1A
100
AcDbEntity
  8
SUNPOU
100
AcDbMText
 10
35891.74831382901
 20
36763.68489560208
 30
0.0
 40
10.5
 41
0.0
 71
     9
 72
     5
  1

1001
ACAD
1000
MTEXTBEGIN
1070
    73
1070
     1
1070
    44
1040
1.0
1070
    74
1070
     0
1000
MTEXTEND
  0
MTEXT
  5
568F
330
1A
100
AcDbEntity
  8
SUNPOU
100
AcDbMText
 10
21943.74821345303
 20
17591.28575648986
 30
0.0
 40
3.5
 41
0.0
 71
     7
 72
     5
  1

1001
ACAD
1000
MTEXTBEGIN
1070
    73
1070
     1
1070
    44
1040
1.0
1070
    74
1070
     0
1000
MTEXTEND
  0
ELLIPSE
  5
12FF6
330
1A
100
AcDbEntity
  8
ZISSEN1
100
AcDbEllipse
 10
-1490.187932415438
 20
1679.758817223039
 30
0.0
 11
1.399999999999636
 21
0.0000000000001816
 31
0.0
210
0.0
220
0.0
230
-1.0
 40
0.3571428571423003
 41
0.0
 42
3.141592653589793
  0
MTEXT
  5
12FF7
330
1A
100
AcDbEntity
  8
ZISSEN1
100
AcDbMText
 10
-1739.717957062731
 20
1891.907349776612
 30
0.0
 40
5.0
 41
147.3727
 71
     1
 72
     5
  1
2CD-7710v1/ADB5F30  No.SS0001f89
1001
ACAD
1000
MTEXTBEGIN
1070
    73
1070
     1
1070
    44
1040
1.0
1070
    74
1070
     0
1000
MTEXTEND
1000
MTEXTBEGIN
1070
    73
1070
     1
1070
    44
1040
1.0
1070
    74
1070
     0
1000
MTEXTEND
1000
MTEXTBEGIN
1070
    73
1070
     1
1070
    44
1040
1.0
1070
    74
1070
     0
1000
MTEXTEND
1000
MTEXTBEGIN
1070
    73
1070
     1
1070
    44
1040
1.0
1070
    74
1070
     0
1000
MTEXTEND
  0
LINE
  5
12FF8
330
1A
100
AcDbEntity
  8
ZISSEN1
100
AcDbLine
 10
-1680.887943453265
 20
1683.608824278004
 30
0.0
 11
-1679.891748755172
 21
1683.695980020752
 31
0.0
  0
LINE
  5
12FF9
330
1A
100
AcDbEntity
  8
ZISSEN1
100
AcDbLine
 10
-1680.887943453265
 20
1689.908824278004
 30
0.0
 11
-1679.891748755172
 21
1689.821668535256
 31
0.0
  0
DIMENSION
  5
12FFA
330
1A
100
AcDbEntity
  8
SUNPOU
100
AcDbDimension
  2
*D0
 10
-1747.010909169385
 20
1754.558810168092
 30
0.0
 11
-1749.260909169386
 21
1715.908813695565
 31
0.0
 70
    32
  3
ATSUSHI
100
AcDbAlignedDimension
 13
-1723.587943453271
 23
1677.258817223039
 33
0.0
 14
-1720.287943453268
 24
1754.558810168092
 34
0.0
 50
90.0
100
AcDbRotatedDimension
1001
ACAD
1000
DSTYLE
1002
{
1070
   140
1040
3.5
1070
    40
1040
1.0
1070
   340
1005
10
1002
}
  0
LINE
  5
12FFB
330
1A
100
AcDbEntity
  8
ZISSEN1
100
AcDbLine
 10
-1718.687943453268
 20
1686.258818156509
 30
0.0
 11
-1718.687943453268
 21
1753.758817223038
 31
0.0
  0
LINE
  5
12FFC
330
1A
100
AcDbEntity
  8
ZISSEN1
100
AcDbLine
 10
-1720.587943453269
 20
1685.758817223038
 30
0.0
 11
-1720.587943453269
 21
1753.758817223038
 31
0.0
  0
LINE
  5
12FFD
330
1A
100
AcDbEntity
  8
ZISSEN1
100
AcDbLine
 10
-1716.687953695453
 20
1680.258817223038
 30
0.0
 11
-1716.687953695453
 21
1750.758817223038
 31
0.0
  0
LINE
  5
12FFE
330
1A
100
AcDbEntity
  8
ZISSEN1
100
AcDbLine
 10
-1726.587943453267
 20
1680.258817223037
 30
0.0
 11
-1726.587943453269
 21
1753.758817223039
 31
0.0
  0
LINE
  5
12FFF
330
1A
100
AcDbEntity
  8
ZISSEN1
100
AcDbLine
 10
-1723.587943453269
 20
1753.758817223039
 30
0.0
 11
-1723.587943453267
 21
1680.458817223038
 31
0.0
  0
LINE
  5
13000
330
1A
100
AcDbEntity
  8
ZISSEN1
100
AcDbLine
 10
-1681.687953695453
 20
1682.758824277984
 30
0.0
 11
-1681.687943453266
 21
1753.558817223038
 31
0.0
  0
LINE
  5
13001
330
1A
100
AcDbEntity
  8
ZISSEN1
100
AcDbLine
 10
-1718.687943453268
 20
1686.258818156509
 30
0.0
 11
-1718.687943453268
 21
1753.758817223038
 31
0.0
  0
LINE
  5
13002
330
1A
100
AcDbEntity
  8
ZISSEN1
100
AcDbLine
 10
-1720.287943453266
 20
1685.758817223038
 30
0.0
 11
-1720.287943453266
 21
1753.758817223038
 31
0.0
  0
ARC
  5
13003
330
1A
100
AcDbEntity
  8
ZISSEN1
100
AcDbCircle
 10
-1723.587943453265
 20
1680.258817223041
 30
0.0
 40
3.000000000002046
100
AcDbArc
 50
180.0000000000521
 51
269.9999999998957
  0
ARC
  5
13004
330
1A
100
AcDbEntity
  8
ZISSEN1
100
AcDbCircle
 10
-1723.413314464669
 20
1690.258817223038
 30
0.0
 40
5.174628988598421
100
AcDbArc
 50
143.7083018726678
 51
216.2916981273321
  0
LINE
  5
13005
330
1A
100
AcDbEntity
  8
ZISSEN1
100
AcDbLine
 10
-1726.587943453269
 20
1693.408817223038
 30
0.0
 11
-1727.58413815136
 21
1693.321661480291
 31
0.0
  0
LINE
  5
13006
330
1A
100
AcDbEntity
  8
ZISSEN1
100
AcDbLine
 10
-1726.587943453269
 20
1687.108817223039
 30
0.0
 11
-1727.58413815136
 21
1687.195972965786
 31
0.0
  0
LINE
  5
13007
330
1A
100
AcDbEntity
  8
ZISSEN1
100
AcDbLine
 10
-1711.187953695453
 20
1682.758817223038
 30
0.0
 11
-1681.687953695453
 21
1682.758817223038
 31
0.0
  0
LINE
  5
13008
330
1A
100
AcDbEntity
  8
ZISSEN1
100
AcDbLine
 10
-1681.687943453268
 20
1680.258817223038
 30
0.0
 11
-1723.387943453269
 21
1680.258817223038
 31
0.0
  0
LINE
  5
13009
330
1A
100
AcDbEntity
  8
ZISSEN1
100
AcDbLine
 10
-1681.687943453266
 20
1677.258817223037
 30
0.0
 11
-1723.587943453264
 21
1677.258817223037
 31
0.0
  0
LINE
  5
1300A
330
1A
100
AcDbEntity
  8
ZISSEN1
100
AcDbLine
 10
-1718.687943453268
 20
1687.258817223038
 30
0.0
 11
-1720.287943453268
 21
1687.258817223038
 31
0.0
  0
LINE
  5
1300B
330
1A
100
AcDbEntity
  8
ZISSEN1
100
AcDbLine
 10
-1718.687943453268
 20
1686.258818156509
 30
0.0
 11
-1720.287943453268
 21
1686.258818156509
 31
0.0
  0
LINE
  5
1300C
330
1A
100
AcDbEntity
  8
ZISSEN1
100
AcDbLine
 10
-1717.687946013813
 20
1688.758817223038
 30
0.0
 11
-1716.687953695453
 21
1688.758817223038
 31
0.0
  0
LINE
  5
1300D
330
1A
100
AcDbEntity
  8
ZISSEN1
100
AcDbLine
 10
-1717.687943453268
 20
1691.258817223038
 30
0.0
 11
-1717.687948574359
 21
1686.258817223038
 31
0.0
  0
LINE
  5
1300E
330
1A
100
AcDbEntity
  8
ZISSEN1
100
AcDbLine
 10
-1718.687943453268
 20
1686.258817223038
 30
0.0
 11
-1716.687953695453
 21
1686.258817223038
 31
0.0
  0
LINE
  5
1300F
330
1A
100
AcDbEntity
  8
ZISSEN1
100
AcDbLine
 10
-1718.687943453268
 20
1691.258817223038
 30
0.0
 11
-1716.687953695453
 21
1691.258817223038
 31
0.0
  0
LINE
  5
13010
330
1A
100
AcDbEntity
  8
ZISSEN1
100
AcDbLine
 10
-1720.587943453269
 20
1686.758817223038
 30
0.0
 11
-1720.287943453268
 21
1686.758817223038
 31
0.0
  0
LINE
  5
13011
330
1A
100
AcDbEntity
  8
ZISSEN1
100
AcDbLine
 10
-1720.587943453269
 20
1685.758817223038
 30
0.0
 11
-1720.287943453268
 21
1685.758817223038
 31
0.0
  0
LINE
  5
13012
330
1A
100
AcDbEntity
  8
ZISSEN1
100
AcDbLine
 10
-1711.187953695453
 20
1680.258817223038
 30
0.0
 11
-1711.187953695453
 21
1682.758817223038
 31
0.0
  0
LINE
  5
13013
330
1A
100
AcDbEntity
  8
ZISSEN1
100
AcDbLine
 10
-1723.387943453269
 20
1680.258817223038
 30
0.0
 11
-1723.529364809507
 21
1680.317395866801
 31
0.0
  0
LINE
  5
13014
330
1A
100
AcDbEntity
  8
ZISSEN1
100
AcDbLine
 10
-1723.529364809507
 20
1680.317395866801
 30
0.0
 11
-1723.587943453269
 21
1680.458817223039
 31
0.0
  0
LINE
  5
13015
330
1A
100
AcDbEntity
  8
ZISSEN1
100
AcDbLine
 10
-1706.837943453269
 20
1677.258817223038
 30
0.0
 11
-1706.837943453269
 21
1680.258817223038
 31
0.0
  0
LINE
  5
13016
330
1A
100
AcDbEntity
  8
ZISSEN1
100
AcDbLine
 10
-1721.587943453269
 20
1677.258817223038
 30
0.0
 11
-1721.587943453269
 21
1680.258817223038
 31
0.0
  0
LINE
  5
13017
330
1A
100
AcDbEntity
  8
ZISSEN1
100
AcDbLine
 10
-1719.587943453269
 20
1677.258817223038
 30
0.0
 11
-1719.587943453269
 21
1680.258817223038
 31
0.0
  0
LINE
  5
13018
330
1A
100
AcDbEntity
  8
ZISSEN1
100
AcDbLine
 10
-1723.587943453267
 20
1686.758817223038
 30
0.0
 11
-1720.587943453267
 21
1686.758817223038
 31
0.0
  0
LINE
  5
13019
330
1A
100
AcDbEntity
  8
ZISSEN1
100
AcDbLine
 10
-1723.587943453267
 20
1685.758817223038
 30
0.0
 11
-1720.587943453267
 21
1685.758817223038
 31
0.0
  0
LINE
  5
1301A
330
1A
100
AcDbEntity
  8
ZISSEN1
100
AcDbLine
 10
-1723.387943453266
 20
1680.258817223037
 30
0.0
 11
-1723.529364809505
 21
1680.317395866799
 31
0.0
  0
LINE
  5
1301B
330
1A
100
AcDbEntity
  8
ZISSEN1
100
AcDbLine
 10
-1723.529364809505
 20
1680.317395866799
 30
0.0
 11
-1723.587943453267
 21
1680.458817223038
 31
0.0
  0
LINE
  5
1301C
330
1A
100
AcDbEntity
  8
ZISSEN1
100
AcDbLine
 10
-1697.887943453267
 20
1680.258817223048
 30
0.0
 11
-1697.887943453267
 21
1681.058817223048
 31
0.0
  0
LINE
  5
1301D
330
1A
100
AcDbEntity
  8
ZISSEN1
100
AcDbLine
 10
-1680.887943453259
 20
1690.758817223036
 30
0.0
 11
-1680.887943453267
 21
1680.758817223035
 31
0.0
  0
LINE
  5
1301E
330
1A
100
AcDbEntity
  8
ZISSEN1
100
AcDbLine
 10
-1692.387943453256
 20
1682.258817223047
 30
0.0
 11
-1692.387943453256
 21
1682.758817223036
 31
0.0
  0
LINE
  5
1301F
330
1A
100
AcDbEntity
  8
ZISSEN1
100
AcDbLine
 10
-1695.387943453256
 20
1682.258817223047
 30
0.0
 11
-1695.387943453256
 21
1682.758817223036
 31
0.0
  0
ARC
  5
13020
330
1A
100
AcDbEntity
  8
ZISSEN1
100
AcDbCircle
 10
-1681.387943453268
 20
1680.758817223037
 30
0.0
 40
0.5
100
AcDbArc
 50
269.9999999998957
 51
359.9999999999478
  0
LINE
  5
13021
330
1A
100
AcDbEntity
  8
ZISSEN1
100
AcDbLine
 10
-1681.687943453258
 20
1690.758817223025
 30
0.0
 11
-1681.687943453266
 21
1681.058817223037
 31
0.0
  0
LINE
  5
13022
330
1A
100
AcDbEntity
  8
ZISSEN1
100
AcDbLine
 10
-1688.687943453268
 20
1677.258817223038
 30
0.0
 11
-1688.687943453268
 21
1680.258817223038
 31
0.0
  0
LINE
  5
13023
330
1A
100
AcDbEntity
  8
ZISSEN1
100
AcDbLine
 10
-1686.687943453268
 20
1677.258817223038
 30
0.0
 11
-1686.687943453268
 21
1680.258817223038
 31
0.0
  0
LINE
  5
13024
330
1A
100
AcDbEntity
  8
ZISSEN1
100
AcDbLine
 10
-1681.687943453268
 20
1677.258817223038
 30
0.0
 11
-1681.687943453268
 21
1680.258817223038
 31
0.0
  0
LINE
  5
13025
330
1A
100
AcDbEntity
  8
ZISSEN1
100
AcDbLine
 10
-1683.687943453268
 20
1677.258817223038
 30
0.0
 11
-1683.687943453268
 21
1680.258817223038
 31
0.0
  0
LINE
  5
13026
330
1A
100
AcDbEntity
  8
ZISSEN1
100
AcDbLine
 10
-1702.337943453269
 20
1677.258817223038
 30
0.0
 11
-1702.337943453269
 21
1680.258817223038
 31
0.0
  0
ARC
  5
13027
330
1A
100
AcDbEntity
  8
ZISSEN1
100
AcDbCircle
 10
-1691.087943453256
 20
1681.558817223048
 30
0.0
 40
0.5
100
AcDbArc
 50
180.0
 51
270.0
  0
LINE
  5
13028
330
1A
100
AcDbEntity
  8
ZISSEN1
100
AcDbLine
 10
-1691.587943453256
 20
1681.558817223048
 30
0.0
 11
-1691.587943453256
 21
1682.258817223048
 31
0.0
  0
ARC
  5
13029
330
1A
100
AcDbEntity
  8
ZISSEN1
100
AcDbCircle
 10
-1696.687943453255
 20
1681.558817223048
 30
0.0
 40
0.5
100
AcDbArc
 50
270.0
 51
0.0
  0
LINE
  5
1302A
330
1A
100
AcDbEntity
  8
ZISSEN1
100
AcDbLine
 10
-1696.187943453255
 20
1682.258817223048
 30
0.0
 11
-1691.587943453257
 21
1682.258817223048
 31
0.0
  0
LINE
  5
1302B
330
1A
100
AcDbEntity
  8
ZISSEN1
100
AcDbLine
 10
-1696.187943453255
 20
1681.558817223048
 30
0.0
 11
-1696.187943453255
 21
1682.258817223048
 31
0.0
  0
LINE
  5
1302C
330
1A
100
AcDbEntity
  8
ZISSEN1
100
AcDbLine
 10
-1697.887943453267
 20
1681.058817223048
 30
0.0
 11
-1681.687943453266
 21
1681.058817223037
 31
0.0
  0
LINE
  5
1302D
330
1A
100
AcDbEntity
  8
ZISSEN1
100
AcDbLine
 10
-1681.687943453266
 20
1680.258817223037
 30
0.0
 11
-1697.887943453267
 21
1680.258817223048
 31
0.0
  0
LINE
  5
1302E
330
1A
100
AcDbEntity
  8
ZISSEN1
100
AcDbLine
 10
-1680.887943453259
 20
1689.758817223035
 30
0.0
 11
-1681.68794345326
 21
1689.758817223036
 31
0.0
  0
LINE
  5
1302F
330
1A
100
AcDbEntity
  8
ZISSEN1
100
AcDbLine
 10
-1681.387943453267
 20
1680.258817223036
 30
0.0
 11
-1681.687943453266
 21
1680.258817223037
 31
0.0
  0
LINE
  5
13030
330
1A
100
AcDbEntity
  8
ZISSEN1
100
AcDbLine
 10
-1680.887943453259
 20
1690.758817223036
 30
0.0
 11
-1681.687943453258
 21
1690.758817223036
 31
0.0
  0
LINE
  5
13032
330
1A
100
AcDbEntity
  8
SOUZOUSEN
  6
PHANTOMX2
100
AcDbLine
 10
-1692.785549007441
 20
1793.658174133053
 30
0.0
 11
-1690.285549007441
 21
1781.658174133053
 31
0.0
  0
LINE
  5
13033
330
1A
100
AcDbEntity
  8
SOUZOUSEN
  6
PHANTOMX2
100
AcDbLine
 10
-1697.785549007441
 20
1793.658174133053
 30
0.0
 11
-1700.285549007441
 21
1781.658174133053
 31
0.0
  0
LINE
  5
13034
330
1A
100
AcDbEntity
  8
SOUZOUSEN
  6
PHANTOMX2
100
AcDbLine
 10
-1726.877213368595
 20
1763.882576675095
 30
0.0
 11
-1720.047418477749
 21
1763.881417841018
 31
0.0
  0
LINE
  5
13035
330
1A
100
AcDbEntity
  8
SOUZOUSEN
  6
PHANTOMX2
100
AcDbLine
 10
-1722.927281284436
 20
1770.562568687642
 30
0.0
 11
-1726.292790604541
 21
1770.562568687642
 31
0.0
  0
LINE
  5
13036
330
1A
100
AcDbEntity
  8
SOUZOUSEN
  6
PHANTOMX2
100
AcDbLine
 10
-1723.727281284435
 20
1768.962568687642
 30
0.0
 11
-1726.292790604541
 21
1768.962568687642
 31
0.0
  0
LINE
  5
13037
330
1A
100
AcDbEntity
  8
ZISSEN1
100
AcDbLine
 10
-1726.987943453267
 20
1757.958817223038
 30
0.0
 11
-1720.287943453268
 21
1757.958817223038
 31
0.0
  0
LINE
  5
13038
330
1A
100
AcDbEntity
  8
ZISSEN1
100
AcDbLine
 10
-1712.687943453266
 20
1754.558810168092
 30
0.0
 11
-1726.087943453265
 21
1754.558810168092
 31
0.0
  0
LINE
  5
13039
330
1A
100
AcDbEntity
  8
ZISSEN1
100
AcDbLine
 10
-1723.587943453269
 20
1753.758817223039
 30
0.0
 11
-1726.587943453269
 21
1753.758817223039
 31
0.0
  0
LINE
  5
1303A
330
1A
100
AcDbEntity
  8
ZISSEN1
100
AcDbLine
 10
-1723.587943453269
 20
1752.758817223039
 30
0.0
 11
-1726.587943453269
 21
1752.758817223039
 31
0.0
  0
LINE
  5
1303B
330
1A
100
AcDbEntity
  8
ZISSEN1
100
AcDbLine
 10
-1712.687943453266
 20
1753.758817223038
 30
0.0
 11
-1726.087943453267
 21
1753.758817223038
 31
0.0
  0
LINE
  5
1303C
330
1A
100
AcDbEntity
  8
ZISSEN1
100
AcDbLine
 10
-1723.587943453267
 20
1753.758817223038
 30
0.0
 11
-1726.587943453267
 21
1753.758817223038
 31
0.0
  0
LINE
  5
1303D
330
1A
100
AcDbEntity
  8
SOUZOUSEN
  6
PHANTOMX2
100
AcDbLine
 10
-1728.827213368594
 20
1761.881417841018
 30
0.0
 11
-1728.827213368594
 21
1750.581417841017
 31
0.0
  0
LINE
  5
1303E
330
1A
100
AcDbEntity
  8
ZISSEN1
100
AcDbLine
 10
-1726.987943453267
 20
1750.373821757627
 30
0.0
 11
-1726.987943453267
 21
1757.958817223038
 31
0.0
  0
LINE
  5
1303F
330
1A
100
AcDbEntity
  8
ZISSEN1
100
AcDbLine
 10
-1726.087943453265
 20
1753.758810168092
 30
0.0
 11
-1726.087943453265
 21
1754.558810168092
 31
0.0
  0
LINE
  5
13040
330
1A
100
AcDbEntity
  8
SOUZOUSEN
  6
PHANTOMX2
100
AcDbLine
 10
-1728.827213368594
 20
1750.581417841017
 30
0.0
 11
-1727.823729114666
 21
1750.581417841017
 31
0.0
  0
ARC
  5
13041
330
1A
100
AcDbEntity
  8
ZISSEN1
100
AcDbCircle
 10
-1723.413314464669
 20
1747.258817223037
 30
0.0
 40
5.174628988598421
100
AcDbArc
 50
143.7083018726678
 51
216.2916981273321
  0
LINE
  5
13042
330
1A
100
AcDbEntity
  8
ZISSEN1
100
AcDbLine
 10
-1726.587943453269
 20
1750.408817223037
 30
0.0
 11
-1727.58413815136
 21
1750.32166148029
 31
0.0
  0
LINE
  5
13043
330
1A
100
AcDbEntity
  8
ZISSEN1
100
AcDbLine
 10
-1726.587943453269
 20
1744.108817223038
 30
0.0
 11
-1727.58413815136
 21
1744.195972965785
 31
0.0
  0
LINE
  5
13045
330
1A
100
AcDbEntity
  8
SOUZOUSEN
  6
PHANTOMX2
100
AcDbLine
 10
-1727.367213368594
 20
1763.381417841018
 30
0.0
 11
-1729.327213368594
 21
1763.381417841018
 31
0.0
  0
LINE
  5
13046
330
1A
100
AcDbEntity
  8
SOUZOUSEN
  6
PHANTOMX2
100
AcDbLine
 10
-1729.327213368594
 20
1763.381417841018
 30
0.0
 11
-1729.327213368594
 21
1761.881417841018
 31
0.0
  0
LINE
  5
13047
330
1A
100
AcDbEntity
  8
SOUZOUSEN
  6
PHANTOMX2
100
AcDbLine
 10
-1726.877213368595
 20
1763.881417841018
 30
0.0
 11
-1728.827213368594
 21
1759.901826004284
 31
0.0
  0
LINE
  5
13048
330
1A
100
AcDbEntity
  8
SOUZOUSEN
  6
PHANTOMX2
100
AcDbLine
 10
-1726.877213368595
 20
1757.881417841018
 30
0.0
 11
-1726.877213368595
 21
1763.881428007008
 31
0.0
  0
LINE
  5
13049
330
1A
100
AcDbEntity
  8
SOUZOUSEN
  6
PHANTOMX2
100
AcDbLine
 10
-1690.035549007441
 20
1757.158174133052
 30
0.0
 11
-1690.035549007441
 21
1751.758817223038
 31
0.0
  0
LINE
  5
1304A
330
1A
100
AcDbEntity
  8
SOUZOUSEN
  6
PHANTOMX2
100
AcDbLine
 10
-1698.135549007441
 20
1752.158174133053
 30
0.0
 11
-1698.135549007441
 21
1765.658174133053
 31
0.0
  0
LINE
  5
1304B
330
1A
100
AcDbEntity
  8
SOUZOUSEN
  6
PHANTOMX2
100
AcDbLine
 10
-1691.535549007441
 20
1752.158174133053
 30
0.0
 11
-1691.535549007441
 21
1773.658174133053
 31
0.0
  0
LINE
  5
1304C
330
1A
100
AcDbEntity
  8
SOUZOUSEN
100
AcDbLine
 10
-1691.535549007441
 20
1764.158174133052
 30
0.0
 11
-1691.535549007441
 21
1752.158174133053
 31
0.0
  0
LINE
  5
1304D
330
1A
100
AcDbEntity
  8
ZISSEN1
100
AcDbLine
 10
-1711.087943453267
 20
1757.258817223038
 30
0.0
 11
-1711.087943453267
 21
1751.758817223038
 31
0.0
  0
LINE
  5
1304E
330
1A
100
AcDbEntity
  8
ZISSEN1
100
AcDbLine
 10
-1712.687943453268
 20
1751.758817223038
 30
0.0
 11
-1712.687943453268
 21
1757.258817223038
 31
0.0
  0
LINE
  5
1304F
330
1A
100
AcDbEntity
  8
ZISSEN1
100
AcDbLine
 10
-1725.087943453265
 20
1753.758810168092
 30
0.0
 11
-1725.087943453265
 21
1754.558810168092
 31
0.0
  0
ARC
  5
13050
330
1A
100
AcDbEntity
  8
ZISSEN1
100
AcDbCircle
 10
-1682.687943453262
 20
1753.558817223041
 30
0.0
 40
0.999999999998181
100
AcDbArc
 50
359.9999999998958
 51
90.00000000010421
  0
LINE
  5
13051
330
1A
100
AcDbEntity
  8
ZISSEN1
100
AcDbLine
 10
-1714.137943453263
 20
1754.558817223038
 30
0.0
 11
-1714.137943453263
 21
1753.758817223038
 31
0.0
  0
LINE
  5
13052
330
1A
100
AcDbEntity
  8
ZISSEN1
100
AcDbLine
 10
-1709.637943453263
 20
1754.558817223038
 30
0.0
 11
-1709.637943394597
 21
1753.758817296373
 31
0.0
  0
LINE
  5
13053
330
1A
100
AcDbEntity
  8
ZISSEN1
100
AcDbLine
 10
-1713.137943453263
 20
1754.558817223038
 30
0.0
 11
-1713.137943453263
 21
1753.758817223038
 31
0.0
  0
LINE
  5
13054
330
1A
100
AcDbEntity
  8
ZISSEN1
100
AcDbLine
 10
-1710.637943453263
 20
1754.558817223038
 30
0.0
 11
-1710.637943453263
 21
1753.758817223038
 31
0.0
  0
LINE
  5
13055
330
1A
100
AcDbEntity
  8
ZISSEN1
100
AcDbLine
 10
-1715.687953695453
 20
1751.758817223038
 30
0.0
 11
-1681.687943453264
 21
1751.758817223038
 31
0.0
  0
LINE
  5
13056
330
1A
100
AcDbEntity
  8
ZISSEN1
100
AcDbLine
 10
-1682.487943453265
 20
1753.758810168092
 30
0.0
 11
-1711.087943453267
 21
1753.758810168092
 31
0.0
  0
LINE
  5
13057
330
1A
100
AcDbEntity
  8
ZISSEN1
100
AcDbLine
 10
-1712.687943453268
 20
1754.258817223038
 30
0.0
 11
-1711.087943453267
 21
1754.258817223038
 31
0.0
  0
LINE
  5
13058
330
1A
100
AcDbEntity
  8
ZISSEN1
100
AcDbLine
 10
-1717.687943453268
 20
1747.258817223038
 30
0.0
 11
-1716.687953695453
 21
1747.258817223038
 31
0.0
  0
LINE
  5
13059
330
1A
100
AcDbEntity
  8
ZISSEN1
100
AcDbLine
 10
-1717.687943453268
 20
1744.758817223038
 30
0.0
 11
-1717.687943453268
 21
1749.758817223038
 31
0.0
  0
LINE
  5
1305A
330
1A
100
AcDbEntity
  8
ZISSEN1
100
AcDbLine
 10
-1718.687943453268
 20
1744.758817223038
 30
0.0
 11
-1716.687953695453
 21
1744.758817223038
 31
0.0
  0
LINE
  5
1305B
330
1A
100
AcDbEntity
  8
ZISSEN1
100
AcDbLine
 10
-1718.687943453268
 20
1749.758817223038
 30
0.0
 11
-1716.687953695453
 21
1749.758817223038
 31
0.0
  0
LINE
  5
1305C
330
1A
100
AcDbEntity
  8
ZISSEN1
100
AcDbLine
 10
-1720.287943453268
 20
1752.758817223038
 30
0.0
 11
-1718.687943453268
 21
1752.758817223038
 31
0.0
  0
LINE
  5
1305D
330
1A
100
AcDbEntity
  8
ZISSEN1
100
AcDbLine
 10
-1723.587943453269
 20
1752.758817223038
 30
0.0
 11
-1720.587943453269
 21
1752.758817223038
 31
0.0
  0
LINE
  5
1305E
330
1A
100
AcDbEntity
  8
ZISSEN1
100
AcDbLine
 10
-1716.687953695453
 20
1750.758817223038
 30
0.0
 11
-1715.687953695453
 21
1751.758817223038
 31
0.0
  0
LINE
  5
1305F
330
1A
100
AcDbEntity
  8
ZISSEN1
  6
PHANTOMX2
100
AcDbLine
 10
-1693.035549007441
 20
1752.158174133053
 30
0.0
 11
-1693.035549007441
 21
1751.758817223038
 31
0.0
  0
LINE
  5
13060
330
1A
100
AcDbEntity
  8
SOUZOUSEN
  6
PHANTOMX2
100
AcDbLine
 10
-1691.535549007441
 20
1752.158174133053
 30
0.0
 11
-1698.135549007441
 21
1752.158174133053
 31
0.0
  0
LINE
  5
13061
330
1A
100
AcDbEntity
  8
ZISSEN1
100
AcDbLine
 10
-1688.087943453267
 20
1751.758817223038
 30
0.0
 11
-1688.087943453267
 21
1753.758810168092
 31
0.0
  0
LINE
  5
13062
330
1A
100
AcDbEntity
  8
ZISSEN1
100
AcDbLine
 10
-1699.987943453267
 20
1751.758817223038
 30
0.0
 11
-1699.987943453267
 21
1753.758810168092
 31
0.0
  0
LINE
  5
13063
330
1A
100
AcDbEntity
  8
ZISSEN1
100
AcDbLine
 10
-1686.487943453267
 20
1751.758817223038
 30
0.0
 11
-1686.487943453267
 21
1753.758810168092
 31
0.0
  0
LINE
  5
13064
330
1A
100
AcDbEntity
  8
ZISSEN1
100
AcDbLine
 10
-1682.487943453265
 20
1751.758817223034
 30
0.0
 11
-1682.487943453265
 21
1753.758817223038
 31
0.0
  0
LINE
  5
13065
330
1A
100
AcDbEntity
  8
ZISSEN1
100
AcDbLine
 10
-1686.487943453265
 20
1752.258817223038
 30
0.0
 11
-1688.087943453267
 21
1752.258817223038
 31
0.0
  0
LINE
  5
13066
330
1A
100
AcDbEntity
  8
ZISSEN1
100
AcDbLine
 10
-1686.487943453265
 20
1753.258817223038
 30
0.0
 11
-1688.087943453267
 21
1753.258817223038
 31
0.0
  0
LINE
  5
13067
330
1A
100
AcDbEntity
  8
ZISSEN1
100
AcDbLine
 10
-1711.087943453267
 20
1754.558810168092
 30
0.0
 11
-1682.687943453262
 21
1754.558810168092
 31
0.0
  0
LINE
  5
13068
330
1A
100
AcDbEntity
  8
SOUZOUSEN
  6
PHANTOMX2
100
AcDbLine
 10
-1720.577213368594
 20
1762.081417841017
 30
0.0
 11
-1719.397486393591
 21
1762.081417841017
 31
0.0
  0
ARC
  5
13069
330
1A
100
AcDbEntity
  8
SOUZOUSEN
  6
PHANTOMX2
100
AcDbCircle
 10
-1722.927281284438
 20
1769.562568687641
 30
0.0
 40
1.000000000000909
100
AcDbArc
 50
0.0000000001042204
 51
89.99999999989578
  0
LINE
  5
1306A
330
1A
100
AcDbEntity
  8
SOUZOUSEN
  6
PHANTOMX2
100
AcDbLine
 10
-1721.927281284436
 20
1763.882568687642
 30
0.0
 11
-1721.927281284437
 21
1769.562568687643
 31
0.0
  0
LINE
  5
1306B
330
1A
100
AcDbEntity
  8
SOUZOUSEN
  6
PHANTOMX2
100
AcDbLine
 10
-1723.527281284436
 20
1763.882568687642
 30
0.0
 11
-1723.527281284435
 21
1768.682568687641
 31
0.0
  0
LINE
  5
1306C
330
1A
100
AcDbEntity
  8
SOUZOUSEN
  6
PHANTOMX2
100
AcDbLine
 10
-1720.577213368594
 20
1762.081417841017
 30
0.0
 11
-1720.577213368594
 21
1757.881417841018
 31
0.0
  0
LINE
  5
1306D
330
1A
100
AcDbEntity
  8
SOUZOUSEN
  6
PHANTOMX2
100
AcDbLine
 10
-1720.047418477749
 20
1763.882566509105
 30
0.0
 11
-1720.047418477749
 21
1762.082566509104
 31
0.0
  0
LINE
  5
1306E
330
1A
100
AcDbEntity
  8
SOUZOUSEN
  6
PHANTOMX2
100
AcDbLine
 10
-1719.397486393591
 20
1762.081417841017
 30
0.0
 11
-1719.397486393591
 21
1757.881417841018
 31
0.0
  0
LINE
  5
1306F
330
1A
100
AcDbEntity
  8
ZISSEN1
100
AcDbLine
 10
-1712.687943453268
 20
1755.258817223038
 30
0.0
 11
-1711.087943453267
 21
1755.258817223038
 31
0.0
  0
LINE
  5
13070
330
1A
100
AcDbEntity
  8
ZISSEN1
100
AcDbLine
 10
-1712.687943453268
 20
1756.258817223038
 30
0.0
 11
-1711.087943453267
 21
1756.258817223038
 31
0.0
  0
LINE
  5
13071
330
1A
100
AcDbEntity
  8
ZISSEN1
100
AcDbLine
 10
-1712.687943453268
 20
1757.258817223038
 30
0.0
 11
-1711.087943453267
 21
1757.258817223038
 31
0.0
  0
LINE
  5
13072
330
1A
100
AcDbEntity
  8
ZISSEN1
100
AcDbLine
 10
-1712.687943453268
 20
1757.958817223039
 30
0.0
 11
-1712.687943453268
 21
1757.258817223038
 31
0.0
  0
LINE
  5
13073
330
1A
100
AcDbEntity
  8
ZISSEN1
100
AcDbLine
 10
-1719.387943453268
 20
1757.958817223039
 30
0.0
 11
-1712.687943453268
 21
1757.958817223039
 31
0.0
  0
LINE
  5
13074
330
1A
100
AcDbEntity
  8
ZISSEN1
100
AcDbLine
 10
-1719.387943453265
 20
1754.558810168092
 30
0.0
 11
-1719.387943453268
 21
1757.958817223039
 31
0.0
  0
LINE
  5
13075
330
1A
100
AcDbEntity
  8
ZISSEN1
100
AcDbLine
 10
-1720.287943453268
 20
1757.958817223038
 30
0.0
 11
-1720.287943453268
 21
1754.558810168092
 31
0.0
  0
LINE
  5
13076
330
1A
100
AcDbEntity
  8
SOUZOUSEN
  6
PHANTOMX2
100
AcDbLine
 10
-1699.035549007441
 20
1773.658174133053
 30
0.0
 11
-1691.535549007441
 21
1773.658174133053
 31
0.0
  0
LINE
  5
13077
330
1A
100
AcDbEntity
  8
SOUZOUSEN
  6
PHANTOMX2
100
AcDbLine
 10
-1690.285549007441
 20
1781.658174133053
 30
0.0
 11
-1700.285549007441
 21
1781.658174133053
 31
0.0
  0
LINE
  5
13078
330
1A
100
AcDbEntity
  8
SOUZOUSEN
  6
PHANTOMX2
100
AcDbLine
 10
-1690.285549007441
 20
1781.658174133053
 30
0.0
 11
-1690.285549007441
 21
1770.458174133052
 31
0.0
  0
LINE
  5
13079
330
1A
100
AcDbEntity
  8
SOUZOUSEN
  6
PHANTOMX2
100
AcDbLine
 10
-1700.285549007441
 20
1781.658174133053
 30
0.0
 11
-1700.285549007441
 21
1770.458174133052
 31
0.0
  0
LINE
  5
1307A
330
1A
100
AcDbEntity
  8
SOUZOUSEN
  6
PHANTOMX2
100
AcDbLine
 10
-1699.035549007441
 20
1765.658174133053
 30
0.0
 11
-1699.035549007441
 21
1773.658174133053
 31
0.0
  0
LINE
  5
1307B
330
1A
100
AcDbEntity
  8
SOUZOUSEN
  6
PHANTOMX2
100
AcDbLine
 10
-1700.285549007441
 20
1764.158174133052
 30
0.0
 11
-1700.285549007441
 21
1770.458174133052
 31
0.0
  0
LINE
  5
1307C
330
1A
100
AcDbEntity
  8
SOUZOUSEN
  6
PHANTOMX2
100
AcDbLine
 10
-1698.135549007441
 20
1765.658174133053
 30
0.0
 11
-1699.035549007441
 21
1765.658174133053
 31
0.0
  0
LINE
  5
1307D
330
1A
100
AcDbEntity
  8
SOUZOUSEN
  6
PHANTOMX2
100
AcDbLine
 10
-1690.285549007441
 20
1764.158174133052
 30
0.0
 11
-1690.285549007441
 21
1770.458174133052
 31
0.0
  0
ARC
  5
1307E
330
1A
100
AcDbEntity
  8
SOUZOUSEN
  6
PHANTOMX2
100
AcDbCircle
 10
-1688.983397170491
 20
1765.460325970005
 30
0.0
 40
3.920418401578042
100
AcDbArc
 50
340.6009107108703
 51
109.3990892891708
  0
LINE
  5
1307F
330
1A
100
AcDbEntity
  8
SOUZOUSEN
  6
CENTERX2
100
AcDbLine
 10
-1690.285549007441
 20
1764.158174133052
 30
0.0
 11
-1685.285549007441
 21
1764.158174133052
 31
0.0
  0
LINE
  5
13080
330
1A
100
AcDbEntity
  8
SOUZOUSEN
  6
PHANTOMX2
100
AcDbLine
 10
-1690.285549007441
 20
1764.158174133052
 30
0.0
 11
-1700.285549007441
 21
1764.158174133052
 31
0.0
  0
LINE
  5
13081
330
1A
100
AcDbEntity
  8
SOUZOUSEN
  6
PHANTOMX2
100
AcDbLine
 10
-1690.035549007441
 20
1758.158174133052
 30
0.0
 11
-1687.546929901714
 21
1769.108098198252
 31
0.0
  0
LINE
  5
13082
330
1A
100
AcDbEntity
  8
SOUZOUSEN
  6
PHANTOMX2
100
AcDbLine
 10
-1691.035549007441
 20
1759.158174133052
 30
0.0
 11
-1688.714338422161
 21
1769.371500708288
 31
0.0
  0
LINE
  5
13083
330
1A
100
AcDbEntity
  8
SOUZOUSEN
  6
PHANTOMX2
100
AcDbLine
 10
-1691.035549007441
 20
1759.158174133052
 30
0.0
 11
-1691.035549007441
 21
1757.158174133052
 31
0.0
  0
LINE
  5
13084
330
1A
100
AcDbEntity
  8
SOUZOUSEN
  6
PHANTOMX2
100
AcDbLine
 10
-1690.035549007441
 20
1757.158174133052
 30
0.0
 11
-1691.535549007441
 21
1757.158174133052
 31
0.0
  0
LINE
  5
13085
330
1A
100
AcDbEntity
  8
ZISSEN1
100
AcDbLine
 10
-1686.487943453267
 20
1757.258817223039
 30
0.0
 11
-1686.487943453267
 21
1754.558810168092
 31
0.0
  0
LINE
  5
13086
330
1A
100
AcDbEntity
  8
ZISSEN1
100
AcDbLine
 10
-1688.087943453267
 20
1759.758817223038
 30
0.0
 11
-1688.087943453269
 21
1754.558810168092
 31
0.0
  0
LINE
  5
13087
330
1A
100
AcDbEntity
  8
ZISSEN1
100
AcDbLine
 10
-1699.987943453267
 20
1759.758817223038
 30
0.0
 11
-1688.087943453267
 21
1759.758817223038
 31
0.0
  0
LINE
  5
13088
330
1A
100
AcDbEntity
  8
ZISSEN1
100
AcDbLine
 10
-1699.987943453267
 20
1759.758817223038
 30
0.0
 11
-1699.987943453267
 21
1754.558810168092
 31
0.0
  0
LINE
  5
13089
330
1A
100
AcDbEntity
  8
ZISSEN1
100
AcDbLine
 10
-1686.487943453265
 20
1756.258817223038
 30
0.0
 11
-1688.087943453267
 21
1756.258817223038
 31
0.0
  0
LINE
  5
1308A
330
1A
100
AcDbEntity
  8
ZISSEN1
100
AcDbLine
 10
-1686.487943453265
 20
1757.258817223038
 30
0.0
 11
-1688.087943453267
 21
1757.258817223038
 31
0.0
  0
LINE
  5
1308B
330
1A
100
AcDbEntity
  8
SOUZOUSEN
  6
PHANTOMX2
100
AcDbLine
 10
-1694.785549007441
 20
1801.558174133053
 30
0.0
 11
-1711.126615524471
 21
1801.558174133053
 31
0.0
  0
LINE
  5
1308C
330
1A
100
AcDbEntity
  8
SOUZOUSEN
  6
PHANTOMX2
100
AcDbLine
 10
-1698.785549007441
 20
1796.558174133053
 30
0.0
 11
-1711.126615524471
 21
1796.558174133053
 31
0.0
  0
LINE
  5
1308D
330
1A
100
AcDbEntity
  8
SOUZOUSEN
  6
PHANTOMX2
100
AcDbLine
 10
-1692.785549007441
 20
1793.658174133053
 30
0.0
 11
-1692.785549007441
 21
1799.658174133053
 31
0.0
  0
ARC
  5
1308E
330
1A
100
AcDbEntity
  8
SOUZOUSEN
  6
PHANTOMX2
100
AcDbCircle
 10
-1694.785549007445
 20
1799.55817413305
 30
0.0
 40
2.000000000002739
100
AcDbArc
 50
0.0000000001042204
 51
89.99999999989578
  0
ARC
  5
1308F
330
1A
100
AcDbEntity
  8
SOUZOUSEN
  6
PHANTOMX2
100
AcDbCircle
 10
-1698.785549007441
 20
1795.558174133054
 30
0.0
 40
0.9999999999991082
100
AcDbArc
 50
359.9999999999478
 51
90.00000000010421
  0
LINE
  5
13090
330
1A
100
AcDbEntity
  8
SOUZOUSEN
  6
PHANTOMX2
100
AcDbLine
 10
-1697.785549007441
 20
1793.658174133053
 30
0.0
 11
-1697.785549007441
 21
1795.558174133054
 31
0.0
  0
LINE
  5
13091
330
1A
100
AcDbEntity
  8
SOUZOUSEN
  6
PHANTOMX2
100
AcDbLine
 10
-1697.785549007441
 20
1793.658174133053
 30
0.0
 11
-1692.785549007441
 21
1793.658174133053
 31
0.0
  0
DIMENSION
  5
13092
330
1A
100
AcDbEntity
  8
SUNPOU
100
AcDbDimension
  2
*D1
 10
-1507.840921195195
 20
1825.661588116657
 30
0.0
 11
-1510.090921195196
 21
1848.511588116656
 31
0.0
 70
    32
  3
ATSUSHI
100
AcDbAlignedDimension
 13
-1538.687932415431
 23
1871.361588116655
 33
0.0
 14
-1588.387932415432
 24
1825.661588116657
 34
0.0
 50
270.0
100
AcDbRotatedDimension
1001
ACAD
1000
DSTYLE
1002
{
1070
   140
1040
3.5
1070
    40
1040
1.0
1070
   340
1005
10
1002
}
  0
DIMENSION
  5
13093
330
1A
100
AcDbEntity
  8
SUNPOU
100
AcDbDimension
  2
*D2
 10
-1663.650364663643
 20
1847.111588116655
 30
0.0
 11
-1663.650364663643
 21
1836.611588116655
 31
0.0
 70
   160
  3
ATSUSHI
100
AcDbAlignedDimension
 13
-1657.187932415429
 23
1851.611588116655
 33
0.0
 14
-1657.187932415429
 24
1847.111588116655
 34
0.0
 50
270.0
100
AcDbRotatedDimension
1001
ACAD
1000
DSTYLE
1002
{
1070
   140
1040
3.5
1070
    40
1040
1.0
1070
   340
1005
10
1002
}
  0
MTEXT
  5
13094
330
1A
100
AcDbEntity
  8
ZISSEN1
  6
BYBLOCK
100
AcDbMText
 10
-1518.410243254993
 20
1831.406391570457
 30
0.0
 40
3.0
 41
29.494
 71
     1
 72
     5
  1
{\fＭＳ ゴシック|b0|i0|c128|p49;\C7;(USER取付寸法)}
 11
0.0000000000000006
 21
1.0
 31
0.0
1001
ACAD
1000
MTEXTBEGIN
1070
    73
1070
     1
1070
    44
1040
1.0
1070
    74
1070
     0
1000
MTEXTEND
  0
DIMENSION
  5
13095
330
1A
100
AcDbEntity
  8
SUNPOU
100
AcDbDimension
  2
*D3
 10
-1520.187932415431
 20
1849.361588116657
 30
0.0
 11
-1522.437932415432
 21
1837.911588116656
 31
0.0
 70
    32
  3
ATSUSHI
100
AcDbAlignedDimension
 13
-1537.687932415293
 23
1826.461588116655
 33
0.0
 14
-1529.228378380848
 24
1849.361588116657
 34
0.0
 50
90.0
100
AcDbRotatedDimension
1001
ACAD
1000
DSTYLE
1002
{
1070
   140
1040
3.5
1070
   340
1005
10
1070
    40
1040
1.0
1002
}
  0
DIMENSION
  5
13096
330
1A
100
AcDbEntity
  8
SUNPOU
100
AcDbDimension
  2
*D4
 10
-1533.687932415433
 20
1808.209498888108
 30
0.0
 11
-1593.685500812369
 21
1810.459498888108
 31
0.0
 70
    32
  3
ATSUSHI
100
AcDbAlignedDimension
 13
-1653.683069209304
 23
1845.222290606437
 33
0.0
 14
-1533.687932415433
 24
1846.10949888811
 34
0.0
100
AcDbRotatedDimension
1001
ACAD
1000
DSTYLE
1002
{
1070
   140
1040
3.5
1070
    40
1040
1.0
1070
   340
1005
10
1002
}
  0
TEXT
  5
13097
330
1A
100
AcDbEntity
  8
ZISSEN1
100
AcDbText
 10
-1669.474662016463
 20
1837.083873775215
 30
0.0
 40
3.0
  1
2-M3(M4可)
 50
90.0
 72
     1
 11
-1670.974662016463
 21
1849.383873775215
 31
0.0
100
AcDbText
 73
     2
  0
LINE
  5
13098
330
1A
100
AcDbEntity
  8
ZISSEN1
100
AcDbLine
 10
-1640.437932415704
 20
1844.761588116655
 30
0.0
 11
-1640.437932415704
 21
1832.861588116655
 31
0.0
  0
LINE
  5
13099
330
1A
100
AcDbEntity
  8
ZISSEN1
100
AcDbLine
 10
-1625.837932415702
 20
1832.861588116655
 30
0.0
 11
-1625.837932415702
 21
1844.761588116655
 31
0.0
  0
LINE
  5
1309A
330
1A
100
AcDbEntity
  8
ZISSEN1
100
AcDbLine
 10
-1622.637932415703
 20
1844.761588116655
 30
0.0
 11
-1622.637932415703
 21
1832.861588116655
 31
0.0
  0
LINE
  5
1309B
330
1A
100
AcDbEntity
  8
ZISSEN1
100
AcDbLine
 10
-1608.037932415703
 20
1832.861588116655
 30
0.0
 11
-1608.037932415703
 21
1844.761588116655
 31
0.0
  0
LINE
  5
1309C
330
1A
100
AcDbEntity
  8
ZISSEN1
100
AcDbLine
 10
-1643.167929270367
 20
1859.961588116655
 30
0.0
 11
-1643.167929270367
 21
1830.261588116655
 31
0.0
  0
LINE
  5
1309D
330
1A
100
AcDbEntity
  8
ZISSEN1
100
AcDbLine
 10
-1530.187932415431
 20
1840.361588116655
 30
0.0
 11
-1530.187932415431
 21
1847.111588116655
 31
0.0
  0
LINE
  5
1309E
330
1A
100
AcDbEntity
  8
ZISSEN1
100
AcDbLine
 10
-1648.687932415431
 20
1861.461588116655
 30
0.0
 11
-1648.687932415431
 21
1827.261588116655
 31
0.0
  0
LINE
  5
1309F
330
1A
100
AcDbEntity
  8
ZISSEN1
100
AcDbLine
 10
-1649.48793241543
 20
1827.261588116655
 30
0.0
 11
-1649.48793241543
 21
1861.461588116655
 31
0.0
  0
LINE
  5
130A0
330
1A
100
AcDbEntity
  8
ZISSEN1
100
AcDbLine
 10
-1537.88793241543
 20
1827.261588116655
 30
0.0
 11
-1537.88793241543
 21
1861.461588116655
 31
0.0
  0
LINE
  5
130A1
330
1A
100
AcDbEntity
  8
ZISSEN1
100
AcDbLine
 10
-1538.88792050112
 20
1826.461588116655
 30
0.0
 11
-1538.88792050112
 21
1854.411588116654
 31
0.0
  0
LINE
  5
130A2
330
1A
100
AcDbEntity
  8
ZISSEN1
100
AcDbLine
 10
-1607.037932415704
 20
1845.761588116654
 30
0.0
 11
-1607.037932415704
 21
1836.361588116653
 31
0.0
  0
LINE
  5
130A3
330
1A
100
AcDbEntity
  8
ZISSEN1
100
AcDbLine
 10
-1538.687932415429
 20
1861.461588116655
 30
0.0
 11
-1538.687932415429
 21
1827.261588116654
 31
0.0
  0
LINE
  5
130A4
330
1A
100
AcDbEntity
  8
ZISSEN1
100
AcDbLine
 10
-1648.487920501397
 20
1826.461588116655
 30
0.0
 11
-1648.487919508609
 21
1854.411588116653
 31
0.0
  0
LINE
  5
130A5
330
1A
100
AcDbEntity
  8
ZISSEN1
100
AcDbLine
 10
-1657.187932415429
 20
1847.111588116655
 30
0.0
 11
-1657.187932415429
 21
1833.461588116655
 31
0.0
  0
DIMENSION
  5
130A6
330
1A
100
AcDbEntity
  8
SUNPOU
100
AcDbDimension
  2
*D5
 10
-1507.925004750928
 20
1759.758817223039
 30
0.0
 11
-1510.175004750929
 21
1718.508817223039
 31
0.0
 70
    32
  3
ATSUSHI
100
AcDbAlignedDimension
 13
-1495.687932415431
 23
1677.258817223038
 33
0.0
 14
-1489.287932415433
 24
1759.758817223039
 34
0.0
 50
90.0
100
AcDbRotatedDimension
1001
ACAD
1000
DSTYLE
1002
{
1070
   140
1040
3.5
1070
    40
1040
1.0
1070
   340
1005
10
1002
}
  0
LINE
  5
130A7
330
1A
100
AcDbEntity
  8
ZISSEN1
100
AcDbLine
 10
-1534.987932415161
 20
1733.358817223037
 30
0.0
 11
-1534.987932415161
 21
1713.458817223037
 31
0.0
  0
LINE
  5
130A8
330
1A
100
AcDbEntity
  8
ZISSEN1
100
AcDbLine
 10
-1537.88793241543
 20
1751.758817223037
 30
0.0
 11
-1537.88793241543
 21
1682.758817223038
 31
0.0
  0
LINE
  5
130A9
330
1A
100
AcDbEntity
  8
ZISSEN1
100
AcDbLine
 10
-1649.487932415705
 20
1751.758817223037
 30
0.0
 11
-1649.487932415705
 21
1682.758817223037
 31
0.0
  0
CIRCLE
  5
130AA
330
1A
100
AcDbEntity
  8
ZISSEN1
100
AcDbCircle
 10
-1592.387932415429
 20
1686.758817223036
 30
0.0
 40
3.149999999999999
  0
LINE
  5
130AB
330
1A
100
AcDbEntity
  8
ZISSEN1
100
AcDbLine
 10
-1595.387932415427
 20
1690.758817223036
 30
0.0
 11
-1589.387932415428
 21
1690.758817223036
 31
0.0
  0
LINE
  5
130AC
330
1A
100
AcDbEntity
  8
ZISSEN1
100
AcDbLine
 10
-1657.187932415429
 20
1680.258817223037
 30
0.0
 11
-1530.187932415431
 21
1680.258817223037
 31
0.0
  0
LINE
  5
130AD
330
1A
100
AcDbEntity
  8
ZISSEN1
100
AcDbLine
 10
-1657.187932415429
 20
1677.258817223037
 30
0.0
 11
-1530.187932415431
 21
1677.258817223037
 31
0.0
  0
LINE
  5
130AE
330
1A
100
AcDbEntity
  8
ZISSEN1
100
AcDbLine
 10
-1637.737932415159
 20
1686.208817223038
 30
0.0
 11
-1623.837932415158
 21
1686.208817223038
 31
0.0
  0
LINE
  5
130AF
330
1A
100
AcDbEntity
  8
ZISSEN1
100
AcDbLine
 10
-1639.787932415432
 20
1682.758817223037
 30
0.0
 11
-1605.88793241543
 21
1682.758817223037
 31
0.0
  0
LINE
  5
130B0
330
1A
100
AcDbEntity
  8
ZISSEN1
100
AcDbLine
 10
-1638.78793241543
 20
1687.758817223037
 30
0.0
 11
-1606.887932415428
 21
1687.758817223037
 31
0.0
  0
ARC
  5
130B1
330
1A
100
AcDbEntity
  8
ZISSEN1
100
AcDbCircle
 10
-1684.062572441862
 20
1686.758824278004
 30
0.0
 40
5.174628988598421
100
AcDbArc
 50
323.7083018726678
 51
36.29169812733219
  0
LINE
  5
130B2
330
1A
100
AcDbEntity
  8
ZISSEN1
100
AcDbLine
 10
-1637.737932415159
 20
1686.208817223038
 30
0.0
 11
-1637.737932415159
 21
1682.758817223037
 31
0.0
  0
LINE
  5
130B3
330
1A
100
AcDbEntity
  8
ZISSEN1
100
AcDbLine
 10
-1636.78793241543
 20
1677.258817223037
 30
0.0
 11
-1636.78793241543
 21
1680.258817223037
 31
0.0
  0
LINE
  5
130B4
330
1A
100
AcDbEntity
  8
ZISSEN1
100
AcDbLine
 10
-1637.78793241543
 20
1677.258817223037
 30
0.0
 11
-1637.78793241543
 21
1680.258817223037
 31
0.0
  0
LINE
  5
130B5
330
1A
100
AcDbEntity
  8
ZISSEN1
100
AcDbLine
 10
-1647.687932415427
 20
1677.258817223037
 30
0.0
 11
-1647.687932415427
 21
1680.258817223037
 31
0.0
  0
LINE
  5
130B6
330
1A
100
AcDbEntity
  8
ZISSEN1
100
AcDbLine
 10
-1649.687932415427
 20
1677.258817223037
 30
0.0
 11
-1649.687932415427
 21
1680.258817223037
 31
0.0
  0
LINE
  5
130B7
330
1A
100
AcDbEntity
  8
ZISSEN1
100
AcDbLine
 10
-1655.187932415429
 20
1677.258817223037
 30
0.0
 11
-1655.187932415429
 21
1680.258817223037
 31
0.0
  0
LINE
  5
130B8
330
1A
100
AcDbEntity
  8
ZISSEN1
100
AcDbLine
 10
-1657.187932415429
 20
1677.258817223037
 30
0.0
 11
-1657.187932415429
 21
1680.258817223037
 31
0.0
  0
LINE
  5
130B9
330
1A
100
AcDbEntity
  8
ZISSEN1
100
AcDbLine
 10
-1649.487932415705
 20
1682.758817223037
 30
0.0
 11
-1649.487932415705
 21
1680.258817223037
 31
0.0
  0
LINE
  5
130BA
330
1A
100
AcDbEntity
  8
ZISSEN1
100
AcDbLine
 10
-1638.787932415431
 20
1683.758817223037
 30
0.0
 11
-1639.787932415432
 21
1682.758817223037
 31
0.0
  0
LINE
  5
130BB
330
1A
100
AcDbEntity
  8
ZISSEN1
100
AcDbLine
 10
-1638.78793241543
 20
1687.758817223037
 30
0.0
 11
-1638.787932415431
 21
1683.758817223038
 31
0.0
  0
LINE
  5
130BC
330
1A
100
AcDbEntity
  8
ZISSEN1
100
AcDbLine
 10
-1648.687932415706
 20
1680.258817223037
 30
0.0
 11
-1648.687932415704
 21
1682.758817223037
 31
0.0
  0
LINE
  5
130BD
330
1A
100
AcDbEntity
  8
ZISSEN1
100
AcDbLine
 10
-1649.487932415705
 20
1682.758817223037
 30
0.0
 11
-1648.687932415704
 21
1682.758817223037
 31
0.0
  0
LINE
  5
130BE
330
1A
100
AcDbEntity
  8
ZISSEN1
100
AcDbLine
 10
-1639.787932415432
 20
1682.758817223037
 30
0.0
 11
-1648.687932415704
 21
1682.758817223037
 31
0.0
  0
LINE
  5
130BF
330
1A
100
AcDbEntity
  8
ZISSEN1
100
AcDbLine
 10
-1621.83793241516
 20
1686.208817223038
 30
0.0
 11
-1607.937932415159
 21
1686.208817223038
 31
0.0
  0
LINE
  5
130C0
330
1A
100
AcDbEntity
  8
ZISSEN1
100
AcDbLine
 10
-1621.83793241516
 20
1686.208817223038
 30
0.0
 11
-1621.83793241516
 21
1682.758817223037
 31
0.0
  0
LINE
  5
130C1
330
1A
100
AcDbEntity
  8
ZISSEN1
100
AcDbLine
 10
-1623.837932415158
 20
1686.208817223038
 30
0.0
 11
-1623.837932415158
 21
1682.758817223037
 31
0.0
  0
LINE
  5
130C2
330
1A
100
AcDbEntity
  8
ZISSEN1
100
AcDbLine
 10
-1607.937932415159
 20
1686.208817223038
 30
0.0
 11
-1607.937932415159
 21
1682.758817223037
 31
0.0
  0
LINE
  5
130C3
330
1A
100
AcDbEntity
  8
ZISSEN1
100
AcDbLine
 10
-1607.887932415428
 20
1677.258817223037
 30
0.0
 11
-1607.887932415428
 21
1680.258817223037
 31
0.0
  0
LINE
  5
130C4
330
1A
100
AcDbEntity
  8
ZISSEN1
100
AcDbLine
 10
-1608.887932415428
 20
1677.258817223037
 30
0.0
 11
-1608.887932415428
 21
1680.258817223037
 31
0.0
  0
ARC
  5
130C5
330
1A
100
AcDbEntity
  8
ZISSEN1
100
AcDbCircle
 10
-1595.387932415427
 20
1689.758817223036
 30
0.0
 40
1.0
100
AcDbArc
 50
90.0
 51
180.0
  0
LINE
  5
130C6
330
1A
100
AcDbEntity
  8
ZISSEN1
100
AcDbLine
 10
-1596.38793241543
 20
1680.258817223037
 30
0.0
 11
-1596.387932415426
 21
1689.758817223036
 31
0.0
  0
LINE
  5
130C7
330
1A
100
AcDbEntity
  8
ZISSEN1
100
AcDbLine
 10
-1606.88793241543
 20
1683.758817223037
 30
0.0
 11
-1605.88793241543
 21
1682.758817223037
 31
0.0
  0
LINE
  5
130C8
330
1A
100
AcDbEntity
  8
ZISSEN1
100
AcDbLine
 10
-1606.887932415428
 20
1687.758817223037
 30
0.0
 11
-1606.88793241543
 21
1683.758817223037
 31
0.0
  0
LINE
  5
130C9
330
1A
100
AcDbEntity
  8
ZISSEN1
100
AcDbLine
 10
-1605.88793241543
 20
1682.758817223037
 30
0.0
 11
-1596.387932415428
 21
1682.758817223039
 31
0.0
  0
LINE
  5
130CA
330
1A
100
AcDbEntity
  8
ZISSEN1
100
AcDbLine
 10
-1588.38793241543
 20
1682.75881722304
 30
0.0
 11
-1538.687933262665
 21
1682.758817223038
 31
0.0
  0
ARC
  5
130CB
330
1A
100
AcDbEntity
  8
ZISSEN1
100
AcDbCircle
 10
-1589.387932415428
 20
1689.758817223036
 30
0.0
 40
1.0
100
AcDbArc
 50
0.0
 51
90.0
  0
LINE
  5
130CC
330
1A
100
AcDbEntity
  8
ZISSEN1
100
AcDbLine
 10
-1588.387932415428
 20
1689.758817223036
 30
0.0
 11
-1588.38793241543
 21
1680.258817223037
 31
0.0
  0
LINE
  5
130CD
330
1A
100
AcDbEntity
  8
ZISSEN1
100
AcDbLine
 10
-1531.08793241516
 20
1692.658810029599
 30
0.0
 11
-1531.08793241516
 21
1708.458810029599
 31
0.0
  0
LINE
  5
130CE
330
1A
100
AcDbEntity
  8
ZISSEN1
100
AcDbLine
 10
-1532.187932415431
 20
1677.258817223037
 30
0.0
 11
-1532.187932415431
 21
1680.258817223037
 31
0.0
  0
LINE
  5
130CF
330
1A
100
AcDbEntity
  8
ZISSEN1
100
AcDbLine
 10
-1535.687932415293
 20
1677.258817223037
 30
0.0
 11
-1535.687932415293
 21
1680.258817223037
 31
0.0
  0
LINE
  5
130D0
330
1A
100
AcDbEntity
  8
ZISSEN1
100
AcDbLine
 10
-1537.687932415293
 20
1677.258817223037
 30
0.0
 11
-1537.687932415293
 21
1680.258817223037
 31
0.0
  0
LINE
  5
130D1
330
1A
100
AcDbEntity
  8
ZISSEN1
100
AcDbLine
 10
-1530.187932415431
 20
1680.258817223037
 30
0.0
 11
-1530.187932415431
 21
1677.258817223037
 31
0.0
  0
LINE
  5
130D2
330
1A
100
AcDbEntity
  8
ZISSEN1
100
AcDbLine
 10
-1538.687932415431
 20
1680.258817223038
 30
0.0
 11
-1538.687932415431
 21
1682.758817223038
 31
0.0
  0
LINE
  5
130D3
330
1A
100
AcDbEntity
  8
ZISSEN1
100
AcDbLine
 10
-1537.88793241543
 20
1682.758817223038
 30
0.0
 11
-1537.88793241543
 21
1680.258817223038
 31
0.0
  0
LINE
  5
130D4
330
1A
100
AcDbEntity
  8
ZISSEN1
100
AcDbLine
 10
-1538.687933262665
 20
1682.758817223038
 30
0.0
 11
-1537.88793241543
 21
1682.758817223038
 31
0.0
  0
LINE
  5
130D5
330
1A
100
AcDbEntity
  8
ZISSEN1
100
AcDbLine
 10
-1537.88793241543
 20
1692.658810029599
 30
0.0
 11
-1531.08793241516
 21
1692.658810029599
 31
0.0
  0
LINE
  5
130D6
330
1A
100
AcDbEntity
  8
ZISSEN1
100
AcDbLine
 10
-1534.987932415161
 20
1713.458817223037
 30
0.0
 11
-1537.88793241543
 21
1713.458817223037
 31
0.0
  0
LINE
  5
130D7
330
1A
100
AcDbEntity
  8
ZISSEN1
100
AcDbLine
 10
-1537.88793241543
 20
1708.458810029599
 30
0.0
 11
-1531.08793241516
 21
1708.458810029599
 31
0.0
  0
DIMENSION
  5
130D8
330
1A
100
AcDbEntity
  8
SUNPOU
100
AcDbDimension
  2
*D6
 10
-1657.187932415429
 20
1798.189653996186
 30
0.0
 11
-1593.68793241543
 21
1800.439653996186
 31
0.0
 70
    32
  3
ATSUSHI
100
AcDbAlignedDimension
 13
-1530.187932415431
 23
1840.361588116655
 33
0.0
 14
-1657.187932415429
 24
1833.461588116655
 34
0.0
100
AcDbRotatedDimension
1001
ACAD
1000
DSTYLE
1002
{
1070
   140
1040
3.5
1070
    40
1040
1.0
1070
   340
1005
10
1002
}
  0
LINE
  5
130D9
330
1A
100
AcDbEntity
  8
ZISSEN1
100
AcDbLine
 10
-1594.387932415159
 20
1754.558817223037
 30
0.0
 11
-1538.88793241543
 21
1754.558817223037
 31
0.0
  0
DIMENSION
  5
130DA
330
1A
100
AcDbEntity
  8
SUNPOU
100
AcDbDimension
  2
*D7
 10
-1537.88793241543
 20
1816.461588116655
 30
0.0
 11
-1593.68793241543
 21
1818.711588116654
 31
0.0
 70
    32
  3
ATSUSHI
100
AcDbAlignedDimension
 13
-1649.487932415429
 23
1827.261588116654
 33
0.0
 14
-1537.88793241543
 24
1827.261588116654
 34
0.0
100
AcDbRotatedDimension
1001
ACAD
1000
DSTYLE
1002
{
1070
   140
1040
3.5
1070
    40
1040
1.0
1070
   340
1005
10
1002
}
  0
LINE
  5
130DB
330
1A
100
AcDbEntity
  8
ZISSEN1
100
AcDbLine
 10
-1591.387986944267
 20
1832.861588116655
 30
0.0
 11
-1544.687986944266
 21
1832.861588116655
 31
0.0
  0
LINE
  5
130DC
330
1A
100
AcDbEntity
  8
ZISSEN1
100
AcDbLine
 10
-1573.487932415429
 20
1839.561588116656
 30
0.0
 11
-1590.887932415428
 21
1839.561588116656
 31
0.0
  0
LINE
  5
130DD
330
1A
100
AcDbEntity
  8
ZISSEN1
100
AcDbLine
 10
-1596.387932415428
 20
1825.661588116652
 30
0.0
 11
-1588.387932415432
 21
1825.661588116657
 31
0.0
  0
ARC
  5
130DE
330
1A
100
AcDbEntity
  8
ZISSEN1
100
AcDbCircle
 10
-1592.387932415428
 20
1828.836217105253
 30
0.0
 40
5.174628988598421
100
AcDbArc
 50
233.7083018725844
 51
306.2916981274155
  0
LINE
  5
130DF
330
1A
100
AcDbEntity
  8
ZISSEN1
100
AcDbLine
 10
-1590.887932415157
 20
1757.458817223037
 30
0.0
 11
-1573.487932415158
 21
1757.458817223037
 31
0.0
  0
LINE
  5
130E0
330
1A
100
AcDbEntity
  8
ZISSEN1
100
AcDbLine
 10
-1538.88792050112
 20
1827.261588116654
 30
0.0
 11
-1593.88792050112
 21
1827.261588116654
 31
0.0
  0
LINE
  5
130E1
330
1A
100
AcDbEntity
  8
ZISSEN1
100
AcDbLine
 10
-1544.687932415429
 20
1832.361588116654
 30
0.0
 11
-1591.38793241543
 21
1832.361588116654
 31
0.0
  0
LINE
  5
130E2
330
1A
100
AcDbEntity
  8
ZISSEN1
100
AcDbLine
 10
-1538.687932415429
 20
1826.461588116655
 30
0.0
 11
-1648.687932415429
 21
1826.461588116655
 31
0.0
  0
LINE
  5
130E3
330
1A
100
AcDbEntity
  8
ZISSEN1
100
AcDbLine
 10
-1591.389044803679
 20
1842.561588116653
 30
0.0
 11
-1544.68904480368
 21
1842.561588116653
 31
0.0
  0
LINE
  5
130E4
330
1A
100
AcDbEntity
  8
ZISSEN1
100
AcDbLine
 10
-1640.437932415431
 20
1759.758817223037
 30
0.0
 11
-1625.837932415433
 21
1759.758817223037
 31
0.0
  0
LINE
  5
130E5
330
1A
100
AcDbEntity
  8
ZISSEN1
100
AcDbLine
 10
-1637.737932415701
 20
1751.258817223037
 30
0.0
 11
-1610.737932415702
 21
1751.258817223037
 31
0.0
  0
LINE
  5
130E6
330
1A
100
AcDbEntity
  8
ZISSEN1
100
AcDbLine
 10
-1610.737932415702
 20
1753.758817223038
 30
0.0
 11
-1637.737932415701
 21
1753.758817223038
 31
0.0
  0
LINE
  5
130E7
330
1A
100
AcDbEntity
  8
ZISSEN1
100
AcDbLine
 10
-1648.487932415705
 20
1754.558817223037
 30
0.0
 11
-1602.88793241543
 21
1754.558817223037
 31
0.0
  0
LINE
  5
130E8
330
1A
100
AcDbEntity
  8
ZISSEN1
100
AcDbLine
 10
-1641.687932415431
 20
1757.258817223038
 30
0.0
 11
-1595.387932415159
 21
1757.258817223038
 31
0.0
  0
LINE
  5
130E9
330
1A
100
AcDbEntity
  8
ZISSEN1
100
AcDbLine
 10
-1637.737932415701
 20
1751.258817223037
 30
0.0
 11
-1637.737932415701
 21
1754.558817223037
 31
0.0
  0
LINE
  5
130EA
330
1A
100
AcDbEntity
  8
ZISSEN1
100
AcDbLine
 10
-1648.487932415705
 20
1754.558817223037
 30
0.0
 11
-1648.487932415705
 21
1751.758817223037
 31
0.0
  0
LINE
  5
130EB
330
1A
100
AcDbEntity
  8
ZISSEN1
100
AcDbLine
 10
-1648.687932415431
 20
1752.758817223037
 30
0.0
 11
-1648.487932415705
 21
1752.958817222763
 31
0.0
  0
LINE
  5
130EC
330
1A
100
AcDbEntity
  8
ZISSEN1
100
AcDbLine
 10
-1648.687932415704
 20
1751.758817223037
 30
0.0
 11
-1648.687932415431
 21
1752.758817223037
 31
0.0
  0
LINE
  5
130ED
330
1A
100
AcDbEntity
  8
ZISSEN1
100
AcDbLine
 10
-1648.487932415705
 20
1751.758817223037
 30
0.0
 11
-1649.487932415705
 21
1751.758817223037
 31
0.0
  0
ARC
  5
130EE
330
1A
100
AcDbEntity
  8
ZISSEN1
100
AcDbCircle
 10
-1648.18792985429
 20
1755.258817223038
 30
0.0
 40
1.0
100
AcDbArc
 50
315.5729959992644
 51
0.0
  0
LINE
  5
130EF
330
1A
100
AcDbEntity
  8
ZISSEN1
100
AcDbLine
 10
-1645.187929854291
 20
1755.258817223037
 30
0.0
 11
-1645.187929854291
 21
1754.558817223037
 31
0.0
  0
LINE
  5
130F0
330
1A
100
AcDbEntity
  8
ZISSEN1
100
AcDbLine
 10
-1647.187929854291
 20
1755.258817223037
 30
0.0
 11
-1645.187929854291
 21
1755.258817223037
 31
0.0
  0
ARC
  5
130F1
330
1A
100
AcDbEntity
  8
ZISSEN1
100
AcDbCircle
 10
-1642.687932415431
 20
1757.258817223038
 30
0.0
 40
1.0
100
AcDbArc
 50
270.0
 51
0.0
  0
LINE
  5
130F2
330
1A
100
AcDbEntity
  8
ZISSEN1
100
AcDbLine
 10
-1640.437932415431
 20
1757.258817223038
 30
0.0
 11
-1640.437932415431
 21
1759.758817223037
 31
0.0
  0
LINE
  5
130F3
330
1A
100
AcDbEntity
  8
ZISSEN1
100
AcDbLine
 10
-1642.687932415431
 20
1754.558817223037
 30
0.0
 11
-1642.687932415431
 21
1756.258817223038
 31
0.0
  0
LINE
  5
130F4
330
1A
100
AcDbEntity
  8
ZISSEN1
100
AcDbLine
 10
-1595.077932415154
 20
1749.558817223037
 30
0.0
 11
-1595.077932415154
 21
1755.098817223038
 31
0.0
  0
LINE
  5
130F5
330
1A
100
AcDbEntity
  8
ZISSEN1
100
AcDbLine
 10
-1601.677932415156
 20
1755.098817223038
 30
0.0
 11
-1601.677932415156
 21
1749.558817223037
 31
0.0
  0
LINE
  5
130F6
330
1A
100
AcDbEntity
  8
ZISSEN1
100
AcDbLine
 10
-1594.387932415159
 20
1753.758817223035
 30
0.0
 11
-1594.387932415159
 21
1756.258817223038
 31
0.0
  0
LINE
  5
130F7
330
1A
100
AcDbEntity
  8
ZISSEN1
100
AcDbLine
 10
-1610.737932415702
 20
1751.258817223037
 30
0.0
 11
-1610.737932415702
 21
1754.558817223037
 31
0.0
  0
LINE
  5
130F8
330
1A
100
AcDbEntity
  8
ZISSEN1
100
AcDbLine
 10
-1593.88793241543
 20
1749.558817223037
 30
0.0
 11
-1593.88793241543
 21
1754.558817223037
 31
0.0
  0
LINE
  5
130F9
330
1A
100
AcDbEntity
  8
ZISSEN1
100
AcDbLine
 10
-1602.88793241543
 20
1754.558817223037
 30
0.0
 11
-1602.88793241543
 21
1749.558817223037
 31
0.0
  0
ARC
  5
130FA
330
1A
100
AcDbEntity
  8
ZISSEN1
100
AcDbCircle
 10
-1593.887932415163
 20
1753.758817223034
 30
0.0
 40
0.4999999999963621
100
AcDbArc
 50
179.9999999998436
 51
270.0000000004168
  0
LINE
  5
130FB
330
1A
100
AcDbEntity
  8
ZISSEN1
100
AcDbLine
 10
-1602.88793241543
 20
1749.558817223037
 30
0.0
 11
-1593.88793241543
 21
1749.558817223037
 31
0.0
  0
LINE
  5
130FC
330
1A
100
AcDbEntity
  8
ZISSEN1
100
AcDbLine
 10
-1594.387932415159
 20
1753.758817223038
 30
0.0
 11
-1593.88793241543
 21
1753.758817223038
 31
0.0
  0
LINE
  5
130FD
330
1A
100
AcDbEntity
  8
ZISSEN1
100
AcDbLine
 10
-1622.637932415432
 20
1759.758817223037
 30
0.0
 11
-1608.037932415431
 21
1759.758817223037
 31
0.0
  0
LINE
  5
130FE
330
1A
100
AcDbEntity
  8
ZISSEN1
100
AcDbLine
 10
-1622.637932415432
 20
1757.958817223037
 30
0.0
 11
-1625.837932415431
 21
1757.958817223037
 31
0.0
  0
LINE
  5
130FF
330
1A
100
AcDbEntity
  8
ZISSEN1
100
AcDbLine
 10
-1622.637932415432
 20
1757.258817223038
 30
0.0
 11
-1622.637932415432
 21
1759.758817223037
 31
0.0
  0
LINE
  5
13100
330
1A
100
AcDbEntity
  8
ZISSEN1
100
AcDbLine
 10
-1625.837932415433
 20
1759.758817223037
 30
0.0
 11
-1625.837932415433
 21
1757.258817223038
 31
0.0
  0
LINE
  5
13101
330
1A
100
AcDbEntity
  8
ZISSEN1
100
AcDbLine
 10
-1595.077932415154
 20
1755.098817223038
 30
0.0
 11
-1601.677932415156
 21
1755.098817223038
 31
0.0
  0
LINE
  5
13102
330
1A
100
AcDbEntity
  8
ZISSEN1
100
AcDbLine
 10
-1607.187932999354
 20
1757.958817223038
 30
0.0
 11
-1607.187932999354
 21
1757.258817223038
 31
0.0
  0
LINE
  5
13103
330
1A
100
AcDbEntity
  8
ZISSEN1
100
AcDbLine
 10
-1608.037932415431
 20
1757.958817223038
 30
0.0
 11
-1607.187932999354
 21
1757.958817223038
 31
0.0
  0
LINE
  5
13104
330
1A
100
AcDbEntity
  8
ZISSEN1
100
AcDbLine
 10
-1590.887932415157
 20
1754.558817223037
 30
0.0
 11
-1590.887932415157
 21
1757.458817223037
 31
0.0
  0
ARC
  5
13105
330
1A
100
AcDbEntity
  8
ZISSEN1
100
AcDbCircle
 10
-1594.387932415159
 20
1757.258817223038
 30
0.0
 40
1.0
100
AcDbArc
 50
180.0
 51
270.0
  0
LINE
  5
13106
330
1A
100
AcDbEntity
  8
ZISSEN1
100
AcDbLine
 10
-1608.037932415431
 20
1759.758817223037
 30
0.0
 11
-1608.037932415431
 21
1757.258817223038
 31
0.0
  0
LINE
  5
13107
330
1A
100
AcDbEntity
  8
ZISSEN1
100
AcDbLine
 10
-1643.187932415704
 20
1831.261588116655
 30
0.0
 11
-1593.88792050112
 21
1831.261588116655
 31
0.0
  0
LINE
  5
13108
330
1A
100
AcDbEntity
  8
ZISSEN1
100
AcDbLine
 10
-1643.167929270367
 20
1832.861588116655
 30
0.0
 11
-1593.887932415434
 21
1832.861588116655
 31
0.0
  0
LINE
  5
13109
330
1A
100
AcDbEntity
  8
ZISSEN1
100
AcDbLine
 10
-1643.187919569452
 20
1830.261588116654
 30
0.0
 11
-1602.887920501122
 21
1830.261588116654
 31
0.0
  0
LINE
  5
1310A
330
1A
100
AcDbEntity
  8
ZISSEN1
100
AcDbLine
 10
-1637.73793241543
 20
1831.221588116656
 30
0.0
 11
-1623.837932415431
 21
1831.221588116656
 31
0.0
  0
LINE
  5
1310B
330
1A
100
AcDbEntity
  8
ZISSEN1
100
AcDbLine
 10
-1637.73793241543
 20
1831.221588116656
 30
0.0
 11
-1637.73793241543
 21
1830.261588116655
 31
0.0
  0
LINE
  5
1310C
330
1A
100
AcDbEntity
  8
ZISSEN1
100
AcDbLine
 10
-1642.687932415704
 20
1830.761588116655
 30
0.0
 11
-1642.687932415704
 21
1831.261588116655
 31
0.0
  0
LINE
  5
1310D
330
1A
100
AcDbEntity
  8
ZISSEN1
100
AcDbLine
 10
-1643.187919569452
 20
1830.761588116655
 30
0.0
 11
-1642.687932415704
 21
1830.761588116655
 31
0.0
  0
LINE
  5
1310E
330
1A
100
AcDbEntity
  8
ZISSEN1
100
AcDbLine
 10
-1642.787932415703
 20
1830.261588116655
 30
0.0
 11
-1642.787932415703
 21
1830.761588116655
 31
0.0
  0
LINE
  5
1310F
330
1A
100
AcDbEntity
  8
ZISSEN1
100
AcDbLine
 10
-1641.687932415704
 20
1831.261588116655
 30
0.0
 11
-1641.687932415704
 21
1832.861588116655
 31
0.0
  0
LINE
  5
13110
330
1A
100
AcDbEntity
  8
ZISSEN1
100
AcDbLine
 10
-1642.687932415704
 20
1831.261588116655
 30
0.0
 11
-1642.687932415704
 21
1832.861588116655
 31
0.0
  0
LINE
  5
13111
330
1A
100
AcDbEntity
  8
ZISSEN1
100
AcDbLine
 10
-1649.687932415427
 20
1831.461588116655
 30
0.0
 11
-1649.687932415427
 21
1828.461588116655
 31
0.0
  0
LINE
  5
13112
330
1A
100
AcDbEntity
  8
ZISSEN1
100
AcDbLine
 10
-1655.187932415429
 20
1831.461588116655
 30
0.0
 11
-1649.687932415427
 21
1831.461588116655
 31
0.0
  0
LINE
  5
13113
330
1A
100
AcDbEntity
  8
ZISSEN1
100
AcDbLine
 10
-1648.48792047241
 20
1827.261588116655
 30
0.0
 11
-1649.48793241543
 21
1827.261588116655
 31
0.0
  0
ARC
  5
13114
330
1A
100
AcDbEntity
  8
ZISSEN1
100
AcDbCircle
 10
-1648.687932415429
 20
1827.261588116655
 30
0.0
 40
0.8
100
AcDbArc
 50
180.0
 51
270.0
  0
LINE
  5
13115
330
1A
100
AcDbEntity
  8
ZISSEN1
100
AcDbLine
 10
-1649.687932415427
 20
1828.461588116655
 30
0.0
 11
-1647.687932415427
 21
1826.461588116655
 31
0.0
  0
LINE
  5
13116
330
1A
100
AcDbEntity
  8
ZISSEN1
100
AcDbLine
 10
-1657.187932415429
 20
1833.461588116655
 30
0.0
 11
-1655.187932415429
 21
1831.461588116655
 31
0.0
  0
LINE
  5
13117
330
1A
100
AcDbEntity
  8
ZISSEN1
100
AcDbLine
 10
-1621.837932415431
 20
1831.221588116656
 30
0.0
 11
-1607.937932415431
 21
1831.221588116656
 31
0.0
  0
LINE
  5
13118
330
1A
100
AcDbEntity
  8
ZISSEN1
100
AcDbLine
 10
-1621.837932415431
 20
1831.221588116656
 30
0.0
 11
-1621.837932415431
 21
1830.261588116655
 31
0.0
  0
LINE
  5
13119
330
1A
100
AcDbEntity
  8
ZISSEN1
100
AcDbLine
 10
-1623.837932415431
 20
1831.221588116656
 30
0.0
 11
-1623.837932415431
 21
1830.261588116655
 31
0.0
  0
LINE
  5
1311A
330
1A
100
AcDbEntity
  8
ZISSEN1
100
AcDbLine
 10
-1601.677932814043
 20
1828.911582341398
 30
0.0
 11
-1595.077932814045
 21
1828.911584341397
 31
0.0
  0
LINE
  5
1311B
330
1A
100
AcDbEntity
  8
ZISSEN1
100
AcDbLine
 10
-1601.677932814043
 20
1828.911582341398
 30
0.0
 11
-1601.677932814043
 21
1831.261586341398
 31
0.0
  0
LINE
  5
1311C
330
1A
100
AcDbEntity
  8
ZISSEN1
100
AcDbLine
 10
-1595.077932814045
 20
1828.911584341397
 30
0.0
 11
-1595.077932814045
 21
1831.261588341398
 31
0.0
  0
LINE
  5
1311D
330
1A
100
AcDbEntity
  8
ZISSEN1
100
AcDbLine
 10
-1595.077932415427
 20
1835.211588116655
 30
0.0
 11
-1595.077930991182
 21
1832.861584116656
 31
0.0
  0
LINE
  5
1311E
330
1A
100
AcDbEntity
  8
ZISSEN1
100
AcDbLine
 10
-1601.677932415426
 20
1835.211586116655
 30
0.0
 11
-1601.677930991181
 21
1832.861582116656
 31
0.0
  0
LINE
  5
1311F
330
1A
100
AcDbEntity
  8
ZISSEN1
100
AcDbLine
 10
-1601.677932415426
 20
1835.211586116655
 30
0.0
 11
-1595.077932415427
 21
1835.211588116655
 31
0.0
  0
LINE
  5
13120
330
1A
100
AcDbEntity
  8
ZISSEN1
100
AcDbLine
 10
-1607.937932415431
 20
1831.221588116656
 30
0.0
 11
-1607.937932415431
 21
1830.261588116655
 31
0.0
  0
LINE
  5
13121
330
1A
100
AcDbEntity
  8
ZISSEN1
100
AcDbLine
 10
-1594.38793241543
 20
1831.261588116655
 30
0.0
 11
-1594.38793241543
 21
1832.861588116655
 31
0.0
  0
LINE
  5
13122
330
1A
100
AcDbEntity
  8
ZISSEN1
100
AcDbLine
 10
-1595.38793241543
 20
1831.261588116655
 30
0.0
 11
-1595.38793241543
 21
1832.861588116655
 31
0.0
  0
LINE
  5
13123
330
1A
100
AcDbEntity
  8
ZISSEN1
100
AcDbLine
 10
-1595.387932415428
 20
1825.661588116654
 30
0.0
 11
-1595.387932415428
 21
1826.461588116654
 31
0.0
  0
LINE
  5
13124
330
1A
100
AcDbEntity
  8
ZISSEN1
100
AcDbLine
 10
-1596.387932415428
 20
1826.461588116653
 30
0.0
 11
-1596.387932415428
 21
1825.661588116652
 31
0.0
  0
LINE
  5
13125
330
1A
100
AcDbEntity
  8
ZISSEN1
100
AcDbLine
 10
-1593.88792050112
 20
1842.561588116654
 30
0.0
 11
-1602.88792050112
 21
1842.561588116654
 31
0.0
  0
LINE
  5
13126
330
1A
100
AcDbEntity
  8
ZISSEN1
100
AcDbLine
 10
-1593.88792050112
 20
1842.561588116654
 30
0.0
 11
-1593.88792050112
 21
1826.461588116655
 31
0.0
  0
LINE
  5
13127
330
1A
100
AcDbEntity
  8
ZISSEN1
100
AcDbLine
 10
-1595.53793241543
 20
1825.661588116654
 30
0.0
 11
-1595.450776672681
 21
1824.665393418561
 31
0.0
  0
LINE
  5
13128
330
1A
100
AcDbEntity
  8
ZISSEN1
100
AcDbLine
 10
-1602.887920501122
 20
1830.261588116654
 30
0.0
 11
-1602.887920501122
 21
1826.461588116654
 31
0.0
  0
LINE
  5
13129
330
1A
100
AcDbEntity
  8
ZISSEN1
100
AcDbLine
 10
-1602.88792050112
 20
1842.561588116653
 30
0.0
 11
-1602.88792050112
 21
1836.361588116653
 31
0.0
  0
LINE
  5
1312A
330
1A
100
AcDbEntity
  8
ZISSEN1
100
AcDbLine
 10
-1602.887920501122
 20
1827.261588116654
 30
0.0
 11
-1593.88792050112
 21
1827.261588116654
 31
0.0
  0
LINE
  5
1312B
330
1A
100
AcDbEntity
  8
ZISSEN1
100
AcDbLine
 10
-1591.38793241543
 20
1832.361588116654
 30
0.0
 11
-1591.389044803679
 21
1842.561588116653
 31
0.0
  0
LINE
  5
1312C
330
1A
100
AcDbEntity
  8
ZISSEN1
100
AcDbLine
 10
-1602.88792050112
 20
1836.361588116653
 30
0.0
 11
-1607.037932415704
 21
1836.361588116653
 31
0.0
  0
LINE
  5
1312D
330
1A
100
AcDbEntity
  8
ZISSEN1
100
AcDbLine
 10
-1590.887932415428
 20
1839.561588116656
 30
0.0
 11
-1590.887932415428
 21
1832.861588116655
 31
0.0
  0
LINE
  5
1312E
330
1A
100
AcDbEntity
  8
ZISSEN1
100
AcDbLine
 10
-1555.087929737544
 20
1757.458817879323
 30
0.0
 11
-1545.187929737546
 21
1757.458817879323
 31
0.0
  0
LINE
  5
1312F
330
1A
100
AcDbEntity
  8
ZISSEN1
100
AcDbLine
 10
-1560.337932415431
 20
1751.258817223037
 30
0.0
 11
-1560.337932415431
 21
1754.558817223037
 31
0.0
  0
LINE
  5
13130
330
1A
100
AcDbEntity
  8
ZISSEN1
100
AcDbLine
 10
-1550.337932415431
 20
1751.258817223037
 30
0.0
 11
-1550.337932415431
 21
1754.558817223038
 31
0.0
  0
LINE
  5
13131
330
1A
100
AcDbEntity
  8
ZISSEN1
100
AcDbLine
 10
-1568.237932415429
 20
1751.258817223037
 30
0.0
 11
-1568.237932415429
 21
1754.558817223037
 31
0.0
  0
LINE
  5
13132
330
1A
100
AcDbEntity
  8
ZISSEN1
100
AcDbLine
 10
-1578.237932415428
 20
1754.558817223037
 30
0.0
 11
-1578.237932415428
 21
1751.258817223037
 31
0.0
  0
LINE
  5
13133
330
1A
100
AcDbEntity
  8
ZISSEN1
100
AcDbLine
 10
-1578.237932415428
 20
1753.758817223038
 30
0.0
 11
-1568.237932415429
 21
1753.758817223038
 31
0.0
  0
LINE
  5
13134
330
1A
100
AcDbEntity
  8
ZISSEN1
100
AcDbLine
 10
-1578.237932415428
 20
1751.258817223037
 30
0.0
 11
-1568.237932415429
 21
1751.258817223037
 31
0.0
  0
LINE
  5
13135
330
1A
100
AcDbEntity
  8
ZISSEN1
100
AcDbLine
 10
-1571.13793241543
 20
1753.258817223038
 30
0.0
 11
-1571.13793241543
 21
1752.258817223038
 31
0.0
  0
LINE
  5
13136
330
1A
100
AcDbEntity
  8
ZISSEN1
100
AcDbLine
 10
-1575.337932415431
 20
1753.258817223038
 30
0.0
 11
-1575.337932415431
 21
1752.258817223038
 31
0.0
  0
ARC
  5
13137
330
1A
100
AcDbEntity
  8
ZISSEN1
100
AcDbCircle
 10
-1575.837932415431
 20
1753.258817223038
 30
0.0
 40
0.5
100
AcDbArc
 50
0.0
 51
90.0
  0
ARC
  5
13138
330
1A
100
AcDbEntity
  8
ZISSEN1
100
AcDbCircle
 10
-1570.63793241543
 20
1753.258817223038
 30
0.0
 40
0.5
100
AcDbArc
 50
90.0
 51
180.0
  0
LINE
  5
13139
330
1A
100
AcDbEntity
  8
ZISSEN1
100
AcDbLine
 10
-1575.337932415431
 20
1752.258817223038
 30
0.0
 11
-1571.13793241543
 21
1752.258817223038
 31
0.0
  0
LINE
  5
1313A
330
1A
100
AcDbEntity
  8
ZISSEN1
100
AcDbLine
 10
-1560.337932415431
 20
1753.758817223038
 30
0.0
 11
-1550.337932415431
 21
1753.758817223038
 31
0.0
  0
LINE
  5
1313B
330
1A
100
AcDbEntity
  8
ZISSEN1
100
AcDbLine
 10
-1560.337932415431
 20
1751.258817223037
 30
0.0
 11
-1550.337932415431
 21
1751.258817223037
 31
0.0
  0
ARC
  5
1313C
330
1A
100
AcDbEntity
  8
ZISSEN1
100
AcDbCircle
 10
-1552.737932415432
 20
1753.258817223038
 30
0.0
 40
0.5
100
AcDbArc
 50
90.0
 51
180.0
  0
LINE
  5
1313D
330
1A
100
AcDbEntity
  8
ZISSEN1
100
AcDbLine
 10
-1557.437932415429
 20
1752.258817223037
 30
0.0
 11
-1553.237932415432
 21
1752.258817223037
 31
0.0
  0
ARC
  5
1313E
330
1A
100
AcDbEntity
  8
ZISSEN1
100
AcDbCircle
 10
-1557.937932415429
 20
1753.258817223038
 30
0.0
 40
0.5
100
AcDbArc
 50
0.0
 51
90.0
  0
LINE
  5
1313F
330
1A
100
AcDbEntity
  8
ZISSEN1
100
AcDbLine
 10
-1557.437932415429
 20
1753.258817223037
 30
0.0
 11
-1557.437932415429
 21
1752.258817223037
 31
0.0
  0
LINE
  5
13140
330
1A
100
AcDbEntity
  8
ZISSEN1
100
AcDbLine
 10
-1553.237932415432
 20
1753.258817223037
 30
0.0
 11
-1553.237932415432
 21
1752.258817223037
 31
0.0
  0
LINE
  5
13141
330
1A
100
AcDbEntity
  8
ZISSEN1
100
AcDbLine
 10
-1574.787932415431
 20
1757.958817223037
 30
0.0
 11
-1559.887932415432
 21
1757.958817223037
 31
0.0
  0
LINE
  5
13142
330
1A
100
AcDbEntity
  8
ZISSEN1
100
AcDbLine
 10
-1572.987932415158
 20
1757.458817223037
 30
0.0
 11
-1555.587932415158
 21
1757.458817223037
 31
0.0
  0
LINE
  5
13143
330
1A
100
AcDbEntity
  8
ZISSEN1
100
AcDbLine
 10
-1574.787932415431
 20
1757.458817223037
 30
0.0
 11
-1574.787932415431
 21
1757.958817223037
 31
0.0
  0
LINE
  5
13144
330
1A
100
AcDbEntity
  8
ZISSEN1
100
AcDbLine
 10
-1573.487932415158
 20
1757.258817223037
 30
0.0
 11
-1572.987932415158
 21
1757.258817223037
 31
0.0
  0
LINE
  5
13145
330
1A
100
AcDbEntity
  8
ZISSEN1
100
AcDbLine
 10
-1572.987932415158
 20
1754.558817223037
 30
0.0
 11
-1572.987932415158
 21
1757.458817223037
 31
0.0
  0
LINE
  5
13146
330
1A
100
AcDbEntity
  8
ZISSEN1
100
AcDbLine
 10
-1573.487932415158
 20
1754.558817223037
 30
0.0
 11
-1573.487932415158
 21
1757.458817223037
 31
0.0
  0
LINE
  5
13147
330
1A
100
AcDbEntity
  8
ZISSEN1
100
AcDbLine
 10
-1559.887932415432
 20
1757.958817223037
 30
0.0
 11
-1559.887932415432
 21
1757.458817223037
 31
0.0
  0
LINE
  5
13148
330
1A
100
AcDbEntity
  8
ZISSEN1
100
AcDbLine
 10
-1548.687932415429
 20
1757.958817223038
 30
0.0
 11
-1548.687932415429
 21
1757.458817879323
 31
0.0
  0
LINE
  5
13149
330
1A
100
AcDbEntity
  8
ZISSEN1
100
AcDbLine
 10
-1556.087932415429
 20
1757.958817223038
 30
0.0
 11
-1548.687932415429
 21
1757.958817223038
 31
0.0
  0
LINE
  5
1314A
330
1A
100
AcDbEntity
  8
ZISSEN1
100
AcDbLine
 10
-1556.087932415429
 20
1757.458817223037
 30
0.0
 11
-1556.087932415429
 21
1757.958817223038
 31
0.0
  0
LINE
  5
1314B
330
1A
100
AcDbEntity
  8
ZISSEN1
100
AcDbLine
 10
-1555.087932415158
 20
1754.558817223037
 30
0.0
 11
-1555.087932415158
 21
1757.458817879323
 31
0.0
  0
LINE
  5
1314C
330
1A
100
AcDbEntity
  8
ZISSEN1
100
AcDbLine
 10
-1555.587932415158
 20
1757.458817223037
 30
0.0
 11
-1555.587932415158
 21
1754.558817223037
 31
0.0
  0
LINE
  5
1314D
330
1A
100
AcDbEntity
  8
ZISSEN1
100
AcDbLine
 10
-1538.88793241543
 20
1754.558817223037
 30
0.0
 11
-1538.88793241543
 21
1751.758817223037
 31
0.0
  0
LINE
  5
1314E
330
1A
100
AcDbEntity
  8
ZISSEN1
100
AcDbLine
 10
-1537.88793241543
 20
1733.358817223037
 30
0.0
 11
-1534.987932415161
 21
1733.358817223037
 31
0.0
  0
LINE
  5
1314F
330
1A
100
AcDbEntity
  8
ZISSEN1
100
AcDbLine
 10
-1538.687932415431
 20
1752.758817223037
 30
0.0
 11
-1538.88793241543
 21
1752.958817223036
 31
0.0
  0
LINE
  5
13150
330
1A
100
AcDbEntity
  8
ZISSEN1
100
AcDbLine
 10
-1538.687932415431
 20
1751.758817223037
 30
0.0
 11
-1538.687932415431
 21
1752.758817223037
 31
0.0
  0
LINE
  5
13151
330
1A
100
AcDbEntity
  8
ZISSEN1
100
AcDbLine
 10
-1538.88793241543
 20
1751.758817223037
 30
0.0
 11
-1537.88793241543
 21
1751.758817223037
 31
0.0
  0
ARC
  5
13152
330
1A
100
AcDbEntity
  8
ZISSEN1
100
AcDbCircle
 10
-1539.187932415429
 20
1755.258817223038
 30
0.0
 40
1.0
100
AcDbArc
 50
180.0
 51
224.4270040008828
  0
LINE
  5
13153
330
1A
100
AcDbEntity
  8
ZISSEN1
100
AcDbLine
 10
-1542.187932415429
 20
1755.258817223038
 30
0.0
 11
-1540.187932415429
 21
1755.258817223038
 31
0.0
  0
LINE
  5
13154
330
1A
100
AcDbEntity
  8
ZISSEN1
100
AcDbLine
 10
-1542.187932415429
 20
1754.558817223037
 30
0.0
 11
-1542.187932415429
 21
1755.258817223038
 31
0.0
  0
LINE
  5
13155
330
1A
100
AcDbEntity
  8
ZISSEN1
100
AcDbLine
 10
-1545.187929737546
 20
1757.458817879323
 30
0.0
 11
-1545.187930768662
 21
1754.558817223037
 31
0.0
  0
LINE
  5
13156
330
1A
100
AcDbEntity
  8
ZISSEN1
100
AcDbLine
 10
-1545.187929737817
 20
1839.561588116656
 30
0.0
 11
-1555.087932415428
 21
1839.561588116656
 31
0.0
  0
MTEXT
  5
13157
330
1A
100
AcDbEntity
  8
ZISSEN1
  6
BYBLOCK
100
AcDbMText
 10
-1587.665131860663
 20
1812.451793482036
 30
0.0
 40
3.0
 41
44.4205
 71
     1
 72
     5
  1
{\fＭＳ ゴシック|b0|i0|c128|p49;(USER取付寸法)}
  7
ｽﾀｲﾙ2
1001
ACAD
1000
MTEXTBEGIN
1070
    73
1070
     1
1070
    44
1040
1.0
1070
    74
1070
     0
1000
MTEXTEND
  0
LINE
  5
13158
330
1A
100
AcDbEntity
  8
ZISSEN1
100
AcDbLine
 10
-1572.987932415428
 20
1839.561588116656
 30
0.0
 11
-1555.587932415429
 21
1839.561588116656
 31
0.0
  0
CIRCLE
  5
13159
330
1A
100
AcDbEntity
  8
ZISSEN1
100
AcDbCircle
 10
-1573.23793241543
 20
1829.339488487708
 30
0.0
 40
1.3
  0
CIRCLE
  5
1315A
330
1A
100
AcDbEntity
  8
ZISSEN1
100
AcDbCircle
 10
-1573.23793241543
 20
1829.339488487708
 30
0.0
 40
0.9
  0
LINE
  5
1315B
330
1A
100
AcDbEntity
  8
CL1
100
AcDbLine
 10
-1573.23793241543
 20
1832.361588116654
 30
0.0
 11
-1573.23793241543
 21
1827.261588116654
 31
0.0
  0
LINE
  5
1315C
330
1A
100
AcDbEntity
  8
CL1
100
AcDbLine
 10
-1575.776636826763
 20
1829.339488487708
 30
0.0
 11
-1570.444435390311
 21
1829.339488487708
 31
0.0
  0
LINE
  5
1315D
330
1A
100
AcDbEntity
  8
ZISSEN1
100
AcDbLine
 10
-1589.387932415432
 20
1825.661588116657
 30
0.0
 11
-1589.387932415432
 21
1826.461588116657
 31
0.0
  0
LINE
  5
1315E
330
1A
100
AcDbEntity
  8
ZISSEN1
100
AcDbLine
 10
-1588.387932415432
 20
1825.661588116657
 30
0.0
 11
-1588.387932415432
 21
1826.461588116657
 31
0.0
  0
LINE
  5
1315F
330
1A
100
AcDbEntity
  8
ZISSEN1
100
AcDbLine
 10
-1589.23793241543
 20
1825.661588116654
 30
0.0
 11
-1589.325088158176
 21
1824.665393418561
 31
0.0
  0
LINE
  5
13160
330
1A
100
AcDbEntity
  8
ZISSEN1
100
AcDbLine
 10
-1573.487932415429
 20
1832.861588116655
 30
0.0
 11
-1573.487932415429
 21
1839.561588116656
 31
0.0
  0
LINE
  5
13161
330
1A
100
AcDbEntity
  8
ZISSEN1
100
AcDbLine
 10
-1572.987932415428
 20
1839.561588116656
 30
0.0
 11
-1572.987932415428
 21
1832.861588116655
 31
0.0
  0
CIRCLE
  5
13162
330
1A
100
AcDbEntity
  8
ZISSEN1
100
AcDbCircle
 10
-1555.33793241543
 20
1829.411588116655
 30
0.0
 40
1.3
  0
CIRCLE
  5
13163
330
1A
100
AcDbEntity
  8
ZISSEN1
100
AcDbCircle
 10
-1555.33793241543
 20
1829.339488487708
 30
0.0
 40
0.9
  0
LINE
  5
13164
330
1A
100
AcDbEntity
  8
CL1
100
AcDbLine
 10
-1555.33793241543
 20
1832.361588116654
 30
0.0
 11
-1555.33793241543
 21
1827.261588116654
 31
0.0
  0
LINE
  5
13165
330
1A
100
AcDbEntity
  8
CL1
100
AcDbLine
 10
-1557.919961089739
 20
1829.339488487708
 30
0.0
 11
-1551.967735271158
 21
1829.339488487708
 31
0.0
  0
LINE
  5
13166
330
1A
100
AcDbEntity
  8
ZISSEN1
100
AcDbLine
 10
-1555.087932415428
 20
1839.561588116656
 30
0.0
 11
-1555.087932415428
 21
1832.861588116655
 31
0.0
  0
LINE
  5
13167
330
1A
100
AcDbEntity
  8
ZISSEN1
100
AcDbLine
 10
-1555.587932415429
 20
1839.561588116656
 30
0.0
 11
-1555.587932415429
 21
1832.861588116655
 31
0.0
  0
LINE
  5
13168
330
1A
100
AcDbEntity
  8
ZISSEN1
100
AcDbLine
 10
-1534.987932415431
 20
1832.861588116655
 30
0.0
 11
-1537.88793241543
 21
1832.861588116655
 31
0.0
  0
LINE
  5
13169
330
1A
100
AcDbEntity
  8
ZISSEN1
100
AcDbLine
 10
-1537.88793241543
 20
1839.561588116655
 30
0.0
 11
-1534.987932415431
 21
1839.561588116655
 31
0.0
  0
LINE
  5
1316A
330
1A
100
AcDbEntity
  8
ZISSEN1
100
AcDbLine
 10
-1532.187932415431
 20
1838.361588116655
 30
0.0
 11
-1530.187932415431
 21
1840.361588116655
 31
0.0
  0
LINE
  5
1316B
330
1A
100
AcDbEntity
  8
ZISSEN1
100
AcDbLine
 10
-1534.987932415431
 20
1838.361588116655
 30
0.0
 11
-1532.187932415431
 21
1838.361588116655
 31
0.0
  0
LINE
  5
1316C
330
1A
100
AcDbEntity
  8
ZISSEN1
100
AcDbLine
 10
-1535.687932415293
 20
1828.461588116655
 30
0.0
 11
-1535.687932415293
 21
1832.861588116655
 31
0.0
  0
LINE
  5
1316D
330
1A
100
AcDbEntity
  8
ZISSEN1
100
AcDbLine
 10
-1537.687932415293
 20
1826.461588116655
 30
0.0
 11
-1535.687932415293
 21
1828.461588116655
 31
0.0
  0
LINE
  5
1316E
330
1A
100
AcDbEntity
  8
ZISSEN1
100
AcDbLine
 10
-1538.687932415431
 20
1826.461588116655
 30
0.0
 11
-1537.687932415293
 21
1826.461588116655
 31
0.0
  0
ARC
  5
1316F
330
1A
100
AcDbEntity
  8
ZISSEN1
100
AcDbCircle
 10
-1538.687932415431
 20
1827.261588116656
 30
0.0
 40
0.8
100
AcDbArc
 50
270.0
 51
0.0
  0
LINE
  5
13170
330
1A
100
AcDbEntity
  8
ZISSEN1
100
AcDbLine
 10
-1545.187929737817
 20
1832.861588116655
 30
0.0
 11
-1545.187929737817
 21
1839.561588116656
 31
0.0
  0
LINE
  5
13171
330
1A
100
AcDbEntity
  8
ZISSEN1
100
AcDbLine
 10
-1538.88792050112
 20
1827.261588116654
 30
0.0
 11
-1537.88793241543
 21
1827.261588116654
 31
0.0
  0
LINE
  5
13172
330
1A
100
AcDbEntity
  8
ZISSEN1
100
AcDbLine
 10
-1544.687932415429
 20
1832.361588116654
 30
0.0
 11
-1544.68904480368
 21
1842.561588116653
 31
0.0
  0
LINE
  5
13173
330
1A
100
AcDbEntity
  8
ZISSEN1
100
AcDbLine
 10
-1534.987932415432
 20
1832.861588116655
 30
0.0
 11
-1534.987932415432
 21
1839.561588116655
 31
0.0
  0
LINE
  5
13174
330
1A
100
AcDbEntity
  8
ZISSEN1
100
AcDbLine
 10
-1489.287932415432
 20
1682.758817223039
 30
0.0
 11
-1489.287932415433
 21
1735.358817223039
 31
0.0
  0
LINE
  5
13175
330
1A
100
AcDbEntity
  8
ZISSEN1
100
AcDbLine
 10
-1479.687932415435
 20
1735.358817223039
 30
0.0
 11
-1479.687932415435
 21
1683.758817223038
 31
0.0
  0
LINE
  5
13176
330
1A
100
AcDbEntity
  8
ZISSEN1
100
AcDbLine
 10
-1460.687932415431
 20
1750.758817223039
 30
0.0
 11
-1460.687932415435
 21
1680.258817223038
 31
0.0
  0
LINE
  5
13177
330
1A
100
AcDbEntity
  8
ZISSEN1
100
AcDbLine
 10
-1495.687932415431
 20
1681.058817223038
 30
0.0
 11
-1495.687932415435
 21
1753.558817223039
 31
0.0
  0
LINE
  5
13178
330
1A
100
AcDbEntity
  8
ZISSEN1
100
AcDbLine
 10
-1453.787932415433
 20
1753.758817223039
 30
0.0
 11
-1453.787932415433
 21
1680.458817223038
 31
0.0
  0
LINE
  5
13179
330
1A
100
AcDbEntity
  8
ZISSEN1
100
AcDbLine
 10
-1489.787932415435
 20
1735.358817223038
 30
0.0
 11
-1489.787932415433
 21
1683.758817223038
 31
0.0
  0
LINE
  5
1317A
330
1A
100
AcDbEntity
  8
ZISSEN1
100
AcDbLine
 10
-1482.587932415433
 20
1713.458817223039
 30
0.0
 11
-1482.587932415433
 21
1733.358817223038
 31
0.0
  0
LINE
  5
1317B
330
1A
100
AcDbEntity
  8
ZISSEN1
100
AcDbLine
 10
-1458.687932415433
 20
1686.25881815651
 30
0.0
 11
-1458.687932415433
 21
1753.758817223038
 31
0.0
  0
LINE
  5
1317C
330
1A
100
AcDbEntity
  8
ZISSEN1
100
AcDbLine
 10
-1457.087932415433
 20
1685.758817223038
 30
0.0
 11
-1457.087932415433
 21
1753.758817223038
 31
0.0
  0
LINE
  5
1317D
330
1A
100
AcDbEntity
  8
ZISSEN1
100
AcDbLine
 10
-1456.787932415433
 20
1685.758817223038
 30
0.0
 11
-1456.787932415433
 21
1753.758817223038
 31
0.0
  0
LINE
  5
1317E
330
1A
100
AcDbEntity
  8
ZISSEN1
100
AcDbLine
 10
-1453.787932415433
 20
1685.758817223038
 30
0.0
 11
-1453.787932415433
 21
1753.758817223038
 31
0.0
  0
LINE
  5
1317F
330
1A
100
AcDbEntity
  8
ZISSEN1
100
AcDbLine
 10
-1450.787932415433
 20
1680.258817223037
 30
0.0
 11
-1450.787932415433
 21
1753.758817223038
 31
0.0
  0
LINE
  5
13180
330
1A
100
AcDbEntity
  8
ZISSEN1
100
AcDbLine
 10
-1453.787932415433
 20
1753.758817223038
 30
0.0
 11
-1453.787932415433
 21
1680.458817223038
 31
0.0
  0
LINE
  5
13181
330
1A
100
AcDbEntity
  8
ZISSEN1
100
AcDbLine
 10
-1456.787932415433
 20
1686.758817223038
 30
0.0
 11
-1453.787932415433
 21
1686.758817223038
 31
0.0
  0
LINE
  5
13182
330
1A
100
AcDbEntity
  8
ZISSEN1
100
AcDbLine
 10
-1453.787932415433
 20
1695.058817223038
 30
0.0
 11
-1456.787932415433
 21
1695.058817223038
 31
0.0
  0
LINE
  5
13183
330
1A
100
AcDbEntity
  8
ZISSEN1
100
AcDbLine
 10
-1495.987932415429
 20
1680.258817223037
 30
0.0
 11
-1453.98793241543
 21
1680.258817223038
 31
0.0
  0
LINE
  5
13184
330
1A
100
AcDbEntity
  8
ZISSEN1
100
AcDbLine
 10
-1456.787932415433
 20
1685.758817223038
 30
0.0
 11
-1453.787932415433
 21
1685.758817223038
 31
0.0
  0
LINE
  5
13185
330
1A
100
AcDbEntity
  8
ZISSEN1
100
AcDbLine
 10
-1495.687932415431
 20
1677.258817223037
 30
0.0
 11
-1453.787932415433
 21
1677.258817223037
 31
0.0
  0
LINE
  5
13186
330
1A
100
AcDbEntity
  8
ZISSEN1
100
AcDbLine
 10
-1481.587932415434
 20
1708.4588100296
 30
0.0
 11
-1481.587932415434
 21
1692.658810029599
 31
0.0
  0
LINE
  5
13187
330
1A
100
AcDbEntity
  8
ZISSEN1
100
AcDbLine
 10
-1478.687932415435
 20
1682.758817223039
 30
0.0
 11
-1466.187932415435
 21
1682.758817223039
 31
0.0
  0
ARC
  5
13188
330
1A
100
AcDbEntity
  8
ZISSEN1
100
AcDbCircle
 10
-1493.313303426835
 20
1686.758817223036
 30
0.0
 40
5.174628988598421
100
AcDbArc
 50
143.7083018726678
 51
216.2916981273321
  0
LINE
  5
13189
330
1A
100
AcDbEntity
  8
ZISSEN1
100
AcDbLine
 10
-1496.487932415434
 20
1689.908817223036
 30
0.0
 11
-1497.484127113525
 21
1689.821661480289
 31
0.0
  0
LINE
  5
1318A
330
1A
100
AcDbEntity
  8
ZISSEN1
100
AcDbLine
 10
-1496.487932415434
 20
1683.608817223037
 30
0.0
 11
-1497.484127113525
 21
1683.695972965784
 31
0.0
  0
LINE
  5
1318B
330
1A
100
AcDbEntity
  8
ZISSEN1
100
AcDbLine
 10
-1481.987932415441
 20
1683.958816139146
 30
0.0
 11
-1481.987932415441
 21
1682.258817223042
 31
0.0
  0
LINE
  5
1318C
330
1A
100
AcDbEntity
  8
ZISSEN1
100
AcDbLine
 10
-1484.987932415441
 20
1683.958816139147
 30
0.0
 11
-1481.987932415441
 21
1683.958816139146
 31
0.0
  0
LINE
  5
1318D
330
1A
100
AcDbEntity
  8
ZISSEN1
100
AcDbLine
 10
-1484.987932415441
 20
1682.258817223043
 30
0.0
 11
-1484.987932415441
 21
1683.958816139147
 31
0.0
  0
LINE
  5
1318E
330
1A
100
AcDbEntity
  8
ZISSEN1
100
AcDbLine
 10
-1496.487932415434
 20
1689.758817223036
 30
0.0
 11
-1495.687932415433
 21
1689.758817223036
 31
0.0
  0
LINE
  5
1318F
330
1A
100
AcDbEntity
  8
ZISSEN1
100
AcDbLine
 10
-1496.487932415434
 20
1690.758817223037
 30
0.0
 11
-1495.687932415435
 21
1690.758817223037
 31
0.0
  0
LINE
  5
13190
330
1A
100
AcDbEntity
  8
ZISSEN1
100
AcDbLine
 10
-1496.487932415431
 20
1680.758817223037
 30
0.0
 11
-1496.487932415434
 21
1690.758817223037
 31
0.0
  0
LINE
  5
13191
330
1A
100
AcDbEntity
  8
ZISSEN1
100
AcDbLine
 10
-1489.787932415431
 20
1683.758817223039
 30
0.0
 11
-1489.287932415432
 21
1683.758817223039
 31
0.0
  0
LINE
  5
13192
330
1A
100
AcDbEntity
  8
ZISSEN1
100
AcDbLine
 10
-1490.787932415433
 20
1682.758817223038
 30
0.0
 11
-1489.787932415433
 21
1683.758817223038
 31
0.0
  0
LINE
  5
13193
330
1A
100
AcDbEntity
  8
ZISSEN1
100
AcDbLine
 10
-1495.687932415435
 20
1682.758817223038
 30
0.0
 11
-1489.287932415432
 21
1682.758817223039
 31
0.0
  0
ARC
  5
13194
330
1A
100
AcDbEntity
  8
ZISSEN1
100
AcDbCircle
 10
-1486.287932415442
 20
1681.558817223044
 30
0.0
 40
0.5
100
AcDbArc
 50
269.9999999998957
 51
359.9999999999478
  0
LINE
  5
13195
330
1A
100
AcDbEntity
  8
ZISSEN1
100
AcDbLine
 10
-1485.787932415442
 20
1681.558817223044
 30
0.0
 11
-1485.787932415441
 21
1682.258817223043
 31
0.0
  0
ARC
  5
13196
330
1A
100
AcDbEntity
  8
ZISSEN1
100
AcDbCircle
 10
-1480.68793241544
 20
1681.558817223041
 30
0.0
 40
0.5
100
AcDbArc
 50
179.9999999999479
 51
269.9999999998957
  0
LINE
  5
13197
330
1A
100
AcDbEntity
  8
ZISSEN1
100
AcDbLine
 10
-1481.18793241544
 20
1682.258817223041
 30
0.0
 11
-1485.787932415441
 21
1682.258817223043
 31
0.0
  0
LINE
  5
13198
330
1A
100
AcDbEntity
  8
ZISSEN1
100
AcDbLine
 10
-1481.18793241544
 20
1681.558817223042
 30
0.0
 11
-1481.18793241544
 21
1682.258817223041
 31
0.0
  0
ARC
  5
13199
330
1A
100
AcDbEntity
  8
ZISSEN1
100
AcDbCircle
 10
-1495.987932415429
 20
1680.758817223037
 30
0.0
 40
0.5
100
AcDbArc
 50
180.0
 51
270.0
  0
LINE
  5
1319A
330
1A
100
AcDbEntity
  8
ZISSEN1
100
AcDbLine
 10
-1479.487932415429
 20
1681.05881722304
 30
0.0
 11
-1479.48793241543
 21
1680.258817223041
 31
0.0
  0
LINE
  5
1319B
330
1A
100
AcDbEntity
  8
ZISSEN1
100
AcDbLine
 10
-1489.287932415433
 20
1686.738817223038
 30
0.0
 11
-1479.667932415434
 21
1686.738817223038
 31
0.0
  0
LINE
  5
1319C
330
1A
100
AcDbEntity
  8
ZISSEN1
100
AcDbLine
 10
-1489.287932415433
 20
1688.758817223039
 30
0.0
 11
-1479.687932415435
 21
1688.758817223039
 31
0.0
  0
LINE
  5
1319D
330
1A
100
AcDbEntity
  8
ZISSEN1
100
AcDbLine
 10
-1489.287932415433
 20
1690.778817223039
 30
0.0
 11
-1479.687932415435
 21
1690.778817223039
 31
0.0
  0
LINE
  5
1319E
330
1A
100
AcDbEntity
  8
ZISSEN1
100
AcDbLine
 10
-1489.287932415432
 20
1692.658810029599
 30
0.0
 11
-1481.587932415434
 21
1692.658810029599
 31
0.0
  0
LINE
  5
1319F
330
1A
100
AcDbEntity
  8
ZISSEN1
100
AcDbLine
 10
-1479.687932415435
 20
1683.758817223039
 30
0.0
 11
-1478.687932415435
 21
1682.758817223039
 31
0.0
  0
LINE
  5
131A0
330
1A
100
AcDbEntity
  8
ZISSEN1
100
AcDbLine
 10
-1495.687932415431
 20
1677.258817223038
 30
0.0
 11
-1495.687932415431
 21
1680.258817223038
 31
0.0
  0
LINE
  5
131A1
330
1A
100
AcDbEntity
  8
ZISSEN1
100
AcDbLine
 10
-1493.687932415431
 20
1677.258817223038
 30
0.0
 11
-1493.687932415431
 21
1680.258817223038
 31
0.0
  0
LINE
  5
131A2
330
1A
100
AcDbEntity
  8
ZISSEN1
100
AcDbLine
 10
-1481.787932415433
 20
1677.258817223038
 30
0.0
 11
-1481.787932415433
 21
1680.258817223038
 31
0.0
  0
LINE
  5
131A3
330
1A
100
AcDbEntity
  8
ZISSEN1
100
AcDbLine
 10
-1483.787932415433
 20
1677.258817223038
 30
0.0
 11
-1483.787932415433
 21
1680.258817223038
 31
0.0
  0
LINE
  5
131A4
330
1A
100
AcDbEntity
  8
ZISSEN1
100
AcDbLine
 10
-1491.587932415438
 20
1680.258817223039
 30
0.0
 11
-1491.587932415438
 21
1679.758817223039
 31
0.0
  0
LINE
  5
131A5
330
1A
100
AcDbEntity
  8
ZISSEN1
100
AcDbLine
 10
-1488.787932415439
 20
1680.258817223039
 30
0.0
 11
-1488.787932415439
 21
1679.758817223039
 31
0.0
  0
LINE
  5
131A6
330
1A
100
AcDbEntity
  8
ZISSEN1
100
AcDbLine
 10
-1479.48793241543
 20
1681.05881722304
 30
0.0
 11
-1495.687932415431
 21
1681.058817223038
 31
0.0
  0
LINE
  5
131A7
330
1A
100
AcDbEntity
  8
ZISSEN1
100
AcDbLine
 10
-1460.687932415435
 20
1686.258817223039
 30
0.0
 11
-1458.687932415433
 21
1686.258817223039
 31
0.0
  0
LINE
  5
131A8
330
1A
100
AcDbEntity
  8
ZISSEN1
100
AcDbLine
 10
-1460.687932415435
 20
1688.758817223039
 30
0.0
 11
-1459.687932415433
 21
1688.758817223039
 31
0.0
  0
LINE
  5
131A9
330
1A
100
AcDbEntity
  8
ZISSEN1
100
AcDbLine
 10
-1459.687932415433
 20
1691.258817223039
 30
0.0
 11
-1459.687932415433
 21
1686.258817223039
 31
0.0
  0
LINE
  5
131AA
330
1A
100
AcDbEntity
  8
ZISSEN1
100
AcDbLine
 10
-1460.687932415435
 20
1691.258817223039
 30
0.0
 11
-1458.687932415433
 21
1691.258817223039
 31
0.0
  0
LINE
  5
131AB
330
1A
100
AcDbEntity
  8
ZISSEN1
100
AcDbLine
 10
-1458.687932415433
 20
1687.25881815651
 30
0.0
 11
-1457.087932415433
 21
1687.25881815651
 31
0.0
  0
LINE
  5
131AC
330
1A
100
AcDbEntity
  8
ZISSEN1
100
AcDbLine
 10
-1458.687932415433
 20
1686.25881815651
 30
0.0
 11
-1457.087932415433
 21
1686.25881815651
 31
0.0
  0
LINE
  5
131AD
330
1A
100
AcDbEntity
  8
ZISSEN1
100
AcDbLine
 10
-1457.087932415433
 20
1686.758817223039
 30
0.0
 11
-1456.787932415433
 21
1686.758817223039
 31
0.0
  0
LINE
  5
131AE
330
1A
100
AcDbEntity
  8
ZISSEN1
100
AcDbLine
 10
-1457.087932415433
 20
1685.758817223039
 30
0.0
 11
-1456.787932415433
 21
1685.758817223039
 31
0.0
  0
LINE
  5
131AF
330
1A
100
AcDbEntity
  8
ZISSEN1
100
AcDbLine
 10
-1466.187932415435
 20
1682.758817223039
 30
0.0
 11
-1466.187932415433
 21
1680.258817223038
 31
0.0
  0
LINE
  5
131B0
330
1A
100
AcDbEntity
  8
ZISSEN1
100
AcDbLine
 10
-1470.537932415433
 20
1677.258817223038
 30
0.0
 11
-1470.537932415433
 21
1680.258817223038
 31
0.0
  0
LINE
  5
131B1
330
1A
100
AcDbEntity
  8
ZISSEN1
100
AcDbLine
 10
-1475.037932415433
 20
1677.258817223038
 30
0.0
 11
-1475.037932415433
 21
1680.258817223038
 31
0.0
  0
LINE
  5
131B2
330
1A
100
AcDbEntity
  8
ZISSEN1
100
AcDbLine
 10
-1455.787932415433
 20
1677.258817223038
 30
0.0
 11
-1455.787932415433
 21
1680.258817223038
 31
0.0
  0
LINE
  5
131B3
330
1A
100
AcDbEntity
  8
ZISSEN1
100
AcDbLine
 10
-1457.787932415433
 20
1677.258817223038
 30
0.0
 11
-1457.787932415433
 21
1680.258817223038
 31
0.0
  0
LINE
  5
131B4
330
1A
100
AcDbEntity
  8
ZISSEN1
100
AcDbLine
 10
-1489.287932415433
 20
1713.458817223038
 30
0.0
 11
-1482.587932415433
 21
1713.458817223038
 31
0.0
  0
LINE
  5
131B5
330
1A
100
AcDbEntity
  8
ZISSEN1
100
AcDbLine
 10
-1489.287932415432
 20
1708.4588100296
 30
0.0
 11
-1481.587932415434
 21
1708.4588100296
 31
0.0
  0
LINE
  5
131B6
330
1A
100
AcDbEntity
  8
ZISSEN1
100
AcDbLine
 10
-1456.787932415433
 20
1696.258817223039
 30
0.0
 11
-1457.087932415433
 21
1696.258817223039
 31
0.0
  0
ARC
  5
131B7
330
1A
100
AcDbEntity
  8
ZISSEN1
100
AcDbCircle
 10
-1453.962561404033
 20
1690.258817223038
 30
0.0
 40
5.174628988598421
100
AcDbArc
 50
323.7083018726678
 51
36.29169812733219
  0
LINE
  5
131B8
330
1A
100
AcDbEntity
  8
ZISSEN1
100
AcDbLine
 10
-1450.787932415433
 20
1687.108817223039
 30
0.0
 11
-1449.791737717342
 21
1687.195972965786
 31
0.0
  0
LINE
  5
131B9
330
1A
100
AcDbEntity
  8
ZISSEN1
100
AcDbLine
 10
-1450.787932415433
 20
1693.408817223038
 30
0.0
 11
-1449.791737717342
 21
1693.321661480291
 31
0.0
  0
LINE
  5
131BA
330
1A
100
AcDbEntity
  8
ZISSEN1
100
AcDbLine
 10
-1453.98793241543
 20
1680.258817223038
 30
0.0
 11
-1453.846511059196
 21
1680.317395866801
 31
0.0
  0
LINE
  5
131BB
330
1A
100
AcDbEntity
  8
ZISSEN1
100
AcDbLine
 10
-1453.846511059196
 20
1680.317395866799
 30
0.0
 11
-1453.787932415433
 21
1680.458817223038
 31
0.0
  0
ARC
  5
131BC
330
1A
100
AcDbEntity
  8
ZISSEN1
100
AcDbCircle
 10
-1453.787932415433
 20
1680.25881722304
 30
0.0
 40
3.000000000002046
100
AcDbArc
 50
270.0
 51
359.9999999999478
  0
LINE
  5
131BD
330
1A
100
AcDbEntity
  8
ZISSEN1
100
AcDbLine
 10
-1457.087932415433
 20
1757.958817223039
 30
0.0
 11
-1450.387932415432
 21
1757.958817223039
 31
0.0
  0
LINE
  5
131BE
330
1A
100
AcDbEntity
  8
ZISSEN1
100
AcDbLine
 10
-1456.787932415433
 20
1728.058817223037
 30
0.0
 11
-1453.787932415433
 21
1728.058817223037
 31
0.0
  0
LINE
  5
131BF
330
1A
100
AcDbEntity
  8
ZISSEN1
100
AcDbLine
 10
-1451.287932415433
 20
1754.558817223039
 30
0.0
 11
-1464.687932415431
 21
1754.558817223039
 31
0.0
  0
LINE
  5
131C0
330
1A
100
AcDbEntity
  8
ZISSEN1
100
AcDbLine
 10
-1450.787932415433
 20
1753.758817223038
 30
0.0
 11
-1464.687935422224
 21
1753.758817223038
 31
0.0
  0
LINE
  5
131C1
330
1A
100
AcDbEntity
  8
ZISSEN1
100
AcDbLine
 10
-1456.787932415433
 20
1752.758817223038
 30
0.0
 11
-1453.787932415433
 21
1752.758817223038
 31
0.0
  0
LINE
  5
131C2
330
1A
100
AcDbEntity
  8
ZISSEN1
100
AcDbLine
 10
-1464.687932415433
 20
1757.958817223039
 30
0.0
 11
-1464.687932415433
 21
1751.758817223039
 31
0.0
  0
LINE
  5
131C3
330
1A
100
AcDbEntity
  8
ZISSEN1
100
AcDbLine
 10
-1466.287932415433
 20
1757.258817223038
 30
0.0
 11
-1466.287932415433
 21
1751.758817223039
 31
0.0
  0
LINE
  5
131C4
330
1A
100
AcDbEntity
  8
ZISSEN1
100
AcDbLine
 10
-1463.23793077953
 20
1754.558817223039
 30
0.0
 11
-1463.237930720864
 21
1753.758817296373
 31
0.0
  0
LINE
  5
131C5
330
1A
100
AcDbEntity
  8
ZISSEN1
100
AcDbLine
 10
-1464.23793077953
 20
1754.558817223039
 30
0.0
 11
-1464.23793077953
 21
1753.758817223039
 31
0.0
  0
ARC
  5
131C6
330
1A
100
AcDbEntity
  8
ZISSEN1
100
AcDbCircle
 10
-1494.687932415435
 20
1753.558817223039
 30
0.0
 40
0.999999999998181
100
AcDbArc
 50
89.99999999989578
 51
180.0
  0
LINE
  5
131C7
330
1A
100
AcDbEntity
  8
ZISSEN1
100
AcDbLine
 10
-1467.737932415436
 20
1754.558817223038
 30
0.0
 11
-1467.737932415436
 21
1753.758817223038
 31
0.0
  0
LINE
  5
131C8
330
1A
100
AcDbEntity
  8
ZISSEN1
100
AcDbLine
 10
-1466.737932415436
 20
1754.558817223038
 30
0.0
 11
-1466.737932415436
 21
1753.758817223038
 31
0.0
  0
LINE
  5
131C9
330
1A
100
AcDbEntity
  8
ZISSEN1
100
AcDbLine
 10
-1494.887932415432
 20
1753.758817223039
 30
0.0
 11
-1466.287932415433
 21
1753.758817223039
 31
0.0
  0
LINE
  5
131CA
330
1A
100
AcDbEntity
  8
ZISSEN1
100
AcDbLine
 10
-1461.687932415433
 20
1751.758817223038
 30
0.0
 11
-1495.687932415435
 21
1751.758817223038
 31
0.0
  0
LINE
  5
131CB
330
1A
100
AcDbEntity
  8
ZISSEN1
100
AcDbLine
 10
-1482.587932415435
 20
1753.758817223039
 30
0.0
 11
-1482.587932415435
 21
1751.758817223038
 31
0.0
  0
LINE
  5
131CC
330
1A
100
AcDbEntity
  8
ZISSEN1
100
AcDbLine
 10
-1490.887932415434
 20
1752.258817223039
 30
0.0
 11
-1489.287932415433
 21
1752.258817223039
 31
0.0
  0
LINE
  5
131CD
330
1A
100
AcDbEntity
  8
ZISSEN1
100
AcDbLine
 10
-1490.887932415434
 20
1753.258817223038
 30
0.0
 11
-1489.287932415433
 21
1753.258817223038
 31
0.0
  0
LINE
  5
131CE
330
1A
100
AcDbEntity
  8
ZISSEN1
100
AcDbLine
 10
-1490.887932415434
 20
1751.758817223039
 30
0.0
 11
-1490.887932415434
 21
1753.758817223039
 31
0.0
  0
LINE
  5
131CF
330
1A
100
AcDbEntity
  8
ZISSEN1
100
AcDbLine
 10
-1482.587932415433
 20
1733.358817223037
 30
0.0
 11
-1489.287932415433
 21
1733.358817223037
 31
0.0
  0
LINE
  5
131D0
330
1A
100
AcDbEntity
  8
ZISSEN1
100
AcDbLine
 10
-1489.287932415433
 20
1751.758817223039
 30
0.0
 11
-1489.287932415433
 21
1753.758817223039
 31
0.0
  0
LINE
  5
131D1
330
1A
100
AcDbEntity
  8
ZISSEN1
100
AcDbLine
 10
-1489.787932415433
 20
1735.358817223039
 30
0.0
 11
-1479.687932415435
 21
1735.358817223039
 31
0.0
  0
LINE
  5
131D2
330
1A
100
AcDbEntity
  8
ZISSEN1
100
AcDbLine
 10
-1494.887932415432
 20
1751.758817223039
 30
0.0
 11
-1494.887932415436
 21
1753.758817223038
 31
0.0
  0
LINE
  5
131D3
330
1A
100
AcDbEntity
  8
ZISSEN1
100
AcDbLine
 10
-1466.287932415433
 20
1754.258817223039
 30
0.0
 11
-1464.687932415433
 21
1754.258817223039
 31
0.0
  0
LINE
  5
131D4
330
1A
100
AcDbEntity
  8
ZISSEN1
100
AcDbLine
 10
-1459.687932415431
 20
1749.758817223039
 30
0.0
 11
-1459.687932415431
 21
1744.758817223039
 31
0.0
  0
LINE
  5
131D5
330
1A
100
AcDbEntity
  8
ZISSEN1
100
AcDbLine
 10
-1460.687932415431
 20
1744.758817223039
 30
0.0
 11
-1458.687932415433
 21
1744.758817223039
 31
0.0
  0
LINE
  5
131D6
330
1A
100
AcDbEntity
  8
ZISSEN1
100
AcDbLine
 10
-1460.687932415431
 20
1747.258817223039
 30
0.0
 11
-1459.687932415433
 21
1747.258817223039
 31
0.0
  0
LINE
  5
131D7
330
1A
100
AcDbEntity
  8
ZISSEN1
100
AcDbLine
 10
-1460.687932415431
 20
1749.758817223039
 30
0.0
 11
-1458.687932415433
 21
1749.758817223039
 31
0.0
  0
LINE
  5
131D8
330
1A
100
AcDbEntity
  8
ZISSEN1
100
AcDbLine
 10
-1457.087932415433
 20
1752.758817223039
 30
0.0
 11
-1456.787932415433
 21
1752.758817223039
 31
0.0
  0
LINE
  5
131D9
330
1A
100
AcDbEntity
  8
ZISSEN1
100
AcDbLine
 10
-1457.087932415433
 20
1726.758817223038
 30
0.0
 11
-1456.787932415433
 21
1726.758817223038
 31
0.0
  0
LINE
  5
131DA
330
1A
100
AcDbEntity
  8
ZISSEN1
100
AcDbLine
 10
-1460.687932415431
 20
1750.758817223039
 30
0.0
 11
-1461.687932415431
 21
1751.758817223039
 31
0.0
  0
LINE
  5
131DB
330
1A
100
AcDbEntity
  8
ZISSEN1
100
AcDbLine
 10
-1457.087932415433
 20
1752.758817223038
 30
0.0
 11
-1458.687932415433
 21
1752.758817223038
 31
0.0
  0
LINE
  5
131DC
330
1A
100
AcDbEntity
  8
ZISSEN1
100
AcDbLine
 10
-1466.287932415433
 20
1754.558817223039
 30
0.0
 11
-1494.687932415435
 21
1754.558817223039
 31
0.0
  0
LINE
  5
131DD
330
1A
100
AcDbEntity
  8
ZISSEN1
100
AcDbLine
 10
-1489.287932415433
 20
1759.758817223039
 30
0.0
 11
-1489.287932415433
 21
1757.458817223039
 31
0.0
  0
LINE
  5
131DE
330
1A
100
AcDbEntity
  8
ZISSEN1
100
AcDbLine
 10
-1482.587932415434
 20
1759.758817223039
 30
0.0
 11
-1482.587932415435
 21
1757.458817223039
 31
0.0
  0
LINE
  5
131DF
330
1A
100
AcDbEntity
  8
ZISSEN1
100
AcDbLine
 10
-1482.587932415434
 20
1759.758817223039
 30
0.0
 11
-1482.587932415434
 21
1754.558817223039
 31
0.0
  0
LINE
  5
131E0
330
1A
100
AcDbEntity
  8
ZISSEN1
100
AcDbLine
 10
-1489.287932415433
 20
1759.758817223039
 30
0.0
 11
-1482.587932415434
 21
1759.758817223039
 31
0.0
  0
LINE
  5
131E1
330
1A
100
AcDbEntity
  8
ZISSEN1
100
AcDbLine
 10
-1489.287932415433
 20
1754.558817223039
 30
0.0
 11
-1489.287932415433
 21
1759.758817223039
 31
0.0
  0
LINE
  5
131E2
330
1A
100
AcDbEntity
  8
ZISSEN1
100
AcDbLine
 10
-1490.887932415434
 20
1757.258817223039
 30
0.0
 11
-1489.287932415433
 21
1757.258817223039
 31
0.0
  0
LINE
  5
131E3
330
1A
100
AcDbEntity
  8
ZISSEN1
100
AcDbLine
 10
-1490.887932415434
 20
1756.274424876486
 30
0.0
 11
-1489.287932415433
 21
1756.274424876486
 31
0.0
  0
LINE
  5
131E4
330
1A
100
AcDbEntity
  8
ZISSEN1
100
AcDbLine
 10
-1490.887932415434
 20
1754.558817223039
 30
0.0
 11
-1490.887932415434
 21
1757.258817223039
 31
0.0
  0
LINE
  5
131E5
330
1A
100
AcDbEntity
  8
ZISSEN1
100
AcDbLine
 10
-1457.087932415432
 20
1757.958817223039
 30
0.0
 11
-1457.087932415432
 21
1754.558817223039
 31
0.0
  0
LINE
  5
131E6
330
1A
100
AcDbEntity
  8
ZISSEN1
100
AcDbLine
 10
-1457.987932415434
 20
1757.958817223039
 30
0.0
 11
-1457.987932415434
 21
1754.558817223039
 31
0.0
  0
LINE
  5
131E7
330
1A
100
AcDbEntity
  8
CL1
100
AcDbLine
 10
-1464.687932415433
 20
1757.958817223039
 30
0.0
 11
-1464.687932415431
 21
1754.558817223039
 31
0.0
  0
LINE
  5
131E8
330
1A
100
AcDbEntity
  8
ZISSEN1
100
AcDbLine
 10
-1464.687932415433
 20
1757.958817223039
 30
0.0
 11
-1457.987932415434
 21
1757.958817223039
 31
0.0
  0
LINE
  5
131E9
330
1A
100
AcDbEntity
  8
ZISSEN1
100
AcDbLine
 10
-1466.287932415433
 20
1755.258817223039
 30
0.0
 11
-1464.687932415433
 21
1755.258817223039
 31
0.0
  0
LINE
  5
131EA
330
1A
100
AcDbEntity
  8
ZISSEN1
100
AcDbLine
 10
-1466.287932415433
 20
1756.258817223038
 30
0.0
 11
-1464.687932415433
 21
1756.258817223038
 31
0.0
  0
LINE
  5
131EB
330
1A
100
AcDbEntity
  8
ZISSEN1
100
AcDbLine
 10
-1466.287932415433
 20
1757.258817223038
 30
0.0
 11
-1464.687932415433
 21
1757.258817223038
 31
0.0
  0
LINE
  5
131EC
330
1A
100
AcDbEntity
  8
ZISSEN1
100
AcDbLine
 10
-1450.387932415432
 20
1757.958817223039
 30
0.0
 11
-1450.387932415432
 21
1749.308817223038
 31
0.0
  0
LINE
  5
131ED
330
1A
100
AcDbEntity
  8
ZISSEN1
100
AcDbLine
 10
-1452.287932415433
 20
1753.758817223039
 30
0.0
 11
-1452.287932415433
 21
1754.558817223039
 31
0.0
  0
LINE
  5
131EE
330
1A
100
AcDbEntity
  8
ZISSEN1
100
AcDbLine
 10
-1451.287932415433
 20
1753.758817223039
 30
0.0
 11
-1451.287932415433
 21
1754.558817223039
 31
0.0
  0
ARC
  5
131EF
330
1A
100
AcDbEntity
  8
ZISSEN1
100
AcDbCircle
 10
-1453.962561404033
 20
1747.258817223037
 30
0.0
 40
5.174628988598421
100
AcDbArc
 50
323.7083018726678
 51
36.29169812733219
  0
LINE
  5
131F0
330
1A
100
AcDbEntity
  8
ZISSEN1
100
AcDbLine
 10
-1450.787932415433
 20
1744.108817223038
 30
0.0
 11
-1449.791737717342
 21
1744.195972965785
 31
0.0
  0
LINE
  5
131F1
330
1A
100
AcDbEntity
  8
ZISSEN1
100
AcDbLine
 10
-1450.387932415432
 20
1750.373821757627
 30
0.0
 11
-1449.791737717342
 21
1750.32166148029
 31
0.0
  0
LINE
  5
131F2
330
1A
100
AcDbEntity
  8
ZISSEN1
100
AcDbLine
 10
-1450.387932415432
 20
1749.308817223038
 30
0.0
 11
-1450.787932415433
 21
1749.308817223038
 31
0.0
  0
LINE
  5
131F3
330
1A
100
AcDbEntity
  8
ZISSEN1
100
AcDbLine
 10
-1453.787932415433
 20
1752.758817223038
 30
0.0
 11
-1450.787932415433
 21
1752.758817223038
 31
0.0
  0
LINE
  5
131F4
330
1A
100
AcDbEntity
  8
ZISSEN1
100
AcDbLine
 10
-1574.78793241543
 20
1871.361588116655
 30
0.0
 11
-1618.387932415432
 21
1871.361588116655
 31
0.0
  0
LINE
  5
131F5
330
1A
100
AcDbEntity
  8
ZISSEN1
100
AcDbLine
 10
-1616.887920501395
 20
1870.861588116654
 30
0.0
 11
-1576.28792050112
 21
1870.861588116654
 31
0.0
  0
LINE
  5
131F6
330
1A
100
AcDbEntity
  8
ZISSEN1
100
AcDbLine
 10
-1635.787932809967
 20
1853.511586116655
 30
0.0
 11
-1629.187932809968
 21
1853.511588116655
 31
0.0
  0
LINE
  5
131F7
330
1A
100
AcDbEntity
  8
ZISSEN1
100
AcDbLine
 10
-1625.837932415702
 20
1844.761588116655
 30
0.0
 11
-1640.437932415704
 21
1844.761588116655
 31
0.0
  0
LINE
  5
131F8
330
1A
100
AcDbEntity
  8
ZISSEN1
100
AcDbLine
 10
-1643.187919569452
 20
1855.861588116655
 30
0.0
 11
-1616.587919569451
 21
1855.861588116655
 31
0.0
  0
LINE
  5
131F9
330
1A
100
AcDbEntity
  8
ZISSEN1
100
AcDbLine
 10
-1643.187919569452
 20
1857.461588116654
 30
0.0
 11
-1616.587933628131
 21
1857.461588116654
 31
0.0
  0
LINE
  5
131FA
330
1A
100
AcDbEntity
  8
ZISSEN1
100
AcDbLine
 10
-1648.687932415428
 20
1871.361588116655
 30
0.0
 11
-1633.28793241543
 21
1871.361588116655
 31
0.0
  0
LINE
  5
131FB
330
1A
100
AcDbEntity
  8
ZISSEN1
100
AcDbLine
 10
-1643.187919569452
 20
1859.961588116655
 30
0.0
 11
-1616.587919569451
 21
1859.961588116655
 31
0.0
  0
LINE
  5
131FC
330
1A
100
AcDbEntity
  8
ZISSEN1
100
AcDbLine
 10
-1634.787920501397
 20
1870.861588116654
 30
0.0
 11
-1647.487920501397
 21
1870.861588116654
 31
0.0
  0
ARC
  5
131FD
330
1A
100
AcDbEntity
  8
ZISSEN1
100
AcDbCircle
 10
-1653.570579227435
 20
1849.361588116655
 30
0.0
 40
2.283125930419061
100
AcDbArc
 50
279.7719951127423
 51
80.22800488725762
  0
LINE
  5
131FE
330
1A
100
AcDbEntity
  8
CL1
100
AcDbLine
 10
-1653.683069209304
 20
1853.597025903938
 30
0.0
 11
-1653.683069209304
 21
1845.222290606437
 31
0.0
  0
LINE
  5
131FF
330
1A
100
AcDbEntity
  8
CL1
100
AcDbLine
 10
-1650.905918054193
 20
1849.365266961103
 30
0.0
 11
-1657.254509678804
 21
1849.365266961103
 31
0.0
  0
LINE
  5
13200
330
1A
100
AcDbEntity
  8
ZISSEN1
100
AcDbLine
 10
-1635.787932809967
 20
1853.511586116655
 30
0.0
 11
-1635.787932809967
 21
1855.861590116655
 31
0.0
  0
ARC
  5
13201
330
1A
100
AcDbEntity
  8
ZISSEN1
100
AcDbCircle
 10
-1639.687932415431
 20
1868.186959128055
 30
0.0
 40
5.174628988598421
100
AcDbArc
 50
53.70830187258448
 51
126.2916981274155
  0
LINE
  5
13202
330
1A
100
AcDbEntity
  8
ZISSEN1
100
AcDbLine
 10
-1636.537932415433
 20
1871.361588116655
 30
0.0
 11
-1636.625088158179
 21
1872.357782814746
 31
0.0
  0
LINE
  5
13203
330
1A
100
AcDbEntity
  8
ZISSEN1
100
AcDbLine
 10
-1642.837932415433
 20
1871.361588116655
 30
0.0
 11
-1642.750776672684
 21
1872.357782814746
 31
0.0
  0
LINE
  5
13204
330
1A
100
AcDbEntity
  8
ZISSEN1
100
AcDbLine
 10
-1642.637929240113
 20
1855.861588116655
 30
0.0
 11
-1642.637929240113
 21
1850.361588310452
 31
0.0
  0
LINE
  5
13205
330
1A
100
AcDbEntity
  8
ZISSEN1
100
AcDbLine
 10
-1637.737932385179
 20
1850.361588310452
 30
0.0
 11
-1642.637929240113
 21
1850.361588310454
 31
0.0
  0
LINE
  5
13206
330
1A
100
AcDbEntity
  8
ZISSEN1
100
AcDbLine
 10
-1640.187929240112
 20
1855.861588116655
 30
0.0
 11
-1640.187930459279
 21
1857.461588116654
 31
0.0
  0
LINE
  5
13207
330
1A
100
AcDbEntity
  8
ZISSEN1
100
AcDbLine
 10
-1641.187930459279
 20
1855.861588116655
 30
0.0
 11
-1641.187930459279
 21
1857.461588116654
 31
0.0
  0
LINE
  5
13208
330
1A
100
AcDbEntity
  8
ZISSEN1
100
AcDbLine
 10
-1642.187931831506
 20
1855.861588116655
 30
0.0
 11
-1642.187931831506
 21
1857.461588116654
 31
0.0
  0
LINE
  5
13209
330
1A
100
AcDbEntity
  8
ZISSEN1
100
AcDbLine
 10
-1647.187929270366
 20
1855.861588116655
 30
0.0
 11
-1647.187929270366
 21
1857.461588116654
 31
0.0
  0
LINE
  5
1320A
330
1A
100
AcDbEntity
  8
ZISSEN1
100
AcDbLine
 10
-1647.207929270366
 20
1855.411588116655
 30
0.0
 11
-1647.207929270366
 21
1855.861588116655
 31
0.0
  0
LINE
  5
1320B
330
1A
100
AcDbEntity
  8
ZISSEN1
100
AcDbLine
 10
-1645.187929270366
 20
1855.411588116655
 30
0.0
 11
-1645.187929270366
 21
1855.861588116655
 31
0.0
  0
LINE
  5
1320C
330
1A
100
AcDbEntity
  8
ZISSEN1
100
AcDbLine
 10
-1645.187929270366
 20
1855.861588116655
 30
0.0
 11
-1645.187929270366
 21
1857.461588116654
 31
0.0
  0
LINE
  5
1320D
330
1A
100
AcDbEntity
  8
ZISSEN1
100
AcDbLine
 10
-1647.687932415431
 20
1857.461588116654
 30
0.0
 11
-1647.687932415431
 21
1858.111601541931
 31
0.0
  0
LINE
  5
1320E
330
1A
100
AcDbEntity
  8
ZISSEN1
100
AcDbLine
 10
-1648.187929270366
 20
1855.861588116655
 30
0.0
 11
-1644.687920501396
 21
1855.861588116655
 31
0.0
  0
LINE
  5
1320F
330
1A
100
AcDbEntity
  8
ZISSEN1
100
AcDbLine
 10
-1648.187929270366
 20
1857.461588116654
 30
0.0
 11
-1648.187929270366
 21
1855.861588116655
 31
0.0
  0
LINE
  5
13210
330
1A
100
AcDbEntity
  8
ZISSEN1
100
AcDbLine
 10
-1648.187929270366
 20
1857.461588116654
 30
0.0
 11
-1644.68792927037
 21
1857.461588116654
 31
0.0
  0
LINE
  5
13211
330
1A
100
AcDbEntity
  8
ZISSEN1
100
AcDbLine
 10
-1648.687932415428
 20
1868.361588116655
 30
0.0
 11
-1648.487920294376
 21
1868.361588116655
 31
0.0
  0
LINE
  5
13212
330
1A
100
AcDbEntity
  8
ZISSEN1
100
AcDbLine
 10
-1653.187932415427
 20
1847.111588116655
 30
0.0
 11
-1657.187932415429
 21
1847.111588116655
 31
0.0
  0
LINE
  5
13213
330
1A
100
AcDbEntity
  8
ZISSEN1
100
AcDbLine
 10
-1657.187932415429
 20
1851.611588116655
 30
0.0
 11
-1653.187932415427
 21
1851.611588116655
 31
0.0
  0
LINE
  5
13214
330
1A
100
AcDbEntity
  8
ZISSEN1
100
AcDbLine
 10
-1647.687932415431
 20
1870.661576202621
 30
0.0
 11
-1647.687932415431
 21
1871.361588116655
 31
0.0
  0
LINE
  5
13215
330
1A
100
AcDbEntity
  8
ZISSEN1
100
AcDbLine
 10
-1649.48793241543
 20
1861.461588116655
 30
0.0
 11
-1648.687932415431
 21
1861.461588116655
 31
0.0
  0
LINE
  5
13216
330
1A
100
AcDbEntity
  8
ZISSEN1
100
AcDbLine
 10
-1648.487919508609
 20
1854.411588116654
 30
0.0
 11
-1647.487919508609
 21
1855.411588116655
 31
0.0
  0
LINE
  5
13217
330
1A
100
AcDbEntity
  8
ZISSEN1
100
AcDbLine
 10
-1647.487918990154
 20
1857.911588116654
 30
0.0
 11
-1648.487918990154
 21
1858.911588116654
 31
0.0
  0
LINE
  5
13218
330
1A
100
AcDbEntity
  8
ZISSEN1
100
AcDbLine
 10
-1644.687920501396
 20
1855.411588116655
 30
0.0
 11
-1647.487919508609
 21
1855.411588116655
 31
0.0
  0
LINE
  5
13219
330
1A
100
AcDbEntity
  8
ZISSEN1
100
AcDbLine
 10
-1644.687920501396
 20
1857.911588116654
 30
0.0
 11
-1647.487918990154
 21
1857.911588116654
 31
0.0
  0
LINE
  5
1321A
330
1A
100
AcDbEntity
  8
ZISSEN1
100
AcDbLine
 10
-1644.687920501396
 20
1855.411588116655
 30
0.0
 11
-1644.687920501396
 21
1857.911588116654
 31
0.0
  0
LINE
  5
1321B
330
1A
100
AcDbEntity
  8
ZISSEN1
100
AcDbLine
 10
-1648.688963662592
 20
1860.461588116654
 30
0.0
 11
-1649.488963662591
 21
1860.461588116654
 31
0.0
  0
LINE
  5
1321C
330
1A
100
AcDbEntity
  8
ZISSEN1
100
AcDbLine
 10
-1648.487918990154
 20
1858.911588116654
 30
0.0
 11
-1648.487920501395
 21
1869.861588116655
 31
0.0
  0
LINE
  5
1321D
330
1A
100
AcDbEntity
  8
ZISSEN1
100
AcDbLine
 10
-1648.487920501397
 20
1869.861588116654
 30
0.0
 11
-1647.487920501397
 21
1870.861588116654
 31
0.0
  0
LINE
  5
1321E
330
1A
100
AcDbEntity
  8
ZISSEN1
100
AcDbLine
 10
-1637.737932385179
 20
1855.861588116655
 30
0.0
 11
-1637.737932385179
 21
1850.361588310452
 31
0.0
  0
LINE
  5
1321F
330
1A
100
AcDbEntity
  8
ZISSEN1
100
AcDbLine
 10
-1648.687932415428
 20
1871.361588116655
 30
0.0
 11
-1648.687932415428
 21
1866.361588116655
 31
0.0
  0
LINE
  5
13220
330
1A
100
AcDbEntity
  8
ZISSEN1
100
AcDbLine
 10
-1657.187932415429
 20
1864.361588116655
 30
0.0
 11
-1655.187932415429
 21
1866.361588116655
 31
0.0
  0
LINE
  5
13221
330
1A
100
AcDbEntity
  8
ZISSEN1
100
AcDbLine
 10
-1648.687932415428
 20
1866.361588116655
 30
0.0
 11
-1655.187932415429
 21
1866.361588116655
 31
0.0
  0
LINE
  5
13222
330
1A
100
AcDbEntity
  8
ZISSEN1
100
AcDbLine
 10
-1657.187932415429
 20
1851.611588116655
 30
0.0
 11
-1657.187932415429
 21
1864.361588116655
 31
0.0
  0
LINE
  5
13223
330
1A
100
AcDbEntity
  8
ZISSEN1
100
AcDbLine
 10
-1608.037932415703
 20
1844.761588116655
 30
0.0
 11
-1622.637932415703
 21
1844.761588116655
 31
0.0
  0
LINE
  5
13224
330
1A
100
AcDbEntity
  8
ZISSEN1
100
AcDbLine
 10
-1615.587919569449
 20
1855.861588116655
 30
0.0
 11
-1606.187931831506
 21
1855.861588116655
 31
0.0
  0
LINE
  5
13225
330
1A
100
AcDbEntity
  8
ZISSEN1
100
AcDbLine
 10
-1615.587919569449
 20
1857.461588116654
 30
0.0
 11
-1606.187932415431
 21
1857.461588116654
 31
0.0
  0
LINE
  5
13226
330
1A
100
AcDbEntity
  8
ZISSEN1
100
AcDbLine
 10
-1615.587919569449
 20
1865.061588116655
 30
0.0
 11
-1606.187919569451
 21
1865.061588116655
 31
0.0
  0
LINE
  5
13227
330
1A
100
AcDbEntity
  8
ZISSEN1
100
AcDbLine
 10
-1615.587919569449
 20
1865.361588116655
 30
0.0
 11
-1606.187919569451
 21
1865.361588116655
 31
0.0
  0
LINE
  5
13228
330
1A
100
AcDbEntity
  8
ZISSEN1
100
AcDbLine
 10
-1607.187932415429
 20
1864.161588116655
 30
0.0
 11
-1614.587935560493
 21
1864.161588116655
 31
0.0
  0
LINE
  5
13229
330
1A
100
AcDbEntity
  8
ZISSEN1
100
AcDbLine
 10
-1616.587919569451
 20
1845.761588116655
 30
0.0
 11
-1607.037932415706
 21
1845.761588116655
 31
0.0
  0
LINE
  5
1322A
330
1A
100
AcDbEntity
  8
ZISSEN1
100
AcDbLine
 10
-1615.587919569449
 20
1866.161588116654
 30
0.0
 11
-1606.187919569451
 21
1866.161588116654
 31
0.0
  0
LINE
  5
1322B
330
1A
100
AcDbEntity
  8
ZISSEN1
100
AcDbLine
 10
-1615.587919569449
 20
1851.861588116655
 30
0.0
 11
-1606.187919569451
 21
1851.861588116655
 31
0.0
  0
LINE
  5
1322C
330
1A
100
AcDbEntity
  8
ZISSEN1
100
AcDbLine
 10
-1621.587932809969
 20
1853.511588116655
 30
0.0
 11
-1621.587932809969
 21
1855.861592116655
 31
0.0
  0
LINE
  5
1322D
330
1A
100
AcDbEntity
  8
ZISSEN1
100
AcDbLine
 10
-1628.187932809968
 20
1853.511586116655
 30
0.0
 11
-1628.187932809968
 21
1855.861590116655
 31
0.0
  0
LINE
  5
1322E
330
1A
100
AcDbEntity
  8
ZISSEN1
100
AcDbLine
 10
-1629.187932809968
 20
1853.511588116655
 30
0.0
 11
-1629.187932809968
 21
1855.861592116655
 31
0.0
  0
LINE
  5
1322F
330
1A
100
AcDbEntity
  8
ZISSEN1
100
AcDbLine
 10
-1628.187932809968
 20
1853.511586116655
 30
0.0
 11
-1621.587932809969
 21
1853.511588116655
 31
0.0
  0
LINE
  5
13230
330
1A
100
AcDbEntity
  8
ZISSEN1
100
AcDbLine
 10
-1617.587931831508
 20
1855.861588116655
 30
0.0
 11
-1617.587931831508
 21
1857.461588116654
 31
0.0
  0
LINE
  5
13231
330
1A
100
AcDbEntity
  8
ZISSEN1
100
AcDbLine
 10
-1618.587931831508
 20
1855.861588116655
 30
0.0
 11
-1618.587931831508
 21
1857.461588116654
 31
0.0
  0
LINE
  5
13232
330
1A
100
AcDbEntity
  8
ZISSEN1
100
AcDbLine
 10
-1615.587919569449
 20
1863.461588116654
 30
0.0
 11
-1614.587932415429
 21
1863.461588116654
 31
0.0
  0
LINE
  5
13233
330
1A
100
AcDbEntity
  8
ZISSEN1
100
AcDbLine
 10
-1614.337932415436
 20
1864.161588116655
 30
0.0
 11
-1614.337932415436
 21
1865.061588116655
 31
0.0
  0
LINE
  5
13234
330
1A
100
AcDbEntity
  8
ZISSEN1
100
AcDbLine
 10
-1615.337932415433
 20
1863.461588116654
 30
0.0
 11
-1615.337932415433
 21
1865.061588116655
 31
0.0
  0
LINE
  5
13235
330
1A
100
AcDbEntity
  8
ZISSEN1
100
AcDbLine
 10
-1614.587932415429
 20
1864.161588116655
 30
0.0
 11
-1614.587932415429
 21
1857.461588116654
 31
0.0
  0
LINE
  5
13236
330
1A
100
AcDbEntity
  8
ZISSEN1
100
AcDbLine
 10
-1618.387932415432
 20
1865.061588116655
 30
0.0
 11
-1617.887920501397
 21
1865.061588116655
 31
0.0
  0
LINE
  5
13237
330
1A
100
AcDbEntity
  8
ZISSEN1
100
AcDbLine
 10
-1618.387932415432
 20
1865.361588116655
 30
0.0
 11
-1617.887920501397
 21
1865.361588116655
 31
0.0
  0
LINE
  5
13238
330
1A
100
AcDbEntity
  8
ZISSEN1
100
AcDbLine
 10
-1633.787920501395
 20
1865.061588116655
 30
0.0
 11
-1633.28793241543
 21
1865.061588116655
 31
0.0
  0
LINE
  5
13239
330
1A
100
AcDbEntity
  8
ZISSEN1
100
AcDbLine
 10
-1633.787920501395
 20
1865.361588116655
 30
0.0
 11
-1633.28793241543
 21
1865.361588116655
 31
0.0
  0
LINE
  5
1323A
330
1A
100
AcDbEntity
  8
ZISSEN1
100
AcDbLine
 10
-1618.387932415432
 20
1868.361588116655
 30
0.0
 11
-1617.887920501397
 21
1868.361588116655
 31
0.0
  0
LINE
  5
1323B
330
1A
100
AcDbEntity
  8
ZISSEN1
100
AcDbLine
 10
-1633.787920501395
 20
1868.361588116655
 30
0.0
 11
-1633.28793241543
 21
1868.361588116655
 31
0.0
  0
LINE
  5
1323C
330
1A
100
AcDbEntity
  8
ZISSEN1
100
AcDbLine
 10
-1618.387932415432
 20
1865.061588116655
 30
0.0
 11
-1618.387932415432
 21
1871.761588116655
 31
0.0
  0
LINE
  5
1323D
330
1A
100
AcDbEntity
  8
ZISSEN1
100
AcDbLine
 10
-1633.28793241543
 20
1871.761588116655
 30
0.0
 11
-1633.28793241543
 21
1865.061588116655
 31
0.0
  0
LINE
  5
1323E
330
1A
100
AcDbEntity
  8
ZISSEN1
100
AcDbLine
 10
-1633.28793241543
 20
1871.761588116655
 30
0.0
 11
-1618.387932415432
 21
1871.761588116655
 31
0.0
  0
LINE
  5
1323F
330
1A
100
AcDbEntity
  8
ZISSEN1
100
AcDbLine
 10
-1633.887932415432
 20
1869.96160003069
 30
0.0
 11
-1633.887932415432
 21
1871.361588116655
 31
0.0
  0
LINE
  5
13240
330
1A
100
AcDbEntity
  8
ZISSEN1
100
AcDbLine
 10
-1617.78793241543
 20
1869.96157620262
 30
0.0
 11
-1617.78793241543
 21
1871.361588116655
 31
0.0
  0
LINE
  5
13241
330
1A
100
AcDbEntity
  8
ZISSEN1
100
AcDbLine
 10
-1615.587919569449
 20
1866.161588116654
 30
0.0
 11
-1615.587919569449
 21
1851.861588116655
 31
0.0
  0
LINE
  5
13242
330
1A
100
AcDbEntity
  8
ZISSEN1
100
AcDbLine
 10
-1616.587919569451
 20
1859.961588116655
 30
0.0
 11
-1616.587919569451
 21
1845.761588116655
 31
0.0
  0
LINE
  5
13243
330
1A
100
AcDbEntity
  8
ZISSEN1
100
AcDbLine
 10
-1633.787920501395
 20
1864.561588116654
 30
0.0
 11
-1633.787920501395
 21
1869.861588116655
 31
0.0
  0
LINE
  5
13244
330
1A
100
AcDbEntity
  8
ZISSEN1
100
AcDbLine
 10
-1617.887920501395
 20
1869.861588116654
 30
0.0
 11
-1616.887920501395
 21
1870.861588116654
 31
0.0
  0
LINE
  5
13245
330
1A
100
AcDbEntity
  8
ZISSEN1
100
AcDbLine
 10
-1633.787920501396
 20
1869.861588116654
 30
0.0
 11
-1634.787920501397
 21
1870.861588116654
 31
0.0
  0
LINE
  5
13246
330
1A
100
AcDbEntity
  8
ZISSEN1
100
AcDbLine
 10
-1633.787920501396
 20
1864.561588116653
 30
0.0
 11
-1617.887920501395
 21
1864.561588116653
 31
0.0
  0
LINE
  5
13247
330
1A
100
AcDbEntity
  8
ZISSEN1
100
AcDbLine
 10
-1617.887920501395
 20
1869.861588116654
 30
0.0
 11
-1617.887920501395
 21
1864.561588116653
 31
0.0
  0
LINE
  5
13248
330
1A
100
AcDbEntity
  8
ZISSEN1
100
AcDbLine
 10
-1618.387932415432
 20
1865.061588116655
 30
0.0
 11
-1618.387932415432
 21
1871.761588116655
 31
0.0
  0
LINE
  5
13249
330
1A
100
AcDbEntity
  8
ZISSEN1
100
AcDbLine
 10
-1633.287932415432
 20
1865.061588116655
 30
0.0
 11
-1618.387932415432
 21
1865.061588116655
 31
0.0
  0
ARC
  5
1324A
330
1A
100
AcDbEntity
  8
ZISSEN1
100
AcDbCircle
 10
-1600.687932415431
 20
1868.186959128055
 30
0.0
 40
5.174628988598421
100
AcDbArc
 50
53.70830187258448
 51
126.2916981274155
  0
LINE
  5
1324B
330
1A
100
AcDbEntity
  8
ZISSEN1
100
AcDbLine
 10
-1597.53793241543
 20
1871.361588116655
 30
0.0
 11
-1597.625088158179
 21
1872.357782814746
 31
0.0
  0
LINE
  5
1324C
330
1A
100
AcDbEntity
  8
ZISSEN1
100
AcDbLine
 10
-1603.837932415429
 20
1871.361588116655
 30
0.0
 11
-1603.750776672684
 21
1872.357782814746
 31
0.0
  0
LINE
  5
1324D
330
1A
100
AcDbEntity
  8
ZISSEN1
100
AcDbLine
 10
-1607.187932415429
 20
1858.461588116655
 30
0.0
 11
-1606.187932415431
 21
1858.461588116655
 31
0.0
  0
LINE
  5
1324E
330
1A
100
AcDbEntity
  8
ZISSEN1
100
AcDbLine
 10
-1607.187932415429
 20
1862.461588116654
 30
0.0
 11
-1606.187932415431
 21
1862.461588116654
 31
0.0
  0
LINE
  5
1324F
330
1A
100
AcDbEntity
  8
ZISSEN1
100
AcDbLine
 10
-1606.437933413773
 20
1865.361588116655
 30
0.0
 11
-1606.437933413773
 21
1866.161588116654
 31
0.0
  0
LINE
  5
13250
330
1A
100
AcDbEntity
  8
ZISSEN1
100
AcDbLine
 10
-1606.437932415431
 20
1865.061588116655
 30
0.0
 11
-1606.437933413773
 21
1865.361588116655
 31
0.0
  0
LINE
  5
13251
330
1A
100
AcDbEntity
  8
ZISSEN1
100
AcDbLine
 10
-1607.187932415429
 20
1863.461588116654
 30
0.0
 11
-1606.187932415431
 21
1863.461588116654
 31
0.0
  0
LINE
  5
13252
330
1A
100
AcDbEntity
  8
ZISSEN1
100
AcDbLine
 10
-1607.437932415431
 20
1864.161588116655
 30
0.0
 11
-1607.437932415431
 21
1865.061588116655
 31
0.0
  0
LINE
  5
13253
330
1A
100
AcDbEntity
  8
ZISSEN1
100
AcDbLine
 10
-1607.187932415429
 20
1857.461588116654
 30
0.0
 11
-1607.187932415429
 21
1864.161588116655
 31
0.0
  0
LINE
  5
13254
330
1A
100
AcDbEntity
  8
ZISSEN1
100
AcDbLine
 10
-1606.18791956945
 20
1866.161588116653
 30
0.0
 11
-1606.18791956945
 21
1851.861588116654
 31
0.0
  0
LINE
  5
13255
330
1A
100
AcDbEntity
  8
ZISSEN1
100
AcDbLine
 10
-1606.437932415431
 20
1865.061588116655
 30
0.0
 11
-1606.437932415431
 21
1863.461588116654
 31
0.0
  0
LINE
  5
13256
330
1A
100
AcDbEntity
  8
ZISSEN1
100
AcDbLine
 10
-1559.887932415432
 20
1871.361588116655
 30
0.0
 11
-1538.687932415431
 21
1871.361588116655
 31
0.0
  0
LINE
  5
13257
330
1A
100
AcDbEntity
  8
ZISSEN1
100
AcDbLine
 10
-1558.38792050112
 20
1870.861588116654
 30
0.0
 11
-1539.88792050112
 21
1870.861588116654
 31
0.0
  0
LINE
  5
13258
330
1A
100
AcDbEntity
  8
ZISSEN1
100
AcDbLine
 10
-1569.687932415427
 20
1853.511588116655
 30
0.0
 11
-1563.087932415428
 21
1853.511590116655
 31
0.0
  0
LINE
  5
13259
330
1A
100
AcDbEntity
  8
ZISSEN1
100
AcDbLine
 10
-1584.667932415431
 20
1855.861588116655
 30
0.0
 11
-1558.087919569462
 21
1855.861588116655
 31
0.0
  0
LINE
  5
1325A
330
1A
100
AcDbEntity
  8
ZISSEN1
100
AcDbLine
 10
-1584.687919569471
 20
1857.461588116654
 30
0.0
 11
-1558.087934212056
 21
1857.461588116654
 31
0.0
  0
LINE
  5
1325B
330
1A
100
AcDbEntity
  8
ZISSEN1
100
AcDbLine
 10
-1574.78793241543
 20
1871.761588116655
 30
0.0
 11
-1559.887932415432
 21
1871.761588116655
 31
0.0
  0
LINE
  5
1325C
330
1A
100
AcDbEntity
  8
ZISSEN1
100
AcDbLine
 10
-1575.28792050112
 20
1864.561588116653
 30
0.0
 11
-1559.38792050112
 21
1864.561588116653
 31
0.0
  0
LINE
  5
1325D
330
1A
100
AcDbEntity
  8
ZISSEN1
100
AcDbLine
 10
-1584.687919569404
 20
1845.861588116654
 30
0.0
 11
-1558.087919569404
 21
1845.861588116654
 31
0.0
  0
LINE
  5
1325E
330
1A
100
AcDbEntity
  8
ZISSEN1
100
AcDbLine
 10
-1584.687919569486
 20
1859.961588116654
 30
0.0
 11
-1558.087919569486
 21
1859.961588116654
 31
0.0
  0
LINE
  5
1325F
330
1A
100
AcDbEntity
  8
ZISSEN1
100
AcDbLine
 10
-1575.28792050112
 20
1865.061588116655
 30
0.0
 11
-1559.38792050112
 21
1865.061588116655
 31
0.0
  0
LINE
  5
13260
330
1A
100
AcDbEntity
  8
ZISSEN1
100
AcDbLine
 10
-1570.687932415427
 20
1853.511590116655
 30
0.0
 11
-1570.687932415427
 21
1855.861594116654
 31
0.0
  0
LINE
  5
13261
330
1A
100
AcDbEntity
  8
ZISSEN1
100
AcDbLine
 10
-1569.687932415427
 20
1853.511588116655
 30
0.0
 11
-1569.687932415427
 21
1855.861592116655
 31
0.0
  0
LINE
  5
13262
330
1A
100
AcDbEntity
  8
ZISSEN1
100
AcDbLine
 10
-1577.287932415426
 20
1853.511588116655
 30
0.0
 11
-1570.687932415427
 21
1853.511590116655
 31
0.0
  0
LINE
  5
13263
330
1A
100
AcDbEntity
  8
ZISSEN1
100
AcDbLine
 10
-1577.287932415426
 20
1853.511588116655
 30
0.0
 11
-1577.287932415426
 21
1855.861592116655
 31
0.0
  0
ARC
  5
13264
330
1A
100
AcDbEntity
  8
ZISSEN1
100
AcDbCircle
 10
-1581.187932415431
 20
1868.186959128055
 30
0.0
 40
5.174628988598421
100
AcDbArc
 50
53.70830187258448
 51
126.2916981274155
  0
LINE
  5
13265
330
1A
100
AcDbEntity
  8
ZISSEN1
100
AcDbLine
 10
-1578.03793241543
 20
1871.361588116655
 30
0.0
 11
-1578.125088158179
 21
1872.357782814746
 31
0.0
  0
LINE
  5
13266
330
1A
100
AcDbEntity
  8
ZISSEN1
100
AcDbLine
 10
-1584.337932415429
 20
1871.361588116655
 30
0.0
 11
-1584.250776672684
 21
1872.357782814746
 31
0.0
  0
LINE
  5
13267
330
1A
100
AcDbEntity
  8
ZISSEN1
100
AcDbLine
 10
-1584.137929824036
 20
1855.861588116655
 30
0.0
 11
-1584.137929824037
 21
1850.361588310452
 31
0.0
  0
LINE
  5
13268
330
1A
100
AcDbEntity
  8
ZISSEN1
100
AcDbLine
 10
-1579.237929824036
 20
1855.861588116655
 30
0.0
 11
-1579.237929824037
 21
1850.361588310452
 31
0.0
  0
LINE
  5
13269
330
1A
100
AcDbEntity
  8
ZISSEN1
100
AcDbLine
 10
-1579.237929824037
 20
1850.361588310452
 30
0.0
 11
-1584.137929824037
 21
1850.361588310452
 31
0.0
  0
LINE
  5
1326A
330
1A
100
AcDbEntity
  8
ZISSEN1
100
AcDbLine
 10
-1581.6879310432
 20
1855.861588116655
 30
0.0
 11
-1581.6879310432
 21
1857.461588116654
 31
0.0
  0
LINE
  5
1326B
330
1A
100
AcDbEntity
  8
ZISSEN1
100
AcDbLine
 10
-1582.6879310432
 20
1855.861588116655
 30
0.0
 11
-1582.6879310432
 21
1857.461588116654
 31
0.0
  0
LINE
  5
1326C
330
1A
100
AcDbEntity
  8
ZISSEN1
100
AcDbLine
 10
-1583.687932140986
 20
1855.861588116655
 30
0.0
 11
-1583.687932140986
 21
1857.461588116654
 31
0.0
  0
LINE
  5
1326D
330
1A
100
AcDbEntity
  8
ZISSEN1
100
AcDbLine
 10
-1575.28792050112
 20
1865.361588116655
 30
0.0
 11
-1574.78793241543
 21
1865.361588116655
 31
0.0
  0
LINE
  5
1326E
330
1A
100
AcDbEntity
  8
ZISSEN1
100
AcDbLine
 10
-1575.28792050112
 20
1868.361588116655
 30
0.0
 11
-1574.78793241543
 21
1868.361588116655
 31
0.0
  0
LINE
  5
1326F
330
1A
100
AcDbEntity
  8
ZISSEN1
100
AcDbLine
 10
-1575.387932415432
 20
1869.961600030966
 30
0.0
 11
-1575.387932415432
 21
1871.361588116655
 31
0.0
  0
LINE
  5
13270
330
1A
100
AcDbEntity
  8
ZISSEN1
100
AcDbLine
 10
-1576.28792050112
 20
1870.861588116654
 30
0.0
 11
-1575.28792050112
 21
1869.861588116654
 31
0.0
  0
LINE
  5
13271
330
1A
100
AcDbEntity
  8
ZISSEN1
100
AcDbLine
 10
-1584.687919569404
 20
1845.861588116654
 30
0.0
 11
-1584.687919569486
 21
1859.961588116654
 31
0.0
  0
LINE
  5
13272
330
1A
100
AcDbEntity
  8
ZISSEN1
100
AcDbLine
 10
-1575.28792050112
 20
1869.861588116654
 30
0.0
 11
-1575.28792050112
 21
1864.561588116653
 31
0.0
  0
LINE
  5
13273
330
1A
100
AcDbEntity
  8
ZISSEN1
100
AcDbLine
 10
-1574.78793241543
 20
1871.761588116655
 30
0.0
 11
-1574.78793241543
 21
1865.061588116655
 31
0.0
  0
LINE
  5
13274
330
1A
100
AcDbEntity
  8
ZISSEN1
100
AcDbLine
 10
-1563.087932415428
 20
1853.511590116655
 30
0.0
 11
-1563.087932415428
 21
1855.861594116654
 31
0.0
  0
LINE
  5
13275
330
1A
100
AcDbEntity
  8
ZISSEN1
100
AcDbLine
 10
-1559.087932415429
 20
1855.861588116655
 30
0.0
 11
-1559.087932415429
 21
1857.461588116654
 31
0.0
  0
LINE
  5
13276
330
1A
100
AcDbEntity
  8
ZISSEN1
100
AcDbLine
 10
-1560.087932415429
 20
1855.861588116655
 30
0.0
 11
-1560.087932415429
 21
1857.461588116654
 31
0.0
  0
LINE
  5
13277
330
1A
100
AcDbEntity
  8
ZISSEN1
100
AcDbLine
 10
-1557.087919569453
 20
1855.861588116655
 30
0.0
 11
-1547.687919569453
 21
1855.861588116655
 31
0.0
  0
LINE
  5
13278
330
1A
100
AcDbEntity
  8
ZISSEN1
100
AcDbLine
 10
-1557.087919569453
 20
1857.461588116654
 30
0.0
 11
-1547.687932415431
 21
1857.461588116654
 31
0.0
  0
LINE
  5
13279
330
1A
100
AcDbEntity
  8
ZISSEN1
100
AcDbLine
 10
-1548.687932415431
 20
1858.461588116655
 30
0.0
 11
-1547.687932415431
 21
1858.461588116655
 31
0.0
  0
LINE
  5
1327A
330
1A
100
AcDbEntity
  8
ZISSEN1
100
AcDbLine
 10
-1548.687932415431
 20
1862.461588116654
 30
0.0
 11
-1547.687932415431
 21
1862.461588116654
 31
0.0
  0
LINE
  5
1327B
330
1A
100
AcDbEntity
  8
ZISSEN1
100
AcDbLine
 10
-1555.837932415436
 20
1864.161588116655
 30
0.0
 11
-1555.837932415436
 21
1865.061588116655
 31
0.0
  0
LINE
  5
1327C
330
1A
100
AcDbEntity
  8
ZISSEN1
100
AcDbLine
 10
-1556.837932415433
 20
1863.461588116654
 30
0.0
 11
-1556.837932415433
 21
1865.061588116655
 31
0.0
  0
LINE
  5
1327D
330
1A
100
AcDbEntity
  8
ZISSEN1
100
AcDbLine
 10
-1548.687932415431
 20
1863.461588116654
 30
0.0
 11
-1547.687932415431
 21
1863.461588116654
 31
0.0
  0
LINE
  5
1327E
330
1A
100
AcDbEntity
  8
ZISSEN1
100
AcDbLine
 10
-1557.087919569453
 20
1863.461588116654
 30
0.0
 11
-1556.087932415429
 21
1863.461588116654
 31
0.0
  0
LINE
  5
1327F
330
1A
100
AcDbEntity
  8
ZISSEN1
100
AcDbLine
 10
-1557.087919569453
 20
1865.061588116655
 30
0.0
 11
-1547.687919569453
 21
1865.061588116655
 31
0.0
  0
LINE
  5
13280
330
1A
100
AcDbEntity
  8
ZISSEN1
100
AcDbLine
 10
-1557.087919569453
 20
1865.361588116655
 30
0.0
 11
-1547.687919569453
 21
1865.361588116655
 31
0.0
  0
LINE
  5
13281
330
1A
100
AcDbEntity
  8
ZISSEN1
100
AcDbLine
 10
-1556.087932415429
 20
1864.161588116655
 30
0.0
 11
-1548.687932415429
 21
1864.161588116655
 31
0.0
  0
LINE
  5
13282
330
1A
100
AcDbEntity
  8
ZISSEN1
100
AcDbLine
 10
-1556.087932415429
 20
1864.161588116655
 30
0.0
 11
-1556.087932415429
 21
1857.461588116654
 31
0.0
  0
LINE
  5
13283
330
1A
100
AcDbEntity
  8
ZISSEN1
100
AcDbLine
 10
-1559.887932415432
 20
1865.361588116655
 30
0.0
 11
-1559.38792050112
 21
1865.361588116655
 31
0.0
  0
LINE
  5
13284
330
1A
100
AcDbEntity
  8
ZISSEN1
100
AcDbLine
 10
-1559.887932415432
 20
1868.361588116655
 30
0.0
 11
-1559.38792050112
 21
1868.361588116655
 31
0.0
  0
LINE
  5
13285
330
1A
100
AcDbEntity
  8
ZISSEN1
100
AcDbLine
 10
-1559.28793241543
 20
1869.961576202345
 30
0.0
 11
-1559.28793241543
 21
1871.361588116655
 31
0.0
  0
LINE
  5
13286
330
1A
100
AcDbEntity
  8
ZISSEN1
100
AcDbLine
 10
-1559.38792050112
 20
1869.861588116655
 30
0.0
 11
-1558.38792050112
 21
1870.861588116655
 31
0.0
  0
LINE
  5
13287
330
1A
100
AcDbEntity
  8
ZISSEN1
100
AcDbLine
 10
-1557.087919569453
 20
1866.161588116654
 30
0.0
 11
-1557.087919569453
 21
1851.861588116655
 31
0.0
  0
LINE
  5
13288
330
1A
100
AcDbEntity
  8
ZISSEN1
100
AcDbLine
 10
-1557.087919569453
 20
1866.161588116653
 30
0.0
 11
-1547.687919569453
 21
1866.161588116653
 31
0.0
  0
LINE
  5
13289
330
1A
100
AcDbEntity
  8
ZISSEN1
100
AcDbLine
 10
-1557.087919569453
 20
1851.861588116654
 30
0.0
 11
-1547.687919569453
 21
1851.861588116654
 31
0.0
  0
LINE
  5
1328A
330
1A
100
AcDbEntity
  8
ZISSEN1
100
AcDbLine
 10
-1558.087919569404
 20
1845.861588116654
 30
0.0
 11
-1558.087919569486
 21
1859.961588116654
 31
0.0
  0
LINE
  5
1328B
330
1A
100
AcDbEntity
  8
ZISSEN1
100
AcDbLine
 10
-1547.687919569453
 20
1866.161588116653
 30
0.0
 11
-1547.687919569453
 21
1851.861588116654
 31
0.0
  0
LINE
  5
1328C
330
1A
100
AcDbEntity
  8
ZISSEN1
100
AcDbLine
 10
-1559.38792050112
 20
1869.861588116654
 30
0.0
 11
-1559.38792050112
 21
1864.561588116653
 31
0.0
  0
LINE
  5
1328D
330
1A
100
AcDbEntity
  8
ZISSEN1
100
AcDbLine
 10
-1548.687932415429
 20
1857.461588116654
 30
0.0
 11
-1548.687932415429
 21
1864.161588116655
 31
0.0
  0
LINE
  5
1328E
330
1A
100
AcDbEntity
  8
ZISSEN1
100
AcDbLine
 10
-1559.88793241543
 20
1865.061588116655
 30
0.0
 11
-1559.88793241543
 21
1871.761588116655
 31
0.0
  0
ARC
  5
1328F
330
1A
100
AcDbEntity
  8
ZISSEN1
100
AcDbCircle
 10
-1533.79929117236
 20
1849.361588116655
 30
0.0
 40
2.282911605504286
100
AcDbArc
 50
99.74071309745804
 51
260.2592869025419
  0
LINE
  5
13290
330
1A
100
AcDbEntity
  8
CL1
100
AcDbLine
 10
-1533.685536429349
 20
1852.441890185849
 30
0.0
 11
-1533.685536429349
 21
1846.088642395005
 31
0.0
  0
LINE
  5
13291
330
1A
100
AcDbEntity
  8
CL1
100
AcDbLine
 10
-1533.845536429349
 20
1849.361588116657
 30
0.0
 11
-1529.228378380848
 21
1849.361588116657
 31
0.0
  0
LINE
  5
13292
330
1A
100
AcDbEntity
  8
CL1
100
AcDbLine
 10
-1536.437932415433
 20
1849.361588116657
 30
0.0
 11
-1533.845536429349
 21
1849.361588116657
 31
0.0
  0
ARC
  5
13293
330
1A
100
AcDbEntity
  8
ZISSEN1
100
AcDbCircle
 10
-1542.187932415431
 20
1868.186959128055
 30
0.0
 40
5.174628988598421
100
AcDbArc
 50
53.70830187258448
 51
126.2916981274155
  0
LINE
  5
13294
330
1A
100
AcDbEntity
  8
ZISSEN1
100
AcDbLine
 10
-1539.03793241543
 20
1871.361588116655
 30
0.0
 11
-1539.125088158179
 21
1872.357782814746
 31
0.0
  0
LINE
  5
13295
330
1A
100
AcDbEntity
  8
ZISSEN1
100
AcDbLine
 10
-1545.337932415429
 20
1871.361588116655
 30
0.0
 11
-1545.250776672684
 21
1872.357782814746
 31
0.0
  0
LINE
  5
13296
330
1A
100
AcDbEntity
  8
ZISSEN1
100
AcDbLine
 10
-1539.687932415431
 20
1857.461588116654
 30
0.0
 11
-1539.687932415431
 21
1858.111577838249
 31
0.0
  0
LINE
  5
13297
330
1A
100
AcDbEntity
  8
ZISSEN1
100
AcDbLine
 10
-1540.167932415431
 20
1855.411588116655
 30
0.0
 11
-1540.167932415431
 21
1855.861588116655
 31
0.0
  0
LINE
  5
13298
330
1A
100
AcDbEntity
  8
ZISSEN1
100
AcDbLine
 10
-1540.187932415431
 20
1855.861588116655
 30
0.0
 11
-1540.187932415431
 21
1857.461588116654
 31
0.0
  0
LINE
  5
13299
330
1A
100
AcDbEntity
  8
ZISSEN1
100
AcDbLine
 10
-1542.187932415431
 20
1855.411588116655
 30
0.0
 11
-1542.187932415431
 21
1855.861588116655
 31
0.0
  0
LINE
  5
1329A
330
1A
100
AcDbEntity
  8
ZISSEN1
100
AcDbLine
 10
-1542.187932415431
 20
1855.861588116655
 30
0.0
 11
-1542.187932415431
 21
1857.461588116654
 31
0.0
  0
LINE
  5
1329B
330
1A
100
AcDbEntity
  8
ZISSEN1
100
AcDbLine
 10
-1539.187932415431
 20
1855.861588116655
 30
0.0
 11
-1542.687920501122
 21
1855.861588116655
 31
0.0
  0
LINE
  5
1329C
330
1A
100
AcDbEntity
  8
ZISSEN1
100
AcDbLine
 10
-1539.187932415431
 20
1857.461588116654
 30
0.0
 11
-1539.187932415431
 21
1855.861588116655
 31
0.0
  0
LINE
  5
1329D
330
1A
100
AcDbEntity
  8
ZISSEN1
100
AcDbLine
 10
-1542.687932415428
 20
1857.461588116654
 30
0.0
 11
-1539.187932415431
 21
1857.461588116654
 31
0.0
  0
LINE
  5
1329E
330
1A
100
AcDbEntity
  8
ZISSEN1
100
AcDbLine
 10
-1539.687932415431
 20
1870.661600030966
 30
0.0
 11
-1539.687932415431
 21
1871.361588116655
 31
0.0
  0
LINE
  5
1329F
330
1A
100
AcDbEntity
  8
ZISSEN1
100
AcDbLine
 10
-1538.88792050112
 20
1868.361588116655
 30
0.0
 11
-1538.687932415431
 21
1868.361588116655
 31
0.0
  0
LINE
  5
132A0
330
1A
100
AcDbEntity
  8
ZISSEN1
100
AcDbLine
 10
-1538.687932415431
 20
1866.361588116655
 30
0.0
 11
-1538.687932415431
 21
1871.361588116655
 31
0.0
  0
LINE
  5
132A1
330
1A
100
AcDbEntity
  8
ZISSEN1
100
AcDbLine
 10
-1538.687932415431
 20
1866.361588116655
 30
0.0
 11
-1532.187932415431
 21
1866.361588116654
 31
0.0
  0
LINE
  5
132A2
330
1A
100
AcDbEntity
  8
ZISSEN1
100
AcDbLine
 10
-1530.187932415431
 20
1864.361588116655
 30
0.0
 11
-1532.187932415431
 21
1866.361588116654
 31
0.0
  0
LINE
  5
132A3
330
1A
100
AcDbEntity
  8
ZISSEN1
100
AcDbLine
 10
-1530.187932415431
 20
1851.611588116655
 30
0.0
 11
-1530.187932415431
 21
1864.361588116655
 31
0.0
  0
LINE
  5
132A4
330
1A
100
AcDbEntity
  8
ZISSEN1
100
AcDbLine
 10
-1534.187932415433
 20
1851.611588116655
 30
0.0
 11
-1530.187932415431
 21
1851.611588116655
 31
0.0
  0
LINE
  5
132A5
330
1A
100
AcDbEntity
  8
ZISSEN1
100
AcDbLine
 10
-1530.187932415431
 20
1847.111588116655
 30
0.0
 11
-1534.187932415433
 21
1847.111588116655
 31
0.0
  0
LINE
  5
132A6
330
1A
100
AcDbEntity
  8
ZISSEN1
100
AcDbLine
 10
-1537.88793241543
 20
1861.461588116655
 30
0.0
 11
-1538.687932415431
 21
1861.461588116655
 31
0.0
  0
LINE
  5
132A7
330
1A
100
AcDbEntity
  8
ZISSEN1
100
AcDbLine
 10
-1538.687932415431
 20
1860.461588116654
 30
0.0
 11
-1537.88793241543
 21
1860.461588116654
 31
0.0
  0
LINE
  5
132A8
330
1A
100
AcDbEntity
  8
ZISSEN1
100
AcDbLine
 10
-1542.687920501122
 20
1855.411588116655
 30
0.0
 11
-1539.88792050112
 21
1855.411588116655
 31
0.0
  0
LINE
  5
132A9
330
1A
100
AcDbEntity
  8
ZISSEN1
100
AcDbLine
 10
-1542.687920501122
 20
1857.911588116654
 30
0.0
 11
-1539.88792050112
 21
1857.911589752559
 31
0.0
  0
LINE
  5
132AA
330
1A
100
AcDbEntity
  8
ZISSEN1
100
AcDbLine
 10
-1542.687920501122
 20
1855.411588116655
 30
0.0
 11
-1542.687920501122
 21
1857.911588116654
 31
0.0
  0
LINE
  5
132AB
330
1A
100
AcDbEntity
  8
ZISSEN1
100
AcDbLine
 10
-1539.88792050112
 20
1857.911589752559
 30
0.0
 11
-1538.88792050112
 21
1858.911589752559
 31
0.0
  0
LINE
  5
132AC
330
1A
100
AcDbEntity
  8
ZISSEN1
100
AcDbLine
 10
-1538.88792050112
 20
1854.411588116654
 30
0.0
 11
-1539.88792050112
 21
1855.411588116655
 31
0.0
  0
LINE
  5
132AD
330
1A
100
AcDbEntity
  8
ZISSEN1
100
AcDbLine
 10
-1538.88792050112
 20
1869.861588116654
 30
0.0
 11
-1539.88792050112
 21
1870.861588116654
 31
0.0
  0
LINE
  5
132AE
330
1A
100
AcDbEntity
  8
ZISSEN1
100
AcDbLine
 10
-1538.88792050112
 20
1858.911589752558
 30
0.0
 11
-1538.88792050112
 21
1869.861588116654
 31
0.0
  0
LINE
  5
1343C
330
1A
100
AcDbEntity
  8
CL1
100
AcDbLine
 10
-1472.788802338422
 20
1687.049700397037
 30
0.0
 11
-1472.788802338422
 21
1673.601506578686
 31
0.0
  0
LINE
  5
1347D
330
1A
100
AcDbEntity
  8
CL1
100
AcDbLine
 10
-1704.587211706158
 20
1687.768265452312
 30
0.0
 11
-1704.587211706158
 21
1674.880413269089
 31
0.0
  0
LINE
  5
134F6
330
1A
100
AcDbEntity
  8
CL1
100
AcDbLine
 10
-1653.686035921375
 20
1684.695158297654
 30
0.0
 11
-1653.686035921375
 21
1672.448949095366
 31
0.0
  0
LINE
  5
134F7
330
1A
100
AcDbEntity
  8
CL1
100
AcDbLine
 10
-1533.683920130726
 20
1685.357115001774
 30
0.0
 11
-1533.683920130726
 21
1672.448949095366
 31
0.0
  0
DIMENSION
  5
13629
330
1A
100
AcDbEntity
  8
SUNPOU
100
AcDbDimension
  2
*D8
 10
-1747.010909169385
 20
1754.558810168092
 30
0.0
 11
-1749.760909169386
 21
1778.058492150572
 31
0.0
 70
    32
  1
(47)
  3
標準スタイル
100
AcDbAlignedDimension
 13
-1711.126615524471
 23
1801.558174133053
 33
0.0
 14
-1726.987943453267
 24
1754.558810168092
 34
0.0
 50
90.0
100
AcDbRotatedDimension
1001
ACAD
1000
DSTYLE
1002
{
1070
   340
1005
10
1070
    41
1040
2.0
1070
    40
1040
1.0
1002
}
  0
DIMENSION
  5
13666
330
1A
100
AcDbEntity
  8
SUNPOU
100
AcDbDimension
  2
*D9
 10
-1737.087388616113
 20
1770.562568687642
 30
0.0
 11
-1739.837388616113
 21
1762.560689427867
 31
0.0
 70
    32
  1
(16)
  3
標準スタイル
100
AcDbAlignedDimension
 13
-1726.087943453265
 23
1754.558810168092
 33
0.0
 14
-1726.292790604541
 24
1770.562568687642
 34
0.0
 50
90.0
100
AcDbRotatedDimension
1001
ACAD
1000
DSTYLE
1002
{
1070
   340
1005
10
1070
    41
1040
2.0
1070
    40
1040
1.0
1002
}
  0
VIEWPORT
  5
5D8F
330
5D8E
100
AcDbEntity
 67
     1
  8
0
100
AcDbViewport
 10
221.7777654809889
 20
165.4139944081957
 30
0.0
 40
573.9825248868203
 41
329.6562736515749
 68
     1
 69
     1
1001
ACAD
1000
MVIEW
1002
{
1070
    16
1010
0.0
1020
0.0
1030
0.0
1010
0.0
1020
0.0
1030
1.0
1040
0.0
1040
329.6562736515749
1040
221.7777654809889
1040
165.4139944081957
1040
50.0
1040
0.0
1040
0.0
1070
     0
1070
   100
1070
     1
1070
     0
1070
     0
1070
     0
1070
     0
1070
     0
1040
0.0
1040
0.0
1040
0.0
1040
1.0
1040
1.0
1040
10.0
1040
10.0
1070
     0
1002
{
1002
}
1002
}
  0
VIEWPORT
  5
6001
330
5D8E
100
AcDbEntity
 67
     1
  8
ZISSEN1
100
AcDbViewport
 10
221.7861955525412
 20
157.6960273330388
 30
0.0
 40
385.4999999999997
 41
259.9999999999999
 68
     2
 69
     2
1001
ACAD
1000
MVIEW
1002
{
1070
    16
1010
0.0
1020
0.0
1030
0.0
1010
0.0
1020
0.0
1030
1.0
1040
0.0
1040
259.9999999999999
1040
-1599.980709334626
1040
1782.193703378544
1040
50.0
1040
0.0
1040
0.0
1070
     0
1070
   100
1070
     1
1070
     0
1070
     0
1070
     0
1070
     0
1070
     0
1040
0.0
1040
0.0
1040
0.0
1040
1.0
1040
1.0
1040
10.0
1040
10.0
1070
     0
1002
{
1002
}
1002
}
  0
TEXT
  5
12C0E
330
5D8E
100
AcDbEntity
 67
     1
  8
SUNPOU
 62
     0
100
AcDbText
 10
380.4205352892686
 20
39.61821284384211
 30
0.0
 40
3.5
  1
縮尺 1/1
  7
ゴシック体
100
AcDbText
  0
ENDSEC
  0
SECTION
  2
OBJECTS
  0
DICTIONARY
  5
C
330
0
100
AcDbDictionary
  3
ACAD_GROUP
350
D
  3
ACAD_LAYOUT
350
5C7D
  3
ACAD_MLINESTYLE
350
E
  3
ACAD_PLOTSETTINGS
350
5C7E
  3
ACAD_PLOTSTYLENAME
350
5C7B
  3
DWGPROPS
350
5E8E
  3
ACDBHEADERROUNDTRIPXREC
350
136DF
  0
DICTIONARY
  5
12CB6
330
2
100
AcDbDictionary
280
     1
  3
ACAD_LAYERFILTERS
360
12CB7
  0
DICTIONARY
  5
136FF
330
1A
100
AcDbDictionary
280
     1
  3
ACAD_LAYOUTSELFREF
360
13700
  0
DICTIONARY
  5
13701
330
5D8E
100
AcDbDictionary
280
     1
  3
ACAD_LAYOUTSELFREF
360
13702
  0
DICTIONARY
  5
D
102
{ACAD_REACTORS
330
C
102
}
330
C
100
AcDbDictionary
  3
*A1
350
477D
  3
*A2
350
4C10
  3
*A3
350
4C11
  3
*A4
350
4C12
  3
*A5
350
4C13
  3
*A6
350
4C14
  3
*A7
350
4C15
  3
*A8
350
4C16
  3
*A9
350
4C17
  3
*A10
350
477E
  3
*A11
350
477F
  3
*A12
350
4780
  3
*A13
350
4781
  3
*A14
350
4C0E
  3
*A15
350
4C0F
  0
DICTIONARY
  5
5C7D
102
{ACAD_REACTORS
330
C
102
}
330
C
100
AcDbDictionary
  0
DICTIONARY
  5
E
102
{ACAD_REACTORS
330
C
102
}
330
C
100
AcDbDictionary
  3
STANDARD
350
13
  0
DICTIONARY
  5
5C7E
102
{ACAD_REACTORS
330
C
102
}
330
C
100
AcDbDictionary
  0
ACDBDICTIONARYWDFLT
  5
5C7B
102
{ACAD_REACTORS
330
C
102
}
330
C
100
AcDbDictionary
281
     1
  3
Normal
350
5C7C
100
AcDbDictionaryWithDefault
340
5C7C
  0
XRECORD
  5
5E8E
102
{ACAD_REACTORS
330
C
102
}
330
C
100
AcDbXrecord
  1
DWGPROPS COOKIE
  2

  3

  4

  6

  7

  8

  9

300
=
301
=
302
=
303
=
304
=
305
=
306
=
307
=
308
=
309
=
 40
0.586753587962963
 41
2450495.493631365
 42
2453208.662277431
  1

 90
        0
  0
DICTIONARY
  5
136DF
102
{ACAD_REACTORS
330
C
102
}
330
C
100
AcDbDictionary
  3
TSTACKALIGN
350
136E0
  3
TSTACKSIZE
350
136E1
  3
HYPERLINKBASE
350
136E2
  3
STYLESHEET
350
136E3
  3
LAYOUTDICT
350
136E4
  3
PLOTSETDICT
350
136E5
  3
PLOTSTYLNAMDICT
350
136E6
  3
LWETCUNION
350
136E7
  3
INSUNITS
350
136E8
  3
CEPSNTYPE
350
136E9
  3
FINGERPRINTGUID
350
136EA
  3
VERSIONGUID
350
136EB
  3
PSVPSCALE
350
136EC
  3
PUCSORTHOREF
350
136ED
  3
PUCSORTHOVIEW
350
136EE
  3
PUCSBASE
350
136EF
  3
PUCSORGTOP
350
136F0
  3
PUCSORGBOTTOM
350
136F1
  3
PUCSORGLEFT
350
136F2
  3
PUCSORGRIGHT
350
136F3
  3
PUCSORGFRONT
350
136F4
  3
PUCSORGBACK
350
136F5
  3
UCSORTHOREF
350
136F6
  3
UCSORTHOVIEW
350
136F7
  3
UCSBASE
350
136F8
  3
UCSORGTOP
350
136F9
  3
UCSORGBOTTOM
350
136FA
  3
UCSORGLEFT
350
136FB
  3
UCSORGRIGHT
350
136FC
  3
UCSORGFRONT
350
136FD
  3
UCSORGBACK
350
136FE
  0
DICTIONARY
  5
12CB7
102
{ACAD_REACTORS
330
12CB6
102
}
330
12CB6
100
AcDbDictionary
280
     1
  3
BASE
360
12CB8
  3
CASE
360
12CB9
  3
KIKOU
360
12CBA
  0
XRECORD
  5
13700
102
{ACAD_REACTORS
330
136FF
102
}
330
136FF
100
AcDbXrecord
340
1A
  0
XRECORD
  5
13702
102
{ACAD_REACTORS
330
13701
102
}
330
13701
100
AcDbXrecord
340
5D8E
  0
GROUP
  5
477D
102
{ACAD_REACTORS
330
D
102
}
330
D
100
AcDbGroup
300

 70
     1
 71
     1
  0
GROUP
  5
4C10
102
{ACAD_REACTORS
330
D
102
}
330
D
100
AcDbGroup
300

 70
     1
 71
     1
  0
GROUP
  5
4C11
102
{ACAD_REACTORS
330
D
102
}
330
D
100
AcDbGroup
300

 70
     1
 71
     1
  0
GROUP
  5
4C12
102
{ACAD_REACTORS
330
D
102
}
330
D
100
AcDbGroup
300

 70
     1
 71
     1
  0
GROUP
  5
4C13
102
{ACAD_REACTORS
330
D
102
}
330
D
100
AcDbGroup
300

 70
     1
 71
     1
  0
GROUP
  5
4C14
102
{ACAD_REACTORS
330
D
102
}
330
D
100
AcDbGroup
300

 70
     1
 71
     1
  0
GROUP
  5
4C15
102
{ACAD_REACTORS
330
D
102
}
330
D
100
AcDbGroup
300

 70
     1
 71
     1
  0
GROUP
  5
4C16
102
{ACAD_REACTORS
330
D
102
}
330
D
100
AcDbGroup
300

 70
     1
 71
     1
  0
GROUP
  5
4C17
102
{ACAD_REACTORS
330
D
102
}
330
D
100
AcDbGroup
300

 70
     1
 71
     1
  0
GROUP
  5
477E
102
{ACAD_REACTORS
330
D
102
}
330
D
100
AcDbGroup
300

 70
     1
 71
     1
  0
GROUP
  5
477F
102
{ACAD_REACTORS
330
D
102
}
330
D
100
AcDbGroup
300

 70
     1
 71
     1
  0
GROUP
  5
4780
102
{ACAD_REACTORS
330
D
102
}
330
D
100
AcDbGroup
300

 70
     1
 71
     1
  0
GROUP
  5
4781
102
{ACAD_REACTORS
330
D
102
}
330
D
100
AcDbGroup
300

 70
     1
 71
     1
  0
GROUP
  5
4C0E
102
{ACAD_REACTORS
330
D
102
}
330
D
100
AcDbGroup
300

 70
     1
 71
     1
  0
GROUP
  5
4C0F
102
{ACAD_REACTORS
330
D
102
}
330
D
100
AcDbGroup
300

 70
     1
 71
     1
  0
MLINESTYLE
  5
13
102
{ACAD_REACTORS
330
E
102
}
330
E
100
AcDbMlineStyle
  2
STANDARD
 70
     0
  3

 62
     0
 51
90.0
 52
90.0
 71
     2
 49
0.5
 62
   256
  6
BYLAYER
 49
-0.5
 62
   256
  6
BYLAYER
  0
ACDBPLACEHOLDER
  5
5C7C
102
{ACAD_REACTORS
330
5C7B
102
}
330
5C7B
100
AcDbPlaceHolder
280
     0
  0
XRECORD
  5
136E0
102
{ACAD_REACTORS
330
136DF
102
}
330
136DF
100
AcDbXrecord
 90
        1
  0
XRECORD
  5
136E1
102
{ACAD_REACTORS
330
136DF
102
}
330
136DF
100
AcDbXrecord
 90
       70
  0
XRECORD
  5
136E2
102
{ACAD_REACTORS
330
136DF
102
}
330
136DF
100
AcDbXrecord
  1

  0
XRECORD
  5
136E3
102
{ACAD_REACTORS
330
136DF
102
}
330
136DF
100
AcDbXrecord
  1

  0
XRECORD
  5
136E4
102
{ACAD_REACTORS
330
136DF
102
}
330
136DF
100
AcDbXrecord
340
5C7D
  0
XRECORD
  5
136E5
102
{ACAD_REACTORS
330
136DF
102
}
330
136DF
100
AcDbXrecord
340
5C7E
  0
XRECORD
  5
136E6
102
{ACAD_REACTORS
330
136DF
102
}
330
136DF
100
AcDbXrecord
340
5C7B
  0
XRECORD
  5
136E7
102
{ACAD_REACTORS
330
136DF
102
}
330
136DF
100
AcDbXrecord
 90
    10781
  0
XRECORD
  5
136E8
102
{ACAD_REACTORS
330
136DF
102
}
330
136DF
100
AcDbXrecord
 90
        0
  0
XRECORD
  5
136E9
102
{ACAD_REACTORS
330
136DF
102
}
330
136DF
100
AcDbXrecord
 90
        0
  0
XRECORD
  5
136EA
102
{ACAD_REACTORS
330
136DF
102
}
330
136DF
100
AcDbXrecord
  1
{225A7F0D-DA29-11D8-946A-0000E2416295}
  0
XRECORD
  5
136EB
102
{ACAD_REACTORS
330
136DF
102
}
330
136DF
100
AcDbXrecord
  1
{F012A888-1145-4A49-BF90-DFC62D1DA644}
  0
XRECORD
  5
136EC
102
{ACAD_REACTORS
330
136DF
102
}
330
136DF
100
AcDbXrecord
 40
0.0
  0
XRECORD
  5
136ED
102
{ACAD_REACTORS
330
136DF
102
}
330
136DF
100
AcDbXrecord
340
0
  0
XRECORD
  5
136EE
102
{ACAD_REACTORS
330
136DF
102
}
330
136DF
100
AcDbXrecord
 70
     0
  0
XRECORD
  5
136EF
102
{ACAD_REACTORS
330
136DF
102
}
330
136DF
100
AcDbXrecord
340
0
  0
XRECORD
  5
136F0
102
{ACAD_REACTORS
330
136DF
102
}
330
136DF
100
AcDbXrecord
 10
0.0
 20
0.0
 30
0.0
  0
XRECORD
  5
136F1
102
{ACAD_REACTORS
330
136DF
102
}
330
136DF
100
AcDbXrecord
 10
0.0
 20
0.0
 30
0.0
  0
XRECORD
  5
136F2
102
{ACAD_REACTORS
330
136DF
102
}
330
136DF
100
AcDbXrecord
 10
0.0
 20
0.0
 30
0.0
  0
XRECORD
  5
136F3
102
{ACAD_REACTORS
330
136DF
102
}
330
136DF
100
AcDbXrecord
 10
0.0
 20
0.0
 30
0.0
  0
XRECORD
  5
136F4
102
{ACAD_REACTORS
330
136DF
102
}
330
136DF
100
AcDbXrecord
 10
0.0
 20
0.0
 30
0.0
  0
XRECORD
  5
136F5
102
{ACAD_REACTORS
330
136DF
102
}
330
136DF
100
AcDbXrecord
 10
0.0
 20
0.0
 30
0.0
  0
XRECORD
  5
136F6
102
{ACAD_REACTORS
330
136DF
102
}
330
136DF
100
AcDbXrecord
340
0
  0
XRECORD
  5
136F7
102
{ACAD_REACTORS
330
136DF
102
}
330
136DF
100
AcDbXrecord
 70
     0
  0
XRECORD
  5
136F8
102
{ACAD_REACTORS
330
136DF
102
}
330
136DF
100
AcDbXrecord
340
0
  0
XRECORD
  5
136F9
102
{ACAD_REACTORS
330
136DF
102
}
330
136DF
100
AcDbXrecord
 10
0.0
 20
0.0
 30
0.0
  0
XRECORD
  5
136FA
102
{ACAD_REACTORS
330
136DF
102
}
330
136DF
100
AcDbXrecord
 10
0.0
 20
0.0
 30
0.0
  0
XRECORD
  5
136FB
102
{ACAD_REACTORS
330
136DF
102
}
330
136DF
100
AcDbXrecord
 10
0.0
 20
0.0
 30
0.0
  0
XRECORD
  5
136FC
102
{ACAD_REACTORS
330
136DF
102
}
330
136DF
100
AcDbXrecord
 10
0.0
 20
0.0
 30
0.0
  0
XRECORD
  5
136FD
102
{ACAD_REACTORS
330
136DF
102
}
330
136DF
100
AcDbXrecord
 10
0.0
 20
0.0
 30
0.0
  0
XRECORD
  5
136FE
102
{ACAD_REACTORS
330
136DF
102
}
330
136DF
100
AcDbXrecord
 10
0.0
 20
0.0
 30
0.0
  0
XRECORD
  5
12CB8
102
{ACAD_REACTORS
330
12CB7
102
}
330
12CB7
100
AcDbXrecord
  1
BASE
  1
BASE*
  1
*
  1
*
 70
     0
  1
*
  1
*
  0
XRECORD
  5
12CB9
102
{ACAD_REACTORS
330
12CB7
102
}
330
12CB7
100
AcDbXrecord
  1
CASE
  1
CASE*
  1
*
  1
*
 70
     0
  1
*
  1
*
  0
XRECORD
  5
12CBA
102
{ACAD_REACTORS
330
12CB7
102
}
330
12CB7
100
AcDbXrecord
  1
KIKOU
  1
KIKOU*
  1
*
  1
*
 70
     0
  1
*
  1
*
  0
ENDSEC
  0
EOF
