  0
SECTION
  2
HEADER
  9
$ACADVER
  1
AC1014
  9
$ACADMAINTVER
 70
     9
  9
$DWGCODEPAGE
  3
ANSI_932
  9
$INSBASE
 10
0.0
 20
0.0
 30
0.0
  9
$EXTMIN
 10
-1686.874458859691
 20
1497.238593803198
 30
-0.00000001
  9
$EXTMAX
 10
-1343.069394923495
 20
1713.45253755404
 30
0.00000001
  9
$LIMMIN
 10
0.0
 20
0.0
  9
$LIMMAX
 10
420.0
 20
297.0
  9
$ORTHOMODE
 70
     1
  9
$REGENMODE
 70
     1
  9
$FILLMODE
 70
     1
  9
$QTEXTMODE
 70
     0
  9
$MIRRTEXT
 70
     1
  9
$DRAGMODE
 70
     2
  9
$LTSCALE
 40
1.0
  9
$OSMODE
 70
    37
  9
$ATTMODE
 70
     1
  9
$TEXTSIZE
 40
2.5
  9
$TRACEWID
 40
1.0
  9
$TEXTSTYLE
  7
ゴシック体
  9
$CLAYER
  8
SUNPOU
  9
$CELTYPE
  6
BYLAYER
  9
$CECOLOR
 62
   256
  9
$CELTSCALE
 40
1.0
  9
$DELOBJ
 70
     1
  9
$DISPSILH
 70
     0
  9
$DIMSCALE
 40
0.0
  9
$DIMASZ
 40
3.0
  9
$DIMEXO
 40
0.5
  9
$DIMDLI
 40
0.5
  9
$DIMRND
 40
0.0
  9
$DIMDLE
 40
0.0
  9
$DIMEXE
 40
0.5
  9
$DIMTP
 40
0.0
  9
$DIMTM
 40
0.0
  9
$DIMTXT
 40
3.5
  9
$DIMCEN
 40
0.0
  9
$DIMTSZ
 40
0.0
  9
$DIMTOL
 70
     0
  9
$DIMLIM
 70
     0
  9
$DIMTIH
 70
     0
  9
$DIMTOH
 70
     0
  9
$DIMSE1
 70
     0
  9
$DIMSE2
 70
     0
  9
$DIMTAD
 70
     1
  9
$DIMZIN
 70
     8
  9
$DIMBLK
  1

  9
$DIMASO
 70
     1
  9
$DIMSHO
 70
     1
  9
$DIMPOST
  1

  9
$DIMAPOST
  1

  9
$DIMALT
 70
     0
  9
$DIMALTD
 70
     2
  9
$DIMALTF
 40
25.4
  9
$DIMLFAC
 40
1.0
  9
$DIMTOFL
 70
     1
  9
$DIMTVP
 40
0.0
  9
$DIMTIX
 70
     0
  9
$DIMSOXD
 70
     0
  9
$DIMSAH
 70
     0
  9
$DIMBLK1
  1

  9
$DIMBLK2
  1

  9
$DIMSTYLE
  2
標準スタイル
  9
$DIMCLRD
 70
     1
  9
$DIMCLRE
 70
     1
  9
$DIMCLRT
 70
     1
  9
$DIMTFAC
 40
1.0
  9
$DIMGAP
 40
1.0
  9
$DIMJUST
 70
     0
  9
$DIMSD1
 70
     0
  9
$DIMSD2
 70
     0
  9
$DIMTOLJ
 70
     1
  9
$DIMTZIN
 70
     8
  9
$DIMALTZ
 70
     0
  9
$DIMALTTZ
 70
     0
  9
$DIMFIT
 70
     3
  9
$DIMUPT
 70
     0
  9
$DIMUNIT
 70
     2
  9
$DIMDEC
 70
     2
  9
$DIMTDEC
 70
     2
  9
$DIMALTU
 70
     2
  9
$DIMALTTD
 70
     2
  9
$DIMTXSTY
  7
ゴシック体
  9
$DIMAUNIT
 70
     0
  9
$LUNITS
 70
     2
  9
$LUPREC
 70
     4
  9
$SKETCHINC
 40
1.0
  9
$FILLETRAD
 40
0.0
  9
$AUNITS
 70
     0
  9
$AUPREC
 70
     0
  9
$MENU
  1
.
  9
$ELEVATION
 40
0.0
  9
$PELEVATION
 40
0.0
  9
$THICKNESS
 40
0.0
  9
$LIMCHECK
 70
     0
  9
$BLIPMODE
 70
     0
  9
$CHAMFERA
 40
10.0
  9
$CHAMFERB
 40
10.0
  9
$CHAMFERC
 40
2.0
  9
$CHAMFERD
 40
0.7853981633974483
  9
$SKPOLY
 70
     0
  9
$TDCREATE
 40
2450495.493631365
  9
$TDUPDATE
 40
2455482.779071712
  9
$TDINDWG
 40
2.5571860764
  9
$TDUSRTIMER
 40
2.5571860764
  9
$USRTIMER
 70
     1
  9
$ANGBASE
 50
0.0
  9
$ANGDIR
 70
     0
  9
$PDMODE
 70
    99
  9
$PDSIZE
 40
0.0
  9
$PLINEWID
 40
0.0
  9
$COORDS
 70
     1
  9
$SPLFRAME
 70
     0
  9
$SPLINETYPE
 70
     6
  9
$SPLINESEGS
 70
     8
  9
$ATTDIA
 70
     0
  9
$ATTREQ
 70
     1
  9
$HANDLING
 70
 10241
  9
$HANDSEED
  5
1AA83
  9
$SURFTAB1
 70
     6
  9
$SURFTAB2
 70
     6
  9
$SURFTYPE
 70
     6
  9
$SURFU
 70
     6
  9
$SURFV
 70
     6
  9
$UCSNAME
  2

  9
$UCSORG
 10
0.0
 20
0.0
 30
0.0
  9
$UCSXDIR
 10
1.0
 20
0.0
 30
0.0
  9
$UCSYDIR
 10
0.0
 20
1.0
 30
0.0
  9
$PUCSNAME
  2

  9
$PUCSORG
 10
0.0
 20
0.0
 30
0.0
  9
$PUCSXDIR
 10
1.0
 20
0.0
 30
0.0
  9
$PUCSYDIR
 10
0.0
 20
1.0
 30
0.0
  9
$USERI1
 70
     0
  9
$USERI2
 70
     0
  9
$USERI3
 70
     0
  9
$USERI4
 70
     0
  9
$USERI5
 70
     0
  9
$USERR1
 40
0.0
  9
$USERR2
 40
0.0
  9
$USERR3
 40
0.0
  9
$USERR4
 40
0.0
  9
$USERR5
 40
0.0
  9
$WORLDVIEW
 70
     1
  9
$SHADEDGE
 70
     3
  9
$SHADEDIF
 70
    70
  9
$TILEMODE
 70
     0
  9
$MAXACTVP
 70
    16
  9
$PINSBASE
 10
0.0
 20
0.0
 30
0.0
  9
$PLIMCHECK
 70
     0
  9
$PEXTMIN
 10
29.03619555254135
 20
27.69602733303884
 30
0.0
  9
$PEXTMAX
 10
414.5361955525411
 20
287.6960273330388
 30
0.0
  9
$PLIMMIN
 10
11.82433780389674
 20
9.18781516542163
  9
$PLIMMAX
 10
431.7709930773342
 20
306.1984658001872
  9
$UNITMODE
 70
     0
  9
$VISRETAIN
 70
     0
  9
$PLINEGEN
 70
     0
  9
$PSLTSCALE
 70
     1
  9
$TREEDEPTH
 70
  3020
  9
$PICKSTYLE
 70
     1
  9
$CMLSTYLE
  2
STANDARD
  9
$CMLJUST
 70
     0
  9
$CMLSCALE
 40
1.0
  9
$PROXYGRAPHICS
 70
     1
  9
$MEASUREMENT
 70
     1
  0
ENDSEC
  0
SECTION
  2
CLASSES
  0
CLASS
  1
LWPOLYLINE
  2
AcDbPolyline
  3
AutoCAD 2000
 90
        0
280
     0
281
     1
  0
CLASS
  1
HATCH
  2
AcDbHatch
  3
AutoCAD 2000
 90
        0
280
     0
281
     1
  0
CLASS
  1
ACDBDICTIONARYWDFLT
  2
AcDbDictionaryWithDefault
  3
AutoCAD 2000
 90
        0
280
     0
281
     0
  0
CLASS
  1
ACDBPLACEHOLDER
  2
AcDbPlaceHolder
  3
AutoCAD 2000
 90
        0
280
     0
281
     0
  0
CLASS
  1
LAYOUT
  2
AcDbLayout
  3
AutoCAD 2000
 90
        0
280
     0
281
     0
  0
CLASS
  1
LONG_TRANSACTION
  2
AcDbLongTransaction
  3
AutoCAD 2000
 90
        0
280
     0
281
     0
  0
CLASS
  1
LWPOLYLINE
  2
AcDbPolyline
  3
AutoCAD 2000
 90
        0
280
     0
281
     1
  0
CLASS
  1
HATCH
  2
AcDbHatch
  3
AutoCAD 2000
 90
        0
280
     0
281
     1
  0
CLASS
  1
XRECORD
  2
AcDbXrecord
  3
AutoCAD 2000
 90
        0
280
     0
281
     0
  0
ENDSEC
  0
SECTION
  2
TABLES
  0
TABLE
  2
VPORT
  5
8
330
0
100
AcDbSymbolTable
 70
     1
  0
VPORT
  5
1AA50
330
8
100
AcDbSymbolTableRecord
100
AcDbViewportTableRecord
  2
*ACTIVE
 70
     0
 10
0.0
 20
0.0
 11
1.0
 21
1.0
 12
-1514.945063409687
 22
1605.329022989697
 13
0.0
 23
0.0
 14
5.0
 24
5.0
 15
0.0
 25
0.0
 16
0.0
 26
0.0
 36
1.0
 17
0.0
 27
0.0
 37
0.0
 40
218.764461273924
 41
1.741154562383612
 42
50.0
 43
0.0
 44
0.0
 50
0.0
 51
0.0
 71
     0
 72
   100
 73
     1
 74
     0
 75
     0
 76
     0
 77
     0
 78
     0
  0
ENDTAB
  0
TABLE
  2
LTYPE
  5
5
330
0
100
AcDbSymbolTable
 70
     5
  0
LTYPE
  5
14
330
5
100
AcDbSymbolTableRecord
100
AcDbLinetypeTableRecord
  2
BYBLOCK
 70
     0
  3

 72
    65
 73
     0
 40
0.0
  0
LTYPE
  5
15
330
5
100
AcDbSymbolTableRecord
100
AcDbLinetypeTableRecord
  2
BYLAYER
 70
     0
  3

 72
    65
 73
     0
 40
0.0
  0
LTYPE
  5
16
330
5
100
AcDbSymbolTableRecord
100
AcDbLinetypeTableRecord
  2
CONTINUOUS
 70
     0
  3
Solid line
 72
    65
 73
     0
 40
0.0
  0
LTYPE
  5
329
330
5
100
AcDbSymbolTableRecord
100
AcDbLinetypeTableRecord
  2
DASHEDX2
 70
     0
  3
____  ____  ____  ____  ____  ____  ____  ____ 
 72
    65
 73
     2
 40
1.5
 49
1.0
 74
     0
 49
-0.5
 74
     0
  0
LTYPE
  5
1956
330
5
100
AcDbSymbolTableRecord
100
AcDbLinetypeTableRecord
  2
CENTERX2
 70
     0
  3
________  __  ________  __  ________  __  _____
 72
    65
 73
     4
 40
4.0
 49
2.5
 74
     0
 49
-0.5
 74
     0
 49
0.5
 74
     0
 49
-0.5
 74
     0
  0
LTYPE
  5
1958
330
5
100
AcDbSymbolTableRecord
100
AcDbLinetypeTableRecord
  2
PHANTOMX2
 70
     0
  3
____________    ____    ____    ____________   
 72
    65
 73
     6
 40
5.0
 49
2.5
 74
     0
 49
-0.5
 74
     0
 49
0.5
 74
     0
 49
-0.5
 74
     0
 49
0.5
 74
     0
 49
-0.5
 74
     0
  0
LTYPE
  5
13F50
330
5
100
AcDbSymbolTableRecord
100
AcDbLinetypeTableRecord
  2
CENTER1
 70
     0
  3
----- - ----- - ----- - ----- - 
 72
    65
 73
     4
 40
10.0
 49
6.25
 74
     0
 49
-1.25
 74
     0
 49
1.25
 74
     0
 49
-1.25
 74
     0
  0
ENDTAB
  0
TABLE
  2
LAYER
  5
2
102
{ACAD_XDICTIONARY
360
130FA
102
}
330
0
100
AcDbSymbolTable
 70
     7
  0
LAYER
  5
F
330
2
100
AcDbSymbolTableRecord
100
AcDbLayerTableRecord
  2
0
 70
     0
 62
     7
  6
CONTINUOUS
  0
LAYER
  5
18F
330
2
100
AcDbSymbolTableRecord
100
AcDbLayerTableRecord
  2
ZISSEN1
 70
     0
 62
     7
  6
CONTINUOUS
  0
LAYER
  5
191
330
2
100
AcDbSymbolTableRecord
100
AcDbLayerTableRecord
  2
SAISEN
 70
     0
 62
     1
  6
CONTINUOUS
  0
LAYER
  5
529
330
2
100
AcDbSymbolTableRecord
100
AcDbLayerTableRecord
  2
SUNPOU
 70
     0
 62
     1
  6
CONTINUOUS
  0
LAYER
  5
195A
330
2
100
AcDbSymbolTableRecord
100
AcDbLayerTableRecord
  2
CL1
 70
     0
 62
   210
  6
CENTERX2
  0
LAYER
  5
195C
330
2
100
AcDbSymbolTableRecord
100
AcDbLayerTableRecord
  2
SOUZOUSEN
 70
     0
 62
     5
  6
PHANTOMX2
  0
LAYER
  5
3A9B
330
2
100
AcDbSymbolTableRecord
100
AcDbLayerTableRecord
  2
DEFPOINTS
 70
     0
 62
     7
  6
CONTINUOUS
  0
ENDTAB
  0
TABLE
  2
STYLE
  5
3
330
0
100
AcDbSymbolTable
 70
     2
  0
STYLE
  5
10
330
3
100
AcDbSymbolTableRecord
100
AcDbTextStyleTableRecord
  2
STANDARD
 70
     0
 40
0.0
 41
1.0
 50
0.0
 71
     0
 42
3.0
  3
txt
  4
BigFont
  0
STYLE
  5
1960
330
3
100
AcDbSymbolTableRecord
100
AcDbTextStyleTableRecord
  2
ゴシック体
 70
     0
 40
0.0
 41
1.0
 50
0.0
 71
     0
 42
2.5
  3
MS Gothic.ttf
  4

1001
ACAD
1000
MS Gothic
1071
    32817
  0
ENDTAB
  0
TABLE
  2
VIEW
  5
6
330
0
100
AcDbSymbolTable
 70
     0
  0
ENDTAB
  0
TABLE
  2
UCS
  5
7
330
0
100
AcDbSymbolTable
 70
     0
  0
ENDTAB
  0
TABLE
  2
APPID
  5
9
330
0
100
AcDbSymbolTable
 70
     5
  0
APPID
  5
11
330
9
100
AcDbSymbolTableRecord
100
AcDbRegAppTableRecord
  2
ACAD
 70
     0
  0
APPID
  5
4005
330
9
100
AcDbSymbolTableRecord
100
AcDbRegAppTableRecord
  2
CONTENTTABDATA
 70
     0
  0
APPID
  5
4006
330
9
100
AcDbSymbolTableRecord
100
AcDbRegAppTableRecord
  2
CONTENTCURRENTTAB
 70
     0
  0
APPID
  5
477B
330
9
100
AcDbSymbolTableRecord
100
AcDbRegAppTableRecord
  2
CONTENTBLOCKDESCRIPTION
 70
     0
  0
APPID
  5
477C
330
9
100
AcDbSymbolTableRecord
100
AcDbRegAppTableRecord
  2
CONTENTBLOCKICON
 70
     0
  0
ENDTAB
  0
TABLE
  2
DIMSTYLE
  5
A
330
0
100
AcDbSymbolTable
 70
     3
  0
DIMSTYLE
105
1D
330
A
100
AcDbSymbolTableRecord
100
AcDbDimStyleTableRecord
  2
STANDARD
 70
     0
  3

  4

  5

  6

  7

 40
1.0
 41
0.18
 42
0.0625
 43
0.38
 44
0.18
 45
0.0
 46
0.0
 47
0.0
 48
0.0
140
0.18
141
0.09
142
0.0
143
25.4
144
1.0
145
0.0
146
1.0
147
0.09
 71
     0
 72
     0
 73
     1
 74
     1
 75
     0
 76
     0
 77
     0
 78
     0
170
     0
171
     2
172
     0
173
     0
174
     0
175
     0
176
     0
177
     0
178
     0
270
     2
271
     4
272
     4
273
     2
274
     2
340
10
275
     0
280
     0
281
     0
282
     0
283
     1
284
     0
285
     0
286
     0
287
     3
288
     0
  0
DIMSTYLE
105
52E
102
{ACAD_REACTORS
330
1888F
102
}
330
A
100
AcDbSymbolTableRecord
100
AcDbDimStyleTableRecord
  2
標準スタイル
 70
     0
  3

  4

  5

  6

  7

 40
0.0
 41
3.0
 42
0.5
 43
0.5
 44
0.5
 45
0.0
 46
0.0
 47
0.0
 48
0.0
140
3.5
141
0.0
142
0.0
143
25.4
144
1.0
145
0.0
146
1.0
147
1.0
 71
     0
 72
     0
 73
     0
 74
     0
 75
     0
 76
     0
 77
     1
 78
     8
170
     0
171
     2
172
     1
173
     0
174
     0
175
     0
176
     1
177
     1
178
     1
270
     2
271
     2
272
     2
273
     2
274
     2
340
1960
275
     0
280
     0
281
     0
282
     0
283
     1
284
     8
285
     0
286
     0
287
     3
288
     0
  0
DIMSTYLE
105
131A7
102
{ACAD_REACTORS
330
17362
330
177BF
330
177C0
330
177C2
330
17BCD
330
17D91
330
17DB2
330
180A3
102
}
330
A
100
AcDbSymbolTableRecord
100
AcDbDimStyleTableRecord
  2
ISO-25
 70
     0
  3

  4

  5

  6

  7

 40
1.0
 41
2.5
 42
0.625
 43
3.75
 44
1.25
 45
0.0
 46
0.0
 47
0.0
 48
0.0
140
2.5
141
2.5
142
0.0
143
0.03937007874016
144
1.0
145
0.0
146
1.0
147
0.625
 71
     0
 72
     0
 73
     0
 74
     0
 75
     0
 76
     0
 77
     1
 78
     8
170
     0
171
     3
172
     1
173
     0
174
     0
175
     0
176
     1
177
     1
178
     1
270
     2
271
     2
272
     2
273
     2
274
     3
340
10
275
     0
280
     0
281
     0
282
     0
283
     0
284
     8
285
     0
286
     0
287
     3
288
     0
  0
ENDTAB
  0
TABLE
  2
BLOCK_RECORD
  5
1
330
0
100
AcDbSymbolTable
 70
     9
  0
BLOCK_RECORD
  5
1A
102
{ACAD_XDICTIONARY
360
1AA76
102
}
330
1
100
AcDbSymbolTableRecord
100
AcDbBlockTableRecord
  2
*MODEL_SPACE
  0
BLOCK_RECORD
  5
5D8E
102
{ACAD_XDICTIONARY
360
1AA78
102
}
330
1
100
AcDbSymbolTableRecord
100
AcDbBlockTableRecord
  2
*PAPER_SPACE
  0
BLOCK_RECORD
  5
1826C
330
1
100
AcDbSymbolTableRecord
100
AcDbBlockTableRecord
  2
*D0
  0
BLOCK_RECORD
  5
18278
330
1
100
AcDbSymbolTableRecord
100
AcDbBlockTableRecord
  2
*D1
  0
BLOCK_RECORD
  5
18284
330
1
100
AcDbSymbolTableRecord
100
AcDbBlockTableRecord
  2
*D2
  0
BLOCK_RECORD
  5
1829C
330
1
100
AcDbSymbolTableRecord
100
AcDbBlockTableRecord
  2
*D3
  0
BLOCK_RECORD
  5
182C0
330
1
100
AcDbSymbolTableRecord
100
AcDbBlockTableRecord
  2
*D4
  0
BLOCK_RECORD
  5
182D8
330
1
100
AcDbSymbolTableRecord
100
AcDbBlockTableRecord
  2
*D5
  0
BLOCK_RECORD
  5
182E4
330
1
100
AcDbSymbolTableRecord
100
AcDbBlockTableRecord
  2
*D6
  0
BLOCK_RECORD
  5
182FE
330
1
100
AcDbSymbolTableRecord
100
AcDbBlockTableRecord
  2
*D7
  0
BLOCK_RECORD
  5
18890
330
1
100
AcDbSymbolTableRecord
100
AcDbBlockTableRecord
  2
*D8
  0
ENDTAB
  0
ENDSEC
  0
SECTION
  2
BLOCKS
  0
BLOCK
  5
1B
330
1A
100
AcDbEntity
  8
0
100
AcDbBlockBegin
  2
*MODEL_SPACE
 70
     0
 10
0.0
 20
0.0
 30
0.0
  3
*MODEL_SPACE
  1

  0
ENDBLK
  5
1C
330
1A
100
AcDbEntity
  8
0
100
AcDbBlockEnd
  0
BLOCK
  5
5E60
330
5D8E
100
AcDbEntity
 67
     1
  8
0
100
AcDbBlockBegin
  2
*PAPER_SPACE
 70
     0
 10
0.0
 20
0.0
 30
0.0
  3
*PAPER_SPACE
  1

  0
ENDBLK
  5
5E61
330
5D8E
100
AcDbEntity
 67
     1
  8
0
100
AcDbBlockEnd
  0
BLOCK
  5
18276
330
1826C
100
AcDbEntity
  8
0
100
AcDbBlockBegin
  2
*D0
 70
     1
 10
0.0
 20
0.0
 30
0.0
  3
*D0
  1

  0
LINE
  5
1A97D
330
1826C
100
AcDbEntity
  8
SUNPOU
  6
BYBLOCK
 62
     1
100
AcDbLine
 10
-1667.525
 20
1500.0
 30
0.0
 11
-1683.62445885969
 21
1500.0
 31
0.0
  0
LINE
  5
1A97E
330
1826C
100
AcDbEntity
  8
SUNPOU
  6
BYBLOCK
 62
     1
100
AcDbLine
 10
-1670.025000000002
 20
1583.299999999999
 30
0.0
 11
-1683.62445885969
 21
1583.299999999999
 31
0.0
  0
LINE
  5
1A97F
330
1826C
100
AcDbEntity
  8
SUNPOU
  6
BYBLOCK
 62
     1
100
AcDbLine
 10
-1682.37445885969
 20
1502.5
 30
0.0
 11
-1682.37445885969
 21
1580.799999999999
 31
0.0
  0
SOLID
  5
1A980
330
1826C
100
AcDbEntity
  8
SUNPOU
  6
BYBLOCK
 62
     1
100
AcDbTrace
 10
-1682.791125526357
 20
1502.5
 30
0.0
 11
-1681.957792193023
 21
1502.5
 31
0.0
 12
-1682.37445885969
 22
1500.0
 32
0.0
 13
-1682.37445885969
 23
1500.0
 33
0.0
  0
SOLID
  5
1A981
330
1826C
100
AcDbEntity
  8
SUNPOU
  6
BYBLOCK
 62
     1
100
AcDbTrace
 10
-1682.791125526357
 20
1580.799999999999
 30
0.0
 11
-1681.957792193023
 21
1580.799999999999
 31
0.0
 12
-1682.37445885969
 22
1583.299999999999
 32
0.0
 13
-1682.37445885969
 23
1583.299999999999
 33
0.0
  0
MTEXT
  5
1A982
330
1826C
100
AcDbEntity
  8
SUNPOU
  6
BYBLOCK
 62
     1
100
AcDbMText
 10
-1684.74945885969
 20
1549.830310533992
 30
0.0
 40
3.5
 41
0.0
 71
     5
 72
     1
  1
83.3
 11
0.0000000000000001
 21
1.0
 31
0.0
1001
ACAD
1000
MTEXTBEGIN
1070
    73
1070
     1
1070
    44
1040
1.0
1070
    74
1070
     0
1000
MTEXTEND
  0
POINT
  5
1A983
330
1826C
100
AcDbEntity
  8
DEFPOINTS
  6
BYBLOCK
 62
     0
100
AcDbPoint
 10
-1666.9
 20
1500.0
 30
0.0
  0
POINT
  5
1A984
330
1826C
100
AcDbEntity
  8
DEFPOINTS
  6
BYBLOCK
 62
     0
100
AcDbPoint
 10
-1669.400000000002
 20
1583.299999999999
 30
0.0
  0
POINT
  5
1A985
330
1826C
100
AcDbEntity
  8
DEFPOINTS
  6
BYBLOCK
 62
     0
100
AcDbPoint
 10
-1682.37445885969
 20
1583.299999999999
 30
0.0
  0
ENDBLK
  5
18277
330
1826C
100
AcDbEntity
  8
0
100
AcDbBlockEnd
  0
BLOCK
  5
18282
330
18278
100
AcDbEntity
  8
0
100
AcDbBlockBegin
  2
*D1
 70
     1
 10
0.0
 20
0.0
 30
0.0
  3
*D1
  1

  0
LINE
  5
1A962
330
18278
100
AcDbEntity
  8
SUNPOU
  6
BYBLOCK
 62
     1
100
AcDbLine
 10
-1427.374999999997
 20
1660.899999999999
 30
0.0
 11
-1407.095159867918
 21
1660.899999999999
 31
0.0
  0
LINE
  5
1A963
330
18278
100
AcDbEntity
  8
SUNPOU
  6
BYBLOCK
 62
     1
100
AcDbLine
 10
-1431.374999999997
 20
1638.0
 30
0.0
 11
-1407.095159867918
 21
1638.0
 31
0.0
  0
LINE
  5
1A964
330
18278
100
AcDbEntity
  8
SUNPOU
  6
BYBLOCK
 62
     1
100
AcDbLine
 10
-1408.345159867919
 20
1658.399999999999
 30
0.0
 11
-1408.345159867919
 21
1640.5
 31
0.0
  0
SOLID
  5
1A965
330
18278
100
AcDbEntity
  8
SUNPOU
  6
BYBLOCK
 62
     1
100
AcDbTrace
 10
-1408.761826534585
 20
1658.399999999999
 30
0.0
 11
-1407.928493201252
 21
1658.399999999999
 31
0.0
 12
-1408.345159867919
 22
1660.899999999999
 32
0.0
 13
-1408.345159867919
 23
1660.899999999999
 33
0.0
  0
SOLID
  5
1A966
330
18278
100
AcDbEntity
  8
SUNPOU
  6
BYBLOCK
 62
     1
100
AcDbTrace
 10
-1408.761826534585
 20
1640.5
 30
0.0
 11
-1407.928493201252
 21
1640.5
 31
0.0
 12
-1408.345159867919
 22
1638.0
 32
0.0
 13
-1408.345159867919
 23
1638.0
 33
0.0
  0
MTEXT
  5
1A967
330
18278
100
AcDbEntity
  8
SUNPOU
  6
BYBLOCK
 62
     1
100
AcDbMText
 10
-1410.720159867919
 20
1650.45
 30
0.0
 40
3.5
 41
0.0
 71
     5
 72
     1
  1
22.9
 11
0.0000000000000001
 21
1.0
 31
0.0
1001
ACAD
1000
MTEXTBEGIN
1070
    73
1070
     1
1070
    44
1040
1.0
1070
    74
1070
     0
1000
MTEXTEND
  0
POINT
  5
1A968
330
18278
100
AcDbEntity
  8
DEFPOINTS
  6
BYBLOCK
 62
     0
100
AcDbPoint
 10
-1427.999999999997
 20
1660.899999999999
 30
0.0
  0
POINT
  5
1A969
330
18278
100
AcDbEntity
  8
DEFPOINTS
  6
BYBLOCK
 62
     0
100
AcDbPoint
 10
-1431.999999999997
 20
1638.0
 30
0.0
  0
POINT
  5
1A96A
330
18278
100
AcDbEntity
  8
DEFPOINTS
  6
BYBLOCK
 62
     0
100
AcDbPoint
 10
-1408.345159867919
 20
1638.0
 30
0.0
  0
ENDBLK
  5
18283
330
18278
100
AcDbEntity
  8
0
100
AcDbBlockEnd
  0
BLOCK
  5
1828E
330
18284
100
AcDbEntity
  8
0
100
AcDbBlockBegin
  2
*D2
 70
     1
 10
0.0
 20
0.0
 30
0.0
  3
*D2
  1

  0
LINE
  5
1A96B
330
18284
100
AcDbEntity
  8
SUNPOU
  6
BYBLOCK
 62
     1
100
AcDbLine
 10
-1439.374999999997
 20
1682.899999999999
 30
0.0
 11
-1391.170277183535
 21
1682.899999999999
 31
0.0
  0
LINE
  5
1A96C
330
18284
100
AcDbEntity
  8
SUNPOU
  6
BYBLOCK
 62
     1
100
AcDbLine
 10
-1510.374999999996
 20
1637.2
 30
0.0
 11
-1391.170277183535
 21
1637.2
 31
0.0
  0
LINE
  5
1A96D
330
18284
100
AcDbEntity
  8
SUNPOU
  6
BYBLOCK
 62
     1
100
AcDbLine
 10
-1392.420277183535
 20
1680.399999999999
 30
0.0
 11
-1392.420277183535
 21
1639.700000000001
 31
0.0
  0
SOLID
  5
1A96E
330
18284
100
AcDbEntity
  8
SUNPOU
  6
BYBLOCK
 62
     1
100
AcDbTrace
 10
-1392.836943850202
 20
1680.399999999999
 30
0.0
 11
-1392.003610516868
 21
1680.399999999999
 31
0.0
 12
-1392.420277183535
 22
1682.899999999999
 32
0.0
 13
-1392.420277183535
 23
1682.899999999999
 33
0.0
  0
SOLID
  5
1A96F
330
18284
100
AcDbEntity
  8
SUNPOU
  6
BYBLOCK
 62
     1
100
AcDbTrace
 10
-1392.836943850202
 20
1639.700000000001
 30
0.0
 11
-1392.003610516868
 21
1639.700000000001
 31
0.0
 12
-1392.420277183535
 22
1637.2
 32
0.0
 13
-1392.420277183535
 23
1637.2
 33
0.0
  0
MTEXT
  5
1A970
330
18284
100
AcDbEntity
  8
SUNPOU
  6
BYBLOCK
 62
     1
100
AcDbMText
 10
-1394.795277183536
 20
1663.900043724934
 30
0.0
 40
3.5
 41
0.0
 71
     5
 72
     1
  1
45.7
 11
0.0000000000000001
 21
1.0
 31
0.0
1001
ACAD
1000
MTEXTBEGIN
1070
    73
1070
     1
1070
    44
1040
1.0
1070
    74
1070
     0
1000
MTEXTEND
  0
POINT
  5
1A971
330
18284
100
AcDbEntity
  8
DEFPOINTS
  6
BYBLOCK
 62
     0
100
AcDbPoint
 10
-1439.999999999997
 20
1682.899999999999
 30
0.0
  0
POINT
  5
1A972
330
18284
100
AcDbEntity
  8
DEFPOINTS
  6
BYBLOCK
 62
     0
100
AcDbPoint
 10
-1510.999999999996
 20
1637.2
 30
0.0
  0
POINT
  5
1A973
330
18284
100
AcDbEntity
  8
DEFPOINTS
  6
BYBLOCK
 62
     0
100
AcDbPoint
 10
-1392.420277183535
 20
1637.2
 30
0.0
  0
ENDBLK
  5
1828F
330
18284
100
AcDbEntity
  8
0
100
AcDbBlockEnd
  0
BLOCK
  5
182A6
330
1829C
100
AcDbEntity
  8
0
100
AcDbBlockBegin
  2
*D3
 70
     1
 10
0.0
 20
0.0
 30
0.0
  3
*D3
  1

  0
LINE
  5
1A94E
330
1829C
100
AcDbEntity
  8
SUNPOU
  6
BYBLOCK
 62
     1
100
AcDbLine
 10
-1600.0
 20
1639.375
 30
0.0
 11
-1600.0
 21
1607.689258408999
 31
0.0
  0
LINE
  5
1A94F
330
1829C
100
AcDbEntity
  8
SUNPOU
  6
BYBLOCK
 62
     1
100
AcDbLine
 10
-1429.999999999997
 20
1639.375
 30
0.0
 11
-1429.999999999997
 21
1607.689258408999
 31
0.0
  0
LINE
  5
1A950
330
1829C
100
AcDbEntity
  8
SUNPOU
  6
BYBLOCK
 62
     1
100
AcDbLine
 10
-1597.5
 20
1608.939258408999
 30
0.0
 11
-1432.499999999997
 21
1608.939258408999
 31
0.0
  0
SOLID
  5
1A951
330
1829C
100
AcDbEntity
  8
SUNPOU
  6
BYBLOCK
 62
     1
100
AcDbTrace
 10
-1597.5
 20
1609.355925075665
 30
0.0
 11
-1597.5
 21
1608.522591742332
 31
0.0
 12
-1600.0
 22
1608.939258408999
 32
0.0
 13
-1600.0
 23
1608.939258408999
 33
0.0
  0
SOLID
  5
1A952
330
1829C
100
AcDbEntity
  8
SUNPOU
  6
BYBLOCK
 62
     1
100
AcDbTrace
 10
-1432.499999999997
 20
1609.355925075665
 30
0.0
 11
-1432.499999999997
 21
1608.522591742332
 31
0.0
 12
-1429.999999999997
 22
1608.939258408999
 32
0.0
 13
-1429.999999999997
 23
1608.939258408999
 33
0.0
  0
MTEXT
  5
1A953
330
1829C
100
AcDbEntity
  8
SUNPOU
  6
BYBLOCK
 62
     1
100
AcDbMText
 10
-1516.785798536713
 20
1611.314258408999
 30
0.0
 40
3.5
 41
0.0
 71
     5
 72
     1
  1
170
1001
ACAD
1000
MTEXTBEGIN
1070
    73
1070
     1
1070
    44
1040
1.0
1070
    74
1070
     0
1000
MTEXTEND
  0
POINT
  5
1A954
330
1829C
100
AcDbEntity
  8
DEFPOINTS
  6
BYBLOCK
 62
     0
100
AcDbPoint
 10
-1600.0
 20
1640.0
 30
0.0
  0
POINT
  5
1A955
330
1829C
100
AcDbEntity
  8
DEFPOINTS
  6
BYBLOCK
 62
     0
100
AcDbPoint
 10
-1429.999999999997
 20
1640.0
 30
0.0
  0
POINT
  5
1A956
330
1829C
100
AcDbEntity
  8
DEFPOINTS
  6
BYBLOCK
 62
     0
100
AcDbPoint
 10
-1429.999999999997
 20
1608.939258408999
 30
0.0
  0
ENDBLK
  5
182A7
330
1829C
100
AcDbEntity
  8
0
100
AcDbBlockEnd
  0
BLOCK
  5
182CA
330
182C0
100
AcDbEntity
  8
0
100
AcDbBlockBegin
  2
*D4
 70
     1
 10
0.0
 20
0.0
 30
0.0
  3
*D4
  1

  0
LINE
  5
1A974
330
182C0
100
AcDbEntity
  8
SUNPOU
 62
     1
100
AcDbLine
 10
-1357.475000000003
 20
1500.0
 30
0.0
 11
-1343.069394923495
 21
1500.0
 31
0.0
  0
LINE
  5
1A975
330
182C0
100
AcDbEntity
  8
SUNPOU
 62
     1
100
AcDbLine
 10
-1392.975000000001
 20
1587.499999999997
 30
0.0
 11
-1343.069394923495
 21
1587.499999999997
 31
0.0
  0
LINE
  5
1A976
330
182C0
100
AcDbEntity
  8
SUNPOU
 62
     1
100
AcDbLine
 10
-1344.319394923495
 20
1502.5
 30
0.0
 11
-1344.319394923495
 21
1584.999999999997
 31
0.0
  0
SOLID
  5
1A977
330
182C0
100
AcDbEntity
  8
SUNPOU
 62
     1
100
AcDbTrace
 10
-1344.736061590162
 20
1502.5
 30
0.0
 11
-1343.902728256828
 21
1502.5
 31
0.0
 12
-1344.319394923495
 22
1500.0
 32
0.0
 13
-1344.319394923495
 23
1500.0
 33
0.0
  0
SOLID
  5
1A978
330
182C0
100
AcDbEntity
  8
SUNPOU
 62
     1
100
AcDbTrace
 10
-1344.736061590162
 20
1584.999999999997
 30
0.0
 11
-1343.902728256828
 21
1584.999999999997
 31
0.0
 12
-1344.319394923495
 22
1587.499999999997
 32
0.0
 13
-1344.319394923495
 23
1587.499999999997
 33
0.0
  0
MTEXT
  5
1A979
330
182C0
100
AcDbEntity
  8
SUNPOU
 62
     1
100
AcDbMText
 10
-1346.694394923495
 20
1543.749999999998
 30
0.0
 40
3.5
 41
0.0
 71
     5
 72
     1
  1
87.5
 11
0.0000000000000001
 21
1.0
 31
0.0
1001
ACAD
1000
MTEXTBEGIN
1070
    73
1070
     1
1070
    44
1040
1.0
1070
    74
1070
     0
1000
MTEXTEND
  0
POINT
  5
1A97A
330
182C0
100
AcDbEntity
  8
DEFPOINTS
 62
     0
100
AcDbPoint
 10
-1358.100000000003
 20
1500.0
 30
0.0
  0
POINT
  5
1A97B
330
182C0
100
AcDbEntity
  8
DEFPOINTS
 62
     0
100
AcDbPoint
 10
-1393.600000000001
 20
1587.499999999997
 30
0.0
  0
POINT
  5
1A97C
330
182C0
100
AcDbEntity
  8
DEFPOINTS
 62
     0
100
AcDbPoint
 10
-1344.319394923495
 20
1587.499999999997
 30
0.0
  0
ENDBLK
  5
182CB
330
182C0
100
AcDbEntity
  8
0
100
AcDbBlockEnd
  0
BLOCK
  5
182E2
330
182D8
100
AcDbEntity
  8
0
100
AcDbBlockBegin
  2
*D5
 70
     1
 10
0.0
 20
0.0
 30
0.0
  3
*D5
  1

  0
LINE
  5
1A957
330
182D8
100
AcDbEntity
  8
SUNPOU
 62
     1
100
AcDbLine
 10
-1429.374999999997
 20
1663.149999999999
 30
0.0
 11
-1420.24764721337
 21
1663.149999999999
 31
0.0
  0
LINE
  5
1A958
330
182D8
100
AcDbEntity
  8
SUNPOU
 62
     1
100
AcDbLine
 10
-1429.374999999998
 20
1658.649999999999
 30
0.0
 11
-1420.24764721337
 21
1658.649999999999
 31
0.0
  0
LINE
  5
1A959
330
182D8
100
AcDbEntity
  8
SUNPOU
 62
     1
100
AcDbLine
 10
-1421.49764721337
 20
1665.649999999999
 30
0.0
 11
-1421.49764721337
 21
1668.149999999999
 31
0.0
  0
LINE
  5
1A95A
330
182D8
100
AcDbEntity
  8
SUNPOU
 62
     1
100
AcDbLine
 10
-1421.49764721337
 20
1656.149999999999
 30
0.0
 11
-1421.49764721337
 21
1645.399999999999
 31
0.0
  0
LINE
  5
1A95B
330
182D8
100
AcDbEntity
  8
SUNPOU
 62
     1
100
AcDbLine
 10
-1421.49764721337
 20
1663.149999999999
 30
0.0
 11
-1421.49764721337
 21
1658.649999999999
 31
0.0
  0
SOLID
  5
1A95C
330
182D8
100
AcDbEntity
  8
SUNPOU
 62
     1
100
AcDbTrace
 10
-1421.914313880036
 20
1665.649999999999
 30
0.0
 11
-1421.080980546703
 21
1665.649999999999
 31
0.0
 12
-1421.49764721337
 22
1663.149999999999
 32
0.0
 13
-1421.49764721337
 23
1663.149999999999
 33
0.0
  0
SOLID
  5
1A95D
330
182D8
100
AcDbEntity
  8
SUNPOU
 62
     1
100
AcDbTrace
 10
-1421.914313880036
 20
1656.149999999999
 30
0.0
 11
-1421.080980546703
 21
1656.149999999999
 31
0.0
 12
-1421.49764721337
 22
1658.649999999999
 32
0.0
 13
-1421.49764721337
 23
1658.649999999999
 33
0.0
  0
MTEXT
  5
1A95E
330
182D8
100
AcDbEntity
  8
SUNPOU
 62
     1
100
AcDbMText
 10
-1423.87264721337
 20
1649.524999999999
 30
0.0
 40
3.5
 41
0.0
 71
     5
 72
     1
  1
4.5
 11
0.0000000000000001
 21
1.0
 31
0.0
1001
ACAD
1000
MTEXTBEGIN
1070
    73
1070
     1
1070
    44
1040
1.0
1070
    74
1070
     0
1000
MTEXTEND
  0
POINT
  5
1A95F
330
182D8
100
AcDbEntity
  8
DEFPOINTS
 62
     0
100
AcDbPoint
 10
-1429.999999999997
 20
1663.149999999999
 30
0.0
  0
POINT
  5
1A960
330
182D8
100
AcDbEntity
  8
DEFPOINTS
 62
     0
100
AcDbPoint
 10
-1429.999999999998
 20
1658.649999999999
 30
0.0
  0
POINT
  5
1A961
330
182D8
100
AcDbEntity
  8
DEFPOINTS
 62
     0
100
AcDbPoint
 10
-1421.49764721337
 20
1658.649999999999
 30
0.0
  0
ENDBLK
  5
182E3
330
182D8
100
AcDbEntity
  8
0
100
AcDbBlockEnd
  0
BLOCK
  5
182EE
330
182E4
100
AcDbEntity
  8
0
100
AcDbBlockBegin
  2
*D6
 70
     1
 10
0.0
 20
0.0
 30
0.0
  3
*D6
  1

  0
LINE
  5
1A93C
330
182E4
100
AcDbEntity
  8
SUNPOU
 62
     1
100
AcDbLine
 10
-1590.799999999996
 20
1638.375
 30
0.0
 11
-1590.799999999996
 21
1624.600494728456
 31
0.0
  0
LINE
  5
1A93D
330
182E4
100
AcDbEntity
  8
SUNPOU
 62
     1
100
AcDbLine
 10
-1439.20000337714
 20
1638.397626865172
 30
0.0
 11
-1439.20000337714
 21
1624.600494728456
 31
0.0
  0
LINE
  5
1A93E
330
182E4
100
AcDbEntity
  8
SUNPOU
 62
     1
100
AcDbLine
 10
-1588.299999999996
 20
1625.850494728456
 30
0.0
 11
-1441.70000337714
 21
1625.850494728456
 31
0.0
  0
SOLID
  5
1A93F
330
182E4
100
AcDbEntity
  8
SUNPOU
 62
     1
100
AcDbTrace
 10
-1588.299999999996
 20
1626.267161395123
 30
0.0
 11
-1588.299999999996
 21
1625.43382806179
 31
0.0
 12
-1590.799999999996
 22
1625.850494728456
 32
0.0
 13
-1590.799999999996
 23
1625.850494728456
 33
0.0
  0
SOLID
  5
1A940
330
182E4
100
AcDbEntity
  8
SUNPOU
 62
     1
100
AcDbTrace
 10
-1441.70000337714
 20
1626.267161395123
 30
0.0
 11
-1441.70000337714
 21
1625.43382806179
 31
0.0
 12
-1439.20000337714
 22
1625.850494728456
 32
0.0
 13
-1439.20000337714
 23
1625.850494728456
 33
0.0
  0
MTEXT
  5
1A941
330
182E4
100
AcDbEntity
  8
SUNPOU
 62
     1
100
AcDbMText
 10
-1515.000001688568
 20
1628.225494728456
 30
0.0
 40
3.5
 41
0.0
 71
     5
 72
     1
  1
151.6
1001
ACAD
1000
MTEXTBEGIN
1070
    73
1070
     1
1070
    44
1040
1.0
1070
    74
1070
     0
1000
MTEXTEND
  0
POINT
  5
1A942
330
182E4
100
AcDbEntity
  8
DEFPOINTS
 62
     0
100
AcDbPoint
 10
-1590.799999999996
 20
1639.0
 30
0.0
  0
POINT
  5
1A943
330
182E4
100
AcDbEntity
  8
DEFPOINTS
 62
     0
100
AcDbPoint
 10
-1439.20000337714
 20
1639.022626865173
 30
0.0
  0
POINT
  5
1A944
330
182E4
100
AcDbEntity
  8
DEFPOINTS
 62
     0
100
AcDbPoint
 10
-1439.20000337714
 20
1625.850494728456
 30
0.0
  0
ENDBLK
  5
182EF
330
182E4
100
AcDbEntity
  8
0
100
AcDbBlockEnd
  0
BLOCK
  5
18308
330
182FE
100
AcDbEntity
  8
0
100
AcDbBlockBegin
  2
*D7
 70
     1
 10
0.0
 20
0.0
 30
0.0
  3
*D7
  1

  0
LINE
  5
1A945
330
182FE
100
AcDbEntity
  8
SUNPOU
  6
BYBLOCK
 62
     1
100
AcDbLine
 10
-1594.999999999997
 20
1656.667262875743
 30
0.0
 11
-1594.999999999997
 21
1616.586689933995
 31
0.0
  0
LINE
  5
1A946
330
182FE
100
AcDbEntity
  8
SUNPOU
  6
BYBLOCK
 62
     1
100
AcDbLine
 10
-1434.999999999997
 20
1657.124999999999
 30
0.0
 11
-1434.999999999997
 21
1616.586689933995
 31
0.0
  0
LINE
  5
1A947
330
182FE
100
AcDbEntity
  8
SUNPOU
  6
BYBLOCK
 62
     1
100
AcDbLine
 10
-1592.499999999997
 20
1617.836689933995
 30
0.0
 11
-1437.499999999997
 21
1617.836689933995
 31
0.0
  0
SOLID
  5
1A948
330
182FE
100
AcDbEntity
  8
SUNPOU
  6
BYBLOCK
 62
     1
100
AcDbTrace
 10
-1592.499999999997
 20
1618.253356600662
 30
0.0
 11
-1592.499999999997
 21
1617.420023267328
 31
0.0
 12
-1594.999999999997
 22
1617.836689933995
 32
0.0
 13
-1594.999999999997
 23
1617.836689933995
 33
0.0
  0
SOLID
  5
1A949
330
182FE
100
AcDbEntity
  8
SUNPOU
  6
BYBLOCK
 62
     1
100
AcDbTrace
 10
-1437.499999999997
 20
1618.253356600662
 30
0.0
 11
-1437.499999999997
 21
1617.420023267328
 31
0.0
 12
-1434.999999999997
 22
1617.836689933995
 32
0.0
 13
-1434.999999999997
 23
1617.836689933995
 33
0.0
  0
MTEXT
  5
1A94A
330
182FE
100
AcDbEntity
  8
SUNPOU
  6
BYBLOCK
 62
     1
100
AcDbMText
 10
-1517.119909074812
 20
1620.211689933995
 30
0.0
 40
3.5
 41
0.0
 71
     5
 72
     1
  1
160
1001
ACAD
1000
MTEXTBEGIN
1070
    73
1070
     1
1070
    44
1040
1.0
1070
    74
1070
     0
1000
MTEXTEND
  0
POINT
  5
1A94B
330
182FE
100
AcDbEntity
  8
DEFPOINTS
  6
BYBLOCK
 62
     0
100
AcDbPoint
 10
-1594.999999999997
 20
1657.292262875743
 30
0.0
  0
POINT
  5
1A94C
330
182FE
100
AcDbEntity
  8
DEFPOINTS
  6
BYBLOCK
 62
     0
100
AcDbPoint
 10
-1434.999999999997
 20
1657.749999999999
 30
0.0
  0
POINT
  5
1A94D
330
182FE
100
AcDbEntity
  8
DEFPOINTS
  6
BYBLOCK
 62
     0
100
AcDbPoint
 10
-1434.999999999997
 20
1617.836689933995
 30
0.0
  0
ENDBLK
  5
18309
330
182FE
100
AcDbEntity
  8
0
100
AcDbBlockEnd
  0
BLOCK
  5
1889A
330
18890
100
AcDbEntity
  8
0
100
AcDbBlockBegin
  2
*D8
 70
     1
 10
0.0
 20
0.0
 30
0.0
  3
*D8
  1

  0
LINE
  5
1AA7A
330
18890
100
AcDbEntity
  8
SUNPOU
 62
     1
100
AcDbLine
 10
-1669.900000000002
 20
1583.299999999999
 30
0.0
 11
-1682.87445885969
 21
1583.299999999999
 31
0.0
  0
LINE
  5
1AA7B
330
18890
100
AcDbEntity
  8
SUNPOU
 62
     1
100
AcDbLine
 10
-1642.954192808496
 20
1613.3
 30
0.0
 11
-1682.87445885969
 21
1613.3
 31
0.0
  0
LINE
  5
1AA7C
330
18890
100
AcDbEntity
  8
SUNPOU
 62
     1
100
AcDbLine
 10
-1682.37445885969
 20
1585.799999999999
 30
0.0
 11
-1682.37445885969
 21
1610.8
 31
0.0
  0
SOLID
  5
1AA7D
330
18890
100
AcDbEntity
  8
SUNPOU
 62
     1
100
AcDbTrace
 10
-1682.791125526357
 20
1585.799999999999
 30
0.0
 11
-1681.957792193023
 21
1585.799999999999
 31
0.0
 12
-1682.37445885969
 22
1583.299999999999
 32
0.0
 13
-1682.37445885969
 23
1583.299999999999
 33
0.0
  0
SOLID
  5
1AA7E
330
18890
100
AcDbEntity
  8
SUNPOU
 62
     1
100
AcDbTrace
 10
-1682.791125526357
 20
1610.8
 30
0.0
 11
-1681.957792193023
 21
1610.8
 31
0.0
 12
-1682.37445885969
 22
1613.3
 32
0.0
 13
-1682.37445885969
 23
1613.3
 33
0.0
  0
MTEXT
  5
1AA7F
330
18890
100
AcDbEntity
  8
SUNPOU
 62
     1
100
AcDbMText
 10
-1685.12445885969
 20
1598.299999999999
 30
0.0
 40
3.5
 41
0.0
 71
     5
 72
     1
  1
\A1;(30)
 11
0.0000000000000001
 21
1.0
 31
0.0
  0
POINT
  5
1AA80
330
18890
100
AcDbEntity
  8
DEFPOINTS
 62
     0
100
AcDbPoint
 10
-1669.400000000002
 20
1583.299999999999
 30
0.0
  0
POINT
  5
1AA81
330
18890
100
AcDbEntity
  8
DEFPOINTS
 62
     0
100
AcDbPoint
 10
-1642.454192808496
 20
1613.3
 30
0.0
  0
POINT
  5
1AA82
330
18890
100
AcDbEntity
  8
DEFPOINTS
 62
     0
100
AcDbPoint
 10
-1682.37445885969
 20
1613.3
 30
0.0
  0
ENDBLK
  5
1889B
330
18890
100
AcDbEntity
  8
0
100
AcDbBlockEnd
  0
ENDSEC
  0
SECTION
  2
ENTITIES
  0
MTEXT
  5
5084
330
1A
100
AcDbEntity
  8
0
100
AcDbMText
 10
1985.239088685435
 20
-948.5420423450428
 30
0.0
 40
8.0
 41
0.0
 71
     7
 72
     5
  1

1001
ACAD
1000
MTEXTBEGIN
1070
    73
1070
     1
1070
    44
1040
1.0
1070
    74
1070
     0
1000
MTEXTEND
  0
MTEXT
  5
5085
330
1A
100
AcDbEntity
  8
0
100
AcDbMText
 10
4270.596778580329
 20
22.24825240601649
 30
0.0
 40
8.0
 41
0.0
 71
     7
 72
     5
  1

1001
ACAD
1000
MTEXTBEGIN
1070
    73
1070
     1
1070
    44
1040
1.0
1070
    74
1070
     0
1000
MTEXTEND
  0
MTEXT
  5
5343
330
1A
100
AcDbEntity
  8
SUNPOU
100
AcDbMText
 10
6936.493799262471
 20
9534.359644781135
 30
0.0
 40
10.5
 41
0.0
 71
     1
 72
     5
  1

1001
ACAD
1000
MTEXTBEGIN
1070
    73
1070
     1
1070
    44
1040
1.0
1070
    74
1070
     0
1000
MTEXTEND
  0
MTEXT
  5
544F
330
1A
100
AcDbEntity
  8
0
100
AcDbMText
 10
16317.2832773148
 20
12833.35428897674
 30
0.0
 40
8.0
 41
0.0
 71
     7
 72
     5
  1

1001
ACAD
1000
MTEXTBEGIN
1070
    73
1070
     1
1070
    44
1040
1.0
1070
    74
1070
     0
1000
MTEXTEND
  0
MTEXT
  5
5450
330
1A
100
AcDbEntity
  8
0
100
AcDbMText
 10
18602.64096720969
 20
13804.1445837278
 30
0.0
 40
8.0
 41
0.0
 71
     7
 72
     5
  1

1001
ACAD
1000
MTEXTBEGIN
1070
    73
1070
     1
1070
    44
1040
1.0
1070
    74
1070
     0
1000
MTEXTEND
  0
MTEXT
  5
5451
330
1A
100
AcDbEntity
  8
SUNPOU
100
AcDbMText
 10
21268.53798789184
 20
23316.25597610292
 30
0.0
 40
10.5
 41
0.0
 71
     1
 72
     5
  1

1001
ACAD
1000
MTEXTBEGIN
1070
    73
1070
     1
1070
    44
1040
1.0
1070
    74
1070
     0
1000
MTEXTEND
  0
MTEXT
  5
5452
330
1A
100
AcDbEntity
  8
SUNPOU
100
AcDbMText
 10
13337.6147919559
 20
22369.46284218996
 30
0.0
 40
10.5
 41
0.0
 71
     7
 72
     5
  1

1001
ACAD
1000
MTEXTBEGIN
1070
    73
1070
     1
1070
    44
1040
1.0
1070
    74
1070
     0
1000
MTEXTEND
  0
MTEXT
  5
5453
330
1A
100
AcDbEntity
  8
SUNPOU
100
AcDbMText
 10
16286.59845646867
 20
27270.13891403281
 30
0.0
 40
10.5
 41
0.0
 71
     7
 72
     5
  1

1001
ACAD
1000
MTEXTBEGIN
1070
    73
1070
     1
1070
    44
1040
1.0
1070
    74
1070
     0
1000
MTEXTEND
  0
MTEXT
  5
5454
330
1A
100
AcDbEntity
  8
SUNPOU
100
AcDbMText
 10
20795.67658441924
 20
29706.43966165288
 30
0.0
 40
10.5
 41
0.0
 71
     7
 72
     5
  1

1001
ACAD
1000
MTEXTBEGIN
1070
    73
1070
     1
1070
    44
1040
1.0
1070
    74
1070
     0
1000
MTEXTEND
  0
MTEXT
  5
5455
330
1A
100
AcDbEntity
  8
0
100
AcDbMText
 10
16611.93789220314
 20
14707.52144344448
 30
0.0
 40
8.0
 41
0.0
 71
     7
 72
     5
  1

1001
ACAD
1000
MTEXTBEGIN
1070
    73
1070
     1
1070
    44
1040
1.0
1070
    74
1070
     0
1000
MTEXTEND
  0
MTEXT
  5
5456
330
1A
100
AcDbEntity
  8
0
100
AcDbMText
 10
18897.29558209804
 20
15678.31173819554
 30
0.0
 40
8.0
 41
0.0
 71
     7
 72
     5
  1

1001
ACAD
1000
MTEXTBEGIN
1070
    73
1070
     1
1070
    44
1040
1.0
1070
    74
1070
     0
1000
MTEXTEND
  0
MTEXT
  5
5457
330
1A
100
AcDbEntity
  8
SUNPOU
100
AcDbMText
 10
21563.19260278019
 20
25190.42313057066
 30
0.0
 40
10.5
 41
0.0
 71
     1
 72
     5
  1

1001
ACAD
1000
MTEXTBEGIN
1070
    73
1070
     1
1070
    44
1040
1.0
1070
    74
1070
     0
1000
MTEXTEND
  0
MTEXT
  5
5458
330
1A
100
AcDbEntity
  8
SUNPOU
100
AcDbMText
 10
13632.26940684426
 20
24243.6299966577
 30
0.0
 40
10.5
 41
0.0
 71
     7
 72
     5
  1

1001
ACAD
1000
MTEXTBEGIN
1070
    73
1070
     1
1070
    44
1040
1.0
1070
    74
1070
     0
1000
MTEXTEND
  0
MTEXT
  5
5459
330
1A
100
AcDbEntity
  8
SUNPOU
100
AcDbMText
 10
16581.25307135702
 20
29144.30606850055
 30
0.0
 40
10.5
 41
0.0
 71
     7
 72
     5
  1

1001
ACAD
1000
MTEXTBEGIN
1070
    73
1070
     1
1070
    44
1040
1.0
1070
    74
1070
     0
1000
MTEXTEND
  0
MTEXT
  5
545A
330
1A
100
AcDbEntity
  8
SUNPOU
100
AcDbMText
 10
21090.33119930759
 20
31580.60681612062
 30
0.0
 40
10.5
 41
0.0
 71
     7
 72
     5
  1

1001
ACAD
1000
MTEXTBEGIN
1070
    73
1070
     1
1070
    44
1040
1.0
1070
    74
1070
     0
1000
MTEXTEND
  0
MTEXT
  5
545B
330
1A
100
AcDbEntity
  8
0
100
AcDbMText
 10
22871.60517627167
 20
23974.88367124799
 30
0.0
 40
8.0
 41
0.0
 71
     7
 72
     5
  1

1001
ACAD
1000
MTEXTBEGIN
1070
    73
1070
     1
1070
    44
1040
1.0
1070
    74
1070
     0
1000
MTEXTEND
  0
MTEXT
  5
545C
330
1A
100
AcDbEntity
  8
0
100
AcDbMText
 10
25156.96286616657
 20
24945.67396599906
 30
0.0
 40
8.0
 41
0.0
 71
     7
 72
     5
  1

1001
ACAD
1000
MTEXTBEGIN
1070
    73
1070
     1
1070
    44
1040
1.0
1070
    74
1070
     0
1000
MTEXTEND
  0
MTEXT
  5
545D
330
1A
100
AcDbEntity
  8
SUNPOU
100
AcDbMText
 10
27822.85988684871
 20
34457.78535837418
 30
0.0
 40
10.5
 41
0.0
 71
     1
 72
     5
  1

1001
ACAD
1000
MTEXTBEGIN
1070
    73
1070
     1
1070
    44
1040
1.0
1070
    74
1070
     0
1000
MTEXTEND
  0
MTEXT
  5
545E
330
1A
100
AcDbEntity
  8
SUNPOU
100
AcDbMText
 10
19891.93669091278
 20
33510.99222446122
 30
0.0
 40
10.5
 41
0.0
 71
     7
 72
     5
  1

1001
ACAD
1000
MTEXTBEGIN
1070
    73
1070
     1
1070
    44
1040
1.0
1070
    74
1070
     0
1000
MTEXTEND
  0
MTEXT
  5
545F
330
1A
100
AcDbEntity
  8
SUNPOU
100
AcDbMText
 10
22840.92035542555
 20
38411.66829630407
 30
0.0
 40
10.5
 41
0.0
 71
     7
 72
     5
  1

1001
ACAD
1000
MTEXTBEGIN
1070
    73
1070
     1
1070
    44
1040
1.0
1070
    74
1070
     0
1000
MTEXTEND
  0
MTEXT
  5
5460
330
1A
100
AcDbEntity
  8
SUNPOU
100
AcDbMText
 10
27349.99848337611
 20
40847.96904392415
 30
0.0
 40
10.5
 41
0.0
 71
     7
 72
     5
  1

1001
ACAD
1000
MTEXTBEGIN
1070
    73
1070
     1
1070
    44
1040
1.0
1070
    74
1070
     0
1000
MTEXTEND
  0
MTEXT
  5
55B7
330
1A
100
AcDbEntity
  8
SUNPOU
100
AcDbMText
 10
67424.23923338197
 20
64463.86602884816
 30
0.0
 40
10.5
 41
0.0
 71
     9
 72
     5
  1

1001
ACAD
1000
MTEXTBEGIN
1070
    73
1070
     1
1070
    44
1040
1.0
1070
    74
1070
     0
1000
MTEXTEND
  0
MTEXT
  5
55B8
330
1A
100
AcDbEntity
  8
SUNPOU
100
AcDbMText
 10
76146.40679929998
 20
71879.70056038563
 30
0.0
 40
10.5
 41
0.0
 71
     9
 72
     5
  1

1001
ACAD
1000
MTEXTBEGIN
1070
    73
1070
     1
1070
    44
1040
1.0
1070
    74
1070
     0
1000
MTEXTEND
  0
MTEXT
  5
55B9
330
1A
100
AcDbEntity
  8
SUNPOU
100
AcDbMText
 10
95100.16551662994
 20
89346.27661287766
 30
0.0
 40
10.5
 41
0.0
 71
     9
 72
     5
  1

1001
ACAD
1000
MTEXTBEGIN
1070
    73
1070
     1
1070
    44
1040
1.0
1070
    74
1070
     0
1000
MTEXTEND
  0
MTEXT
  5
55BA
330
1A
100
AcDbEntity
  8
SUNPOU
100
AcDbMText
 10
97043.57276333936
 20
87545.22753299966
 30
0.0
 40
3.5
 41
0.0
 71
     9
 72
     5
  1

1001
ACAD
1000
MTEXTBEGIN
1070
    73
1070
     1
1070
    44
1040
1.0
1070
    74
1070
     0
1000
MTEXTEND
  0
MTEXT
  5
55BB
330
1A
100
AcDbEntity
  8
SUNPOU
100
AcDbMText
 10
128169.752595959
 20
130040.1732006569
 30
0.0
 40
10.5
 41
0.0
 71
     9
 72
     5
  1

1001
ACAD
1000
MTEXTBEGIN
1070
    73
1070
     1
1070
    44
1040
1.0
1070
    74
1070
     0
1000
MTEXTEND
  0
MTEXT
  5
55BC
330
1A
100
AcDbEntity
  8
SUNPOU
100
AcDbMText
 10
130113.1598426684
 20
128239.1241207789
 30
0.0
 40
3.5
 41
0.0
 71
     9
 72
     5
  1

1001
ACAD
1000
MTEXTBEGIN
1070
    73
1070
     1
1070
    44
1040
1.0
1070
    74
1070
     0
1000
MTEXTEND
  0
MTEXT
  5
55BD
330
1A
100
AcDbEntity
  8
SUNPOU
100
AcDbMText
 10
78610.02030175463
 20
75873.33835563206
 30
0.0
 40
10.5
 41
0.0
 71
     9
 72
     5
  1

1001
ACAD
1000
MTEXTBEGIN
1070
    73
1070
     1
1070
    44
1040
1.0
1070
    74
1070
     0
1000
MTEXTEND
  0
MTEXT
  5
55BE
330
1A
100
AcDbEntity
  8
SUNPOU
100
AcDbMText
 10
64662.02020137863
 20
56700.93921651987
 30
0.0
 40
3.5
 41
0.0
 71
     7
 72
     5
  1

1001
ACAD
1000
MTEXTBEGIN
1070
    73
1070
     1
1070
    44
1040
1.0
1070
    74
1070
     0
1000
MTEXTEND
  0
MTEXT
  5
55BF
330
1A
100
AcDbEntity
  8
SUNPOU
100
AcDbMText
 10
45647.18959837178
 20
44463.08794733807
 30
0.0
 40
10.5
 41
0.0
 71
     7
 72
     5
  1

1001
ACAD
1000
MTEXTBEGIN
1070
    73
1070
     1
1070
    44
1040
1.0
1070
    74
1070
     0
1000
MTEXTEND
  0
MTEXT
  5
55C0
330
1A
100
AcDbEntity
  8
SUNPOU
100
AcDbMText
 10
33189.96133342368
 20
28618.15636923965
 30
0.0
 40
35.0
 41
0.0
 71
     9
 72
     5
  1

1001
ACAD
1000
MTEXTBEGIN
1070
    73
1070
     1
1070
    44
1040
1.0
1070
    74
1070
     0
1000
MTEXTEND
  0
MTEXT
  5
55C1
330
1A
100
AcDbEntity
  8
SUNPOU
100
AcDbMText
 10
32098.44639099864
 20
29226.93177928835
 30
0.0
 40
350.0000004171781
 41
0.0
 71
     7
 72
     5
  1

1001
ACAD
1000
MTEXTBEGIN
1070
    73
1070
     1
1070
    44
1040
1.0
1070
    74
1070
     0
1000
MTEXTEND
  0
MTEXT
  5
55C2
330
1A
100
AcDbEntity
  8
0
100
AcDbMText
 10
38142.39714894154
 20
27206.85414142458
 30
0.0
 40
8.0
 41
0.0
 71
     7
 72
     5
  1

1001
ACAD
1000
MTEXTBEGIN
1070
    73
1070
     1
1070
    44
1040
1.0
1070
    74
1070
     0
1000
MTEXTEND
  0
MTEXT
  5
55C3
330
1A
100
AcDbEntity
  8
0
100
AcDbMText
 10
40427.75483883644
 20
28177.64443617564
 30
0.0
 40
8.0
 41
0.0
 71
     7
 72
     5
  1

1001
ACAD
1000
MTEXTBEGIN
1070
    73
1070
     1
1070
    44
1040
1.0
1070
    74
1070
     0
1000
MTEXTEND
  0
MTEXT
  5
55C4
330
1A
100
AcDbEntity
  8
SUNPOU
100
AcDbMText
 10
43093.65185951858
 20
37689.75582855077
 30
0.0
 40
10.5
 41
0.0
 71
     1
 72
     5
  1

1001
ACAD
1000
MTEXTBEGIN
1070
    73
1070
     1
1070
    44
1040
1.0
1070
    74
1070
     0
1000
MTEXTEND
  0
MTEXT
  5
55C5
330
1A
100
AcDbEntity
  8
SUNPOU
100
AcDbMText
 10
35162.72866358265
 20
36742.96269463781
 30
0.0
 40
10.5
 41
0.0
 71
     7
 72
     5
  1

1001
ACAD
1000
MTEXTBEGIN
1070
    73
1070
     1
1070
    44
1040
1.0
1070
    74
1070
     0
1000
MTEXTEND
  0
MTEXT
  5
55C6
330
1A
100
AcDbEntity
  8
SUNPOU
100
AcDbMText
 10
38111.71232809542
 20
41643.63876648066
 30
0.0
 40
10.5
 41
0.0
 71
     7
 72
     5
  1

1001
ACAD
1000
MTEXTBEGIN
1070
    73
1070
     1
1070
    44
1040
1.0
1070
    74
1070
     0
1000
MTEXTEND
  0
MTEXT
  5
55C7
330
1A
100
AcDbEntity
  8
SUNPOU
100
AcDbMText
 10
42620.79045604597
 20
44079.93951410074
 30
0.0
 40
10.5
 41
0.0
 71
     7
 72
     5
  1

1001
ACAD
1000
MTEXTBEGIN
1070
    73
1070
     1
1070
    44
1040
1.0
1070
    74
1070
     0
1000
MTEXTEND
  0
MTEXT
  5
55C8
330
1A
100
AcDbEntity
  8
SUNPOU
100
AcDbMText
 10
26221.62834281429
 20
23077.53566448964
 30
0.0
 40
10.5
 41
0.0
 71
     7
 72
     5
  1

1001
ACAD
1000
MTEXTBEGIN
1070
    73
1070
     1
1070
    44
1040
1.0
1070
    74
1070
     0
1000
MTEXTEND
  0
MTEXT
  5
55C9
330
1A
100
AcDbEntity
  8
SUNPOU
100
AcDbMText
 10
77413.14677671455
 20
68750.51622813789
 30
0.0
 40
10.5
 41
0.0
 71
     9
 72
     5
  1

1001
ACAD
1000
MTEXTBEGIN
1070
    73
1070
     1
1070
    44
1040
1.0
1070
    74
1070
     0
1000
MTEXTEND
  0
MTEXT
  5
55CA
330
1A
100
AcDbEntity
  8
SUNPOU
100
AcDbMText
 10
86135.31434263256
 20
76166.35075967536
 30
0.0
 40
10.5
 41
0.0
 71
     9
 72
     5
  1

1001
ACAD
1000
MTEXTBEGIN
1070
    73
1070
     1
1070
    44
1040
1.0
1070
    74
1070
     0
1000
MTEXTEND
  0
MTEXT
  5
55CB
330
1A
100
AcDbEntity
  8
SUNPOU
100
AcDbMText
 10
105089.0730599625
 20
93632.92681216739
 30
0.0
 40
10.5
 41
0.0
 71
     9
 72
     5
  1

1001
ACAD
1000
MTEXTBEGIN
1070
    73
1070
     1
1070
    44
1040
1.0
1070
    74
1070
     0
1000
MTEXTEND
  0
MTEXT
  5
55CC
330
1A
100
AcDbEntity
  8
SUNPOU
100
AcDbMText
 10
107032.4803066719
 20
91831.8777322894
 30
0.0
 40
3.5
 41
0.0
 71
     9
 72
     5
  1

1001
ACAD
1000
MTEXTBEGIN
1070
    73
1070
     1
1070
    44
1040
1.0
1070
    74
1070
     0
1000
MTEXTEND
  0
MTEXT
  5
55CD
330
1A
100
AcDbEntity
  8
SUNPOU
100
AcDbMText
 10
138158.6601392916
 20
134326.8233999467
 30
0.0
 40
10.5
 41
0.0
 71
     9
 72
     5
  1

1001
ACAD
1000
MTEXTBEGIN
1070
    73
1070
     1
1070
    44
1040
1.0
1070
    74
1070
     0
1000
MTEXTEND
  0
MTEXT
  5
55CE
330
1A
100
AcDbEntity
  8
SUNPOU
100
AcDbMText
 10
140102.067386001
 20
132525.7743200686
 30
0.0
 40
3.5
 41
0.0
 71
     9
 72
     5
  1

1001
ACAD
1000
MTEXTBEGIN
1070
    73
1070
     1
1070
    44
1040
1.0
1070
    74
1070
     0
1000
MTEXTEND
  0
MTEXT
  5
55CF
330
1A
100
AcDbEntity
  8
SUNPOU
100
AcDbMText
 10
88598.92784508721
 20
80159.98855492179
 30
0.0
 40
10.5
 41
0.0
 71
     9
 72
     5
  1

1001
ACAD
1000
MTEXTBEGIN
1070
    73
1070
     1
1070
    44
1040
1.0
1070
    74
1070
     0
1000
MTEXTEND
  0
MTEXT
  5
55D0
330
1A
100
AcDbEntity
  8
SUNPOU
100
AcDbMText
 10
74650.92774471121
 20
60987.5894158096
 30
0.0
 40
3.5
 41
0.0
 71
     7
 72
     5
  1

1001
ACAD
1000
MTEXTBEGIN
1070
    73
1070
     1
1070
    44
1040
1.0
1070
    74
1070
     0
1000
MTEXTEND
  0
MTEXT
  5
55D1
330
1A
100
AcDbEntity
  8
SUNPOU
100
AcDbMText
 10
55636.09714170436
 20
48749.73814662781
 30
0.0
 40
10.5
 41
0.0
 71
     7
 72
     5
  1

1001
ACAD
1000
MTEXTBEGIN
1070
    73
1070
     1
1070
    44
1040
1.0
1070
    74
1070
     0
1000
MTEXTEND
  0
MTEXT
  5
55D2
330
1A
100
AcDbEntity
  8
SUNPOU
100
AcDbMText
 10
43178.86887675626
 20
32904.80656852938
 30
0.0
 40
35.0
 41
0.0
 71
     9
 72
     5
  1

1001
ACAD
1000
MTEXTBEGIN
1070
    73
1070
     1
1070
    44
1040
1.0
1070
    74
1070
     0
1000
MTEXTEND
  0
MTEXT
  5
55D3
330
1A
100
AcDbEntity
  8
SUNPOU
100
AcDbMText
 10
42087.35393433121
 20
33513.58197857809
 30
0.0
 40
350.0000004171781
 41
0.0
 71
     7
 72
     5
  1

1001
ACAD
1000
MTEXTBEGIN
1070
    73
1070
     1
1070
    44
1040
1.0
1070
    74
1070
     0
1000
MTEXTEND
  0
MTEXT
  5
55D4
330
1A
100
AcDbEntity
  8
0
100
AcDbMText
 10
48131.30469227412
 20
31493.50434071431
 30
0.0
 40
8.0
 41
0.0
 71
     7
 72
     5
  1

1001
ACAD
1000
MTEXTBEGIN
1070
    73
1070
     1
1070
    44
1040
1.0
1070
    74
1070
     0
1000
MTEXTEND
  0
MTEXT
  5
55D5
330
1A
100
AcDbEntity
  8
0
100
AcDbMText
 10
50416.66238216901
 20
32464.29463546537
 30
0.0
 40
8.0
 41
0.0
 71
     7
 72
     5
  1

1001
ACAD
1000
MTEXTBEGIN
1070
    73
1070
     1
1070
    44
1040
1.0
1070
    74
1070
     0
1000
MTEXTEND
  0
MTEXT
  5
55D6
330
1A
100
AcDbEntity
  8
SUNPOU
100
AcDbMText
 10
53082.55940285115
 20
41976.4060278405
 30
0.0
 40
10.5
 41
0.0
 71
     1
 72
     5
  1

1001
ACAD
1000
MTEXTBEGIN
1070
    73
1070
     1
1070
    44
1040
1.0
1070
    74
1070
     0
1000
MTEXTEND
  0
MTEXT
  5
55D7
330
1A
100
AcDbEntity
  8
SUNPOU
100
AcDbMText
 10
45151.63620691522
 20
41029.61289392755
 30
0.0
 40
10.5
 41
0.0
 71
     7
 72
     5
  1

1001
ACAD
1000
MTEXTBEGIN
1070
    73
1070
     1
1070
    44
1040
1.0
1070
    74
1070
     0
1000
MTEXTEND
  0
MTEXT
  5
55D8
330
1A
100
AcDbEntity
  8
SUNPOU
100
AcDbMText
 10
48100.61987142798
 20
45930.28896577039
 30
0.0
 40
10.5
 41
0.0
 71
     7
 72
     5
  1

1001
ACAD
1000
MTEXTBEGIN
1070
    73
1070
     1
1070
    44
1040
1.0
1070
    74
1070
     0
1000
MTEXTEND
  0
MTEXT
  5
55D9
330
1A
100
AcDbEntity
  8
SUNPOU
100
AcDbMText
 10
52609.69799937854
 20
48366.58971339046
 30
0.0
 40
10.5
 41
0.0
 71
     7
 72
     5
  1

1001
ACAD
1000
MTEXTBEGIN
1070
    73
1070
     1
1070
    44
1040
1.0
1070
    74
1070
     0
1000
MTEXTEND
  0
MTEXT
  5
55DA
330
1A
100
AcDbEntity
  8
SUNPOU
100
AcDbMText
 10
36210.53588614687
 20
27364.18586377937
 30
0.0
 40
10.5
 41
0.0
 71
     7
 72
     5
  1

1001
ACAD
1000
MTEXTBEGIN
1070
    73
1070
     1
1070
    44
1040
1.0
1070
    74
1070
     0
1000
MTEXTEND
  0
MTEXT
  5
55DB
330
1A
100
AcDbEntity
  8
SUNPOU
100
AcDbMText
 10
38021.29879752181
 20
33691.59985125794
 30
0.0
 40
10.5
 41
0.0
 71
     9
 72
     5
  1

1001
ACAD
1000
MTEXTBEGIN
1070
    73
1070
     1
1070
    44
1040
1.0
1070
    74
1070
     0
1000
MTEXTEND
  0
MTEXT
  5
55DC
330
1A
100
AcDbEntity
  8
SUNPOU
100
AcDbMText
 10
46743.46636343979
 20
41107.43438279541
 30
0.0
 40
10.5
 41
0.0
 71
     9
 72
     5
  1

1001
ACAD
1000
MTEXTBEGIN
1070
    73
1070
     1
1070
    44
1040
1.0
1070
    74
1070
     0
1000
MTEXTEND
  0
MTEXT
  5
55DD
330
1A
100
AcDbEntity
  8
SUNPOU
100
AcDbMText
 10
65697.22508076975
 20
58574.01043528746
 30
0.0
 40
10.5
 41
0.0
 71
     9
 72
     5
  1

1001
ACAD
1000
MTEXTBEGIN
1070
    73
1070
     1
1070
    44
1040
1.0
1070
    74
1070
     0
1000
MTEXTEND
  0
MTEXT
  5
55DE
330
1A
100
AcDbEntity
  8
SUNPOU
100
AcDbMText
 10
67640.63232747917
 20
56772.96135540945
 30
0.0
 40
3.5
 41
0.0
 71
     9
 72
     5
  1

1001
ACAD
1000
MTEXTBEGIN
1070
    73
1070
     1
1070
    44
1040
1.0
1070
    74
1070
     0
1000
MTEXTEND
  0
MTEXT
  5
55DF
330
1A
100
AcDbEntity
  8
SUNPOU
100
AcDbMText
 10
98766.81216009888
 20
99267.9070230668
 30
0.0
 40
10.5
 41
0.0
 71
     9
 72
     5
  1

1001
ACAD
1000
MTEXTBEGIN
1070
    73
1070
     1
1070
    44
1040
1.0
1070
    74
1070
     0
1000
MTEXTEND
  0
MTEXT
  5
55E0
330
1A
100
AcDbEntity
  8
SUNPOU
100
AcDbMText
 10
100710.2194068083
 20
97466.85794318878
 30
0.0
 40
3.5
 41
0.0
 71
     9
 72
     5
  1

1001
ACAD
1000
MTEXTBEGIN
1070
    73
1070
     1
1070
    44
1040
1.0
1070
    74
1070
     0
1000
MTEXTEND
  0
MTEXT
  5
55E1
330
1A
100
AcDbEntity
  8
SUNPOU
100
AcDbMText
 10
49207.07986589444
 20
45101.07217804185
 30
0.0
 40
10.5
 41
0.0
 71
     9
 72
     5
  1

1001
ACAD
1000
MTEXTBEGIN
1070
    73
1070
     1
1070
    44
1040
1.0
1070
    74
1070
     0
1000
MTEXTEND
  0
MTEXT
  5
55E2
330
1A
100
AcDbEntity
  8
SUNPOU
100
AcDbMText
 10
35259.07976551845
 20
25928.67303892964
 30
0.0
 40
3.5
 41
0.0
 71
     7
 72
     5
  1

1001
ACAD
1000
MTEXTBEGIN
1070
    73
1070
     1
1070
    44
1040
1.0
1070
    74
1070
     0
1000
MTEXTEND
  0
MTEXT
  5
55E3
330
1A
100
AcDbEntity
  8
SUNPOU
100
AcDbMText
 10
48951.43044828905
 20
35287.73625995099
 30
0.0
 40
10.5
 41
0.0
 71
     9
 72
     5
  1

1001
ACAD
1000
MTEXTBEGIN
1070
    73
1070
     1
1070
    44
1040
1.0
1070
    74
1070
     0
1000
MTEXTEND
  0
MTEXT
  5
55E4
330
1A
100
AcDbEntity
  8
SUNPOU
100
AcDbMText
 10
57673.59801420702
 20
42703.57079148847
 30
0.0
 40
10.5
 41
0.0
 71
     9
 72
     5
  1

1001
ACAD
1000
MTEXTBEGIN
1070
    73
1070
     1
1070
    44
1040
1.0
1070
    74
1070
     0
1000
MTEXTEND
  0
MTEXT
  5
55E5
330
1A
100
AcDbEntity
  8
SUNPOU
100
AcDbMText
 10
76627.35673153699
 20
60170.14684398051
 30
0.0
 40
10.5
 41
0.0
 71
     9
 72
     5
  1

1001
ACAD
1000
MTEXTBEGIN
1070
    73
1070
     1
1070
    44
1040
1.0
1070
    74
1070
     0
1000
MTEXTEND
  0
MTEXT
  5
55E6
330
1A
100
AcDbEntity
  8
SUNPOU
100
AcDbMText
 10
78570.76397824641
 20
58369.09776410251
 30
0.0
 40
3.5
 41
0.0
 71
     9
 72
     5
  1

1001
ACAD
1000
MTEXTBEGIN
1070
    73
1070
     1
1070
    44
1040
1.0
1070
    74
1070
     0
1000
MTEXTEND
  0
MTEXT
  5
55E7
330
1A
100
AcDbEntity
  8
SUNPOU
100
AcDbMText
 10
109696.9438108661
 20
100864.0434317598
 30
0.0
 40
10.5
 41
0.0
 71
     9
 72
     5
  1

1001
ACAD
1000
MTEXTBEGIN
1070
    73
1070
     1
1070
    44
1040
1.0
1070
    74
1070
     0
1000
MTEXTEND
  0
MTEXT
  5
55E8
330
1A
100
AcDbEntity
  8
SUNPOU
100
AcDbMText
 10
111640.3510575755
 20
99062.99435188183
 30
0.0
 40
3.5
 41
0.0
 71
     9
 72
     5
  1

1001
ACAD
1000
MTEXTBEGIN
1070
    73
1070
     1
1070
    44
1040
1.0
1070
    74
1070
     0
1000
MTEXTEND
  0
MTEXT
  5
55E9
330
1A
100
AcDbEntity
  8
SUNPOU
100
AcDbMText
 10
60137.21151666167
 20
46697.20858673491
 30
0.0
 40
10.5
 41
0.0
 71
     9
 72
     5
  1

1001
ACAD
1000
MTEXTBEGIN
1070
    73
1070
     1
1070
    44
1040
1.0
1070
    74
1070
     0
1000
MTEXTEND
  0
MTEXT
  5
55EA
330
1A
100
AcDbEntity
  8
SUNPOU
100
AcDbMText
 10
46189.21141628568
 20
27524.80944762269
 30
0.0
 40
3.5
 41
0.0
 71
     7
 72
     5
  1

1001
ACAD
1000
MTEXTBEGIN
1070
    73
1070
     1
1070
    44
1040
1.0
1070
    74
1070
     0
1000
MTEXTEND
  0
MTEXT
  5
55EB
330
1A
100
AcDbEntity
  8
SUNPOU
100
AcDbMText
 10
45007.68847015541
 20
38269.57947701874
 30
0.0
 40
10.5
 41
0.0
 71
     9
 72
     5
  1

1001
ACAD
1000
MTEXTBEGIN
1070
    73
1070
     1
1070
    44
1040
1.0
1070
    74
1070
     0
1000
MTEXTEND
  0
MTEXT
  5
55EC
330
1A
100
AcDbEntity
  8
SUNPOU
100
AcDbMText
 10
63961.44718748539
 20
55736.15552951081
 30
0.0
 40
10.5
 41
0.0
 71
     9
 72
     5
  1

1001
ACAD
1000
MTEXTBEGIN
1070
    73
1070
     1
1070
    44
1040
1.0
1070
    74
1070
     0
1000
MTEXTEND
  0
MTEXT
  5
55ED
330
1A
100
AcDbEntity
  8
SUNPOU
100
AcDbMText
 10
65904.85443419479
 20
53935.10644963279
 30
0.0
 40
3.5
 41
0.0
 71
     9
 72
     5
  1

1001
ACAD
1000
MTEXTBEGIN
1070
    73
1070
     1
1070
    44
1040
1.0
1070
    74
1070
     0
1000
MTEXTEND
  0
MTEXT
  5
55EE
330
1A
100
AcDbEntity
  8
SUNPOU
100
AcDbMText
 10
97031.03426681451
 20
96430.05211729015
 30
0.0
 40
10.5
 41
0.0
 71
     9
 72
     5
  1

1001
ACAD
1000
MTEXTBEGIN
1070
    73
1070
     1
1070
    44
1040
1.0
1070
    74
1070
     0
1000
MTEXTEND
  0
MTEXT
  5
55EF
330
1A
100
AcDbEntity
  8
SUNPOU
100
AcDbMText
 10
98974.44151352393
 20
94629.00303741212
 30
0.0
 40
3.5
 41
0.0
 71
     9
 72
     5
  1

1001
ACAD
1000
MTEXTBEGIN
1070
    73
1070
     1
1070
    44
1040
1.0
1070
    74
1070
     0
1000
MTEXTEND
  0
MTEXT
  5
55F0
330
1A
100
AcDbEntity
  8
SUNPOU
100
AcDbMText
 10
47471.30197261006
 20
42263.21727226519
 30
0.0
 40
10.5
 41
0.0
 71
     9
 72
     5
  1

1001
ACAD
1000
MTEXTBEGIN
1070
    73
1070
     1
1070
    44
1040
1.0
1070
    74
1070
     0
1000
MTEXTEND
  0
MTEXT
  5
55F1
330
1A
100
AcDbEntity
  8
SUNPOU
100
AcDbMText
 10
33523.30187223408
 20
23090.81813315298
 30
0.0
 40
3.5
 41
0.0
 71
     7
 72
     5
  1

1001
ACAD
1000
MTEXTBEGIN
1070
    73
1070
     1
1070
    44
1040
1.0
1070
    74
1070
     0
1000
MTEXTEND
  0
MTEXT
  5
55F2
330
1A
100
AcDbEntity
  8
SUNPOU
100
AcDbMText
 10
57959.46254102503
 20
50038.08111611015
 30
0.0
 40
10.5
 41
0.0
 71
     9
 72
     5
  1

1001
ACAD
1000
MTEXTBEGIN
1070
    73
1070
     1
1070
    44
1040
1.0
1070
    74
1070
     0
1000
MTEXTEND
  0
MTEXT
  5
55F3
330
1A
100
AcDbEntity
  8
SUNPOU
100
AcDbMText
 10
76913.22125835503
 20
67504.65716860222
 30
0.0
 40
10.5
 41
0.0
 71
     9
 72
     5
  1

1001
ACAD
1000
MTEXTBEGIN
1070
    73
1070
     1
1070
    44
1040
1.0
1070
    74
1070
     0
1000
MTEXTEND
  0
MTEXT
  5
55F4
330
1A
100
AcDbEntity
  8
SUNPOU
100
AcDbMText
 10
78856.62850506443
 20
65703.6080887242
 30
0.0
 40
3.5
 41
0.0
 71
     9
 72
     5
  1

1001
ACAD
1000
MTEXTBEGIN
1070
    73
1070
     1
1070
    44
1040
1.0
1070
    74
1070
     0
1000
MTEXTEND
  0
MTEXT
  5
55F5
330
1A
100
AcDbEntity
  8
SUNPOU
100
AcDbMText
 10
109982.8083376841
 20
108198.5537563815
 30
0.0
 40
10.5
 41
0.0
 71
     9
 72
     5
  1

1001
ACAD
1000
MTEXTBEGIN
1070
    73
1070
     1
1070
    44
1040
1.0
1070
    74
1070
     0
1000
MTEXTEND
  0
MTEXT
  5
55F6
330
1A
100
AcDbEntity
  8
SUNPOU
100
AcDbMText
 10
111926.2155843935
 20
106397.5046765035
 30
0.0
 40
3.5
 41
0.0
 71
     9
 72
     5
  1

1001
ACAD
1000
MTEXTBEGIN
1070
    73
1070
     1
1070
    44
1040
1.0
1070
    74
1070
     0
1000
MTEXTEND
  0
MTEXT
  5
55F7
330
1A
100
AcDbEntity
  8
SUNPOU
100
AcDbMText
 10
60423.07604347968
 20
54031.71891135659
 30
0.0
 40
10.5
 41
0.0
 71
     9
 72
     5
  1

1001
ACAD
1000
MTEXTBEGIN
1070
    73
1070
     1
1070
    44
1040
1.0
1070
    74
1070
     0
1000
MTEXTEND
  0
MTEXT
  5
55F8
330
1A
100
AcDbEntity
  8
SUNPOU
100
AcDbMText
 10
46475.07594310369
 20
34859.3197722444
 30
0.0
 40
3.5
 41
0.0
 71
     7
 72
     5
  1

1001
ACAD
1000
MTEXTBEGIN
1070
    73
1070
     1
1070
    44
1040
1.0
1070
    74
1070
     0
1000
MTEXTEND
  0
MTEXT
  5
55F9
330
1A
100
AcDbEntity
  8
SUNPOU
100
AcDbMText
 10
74027.35402123588
 20
68370.58278833383
 30
0.0
 40
10.5
 41
0.0
 71
     9
 72
     5
  1

1001
ACAD
1000
MTEXTBEGIN
1070
    73
1070
     1
1070
    44
1040
1.0
1070
    74
1070
     0
1000
MTEXTEND
  0
MTEXT
  5
55FA
330
1A
100
AcDbEntity
  8
SUNPOU
100
AcDbMText
 10
75970.7612679453
 20
66569.53370845583
 30
0.0
 40
3.5
 41
0.0
 71
     9
 72
     5
  1

1001
ACAD
1000
MTEXTBEGIN
1070
    73
1070
     1
1070
    44
1040
1.0
1070
    74
1070
     0
1000
MTEXTEND
  0
MTEXT
  5
55FB
330
1A
100
AcDbEntity
  8
SUNPOU
100
AcDbMText
 10
107096.941100565
 20
109064.4793761132
 30
0.0
 40
10.5
 41
0.0
 71
     9
 72
     5
  1

1001
ACAD
1000
MTEXTBEGIN
1070
    73
1070
     1
1070
    44
1040
1.0
1070
    74
1070
     0
1000
MTEXTEND
  0
MTEXT
  5
55FC
330
1A
100
AcDbEntity
  8
SUNPOU
100
AcDbMText
 10
109040.3483472744
 20
107263.4302962351
 30
0.0
 40
3.5
 41
0.0
 71
     9
 72
     5
  1

1001
ACAD
1000
MTEXTBEGIN
1070
    73
1070
     1
1070
    44
1040
1.0
1070
    74
1070
     0
1000
MTEXTEND
  0
MTEXT
  5
55FD
330
1A
100
AcDbEntity
  8
SUNPOU
100
AcDbMText
 10
105709.1709283621
 20
108141.3777665285
 30
0.0
 40
10.5
 41
0.0
 71
     9
 72
     5
  1

1001
ACAD
1000
MTEXTBEGIN
1070
    73
1070
     1
1070
    44
1040
1.0
1070
    74
1070
     0
1000
MTEXTEND
  0
MTEXT
  5
55FE
330
1A
100
AcDbEntity
  8
SUNPOU
100
AcDbMText
 10
107652.5781750715
 20
106340.3286866505
 30
0.0
 40
3.5
 41
0.0
 71
     9
 72
     5
  1

1001
ACAD
1000
MTEXTBEGIN
1070
    73
1070
     1
1070
    44
1040
1.0
1070
    74
1070
     0
1000
MTEXTEND
  0
MTEXT
  5
55FF
330
1A
100
AcDbEntity
  8
SUNPOU
100
AcDbMText
 10
73193.09268743351
 20
66158.78082845056
 30
0.0
 40
10.5
 41
0.0
 71
     9
 72
     5
  1

1001
ACAD
1000
MTEXTBEGIN
1070
    73
1070
     1
1070
    44
1040
1.0
1070
    74
1070
     0
1000
MTEXTEND
  0
MTEXT
  5
5600
330
1A
100
AcDbEntity
  8
SUNPOU
100
AcDbMText
 10
75916.39889159806
 20
66563.46252003162
 30
0.0
 40
3.5
 41
0.0
 71
     9
 72
     5
  1

1001
ACAD
1000
MTEXTBEGIN
1070
    73
1070
     1
1070
    44
1040
1.0
1070
    74
1070
     0
1000
MTEXTEND
  0
MTEXT
  5
5601
330
1A
100
AcDbEntity
  8
SUNPOU
100
AcDbMText
 10
75124.04436649058
 20
63402.1566819768
 30
0.0
 40
10.5
 41
0.0
 71
     9
 72
     5
  1

1001
ACAD
1000
MTEXTBEGIN
1070
    73
1070
     1
1070
    44
1040
1.0
1070
    74
1070
     0
1000
MTEXTEND
  0
MTEXT
  5
5602
330
1A
100
AcDbEntity
  8
SUNPOU
100
AcDbMText
 10
77067.4516132
 20
61601.1076020988
 30
0.0
 40
3.5
 41
0.0
 71
     9
 72
     5
  1

1001
ACAD
1000
MTEXTBEGIN
1070
    73
1070
     1
1070
    44
1040
1.0
1070
    74
1070
     0
1000
MTEXTEND
  0
MTEXT
  5
5603
330
1A
100
AcDbEntity
  8
SUNPOU
100
AcDbMText
 10
77012.54710378659
 20
61488.33571981449
 30
0.0
 40
3.5
 41
0.0
 71
     9
 72
     5
  1

1001
ACAD
1000
MTEXTBEGIN
1070
    73
1070
     1
1070
    44
1040
1.0
1070
    74
1070
     0
1000
MTEXTEND
  0
MTEXT
  5
5604
330
1A
100
AcDbEntity
  8
SUNPOU
100
AcDbMText
 10
76376.61896736668
 20
60677.01447874797
 30
0.0
 40
3.5
 41
0.0
 71
     9
 72
     5
  1

1001
ACAD
1000
MTEXTBEGIN
1070
    73
1070
     1
1070
    44
1040
1.0
1070
    74
1070
     0
1000
MTEXTEND
  0
MTEXT
  5
5605
330
1A
100
AcDbEntity
  8
SUNPOU
100
AcDbMText
 10
76375.37854794595
 20
60676.76650181047
 30
0.0
 40
10.5
 41
0.0
 71
     9
 72
     5
  1

1001
ACAD
1000
MTEXTBEGIN
1070
    73
1070
     1
1070
    44
1040
1.0
1070
    74
1070
     0
1000
MTEXTEND
  0
MTEXT
  5
5606
330
1A
100
AcDbEntity
  8
SUNPOU
100
AcDbMText
 10
84709.93991079748
 20
78034.0328293557
 30
0.0
 40
10.5
 41
0.0
 71
     9
 72
     5
  1

1001
ACAD
1000
MTEXTBEGIN
1070
    73
1070
     1
1070
    44
1040
1.0
1070
    74
1070
     0
1000
MTEXTEND
  0
MTEXT
  5
5607
330
1A
100
AcDbEntity
  8
SUNPOU
100
AcDbMText
 10
93432.10747671548
 20
85449.86736089315
 30
0.0
 40
10.5
 41
0.0
 71
     9
 72
     5
  1

1001
ACAD
1000
MTEXTBEGIN
1070
    73
1070
     1
1070
    44
1040
1.0
1070
    74
1070
     0
1000
MTEXTEND
  0
MTEXT
  5
5608
330
1A
100
AcDbEntity
  8
SUNPOU
100
AcDbMText
 10
112385.8661940454
 20
102916.4434133851
 30
0.0
 40
10.5
 41
0.0
 71
     9
 72
     5
  1

1001
ACAD
1000
MTEXTBEGIN
1070
    73
1070
     1
1070
    44
1040
1.0
1070
    74
1070
     0
1000
MTEXTEND
  0
MTEXT
  5
5609
330
1A
100
AcDbEntity
  8
SUNPOU
100
AcDbMText
 10
114329.2734407548
 20
101115.3943335072
 30
0.0
 40
3.5
 41
0.0
 71
     9
 72
     5
  1

1001
ACAD
1000
MTEXTBEGIN
1070
    73
1070
     1
1070
    44
1040
1.0
1070
    74
1070
     0
1000
MTEXTEND
  0
MTEXT
  5
560A
330
1A
100
AcDbEntity
  8
SUNPOU
100
AcDbMText
 10
145455.4532733745
 20
143610.3400011645
 30
0.0
 40
10.5
 41
0.0
 71
     9
 72
     5
  1

1001
ACAD
1000
MTEXTBEGIN
1070
    73
1070
     1
1070
    44
1040
1.0
1070
    74
1070
     0
1000
MTEXTEND
  0
MTEXT
  5
560B
330
1A
100
AcDbEntity
  8
SUNPOU
100
AcDbMText
 10
147398.8605200839
 20
141809.2909212864
 30
0.0
 40
3.5
 41
0.0
 71
     9
 72
     5
  1

1001
ACAD
1000
MTEXTBEGIN
1070
    73
1070
     1
1070
    44
1040
1.0
1070
    74
1070
     0
1000
MTEXTEND
  0
MTEXT
  5
560C
330
1A
100
AcDbEntity
  8
SUNPOU
100
AcDbMText
 10
95895.72097917013
 20
89443.5051561396
 30
0.0
 40
10.5
 41
0.0
 71
     9
 72
     5
  1

1001
ACAD
1000
MTEXTBEGIN
1070
    73
1070
     1
1070
    44
1040
1.0
1070
    74
1070
     0
1000
MTEXTEND
  0
MTEXT
  5
560D
330
1A
100
AcDbEntity
  8
SUNPOU
100
AcDbMText
 10
81947.72087879414
 20
70271.1060170274
 30
0.0
 40
3.5
 41
0.0
 71
     7
 72
     5
  1

1001
ACAD
1000
MTEXTBEGIN
1070
    73
1070
     1
1070
    44
1040
1.0
1070
    74
1070
     0
1000
MTEXTEND
  0
MTEXT
  5
560E
330
1A
100
AcDbEntity
  8
SUNPOU
100
AcDbMText
 10
62932.89027578729
 20
58033.25474784561
 30
0.0
 40
10.5
 41
0.0
 71
     7
 72
     5
  1

1001
ACAD
1000
MTEXTBEGIN
1070
    73
1070
     1
1070
    44
1040
1.0
1070
    74
1070
     0
1000
MTEXTEND
  0
MTEXT
  5
560F
330
1A
100
AcDbEntity
  8
SUNPOU
100
AcDbMText
 10
50475.66201083918
 20
42188.32316974719
 30
0.0
 40
35.0
 41
0.0
 71
     9
 72
     5
  1

1001
ACAD
1000
MTEXTBEGIN
1070
    73
1070
     1
1070
    44
1040
1.0
1070
    74
1070
     0
1000
MTEXTEND
  0
MTEXT
  5
5610
330
1A
100
AcDbEntity
  8
SUNPOU
100
AcDbMText
 10
49384.14706841413
 20
42797.0985797959
 30
0.0
 40
350.0000004171781
 41
0.0
 71
     7
 72
     5
  1

1001
ACAD
1000
MTEXTBEGIN
1070
    73
1070
     1
1070
    44
1040
1.0
1070
    74
1070
     0
1000
MTEXTEND
  0
MTEXT
  5
5611
330
1A
100
AcDbEntity
  8
0
100
AcDbMText
 10
55428.09782635704
 20
40777.02094193211
 30
0.0
 40
8.0
 41
0.0
 71
     7
 72
     5
  1

1001
ACAD
1000
MTEXTBEGIN
1070
    73
1070
     1
1070
    44
1040
1.0
1070
    74
1070
     0
1000
MTEXTEND
  0
MTEXT
  5
5612
330
1A
100
AcDbEntity
  8
0
100
AcDbMText
 10
57713.45551625194
 20
41747.81123668317
 30
0.0
 40
8.0
 41
0.0
 71
     7
 72
     5
  1

1001
ACAD
1000
MTEXTBEGIN
1070
    73
1070
     1
1070
    44
1040
1.0
1070
    74
1070
     0
1000
MTEXTEND
  0
MTEXT
  5
5613
330
1A
100
AcDbEntity
  8
SUNPOU
100
AcDbMText
 10
60379.35253693408
 20
51259.9226290583
 30
0.0
 40
10.5
 41
0.0
 71
     1
 72
     5
  1

1001
ACAD
1000
MTEXTBEGIN
1070
    73
1070
     1
1070
    44
1040
1.0
1070
    74
1070
     0
1000
MTEXTEND
  0
MTEXT
  5
5614
330
1A
100
AcDbEntity
  8
SUNPOU
100
AcDbMText
 10
52448.42934099814
 20
50313.12949514535
 30
0.0
 40
10.5
 41
0.0
 71
     7
 72
     5
  1

1001
ACAD
1000
MTEXTBEGIN
1070
    73
1070
     1
1070
    44
1040
1.0
1070
    74
1070
     0
1000
MTEXTEND
  0
MTEXT
  5
5615
330
1A
100
AcDbEntity
  8
SUNPOU
100
AcDbMText
 10
55397.41300551091
 20
55213.80556698819
 30
0.0
 40
10.5
 41
0.0
 71
     7
 72
     5
  1

1001
ACAD
1000
MTEXTBEGIN
1070
    73
1070
     1
1070
    44
1040
1.0
1070
    74
1070
     0
1000
MTEXTEND
  0
MTEXT
  5
5616
330
1A
100
AcDbEntity
  8
SUNPOU
100
AcDbMText
 10
59906.49113346147
 20
57650.10631460826
 30
0.0
 40
10.5
 41
0.0
 71
     7
 72
     5
  1

1001
ACAD
1000
MTEXTBEGIN
1070
    73
1070
     1
1070
    44
1040
1.0
1070
    74
1070
     0
1000
MTEXTEND
  0
MTEXT
  5
5617
330
1A
100
AcDbEntity
  8
SUNPOU
100
AcDbMText
 10
43507.32902022979
 20
36647.70246499718
 30
0.0
 40
10.5
 41
0.0
 71
     7
 72
     5
  1

1001
ACAD
1000
MTEXTBEGIN
1070
    73
1070
     1
1070
    44
1040
1.0
1070
    74
1070
     0
1000
MTEXTEND
  0
MTEXT
  5
5618
330
1A
100
AcDbEntity
  8
SUNPOU
100
AcDbMText
 10
94698.84745413006
 20
82320.68302864542
 30
0.0
 40
10.5
 41
0.0
 71
     9
 72
     5
  1

1001
ACAD
1000
MTEXTBEGIN
1070
    73
1070
     1
1070
    44
1040
1.0
1070
    74
1070
     0
1000
MTEXTEND
  0
MTEXT
  5
5619
330
1A
100
AcDbEntity
  8
SUNPOU
100
AcDbMText
 10
103421.015020048
 20
89736.5175601829
 30
0.0
 40
10.5
 41
0.0
 71
     9
 72
     5
  1

1001
ACAD
1000
MTEXTBEGIN
1070
    73
1070
     1
1070
    44
1040
1.0
1070
    74
1070
     0
1000
MTEXTEND
  0
MTEXT
  5
561A
330
1A
100
AcDbEntity
  8
SUNPOU
100
AcDbMText
 10
122374.773737378
 20
107203.0936126749
 30
0.0
 40
10.5
 41
0.0
 71
     9
 72
     5
  1

1001
ACAD
1000
MTEXTBEGIN
1070
    73
1070
     1
1070
    44
1040
1.0
1070
    74
1070
     0
1000
MTEXTEND
  0
MTEXT
  5
561B
330
1A
100
AcDbEntity
  8
SUNPOU
100
AcDbMText
 10
124318.1809840874
 20
105402.0445327969
 30
0.0
 40
3.5
 41
0.0
 71
     9
 72
     5
  1

1001
ACAD
1000
MTEXTBEGIN
1070
    73
1070
     1
1070
    44
1040
1.0
1070
    74
1070
     0
1000
MTEXTEND
  0
MTEXT
  5
561C
330
1A
100
AcDbEntity
  8
SUNPOU
100
AcDbMText
 10
155444.3608167071
 20
147896.9902004542
 30
0.0
 40
10.5
 41
0.0
 71
     9
 72
     5
  1

1001
ACAD
1000
MTEXTBEGIN
1070
    73
1070
     1
1070
    44
1040
1.0
1070
    74
1070
     0
1000
MTEXTEND
  0
MTEXT
  5
561D
330
1A
100
AcDbEntity
  8
SUNPOU
100
AcDbMText
 10
157387.7680634165
 20
146095.9411205762
 30
0.0
 40
3.5
 41
0.0
 71
     9
 72
     5
  1

1001
ACAD
1000
MTEXTBEGIN
1070
    73
1070
     1
1070
    44
1040
1.0
1070
    74
1070
     0
1000
MTEXTEND
  0
MTEXT
  5
561E
330
1A
100
AcDbEntity
  8
SUNPOU
100
AcDbMText
 10
105884.6285225027
 20
93730.15535542933
 30
0.0
 40
10.5
 41
0.0
 71
     9
 72
     5
  1

1001
ACAD
1000
MTEXTBEGIN
1070
    73
1070
     1
1070
    44
1040
1.0
1070
    74
1070
     0
1000
MTEXTEND
  0
MTEXT
  5
561F
330
1A
100
AcDbEntity
  8
SUNPOU
100
AcDbMText
 10
91936.6284221267
 20
74557.75621631714
 30
0.0
 40
3.5
 41
0.0
 71
     7
 72
     5
  1

1001
ACAD
1000
MTEXTBEGIN
1070
    73
1070
     1
1070
    44
1040
1.0
1070
    74
1070
     0
1000
MTEXTEND
  0
MTEXT
  5
5620
330
1A
100
AcDbEntity
  8
SUNPOU
100
AcDbMText
 10
72921.79781911986
 20
62319.90494713533
 30
0.0
 40
10.5
 41
0.0
 71
     7
 72
     5
  1

1001
ACAD
1000
MTEXTBEGIN
1070
    73
1070
     1
1070
    44
1040
1.0
1070
    74
1070
     0
1000
MTEXTEND
  0
MTEXT
  5
5621
330
1A
100
AcDbEntity
  8
SUNPOU
100
AcDbMText
 10
60464.56955417175
 20
46474.97336903692
 30
0.0
 40
35.0
 41
0.0
 71
     9
 72
     5
  1

1001
ACAD
1000
MTEXTBEGIN
1070
    73
1070
     1
1070
    44
1040
1.0
1070
    74
1070
     0
1000
MTEXTEND
  0
MTEXT
  5
5622
330
1A
100
AcDbEntity
  8
SUNPOU
100
AcDbMText
 10
59373.05461174672
 20
47083.74877908562
 30
0.0
 40
350.0000004171781
 41
0.0
 71
     7
 72
     5
  1

1001
ACAD
1000
MTEXTBEGIN
1070
    73
1070
     1
1070
    44
1040
1.0
1070
    74
1070
     0
1000
MTEXTEND
  0
MTEXT
  5
5623
330
1A
100
AcDbEntity
  8
0
100
AcDbMText
 10
65417.00536968962
 20
45063.67114122186
 30
0.0
 40
8.0
 41
0.0
 71
     7
 72
     5
  1

1001
ACAD
1000
MTEXTBEGIN
1070
    73
1070
     1
1070
    44
1040
1.0
1070
    74
1070
     0
1000
MTEXTEND
  0
MTEXT
  5
5624
330
1A
100
AcDbEntity
  8
0
100
AcDbMText
 10
67702.36305958452
 20
46034.46143597292
 30
0.0
 40
8.0
 41
0.0
 71
     7
 72
     5
  1

1001
ACAD
1000
MTEXTBEGIN
1070
    73
1070
     1
1070
    44
1040
1.0
1070
    74
1070
     0
1000
MTEXTEND
  0
MTEXT
  5
5625
330
1A
100
AcDbEntity
  8
SUNPOU
100
AcDbMText
 10
70368.26008026666
 20
55546.57282834803
 30
0.0
 40
10.5
 41
0.0
 71
     1
 72
     5
  1

1001
ACAD
1000
MTEXTBEGIN
1070
    73
1070
     1
1070
    44
1040
1.0
1070
    74
1070
     0
1000
MTEXTEND
  0
MTEXT
  5
5626
330
1A
100
AcDbEntity
  8
SUNPOU
100
AcDbMText
 10
62437.33688433072
 20
54599.77969443508
 30
0.0
 40
10.5
 41
0.0
 71
     7
 72
     5
  1

1001
ACAD
1000
MTEXTBEGIN
1070
    73
1070
     1
1070
    44
1040
1.0
1070
    74
1070
     0
1000
MTEXTEND
  0
MTEXT
  5
5627
330
1A
100
AcDbEntity
  8
SUNPOU
100
AcDbMText
 10
65386.32054884349
 20
59500.45576627792
 30
0.0
 40
10.5
 41
0.0
 71
     7
 72
     5
  1

1001
ACAD
1000
MTEXTBEGIN
1070
    73
1070
     1
1070
    44
1040
1.0
1070
    74
1070
     0
1000
MTEXTEND
  0
MTEXT
  5
5628
330
1A
100
AcDbEntity
  8
SUNPOU
100
AcDbMText
 10
69895.39867679405
 20
61936.756513898
 30
0.0
 40
10.5
 41
0.0
 71
     7
 72
     5
  1

1001
ACAD
1000
MTEXTBEGIN
1070
    73
1070
     1
1070
    44
1040
1.0
1070
    74
1070
     0
1000
MTEXTEND
  0
MTEXT
  5
5629
330
1A
100
AcDbEntity
  8
SUNPOU
100
AcDbMText
 10
53496.23656356237
 20
40934.35266428691
 30
0.0
 40
10.5
 41
0.0
 71
     7
 72
     5
  1

1001
ACAD
1000
MTEXTBEGIN
1070
    73
1070
     1
1070
    44
1040
1.0
1070
    74
1070
     0
1000
MTEXTEND
  0
MTEXT
  5
562A
330
1A
100
AcDbEntity
  8
SUNPOU
100
AcDbMText
 10
55306.99947493731
 20
47261.76665176547
 30
0.0
 40
10.5
 41
0.0
 71
     9
 72
     5
  1

1001
ACAD
1000
MTEXTBEGIN
1070
    73
1070
     1
1070
    44
1040
1.0
1070
    74
1070
     0
1000
MTEXTEND
  0
MTEXT
  5
562B
330
1A
100
AcDbEntity
  8
SUNPOU
100
AcDbMText
 10
64029.16704085528
 20
54677.60118330295
 30
0.0
 40
10.5
 41
0.0
 71
     9
 72
     5
  1

1001
ACAD
1000
MTEXTBEGIN
1070
    73
1070
     1
1070
    44
1040
1.0
1070
    74
1070
     0
1000
MTEXTEND
  0
MTEXT
  5
562C
330
1A
100
AcDbEntity
  8
SUNPOU
100
AcDbMText
 10
82982.92575818527
 20
72144.17723579499
 30
0.0
 40
10.5
 41
0.0
 71
     9
 72
     5
  1

1001
ACAD
1000
MTEXTBEGIN
1070
    73
1070
     1
1070
    44
1040
1.0
1070
    74
1070
     0
1000
MTEXTEND
  0
MTEXT
  5
562D
330
1A
100
AcDbEntity
  8
SUNPOU
100
AcDbMText
 10
84926.33300489467
 20
70343.12815591698
 30
0.0
 40
3.5
 41
0.0
 71
     9
 72
     5
  1

1001
ACAD
1000
MTEXTBEGIN
1070
    73
1070
     1
1070
    44
1040
1.0
1070
    74
1070
     0
1000
MTEXTEND
  0
MTEXT
  5
562E
330
1A
100
AcDbEntity
  8
SUNPOU
100
AcDbMText
 10
116052.5128375143
 20
112838.0738235743
 30
0.0
 40
10.5
 41
0.0
 71
     9
 72
     5
  1

1001
ACAD
1000
MTEXTBEGIN
1070
    73
1070
     1
1070
    44
1040
1.0
1070
    74
1070
     0
1000
MTEXTEND
  0
MTEXT
  5
562F
330
1A
100
AcDbEntity
  8
SUNPOU
100
AcDbMText
 10
117995.9200842238
 20
111037.0247436963
 30
0.0
 40
3.5
 41
0.0
 71
     9
 72
     5
  1

1001
ACAD
1000
MTEXTBEGIN
1070
    73
1070
     1
1070
    44
1040
1.0
1070
    74
1070
     0
1000
MTEXTEND
  0
MTEXT
  5
5630
330
1A
100
AcDbEntity
  8
SUNPOU
100
AcDbMText
 10
66492.78054330994
 20
58671.23897854939
 30
0.0
 40
10.5
 41
0.0
 71
     9
 72
     5
  1

1001
ACAD
1000
MTEXTBEGIN
1070
    73
1070
     1
1070
    44
1040
1.0
1070
    74
1070
     0
1000
MTEXTEND
  0
MTEXT
  5
5631
330
1A
100
AcDbEntity
  8
SUNPOU
100
AcDbMText
 10
52544.78044293396
 20
39498.83983943717
 30
0.0
 40
3.5
 41
0.0
 71
     7
 72
     5
  1

1001
ACAD
1000
MTEXTBEGIN
1070
    73
1070
     1
1070
    44
1040
1.0
1070
    74
1070
     0
1000
MTEXTEND
  0
MTEXT
  5
5632
330
1A
100
AcDbEntity
  8
SUNPOU
100
AcDbMText
 10
66237.13112570454
 20
48857.90306045851
 30
0.0
 40
10.5
 41
0.0
 71
     9
 72
     5
  1

1001
ACAD
1000
MTEXTBEGIN
1070
    73
1070
     1
1070
    44
1040
1.0
1070
    74
1070
     0
1000
MTEXTEND
  0
MTEXT
  5
5633
330
1A
100
AcDbEntity
  8
SUNPOU
100
AcDbMText
 10
74959.29869162252
 20
56273.737591996
 30
0.0
 40
10.5
 41
0.0
 71
     9
 72
     5
  1

1001
ACAD
1000
MTEXTBEGIN
1070
    73
1070
     1
1070
    44
1040
1.0
1070
    74
1070
     0
1000
MTEXTEND
  0
MTEXT
  5
5634
330
1A
100
AcDbEntity
  8
SUNPOU
100
AcDbMText
 10
93913.0574089525
 20
73740.31364448805
 30
0.0
 40
10.5
 41
0.0
 71
     9
 72
     5
  1

1001
ACAD
1000
MTEXTBEGIN
1070
    73
1070
     1
1070
    44
1040
1.0
1070
    74
1070
     0
1000
MTEXTEND
  0
MTEXT
  5
5635
330
1A
100
AcDbEntity
  8
SUNPOU
100
AcDbMText
 10
95856.46465566192
 20
71939.26456461004
 30
0.0
 40
3.5
 41
0.0
 71
     9
 72
     5
  1

1001
ACAD
1000
MTEXTBEGIN
1070
    73
1070
     1
1070
    44
1040
1.0
1070
    74
1070
     0
1000
MTEXTEND
  0
MTEXT
  5
5636
330
1A
100
AcDbEntity
  8
SUNPOU
100
AcDbMText
 10
126982.6444882816
 20
114434.2102322673
 30
0.0
 40
10.5
 41
0.0
 71
     9
 72
     5
  1

1001
ACAD
1000
MTEXTBEGIN
1070
    73
1070
     1
1070
    44
1040
1.0
1070
    74
1070
     0
1000
MTEXTEND
  0
MTEXT
  5
5637
330
1A
100
AcDbEntity
  8
SUNPOU
100
AcDbMText
 10
128926.051734991
 20
112633.1611523893
 30
0.0
 40
3.5
 41
0.0
 71
     9
 72
     5
  1

1001
ACAD
1000
MTEXTBEGIN
1070
    73
1070
     1
1070
    44
1040
1.0
1070
    74
1070
     0
1000
MTEXTEND
  0
MTEXT
  5
5638
330
1A
100
AcDbEntity
  8
SUNPOU
100
AcDbMText
 10
77422.91219407717
 20
60267.37538724244
 30
0.0
 40
10.5
 41
0.0
 71
     9
 72
     5
  1

1001
ACAD
1000
MTEXTBEGIN
1070
    73
1070
     1
1070
    44
1040
1.0
1070
    74
1070
     0
1000
MTEXTEND
  0
MTEXT
  5
5639
330
1A
100
AcDbEntity
  8
SUNPOU
100
AcDbMText
 10
63474.91209370119
 20
41094.97624813023
 30
0.0
 40
3.5
 41
0.0
 71
     7
 72
     5
  1

1001
ACAD
1000
MTEXTBEGIN
1070
    73
1070
     1
1070
    44
1040
1.0
1070
    74
1070
     0
1000
MTEXTEND
  0
MTEXT
  5
563A
330
1A
100
AcDbEntity
  8
SUNPOU
100
AcDbMText
 10
48117.65086229006
 20
40806.11043916631
 30
0.0
 40
10.5
 41
0.0
 71
     9
 72
     5
  1

1001
ACAD
1000
MTEXTBEGIN
1070
    73
1070
     1
1070
    44
1040
1.0
1070
    74
1070
     0
1000
MTEXTEND
  0
MTEXT
  5
563B
330
1A
100
AcDbEntity
  8
SUNPOU
100
AcDbMText
 10
67071.40957962004
 20
58272.68649165837
 30
0.0
 40
10.5
 41
0.0
 71
     9
 72
     5
  1

1001
ACAD
1000
MTEXTBEGIN
1070
    73
1070
     1
1070
    44
1040
1.0
1070
    74
1070
     0
1000
MTEXTEND
  0
MTEXT
  5
563C
330
1A
100
AcDbEntity
  8
SUNPOU
100
AcDbMText
 10
69014.81682632945
 20
56471.63741178035
 30
0.0
 40
3.5
 41
0.0
 71
     9
 72
     5
  1

1001
ACAD
1000
MTEXTBEGIN
1070
    73
1070
     1
1070
    44
1040
1.0
1070
    74
1070
     0
1000
MTEXTEND
  0
MTEXT
  5
563D
330
1A
100
AcDbEntity
  8
SUNPOU
100
AcDbMText
 10
100140.9966589491
 20
98966.58307943772
 30
0.0
 40
10.5
 41
0.0
 71
     9
 72
     5
  1

1001
ACAD
1000
MTEXTBEGIN
1070
    73
1070
     1
1070
    44
1040
1.0
1070
    74
1070
     0
1000
MTEXTEND
  0
MTEXT
  5
563E
330
1A
100
AcDbEntity
  8
SUNPOU
100
AcDbMText
 10
102084.4039056586
 20
97165.53399955969
 30
0.0
 40
3.5
 41
0.0
 71
     9
 72
     5
  1

1001
ACAD
1000
MTEXTBEGIN
1070
    73
1070
     1
1070
    44
1040
1.0
1070
    74
1070
     0
1000
MTEXTEND
  0
MTEXT
  5
563F
330
1A
100
AcDbEntity
  8
SUNPOU
100
AcDbMText
 10
50581.26436474472
 20
44799.74823441275
 30
0.0
 40
10.5
 41
0.0
 71
     9
 72
     5
  1

1001
ACAD
1000
MTEXTBEGIN
1070
    73
1070
     1
1070
    44
1040
1.0
1070
    74
1070
     0
1000
MTEXTEND
  0
MTEXT
  5
5640
330
1A
100
AcDbEntity
  8
SUNPOU
100
AcDbMText
 10
36633.26426436873
 20
25627.34909530054
 30
0.0
 40
3.5
 41
0.0
 71
     7
 72
     5
  1

1001
ACAD
1000
MTEXTBEGIN
1070
    73
1070
     1
1070
    44
1040
1.0
1070
    74
1070
     0
1000
MTEXTEND
  0
MTEXT
  5
5641
330
1A
100
AcDbEntity
  8
SUNPOU
100
AcDbMText
 10
61069.42493315968
 20
52574.61207825771
 30
0.0
 40
10.5
 41
0.0
 71
     9
 72
     5
  1

1001
ACAD
1000
MTEXTBEGIN
1070
    73
1070
     1
1070
    44
1040
1.0
1070
    74
1070
     0
1000
MTEXTEND
  0
MTEXT
  5
5642
330
1A
100
AcDbEntity
  8
SUNPOU
100
AcDbMText
 10
80023.18365048967
 20
70041.18813074978
 30
0.0
 40
10.5
 41
0.0
 71
     9
 72
     5
  1

1001
ACAD
1000
MTEXTBEGIN
1070
    73
1070
     1
1070
    44
1040
1.0
1070
    74
1070
     0
1000
MTEXTEND
  0
MTEXT
  5
5643
330
1A
100
AcDbEntity
  8
SUNPOU
100
AcDbMText
 10
81966.59089719908
 20
68240.13905087176
 30
0.0
 40
3.5
 41
0.0
 71
     9
 72
     5
  1

1001
ACAD
1000
MTEXTBEGIN
1070
    73
1070
     1
1070
    44
1040
1.0
1070
    74
1070
     0
1000
MTEXTEND
  0
MTEXT
  5
5644
330
1A
100
AcDbEntity
  8
SUNPOU
100
AcDbMText
 10
113092.7707298187
 20
110735.0847185291
 30
0.0
 40
10.5
 41
0.0
 71
     9
 72
     5
  1

1001
ACAD
1000
MTEXTBEGIN
1070
    73
1070
     1
1070
    44
1040
1.0
1070
    74
1070
     0
1000
MTEXTEND
  0
MTEXT
  5
5645
330
1A
100
AcDbEntity
  8
SUNPOU
100
AcDbMText
 10
115036.1779765282
 20
108934.0356386511
 30
0.0
 40
3.5
 41
0.0
 71
     9
 72
     5
  1

1001
ACAD
1000
MTEXTBEGIN
1070
    73
1070
     1
1070
    44
1040
1.0
1070
    74
1070
     0
1000
MTEXTEND
  0
MTEXT
  5
5646
330
1A
100
AcDbEntity
  8
SUNPOU
100
AcDbMText
 10
63533.03843561433
 20
56568.24987350415
 30
0.0
 40
10.5
 41
0.0
 71
     9
 72
     5
  1

1001
ACAD
1000
MTEXTBEGIN
1070
    73
1070
     1
1070
    44
1040
1.0
1070
    74
1070
     0
1000
MTEXTEND
  0
MTEXT
  5
5647
330
1A
100
AcDbEntity
  8
SUNPOU
100
AcDbMText
 10
49585.03833523835
 20
37395.85073439196
 30
0.0
 40
3.5
 41
0.0
 71
     7
 72
     5
  1

1001
ACAD
1000
MTEXTBEGIN
1070
    73
1070
     1
1070
    44
1040
1.0
1070
    74
1070
     0
1000
MTEXTEND
  0
MTEXT
  5
5648
330
1A
100
AcDbEntity
  8
SUNPOU
100
AcDbMText
 10
77137.31641337052
 20
70907.11375048141
 30
0.0
 40
10.5
 41
0.0
 71
     9
 72
     5
  1

1001
ACAD
1000
MTEXTBEGIN
1070
    73
1070
     1
1070
    44
1040
1.0
1070
    74
1070
     0
1000
MTEXTEND
  0
MTEXT
  5
5649
330
1A
100
AcDbEntity
  8
SUNPOU
100
AcDbMText
 10
79080.72366007995
 20
69106.06467060339
 30
0.0
 40
3.5
 41
0.0
 71
     9
 72
     5
  1

1001
ACAD
1000
MTEXTBEGIN
1070
    73
1070
     1
1070
    44
1040
1.0
1070
    74
1070
     0
1000
MTEXTEND
  0
MTEXT
  5
564A
330
1A
100
AcDbEntity
  8
SUNPOU
100
AcDbMText
 10
110206.9034926996
 20
111601.0103382607
 30
0.0
 40
10.5
 41
0.0
 71
     9
 72
     5
  1

1001
ACAD
1000
MTEXTBEGIN
1070
    73
1070
     1
1070
    44
1040
1.0
1070
    74
1070
     0
1000
MTEXTEND
  0
MTEXT
  5
564B
330
1A
100
AcDbEntity
  8
SUNPOU
100
AcDbMText
 10
112150.310739409
 20
109799.9612583827
 30
0.0
 40
3.5
 41
0.0
 71
     9
 72
     5
  1

1001
ACAD
1000
MTEXTBEGIN
1070
    73
1070
     1
1070
    44
1040
1.0
1070
    74
1070
     0
1000
MTEXTEND
  0
MTEXT
  5
564C
330
1A
100
AcDbEntity
  8
SUNPOU
100
AcDbMText
 10
108819.1333204968
 20
110677.9087286761
 30
0.0
 40
10.5
 41
0.0
 71
     9
 72
     5
  1

1001
ACAD
1000
MTEXTBEGIN
1070
    73
1070
     1
1070
    44
1040
1.0
1070
    74
1070
     0
1000
MTEXTEND
  0
MTEXT
  5
564D
330
1A
100
AcDbEntity
  8
SUNPOU
100
AcDbMText
 10
110762.5405672062
 20
108876.8596487981
 30
0.0
 40
3.5
 41
0.0
 71
     9
 72
     5
  1

1001
ACAD
1000
MTEXTBEGIN
1070
    73
1070
     1
1070
    44
1040
1.0
1070
    74
1070
     0
1000
MTEXTEND
  0
MTEXT
  5
564E
330
1A
100
AcDbEntity
  8
SUNPOU
100
AcDbMText
 10
76303.05507956816
 20
68695.31179059812
 30
0.0
 40
10.5
 41
0.0
 71
     9
 72
     5
  1

1001
ACAD
1000
MTEXTBEGIN
1070
    73
1070
     1
1070
    44
1040
1.0
1070
    74
1070
     0
1000
MTEXTEND
  0
MTEXT
  5
564F
330
1A
100
AcDbEntity
  8
SUNPOU
100
AcDbMText
 10
79026.36128373271
 20
69099.99348217918
 30
0.0
 40
3.5
 41
0.0
 71
     9
 72
     5
  1

1001
ACAD
1000
MTEXTBEGIN
1070
    73
1070
     1
1070
    44
1040
1.0
1070
    74
1070
     0
1000
MTEXTEND
  0
MTEXT
  5
5650
330
1A
100
AcDbEntity
  8
SUNPOU
100
AcDbMText
 10
78234.00675862522
 20
65938.68764412436
 30
0.0
 40
10.5
 41
0.0
 71
     9
 72
     5
  1

1001
ACAD
1000
MTEXTBEGIN
1070
    73
1070
     1
1070
    44
1040
1.0
1070
    74
1070
     0
1000
MTEXTEND
  0
MTEXT
  5
5651
330
1A
100
AcDbEntity
  8
SUNPOU
100
AcDbMText
 10
80177.41400533465
 20
64137.63856424636
 30
0.0
 40
3.5
 41
0.0
 71
     9
 72
     5
  1

1001
ACAD
1000
MTEXTBEGIN
1070
    73
1070
     1
1070
    44
1040
1.0
1070
    74
1070
     0
1000
MTEXTEND
  0
MTEXT
  5
5652
330
1A
100
AcDbEntity
  8
SUNPOU
100
AcDbMText
 10
80122.50949592123
 20
64024.86668196205
 30
0.0
 40
3.5
 41
0.0
 71
     9
 72
     5
  1

1001
ACAD
1000
MTEXTBEGIN
1070
    73
1070
     1
1070
    44
1040
1.0
1070
    74
1070
     0
1000
MTEXTEND
  0
MTEXT
  5
5653
330
1A
100
AcDbEntity
  8
SUNPOU
100
AcDbMText
 10
79486.58135950133
 20
63213.54544089553
 30
0.0
 40
3.5
 41
0.0
 71
     9
 72
     5
  1

1001
ACAD
1000
MTEXTBEGIN
1070
    73
1070
     1
1070
    44
1040
1.0
1070
    74
1070
     0
1000
MTEXTEND
  0
MTEXT
  5
5654
330
1A
100
AcDbEntity
  8
SUNPOU
100
AcDbMText
 10
79485.3409400806
 20
63213.29746395804
 30
0.0
 40
10.5
 41
0.0
 71
     9
 72
     5
  1

1001
ACAD
1000
MTEXTBEGIN
1070
    73
1070
     1
1070
    44
1040
1.0
1070
    74
1070
     0
1000
MTEXTEND
  0
MTEXT
  5
5655
330
1A
100
AcDbEntity
  8
SUNPOU
100
AcDbMText
 10
85473.63363627567
 20
80747.76348077064
 30
0.0
 40
10.5
 41
0.0
 71
     9
 72
     5
  1

1001
ACAD
1000
MTEXTBEGIN
1070
    73
1070
     1
1070
    44
1040
1.0
1070
    74
1070
     0
1000
MTEXTEND
  0
MTEXT
  5
5656
330
1A
100
AcDbEntity
  8
SUNPOU
100
AcDbMText
 10
94195.80120219368
 20
88163.59801230809
 30
0.0
 40
10.5
 41
0.0
 71
     9
 72
     5
  1

1001
ACAD
1000
MTEXTBEGIN
1070
    73
1070
     1
1070
    44
1040
1.0
1070
    74
1070
     0
1000
MTEXTEND
  0
MTEXT
  5
5657
330
1A
100
AcDbEntity
  8
SUNPOU
100
AcDbMText
 10
113149.5599195236
 20
105630.1740648001
 30
0.0
 40
10.5
 41
0.0
 71
     9
 72
     5
  1

1001
ACAD
1000
MTEXTBEGIN
1070
    73
1070
     1
1070
    44
1040
1.0
1070
    74
1070
     0
1000
MTEXTEND
  0
MTEXT
  5
5658
330
1A
100
AcDbEntity
  8
SUNPOU
100
AcDbMText
 10
115092.967166233
 20
103829.1249849221
 30
0.0
 40
3.5
 41
0.0
 71
     9
 72
     5
  1

1001
ACAD
1000
MTEXTBEGIN
1070
    73
1070
     1
1070
    44
1040
1.0
1070
    74
1070
     0
1000
MTEXTEND
  0
MTEXT
  5
5659
330
1A
100
AcDbEntity
  8
SUNPOU
100
AcDbMText
 10
146219.1469988527
 20
146324.0706525794
 30
0.0
 40
10.5
 41
0.0
 71
     9
 72
     5
  1

1001
ACAD
1000
MTEXTBEGIN
1070
    73
1070
     1
1070
    44
1040
1.0
1070
    74
1070
     0
1000
MTEXTEND
  0
MTEXT
  5
565A
330
1A
100
AcDbEntity
  8
SUNPOU
100
AcDbMText
 10
148162.5542455621
 20
144523.0215727014
 30
0.0
 40
3.5
 41
0.0
 71
     9
 72
     5
  1

1001
ACAD
1000
MTEXTBEGIN
1070
    73
1070
     1
1070
    44
1040
1.0
1070
    74
1070
     0
1000
MTEXTEND
  0
MTEXT
  5
565B
330
1A
100
AcDbEntity
  8
SUNPOU
100
AcDbMText
 10
96659.41470464833
 20
92157.23580755453
 30
0.0
 40
10.5
 41
0.0
 71
     9
 72
     5
  1

1001
ACAD
1000
MTEXTBEGIN
1070
    73
1070
     1
1070
    44
1040
1.0
1070
    74
1070
     0
1000
MTEXTEND
  0
MTEXT
  5
565C
330
1A
100
AcDbEntity
  8
SUNPOU
100
AcDbMText
 10
82711.41460427234
 20
72984.83666844234
 30
0.0
 40
3.5
 41
0.0
 71
     7
 72
     5
  1

1001
ACAD
1000
MTEXTBEGIN
1070
    73
1070
     1
1070
    44
1040
1.0
1070
    74
1070
     0
1000
MTEXTEND
  0
MTEXT
  5
565D
330
1A
100
AcDbEntity
  8
SUNPOU
100
AcDbMText
 10
63696.58400126548
 20
60746.98539926055
 30
0.0
 40
10.5
 41
0.0
 71
     7
 72
     5
  1

1001
ACAD
1000
MTEXTBEGIN
1070
    73
1070
     1
1070
    44
1040
1.0
1070
    74
1070
     0
1000
MTEXTEND
  0
MTEXT
  5
565E
330
1A
100
AcDbEntity
  8
SUNPOU
100
AcDbMText
 10
51239.35573631738
 20
44902.05382116213
 30
0.0
 40
35.0
 41
0.0
 71
     9
 72
     5
  1

1001
ACAD
1000
MTEXTBEGIN
1070
    73
1070
     1
1070
    44
1040
1.0
1070
    74
1070
     0
1000
MTEXTEND
  0
MTEXT
  5
565F
330
1A
100
AcDbEntity
  8
SUNPOU
100
AcDbMText
 10
50147.84079389233
 20
45510.82923121084
 30
0.0
 40
350.0000004171781
 41
0.0
 71
     7
 72
     5
  1

1001
ACAD
1000
MTEXTBEGIN
1070
    73
1070
     1
1070
    44
1040
1.0
1070
    74
1070
     0
1000
MTEXTEND
  0
MTEXT
  5
5660
330
1A
100
AcDbEntity
  8
0
100
AcDbMText
 10
56191.79155183523
 20
43490.75159334705
 30
0.0
 40
8.0
 41
0.0
 71
     7
 72
     5
  1

1001
ACAD
1000
MTEXTBEGIN
1070
    73
1070
     1
1070
    44
1040
1.0
1070
    74
1070
     0
1000
MTEXTEND
  0
MTEXT
  5
5661
330
1A
100
AcDbEntity
  8
0
100
AcDbMText
 10
58477.14924173013
 20
44461.54188809812
 30
0.0
 40
8.0
 41
0.0
 71
     7
 72
     5
  1

1001
ACAD
1000
MTEXTBEGIN
1070
    73
1070
     1
1070
    44
1040
1.0
1070
    74
1070
     0
1000
MTEXTEND
  0
MTEXT
  5
5662
330
1A
100
AcDbEntity
  8
SUNPOU
100
AcDbMText
 10
61143.04626241227
 20
53973.65328047324
 30
0.0
 40
10.5
 41
0.0
 71
     1
 72
     5
  1

1001
ACAD
1000
MTEXTBEGIN
1070
    73
1070
     1
1070
    44
1040
1.0
1070
    74
1070
     0
1000
MTEXTEND
  0
MTEXT
  5
5663
330
1A
100
AcDbEntity
  8
SUNPOU
100
AcDbMText
 10
53212.12306647634
 20
53026.86014656028
 30
0.0
 40
10.5
 41
0.0
 71
     7
 72
     5
  1

1001
ACAD
1000
MTEXTBEGIN
1070
    73
1070
     1
1070
    44
1040
1.0
1070
    74
1070
     0
1000
MTEXTEND
  0
MTEXT
  5
5664
330
1A
100
AcDbEntity
  8
SUNPOU
100
AcDbMText
 10
56161.1067309891
 20
57927.53621840312
 30
0.0
 40
10.5
 41
0.0
 71
     7
 72
     5
  1

1001
ACAD
1000
MTEXTBEGIN
1070
    73
1070
     1
1070
    44
1040
1.0
1070
    74
1070
     0
1000
MTEXTEND
  0
MTEXT
  5
5665
330
1A
100
AcDbEntity
  8
SUNPOU
100
AcDbMText
 10
60670.18485893966
 20
60363.8369660232
 30
0.0
 40
10.5
 41
0.0
 71
     7
 72
     5
  1

1001
ACAD
1000
MTEXTBEGIN
1070
    73
1070
     1
1070
    44
1040
1.0
1070
    74
1070
     0
1000
MTEXTEND
  0
MTEXT
  5
5666
330
1A
100
AcDbEntity
  8
SUNPOU
100
AcDbMText
 10
44271.02274570799
 20
39361.43311641212
 30
0.0
 40
10.5
 41
0.0
 71
     7
 72
     5
  1

1001
ACAD
1000
MTEXTBEGIN
1070
    73
1070
     1
1070
    44
1040
1.0
1070
    74
1070
     0
1000
MTEXTEND
  0
MTEXT
  5
5667
330
1A
100
AcDbEntity
  8
SUNPOU
100
AcDbMText
 10
95462.54117960824
 20
85034.41368006038
 30
0.0
 40
10.5
 41
0.0
 71
     9
 72
     5
  1

1001
ACAD
1000
MTEXTBEGIN
1070
    73
1070
     1
1070
    44
1040
1.0
1070
    74
1070
     0
1000
MTEXTEND
  0
MTEXT
  5
5668
330
1A
100
AcDbEntity
  8
SUNPOU
100
AcDbMText
 10
104184.7087455262
 20
92450.24821159784
 30
0.0
 40
10.5
 41
0.0
 71
     9
 72
     5
  1

1001
ACAD
1000
MTEXTBEGIN
1070
    73
1070
     1
1070
    44
1040
1.0
1070
    74
1070
     0
1000
MTEXTEND
  0
MTEXT
  5
5669
330
1A
100
AcDbEntity
  8
SUNPOU
100
AcDbMText
 10
123138.4674628562
 20
109916.8242640898
 30
0.0
 40
10.5
 41
0.0
 71
     9
 72
     5
  1

1001
ACAD
1000
MTEXTBEGIN
1070
    73
1070
     1
1070
    44
1040
1.0
1070
    74
1070
     0
1000
MTEXTEND
  0
MTEXT
  5
566A
330
1A
100
AcDbEntity
  8
SUNPOU
100
AcDbMText
 10
125081.8747095656
 20
108115.7751842118
 30
0.0
 40
3.5
 41
0.0
 71
     9
 72
     5
  1

1001
ACAD
1000
MTEXTBEGIN
1070
    73
1070
     1
1070
    44
1040
1.0
1070
    74
1070
     0
1000
MTEXTEND
  0
MTEXT
  5
566B
330
1A
100
AcDbEntity
  8
SUNPOU
100
AcDbMText
 10
156208.0545421853
 20
150610.7208518691
 30
0.0
 40
10.5
 41
0.0
 71
     9
 72
     5
  1

1001
ACAD
1000
MTEXTBEGIN
1070
    73
1070
     1
1070
    44
1040
1.0
1070
    74
1070
     0
1000
MTEXTEND
  0
MTEXT
  5
566C
330
1A
100
AcDbEntity
  8
SUNPOU
100
AcDbMText
 10
158151.4617888947
 20
148809.6717719911
 30
0.0
 40
3.5
 41
0.0
 71
     9
 72
     5
  1

1001
ACAD
1000
MTEXTBEGIN
1070
    73
1070
     1
1070
    44
1040
1.0
1070
    74
1070
     0
1000
MTEXTEND
  0
MTEXT
  5
566D
330
1A
100
AcDbEntity
  8
SUNPOU
100
AcDbMText
 10
106648.3222479809
 20
96443.88600684427
 30
0.0
 40
10.5
 41
0.0
 71
     9
 72
     5
  1

1001
ACAD
1000
MTEXTBEGIN
1070
    73
1070
     1
1070
    44
1040
1.0
1070
    74
1070
     0
1000
MTEXTEND
  0
MTEXT
  5
566E
330
1A
100
AcDbEntity
  8
SUNPOU
100
AcDbMText
 10
92700.3221476049
 20
77271.48686773207
 30
0.0
 40
3.5
 41
0.0
 71
     7
 72
     5
  1

1001
ACAD
1000
MTEXTBEGIN
1070
    73
1070
     1
1070
    44
1040
1.0
1070
    74
1070
     0
1000
MTEXTEND
  0
MTEXT
  5
566F
330
1A
100
AcDbEntity
  8
SUNPOU
100
AcDbMText
 10
73685.49154459806
 20
65033.63559855027
 30
0.0
 40
10.5
 41
0.0
 71
     7
 72
     5
  1

1001
ACAD
1000
MTEXTBEGIN
1070
    73
1070
     1
1070
    44
1040
1.0
1070
    74
1070
     0
1000
MTEXTEND
  0
MTEXT
  5
5670
330
1A
100
AcDbEntity
  8
SUNPOU
100
AcDbMText
 10
61228.26327964995
 20
49188.70402045185
 30
0.0
 40
35.0
 41
0.0
 71
     9
 72
     5
  1

1001
ACAD
1000
MTEXTBEGIN
1070
    73
1070
     1
1070
    44
1040
1.0
1070
    74
1070
     0
1000
MTEXTEND
  0
MTEXT
  5
5671
330
1A
100
AcDbEntity
  8
SUNPOU
100
AcDbMText
 10
60136.74833722491
 20
49797.47943050056
 30
0.0
 40
350.0000004171781
 41
0.0
 71
     7
 72
     5
  1

1001
ACAD
1000
MTEXTBEGIN
1070
    73
1070
     1
1070
    44
1040
1.0
1070
    74
1070
     0
1000
MTEXTEND
  0
MTEXT
  5
5672
330
1A
100
AcDbEntity
  8
0
100
AcDbMText
 10
66180.69909516782
 20
47777.40179263678
 30
0.0
 40
8.0
 41
0.0
 71
     7
 72
     5
  1

1001
ACAD
1000
MTEXTBEGIN
1070
    73
1070
     1
1070
    44
1040
1.0
1070
    74
1070
     0
1000
MTEXTEND
  0
MTEXT
  5
5673
330
1A
100
AcDbEntity
  8
0
100
AcDbMText
 10
68466.05678506271
 20
48748.19208738784
 30
0.0
 40
8.0
 41
0.0
 71
     7
 72
     5
  1

1001
ACAD
1000
MTEXTBEGIN
1070
    73
1070
     1
1070
    44
1040
1.0
1070
    74
1070
     0
1000
MTEXTEND
  0
MTEXT
  5
5674
330
1A
100
AcDbEntity
  8
SUNPOU
100
AcDbMText
 10
71131.95380574485
 20
58260.30347976296
 30
0.0
 40
10.5
 41
0.0
 71
     1
 72
     5
  1

1001
ACAD
1000
MTEXTBEGIN
1070
    73
1070
     1
1070
    44
1040
1.0
1070
    74
1070
     0
1000
MTEXTEND
  0
MTEXT
  5
5675
330
1A
100
AcDbEntity
  8
SUNPOU
100
AcDbMText
 10
63201.03060980891
 20
57313.51034585002
 30
0.0
 40
10.5
 41
0.0
 71
     7
 72
     5
  1

1001
ACAD
1000
MTEXTBEGIN
1070
    73
1070
     1
1070
    44
1040
1.0
1070
    74
1070
     0
1000
MTEXTEND
  0
MTEXT
  5
5676
330
1A
100
AcDbEntity
  8
SUNPOU
100
AcDbMText
 10
66150.01427432169
 20
62214.18641769286
 30
0.0
 40
10.5
 41
0.0
 71
     7
 72
     5
  1

1001
ACAD
1000
MTEXTBEGIN
1070
    73
1070
     1
1070
    44
1040
1.0
1070
    74
1070
     0
1000
MTEXTEND
  0
MTEXT
  5
5677
330
1A
100
AcDbEntity
  8
SUNPOU
100
AcDbMText
 10
70659.09240227225
 20
64650.48716531294
 30
0.0
 40
10.5
 41
0.0
 71
     7
 72
     5
  1

1001
ACAD
1000
MTEXTBEGIN
1070
    73
1070
     1
1070
    44
1040
1.0
1070
    74
1070
     0
1000
MTEXTEND
  0
MTEXT
  5
5678
330
1A
100
AcDbEntity
  8
SUNPOU
100
AcDbMText
 10
54259.93028904056
 20
43648.08331570185
 30
0.0
 40
10.5
 41
0.0
 71
     7
 72
     5
  1

1001
ACAD
1000
MTEXTBEGIN
1070
    73
1070
     1
1070
    44
1040
1.0
1070
    74
1070
     0
1000
MTEXTEND
  0
MTEXT
  5
5679
330
1A
100
AcDbEntity
  8
SUNPOU
100
AcDbMText
 10
56070.69320041551
 20
49975.4973031804
 30
0.0
 40
10.5
 41
0.0
 71
     9
 72
     5
  1

1001
ACAD
1000
MTEXTBEGIN
1070
    73
1070
     1
1070
    44
1040
1.0
1070
    74
1070
     0
1000
MTEXTEND
  0
MTEXT
  5
567A
330
1A
100
AcDbEntity
  8
SUNPOU
100
AcDbMText
 10
64792.86076633348
 20
57391.33183471788
 30
0.0
 40
10.5
 41
0.0
 71
     9
 72
     5
  1

1001
ACAD
1000
MTEXTBEGIN
1070
    73
1070
     1
1070
    44
1040
1.0
1070
    74
1070
     0
1000
MTEXTEND
  0
MTEXT
  5
567B
330
1A
100
AcDbEntity
  8
SUNPOU
100
AcDbMText
 10
83746.61948366345
 20
74857.90788720994
 30
0.0
 40
10.5
 41
0.0
 71
     9
 72
     5
  1

1001
ACAD
1000
MTEXTBEGIN
1070
    73
1070
     1
1070
    44
1040
1.0
1070
    74
1070
     0
1000
MTEXTEND
  0
MTEXT
  5
567C
330
1A
100
AcDbEntity
  8
SUNPOU
100
AcDbMText
 10
85690.02673037287
 20
73056.85880733192
 30
0.0
 40
3.5
 41
0.0
 71
     9
 72
     5
  1

1001
ACAD
1000
MTEXTBEGIN
1070
    73
1070
     1
1070
    44
1040
1.0
1070
    74
1070
     0
1000
MTEXTEND
  0
MTEXT
  5
567D
330
1A
100
AcDbEntity
  8
SUNPOU
100
AcDbMText
 10
116816.2065629925
 20
115551.8044749892
 30
0.0
 40
10.5
 41
0.0
 71
     9
 72
     5
  1

1001
ACAD
1000
MTEXTBEGIN
1070
    73
1070
     1
1070
    44
1040
1.0
1070
    74
1070
     0
1000
MTEXTEND
  0
MTEXT
  5
567E
330
1A
100
AcDbEntity
  8
SUNPOU
100
AcDbMText
 10
118759.613809702
 20
113750.7553951112
 30
0.0
 40
3.5
 41
0.0
 71
     9
 72
     5
  1

1001
ACAD
1000
MTEXTBEGIN
1070
    73
1070
     1
1070
    44
1040
1.0
1070
    74
1070
     0
1000
MTEXTEND
  0
MTEXT
  5
567F
330
1A
100
AcDbEntity
  8
SUNPOU
100
AcDbMText
 10
67256.47426878814
 20
61384.96962996432
 30
0.0
 40
10.5
 41
0.0
 71
     9
 72
     5
  1

1001
ACAD
1000
MTEXTBEGIN
1070
    73
1070
     1
1070
    44
1040
1.0
1070
    74
1070
     0
1000
MTEXTEND
  0
MTEXT
  5
5680
330
1A
100
AcDbEntity
  8
SUNPOU
100
AcDbMText
 10
53308.47416841216
 20
42212.57049085211
 30
0.0
 40
3.5
 41
0.0
 71
     7
 72
     5
  1

1001
ACAD
1000
MTEXTBEGIN
1070
    73
1070
     1
1070
    44
1040
1.0
1070
    74
1070
     0
1000
MTEXTEND
  0
MTEXT
  5
5681
330
1A
100
AcDbEntity
  8
SUNPOU
100
AcDbMText
 10
67000.82485118274
 20
51571.63371187345
 30
0.0
 40
10.5
 41
0.0
 71
     9
 72
     5
  1

1001
ACAD
1000
MTEXTBEGIN
1070
    73
1070
     1
1070
    44
1040
1.0
1070
    74
1070
     0
1000
MTEXTEND
  0
MTEXT
  5
5682
330
1A
100
AcDbEntity
  8
SUNPOU
100
AcDbMText
 10
75722.99241710071
 20
58987.46824341094
 30
0.0
 40
10.5
 41
0.0
 71
     9
 72
     5
  1

1001
ACAD
1000
MTEXTBEGIN
1070
    73
1070
     1
1070
    44
1040
1.0
1070
    74
1070
     0
1000
MTEXTEND
  0
MTEXT
  5
5683
330
1A
100
AcDbEntity
  8
SUNPOU
100
AcDbMText
 10
94676.75113443068
 20
76454.04429590299
 30
0.0
 40
10.5
 41
0.0
 71
     9
 72
     5
  1

1001
ACAD
1000
MTEXTBEGIN
1070
    73
1070
     1
1070
    44
1040
1.0
1070
    74
1070
     0
1000
MTEXTEND
  0
MTEXT
  5
5684
330
1A
100
AcDbEntity
  8
SUNPOU
100
AcDbMText
 10
96620.1583811401
 20
74652.99521602498
 30
0.0
 40
3.5
 41
0.0
 71
     9
 72
     5
  1

1001
ACAD
1000
MTEXTBEGIN
1070
    73
1070
     1
1070
    44
1040
1.0
1070
    74
1070
     0
1000
MTEXTEND
  0
MTEXT
  5
5685
330
1A
100
AcDbEntity
  8
SUNPOU
100
AcDbMText
 10
127746.3382137598
 20
117147.9408836823
 30
0.0
 40
10.5
 41
0.0
 71
     9
 72
     5
  1

1001
ACAD
1000
MTEXTBEGIN
1070
    73
1070
     1
1070
    44
1040
1.0
1070
    74
1070
     0
1000
MTEXTEND
  0
MTEXT
  5
5686
330
1A
100
AcDbEntity
  8
SUNPOU
100
AcDbMText
 10
129689.7454604692
 20
115346.8918038043
 30
0.0
 40
3.5
 41
0.0
 71
     9
 72
     5
  1

1001
ACAD
1000
MTEXTBEGIN
1070
    73
1070
     1
1070
    44
1040
1.0
1070
    74
1070
     0
1000
MTEXTEND
  0
MTEXT
  5
5687
330
1A
100
AcDbEntity
  8
SUNPOU
100
AcDbMText
 10
78186.60591955537
 20
62981.10603865738
 30
0.0
 40
10.5
 41
0.0
 71
     9
 72
     5
  1

1001
ACAD
1000
MTEXTBEGIN
1070
    73
1070
     1
1070
    44
1040
1.0
1070
    74
1070
     0
1000
MTEXTEND
  0
MTEXT
  5
5688
330
1A
100
AcDbEntity
  8
SUNPOU
100
AcDbMText
 10
64238.60581917939
 20
43808.70689954517
 30
0.0
 40
3.5
 41
0.0
 71
     7
 72
     5
  1

1001
ACAD
1000
MTEXTBEGIN
1070
    73
1070
     1
1070
    44
1040
1.0
1070
    74
1070
     0
1000
MTEXTEND
  0
MTEXT
  5
5689
330
1A
100
AcDbEntity
  8
SUNPOU
100
AcDbMText
 10
33428.13481137435
 20
32770.04710035564
 30
0.0
 40
10.5
 41
0.0
 71
     9
 72
     5
  1

1001
ACAD
1000
MTEXTBEGIN
1070
    73
1070
     1
1070
    44
1040
1.0
1070
    74
1070
     0
1000
MTEXTEND
  0
MTEXT
  5
568A
330
1A
100
AcDbEntity
  8
SUNPOU
100
AcDbMText
 10
52381.89352870432
 20
50236.62315284769
 30
0.0
 40
10.5
 41
0.0
 71
     9
 72
     5
  1

1001
ACAD
1000
MTEXTBEGIN
1070
    73
1070
     1
1070
    44
1040
1.0
1070
    74
1070
     0
1000
MTEXTEND
  0
MTEXT
  5
568B
330
1A
100
AcDbEntity
  8
SUNPOU
100
AcDbMText
 10
54325.30077541374
 20
48435.57407296968
 30
0.0
 40
3.5
 41
0.0
 71
     9
 72
     5
  1

1001
ACAD
1000
MTEXTBEGIN
1070
    73
1070
     1
1070
    44
1040
1.0
1070
    74
1070
     0
1000
MTEXTEND
  0
MTEXT
  5
568C
330
1A
100
AcDbEntity
  8
SUNPOU
100
AcDbMText
 10
85451.48060803343
 20
90930.51974062703
 30
0.0
 40
10.5
 41
0.0
 71
     9
 72
     5
  1

1001
ACAD
1000
MTEXTBEGIN
1070
    73
1070
     1
1070
    44
1040
1.0
1070
    74
1070
     0
1000
MTEXTEND
  0
MTEXT
  5
568D
330
1A
100
AcDbEntity
  8
SUNPOU
100
AcDbMText
 10
87394.88785474286
 20
89129.47066074901
 30
0.0
 40
3.5
 41
0.0
 71
     9
 72
     5
  1

1001
ACAD
1000
MTEXTBEGIN
1070
    73
1070
     1
1070
    44
1040
1.0
1070
    74
1070
     0
1000
MTEXTEND
  0
MTEXT
  5
568E
330
1A
100
AcDbEntity
  8
SUNPOU
100
AcDbMText
 10
35891.74831382901
 20
36763.68489560208
 30
0.0
 40
10.5
 41
0.0
 71
     9
 72
     5
  1

1001
ACAD
1000
MTEXTBEGIN
1070
    73
1070
     1
1070
    44
1040
1.0
1070
    74
1070
     0
1000
MTEXTEND
  0
MTEXT
  5
568F
330
1A
100
AcDbEntity
  8
SUNPOU
100
AcDbMText
 10
21943.74821345303
 20
17591.28575648986
 30
0.0
 40
3.5
 41
0.0
 71
     7
 72
     5
  1

1001
ACAD
1000
MTEXTBEGIN
1070
    73
1070
     1
1070
    44
1040
1.0
1070
    74
1070
     0
1000
MTEXTEND
  0
MTEXT
  5
11D07
330
1A
100
AcDbEntity
  8
ZISSEN1
100
AcDbMText
 10
-1578.730329565349
 20
1713.45253755404
 30
0.0
 40
5.0
 41
180.733
 71
     1
 72
     5
  1
UCD-7613v1/GDB5F40　No.SS0001f85
1001
ACAD
1000
MTEXTBEGIN
1070
    73
1070
     1
1070
    44
1040
1.0
1070
    74
1070
     0
1000
MTEXTEND
  0
LINE
  5
160DE
330
1A
100
AcDbEntity
  8
ZISSEN1
  6
BYBLOCK
100
AcDbLine
 10
-1660.000000000002
 20
1578.5
 30
0.0
 11
-1660.000000000002
 21
1503.0
 31
0.0
  0
LINE
  5
160E0
330
1A
100
AcDbEntity
  8
ZISSEN1
100
AcDbLine
 10
-1662.000000000002
 20
1520.500000000005
 30
0.0
 11
-1663.600000000002
 21
1520.500000000005
 31
0.0
  0
LINE
  5
160E9
330
1A
100
AcDbEntity
  8
ZISSEN1
100
AcDbLine
 10
-1631.400000000001
 20
1579.499999999999
 30
0.0
 11
-1631.400000000001
 21
1582.499999999999
 31
0.0
  0
LINE
  5
160EA
330
1A
100
AcDbEntity
  8
ZISSEN1
100
AcDbLine
 10
-1629.800000000002
 20
1579.5
 30
0.0
 11
-1629.800000000002
 21
1582.499999999999
 31
0.0
  0
LINE
  5
160F2
330
1A
100
AcDbEntity
  8
ZISSEN1
100
AcDbLine
 10
-1439.199999999998
 20
1579.499999999999
 30
0.0
 11
-1440.199999999998
 21
1579.499999999999
 31
0.0
  0
LINE
  5
160F3
330
1A
100
AcDbEntity
  8
ZISSEN1
100
AcDbLine
 10
-1590.8
 20
1579.500000184069
 30
0.0
 11
-1590.0
 21
1579.500000036814
 31
0.0
  0
LINE
  5
160F4
330
1A
100
AcDbEntity
  8
ZISSEN1
100
AcDbLine
 10
-1590.8
 20
1503.0
 30
0.0
 11
-1590.8
 21
1579.500000184069
 31
0.0
  0
LINE
  5
160F7
330
1A
100
AcDbEntity
  8
ZISSEN1
  6
BYBLOCK
100
AcDbLine
 10
-1654.500000000002
 20
1513.0
 30
0.0
 11
-1637.817846538317
 21
1513.0
 31
0.0
  0
LINE
  5
160F8
330
1A
100
AcDbEntity
  8
ZISSEN1
  6
BYBLOCK
100
AcDbLine
 10
-1660.000000000002
 20
1578.5
 30
0.0
 11
-1659.000000000002
 21
1579.5
 31
0.0
  0
LINE
  5
160F9
330
1A
100
AcDbEntity
  8
ZISSEN1
  6
BYBLOCK
100
AcDbLine
 10
-1659.000000000002
 20
1579.5
 30
0.0
 11
-1625.0
 21
1579.5
 31
0.0
  0
LINE
  5
160FE
330
1A
100
AcDbEntity
  8
ZISSEN1
  6
BYBLOCK
100
AcDbLine
 10
-1657.550000000003
 20
1583.299999999999
 30
0.0
 11
-1657.550000000003
 21
1582.499999999999
 31
0.0
  0
LINE
  5
160FF
330
1A
100
AcDbEntity
  8
ZISSEN1
  6
BYBLOCK
100
AcDbLine
 10
-1652.95
 20
1583.299999999999
 30
0.0
 11
-1652.949999941332
 21
1582.500000073334
 31
0.0
  0
LINE
  5
16116
330
1A
100
AcDbEntity
  8
CL1
100
AcDbLine
 10
-1377.1
 20
1499.5
 30
0.0
 11
-1377.1
 21
1504.0
 31
0.0
  0
LINE
  5
16117
330
1A
100
AcDbEntity
  8
CL1
100
AcDbLine
 10
-1647.900000000002
 20
1499.5
 30
0.0
 11
-1647.900000000002
 21
1504.0
 31
0.0
  0
LINE
  5
1613D
330
1A
100
AcDbEntity
  8
ZISSEN1
100
AcDbLine
 10
-1369.000000000001
 20
1582.499999999999
 30
0.0
 11
-1369.000000000001
 21
1583.3
 31
0.0
  0
LINE
  5
1613E
330
1A
100
AcDbEntity
  8
ZISSEN1
100
AcDbLine
 10
-1381.500000000001
 20
1583.3
 30
0.0
 11
-1381.500000000001
 21
1582.499999999999
 31
0.0
  0
LINE
  5
1613F
330
1A
100
AcDbEntity
  8
ZISSEN1
100
AcDbLine
 10
-1380.5
 20
1583.3
 30
0.0
 11
-1380.500000000002
 21
1582.499999999999
 31
0.0
  0
LINE
  5
16140
330
1A
100
AcDbEntity
  8
ZISSEN1
  6
BYBLOCK
100
AcDbLine
 10
-1399.200000000001
 20
1513.0
 30
0.0
 11
-1399.200000000001
 21
1506.0
 31
0.0
  0
LINE
  5
16141
330
1A
100
AcDbEntity
  8
ZISSEN1
100
AcDbLine
 10
-1399.200000000001
 20
1582.499999999999
 30
0.0
 11
-1399.200000000001
 21
1579.5
 31
0.0
  0
LINE
  5
16142
330
1A
100
AcDbEntity
  8
ZISSEN1
  6
BYBLOCK
100
AcDbLine
 10
-1471.098563027126
 20
1668.999999999999
 30
0.0
 11
-1464.598563027126
 21
1668.999999999999
 31
0.0
  0
LINE
  5
16143
330
1A
100
AcDbEntity
  8
ZISSEN1
  6
BYBLOCK
100
AcDbLine
 10
-1471.098563027125
 20
1667.399999999999
 30
0.0
 11
-1464.598563027126
 21
1667.399999999999
 31
0.0
  0
LINE
  5
16144
330
1A
100
AcDbEntity
  8
ZISSEN1
  6
BYBLOCK
100
AcDbLine
 10
-1546.098563027126
 20
1668.999999999999
 30
0.0
 11
-1539.579999999997
 21
1668.999999999999
 31
0.0
  0
LINE
  5
16145
330
1A
100
AcDbEntity
  8
ZISSEN1
  6
BYBLOCK
100
AcDbLine
 10
-1546.098563027126
 20
1667.399999999999
 30
0.0
 11
-1539.579999999997
 21
1667.399999999999
 31
0.0
  0
LINE
  5
16146
330
1A
100
AcDbEntity
  8
ZISSEN1
  6
BYBLOCK
100
AcDbLine
 10
-1515.499999999996
 20
1668.999999999999
 30
0.0
 11
-1515.499999999997
 21
1667.399999999999
 31
0.0
  0
LINE
  5
16147
330
1A
100
AcDbEntity
  8
ZISSEN1
  6
BYBLOCK
100
AcDbLine
 10
-1525.599999999997
 20
1667.399999999999
 30
0.0
 11
-1515.499999999997
 21
1667.399999999999
 31
0.0
  0
LINE
  5
16148
330
1A
100
AcDbEntity
  8
ZISSEN1
  6
BYBLOCK
100
AcDbLine
 10
-1571.913285618151
 20
1647.946078443991
 30
0.0
 11
-1571.413285618151
 21
1648.812103847776
 31
0.0
  0
CIRCLE
  5
16149
330
1A
100
AcDbEntity
  8
ZISSEN1
  6
BYBLOCK
100
AcDbCircle
 10
-1575.993412637072
 20
1650.879091145885
 30
0.0
 40
2.5
  0
LINE
  5
1614A
330
1A
100
AcDbEntity
  8
ZISSEN1
  6
BYBLOCK
100
AcDbLine
 10
-1571.913285618151
 20
1647.946078443991
 30
0.0
 11
-1574.122092293513
 21
1649.221333572602
 31
0.0
  0
LINE
  5
1614B
330
1A
100
AcDbEntity
  8
ZISSEN1
  6
BYBLOCK
100
AcDbLine
 10
-1571.413285618151
 20
1648.812103847778
 30
0.0
 11
-1573.622092293513
 21
1650.087358976385
 31
0.0
  0
LINE
  5
1614C
330
1A
100
AcDbEntity
  8
ZISSEN1
  6
BYBLOCK
100
AcDbLine
 10
-1571.413285618151
 20
1648.812103847778
 30
0.0
 11
-1569.204478942789
 21
1647.536848719169
 31
0.0
  0
LINE
  5
1614D
330
1A
100
AcDbEntity
  8
ZISSEN1
  6
BYBLOCK
100
AcDbLine
 10
-1571.913285618151
 20
1647.946078443991
 30
0.0
 11
-1569.70447894279
 21
1646.670823315384
 31
0.0
  0
LINE
  5
1614E
330
1A
100
AcDbEntity
  8
ZISSEN1
  6
BYBLOCK
100
AcDbLine
 10
-1577.524501550318
 20
1655.227167357238
 30
0.0
 11
-1580.524501550318
 21
1650.031014934532
 31
0.0
  0
LINE
  5
1614F
330
1A
100
AcDbEntity
  8
ZISSEN1
  6
BYBLOCK
100
AcDbLine
 10
-1580.524501550318
 20
1650.031014934532
 30
0.0
 11
-1565.802069685983
 21
1641.531014934531
 31
0.0
  0
LINE
  5
16150
330
1A
100
AcDbEntity
  8
ZISSEN1
  6
BYBLOCK
100
AcDbLine
 10
-1565.802069685983
 20
1641.531014934531
 30
0.0
 11
-1562.802069685982
 21
1646.727167357238
 31
0.0
  0
CIRCLE
  5
16151
330
1A
100
AcDbEntity
  8
ZISSEN1
  6
BYBLOCK
100
AcDbCircle
 10
-1567.333158599228
 20
1645.879091145885
 30
0.0
 40
2.5
  0
LINE
  5
16152
330
1A
100
AcDbEntity
  8
ZISSEN1
  6
BYBLOCK
100
AcDbLine
 10
-1562.802069685982
 20
1646.727167357238
 30
0.0
 11
-1577.524501550318
 21
1655.227167357238
 31
0.0
  0
CIRCLE
  5
16153
330
1A
100
AcDbEntity
  8
ZISSEN1
  6
BYBLOCK
100
AcDbCircle
 10
-1642.789596796496
 20
1583.799999999999
 30
0.0
 40
0.5
  0
CIRCLE
  5
16154
330
1A
100
AcDbEntity
  8
ZISSEN1
  6
BYBLOCK
100
AcDbCircle
 10
-1626.787374477986
 20
1583.799999999999
 30
0.0
 40
0.5
  0
LINE
  5
16155
330
1A
100
AcDbEntity
  8
ZISSEN1
  6
BYBLOCK
100
AcDbLine
 10
-1631.788485637124
 20
1584.799999999999
 30
0.0
 11
-1627.277669005185
 21
1583.898037118472
 31
0.0
  0
LINE
  5
16156
330
1A
100
AcDbEntity
  8
ZISSEN1
  6
BYBLOCK
100
AcDbLine
 10
-1631.788485637124
 20
1585.299999999999
 30
0.0
 11
-1626.787374477986
 21
1584.299999999999
 31
0.0
  0
LINE
  5
16157
330
1A
100
AcDbEntity
  8
ZISSEN1
  6
BYBLOCK
100
AcDbLine
 10
-1637.788485637123
 20
1583.299999999999
 30
0.0
 11
-1637.788485637123
 21
1585.300000000003
 31
0.0
  0
LINE
  5
16158
330
1A
100
AcDbEntity
  8
ZISSEN1
  6
BYBLOCK
100
AcDbLine
 10
-1631.788485637124
 20
1585.299999999999
 30
0.0
 11
-1631.788485637124
 21
1583.299999999999
 31
0.0
  0
LINE
  5
16159
330
1A
100
AcDbEntity
  8
ZISSEN1
  6
BYBLOCK
100
AcDbLine
 10
-1637.788485637358
 20
1584.799999999999
 30
0.0
 11
-1642.299302269296
 21
1583.898037118472
 31
0.0
  0
LINE
  5
1615A
330
1A
100
AcDbEntity
  8
ZISSEN1
  6
BYBLOCK
100
AcDbLine
 10
-1637.788485637358
 20
1585.299999999999
 30
0.0
 11
-1642.789596796496
 21
1584.299999999999
 31
0.0
  0
LINE
  5
1615C
330
1A
100
AcDbEntity
  8
ZISSEN1
  6
BYBLOCK
100
AcDbLine
 10
-1637.788485637123
 20
1585.300000000003
 30
0.0
 11
-1634.78848563724
 21
1585.299999999999
 31
0.0
  0
LINE
  5
1615D
330
1A
100
AcDbEntity
  8
ZISSEN1
  6
BYBLOCK
100
AcDbLine
 10
-1634.788485637123
 20
1585.299999999999
 30
0.0
 11
-1631.788485637124
 21
1585.299999999999
 31
0.0
  0
ARC
  5
1615F
330
1A
100
AcDbEntity
  8
ZISSEN1
  6
BYBLOCK
100
AcDbCircle
 10
-1624.785692895824
 20
1598.860702685074
 30
0.0
 40
9.000000000005877
100
AcDbArc
 50
163.1909232502065
 51
221.232277799897
  0
ARC
  5
16160
330
1A
100
AcDbEntity
  8
ZISSEN1
  6
BYBLOCK
100
AcDbCircle
 10
-1624.785692895827
 20
1598.860702685073
 30
0.0
 40
10.00000000000281
100
AcDbArc
 50
153.4593871071675
 51
221.3856283829196
  0
ARC
  5
16161
330
1A
100
AcDbEntity
  8
ZISSEN1
  6
BYBLOCK
100
AcDbCircle
 10
-1634.788485637105
 20
1589.79999999987
 30
0.0
 40
3.499999999866912
100
AcDbArc
 50
269.9999999988014
 51
44.4147589308656
  0
ARC
  5
16162
330
1A
100
AcDbEntity
  8
ZISSEN1
  6
BYBLOCK
100
AcDbCircle
 10
-1634.788485637236
 20
1589.799999999898
 30
0.0
 40
4.499999999899344
100
AcDbArc
 50
135.9518195711145
 51
270.0000000007295
  0
ARC
  5
16163
330
1A
100
AcDbEntity
  8
ZISSEN1
  6
BYBLOCK
100
AcDbCircle
 10
-1634.788485637255
 20
1589.79999999987
 30
0.0
 40
3.499999999866912
100
AcDbArc
 50
135.5852410691343
 51
270.0000000011985
  0
ARC
  5
16164
330
1A
100
AcDbEntity
  8
ZISSEN1
  6
BYBLOCK
100
AcDbCircle
 10
-1644.791278378533
 20
1598.860702685073
 30
0.0
 40
10.00000000000281
100
AcDbArc
 50
318.6143716170803
 51
26.54061289283247
  0
ARC
  5
16165
330
1A
100
AcDbEntity
  8
ZISSEN1
  6
BYBLOCK
100
AcDbCircle
 10
-1644.791278378535
 20
1598.860702685074
 30
0.0
 40
9.000000000005877
100
AcDbArc
 50
318.7677222001029
 51
16.80907674979346
  0
CIRCLE
  5
16166
330
1A
100
AcDbEntity
  8
ZISSEN1
  6
BYBLOCK
100
AcDbCircle
 10
-1631.28848563718
 20
1602.800000000002
 30
0.0
 40
2.5
  0
CIRCLE
  5
16167
330
1A
100
AcDbEntity
  8
ZISSEN1
  6
BYBLOCK
100
AcDbCircle
 10
-1638.28848563718
 20
1602.800000000002
 30
0.0
 40
2.5
  0
LINE
  5
16168
330
1A
100
AcDbEntity
  8
ZISSEN1
  6
BYBLOCK
100
AcDbLine
 10
-1633.788485637124
 20
1581.519999999999
 30
0.0
 11
-1633.788485637124
 21
1579.5
 31
0.0
  0
LINE
  5
16169
330
1A
100
AcDbEntity
  8
ZISSEN1
100
AcDbLine
 10
-1635.788485637124
 20
1581.519999999999
 30
0.0
 11
-1635.788485637124
 21
1579.5
 31
0.0
  0
LINE
  5
1616A
330
1A
100
AcDbEntity
  8
SOUZOUSEN
  6
PHANTOMX2
100
AcDbLine
 10
-1637.788485637123
 20
1581.299999999999
 30
0.0
 11
-1636.788485637123
 21
1581.299999999999
 31
0.0
  0
LINE
  5
1616B
330
1A
100
AcDbEntity
  8
ZISSEN1
  6
BYBLOCK
100
AcDbLine
 10
-1637.788485637123
 20
1581.299999999999
 30
0.0
 11
-1637.428485637124
 21
1579.499999999999
 31
0.0
  0
LINE
  5
1616C
330
1A
100
AcDbEntity
  8
ZISSEN1
  6
BYBLOCK
100
AcDbLine
 10
-1636.188485637124
 20
1579.5
 30
0.0
 11
-1636.788485637123
 21
1581.299999999999
 31
0.0
  0
LINE
  5
1616E
330
1A
100
AcDbEntity
  8
ZISSEN1
  6
BYBLOCK
100
AcDbLine
 10
-1633.388485637123
 20
1579.5
 30
0.0
 11
-1632.788485637123
 21
1581.299999999999
 31
0.0
  0
LINE
  5
1616F
330
1A
100
AcDbEntity
  8
ZISSEN1
  6
BYBLOCK
100
AcDbLine
 10
-1631.788485637124
 20
1581.299999999999
 30
0.0
 11
-1632.788485637123
 21
1581.299999999999
 31
0.0
  0
LINE
  5
16170
330
1A
100
AcDbEntity
  8
ZISSEN1
  6
BYBLOCK
100
AcDbLine
 10
-1631.788485637124
 20
1581.299999999999
 30
0.0
 11
-1632.148485637124
 21
1579.5
 31
0.0
  0
ARC
  5
16172
330
1A
100
AcDbEntity
  8
ZISSEN1
  6
BYBLOCK
100
AcDbCircle
 10
-1634.788485637123
 20
1589.799999999898
 30
0.0
 40
4.499999999899344
100
AcDbArc
 50
269.9999999992704
 51
44.04818042888543
  0
LINE
  5
16173
330
1A
100
AcDbEntity
  8
ZISSEN1
  6
BYBLOCK
100
AcDbLine
 10
-1395.200000000001
 20
1582.499999999999
 30
0.0
 11
-1395.200000000001
 21
1579.5
 31
0.0
  0
LINE
  5
16174
330
1A
100
AcDbEntity
  8
ZISSEN1
  6
BYBLOCK
100
AcDbLine
 10
-1364.0
 20
1517.384999999999
 30
0.0
 11
-1364.999999999999
 21
1517.384999999999
 31
0.0
  0
LINE
  5
16175
330
1A
100
AcDbEntity
  8
ZISSEN1
  6
BYBLOCK
100
AcDbLine
 10
-1364.0
 20
1514.499999999999
 30
0.0
 11
-1364.999999999999
 21
1514.499999999999
 31
0.0
  0
LINE
  5
16176
330
1A
100
AcDbEntity
  8
ZISSEN1
  6
BYBLOCK
100
AcDbLine
 10
-1364.0
 20
1511.614999999999
 30
0.0
 11
-1364.999999999999
 21
1511.614999999999
 31
0.0
  0
LINE
  5
16177
330
1A
100
AcDbEntity
  8
ZISSEN1
  6
BYBLOCK
100
AcDbLine
 10
-1364.999999999996
 20
1576.614999999998
 30
0.0
 11
-1364.1
 21
1576.614999999998
 31
0.0
  0
LINE
  5
16178
330
1A
100
AcDbEntity
  8
ZISSEN1
  6
BYBLOCK
100
AcDbLine
 10
-1369.000000000001
 20
1582.499999999999
 30
0.0
 11
-1369.000000000001
 21
1579.5
 31
0.0
  0
LINE
  5
16179
330
1A
100
AcDbEntity
  8
ZISSEN1
  6
BYBLOCK
100
AcDbLine
 10
-1370.600000000001
 20
1581.519999999998
 30
0.0
 11
-1370.600000000001
 21
1582.499999999999
 31
0.0
  0
LINE
  5
1617A
330
1A
100
AcDbEntity
  8
ZISSEN1
  6
BYBLOCK
100
AcDbLine
 10
-1393.600000000001
 20
1581.519999999998
 30
0.0
 11
-1379.524898126238
 21
1581.519999999997
 31
0.0
  0
LINE
  5
1617F
330
1A
100
AcDbEntity
  8
ZISSEN1
  6
BYBLOCK
100
AcDbLine
 10
-1370.600000000002
 20
1512.479999999999
 30
0.0
 11
-1385.11
 21
1512.479999999999
 31
0.0
  0
LINE
  5
16180
330
1A
100
AcDbEntity
  8
ZISSEN1
100
AcDbLine
 10
-1366.0
 20
1579.499999999998
 30
0.0
 11
-1400.000000000001
 21
1579.5
 31
0.0
  0
LINE
  5
16181
330
1A
100
AcDbEntity
  8
ZISSEN1
100
AcDbLine
 10
-1440.199999999999
 20
1507.0
 30
0.0
 11
-1441.199999999999
 21
1506.0
 31
0.0
  0
LINE
  5
1618A
330
1A
100
AcDbEntity
  8
ZISSEN1
  6
BYBLOCK
100
AcDbLine
 10
-1355.100000000001
 20
1507.497140435357
 30
0.0
 11
-1355.100000000001
 21
1513.797140435357
 31
0.0
  0
LINE
  5
1618B
330
1A
100
AcDbEntity
  8
ZISSEN1
100
AcDbLine
 10
-1439.199999999998
 20
1513.0
 30
0.0
 11
-1440.199999999998
 21
1513.0
 31
0.0
  0
LINE
  5
1618C
330
1A
100
AcDbEntity
  8
ZISSEN1
  6
BYBLOCK
100
AcDbLine
 10
-1439.699999999999
 20
1507.5
 30
0.0
 11
-1439.699999999999
 21
1507.5
 31
0.0
  0
LINE
  5
1618E
330
1A
100
AcDbEntity
  8
ZISSEN1
100
AcDbLine
 10
-1439.199999999998
 20
1503.0
 30
0.0
 11
-1439.199999999998
 21
1579.499999999999
 31
0.0
  0
LINE
  5
1618F
330
1A
100
AcDbEntity
  8
ZISSEN1
  6
BYBLOCK
100
AcDbLine
 10
-1361.4
 20
1583.3
 30
0.0
 11
-1361.4
 21
1586.699999999998
 31
0.0
  0
LINE
  5
16190
330
1A
100
AcDbEntity
  8
ZISSEN1
  6
BYBLOCK
100
AcDbLine
 10
-1370.6
 20
1580.649999999999
 30
0.0
 11
-1370.600000000001
 21
1586.699999999998
 31
0.0
  0
LINE
  5
16191
330
1A
100
AcDbEntity
  8
ZISSEN1
  6
BYBLOCK
100
AcDbLine
 10
-1393.600000000001
 20
1587.499999999997
 30
0.0
 11
-1393.600000000001
 21
1583.299999999999
 31
0.0
  0
LINE
  5
16192
330
1A
100
AcDbEntity
  8
ZISSEN1
  6
BYBLOCK
100
AcDbLine
 10
-1395.200000000001
 20
1583.299999999999
 30
0.0
 11
-1395.2
 21
1587.499999999997
 31
0.0
  0
LINE
  5
16193
330
1A
100
AcDbEntity
  8
ZISSEN1
  6
BYBLOCK
100
AcDbLine
 10
-1370.600000000001
 20
1583.999999999999
 30
0.0
 11
-1370.6
 21
1582.499999999999
 31
0.0
  0
LINE
  5
16194
330
1A
100
AcDbEntity
  8
ZISSEN1
100
AcDbLine
 10
-1364.999999999999
 20
1578.5
 30
0.0
 11
-1365.999999999999
 21
1579.5
 31
0.0
  0
LINE
  5
16195
330
1A
100
AcDbEntity
  8
ZISSEN1
100
AcDbLine
 10
-1364.999999999996
 20
1578.499999999997
 30
0.0
 11
-1364.999999999999
 21
1503.0
 31
0.0
  0
LINE
  5
16196
330
1A
100
AcDbEntity
  8
ZISSEN1
100
AcDbLine
 10
-1370.499999999999
 20
1513.0
 30
0.0
 11
-1400.000000000001
 21
1513.0
 31
0.0
  0
ARC
  5
16197
330
1A
100
AcDbEntity
  8
ZISSEN1
100
AcDbCircle
 10
-1544.354505097283
 20
1585.999999999999
 30
0.0
 40
1.0
100
AcDbArc
 50
180.0
 51
270.0
  0
LINE
  5
16198
330
1A
100
AcDbEntity
  8
ZISSEN1
100
AcDbLine
 10
-1544.354505097283
 20
1584.999999999999
 30
0.0
 11
-1544.354505097283
 21
1583.299999999999
 31
0.0
  0
LINE
  5
16406
330
1A
100
AcDbEntity
  8
ZISSEN1
100
AcDbLine
 10
-1549.845691931587
 20
1648.349999999999
 30
0.0
 11
-1550.345691931587
 21
1648.349999999999
 31
0.0
  0
LINE
  5
16407
330
1A
100
AcDbEntity
  8
ZISSEN1
100
AcDbLine
 10
-1557.545691931586
 20
1648.349999999999
 30
0.0
 11
-1557.045691931586
 21
1648.349999999999
 31
0.0
  0
LINE
  5
16408
330
1A
100
AcDbEntity
  8
ZISSEN1
100
AcDbLine
 10
-1557.545691931586
 20
1648.349999999999
 30
0.0
 11
-1549.845691931587
 21
1648.349999999999
 31
0.0
  0
LINE
  5
16409
330
1A
100
AcDbEntity
  8
ZISSEN1
100
AcDbLine
 10
-1549.845691931587
 20
1644.899999999999
 30
0.0
 11
-1548.745691931587
 21
1644.899999999999
 31
0.0
  0
LINE
  5
1640A
330
1A
100
AcDbEntity
  8
ZISSEN1
100
AcDbLine
 10
-1548.745691931587
 20
1644.899999999999
 30
0.0
 11
-1548.745691931587
 21
1644.399999999999
 31
0.0
  0
LINE
  5
1641C
330
1A
100
AcDbEntity
  8
ZISSEN1
100
AcDbLine
 10
-1558.645691931586
 20
1644.899999999999
 30
0.0
 11
-1558.645691931586
 21
1644.399999999999
 31
0.0
  0
LINE
  5
1641D
330
1A
100
AcDbEntity
  8
ZISSEN1
100
AcDbLine
 10
-1557.545691931586
 20
1644.899999999999
 30
0.0
 11
-1558.645691931586
 21
1644.899999999999
 31
0.0
  0
LINE
  5
16447
330
1A
100
AcDbEntity
  8
ZISSEN1
100
AcDbLine
 10
-1549.845691931587
 20
1648.349999999999
 30
0.0
 11
-1549.845691931587
 21
1644.899999999999
 31
0.0
  0
LINE
  5
16448
330
1A
100
AcDbEntity
  8
ZISSEN1
100
AcDbLine
 10
-1557.545691931586
 20
1648.349999999999
 30
0.0
 11
-1557.545691931586
 21
1644.899999999999
 31
0.0
  0
LINE
  5
16449
330
1A
100
AcDbEntity
  8
ZISSEN1
  6
BYBLOCK
100
AcDbLine
 10
-1547.195691931588
 20
1644.399999999999
 30
0.0
 11
-1560.195691931586
 21
1644.399999999998
 31
0.0
  0
LINE
  5
1644A
330
1A
100
AcDbEntity
  8
ZISSEN1
  6
BYBLOCK
100
AcDbLine
 10
-1547.195691931588
 20
1642.799999999999
 30
0.0
 11
-1560.195691931586
 21
1642.799999999998
 31
0.0
  0
LINE
  5
1644B
330
1A
100
AcDbEntity
  8
ZISSEN1
  6
BYBLOCK
100
AcDbLine
 10
-1431.999999999997
 20
1677.899999999999
 30
0.0
 11
-1439.999999999997
 21
1677.899999999999
 31
0.0
  0
LINE
  5
1644C
330
1A
100
AcDbEntity
  8
ZISSEN1
  6
BYBLOCK
100
AcDbLine
 10
-1429.999999999997
 20
1675.899999999999
 30
0.0
 11
-1431.999999999997
 21
1677.899999999999
 31
0.0
  0
LINE
  5
1644D
330
1A
100
AcDbEntity
  8
ZISSEN1
  6
BYBLOCK
100
AcDbLine
 10
-1429.999999999997
 20
1663.149999999999
 30
0.0
 11
-1429.999999999997
 21
1675.899999999999
 31
0.0
  0
LINE
  5
16458
330
1A
100
AcDbEntity
  8
SOUZOUSEN
  6
PHANTOMX2
100
AcDbLine
 10
-1636.65
 20
1592.9
 30
0.0
 11
-1636.65
 21
1596.439625614712
 31
0.0
  0
LINE
  5
16459
330
1A
100
AcDbEntity
  8
ZISSEN1
  6
PHANTOMX2
100
AcDbLine
 10
-1636.65
 20
1602.9
 30
0.0
 11
-1630.15
 21
1602.9
 31
0.0
  0
LINE
  5
1645A
330
1A
100
AcDbEntity
  8
SOUZOUSEN
  6
PHANTOMX2
100
AcDbLine
 10
-1630.9
 20
1583.299999999999
 30
0.0
 11
-1630.9
 21
1593.986503765257
 31
0.0
  0
LINE
  5
1645B
330
1A
100
AcDbEntity
  8
SOUZOUSEN
  6
PHANTOMX2
100
AcDbLine
 10
-1635.9
 20
1583.299999999999
 30
0.0
 11
-1635.9
 21
1593.986503765257
 31
0.0
  0
LINE
  5
1645C
330
1A
100
AcDbEntity
  8
SOUZOUSEN
  6
PHANTOMX2
100
AcDbLine
 10
-1630.15
 20
1602.9
 30
0.0
 11
-1630.15
 21
1600.9
 31
0.0
  0
LINE
  5
1645D
330
1A
100
AcDbEntity
  8
SOUZOUSEN
  6
PHANTOMX2
100
AcDbLine
 10
-1630.899999999999
 20
1589.9
 30
0.0
 11
-1630.15
 21
1592.9
 31
0.0
  0
LINE
  5
1645E
330
1A
100
AcDbEntity
  8
SOUZOUSEN
  6
PHANTOMX2
100
AcDbLine
 10
-1635.900000000001
 20
1589.9
 30
0.0
 11
-1636.65
 21
1592.9
 31
0.0
  0
LINE
  5
1645F
330
1A
100
AcDbEntity
  8
SOUZOUSEN
  6
PHANTOMX2
100
AcDbLine
 10
-1635.9
 20
1593.986503765257
 30
0.0
 11
-1630.899999999999
 21
1593.986503765257
 31
0.0
  0
LINE
  5
16460
330
1A
100
AcDbEntity
  8
SOUZOUSEN
  6
PHANTOMX2
100
AcDbLine
 10
-1636.65
 20
1602.9
 30
0.0
 11
-1636.65
 21
1600.9
 31
0.0
  0
LINE
  5
16461
330
1A
100
AcDbEntity
  8
SOUZOUSEN
  6
PHANTOMX2
100
AcDbLine
 10
-1636.65
 20
1600.9
 30
0.0
 11
-1634.9
 21
1600.9
 31
0.0
  0
LINE
  5
16462
330
1A
100
AcDbEntity
  8
SOUZOUSEN
  6
PHANTOMX2
100
AcDbLine
 10
-1634.9
 20
1600.9
 30
0.0
 11
-1634.9
 21
1600.3
 31
0.0
  0
LINE
  5
16463
330
1A
100
AcDbEntity
  8
SOUZOUSEN
  6
PHANTOMX2
100
AcDbLine
 10
-1634.9
 20
1600.3
 30
0.0
 11
-1636.65
 21
1600.3
 31
0.0
  0
LINE
  5
16464
330
1A
100
AcDbEntity
  8
ZISSEN1
  6
PHANTOMX2
100
AcDbLine
 10
-1631.9
 20
1600.3
 30
0.0
 11
-1630.15
 21
1600.3
 31
0.0
  0
LINE
  5
16465
330
1A
100
AcDbEntity
  8
SOUZOUSEN
  6
PHANTOMX2
100
AcDbLine
 10
-1631.9
 20
1600.9
 30
0.0
 11
-1631.9
 21
1600.3
 31
0.0
  0
LINE
  5
16466
330
1A
100
AcDbEntity
  8
SOUZOUSEN
  6
PHANTOMX2
100
AcDbLine
 10
-1630.15
 20
1600.9
 30
0.0
 11
-1631.9
 21
1600.9
 31
0.0
  0
LINE
  5
16467
330
1A
100
AcDbEntity
  8
SOUZOUSEN
  6
PHANTOMX2
100
AcDbLine
 10
-1630.15
 20
1596.439625614712
 30
0.0
 11
-1630.15
 21
1592.9
 31
0.0
  0
LINE
  5
16468
330
1A
100
AcDbEntity
  8
SOUZOUSEN
  6
PHANTOMX2
100
AcDbLine
 10
-1636.65
 20
1600.3
 30
0.0
 11
-1636.65
 21
1597.039625614712
 31
0.0
  0
LINE
  5
16469
330
1A
100
AcDbEntity
  8
SOUZOUSEN
  6
PHANTOMX2
100
AcDbLine
 10
-1630.15
 20
1597.039625614712
 30
0.0
 11
-1631.9
 21
1597.039625614712
 31
0.0
  0
LINE
  5
1646A
330
1A
100
AcDbEntity
  8
ZISSEN1
  6
PHANTOMX2
100
AcDbLine
 10
-1631.9
 20
1597.039625614712
 30
0.0
 11
-1631.9
 21
1596.439625614712
 31
0.0
  0
LINE
  5
1646B
330
1A
100
AcDbEntity
  8
SOUZOUSEN
  6
PHANTOMX2
100
AcDbLine
 10
-1631.9
 20
1596.439625614712
 30
0.0
 11
-1630.15
 21
1596.439625614712
 31
0.0
  0
LINE
  5
1646C
330
1A
100
AcDbEntity
  8
SOUZOUSEN
  6
PHANTOMX2
100
AcDbLine
 10
-1634.9
 20
1596.439625614712
 30
0.0
 11
-1636.65
 21
1596.439625614712
 31
0.0
  0
LINE
  5
1646D
330
1A
100
AcDbEntity
  8
ZISSEN1
  6
PHANTOMX2
100
AcDbLine
 10
-1634.9
 20
1597.039625614712
 30
0.0
 11
-1634.9
 21
1596.439625614712
 31
0.0
  0
LINE
  5
1646E
330
1A
100
AcDbEntity
  8
SOUZOUSEN
  6
PHANTOMX2
100
AcDbLine
 10
-1636.65
 20
1597.039625614712
 30
0.0
 11
-1634.9
 21
1597.039625614712
 31
0.0
  0
LINE
  5
1646F
330
1A
100
AcDbEntity
  8
SOUZOUSEN
  6
PHANTOMX2
100
AcDbLine
 10
-1630.15
 20
1600.3
 30
0.0
 11
-1630.15
 21
1597.006082777387
 31
0.0
  0
LINE
  5
16470
330
1A
100
AcDbEntity
  8
SOUZOUSEN
  6
PHANTOMX2
100
AcDbLine
 10
-1633.4
 20
1598.969812807356
 30
0.0
 11
-1636.4
 21
1598.969812807356
 31
0.0
  0
LINE
  5
16471
330
1A
100
AcDbEntity
  8
SOUZOUSEN
  6
PHANTOMX2
100
AcDbLine
 10
-1636.4
 20
1598.969812807356
 30
0.0
 11
-1636.4
 21
1598.369812807356
 31
0.0
  0
LINE
  5
16472
330
1A
100
AcDbEntity
  8
SOUZOUSEN
  6
PHANTOMX2
100
AcDbLine
 10
-1636.4
 20
1598.369812807356
 30
0.0
 11
-1630.4
 21
1598.369812807356
 31
0.0
  0
LINE
  5
16473
330
1A
100
AcDbEntity
  8
SOUZOUSEN
  6
PHANTOMX2
100
AcDbLine
 10
-1630.4
 20
1598.369812807356
 30
0.0
 11
-1630.4
 21
1598.969812807356
 31
0.0
  0
LINE
  5
16474
330
1A
100
AcDbEntity
  8
SOUZOUSEN
  6
PHANTOMX2
100
AcDbLine
 10
-1630.4
 20
1598.969812807356
 30
0.0
 11
-1633.4
 21
1598.969812807356
 31
0.0
  0
LINE
  5
16475
330
1A
100
AcDbEntity
  8
SOUZOUSEN
  6
PHANTOMX2
100
AcDbLine
 10
-1633.4
 20
1602.9
 30
0.0
 11
-1631.45
 21
1602.9
 31
0.0
  0
LINE
  5
16476
330
1A
100
AcDbEntity
  8
SOUZOUSEN
  6
PHANTOMX2
100
AcDbLine
 10
-1631.45
 20
1602.9
 30
0.0
 11
-1631.450000000001
 21
1612.299999999998
 31
0.0
  0
LINE
  5
16477
330
1A
100
AcDbEntity
  8
SOUZOUSEN
  6
PHANTOMX2
100
AcDbLine
 10
-1633.4
 20
1602.9
 30
0.0
 11
-1635.35
 21
1602.9
 31
0.0
  0
LINE
  5
16478
330
1A
100
AcDbEntity
  8
SOUZOUSEN
  6
PHANTOMX2
100
AcDbLine
 10
-1635.35
 20
1602.900000000001
 30
0.0
 11
-1635.35
 21
1608.4
 31
0.0
  0
LINE
  5
16479
330
1A
100
AcDbEntity
  8
SOUZOUSEN
  6
PHANTOMX2
100
AcDbLine
 10
-1636.350000000002
 20
1609.4
 30
0.0
 11
-1642.593174504942
 21
1609.4
 31
0.0
  0
LINE
  5
1647A
330
1A
100
AcDbEntity
  8
SOUZOUSEN
  6
PHANTOMX2
100
AcDbLine
 10
-1642.454192808496
 20
1613.3
 30
0.0
 11
-1632.450000000001
 21
1613.3
 31
0.0
  0
ARC
  5
1647B
330
1A
100
AcDbEntity
  8
SOUZOUSEN
  6
PHANTOMX2
100
AcDbCircle
 10
-1636.350000000002
 20
1608.4
 30
0.0
 40
1.000000000001818
100
AcDbArc
 50
0.0
 51
89.99999999989578
  0
ARC
  5
1647C
330
1A
100
AcDbEntity
  8
SOUZOUSEN
  6
PHANTOMX2
100
AcDbCircle
 10
-1632.450000000003
 20
1612.299999999998
 30
0.0
 40
1.000000000001818
100
AcDbArc
 50
0.0
 51
89.99999999989578
  0
LINE
  5
1647D
330
1A
100
AcDbEntity
  8
ZISSEN1
  6
BYBLOCK
100
AcDbLine
 10
-1663.900000000002
 20
1507.499999999999
 30
0.0
 11
-1666.900000000002
 21
1507.499999999999
 31
0.0
  0
LINE
  5
16480
330
1A
100
AcDbEntity
  8
ZISSEN1
  6
BYBLOCK
100
AcDbLine
 10
-1358.1
 20
1507.5
 30
0.0
 11
-1361.1
 21
1507.5
 31
0.0
  0
LINE
  5
16481
330
1A
100
AcDbEntity
  8
ZISSEN1
100
AcDbLine
 10
-1439.999999999999
 20
1580.500000965372
 30
0.0
 11
-1439.999999999999
 21
1579.499999999999
 31
0.0
  0
LINE
  5
16482
330
1A
100
AcDbEntity
  8
ZISSEN1
100
AcDbLine
 10
-1432.0
 20
1500.0
 30
0.0
 11
-1432.0
 21
1503.0
 31
0.0
  0
LINE
  5
16483
330
1A
100
AcDbEntity
  8
ZISSEN1
100
AcDbLine
 10
-1432.0
 20
1500.0
 30
0.0
 11
-1432.0
 21
1503.0
 31
0.0
  0
LINE
  5
1648D
330
1A
100
AcDbEntity
  8
ZISSEN1
100
AcDbLine
 10
-1540.899999999997
 20
1644.399999999999
 30
0.0
 11
-1540.899999999997
 21
1642.799999999999
 31
0.0
  0
LINE
  5
164B2
330
1A
100
AcDbEntity
  8
ZISSEN1
  6
DASHEDX2
100
AcDbLine
 10
-1539.599471432767
 20
1587.499998634261
 30
0.0
 11
-1525.899471432766
 21
1587.499998634261
 31
0.0
  0
ARC
  5
164B3
330
1A
100
AcDbEntity
  8
ZISSEN1
100
AcDbCircle
 10
-1524.599471432766
 20
1587.499998634261
 30
0.0
 40
1.0
100
AcDbArc
 50
180.0
 51
270.0
  0
LINE
  5
164B4
330
1A
100
AcDbEntity
  8
ZISSEN1
  6
DASHEDX2
100
AcDbLine
 10
-1524.599471432766
 20
1586.499998634261
 30
0.0
 11
-1524.599471432766
 21
1582.49999863426
 31
0.0
  0
LINE
  5
164BB
330
1A
100
AcDbEntity
  8
ZISSEN1
100
AcDbLine
 10
-1540.899471432766
 20
1586.499998634261
 30
0.0
 11
-1540.899471432766
 21
1581.999998634261
 31
0.0
  0
LINE
  5
164BC
330
1A
100
AcDbEntity
  8
ZISSEN1
100
AcDbLine
 10
-1524.599471432766
 20
1587.499998634261
 30
0.0
 11
-1540.399471432766
 21
1587.499998634261
 31
0.0
  0
LINE
  5
164BD
330
1A
100
AcDbEntity
  8
ZISSEN1
100
AcDbLine
 10
-1522.099471432766
 20
1586.699999999999
 30
0.0
 11
-1522.099471432766
 21
1583.299999999999
 31
0.0
  0
LINE
  5
164E3
330
1A
100
AcDbEntity
  8
ZISSEN1
100
AcDbLine
 10
-1522.099471432766
 20
1586.699999999999
 30
0.0
 11
-1502.199471432766
 21
1586.699999999999
 31
0.0
  0
LINE
  5
164E5
330
1A
100
AcDbEntity
  8
ZISSEN1
100
AcDbLine
 10
-1502.199471432766
 20
1586.699999999999
 30
0.0
 11
-1502.199471432766
 21
1583.299999999999
 31
0.0
  0
LINE
  5
16515
330
1A
100
AcDbEntity
  8
ZISSEN1
100
AcDbLine
 10
-1524.599471432766
 20
1578.299999999999
 30
0.0
 11
-1524.599471432766
 21
1587.499998634261
 31
0.0
  0
LINE
  5
1652A
330
1A
100
AcDbEntity
  8
ZISSEN1
100
AcDbLine
 10
-1540.399471432766
 20
1587.499998634261
 30
0.0
 11
-1540.399471432766
 21
1586.633973230476
 31
0.0
  0
LINE
  5
1652F
330
1A
100
AcDbEntity
  8
ZISSEN1
100
AcDbLine
 10
-1572.4
 20
1507.999997784316
 30
0.0
 11
-1540.499999999999
 21
1507.999993650964
 31
0.0
  0
LINE
  5
165B4
330
1A
100
AcDbEntity
  8
ZISSEN1
100
AcDbLine
 10
-1524.599471432766
 20
1581.999998855235
 30
0.0
 11
-1524.1
 21
1581.999998744864
 31
0.0
  0
LWPOLYLINE
  5
165CF
330
1A
100
AcDbEntity
  8
ZISSEN1
100
AcDbPolyline
 90
        4
 70
     1
 43
0.0
 10
-1525.899471432766
 20
1583.691032380098
 10
-1532.499471432766
 20
1583.691032380098
 10
-1532.499471432766
 20
1578.291032380098
 10
-1525.899471432766
 20
1578.291032380098
  0
LINE
  5
165EA
330
1A
100
AcDbEntity
  8
ZISSEN1
100
AcDbLine
 10
-1465.899471432767
 20
1586.699999985531
 30
0.0
 11
-1455.999471432767
 21
1586.699999985531
 31
0.0
  0
LINE
  5
165FB
330
1A
100
AcDbEntity
  8
ZISSEN1
100
AcDbLine
 10
-1484.299471432767
 20
1586.699999999999
 30
0.0
 11
-1484.299471432767
 21
1583.299999999999
 31
0.0
  0
LINE
  5
165FC
330
1A
100
AcDbEntity
  8
ZISSEN1
100
AcDbLine
 10
-1501.699471432766
 20
1586.699999999999
 30
0.0
 11
-1501.699471432766
 21
1583.299999999999
 31
0.0
  0
LINE
  5
165FF
330
1A
100
AcDbEntity
  8
ZISSEN1
100
AcDbLine
 10
-1501.699471432766
 20
1586.699999999999
 30
0.0
 11
-1484.299471432767
 21
1586.699999999999
 31
0.0
  0
LINE
  5
1663E
330
1A
100
AcDbEntity
  8
ZISSEN1
100
AcDbLine
 10
-1483.799471432766
 20
1586.699999999999
 30
0.0
 11
-1466.399471432767
 21
1586.699999999999
 31
0.0
  0
LINE
  5
16641
330
1A
100
AcDbEntity
  8
ZISSEN1
100
AcDbLine
 10
-1483.799471432766
 20
1586.699999999999
 30
0.0
 11
-1483.799471432766
 21
1583.299999999999
 31
0.0
  0
LINE
  5
16662
330
1A
100
AcDbEntity
  8
ZISSEN1
100
AcDbLine
 10
-1541.4
 20
1581.999998763332
 30
0.0
 11
-1540.899471432766
 21
1581.999998634261
 31
0.0
  0
LINE
  5
1684F
330
1A
100
AcDbEntity
  8
ZISSEN1
100
AcDbLine
 10
-1465.200021394
 20
1586.699999999999
 30
0.0
 11
-1484.800021394
 21
1586.699999999999
 31
0.0
  0
LINE
  5
16C49
330
1A
100
AcDbEntity
  8
ZISSEN1
100
AcDbLine
 10
-1515.49998270212
 20
1586.699999999999
 30
0.0
 11
-1524.59998270212
 21
1586.699999999999
 31
0.0
  0
LINE
  5
16C88
330
1A
100
AcDbEntity
  8
ZISSEN1
100
AcDbLine
 10
-1578.5
 20
1584.999999999999
 30
0.0
 11
-1578.5
 21
1583.299999999999
 31
0.0
  0
LINE
  5
16C89
330
1A
100
AcDbEntity
  8
ZISSEN1
100
AcDbLine
 10
-1586.5
 20
1583.999999999999
 30
0.0
 11
-1588.499999999999
 21
1583.999999999999
 31
0.0
  0
ARC
  5
16C8A
330
1A
100
AcDbEntity
  8
ZISSEN1
100
AcDbCircle
 10
-1589.500000000001
 20
1583.999999999999
 30
0.0
 40
1.0
100
AcDbArc
 50
315.5729959991907
 51
0.0
  0
ARC
  5
16C8C
330
1A
100
AcDbEntity
  8
ZISSEN1
100
AcDbCircle
 10
-1578.5
 20
1585.999999999999
 30
0.0
 40
1.0
100
AcDbArc
 50
270.0
 51
0.0
  0
LINE
  5
16C8E
330
1A
100
AcDbEntity
  8
ZISSEN1
100
AcDbLine
 10
-1545.354505097283
 20
1585.999999999999
 30
0.0
 11
-1577.500000000001
 21
1585.999999999999
 31
0.0
  0
LINE
  5
16C9F
330
1A
100
AcDbEntity
  8
ZISSEN1
100
AcDbLine
 10
-1559.800021394
 20
1586.699999999999
 30
0.0
 11
-1559.800021394
 21
1585.999999999999
 31
0.0
  0
LINE
  5
16CA1
330
1A
100
AcDbEntity
  8
ZISSEN1
100
AcDbLine
 10
-1540.399471432766
 20
1586.699999999999
 30
0.0
 11
-1559.800021394
 21
1586.699999999999
 31
0.0
  0
LINE
  5
16EC5
330
1A
100
AcDbEntity
  8
ZISSEN1
100
AcDbLine
 10
-1484.299471412511
 20
1586.000000125954
 30
0.0
 11
-1483.799471412511
 21
1586.000000129415
 31
0.0
  0
LINE
  5
16F08
330
1A
100
AcDbEntity
  8
ZISSEN1
100
AcDbLine
 10
-1449.59998270212
 20
1586.699999999999
 30
0.0
 11
-1449.59998270212
 21
1583.299999999999
 31
0.0
  0
LINE
  5
16F09
330
1A
100
AcDbEntity
  8
ZISSEN1
100
AcDbLine
 10
-1440.49998270212
 20
1586.699999999999
 30
0.0
 11
-1440.49998270212
 21
1583.299999999999
 31
0.0
  0
LINE
  5
172B5
330
1A
100
AcDbEntity
  8
ZISSEN1
  6
BYBLOCK
100
AcDbLine
 10
-1656.550000000002
 20
1582.499999999999
 30
0.0
 11
-1669.400000000002
 21
1582.499999999999
 31
0.0
  0
LINE
  5
172B6
330
1A
100
AcDbEntity
  8
ZISSEN1
  6
BYBLOCK
100
AcDbLine
 10
-1656.550000000002
 20
1583.299999999999
 30
0.0
 11
-1669.400000000002
 21
1583.299999999999
 31
0.0
  0
LINE
  5
172B7
330
1A
100
AcDbEntity
  8
ZISSEN1
  6
BYBLOCK
100
AcDbLine
 10
-1653.950000000002
 20
1582.499999999999
 30
0.0
 11
-1653.950000000002
 21
1583.3
 31
0.0
  0
LINE
  5
172B8
330
1A
100
AcDbEntity
  8
ZISSEN1
  6
BYBLOCK
100
AcDbLine
 10
-1656.550000000002
 20
1583.299999999999
 30
0.0
 11
-1656.550000000002
 21
1582.499999999999
 31
0.0
  0
LINE
  5
172B9
330
1A
100
AcDbEntity
  8
ZISSEN1
  6
BYBLOCK
100
AcDbLine
 10
-1399.200000000001
 20
1507.0
 30
0.0
 11
-1400.000000000001
 21
1507.0
 31
0.0
  0
LINE
  5
172BA
330
1A
100
AcDbEntity
  8
ZISSEN1
  6
BYBLOCK
100
AcDbLine
 10
-1625.800000000002
 20
1507.0
 30
0.0
 11
-1625.000000000001
 21
1507.0
 31
0.0
  0
ARC
  5
172C1
330
1A
100
AcDbEntity
  8
ZISSEN1
100
AcDbCircle
 10
-1399.000000000003
 20
1582.3
 30
0.0
 40
0.999999999998181
100
AcDbArc
 50
89.99999999989578
 51
180.0000000000521
  0
LINE
  5
172C4
330
1A
100
AcDbEntity
  8
ZISSEN1
  6
BYBLOCK
100
AcDbLine
 10
-1489.049999999998
 20
1582.499999999999
 30
0.0
 11
-1479.049999999998
 21
1582.499999999999
 31
0.0
  0
LINE
  5
172C5
330
1A
100
AcDbEntity
  8
ZISSEN1
  6
BYBLOCK
100
AcDbLine
 10
-1506.949999999998
 20
1582.499999999999
 30
0.0
 11
-1496.949999999998
 21
1582.499999999999
 31
0.0
  0
LINE
  5
172C6
330
1A
100
AcDbEntity
  8
ZISSEN1
100
AcDbLine
 10
-1489.049999999998
 20
1579.999999999999
 30
0.0
 11
-1479.049999999998
 21
1579.999999999999
 31
0.0
  0
LINE
  5
172C7
330
1A
100
AcDbEntity
  8
ZISSEN1
100
AcDbLine
 10
-1489.049999999998
 20
1579.999999999999
 30
0.0
 11
-1489.049999999998
 21
1583.299999999999
 31
0.0
  0
LINE
  5
172C8
330
1A
100
AcDbEntity
  8
ZISSEN1
100
AcDbLine
 10
-1496.949999999998
 20
1579.999999999999
 30
0.0
 11
-1496.949999999998
 21
1583.299999999999
 31
0.0
  0
ARC
  5
172C9
330
1A
100
AcDbEntity
  8
ZISSEN1
100
AcDbCircle
 10
-1481.449999999999
 20
1581.999999999999
 30
0.0
 40
0.5
100
AcDbArc
 50
90.0
 51
180.0
  0
LINE
  5
172CA
330
1A
100
AcDbEntity
  8
ZISSEN1
100
AcDbLine
 10
-1506.949999999998
 20
1583.299999999999
 30
0.0
 11
-1506.949999999998
 21
1579.999999999999
 31
0.0
  0
LINE
  5
172CB
330
1A
100
AcDbEntity
  8
ZISSEN1
100
AcDbLine
 10
-1506.949999999998
 20
1579.999999999999
 30
0.0
 11
-1496.949999999998
 21
1579.999999999999
 31
0.0
  0
LINE
  5
172CC
330
1A
100
AcDbEntity
  8
ZISSEN1
100
AcDbLine
 10
-1479.049999999998
 20
1579.999999999999
 30
0.0
 11
-1479.049999999998
 21
1583.299999999999
 31
0.0
  0
LINE
  5
172CD
330
1A
100
AcDbEntity
  8
ZISSEN1
100
AcDbLine
 10
-1486.149999999998
 20
1580.999999999999
 30
0.0
 11
-1481.949999999999
 21
1580.999999999999
 31
0.0
  0
ARC
  5
172CE
330
1A
100
AcDbEntity
  8
ZISSEN1
100
AcDbCircle
 10
-1486.649999999997
 20
1581.999999999999
 30
0.0
 40
0.5
100
AcDbArc
 50
0.0
 51
90.0
  0
LINE
  5
172CF
330
1A
100
AcDbEntity
  8
ZISSEN1
100
AcDbLine
 10
-1486.149999999996
 20
1581.999999999999
 30
0.0
 11
-1486.149999999998
 21
1580.999999999999
 31
0.0
  0
LINE
  5
172D0
330
1A
100
AcDbEntity
  8
ZISSEN1
100
AcDbLine
 10
-1481.949999999999
 20
1581.999999999999
 30
0.0
 11
-1481.949999999999
 21
1580.999999999999
 31
0.0
  0
LINE
  5
172D1
330
1A
100
AcDbEntity
  8
ZISSEN1
100
AcDbLine
 10
-1499.849999999997
 20
1581.999999999999
 30
0.0
 11
-1499.849999999997
 21
1580.999999999999
 31
0.0
  0
LINE
  5
172D2
330
1A
100
AcDbEntity
  8
ZISSEN1
100
AcDbLine
 10
-1504.049999999998
 20
1581.999999999999
 30
0.0
 11
-1504.049999999998
 21
1580.999999999999
 31
0.0
  0
ARC
  5
172D3
330
1A
100
AcDbEntity
  8
ZISSEN1
100
AcDbCircle
 10
-1504.549999999998
 20
1581.999999999999
 30
0.0
 40
0.5
100
AcDbArc
 50
0.0
 51
90.0
  0
ARC
  5
172D4
330
1A
100
AcDbEntity
  8
ZISSEN1
100
AcDbCircle
 10
-1499.349999999997
 20
1581.999999999999
 30
0.0
 40
0.5
100
AcDbArc
 50
90.0
 51
180.0
  0
LINE
  5
172D6
330
1A
100
AcDbEntity
  8
ZISSEN1
100
AcDbLine
 10
-1504.049999999998
 20
1580.999999999999
 30
0.0
 11
-1499.849999999997
 21
1580.999999999999
 31
0.0
  0
LINE
  5
172D7
330
1A
100
AcDbEntity
  8
ZISSEN1
100
AcDbLine
 10
-1395.200000000001
 20
1586.499999999997
 30
0.0
 11
-1393.600000000001
 21
1586.499999999997
 31
0.0
  0
LINE
  5
172D8
330
1A
100
AcDbEntity
  8
ZISSEN1
100
AcDbLine
 10
-1395.200000000001
 20
1587.499999999997
 30
0.0
 11
-1393.600000000001
 21
1587.499999999997
 31
0.0
  0
LINE
  5
172D9
330
1A
100
AcDbEntity
  8
ZISSEN1
100
AcDbLine
 10
-1521.749999999997
 20
1682.899999999999
 30
0.0
 11
-1515.749999999997
 21
1682.899999999999
 31
0.0
  0
LINE
  5
172DA
330
1A
100
AcDbEntity
  8
ZISSEN1
100
AcDbLine
 10
-1514.200021393996
 20
1682.899999999999
 30
0.0
 11
-1508.200021393996
 21
1682.899999999999
 31
0.0
  0
LINE
  5
172DB
330
1A
100
AcDbEntity
  8
ZISSEN1
100
AcDbLine
 10
-1514.200021393996
 20
1682.899999999999
 30
0.0
 11
-1514.200021393996
 21
1684.199999999999
 31
0.0
  0
LINE
  5
172DC
330
1A
100
AcDbEntity
  8
ZISSEN1
100
AcDbLine
 10
-1508.200021393996
 20
1682.899999999999
 30
0.0
 11
-1508.200021393996
 21
1684.199999999999
 31
0.0
  0
ELLIPSE
  5
172DD
330
1A
100
AcDbEntity
  8
ZISSEN1
100
AcDbEllipse
 10
-1511.200021393996
 20
1684.199999999999
 30
0.0
 11
-3.0
 21
0.0
 31
0.0
210
0.0
220
0.0
230
1.0
 40
0.2333333333331874
 41
3.141592653589793
 42
6.283185307179586
  0
LINE
  5
172DE
330
1A
100
AcDbEntity
  8
ZISSEN1
100
AcDbLine
 10
-1447.999999999997
 20
1682.899999999999
 30
0.0
 11
-1447.999999999997
 21
1684.199999999999
 31
0.0
  0
LINE
  5
172DF
330
1A
100
AcDbEntity
  8
ZISSEN1
100
AcDbLine
 10
-1441.999999999997
 20
1682.899999999999
 30
0.0
 11
-1441.999999999997
 21
1684.199999999999
 31
0.0
  0
ELLIPSE
  5
172E0
330
1A
100
AcDbEntity
  8
ZISSEN1
100
AcDbEllipse
 10
-1444.999999999997
 20
1684.199999999999
 30
0.0
 11
-3.0
 21
0.0
 31
0.0
210
0.0
220
0.0
230
1.0
 40
0.2333333333331874
 41
3.141592653589793
 42
6.283185307179586
  0
LINE
  5
172E1
330
1A
100
AcDbEntity
  8
ZISSEN1
100
AcDbLine
 10
-1446.749999999997
 20
1682.899999999999
 30
0.0
 11
-1440.749999999997
 21
1682.899999999999
 31
0.0
  0
LINE
  5
172E2
330
1A
100
AcDbEntity
  8
ZISSEN1
100
AcDbLine
 10
-1589.249999999997
 20
1682.899999999999
 30
0.0
 11
-1583.249999999997
 21
1682.899999999999
 31
0.0
  0
LINE
  5
172E4
330
1A
100
AcDbEntity
  8
ZISSEN1
100
AcDbLine
 10
-1578.5
 20
1584.999999999999
 30
0.0
 11
-1578.5
 21
1583.299999999999
 31
0.0
  0
LINE
  5
172F2
330
1A
100
AcDbEntity
  8
ZISSEN1
100
AcDbLine
 10
-1525.899471432766
 20
1583.691032380098
 30
0.0
 11
-1525.899471432766
 21
1578.299999999999
 31
0.0
  0
LINE
  5
172F4
330
1A
100
AcDbEntity
  8
ZISSEN1
100
AcDbLine
 10
-1532.499471432766
 20
1578.299999999999
 30
0.0
 11
-1532.499471432766
 21
1583.691032380098
 31
0.0
  0
LINE
  5
172F5
330
1A
100
AcDbEntity
  8
ZISSEN1
100
AcDbLine
 10
-1541.4
 20
1583.299999999999
 30
0.0
 11
-1589.8
 21
1583.299999999999
 31
0.0
  0
LINE
  5
172F6
330
1A
100
AcDbEntity
  8
ZISSEN1
100
AcDbLine
 10
-1539.599471432767
 20
1587.499998634261
 30
0.0
 11
-1525.899471432766
 21
1587.499998634261
 31
0.0
  0
LINE
  5
172F8
330
1A
100
AcDbEntity
  8
ZISSEN1
100
AcDbLine
 10
-1524.599471432766
 20
1586.499998634261
 30
0.0
 11
-1524.599471432766
 21
1582.49999863426
 31
0.0
  0
LINE
  5
172F9
330
1A
100
AcDbEntity
  8
ZISSEN1
100
AcDbLine
 10
-1449.59998270212
 20
1583.999999999999
 30
0.0
 11
-1452.5
 21
1583.999999999999
 31
0.0
  0
LINE
  5
172FA
330
1A
100
AcDbEntity
  8
ZISSEN1
100
AcDbLine
 10
-1586.5
 20
1583.999999999999
 30
0.0
 11
-1588.499999999999
 21
1583.999999999999
 31
0.0
  0
LINE
  5
172FC
330
1A
100
AcDbEntity
  8
ZISSEN1
  6
BYBLOCK
100
AcDbLine
 10
-1586.999999999997
 20
1668.999999999999
 30
0.0
 11
-1586.999999999997
 21
1667.399999999999
 31
0.0
  0
LINE
  5
172FD
330
1A
100
AcDbEntity
  8
ZISSEN1
  6
BYBLOCK
100
AcDbLine
 10
-1586.499999999997
 20
1668.999999999999
 30
0.0
 11
-1586.499999999997
 21
1667.399999999999
 31
0.0
  0
LINE
  5
17306
330
1A
100
AcDbEntity
  8
ZISSEN1
  6
CONTINUOUS
 62
     7
100
AcDbLine
 10
-1489.354487227972
 20
1667.399999999999
 30
0.0
 11
-1489.354487227972
 21
1665.049999999999
 31
0.0
  0
LINE
  5
1731A
330
1A
100
AcDbEntity
  8
ZISSEN1
  6
CONTINUOUS
 62
     7
100
AcDbLine
 10
-1495.954487799401
 20
1667.399999999999
 30
0.0
 11
-1495.954487799401
 21
1665.049999999999
 31
0.0
  0
LINE
  5
17325
330
1A
100
AcDbEntity
  8
ZISSEN1
  6
CONTINUOUS
 62
     7
100
AcDbLine
 10
-1495.954487799401
 20
1665.049999999999
 30
0.0
 11
-1489.354487227972
 21
1665.049999999999
 31
0.0
  0
LINE
  5
17329
330
1A
100
AcDbEntity
  8
ZISSEN1
  6
BYBLOCK
100
AcDbLine
 10
-1480.854487799401
 20
1659.399999999999
 30
0.0
 11
-1480.854487799401
 21
1667.399999999999
 31
0.0
  0
LINE
  5
1732A
330
1A
100
AcDbEntity
  8
ZISSEN1
  6
BYBLOCK
100
AcDbLine
 10
-1473.354487799402
 20
1659.399999999999
 30
0.0
 11
-1473.354487799402
 21
1667.399999999999
 31
0.0
  0
LINE
  5
1732B
330
1A
100
AcDbEntity
  8
ZISSEN1
  6
BYBLOCK
100
AcDbLine
 10
-1481.354487799402
 20
1659.399999999999
 30
0.0
 11
-1481.354487799402
 21
1667.399999999999
 31
0.0
  0
LINE
  5
1732C
330
1A
100
AcDbEntity
  8
ZISSEN1
  6
BYBLOCK
100
AcDbLine
 10
-1488.854487799401
 20
1667.399999999999
 30
0.0
 11
-1488.854487799401
 21
1659.399999999999
 31
0.0
  0
LINE
  5
1732D
330
1A
100
AcDbEntity
  8
ZISSEN1
  6
BYBLOCK
100
AcDbLine
 10
-1488.854487799401
 20
1659.399999999999
 30
0.0
 11
-1481.354487799402
 21
1659.399999999999
 31
0.0
  0
LINE
  5
1732E
330
1A
100
AcDbEntity
  8
ZISSEN1
  6
BYBLOCK
100
AcDbLine
 10
-1480.854487799401
 20
1659.399999999999
 30
0.0
 11
-1473.354487799402
 21
1659.399999999999
 31
0.0
  0
LINE
  5
1732F
330
1A
100
AcDbEntity
  8
ZISSEN1
  6
BYBLOCK
100
AcDbLine
 10
-1496.250000392988
 20
1659.399999999999
 30
0.0
 11
-1496.250000392988
 21
1667.399999999999
 31
0.0
  0
LINE
  5
17330
330
1A
100
AcDbEntity
  8
ZISSEN1
  6
BYBLOCK
100
AcDbLine
 10
-1488.750000392988
 20
1659.399999999999
 30
0.0
 11
-1488.750000392988
 21
1667.399999999999
 31
0.0
  0
LINE
  5
17331
330
1A
100
AcDbEntity
  8
ZISSEN1
  6
BYBLOCK
100
AcDbLine
 10
-1488.750000392988
 20
1659.399999999999
 30
0.0
 11
-1496.250000392988
 21
1659.399999999999
 31
0.0
  0
LINE
  5
17335
330
1A
100
AcDbEntity
  8
ZISSEN1
100
AcDbLine
 10
-1469.350021393997
 20
1667.399999999999
 30
0.0
 11
-1469.350021393997
 21
1668.999999999999
 31
0.0
  0
LINE
  5
17336
330
1A
100
AcDbEntity
  8
ZISSEN1
100
AcDbLine
 10
-1470.350021393997
 20
1667.399999999999
 30
0.0
 11
-1470.350021393997
 21
1668.999999999999
 31
0.0
  0
LINE
  5
17337
330
1A
100
AcDbEntity
  8
ZISSEN1
  6
BYBLOCK
100
AcDbLine
 10
-1503.499999999997
 20
1668.999999999999
 30
0.0
 11
-1503.499999999997
 21
1667.399999999999
 31
0.0
  0
LINE
  5
17338
330
1A
100
AcDbEntity
  8
ZISSEN1
  6
BYBLOCK
100
AcDbLine
 10
-1502.499999999997
 20
1668.999999999999
 30
0.0
 11
-1502.499999999997
 21
1667.399999999999
 31
0.0
  0
LINE
  5
17339
330
1A
100
AcDbEntity
  8
ZISSEN1
100
AcDbLine
 10
-1500.875000392988
 20
1667.399999999999
 30
0.0
 11
-1499.625000392988
 21
1667.399999999999
 31
0.0
  0
LINE
  5
1733A
330
1A
100
AcDbEntity
  8
ZISSEN1
100
AcDbLine
 10
-1498.875000392988
 20
1667.399999999999
 30
0.0
 11
-1497.625000392988
 21
1667.399999999999
 31
0.0
  0
LINE
  5
1733B
330
1A
100
AcDbEntity
  8
ZISSEN1
100
AcDbLine
 10
-1498.875000392988
 20
1667.399999999999
 30
0.0
 11
-1498.875000392988
 21
1666.299999999999
 31
0.0
  0
LINE
  5
1733C
330
1A
100
AcDbEntity
  8
ZISSEN1
100
AcDbLine
 10
-1498.875000392988
 20
1666.299999999999
 30
0.0
 11
-1497.625000392988
 21
1666.299999999999
 31
0.0
  0
LINE
  5
1733D
330
1A
100
AcDbEntity
  8
ZISSEN1
100
AcDbLine
 10
-1497.625000392988
 20
1666.299999999999
 30
0.0
 11
-1497.625000392988
 21
1667.399999999999
 31
0.0
  0
LINE
  5
1733E
330
1A
100
AcDbEntity
  8
ZISSEN1
100
AcDbLine
 10
-1498.875000392988
 20
1666.899999999999
 30
0.0
 11
-1497.625000392988
 21
1666.899999999999
 31
0.0
  0
LINE
  5
1733F
330
1A
100
AcDbEntity
  8
ZISSEN1
100
AcDbLine
 10
-1500.875000392988
 20
1666.899999999999
 30
0.0
 11
-1499.625000392988
 21
1666.899999999999
 31
0.0
  0
LINE
  5
17340
330
1A
100
AcDbEntity
  8
ZISSEN1
100
AcDbLine
 10
-1499.625000392988
 20
1666.299999999999
 30
0.0
 11
-1499.625000392988
 21
1667.399999999999
 31
0.0
  0
LINE
  5
17341
330
1A
100
AcDbEntity
  8
ZISSEN1
100
AcDbLine
 10
-1500.875000392988
 20
1666.299999999999
 30
0.0
 11
-1499.625000392988
 21
1666.299999999999
 31
0.0
  0
LINE
  5
17342
330
1A
100
AcDbEntity
  8
ZISSEN1
100
AcDbLine
 10
-1500.875000392988
 20
1667.399999999999
 30
0.0
 11
-1500.875000392988
 21
1666.299999999999
 31
0.0
  0
LINE
  5
17343
330
1A
100
AcDbEntity
  8
ZISSEN1
100
AcDbLine
 10
-1524.099999999997
 20
1644.399999999999
 30
0.0
 11
-1560.195691931586
 21
1644.399999999999
 31
0.0
  0
LINE
  5
17344
330
1A
100
AcDbEntity
  8
ZISSEN1
100
AcDbLine
 10
-1525.599999999997
 20
1642.799999999999
 30
0.0
 11
-1525.599999999997
 21
1644.399999999999
 31
0.0
  0
LINE
  5
17345
330
1A
100
AcDbEntity
  8
ZISSEN1
100
AcDbLine
 10
-1524.599999999997
 20
1642.799999999999
 30
0.0
 11
-1524.599999999997
 21
1644.399999999999
 31
0.0
  0
LINE
  5
17346
330
1A
100
AcDbEntity
  8
ZISSEN1
100
AcDbLine
 10
-1524.099999999997
 20
1642.799999999999
 30
0.0
 11
-1541.399999999997
 21
1642.799999999999
 31
0.0
  0
LINE
  5
17347
330
1A
100
AcDbEntity
  8
ZISSEN1
100
AcDbLine
 10
-1522.099471432763
 20
1644.399999999999
 30
0.0
 11
-1455.499999999996
 21
1644.399999999999
 31
0.0
  0
LINE
  5
17349
330
1A
100
AcDbEntity
  8
ZISSEN1
100
AcDbLine
 10
-1452.499999999997
 20
1668.999999999999
 30
0.0
 11
-1452.499999999997
 21
1667.399999999999
 31
0.0
  0
LINE
  5
1734A
330
1A
100
AcDbEntity
  8
ZISSEN1
100
AcDbLine
 10
-1452.999999999997
 20
1668.999999999999
 30
0.0
 11
-1452.999999999997
 21
1667.399999999999
 31
0.0
  0
LINE
  5
1734B
330
1A
100
AcDbEntity
  8
ZISSEN1
100
AcDbLine
 10
-1440.499999999997
 20
1667.399999999999
 30
0.0
 11
-1453.499999999997
 21
1667.399999999999
 31
0.0
  0
LINE
  5
1734C
330
1A
100
AcDbEntity
  8
ZISSEN1
100
AcDbLine
 10
-1440.499999999997
 20
1668.999999999999
 30
0.0
 11
-1453.499999999997
 21
1668.999999999999
 31
0.0
  0
LINE
  5
1734D
330
1A
100
AcDbEntity
  8
ZISSEN1
100
AcDbLine
 10
-1588.499999999997
 20
1668.999999999999
 30
0.0
 11
-1588.499999999997
 21
1667.399999999999
 31
0.0
  0
LINE
  5
1734E
330
1A
100
AcDbEntity
  8
ZISSEN1
100
AcDbLine
 10
-1529.779999999997
 20
1644.399999999999
 30
0.0
 11
-1527.779999999998
 21
1644.399999999999
 31
0.0
  0
LINE
  5
1734F
330
1A
100
AcDbEntity
  8
ZISSEN1
100
AcDbLine
 10
-1539.899999999997
 20
1644.399999999999
 30
0.0
 11
-1539.899999999997
 21
1642.799999999999
 31
0.0
  0
ARC
  5
17350
330
1A
100
AcDbEntity
  8
ZISSEN1
100
AcDbCircle
 10
-1540.899471432766
 20
1587.499998634261
 30
0.0
 40
1.0
100
AcDbArc
 50
270.0
 51
0.0
  0
LINE
  5
17352
330
1A
100
AcDbEntity
  8
ZISSEN1
100
AcDbLine
 10
-1543.649471432763
 20
1644.399999999999
 30
0.0
 11
-1542.399471432763
 21
1644.399999999999
 31
0.0
  0
LINE
  5
17353
330
1A
100
AcDbEntity
  8
ZISSEN1
100
AcDbLine
 10
-1545.649471432763
 20
1644.399999999999
 30
0.0
 11
-1544.399471432763
 21
1644.399999999999
 31
0.0
  0
LINE
  5
17358
330
1A
100
AcDbEntity
  8
ZISSEN1
100
AcDbLine
 10
-1575.875000392988
 20
1667.399999999999
 30
0.0
 11
-1575.875000392988
 21
1666.299999999999
 31
0.0
  0
LINE
  5
17359
330
1A
100
AcDbEntity
  8
ZISSEN1
100
AcDbLine
 10
-1575.875000392988
 20
1666.299999999999
 30
0.0
 11
-1574.625000392988
 21
1666.299999999999
 31
0.0
  0
LINE
  5
1735A
330
1A
100
AcDbEntity
  8
ZISSEN1
100
AcDbLine
 10
-1574.625000392988
 20
1666.299999999999
 30
0.0
 11
-1574.625000392988
 21
1667.399999999999
 31
0.0
  0
LINE
  5
1735B
330
1A
100
AcDbEntity
  8
ZISSEN1
100
AcDbLine
 10
-1575.875000392988
 20
1666.899999999999
 30
0.0
 11
-1574.625000392988
 21
1666.899999999999
 31
0.0
  0
LINE
  5
1735C
330
1A
100
AcDbEntity
  8
ZISSEN1
100
AcDbLine
 10
-1573.875000392988
 20
1666.899999999999
 30
0.0
 11
-1572.625000392988
 21
1666.899999999999
 31
0.0
  0
LINE
  5
1735D
330
1A
100
AcDbEntity
  8
ZISSEN1
100
AcDbLine
 10
-1572.625000392988
 20
1666.299999999999
 30
0.0
 11
-1572.625000392988
 21
1667.399999999999
 31
0.0
  0
LINE
  5
1735E
330
1A
100
AcDbEntity
  8
ZISSEN1
100
AcDbLine
 10
-1573.875000392988
 20
1666.299999999999
 30
0.0
 11
-1572.625000392988
 21
1666.299999999999
 31
0.0
  0
LINE
  5
1735F
330
1A
100
AcDbEntity
  8
ZISSEN1
100
AcDbLine
 10
-1573.875000392988
 20
1667.399999999999
 30
0.0
 11
-1573.875000392988
 21
1666.299999999999
 31
0.0
  0
LINE
  5
17360
330
1A
100
AcDbEntity
  8
ZISSEN1
100
AcDbLine
 10
-1573.875000392988
 20
1667.399999999999
 30
0.0
 11
-1572.625000392988
 21
1667.399999999999
 31
0.0
  0
LINE
  5
17361
330
1A
100
AcDbEntity
  8
ZISSEN1
100
AcDbLine
 10
-1575.875000392988
 20
1667.399999999999
 30
0.0
 11
-1574.625000392988
 21
1667.399999999999
 31
0.0
  0
DIMENSION
  5
17362
330
1A
100
AcDbEntity
  8
SUNPOU
  6
BYBLOCK
100
AcDbDimension
  2
*D0
 10
-1682.37445885969
 20
1583.299999999999
 30
0.0
 11
-1682.37445885969
 21
1549.830310533992
 31
0.0
 70
   160
  3
ISO-25
100
AcDbAlignedDimension
 13
-1666.9
 23
1500.0
 33
0.0
 14
-1669.400000000002
 24
1583.299999999999
 34
0.0
 50
90.0
100
AcDbRotatedDimension
1001
ACAD
1000
DSTYLE
1002
{
1070
   340
1005
10
1070
   140
1040
3.5
1002
}
  0
LINE
  5
17363
330
1A
100
AcDbEntity
  8
ZISSEN1
  6
BYBLOCK
100
AcDbLine
 10
-1669.900000000002
 20
1576.899999999999
 30
0.0
 11
-1669.900000000002
 21
1582.399999999999
 31
0.0
  0
LINE
  5
17364
330
1A
100
AcDbEntity
  8
ZISSEN1
  6
BYBLOCK
100
AcDbLine
 10
-1355.1
 20
1576.899999999998
 30
0.0
 11
-1355.1
 21
1582.399999999998
 31
0.0
  0
LINE
  5
17365
330
1A
100
AcDbEntity
  8
ZISSEN1
 48
0.4
100
AcDbLine
 10
-1354.35
 20
1582.399999999998
 30
0.0
 11
-1355.1
 21
1582.399999999998
 31
0.0
  0
LINE
  5
17366
330
1A
100
AcDbEntity
  8
ZISSEN1
 48
0.4
100
AcDbLine
 10
-1354.35
 20
1576.899999999998
 30
0.0
 11
-1355.1
 21
1576.899999999998
 31
0.0
  0
ELLIPSE
  5
17367
330
1A
100
AcDbEntity
  8
ZISSEN1
 48
0.4
100
AcDbEllipse
 10
-1354.35
 20
1579.649999999998
 30
0.0
 11
-0.0000000000000007
 21
2.75
 31
0.0
210
0.0
220
0.0
230
-1.0
 40
0.3090909090909173
 41
6.283185307179586
 42
9.424777960769379
  0
LINE
  5
1736A
330
1A
100
AcDbEntity
  8
ZISSEN1
  6
BYBLOCK
100
AcDbLine
 10
-1654.4
 20
1582.5
 30
0.0
 11
-1646.4
 21
1582.5
 31
0.0
  0
LINE
  5
1736B
330
1A
100
AcDbEntity
  8
ZISSEN1
  6
BYBLOCK
100
AcDbLine
 10
-1540.899471432766
 20
1584.999998634261
 30
0.0
 11
-1540.899471432766
 21
1582.491636630016
 31
0.0
  0
LINE
  5
1736C
330
1A
100
AcDbEntity
  8
ZISSEN1
  6
BYBLOCK
100
AcDbLine
 10
-1577.499999999997
 20
1668.999999999999
 30
0.0
 11
-1577.499999999997
 21
1667.399999999999
 31
0.0
  0
LINE
  5
1736D
330
1A
100
AcDbEntity
  8
ZISSEN1
  6
BYBLOCK
100
AcDbLine
 10
-1578.499999999997
 20
1668.999999999999
 30
0.0
 11
-1578.499999999997
 21
1667.399999999999
 31
0.0
  0
LINE
  5
1736F
330
1A
100
AcDbEntity
  8
ZISSEN1
100
AcDbLine
 10
-1577.5
 20
1585.999999999999
 30
0.0
 11
-1545.354505097285
 21
1585.999999999999
 31
0.0
  0
LINE
  5
17378
330
1A
100
AcDbEntity
  8
ZISSEN1
  6
BYBLOCK
100
AcDbLine
 10
-1540.899471432766
 20
1586.499998634261
 30
0.0
 11
-1540.899471432766
 21
1582.49999863426
 31
0.0
  0
LINE
  5
17379
330
1A
100
AcDbEntity
  8
ZISSEN1
  6
BYBLOCK
100
AcDbLine
 10
-1525.599471432766
 20
1587.499998634261
 30
0.0
 11
-1539.899471432766
 21
1587.499998634261
 31
0.0
  0
LINE
  5
1737A
330
1A
100
AcDbEntity
  8
ZISSEN1
100
AcDbLine
 10
-1522.099471432766
 20
1586.699999999998
 30
0.0
 11
-1522.09947133438
 21
1583.299999999999
 31
0.0
  0
LINE
  5
17382
330
1A
100
AcDbEntity
  8
ZISSEN1
100
AcDbLine
 10
-1522.099471432766
 20
1586.699999999998
 30
0.0
 11
-1502.199471432766
 21
1586.699999999998
 31
0.0
  0
LINE
  5
17383
330
1A
100
AcDbEntity
  8
ZISSEN1
100
AcDbLine
 10
-1502.199471432766
 20
1586.699999999998
 30
0.0
 11
-1502.199471334381
 21
1583.299999999999
 31
0.0
  0
LINE
  5
17393
330
1A
100
AcDbEntity
  8
ZISSEN1
100
AcDbLine
 10
-1502.219471432764
 20
1644.4
 30
0.0
 11
-1502.219471432764
 21
1651.1
 31
0.0
  0
LINE
  5
1739D
330
1A
100
AcDbEntity
  8
ZISSEN1
100
AcDbLine
 10
-1522.119471432763
 20
1651.1
 30
0.0
 11
-1522.119471432763
 21
1644.4
 31
0.0
  0
LINE
  5
173A1
330
1A
100
AcDbEntity
  8
ZISSEN1
100
AcDbLine
 10
-1502.219471432764
 20
1644.4
 30
0.0
 11
-1522.119471432763
 21
1644.4
 31
0.0
  0
LINE
  5
173B2
330
1A
100
AcDbEntity
  8
ZISSEN1
100
AcDbLine
 10
-1522.119471432763
 20
1651.1
 30
0.0
 11
-1502.219471432764
 21
1651.1
 31
0.0
  0
LINE
  5
173C8
330
1A
100
AcDbEntity
  8
ZISSEN1
  6
BYBLOCK
100
AcDbLine
 10
-1589.999999999997
 20
1679.899999999999
 30
0.0
 11
-1589.799999999997
 21
1679.899999999999
 31
0.0
  0
LINE
  5
173CC
330
1A
100
AcDbEntity
  8
ZISSEN1
  6
BYBLOCK
100
AcDbLine
 10
-1538.199999999997
 20
1644.399999999999
 30
0.0
 11
-1540.399999999998
 21
1644.399999999999
 31
0.0
  0
LINE
  5
173D6
330
1A
100
AcDbEntity
  8
ZISSEN1
100
AcDbLine
 10
-1540.399999999998
 20
1652.099999999999
 30
0.0
 11
-1524.599999999997
 21
1652.099999999999
 31
0.0
  0
LINE
  5
173D9
330
1A
100
AcDbEntity
  8
ZISSEN1
100
AcDbLine
 10
-1540.399999999998
 20
1652.099999999999
 30
0.0
 11
-1524.599999999997
 21
1652.099999999999
 31
0.0
  0
LINE
  5
173DC
330
1A
100
AcDbEntity
  8
ZISSEN1
100
AcDbLine
 10
-1524.599999999997
 20
1652.099999999999
 30
0.0
 11
-1524.599999999997
 21
1645.699999999999
 31
0.0
  0
LINE
  5
173DD
330
1A
100
AcDbEntity
  8
ZISSEN1
100
AcDbLine
 10
-1524.599999999997
 20
1645.699999999999
 30
0.0
 11
-1524.599999999997
 21
1652.099999999999
 31
0.0
  0
LINE
  5
17406
330
1A
100
AcDbEntity
  8
ZISSEN1
100
AcDbLine
 10
-1540.399999999998
 20
1644.399999999999
 30
0.0
 11
-1540.399999999998
 21
1652.099999999999
 31
0.0
  0
LINE
  5
1743D
330
1A
100
AcDbEntity
  8
ZISSEN1
  6
BYBLOCK
100
AcDbLine
 10
-1525.699999999997
 20
1644.399999999999
 30
0.0
 11
-1526.299999999997
 21
1644.399999999999
 31
0.0
  0
LINE
  5
17441
330
1A
100
AcDbEntity
  8
ZISSEN1
  6
BYBLOCK
100
AcDbLine
 10
-1524.599999999997
 20
1645.699999999999
 30
0.0
 11
-1524.599999999997
 21
1644.399999999999
 31
0.0
  0
LINE
  5
17442
330
1A
100
AcDbEntity
  8
ZISSEN1
  6
BYBLOCK
100
AcDbLine
 10
-1526.299999999997
 20
1644.399999999999
 30
0.0
 11
-1525.099999999997
 21
1644.399999999999
 31
0.0
  0
LINE
  5
17444
330
1A
100
AcDbEntity
  8
ZISSEN1
  6
BYBLOCK
100
AcDbLine
 10
-1526.399999999997
 20
1644.399999999999
 30
0.0
 11
-1524.599999999997
 21
1644.399999999999
 31
0.0
  0
LINE
  5
17447
330
1A
100
AcDbEntity
  8
ZISSEN1
  6
BYBLOCK
100
AcDbLine
 10
-1538.099999999997
 20
1644.399999999999
 30
0.0
 11
-1529.199999999998
 21
1644.399999999999
 31
0.0
  0
LINE
  5
177BB
330
1A
100
AcDbEntity
  8
ZISSEN1
100
AcDbLine
 10
-1400.000000000001
 20
1511.750000000274
 30
0.0
 11
-1400.000000000001
 21
1517.250000000274
 31
0.0
  0
LINE
  5
177BC
330
1A
100
AcDbEntity
  8
ZISSEN1
100
AcDbLine
 10
-1589.8
 20
1507.0
 30
0.0
 11
-1588.8
 21
1506.0
 31
0.0
  0
MTEXT
  5
177BD
330
1A
100
AcDbEntity
  8
ZISSEN1
  6
BYBLOCK
100
AcDbMText
 10
-1405.644169306493
 20
1638.803115787838
 30
0.0
 40
3.0
 41
29.494
 71
     1
 72
     5
  1
{\fＭＳ ゴシック|b0|i0|c128|p49;\C7;(USER取付寸法)}
 11
0.0000000000000001
 21
1.0
 31
0.0
1001
ACAD
1000
MTEXTBEGIN
1070
    73
1070
     1
1070
    44
1040
1.0
1070
    74
1070
     0
1000
MTEXTEND
  0
MTEXT
  5
177BE
330
1A
100
AcDbEntity
  8
ZISSEN1
  6
BYBLOCK
100
AcDbMText
 10
-1506.933583065501
 20
1621.845259580007
 30
0.0
 40
3.0
 41
44.4205
 71
     1
 72
     5
  1
{\fＭＳ ゴシック|b0|i0|c128|p49;(USER取付寸法)}
1001
ACAD
1000
MTEXTBEGIN
1070
    73
1070
     1
1070
    44
1040
1.0
1070
    74
1070
     0
1000
MTEXTEND
  0
DIMENSION
  5
177BF
330
1A
100
AcDbEntity
  8
SUNPOU
  6
BYBLOCK
100
AcDbDimension
  2
*D1
 10
-1408.345159867919
 20
1638.0
 30
0.0
 11
-1408.345159867919
 21
1650.45
 31
0.0
 70
   160
  3
ISO-25
100
AcDbAlignedDimension
 13
-1427.999999999997
 23
1660.899999999999
 33
0.0
 14
-1431.999999999997
 24
1638.0
 34
0.0
 50
90.0
100
AcDbRotatedDimension
1001
ACAD
1000
DSTYLE
1002
{
1070
   340
1005
10
1070
   140
1040
3.5
1002
}
  0
DIMENSION
  5
177C0
330
1A
100
AcDbEntity
  8
SUNPOU
  6
BYBLOCK
100
AcDbDimension
  2
*D2
 10
-1392.420277183535
 20
1637.2
 30
0.0
 11
-1392.420277183536
 21
1663.900043724934
 31
0.0
 70
   160
  3
ISO-25
100
AcDbAlignedDimension
 13
-1439.999999999997
 23
1682.899999999999
 33
0.0
 14
-1510.999999999996
 24
1637.2
 34
0.0
 50
90.0
100
AcDbRotatedDimension
1001
ACAD
1000
DSTYLE
1002
{
1070
   340
1005
10
1070
   140
1040
3.5
1002
}
  0
DIMENSION
  5
177C2
330
1A
100
AcDbEntity
  8
SUNPOU
  6
BYBLOCK
100
AcDbDimension
  2
*D3
 10
-1429.999999999997
 20
1608.939258408999
 30
0.0
 11
-1516.785798536713
 21
1608.939258408999
 31
0.0
 70
   160
  3
ISO-25
100
AcDbAlignedDimension
 13
-1600.0
 23
1640.0
 33
0.0
 14
-1429.999999999997
 24
1640.0
 34
0.0
100
AcDbRotatedDimension
1001
ACAD
1000
DSTYLE
1002
{
1070
   340
1005
10
1070
   140
1040
3.5
1002
}
  0
LINE
  5
177C3
330
1A
100
AcDbEntity
  8
CL1
  6
CENTER1
100
AcDbLine
 10
-1601.994566499832
 20
1660.899999999999
 30
0.0
 11
-1590.849999999997
 21
1660.899999999999
 31
0.0
  0
LINE
  5
177CE
330
1A
100
AcDbEntity
  8
ZISSEN1
100
AcDbLine
 10
-1545.354505097281
 20
1667.399999999999
 30
0.0
 11
-1545.354505097281
 21
1668.999999999999
 31
0.0
  0
LINE
  5
177CF
330
1A
100
AcDbEntity
  8
ZISSEN1
100
AcDbLine
 10
-1544.35450509728
 20
1667.399999999999
 30
0.0
 11
-1544.35450509728
 21
1668.999999999999
 31
0.0
  0
LINE
  5
177D0
330
1A
100
AcDbEntity
  8
ZISSEN1
100
AcDbLine
 10
-1516.499999999997
 20
1667.399999999999
 30
0.0
 11
-1516.499999999997
 21
1668.999999999999
 31
0.0
  0
LINE
  5
177D1
330
1A
100
AcDbEntity
  8
ZISSEN1
100
AcDbLine
 10
-1517.499999999997
 20
1667.399999999999
 30
0.0
 11
-1517.499999999997
 21
1668.999999999999
 31
0.0
  0
LINE
  5
177D2
330
1A
100
AcDbEntity
  8
ZISSEN1
100
AcDbLine
 10
-1441.499999999997
 20
1667.399999999999
 30
0.0
 11
-1441.499999999997
 21
1668.999999999999
 31
0.0
  0
LINE
  5
177D3
330
1A
100
AcDbEntity
  8
ZISSEN1
100
AcDbLine
 10
-1440.499999999997
 20
1667.399999999999
 30
0.0
 11
-1440.499999999997
 21
1668.999999999999
 31
0.0
  0
LINE
  5
177D4
330
1A
100
AcDbEntity
  8
ZISSEN1
100
AcDbLine
 10
-1442.499999999997
 20
1667.399999999999
 30
0.0
 11
-1442.499999999997
 21
1668.999999999999
 31
0.0
  0
LINE
  5
177D5
330
1A
100
AcDbEntity
  8
ZISSEN1
 48
0.3
100
AcDbLine
 10
-1440.499999999997
 20
1667.400000000001
 30
0.0
 11
-1440.499999999997
 21
1669.0
 31
0.0
  0
LINE
  5
177D7
330
1A
100
AcDbEntity
  8
ZISSEN1
100
AcDbLine
 10
-1559.800021393996
 20
1684.499999999999
 30
0.0
 11
-1547.200021393996
 21
1684.499999999999
 31
0.0
  0
LINE
  5
177F2
330
1A
100
AcDbEntity
  8
ZISSEN1
100
AcDbLine
 10
-1540.200021393996
 20
1676.599999999999
 30
0.0
 11
-1559.800021393996
 21
1676.599999999999
 31
0.0
  0
LINE
  5
177F3
330
1A
100
AcDbEntity
  8
ZISSEN1
100
AcDbLine
 10
-1559.800021393996
 20
1676.599999999999
 30
0.0
 11
-1559.800021393996
 21
1684.499999999999
 31
0.0
  0
LINE
  5
177F4
330
1A
100
AcDbEntity
  8
ZISSEN1
100
AcDbLine
 10
-1559.800021393996
 20
1684.499999999999
 30
0.0
 11
-1540.200021393996
 21
1684.499999999999
 31
0.0
  0
LINE
  5
177F7
330
1A
100
AcDbEntity
  8
ZISSEN1
100
AcDbLine
 10
-1559.800021393996
 20
1676.899999999999
 30
0.0
 11
-1559.800021393996
 21
1684.499999999999
 31
0.0
  0
LINE
  5
17817
330
1A
100
AcDbEntity
  8
ZISSEN1
100
AcDbLine
 10
-1540.200021393996
 20
1684.499999999999
 30
0.0
 11
-1540.200021393996
 21
1676.599999999999
 31
0.0
  0
LINE
  5
17818
330
1A
100
AcDbEntity
  8
ZISSEN1
100
AcDbLine
 10
-1540.200021393996
 20
1684.499999999999
 30
0.0
 11
-1540.200021393996
 21
1676.899999999999
 31
0.0
  0
LINE
  5
1781C
330
1A
100
AcDbEntity
  8
ZISSEN1
100
AcDbLine
 10
-1540.200021393996
 20
1684.499999999999
 30
0.0
 11
-1545.200021393996
 21
1684.499999999999
 31
0.0
  0
LINE
  5
17830
330
1A
100
AcDbEntity
  8
ZISSEN1
100
AcDbLine
 10
-1524.599999999997
 20
1667.399999999999
 30
0.0
 11
-1524.599999999997
 21
1659.499999999999
 31
0.0
  0
LINE
  5
17831
330
1A
100
AcDbEntity
  8
ZISSEN1
100
AcDbLine
 10
-1515.499999999997
 20
1668.999999999999
 30
0.0
 11
-1525.599999999997
 21
1668.999999999999
 31
0.0
  0
LINE
  5
17832
330
1A
100
AcDbEntity
  8
ZISSEN1
100
AcDbLine
 10
-1522.399999999997
 20
1670.899999999999
 30
0.0
 11
-1521.199999999997
 21
1670.899999999999
 31
0.0
  0
LINE
  5
17839
330
1A
100
AcDbEntity
  8
ZISSEN1
100
AcDbLine
 10
-1522.399999999997
 20
1668.999999999999
 30
0.0
 11
-1522.399999999997
 21
1670.899999999999
 31
0.0
  0
LINE
  5
1783B
330
1A
100
AcDbEntity
  8
ZISSEN1
100
AcDbLine
 10
-1518.899999999996
 20
1670.899999999999
 30
0.0
 11
-1517.699999999997
 21
1670.899999999999
 31
0.0
  0
LINE
  5
1783E
330
1A
100
AcDbEntity
  8
ZISSEN1
100
AcDbLine
 10
-1518.899999999996
 20
1668.999999999999
 30
0.0
 11
-1518.899999999996
 21
1670.899999999999
 31
0.0
  0
LINE
  5
17841
330
1A
100
AcDbEntity
  8
ZISSEN1
100
AcDbLine
 10
-1521.199999999997
 20
1670.899999999999
 30
0.0
 11
-1521.199999999997
 21
1668.999999999999
 31
0.0
  0
LINE
  5
17845
330
1A
100
AcDbEntity
  8
ZISSEN1
100
AcDbLine
 10
-1517.699999999997
 20
1670.899999999999
 30
0.0
 11
-1517.699999999997
 21
1668.999999999999
 31
0.0
  0
LINE
  5
1785E
330
1A
100
AcDbEntity
  8
ZISSEN1
100
AcDbLine
 10
-1560.300021393996
 20
1679.899999999999
 30
0.0
 11
-1560.300021393996
 21
1676.899999999999
 31
0.0
  0
LINE
  5
17864
330
1A
100
AcDbEntity
  8
ZISSEN1
 48
0.3
100
AcDbLine
 10
-1522.999999999997
 20
1668.999999999999
 30
0.0
 11
-1525.499999999997
 21
1668.999999999999
 31
0.0
  0
LINE
  5
1786B
330
1A
100
AcDbEntity
  8
ZISSEN1
100
AcDbLine
 10
-1515.499999999998
 20
1667.399999999989
 30
0.0
 11
-1525.599999999997
 21
1667.399999999999
 31
0.0
  0
LINE
  5
17873
330
1A
100
AcDbEntity
  8
ZISSEN1
 48
0.3
100
AcDbLine
 10
-1520.499999999997
 20
1668.999999999999
 30
0.0
 11
-1522.999999999997
 21
1668.999999999999
 31
0.0
  0
LINE
  5
17879
330
1A
100
AcDbEntity
  8
ZISSEN1
 48
0.3
100
AcDbLine
 10
-1440.499999999997
 20
1668.999999999999
 30
0.0
 11
-1447.999999999997
 21
1668.999999999999
 31
0.0
  0
LINE
  5
1788A
330
1A
100
AcDbEntity
  8
ZISSEN1
100
AcDbLine
 10
-1485.300021393996
 20
1679.899999999999
 30
0.0
 11
-1485.300021393996
 21
1676.899999999999
 31
0.0
  0
LINE
  5
178AA
330
1A
100
AcDbEntity
  8
ZISSEN1
100
AcDbLine
 10
-1465.200021393996
 20
1684.499999999999
 30
0.0
 11
-1470.200021393996
 21
1684.499999999999
 31
0.0
  0
LINE
  5
178AE
330
1A
100
AcDbEntity
  8
ZISSEN1
100
AcDbLine
 10
-1465.200021393996
 20
1684.499999999999
 30
0.0
 11
-1465.200021393996
 21
1676.899999999999
 31
0.0
  0
LINE
  5
178AF
330
1A
100
AcDbEntity
  8
ZISSEN1
100
AcDbLine
 10
-1465.200021393996
 20
1684.499999999999
 30
0.0
 11
-1465.200021393996
 21
1676.599999999999
 31
0.0
  0
LINE
  5
178CF
330
1A
100
AcDbEntity
  8
ZISSEN1
100
AcDbLine
 10
-1484.800021393996
 20
1676.899999999999
 30
0.0
 11
-1484.800021393996
 21
1684.499999999999
 31
0.0
  0
LINE
  5
178D2
330
1A
100
AcDbEntity
  8
ZISSEN1
100
AcDbLine
 10
-1484.800021393996
 20
1684.499999999999
 30
0.0
 11
-1465.200021393996
 21
1684.499999999999
 31
0.0
  0
LINE
  5
178D3
330
1A
100
AcDbEntity
  8
ZISSEN1
100
AcDbLine
 10
-1484.800021393996
 20
1676.599999999999
 30
0.0
 11
-1484.800021393996
 21
1684.499999999999
 31
0.0
  0
LINE
  5
178D4
330
1A
100
AcDbEntity
  8
ZISSEN1
100
AcDbLine
 10
-1465.200021393996
 20
1676.599999999999
 30
0.0
 11
-1484.800021393996
 21
1676.599999999999
 31
0.0
  0
LINE
  5
178EF
330
1A
100
AcDbEntity
  8
ZISSEN1
100
AcDbLine
 10
-1484.800021393996
 20
1684.499999999999
 30
0.0
 11
-1472.200021393996
 21
1684.499999999999
 31
0.0
  0
LINE
  5
178F1
330
1A
100
AcDbEntity
  8
ZISSEN1
  6
BYBLOCK
100
AcDbLine
 10
-1445.999999999997
 20
1668.999999999999
 30
0.0
 11
-1440.999999999997
 21
1668.999999999999
 31
0.0
  0
LINE
  5
178F5
330
1A
100
AcDbEntity
  8
ZISSEN1
  6
BYBLOCK
100
AcDbLine
 10
-1455.499999999996
 20
1644.4
 30
0.0
 11
-1522.599999999997
 21
1644.399999999999
 31
0.0
  0
LINE
  5
178FB
330
1A
100
AcDbEntity
  8
ZISSEN1
  6
BYBLOCK
100
AcDbLine
 10
-1563.750000392988
 20
1659.399999999999
 30
0.0
 11
-1571.250000392988
 21
1659.399999999999
 31
0.0
  0
LINE
  5
178FC
330
1A
100
AcDbEntity
  8
ZISSEN1
  6
BYBLOCK
100
AcDbLine
 10
-1563.750000392988
 20
1659.399999999999
 30
0.0
 11
-1563.750000392988
 21
1667.399999999999
 31
0.0
  0
LINE
  5
178FD
330
1A
100
AcDbEntity
  8
ZISSEN1
  6
BYBLOCK
100
AcDbLine
 10
-1571.250000392988
 20
1659.399999999999
 30
0.0
 11
-1571.250000392988
 21
1667.399999999999
 31
0.0
  0
LINE
  5
178FE
330
1A
100
AcDbEntity
  8
ZISSEN1
  6
BYBLOCK
100
AcDbLine
 10
-1555.854487799401
 20
1659.399999999999
 30
0.0
 11
-1548.354487799401
 21
1659.399999999999
 31
0.0
  0
LINE
  5
178FF
330
1A
100
AcDbEntity
  8
ZISSEN1
  6
BYBLOCK
100
AcDbLine
 10
-1563.854487799401
 20
1659.399999999999
 30
0.0
 11
-1556.354487799401
 21
1659.399999999999
 31
0.0
  0
LINE
  5
17900
330
1A
100
AcDbEntity
  8
ZISSEN1
  6
BYBLOCK
100
AcDbLine
 10
-1563.854487799401
 20
1667.399999999999
 30
0.0
 11
-1563.854487799401
 21
1659.399999999999
 31
0.0
  0
LINE
  5
17901
330
1A
100
AcDbEntity
  8
ZISSEN1
  6
BYBLOCK
100
AcDbLine
 10
-1556.354487799401
 20
1659.399999999999
 30
0.0
 11
-1556.354487799401
 21
1667.399999999999
 31
0.0
  0
LINE
  5
17902
330
1A
100
AcDbEntity
  8
ZISSEN1
  6
BYBLOCK
100
AcDbLine
 10
-1548.354487799401
 20
1659.399999999999
 30
0.0
 11
-1548.354487799401
 21
1667.399999999999
 31
0.0
  0
LINE
  5
17903
330
1A
100
AcDbEntity
  8
ZISSEN1
  6
BYBLOCK
100
AcDbLine
 10
-1555.854487799401
 20
1659.399999999999
 30
0.0
 11
-1555.854487799401
 21
1667.399999999999
 31
0.0
  0
LINE
  5
17907
330
1A
100
AcDbEntity
  8
ZISSEN1
  6
CONTINUOUS
 62
     7
100
AcDbLine
 10
-1570.954487799401
 20
1665.049999999999
 30
0.0
 11
-1564.354487227972
 21
1665.049999999999
 31
0.0
  0
LINE
  5
17912
330
1A
100
AcDbEntity
  8
ZISSEN1
  6
CONTINUOUS
 62
     7
100
AcDbLine
 10
-1570.954487799401
 20
1667.399999999999
 30
0.0
 11
-1570.954487799401
 21
1665.049999999999
 31
0.0
  0
LINE
  5
17926
330
1A
100
AcDbEntity
  8
ZISSEN1
  6
CONTINUOUS
 62
     7
100
AcDbLine
 10
-1564.354487227972
 20
1667.399999999999
 30
0.0
 11
-1564.354487227972
 21
1665.049999999999
 31
0.0
  0
LINE
  5
17936
330
1A
100
AcDbEntity
  8
ZISSEN1
100
AcDbLine
 10
-1542.399471432763
 20
1644.399999999999
 30
0.0
 11
-1542.399471432763
 21
1645.499999999999
 31
0.0
  0
LINE
  5
17937
330
1A
100
AcDbEntity
  8
ZISSEN1
100
AcDbLine
 10
-1542.399471432763
 20
1645.499999999999
 30
0.0
 11
-1543.649471432763
 21
1645.499999999999
 31
0.0
  0
LINE
  5
17938
330
1A
100
AcDbEntity
  8
ZISSEN1
100
AcDbLine
 10
-1543.649471432763
 20
1645.499999999999
 30
0.0
 11
-1543.649471432763
 21
1644.399999999999
 31
0.0
  0
LINE
  5
17939
330
1A
100
AcDbEntity
  8
ZISSEN1
100
AcDbLine
 10
-1542.399471432763
 20
1644.899999999999
 30
0.0
 11
-1543.649471432763
 21
1644.899999999999
 31
0.0
  0
LINE
  5
1793A
330
1A
100
AcDbEntity
  8
ZISSEN1
100
AcDbLine
 10
-1544.399471432763
 20
1644.899999999999
 30
0.0
 11
-1545.649471432763
 21
1644.899999999999
 31
0.0
  0
LINE
  5
1793B
330
1A
100
AcDbEntity
  8
ZISSEN1
100
AcDbLine
 10
-1545.649471432763
 20
1645.499999999999
 30
0.0
 11
-1545.649471432763
 21
1644.399999999999
 31
0.0
  0
LINE
  5
1793C
330
1A
100
AcDbEntity
  8
ZISSEN1
100
AcDbLine
 10
-1544.399471432763
 20
1645.499999999999
 30
0.0
 11
-1545.649471432763
 21
1645.499999999999
 31
0.0
  0
LINE
  5
1793D
330
1A
100
AcDbEntity
  8
ZISSEN1
100
AcDbLine
 10
-1544.399471432763
 20
1644.399999999999
 30
0.0
 11
-1544.399471432763
 21
1645.499999999999
 31
0.0
  0
LINE
  5
17941
330
1A
100
AcDbEntity
  8
ZISSEN1
100
AcDbLine
 10
-1485.394471432765
 20
1644.4
 30
0.0
 11
-1489.144471432765
 21
1644.4
 31
0.0
  0
LINE
  5
1794A
330
1A
100
AcDbEntity
  8
ZISSEN1
100
AcDbLine
 10
-1466.419471432764
 20
1644.4
 30
0.0
 11
-1466.419471432764
 21
1651.1
 31
0.0
  0
LINE
  5
1794C
330
1A
100
AcDbEntity
  8
ZISSEN1
100
AcDbLine
 10
-1483.819471432764
 20
1651.1
 30
0.0
 11
-1483.819471432764
 21
1644.4
 31
0.0
  0
LINE
  5
1794E
330
1A
100
AcDbEntity
  8
ZISSEN1
100
AcDbLine
 10
-1481.799471432764
 20
1644.4
 30
0.0
 11
-1465.899471432764
 21
1644.4
 31
0.0
  0
LINE
  5
17952
330
1A
100
AcDbEntity
  8
ZISSEN1
100
AcDbLine
 10
-1481.369471432764
 20
1644.4
 30
0.0
 11
-1483.819471432764
 21
1644.4
 31
0.0
  0
LINE
  5
17963
330
1A
100
AcDbEntity
  8
ZISSEN1
100
AcDbLine
 10
-1483.819471432764
 20
1651.1
 30
0.0
 11
-1466.419471432764
 21
1651.1
 31
0.0
  0
LINE
  5
17994
330
1A
100
AcDbEntity
  8
ZISSEN1
100
AcDbLine
 10
-1501.719471432764
 20
1651.1
 30
0.0
 11
-1484.319471432764
 21
1651.1
 31
0.0
  0
LINE
  5
179A6
330
1A
100
AcDbEntity
  8
ZISSEN1
100
AcDbLine
 10
-1498.749471432764
 20
1644.4
 30
0.0
 11
-1501.199471432763
 21
1644.4
 31
0.0
  0
LINE
  5
179AA
330
1A
100
AcDbEntity
  8
ZISSEN1
100
AcDbLine
 10
-1500.219471432764
 20
1644.4
 30
0.0
 11
-1484.319471432764
 21
1644.4
 31
0.0
  0
LINE
  5
179AC
330
1A
100
AcDbEntity
  8
ZISSEN1
100
AcDbLine
 10
-1501.719471432764
 20
1651.1
 30
0.0
 11
-1501.719471432764
 21
1644.4
 31
0.0
  0
LINE
  5
179AE
330
1A
100
AcDbEntity
  8
ZISSEN1
100
AcDbLine
 10
-1484.319471432764
 20
1644.4
 30
0.0
 11
-1484.319471432764
 21
1651.1
 31
0.0
  0
LINE
  5
179BA
330
1A
100
AcDbEntity
  8
ZISSEN1
100
AcDbLine
 10
-1465.919471432765
 20
1651.1
 30
0.0
 11
-1456.019471432765
 21
1651.1
 31
0.0
  0
LINE
  5
179C5
330
1A
100
AcDbEntity
  8
ZISSEN1
100
AcDbLine
 10
-1463.469471432765
 20
1644.4
 30
0.0
 11
-1465.069471432765
 21
1644.4
 31
0.0
  0
LINE
  5
179C9
330
1A
100
AcDbEntity
  8
ZISSEN1
100
AcDbLine
 10
-1465.919471432765
 20
1651.1
 30
0.0
 11
-1465.919471432765
 21
1644.4
 31
0.0
  0
LINE
  5
179D2
330
1A
100
AcDbEntity
  8
ZISSEN1
100
AcDbLine
 10
-1456.019471432765
 20
1644.4
 30
0.0
 11
-1456.019471432765
 21
1651.1
 31
0.0
  0
LINE
  5
179E4
330
1A
100
AcDbEntity
  8
ZISSEN1
  6
BYBLOCK
100
AcDbLine
 10
-1455.499999999996
 20
1644.4
 30
0.0
 11
-1502.049471432764
 21
1644.399999999999
 31
0.0
  0
LINE
  5
179E6
330
1A
100
AcDbEntity
  8
ZISSEN1
100
AcDbLine
 10
-1508.249999999997
 20
1638.0
 30
0.0
 11
-1502.749999999997
 21
1638.0
 31
0.0
  0
LINE
  5
179E7
330
1A
100
AcDbEntity
  8
ZISSEN1
100
AcDbLine
 10
-1431.999999999997
 20
1638.0
 30
0.0
 11
-1429.999999999997
 21
1640.0
 31
0.0
  0
LINE
  5
179E8
330
1A
100
AcDbEntity
  8
ZISSEN1
100
AcDbLine
 10
-1429.999999999998
 20
1658.649999999999
 30
0.0
 11
-1435.5
 21
1658.649999999999
 31
0.0
  0
ARC
  5
179E9
330
1A
100
AcDbEntity
  8
ZISSEN1
100
AcDbCircle
 10
-1435.5
 20
1660.899999999999
 30
0.0
 40
2.25
100
AcDbArc
 50
90.0
 51
270.0
  0
LINE
  5
179EA
330
1A
100
AcDbEntity
  8
ZISSEN1
100
AcDbLine
 10
-1429.999999999997
 20
1663.149999999999
 30
0.0
 11
-1435.5
 21
1663.149999999999
 31
0.0
  0
LINE
  5
179FC
330
1A
100
AcDbEntity
  8
ZISSEN1
  6
BYBLOCK
100
AcDbLine
 10
-1439.999999999997
 20
1677.899999999999
 30
0.0
 11
-1439.999999999997
 21
1682.899999999999
 31
0.0
  0
LINE
  5
179FD
330
1A
100
AcDbEntity
  8
ZISSEN1
  6
BYBLOCK
100
AcDbLine
 10
-1589.999999999997
 20
1679.899999999999
 30
0.0
 11
-1589.999999999997
 21
1682.899999999999
 31
0.0
  0
ARC
  5
179FF
330
1A
100
AcDbEntity
  8
ZISSEN1
100
AcDbCircle
 10
-1594.499999999997
 20
1660.9
 30
0.0
 40
2.25
100
AcDbArc
 50
270.0
 51
90.0
  0
LINE
  5
17A01
330
1A
100
AcDbEntity
  8
ZISSEN1
100
AcDbLine
 10
-1600.0
 20
1658.65
 30
0.0
 11
-1594.499999999997
 21
1658.65
 31
0.0
  0
LINE
  5
17A02
330
1A
100
AcDbEntity
  8
ZISSEN1
100
AcDbLine
 10
-1589.999999999997
 20
1682.899999999999
 30
0.0
 11
-1589.999999999997
 21
1677.899999999999
 31
0.0
  0
LINE
  5
17A03
330
1A
100
AcDbEntity
  8
ZISSEN1
100
AcDbLine
 10
-1600.0
 20
1640.0
 30
0.0
 11
-1598.0
 21
1638.0
 31
0.0
  0
LINE
  5
17A10
330
1A
100
AcDbEntity
  8
CL1
  6
CENTER1
100
AcDbLine
 10
-1594.999999999997
 20
1664.498058184223
 30
0.0
 11
-1594.999999999997
 21
1657.292262875743
 31
0.0
  0
LINE
  5
17A11
330
1A
100
AcDbEntity
  8
ZISSEN1
100
AcDbLine
 10
-1600.0
 20
1663.15
 30
0.0
 11
-1594.499999999997
 21
1663.15
 31
0.0
  0
LINE
  5
17A13
330
1A
100
AcDbEntity
  8
ZISSEN1
  6
BYBLOCK
100
AcDbLine
 10
-1589.999999999997
 20
1682.899999999999
 30
0.0
 11
-1559.800021393996
 21
1682.899999999999
 31
0.0
  0
LINE
  5
17A14
330
1A
100
AcDbEntity
  8
ZISSEN1
  6
BYBLOCK
100
AcDbLine
 10
-1540.200021393996
 20
1682.899999999999
 30
0.0
 11
-1484.800021393996
 21
1682.899999999999
 31
0.0
  0
LINE
  5
17A15
330
1A
100
AcDbEntity
  8
ZISSEN1
  6
BYBLOCK
100
AcDbLine
 10
-1465.200021393996
 20
1682.899999999999
 30
0.0
 11
-1439.999999999997
 21
1682.899999999999
 31
0.0
  0
LINE
  5
17A16
330
1A
100
AcDbEntity
  8
ZISSEN1
  6
BYBLOCK
100
AcDbLine
 10
-1598.0
 20
1638.0
 30
0.0
 11
-1431.999999999997
 21
1638.0
 31
0.0
  0
LINE
  5
17A2A
330
1A
100
AcDbEntity
  8
ZISSEN1
100
AcDbLine
 10
-1440.499999999997
 20
1659.499999999999
 30
0.0
 11
-1440.499999999997
 21
1667.399999999999
 31
0.0
  0
LINE
  5
17A2B
330
1A
100
AcDbEntity
  8
ZISSEN1
100
AcDbLine
 10
-1449.599999999997
 20
1667.399999999999
 30
0.0
 11
-1449.599999999997
 21
1659.499999999999
 31
0.0
  0
LINE
  5
17A2C
330
1A
100
AcDbEntity
  8
ZISSEN1
100
AcDbLine
 10
-1447.399999999997
 20
1670.899999999999
 30
0.0
 11
-1446.199999999997
 21
1670.899999999999
 31
0.0
  0
LINE
  5
17A2D
330
1A
100
AcDbEntity
  8
ZISSEN1
100
AcDbLine
 10
-1446.199999999997
 20
1667.399999999999
 30
0.0
 11
-1447.399999999997
 21
1667.399999999999
 31
0.0
  0
LINE
  5
17A31
330
1A
100
AcDbEntity
  8
ZISSEN1
100
AcDbLine
 10
-1447.399999999997
 20
1668.999999999999
 30
0.0
 11
-1447.399999999997
 21
1670.899999999999
 31
0.0
  0
LINE
  5
17A33
330
1A
100
AcDbEntity
  8
ZISSEN1
100
AcDbLine
 10
-1443.899999999997
 20
1670.899999999999
 30
0.0
 11
-1442.699999999997
 21
1670.899999999999
 31
0.0
  0
LINE
  5
17A34
330
1A
100
AcDbEntity
  8
ZISSEN1
100
AcDbLine
 10
-1442.699999999997
 20
1668.999999999999
 30
0.0
 11
-1443.899999999997
 21
1668.999999999999
 31
0.0
  0
LINE
  5
17A36
330
1A
100
AcDbEntity
  8
ZISSEN1
100
AcDbLine
 10
-1443.899999999997
 20
1668.999999999999
 30
0.0
 11
-1443.899999999997
 21
1670.899999999999
 31
0.0
  0
LINE
  5
17A39
330
1A
100
AcDbEntity
  8
ZISSEN1
100
AcDbLine
 10
-1446.199999999997
 20
1670.899999999999
 30
0.0
 11
-1446.199999999997
 21
1668.999999999999
 31
0.0
  0
LINE
  5
17A3C
330
1A
100
AcDbEntity
  8
ZISSEN1
100
AcDbLine
 10
-1440.499999999997
 20
1667.499999999999
 30
0.0
 11
-1440.499999999997
 21
1668.999999999999
 31
0.0
  0
LINE
  5
17A3F
330
1A
100
AcDbEntity
  8
ZISSEN1
100
AcDbLine
 10
-1442.699999999997
 20
1670.899999999999
 30
0.0
 11
-1442.699999999997
 21
1668.999999999999
 31
0.0
  0
LINE
  5
17A49
330
1A
100
AcDbEntity
  8
ZISSEN1
  6
BYBLOCK
100
AcDbLine
 10
-1600.0
 20
1658.65
 30
0.0
 11
-1600.0
 21
1640.0
 31
0.0
  0
LINE
  5
17A4A
330
1A
100
AcDbEntity
  8
ZISSEN1
  6
BYBLOCK
100
AcDbLine
 10
-1600.0
 20
1663.15
 30
0.0
 11
-1600.0
 21
1675.899999999999
 31
0.0
  0
LINE
  5
17A4B
330
1A
100
AcDbEntity
  8
ZISSEN1
  6
BYBLOCK
100
AcDbLine
 10
-1429.999999999998
 20
1658.649999999999
 30
0.0
 11
-1429.999999999997
 21
1640.0
 31
0.0
  0
LINE
  5
17A4D
330
1A
100
AcDbEntity
  8
ZISSEN1
  6
BYBLOCK
100
AcDbLine
 10
-1572.4
 20
1508.0
 30
0.0
 11
-1540.5
 21
1507.999996621406
 31
0.0
  0
ARC
  5
17A4E
330
1A
100
AcDbEntity
  8
ZISSEN1
  6
PHANTOMX2
100
AcDbCircle
 10
-1667.399999999999
 20
1597.500002178537
 30
0.0
 40
0.1999999999979565
100
AcDbArc
 50
359.9999999994137
 51
90.0000000010422
  0
ARC
  5
17A4F
330
1A
100
AcDbEntity
  8
SOUZOUSEN
  6
PHANTOMX2
100
AcDbCircle
 10
-1666.600000000005
 20
1598.300002178534
 30
0.0
 40
1.000000000000909
100
AcDbArc
 50
0.0000000000521102
 51
89.99999999989578
  0
LINE
  5
17A50
330
1A
100
AcDbEntity
  8
SOUZOUSEN
  6
PHANTOMX2
100
AcDbLine
 10
-1666.600000000003
 20
1599.300002178535
 30
0.0
 11
-1670.501903630656
 21
1599.300002178535
 31
0.0
  0
LINE
  5
17A51
330
1A
100
AcDbEntity
  8
SOUZOUSEN
  6
PHANTOMX2
100
AcDbLine
 10
-1667.400000000003
 20
1597.700002178536
 30
0.0
 11
-1669.965509320108
 21
1597.700002178536
 31
0.0
  0
LINE
  5
17A53
330
1A
100
AcDbEntity
  8
ZISSEN1
  6
PHANTOMX2
100
AcDbLine
 10
-1670.549932084161
 20
1592.70001016599
 30
0.0
 11
-1664.249932084161
 21
1592.699999999999
 31
0.0
  0
LINE
  5
17A54
330
1A
100
AcDbEntity
  8
ZISSEN1
  6
PHANTOMX2
100
AcDbLine
 10
-1664.249932084161
 20
1590.899999999998
 30
0.0
 11
-1664.249932084161
 21
1586.699999999999
 31
0.0
  0
LINE
  5
17A55
330
1A
100
AcDbEntity
  8
ZISSEN1
  6
PHANTOMX2
100
AcDbLine
 10
-1664.249932084161
 20
1592.699999999999
 30
0.0
 11
-1663.600000000003
 21
1592.699999999999
 31
0.0
  0
LINE
  5
17A56
330
1A
100
AcDbEntity
  8
ZISSEN1
  6
PHANTOMX2
100
AcDbLine
 10
-1663.600000000003
 20
1592.699999999999
 30
0.0
 11
-1663.600000000003
 21
1590.899999999998
 31
0.0
  0
LINE
  5
17A57
330
1A
100
AcDbEntity
  8
ZISSEN1
  6
PHANTOMX2
100
AcDbLine
 10
-1663.600000000003
 20
1590.899999999998
 30
0.0
 11
-1664.249932084161
 21
1590.899999999998
 31
0.0
  0
LINE
  5
17A58
330
1A
100
AcDbEntity
  8
ZISSEN1
  6
PHANTOMX2
100
AcDbLine
 10
-1663.600000000003
 20
1592.699999999999
 30
0.0
 11
-1665.600000000003
 21
1592.699999999999
 31
0.0
  0
LINE
  5
17A59
330
1A
100
AcDbEntity
  8
ZISSEN1
  6
PHANTOMX2
100
AcDbLine
 10
-1665.600000000003
 20
1592.699999999999
 30
0.0
 11
-1665.600000000003
 21
1593.7
 31
0.0
  0
LINE
  5
17A5A
330
1A
100
AcDbEntity
  8
SOUZOUSEN
  6
PHANTOMX2
100
AcDbLine
 10
-1665.600000000003
 20
1592.700002178536
 30
0.0
 11
-1665.600000000004
 21
1598.300002178535
 31
0.0
  0
LINE
  5
17A5B
330
1A
100
AcDbEntity
  8
SOUZOUSEN
  6
PHANTOMX2
100
AcDbLine
 10
-1667.200000000003
 20
1592.700002178536
 30
0.0
 11
-1667.200000000002
 21
1597.500002178535
 31
0.0
  0
LINE
  5
17A5C
330
1A
100
AcDbEntity
  8
SOUZOUSEN
  6
PHANTOMX2
100
AcDbLine
 10
-1672.49993208416
 20
1579.398851331911
 30
0.0
 11
-1671.500000000003
 21
1579.398851331912
 31
0.0
  0
LINE
  5
17A5D
330
1A
100
AcDbEntity
  8
SOUZOUSEN
  6
PHANTOMX2
100
AcDbLine
 10
-1670.549932084161
 20
1586.698851331913
 30
0.0
 11
-1670.549932084161
 21
1592.698861497903
 31
0.0
  0
LINE
  5
17A5E
330
1A
100
AcDbEntity
  8
SOUZOUSEN
  6
PHANTOMX2
100
AcDbLine
 10
-1670.549932084161
 20
1592.698861497903
 30
0.0
 11
-1664.249932084161
 21
1592.698851331912
 31
0.0
  0
LINE
  5
17A5F
330
1A
100
AcDbEntity
  8
SOUZOUSEN
  6
PHANTOMX2
100
AcDbLine
 10
-1670.549932084161
 20
1592.698851331912
 30
0.0
 11
-1672.499932084161
 21
1588.719259495178
 31
0.0
  0
LINE
  5
17A60
330
1A
100
AcDbEntity
  8
SOUZOUSEN
  6
PHANTOMX2
100
AcDbLine
 10
-1671.039932084161
 20
1592.198851331913
 30
0.0
 11
-1672.999932084161
 21
1592.198851331913
 31
0.0
  0
LINE
  5
17A61
330
1A
100
AcDbEntity
  8
ZISSEN1
  6
PHANTOMX2
100
AcDbLine
 10
-1671.039932084161
 20
1592.198851331913
 30
0.0
 11
-1671.039932084161
 21
1591.698851331913
 31
0.0
  0
LINE
  5
17A62
330
1A
100
AcDbEntity
  8
SOUZOUSEN
  6
PHANTOMX2
100
AcDbLine
 10
-1672.999932084161
 20
1592.198851331913
 30
0.0
 11
-1672.999932084161
 21
1590.698851331913
 31
0.0
  0
LINE
  5
17A63
330
1A
100
AcDbEntity
  8
ZISSEN1
  6
PHANTOMX2
100
AcDbLine
 10
-1672.999932084161
 20
1590.698851331913
 30
0.0
 11
-1672.499932084161
 21
1590.698851331913
 31
0.0
  0
LINE
  5
17A64
330
1A
100
AcDbEntity
  8
SOUZOUSEN
  6
PHANTOMX2
100
AcDbLine
 10
-1672.499932084161
 20
1590.698851331913
 30
0.0
 11
-1672.49993208416
 21
1579.398851331911
 31
0.0
  0
LINE
  5
17A65
330
1A
100
AcDbEntity
  8
SOUZOUSEN
  6
PHANTOMX2
100
AcDbLine
 10
-1664.249932084161
 20
1590.898851331911
 30
0.0
 11
-1664.249932084161
 21
1586.698851331913
 31
0.0
  0
LINE
  5
17A66
330
1A
100
AcDbEntity
  8
ZISSEN1
  6
PHANTOMX2
100
AcDbLine
 10
-1664.249932084161
 20
1592.698851331912
 30
0.0
 11
-1663.600000000003
 21
1592.698851331912
 31
0.0
  0
LINE
  5
17A67
330
1A
100
AcDbEntity
  8
SOUZOUSEN
  6
PHANTOMX2
100
AcDbLine
 10
-1663.600000000003
 20
1592.698851331912
 30
0.0
 11
-1663.600000000003
 21
1590.898851331911
 31
0.0
  0
LINE
  5
17A68
330
1A
100
AcDbEntity
  8
ZISSEN1
  6
PHANTOMX2
100
AcDbLine
 10
-1663.600000000003
 20
1590.898851331911
 30
0.0
 11
-1664.249932084161
 21
1590.898851331911
 31
0.0
  0
LINE
  5
17A69
330
1A
100
AcDbEntity
  8
ZISSEN1
  6
PHANTOMX2
100
AcDbLine
 10
-1663.600000000003
 20
1586.699999999999
 30
0.0
 11
-1664.249932084161
 21
1586.698851331913
 31
0.0
  0
LINE
  5
17A77
330
1A
100
AcDbEntity
  8
ZISSEN1
  6
BYBLOCK
100
AcDbLine
 10
-1361.4
 20
1586.699999999998
 30
0.0
 11
-1360.750067915842
 21
1586.698851331911
 31
0.0
  0
LINE
  5
17A79
330
1A
100
AcDbEntity
  8
ZISSEN1
  6
BYBLOCK
100
AcDbLine
 10
-1656.000000000002
 20
1586.0
 30
0.0
 11
-1654.4
 21
1586.0
 31
0.0
  0
LINE
  5
17A7C
330
1A
100
AcDbEntity
  8
ZISSEN1
100
AcDbLine
 10
-1663.600000000001
 20
1575.749999999999
 30
0.0
 11
-1663.600000000001
 21
1578.599999999999
 31
0.0
  0
ARC
  5
17A7F
330
1A
100
AcDbEntity
  8
ZISSEN1
  6
BYBLOCK
100
AcDbCircle
 10
-1625.999999999998
 20
1582.300000000001
 30
0.0
 40
0.999999999998181
100
AcDbArc
 50
359.9999999998958
 51
90.00000000005213
  0
LINE
  5
17A80
330
1A
100
AcDbEntity
  8
ZISSEN1
100
AcDbLine
 10
-1668.400000000002
 20
1582.499999999999
 30
0.0
 11
-1668.400000000002
 21
1583.299999999999
 31
0.0
  0
LINE
  5
17A84
330
1A
100
AcDbEntity
  8
ZISSEN1
100
AcDbLine
 10
-1532.799999999998
 20
1640.45
 30
0.0
 11
-1526.199999428569
 21
1640.45
 31
0.0
  0
LINE
  5
17A8F
330
1A
100
AcDbEntity
  8
ZISSEN1
100
AcDbLine
 10
-1532.799999999998
 20
1642.799999999999
 30
0.0
 11
-1532.799999999998
 21
1640.45
 31
0.0
  0
LINE
  5
17AA2
330
1A
100
AcDbEntity
  8
ZISSEN1
100
AcDbLine
 10
-1526.199999428569
 20
1642.799999999999
 30
0.0
 11
-1526.199999428569
 21
1640.45
 31
0.0
  0
LINE
  5
17AAB
330
1A
100
AcDbEntity
  8
ZISSEN1
100
AcDbLine
 10
-1631.4
 20
1582.5
 30
0.0
 11
-1629.800000000002
 21
1582.5
 31
0.0
  0
LINE
  5
17AAE
330
1A
100
AcDbEntity
  8
ZISSEN1
100
AcDbLine
 10
-1625.000000000002
 20
1500.0
 30
0.0
 11
-1666.9
 21
1500.0
 31
0.0
  0
LINE
  5
17AAF
330
1A
100
AcDbEntity
  8
ZISSEN1
100
AcDbLine
 10
-1625.000000000002
 20
1503.0
 30
0.0
 11
-1666.700000000003
 21
1503.0
 31
0.0
  0
LINE
  5
17AB0
330
1A
100
AcDbEntity
  8
ZISSEN1
100
AcDbLine
 10
-1625.000000000002
 20
1500.0
 30
0.0
 11
-1625.000000000002
 21
1503.0
 31
0.0
  0
LINE
  5
17AB1
330
1A
100
AcDbEntity
  8
ZISSEN1
100
AcDbLine
 10
-1669.900000000002
 20
1503.000000000002
 30
0.0
 11
-1669.900000000002
 21
1582.499999999999
 31
0.0
  0
LINE
  5
17AB2
330
1A
100
AcDbEntity
  8
ZISSEN1
100
AcDbLine
 10
-1666.900000000002
 20
1582.499999999999
 30
0.0
 11
-1666.900000000002
 21
1503.2
 31
0.0
  0
LINE
  5
17AB3
330
1A
100
AcDbEntity
  8
ZISSEN1
100
AcDbLine
 10
-1663.900000000002
 20
1582.499999999999
 30
0.0
 11
-1663.900000000002
 21
1507.499999999999
 31
0.0
  0
LINE
  5
17AB4
330
1A
100
AcDbEntity
  8
ZISSEN1
100
AcDbLine
 10
-1663.600000000003
 20
1583.299999999999
 30
0.0
 11
-1663.600000000001
 21
1511.999999999999
 31
0.0
  0
LINE
  5
17AB5
330
1A
100
AcDbEntity
  8
ZISSEN1
100
AcDbLine
 10
-1663.900000000002
 20
1509.499999999999
 30
0.0
 11
-1666.900000000002
 21
1509.499999999999
 31
0.0
  0
LINE
  5
17AB7
330
1A
100
AcDbEntity
  8
ZISSEN1
100
AcDbLine
 10
-1663.600000000001
 20
1511.999999999999
 30
0.0
 11
-1662.000000000002
 21
1511.999999999999
 31
0.0
  0
LINE
  5
17AB8
330
1A
100
AcDbEntity
  8
ZISSEN1
100
AcDbLine
 10
-1662.000000000002
 20
1581.499999999998
 30
0.0
 11
-1663.600000000001
 21
1581.499999999998
 31
0.0
  0
LINE
  5
17AC2
330
1A
100
AcDbEntity
  8
ZISSEN1
100
AcDbLine
 10
-1656.000000000002
 20
1586.0
 30
0.0
 11
-1656.000000000002
 21
1579.499999999999
 31
0.0
  0
LINE
  5
17AC7
330
1A
100
AcDbEntity
  8
ZISSEN1
100
AcDbLine
 10
-1660.000000000002
 20
1511.614999999999
 30
0.0
 11
-1661.000000000002
 21
1511.614999999999
 31
0.0
  0
LINE
  5
17AC9
330
1A
100
AcDbEntity
  8
ZISSEN1
100
AcDbLine
 10
-1661.000000000002
 20
1511.614999999999
 30
0.0
 11
-1661.000000000002
 21
1517.384999999999
 31
0.0
  0
LINE
  5
17ACA
330
1A
100
AcDbEntity
  8
ZISSEN1
100
AcDbLine
 10
-1661.000000000002
 20
1516.999999999999
 30
0.0
 11
-1662.000000000002
 21
1516.999999999999
 31
0.0
  0
LINE
  5
17ACB
330
1A
100
AcDbEntity
  8
ZISSEN1
100
AcDbLine
 10
-1661.000000000002
 20
1511.999999999999
 30
0.0
 11
-1662.000000000002
 21
1511.999999999999
 31
0.0
  0
LINE
  5
17ACC
330
1A
100
AcDbEntity
  8
ZISSEN1
100
AcDbLine
 10
-1661.000000000002
 20
1516.999999999999
 30
0.0
 11
-1661.000000000002
 21
1511.999999999999
 31
0.0
  0
LINE
  5
17ACD
330
1A
100
AcDbEntity
  8
ZISSEN1
100
AcDbLine
 10
-1662.000000000002
 20
1511.999999999999
 30
0.0
 11
-1662.000000000002
 21
1516.999999999999
 31
0.0
  0
LINE
  5
17AD8
330
1A
100
AcDbEntity
  8
ZISSEN1
100
AcDbLine
 10
-1654.4
 20
1511.499999999999
 30
0.0
 11
-1654.500000000002
 21
1511.499999999999
 31
0.0
  0
LINE
  5
17ADA
330
1A
100
AcDbEntity
  8
ZISSEN1
100
AcDbLine
 10
-1631.4
 20
1579.499999999999
 30
0.0
 11
-1653.9
 21
1579.499999999999
 31
0.0
  0
LINE
  5
17ADB
330
1A
100
AcDbEntity
  8
ZISSEN1
  6
BYBLOCK
100
AcDbLine
 10
-1631.4
 20
1581.519999999999
 30
0.0
 11
-1654.4
 21
1581.519999999999
 31
0.0
  0
LINE
  5
17ADC
330
1A
100
AcDbEntity
  8
ZISSEN1
100
AcDbLine
 10
-1631.4
 20
1512.479999999999
 30
0.0
 11
-1654.399999999999
 21
1512.48
 31
0.0
  0
LINE
  5
17ADF
330
1A
100
AcDbEntity
  8
ZISSEN1
100
AcDbLine
 10
-1654.4
 20
1512.479999999999
 30
0.0
 11
-1654.399999999998
 21
1513.003487278959
 31
0.0
  0
LINE
  5
17AE0
330
1A
100
AcDbEntity
  8
ZISSEN1
100
AcDbLine
 10
-1631.4
 20
1581.499999999998
 30
0.0
 11
-1629.800000000002
 21
1581.499999999998
 31
0.0
  0
LINE
  5
17AE1
330
1A
100
AcDbEntity
  8
ZISSEN1
100
AcDbLine
 10
-1629.800000000002
 20
1507.999999999999
 30
0.0
 11
-1631.4
 21
1507.999999999999
 31
0.0
  0
LINE
  5
17AE8
330
1A
100
AcDbEntity
  8
ZISSEN1
100
AcDbLine
 10
-1627.000000000002
 20
1500.0
 30
0.0
 11
-1627.000000000002
 21
1503.0
 31
0.0
  0
LINE
  5
17AE9
330
1A
100
AcDbEntity
  8
ZISSEN1
100
AcDbLine
 10
-1650.150000000002
 20
1500.0
 30
0.0
 11
-1650.150000000002
 21
1503.0
 31
0.0
  0
LINE
  5
17AEA
330
1A
100
AcDbEntity
  8
ZISSEN1
100
AcDbLine
 10
-1645.650000000002
 20
1500.0
 30
0.0
 11
-1645.650000000002
 21
1503.0
 31
0.0
  0
LINE
  5
17AEB
330
1A
100
AcDbEntity
  8
ZISSEN1
100
AcDbLine
 10
-1664.900000000002
 20
1500.0
 30
0.0
 11
-1664.900000000002
 21
1503.0
 31
0.0
  0
LINE
  5
17AEC
330
1A
100
AcDbEntity
  8
ZISSEN1
100
AcDbLine
 10
-1663.400000000002
 20
1500.0
 30
0.0
 11
-1663.400000000002
 21
1503.0
 31
0.0
  0
LINE
  5
17AED
330
1A
100
AcDbEntity
  8
ZISSEN1
100
AcDbLine
 10
-1654.4
 20
1579.5
 30
0.0
 11
-1654.4
 21
1582.5
 31
0.0
  0
LINE
  5
17AEE
330
1A
100
AcDbEntity
  8
ZISSEN1
  6
BYBLOCK
100
AcDbLine
 10
-1663.900000000002
 20
1582.499999999999
 30
0.0
 11
-1666.900000000002
 21
1582.499999999999
 31
0.0
  0
LINE
  5
17AEF
330
1A
100
AcDbEntity
  8
ZISSEN1
  6
BYBLOCK
100
AcDbLine
 10
-1666.900000000002
 20
1582.499999999999
 30
0.0
 11
-1669.900000000002
 21
1582.499999999999
 31
0.0
  0
LINE
  5
17AF0
330
1A
100
AcDbEntity
  8
ZISSEN1
100
AcDbLine
 10
-1663.900000000002
 20
1581.499999999999
 30
0.0
 11
-1666.900000000002
 21
1581.499999999999
 31
0.0
  0
LINE
  5
17AF1
330
1A
100
AcDbEntity
  8
ZISSEN1
  6
BYBLOCK
100
AcDbLine
 10
-1666.900000000002
 20
1581.499999999999
 30
0.0
 11
-1669.900000000002
 21
1581.499999999999
 31
0.0
  0
LINE
  5
17AF2
330
1A
100
AcDbEntity
  8
ZISSEN1
100
AcDbLine
 10
-1669.400000000002
 20
1582.499999999999
 30
0.0
 11
-1669.400000000002
 21
1583.299999999999
 31
0.0
  0
LINE
  5
17AF3
330
1A
100
AcDbEntity
  8
ZISSEN1
  6
BYBLOCK
100
AcDbLine
 10
-1653.950000000002
 20
1583.299999999999
 30
0.0
 11
-1625.999999999999
 21
1583.299999999999
 31
0.0
  0
LINE
  5
17AF5
330
1A
100
AcDbEntity
  8
ZISSEN1
  6
BYBLOCK
100
AcDbLine
 10
-1625.0
 20
1506.0
 30
0.0
 11
-1625.0
 21
1582.300000000001
 31
0.0
  0
LINE
  5
17AF6
330
1A
100
AcDbEntity
  8
ZISSEN1
  6
BYBLOCK
100
AcDbLine
 10
-1625.800000000002
 20
1582.499999999999
 30
0.0
 11
-1653.950000000002
 21
1582.499999999999
 31
0.0
  0
ARC
  5
17AF7
330
1A
100
AcDbEntity
  8
ZISSEN1
  6
BYBLOCK
100
AcDbCircle
 10
-1666.9
 20
1503.000000000002
 30
0.0
 40
3.000000000002046
100
AcDbArc
 50
180.000000000039
 51
269.9999999999478
  0
LINE
  5
17AF8
330
1A
100
AcDbEntity
  8
ZISSEN1
  6
BYBLOCK
100
AcDbLine
 10
-1666.700000000003
 20
1503.0
 30
0.0
 11
-1666.84142135624
 21
1503.058578643762
 31
0.0
  0
LINE
  5
17AF9
330
1A
100
AcDbEntity
  8
ZISSEN1
  6
BYBLOCK
100
AcDbLine
 10
-1666.84142135624
 20
1503.058578643762
 30
0.0
 11
-1666.900000000002
 21
1503.2
 31
0.0
  0
LINE
  5
17AFA
330
1A
100
AcDbEntity
  8
ZISSEN1
  6
BYBLOCK
100
AcDbLine
 10
-1625.8
 20
1506.0
 30
0.0
 11
-1625.0
 21
1506.0
 31
0.0
  0
LINE
  5
17B02
330
1A
100
AcDbEntity
  8
SOUZOUSEN
  6
PHANTOMX2
100
AcDbLine
 10
-1671.500000000003
 20
1586.699999999999
 30
0.0
 11
-1671.500000000003
 21
1577.440049500099
 31
0.0
  0
LINE
  5
17B10
330
1A
100
AcDbEntity
  8
SOUZOUSEN
  6
PHANTOMX2
100
AcDbLine
 10
-1663.600000000003
 20
1586.699999999999
 30
0.0
 11
-1663.600000000003
 21
1583.299999999999
 31
0.0
  0
LINE
  5
17B13
330
1A
100
AcDbEntity
  8
SOUZOUSEN
  6
PHANTOMX2
100
AcDbLine
 10
-1671.500000000003
 20
1586.699999999999
 30
0.0
 11
-1663.600000000003
 21
1586.699999999999
 31
0.0
  0
LINE
  5
17B14
330
1A
100
AcDbEntity
  8
ZISSEN1
  6
BYBLOCK
100
AcDbLine
 10
-1663.600000000003
 20
1577.479999999999
 30
0.0
 11
-1663.600000000003
 21
1581.519999999999
 31
0.0
  0
LINE
  5
17B16
330
1A
100
AcDbEntity
  8
ZISSEN1
100
AcDbLine
 10
-1656.000000000002
 20
1581.999999999999
 30
0.0
 11
-1656.000000000002
 21
1579.5
 31
0.0
  0
LINE
  5
17B1A
330
1A
100
AcDbEntity
  8
ZISSEN1
100
AcDbLine
 10
-1440.199999999999
 20
1583.299999999999
 30
0.0
 11
-1524.1
 21
1583.299999999999
 31
0.0
  0
LINE
  5
17B1C
330
1A
100
AcDbEntity
  8
ZISSEN1
100
AcDbLine
 10
-1573.4
 20
1506.000001124037
 30
0.0
 11
-1588.8
 21
1506.0
 31
0.0
  0
LINE
  5
17B1D
330
1A
100
AcDbEntity
  8
ZISSEN1
100
AcDbLine
 10
-1600.0
 20
1503.0
 30
0.0
 11
-1600.0
 21
1500.0
 31
0.0
  0
LINE
  5
17B1E
330
1A
100
AcDbEntity
  8
ZISSEN1
100
AcDbLine
 10
-1598.0
 20
1503.0
 30
0.0
 11
-1598.0
 21
1500.0
 31
0.0
  0
LINE
  5
17B1F
330
1A
100
AcDbEntity
  8
ZISSEN1
100
AcDbLine
 10
-1430.0
 20
1500.0
 30
0.0
 11
-1430.0
 21
1503.0
 31
0.0
  0
LINE
  5
17B20
330
1A
100
AcDbEntity
  8
ZISSEN1
  6
BYBLOCK
100
AcDbLine
 10
-1430.0
 20
1503.0
 30
0.0
 11
-1600.0
 21
1503.0
 31
0.0
  0
LINE
  5
17B21
330
1A
100
AcDbEntity
  8
ZISSEN1
  6
BYBLOCK
100
AcDbLine
 10
-1430.0
 20
1500.0
 30
0.0
 11
-1600.0
 21
1500.0
 31
0.0
  0
LINE
  5
17B38
330
1A
100
AcDbEntity
  8
ZISSEN1
100
AcDbLine
 10
-1455.999471432767
 20
1586.699999999998
 30
0.0
 11
-1455.999471334385
 21
1583.299999999999
 31
0.0
  0
LINE
  5
17B39
330
1A
100
AcDbEntity
  8
ZISSEN1
100
AcDbLine
 10
-1465.899471432767
 20
1586.699999999998
 30
0.0
 11
-1465.899471432767
 21
1583.299999999999
 31
0.0
  0
LINE
  5
17B3A
330
1A
100
AcDbEntity
  8
ZISSEN1
100
AcDbLine
 10
-1465.899471432767
 20
1586.699999999998
 30
0.0
 11
-1455.999471432767
 21
1586.699999999998
 31
0.0
  0
LINE
  5
17B3E
330
1A
100
AcDbEntity
  8
ZISSEN1
100
AcDbLine
 10
-1484.299471432767
 20
1586.699999999998
 30
0.0
 11
-1484.299471334382
 21
1583.299999999999
 31
0.0
  0
LINE
  5
17B3F
330
1A
100
AcDbEntity
  8
ZISSEN1
100
AcDbLine
 10
-1501.699471432766
 20
1586.699999999998
 30
0.0
 11
-1501.699471334381
 21
1583.299999999999
 31
0.0
  0
LINE
  5
17B40
330
1A
100
AcDbEntity
  8
ZISSEN1
100
AcDbLine
 10
-1501.699471432766
 20
1586.699999999998
 30
0.0
 11
-1484.299471432767
 21
1586.699999999998
 31
0.0
  0
LINE
  5
17B4D
330
1A
100
AcDbEntity
  8
ZISSEN1
100
AcDbLine
 10
-1483.799471432766
 20
1586.699999999998
 30
0.0
 11
-1466.399471432767
 21
1586.699999999998
 31
0.0
  0
LINE
  5
17B4E
330
1A
100
AcDbEntity
  8
ZISSEN1
100
AcDbLine
 10
-1483.799471432766
 20
1586.699999999998
 30
0.0
 11
-1483.799471334383
 21
1583.299999999999
 31
0.0
  0
LINE
  5
17B4F
330
1A
100
AcDbEntity
  8
ZISSEN1
100
AcDbLine
 10
-1466.399471432767
 20
1586.699999999998
 30
0.0
 11
-1466.399471334384
 21
1583.299999999999
 31
0.0
  0
LINE
  5
17B62
330
1A
100
AcDbEntity
  8
ZISSEN1
100
AcDbLine
 10
-1353.5
 20
1586.699999999998
 30
0.0
 11
-1353.5
 21
1576.499999999998
 31
0.0
  0
LINE
  5
17B72
330
1A
100
AcDbEntity
  8
ZISSEN1
100
AcDbLine
 10
-1353.5
 20
1576.499999999998
 30
0.0
 11
-1355.1
 21
1576.499999999998
 31
0.0
  0
LINE
  5
17B73
330
1A
100
AcDbEntity
  8
ZISSEN1
100
AcDbLine
 10
-1353.5
 20
1586.699999999998
 30
0.0
 11
-1361.4
 21
1586.699999999998
 31
0.0
  0
LINE
  5
17B76
330
1A
100
AcDbEntity
  8
ZISSEN1
100
AcDbLine
 10
-1369.000000000001
 20
1582.999999999999
 30
0.0
 11
-1370.600000000001
 21
1582.999999999999
 31
0.0
  0
LINE
  5
17B77
330
1A
100
AcDbEntity
  8
ZISSEN1
100
AcDbLine
 10
-1369.000000000001
 20
1583.999999999999
 30
0.0
 11
-1370.600000000001
 21
1583.999999999999
 31
0.0
  0
LINE
  5
17B78
330
1A
100
AcDbEntity
  8
ZISSEN1
100
AcDbLine
 10
-1393.600000000001
 20
1582.499999999999
 30
0.0
 11
-1395.200000000001
 21
1582.499999999999
 31
0.0
  0
LINE
  5
17B79
330
1A
100
AcDbEntity
  8
ZISSEN1
100
AcDbLine
 10
-1400.0
 20
1500.0
 30
0.0
 11
-1358.100000000003
 21
1500.0
 31
0.0
  0
LINE
  5
17B7A
330
1A
100
AcDbEntity
  8
ZISSEN1
100
AcDbLine
 10
-1400.0
 20
1503.0
 30
0.0
 11
-1358.3
 21
1503.0
 31
0.0
  0
LINE
  5
17B7B
330
1A
100
AcDbEntity
  8
ZISSEN1
100
AcDbLine
 10
-1400.0
 20
1500.0
 30
0.0
 11
-1400.0
 21
1503.0
 31
0.0
  0
LINE
  5
17B7C
330
1A
100
AcDbEntity
  8
ZISSEN1
100
AcDbLine
 10
-1355.100000000001
 20
1503.0
 30
0.0
 11
-1355.1
 21
1582.499999999998
 31
0.0
  0
LINE
  5
17B7D
330
1A
100
AcDbEntity
  8
ZISSEN1
100
AcDbLine
 10
-1358.1
 20
1582.499999999998
 30
0.0
 11
-1358.1
 21
1503.2
 31
0.0
  0
LINE
  5
17B7E
330
1A
100
AcDbEntity
  8
ZISSEN1
100
AcDbLine
 10
-1361.1
 20
1582.499999999998
 30
0.0
 11
-1361.1
 21
1507.5
 31
0.0
  0
LINE
  5
17B7F
330
1A
100
AcDbEntity
  8
ZISSEN1
100
AcDbLine
 10
-1361.400000000001
 20
1582.499999999999
 30
0.0
 11
-1361.400000000001
 21
1511.999999999999
 31
0.0
  0
LINE
  5
17B81
330
1A
100
AcDbEntity
  8
ZISSEN1
100
AcDbLine
 10
-1361.1
 20
1511.999999999999
 30
0.0
 11
-1361.4
 21
1511.999999999999
 31
0.0
  0
LINE
  5
17B82
330
1A
100
AcDbEntity
  8
ZISSEN1
100
AcDbLine
 10
-1361.4
 20
1511.999999999999
 30
0.0
 11
-1363.000000000001
 21
1511.999999999999
 31
0.0
  0
LINE
  5
17B83
330
1A
100
AcDbEntity
  8
ZISSEN1
100
AcDbLine
 10
-1363.000000000001
 20
1511.999999999999
 30
0.0
 11
-1363.000000000001
 21
1582.499999999999
 31
0.0
  0
LINE
  5
17B93
330
1A
100
AcDbEntity
  8
ZISSEN1
100
AcDbLine
 10
-1364.999999999999
 20
1511.614999999999
 30
0.0
 11
-1364.0
 21
1511.614999999999
 31
0.0
  0
LINE
  5
17B95
330
1A
100
AcDbEntity
  8
ZISSEN1
100
AcDbLine
 10
-1364.0
 20
1511.614999999999
 30
0.0
 11
-1364.0
 21
1517.384999999999
 31
0.0
  0
LINE
  5
17B96
330
1A
100
AcDbEntity
  8
ZISSEN1
100
AcDbLine
 10
-1364.0
 20
1516.999999999999
 30
0.0
 11
-1363.000000000001
 21
1516.999999999999
 31
0.0
  0
LINE
  5
17B97
330
1A
100
AcDbEntity
  8
ZISSEN1
100
AcDbLine
 10
-1364.0
 20
1511.999999999999
 30
0.0
 11
-1363.000000000001
 21
1511.999999999999
 31
0.0
  0
LINE
  5
17B98
330
1A
100
AcDbEntity
  8
ZISSEN1
100
AcDbLine
 10
-1364.0
 20
1516.999999999999
 30
0.0
 11
-1364.0
 21
1511.999999999999
 31
0.0
  0
LINE
  5
17B99
330
1A
100
AcDbEntity
  8
ZISSEN1
100
AcDbLine
 10
-1363.000000000001
 20
1511.999999999999
 30
0.0
 11
-1363.000000000001
 21
1516.999999999999
 31
0.0
  0
LINE
  5
17B9B
330
1A
100
AcDbEntity
  8
ZISSEN1
100
AcDbLine
 10
-1363.000000000001
 20
1514.499999999999
 30
0.0
 11
-1363.000000000001
 21
1515.799999999999
 31
0.0
  0
LINE
  5
17BA7
330
1A
100
AcDbEntity
  8
ZISSEN1
100
AcDbLine
 10
-1393.600000000001
 20
1512.479999999999
 30
0.0
 11
-1385.11
 21
1512.479999999999
 31
0.0
  0
LINE
  5
17BAD
330
1A
100
AcDbEntity
  8
ZISSEN1
100
AcDbLine
 10
-1395.200000000001
 20
1507.999999999999
 30
0.0
 11
-1393.600000000001
 21
1507.999999999999
 31
0.0
  0
ELLIPSE
  5
17BAE
330
1A
100
AcDbEntity
  8
ZISSEN1
 48
0.4
100
AcDbEllipse
 10
-1371.350000000002
 20
1514.430453937977
 30
0.0
 11
0.000000000000002
 21
2.75
 31
0.0
210
0.0
220
0.0
230
1.0
 40
0.3090909090909173
 41
8.642423857720187
 42
9.424777960769379
  0
LINE
  5
17BB0
330
1A
100
AcDbEntity
  8
ZISSEN1
 48
0.4
100
AcDbLine
 10
-1370.600000000002
 20
1511.680453937977
 30
0.0
 11
-1371.350000000002
 21
1511.680453937977
 31
0.0
  0
LINE
  5
17BB5
330
1A
100
AcDbEntity
  8
ZISSEN1
100
AcDbLine
 10
-1398.0
 20
1500.0
 30
0.0
 11
-1398.0
 21
1503.0
 31
0.0
  0
LINE
  5
17BB6
330
1A
100
AcDbEntity
  8
ZISSEN1
100
AcDbLine
 10
-1374.85
 20
1500.0
 30
0.0
 11
-1374.85
 21
1503.0
 31
0.0
  0
LINE
  5
17BB7
330
1A
100
AcDbEntity
  8
ZISSEN1
100
AcDbLine
 10
-1379.35
 20
1500.0
 30
0.0
 11
-1379.35
 21
1503.0
 31
0.0
  0
LINE
  5
17BB8
330
1A
100
AcDbEntity
  8
ZISSEN1
100
AcDbLine
 10
-1360.1
 20
1500.0
 30
0.0
 11
-1360.1
 21
1503.0
 31
0.0
  0
LINE
  5
17BB9
330
1A
100
AcDbEntity
  8
ZISSEN1
100
AcDbLine
 10
-1361.6
 20
1500.0
 30
0.0
 11
-1361.6
 21
1503.0
 31
0.0
  0
LINE
  5
17BBA
330
1A
100
AcDbEntity
  8
ZISSEN1
  6
BYBLOCK
100
AcDbLine
 10
-1393.600000000001
 20
1579.499999999999
 30
0.0
 11
-1393.600000000001
 21
1582.499999999999
 31
0.0
  0
LINE
  5
17BBC
330
1A
100
AcDbEntity
  8
ZISSEN1
  6
BYBLOCK
100
AcDbLine
 10
-1358.1
 20
1582.499999999998
 30
0.0
 11
-1355.1
 21
1582.499999999998
 31
0.0
  0
LINE
  5
17BBD
330
1A
100
AcDbEntity
  8
ZISSEN1
  6
BYBLOCK
100
AcDbLine
 10
-1361.1
 20
1581.499999999998
 30
0.0
 11
-1358.1
 21
1581.499999999998
 31
0.0
  0
LINE
  5
17BBE
330
1A
100
AcDbEntity
  8
ZISSEN1
  6
BYBLOCK
100
AcDbLine
 10
-1358.1
 20
1581.499999999998
 30
0.0
 11
-1355.1
 21
1581.499999999998
 31
0.0
  0
ARC
  5
17BBF
330
1A
100
AcDbEntity
  8
ZISSEN1
  6
BYBLOCK
100
AcDbCircle
 10
-1358.100000000003
 20
1503.000000000002
 30
0.0
 40
3.000000000002046
100
AcDbArc
 50
270.0000000000521
 51
359.9999999999608
  0
LINE
  5
17BC0
330
1A
100
AcDbEntity
  8
ZISSEN1
  6
BYBLOCK
100
AcDbLine
 10
-1358.3
 20
1503.0
 30
0.0
 11
-1358.158578643762
 21
1503.058578643762
 31
0.0
  0
LINE
  5
17BC1
330
1A
100
AcDbEntity
  8
ZISSEN1
  6
BYBLOCK
100
AcDbLine
 10
-1358.158578643762
 20
1503.058578643762
 30
0.0
 11
-1358.1
 21
1503.2
 31
0.0
  0
LINE
  5
17BC2
330
1A
100
AcDbEntity
  8
ZISSEN1
  6
BYBLOCK
100
AcDbLine
 10
-1399.200000000001
 20
1506.0
 30
0.0
 11
-1400.000000000001
 21
1506.0
 31
0.0
  0
LINE
  5
17BC3
330
1A
100
AcDbEntity
  8
ZISSEN1
100
AcDbLine
 10
-1400.000000000001
 20
1506.0
 30
0.0
 11
-1400.000000000001
 21
1582.3
 31
0.0
  0
LINE
  5
17BC4
330
1A
100
AcDbEntity
  8
ZISSEN1
100
AcDbLine
 10
-1379.524898126238
 20
1582.499999999998
 30
0.0
 11
-1399.200000000001
 21
1582.499999999999
 31
0.0
  0
LINE
  5
17BC5
330
1A
100
AcDbEntity
  8
ZISSEN1
100
AcDbLine
 10
-1399.200000000001
 20
1579.5
 30
0.0
 11
-1399.200000000001
 21
1513.0
 31
0.0
  0
LINE
  5
17BC6
330
1A
100
AcDbEntity
  8
ZISSEN1
100
AcDbLine
 10
-1369.000000000001
 20
1582.499999999999
 30
0.0
 11
-1355.600000000002
 21
1582.499999999999
 31
0.0
  0
LINE
  5
17BC7
330
1A
100
AcDbEntity
  8
ZISSEN1
100
AcDbLine
 10
-1355.600000000002
 20
1582.499999999999
 30
0.0
 11
-1355.600000000002
 21
1583.299999999999
 31
0.0
  0
LINE
  5
17BC8
330
1A
100
AcDbEntity
  8
ZISSEN1
100
AcDbLine
 10
-1369.0
 20
1583.3
 30
0.0
 11
-1355.600000000003
 21
1583.3
 31
0.0
  0
LINE
  5
17BC9
330
1A
100
AcDbEntity
  8
ZISSEN1
100
AcDbLine
 10
-1399.000000000001
 20
1583.299999999999
 30
0.0
 11
-1379.524898126238
 21
1583.3
 31
0.0
  0
LINE
  5
17BCA
330
1A
100
AcDbEntity
  8
ZISSEN1
100
AcDbLine
 10
-1600.0
 20
1675.899999999999
 30
0.0
 11
-1598.0
 21
1677.899999999999
 31
0.0
  0
LINE
  5
17BCB
330
1A
100
AcDbEntity
  8
ZISSEN1
100
AcDbLine
 10
-1598.0
 20
1677.899999999999
 30
0.0
 11
-1589.999999999997
 21
1677.899999999999
 31
0.0
  0
DIMENSION
  5
17BCD
330
1A
100
AcDbEntity
  8
SUNPOU
100
AcDbDimension
  2
*D4
 10
-1344.319394923495
 20
1587.499999999997
 30
0.0
 11
-1346.694394923495
 21
1543.749999999998
 31
0.0
 70
    32
  3
ISO-25
100
AcDbAlignedDimension
 13
-1358.100000000003
 23
1500.0
 33
0.0
 14
-1393.600000000001
 24
1587.499999999997
 34
0.0
 50
90.0
100
AcDbRotatedDimension
1001
ACAD
1000
DSTYLE
1002
{
1070
   340
1005
10
1070
   140
1040
3.5
1002
}
  0
LINE
  5
17BD0
330
1A
100
AcDbEntity
  8
ZISSEN1
  6
DASHEDX2
100
AcDbLine
 10
-1439.999999034625
 20
1580.499999999999
 30
0.0
 11
-1440.199999999999
 21
1580.700000965372
 31
0.0
  0
LINE
  5
17BD7
330
1A
100
AcDbEntity
  8
ZISSEN1
100
AcDbLine
 10
-1586.5
 20
1583.999999999999
 30
0.0
 11
-1586.5
 21
1583.299999999999
 31
0.0
  0
LINE
  5
17BD8
330
1A
100
AcDbEntity
  8
ZISSEN1
100
AcDbLine
 10
-1452.5
 20
1584.000000001737
 30
0.0
 11
-1452.5
 21
1583.300000001737
 31
0.0
  0
LINE
  5
17BD9
330
1A
100
AcDbEntity
  8
ZISSEN1
100
AcDbLine
 10
-1452.5
 20
1583.299999999999
 30
0.0
 11
-1452.5
 21
1584.000000002368
 31
0.0
  0
LINE
  5
17BE5
330
1A
100
AcDbEntity
  8
ZISSEN1
100
AcDbLine
 10
-1654.4
 20
1511.499999999999
 30
0.0
 11
-1654.399999999998
 21
1513.003487278959
 31
0.0
  0
LINE
  5
17BE6
330
1A
100
AcDbEntity
  8
ZISSEN1
100
AcDbLine
 10
-1654.4
 20
1512.499999999999
 30
0.0
 11
-1654.500000000002
 21
1512.499999999999
 31
0.0
  0
LINE
  5
17BE7
330
1A
100
AcDbEntity
  8
ZISSEN1
100
AcDbLine
 10
-1629.800000000002
 20
1508.999999999999
 30
0.0
 11
-1631.399999999999
 21
1508.999999999999
 31
0.0
  0
LINE
  5
17BE8
330
1A
100
AcDbEntity
  8
ZISSEN1
100
AcDbLine
 10
-1662.0
 20
1512.999999999999
 30
0.0
 11
-1663.600000000003
 21
1512.999999999999
 31
0.0
  0
LINE
  5
17BE9
330
1A
100
AcDbEntity
  8
ZISSEN1
100
AcDbLine
 10
-1361.400000000001
 20
1512.999999999999
 30
0.0
 11
-1363.000000000001
 21
1512.999999999999
 31
0.0
  0
LINE
  5
17BEA
330
1A
100
AcDbEntity
  8
ZISSEN1
100
AcDbLine
 10
-1660.000000000001
 20
1517.384999999999
 30
0.0
 11
-1661.000000000002
 21
1517.384999999999
 31
0.0
  0
LINE
  5
17BEB
330
1A
100
AcDbEntity
  8
ZISSEN1
100
AcDbLine
 10
-1660.000000000001
 20
1514.499999999999
 30
0.0
 11
-1661.000000000002
 21
1514.499999999999
 31
0.0
  0
LINE
  5
17BED
330
1A
100
AcDbEntity
  8
ZISSEN1
100
AcDbLine
 10
-1578.979999999997
 20
1667.398378323754
 30
0.0
 11
-1578.979792887849
 21
1657.39918391668
 31
0.0
  0
LINE
  5
17BEE
330
1A
100
AcDbEntity
  8
ZISSEN1
100
AcDbLine
 10
-1503.479999999997
 20
1667.399999999999
 30
0.0
 11
-1503.479999999997
 21
1657.399999999996
 31
0.0
  0
LINE
  5
17C17
330
1A
100
AcDbEntity
  8
ZISSEN1
100
AcDbLine
 10
-1370.499999999999
 20
1513.0
 30
0.0
 11
-1370.499999999999
 21
1503.0
 31
0.0
  0
ARC
  5
17C22
330
1A
100
AcDbEntity
  8
ZISSEN1
  6
BYBLOCK
100
AcDbCircle
 10
-1440.037638496735
 20
1638.837638496738
 30
0.0
 40
0.8532288725551467
100
AcDbArc
 50
259.0302515055351
 51
10.96974849454408
  0
LINE
  5
17C97
330
1A
100
AcDbEntity
  8
ZISSEN1
  6
BYBLOCK
100
AcDbLine
 10
-1654.500000000002
 20
1513.0
 30
0.0
 11
-1654.500000000002
 21
1503.0
 31
0.0
  0
LINE
  5
17CC1
330
1A
100
AcDbEntity
  8
ZISSEN1
100
AcDbLine
 10
-1589.647150221866
 20
1682.899999999999
 30
0.0
 11
-1583.347150221867
 21
1682.899999999999
 31
0.0
  0
LINE
  5
17CC5
330
1A
100
AcDbEntity
  8
ZISSEN1
100
AcDbLine
 10
-1583.347150221867
 20
1682.899999999999
 30
0.0
 11
-1583.347150221867
 21
1684.07
 31
0.0
  0
ELLIPSE
  5
17CC6
330
1A
100
AcDbEntity
  8
ZISSEN1
100
AcDbEllipse
 10
-1586.497150221866
 20
1684.07
 30
0.0
 11
-3.150046866924351
 21
0.0042443339574968
 31
0.0
210
0.0
220
0.0
230
0.9999999999999998
 40
0.2331831804059615
 41
3.147370825759074
 42
6.288963479348868
  0
LINE
  5
17CC7
330
1A
100
AcDbEntity
  8
ZISSEN1
100
AcDbLine
 10
-1589.647150221866
 20
1682.899999999999
 30
0.0
 11
-1589.647150221866
 21
1684.078026981506
 31
0.0
  0
ELLIPSE
  5
17CC8
330
1A
100
AcDbEntity
  8
ZISSEN1
100
AcDbEllipse
 10
-1519.999999999997
 20
1684.07
 30
0.0
 11
-3.150046866924351
 21
0.0042443339574968
 31
0.0
210
0.0
220
0.0
230
0.9999999999999998
 40
0.2331831804059615
 41
3.147370825759074
 42
6.288963479348868
  0
LINE
  5
17CC9
330
1A
100
AcDbEntity
  8
ZISSEN1
100
AcDbLine
 10
-1523.149999999996
 20
1682.899999999999
 30
0.0
 11
-1523.149999999996
 21
1684.078026981506
 31
0.0
  0
LINE
  5
17CCA
330
1A
100
AcDbEntity
  8
ZISSEN1
100
AcDbLine
 10
-1516.849999999997
 20
1682.899999999999
 30
0.0
 11
-1516.849999999997
 21
1684.07
 31
0.0
  0
LINE
  5
17CCE
330
1A
100
AcDbEntity
  8
ZISSEN1
100
AcDbLine
 10
-1523.149999999996
 20
1682.899999999999
 30
0.0
 11
-1516.849999999997
 21
1682.899999999999
 31
0.0
  0
LINE
  5
17CD2
330
1A
100
AcDbEntity
  8
ZISSEN1
100
AcDbLine
 10
-1355.100000000001
 20
1507.347140435357
 30
0.0
 11
-1353.930000000001
 21
1507.347140435357
 31
0.0
  0
ELLIPSE
  5
17CD3
330
1A
100
AcDbEntity
  8
ZISSEN1
100
AcDbEllipse
 10
-1353.93
 20
1510.497140435357
 30
0.0
 11
0.0042443339574974
 21
3.150046866924351
 31
0.0
210
0.0
220
0.0
230
0.9999999999999998
 40
0.2331831804059615
 41
3.147370825759074
 42
6.288963479348868
  0
LINE
  5
17CD4
330
1A
100
AcDbEntity
  8
ZISSEN1
100
AcDbLine
 10
-1355.100000000001
 20
1513.647140435356
 30
0.0
 11
-1353.921973018495
 21
1513.647140435356
 31
0.0
  0
LINE
  5
17CD5
330
1A
100
AcDbEntity
  8
ZISSEN1
100
AcDbLine
 10
-1355.100000000001
 20
1513.647140435356
 30
0.0
 11
-1355.100000000001
 21
1507.347140435357
 31
0.0
  0
ELLIPSE
  5
17CD6
330
1A
100
AcDbEntity
  8
ZISSEN1
100
AcDbEllipse
 10
-1671.070000000002
 20
1510.495952912735
 30
0.0
 11
-0.0042443339574978
 21
-3.150046866924351
 31
0.0
210
0.0
220
0.0
230
0.9999999999999998
 40
0.2331831804059615
 41
3.147370825759074
 42
6.288963479348868
  0
LINE
  5
17CD7
330
1A
100
AcDbEntity
  8
ZISSEN1
100
AcDbLine
 10
-1669.900000000002
 20
1507.345952912735
 30
0.0
 11
-1669.900000000002
 21
1513.645952912734
 31
0.0
  0
LINE
  5
17CD8
330
1A
100
AcDbEntity
  8
ZISSEN1
100
AcDbLine
 10
-1669.900000000002
 20
1507.345952912735
 30
0.0
 11
-1671.078026981508
 21
1507.345952912735
 31
0.0
  0
LINE
  5
17CD9
330
1A
100
AcDbEntity
  8
ZISSEN1
100
AcDbLine
 10
-1669.900000000002
 20
1513.645952912734
 30
0.0
 11
-1671.070000000002
 21
1513.645952912734
 31
0.0
  0
ELLIPSE
  5
17CDD
330
1A
100
AcDbEntity
  8
ZISSEN1
100
AcDbEllipse
 10
-1671.070000000002
 20
1574.896261927141
 30
0.0
 11
-0.0042443339574978
 21
-3.150046866924351
 31
0.0
210
0.0
220
0.0
230
0.9999999999999998
 40
0.2331831804059615
 41
3.147370825759074
 42
6.288963479348868
  0
LINE
  5
17CE1
330
1A
100
AcDbEntity
  8
ZISSEN1
100
AcDbLine
 10
-1669.900000000002
 20
1578.04626192714
 30
0.0
 11
-1671.070000000002
 21
1578.04626192714
 31
0.0
  0
LINE
  5
17CE2
330
1A
100
AcDbEntity
  8
ZISSEN1
100
AcDbLine
 10
-1669.900000000002
 20
1571.746261927141
 30
0.0
 11
-1671.078026981508
 21
1571.746261927141
 31
0.0
  0
LINE
  5
17CE3
330
1A
100
AcDbEntity
  8
ZISSEN1
100
AcDbLine
 10
-1669.900000000002
 20
1571.746261927141
 30
0.0
 11
-1669.900000000002
 21
1578.04626192714
 31
0.0
  0
ELLIPSE
  5
17CE4
330
1A
100
AcDbEntity
  8
ZISSEN1
100
AcDbEllipse
 10
-1510.200021393996
 20
1684.199999999999
 30
0.0
 11
-3.0
 21
0.0
 31
0.0
210
0.0
220
0.0
230
1.0
 40
0.2333333333331874
 41
3.141592653589793
 42
4.879837059604381
  0
LINE
  5
17CE5
330
1A
100
AcDbEntity
  8
ZISSEN1
100
AcDbLine
 10
-1507.200021393996
 20
1682.899999999999
 30
0.0
 11
-1507.200021393996
 21
1684.199999999999
 31
0.0
  0
ELLIPSE
  5
17CE6
330
1A
100
AcDbEntity
  8
ZISSEN1
100
AcDbEllipse
 10
-1585.347150221867
 20
1684.199999999999
 30
0.0
 11
-3.0
 21
0.0
 31
0.0
210
0.0
220
0.0
230
1.0
 40
0.2333333333331874
 41
3.141592653589793
 42
5.256132382147308
  0
LINE
  5
17CE7
330
1A
100
AcDbEntity
  8
ZISSEN1
100
AcDbLine
 10
-1582.347150221867
 20
1682.899999999999
 30
0.0
 11
-1582.347150221867
 21
1684.199999999999
 31
0.0
  0
ELLIPSE
  5
17CF2
330
1A
100
AcDbEntity
  8
ZISSEN1
100
AcDbEllipse
 10
-1671.070000000002
 20
1518.5
 30
0.0
 11
-0.0042443339574978
 21
-3.150046866924351
 31
0.0
210
0.0
220
0.0
230
0.9999999999999998
 40
0.2331831804059615
 41
3.147370825759074
 42
6.288963479348868
  0
LINE
  5
17CF6
330
1A
100
AcDbEntity
  8
ZISSEN1
100
AcDbLine
 10
-1669.900000000002
 20
1521.649999999999
 30
0.0
 11
-1671.070000000002
 21
1521.649999999999
 31
0.0
  0
LINE
  5
17CF7
330
1A
100
AcDbEntity
  8
ZISSEN1
100
AcDbLine
 10
-1669.900000000002
 20
1515.35
 30
0.0
 11
-1671.078026981508
 21
1515.35
 31
0.0
  0
LINE
  5
17CF8
330
1A
100
AcDbEntity
  8
ZISSEN1
100
AcDbLine
 10
-1669.900000000002
 20
1515.35
 30
0.0
 11
-1669.900000000002
 21
1521.649999999999
 31
0.0
  0
LINE
  5
17CF9
330
1A
100
AcDbEntity
  8
ZISSEN1
100
AcDbLine
 10
-1355.100000000001
 20
1521.648293397499
 30
0.0
 11
-1353.921973018495
 21
1521.648293397499
 31
0.0
  0
LINE
  5
17CFA
330
1A
100
AcDbEntity
  8
ZISSEN1
100
AcDbLine
 10
-1355.100000000001
 20
1521.648293397499
 30
0.0
 11
-1355.100000000001
 21
1515.348293397499
 31
0.0
  0
ELLIPSE
  5
17CFB
330
1A
100
AcDbEntity
  8
ZISSEN1
100
AcDbEllipse
 10
-1353.93
 20
1518.498293397499
 30
0.0
 11
0.0042443339574974
 21
3.150046866924351
 31
0.0
210
0.0
220
0.0
230
0.9999999999999998
 40
0.2331831804059615
 41
3.147370825759074
 42
6.288963479348868
  0
LINE
  5
17CFC
330
1A
100
AcDbEntity
  8
ZISSEN1
100
AcDbLine
 10
-1355.100000000001
 20
1515.348293397499
 30
0.0
 11
-1353.930000000001
 21
1515.348293397499
 31
0.0
  0
LINE
  5
17D00
330
1A
100
AcDbEntity
  8
ZISSEN1
  6
BYBLOCK
100
AcDbLine
 10
-1625.8
 20
1513.003487278959
 30
0.0
 11
-1625.8
 21
1506.0
 31
0.0
  0
LINE
  5
17D01
330
1A
100
AcDbEntity
  8
ZISSEN1
  6
BYBLOCK
100
AcDbLine
 10
-1625.800000000002
 20
1582.499999999999
 30
0.0
 11
-1625.8
 21
1579.5
 31
0.0
  0
LINE
  5
17D02
330
1A
100
AcDbEntity
  8
ZISSEN1
  6
BYBLOCK
100
AcDbLine
 10
-1439.999997738838
 20
1513.0
 30
0.0
 11
-1439.999999999999
 21
1503.0
 31
0.0
  0
LINE
  5
17D03
330
1A
100
AcDbEntity
  8
ZISSEN1
100
AcDbLine
 10
-1440.199999999999
 20
1583.299999999999
 30
0.0
 11
-1440.199999999999
 21
1579.499999999999
 31
0.0
  0
LINE
  5
17D04
330
1A
100
AcDbEntity
  8
ZISSEN1
100
AcDbLine
 10
-1440.199999999999
 20
1513.0
 30
0.0
 11
-1440.199999999999
 21
1507.0
 31
0.0
  0
LINE
  5
17D1A
330
1A
100
AcDbEntity
  8
ZISSEN1
  6
BYBLOCK
100
AcDbLine
 10
-1546.90450509728
 20
1666.899999999999
 30
0.0
 11
-1545.60450509728
 21
1666.899999999999
 31
0.0
  0
LINE
  5
17D1B
330
1A
100
AcDbEntity
  8
ZISSEN1
  6
BYBLOCK
100
AcDbLine
 10
-1545.60450509728
 20
1666.899999999999
 30
0.0
 11
-1545.60450509728
 21
1667.399999999999
 31
0.0
  0
LINE
  5
17D1C
330
1A
100
AcDbEntity
  8
ZISSEN1
  6
BYBLOCK
100
AcDbLine
 10
-1546.90450509728
 20
1666.899999999999
 30
0.0
 11
-1546.90450509728
 21
1667.399999999999
 31
0.0
  0
LINE
  5
17D1D
330
1A
100
AcDbEntity
  8
ZISSEN1
  6
BYBLOCK
100
AcDbLine
 10
-1546.90450509728
 20
1667.399999999999
 30
0.0
 11
-1545.60450509728
 21
1667.399999999999
 31
0.0
  0
LINE
  5
17D1E
330
1A
100
AcDbEntity
  8
ZISSEN1
  6
BYBLOCK
100
AcDbLine
 10
-1546.45450509728
 20
1666.899999999999
 30
0.0
 11
-1546.45450509728
 21
1665.899999999999
 31
0.0
  0
LINE
  5
17D1F
330
1A
100
AcDbEntity
  8
ZISSEN1
  6
BYBLOCK
100
AcDbLine
 10
-1546.05450509728
 20
1665.899999999999
 30
0.0
 11
-1546.05450509728
 21
1666.899999999999
 31
0.0
  0
LINE
  5
17D20
330
1A
100
AcDbEntity
  8
ZISSEN1
  6
BYBLOCK
100
AcDbLine
 10
-1546.90450509728
 20
1665.899999999999
 30
0.0
 11
-1545.60450509728
 21
1665.899999999999
 31
0.0
  0
LINE
  5
17D21
330
1A
100
AcDbEntity
  8
ZISSEN1
  6
BYBLOCK
100
AcDbLine
 10
-1546.90450509728
 20
1665.399999999999
 30
0.0
 11
-1546.90450509728
 21
1665.899999999999
 31
0.0
  0
LINE
  5
17D22
330
1A
100
AcDbEntity
  8
ZISSEN1
  6
BYBLOCK
100
AcDbLine
 10
-1545.60450509728
 20
1665.399999999999
 30
0.0
 11
-1545.60450509728
 21
1665.899999999999
 31
0.0
  0
LINE
  5
17D23
330
1A
100
AcDbEntity
  8
ZISSEN1
  6
BYBLOCK
100
AcDbLine
 10
-1546.90450509728
 20
1665.399999999999
 30
0.0
 11
-1545.60450509728
 21
1665.399999999999
 31
0.0
  0
LINE
  5
17D24
330
1A
100
AcDbEntity
  8
ZISSEN1
  6
BYBLOCK
100
AcDbLine
 10
-1471.900021393997
 20
1666.899999999999
 30
0.0
 11
-1470.600021393996
 21
1666.899999999999
 31
0.0
  0
LINE
  5
17D25
330
1A
100
AcDbEntity
  8
ZISSEN1
  6
BYBLOCK
100
AcDbLine
 10
-1470.600021393996
 20
1666.899999999999
 30
0.0
 11
-1470.600021393996
 21
1667.399999999999
 31
0.0
  0
LINE
  5
17D26
330
1A
100
AcDbEntity
  8
ZISSEN1
  6
BYBLOCK
100
AcDbLine
 10
-1471.900021393997
 20
1666.899999999999
 30
0.0
 11
-1471.900021393997
 21
1667.399999999999
 31
0.0
  0
LINE
  5
17D27
330
1A
100
AcDbEntity
  8
ZISSEN1
  6
BYBLOCK
100
AcDbLine
 10
-1471.900021393997
 20
1667.399999999999
 30
0.0
 11
-1470.600021393996
 21
1667.399999999999
 31
0.0
  0
LINE
  5
17D28
330
1A
100
AcDbEntity
  8
ZISSEN1
  6
BYBLOCK
100
AcDbLine
 10
-1471.450021393996
 20
1666.899999999999
 30
0.0
 11
-1471.450021393996
 21
1665.899999999999
 31
0.0
  0
LINE
  5
17D29
330
1A
100
AcDbEntity
  8
ZISSEN1
  6
BYBLOCK
100
AcDbLine
 10
-1471.050021393996
 20
1665.899999999999
 30
0.0
 11
-1471.050021393996
 21
1666.899999999999
 31
0.0
  0
LINE
  5
17D2A
330
1A
100
AcDbEntity
  8
ZISSEN1
  6
BYBLOCK
100
AcDbLine
 10
-1471.900021393997
 20
1665.899999999999
 30
0.0
 11
-1470.600021393996
 21
1665.899999999999
 31
0.0
  0
LINE
  5
17D2B
330
1A
100
AcDbEntity
  8
ZISSEN1
  6
BYBLOCK
100
AcDbLine
 10
-1471.900021393997
 20
1665.399999999999
 30
0.0
 11
-1471.900021393997
 21
1665.899999999999
 31
0.0
  0
LINE
  5
17D2C
330
1A
100
AcDbEntity
  8
ZISSEN1
  6
BYBLOCK
100
AcDbLine
 10
-1470.600021393996
 20
1665.399999999999
 30
0.0
 11
-1470.600021393996
 21
1665.899999999999
 31
0.0
  0
LINE
  5
17D2D
330
1A
100
AcDbEntity
  8
ZISSEN1
  6
BYBLOCK
100
AcDbLine
 10
-1471.900021393997
 20
1665.399999999999
 30
0.0
 11
-1470.600021393996
 21
1665.399999999999
 31
0.0
  0
LINE
  5
17D2E
330
1A
100
AcDbEntity
  8
ZISSEN1
100
AcDbLine
 10
-1539.499999999999
 20
1506.000001124037
 30
0.0
 11
-1441.199999999999
 21
1506.0
 31
0.0
  0
LINE
  5
17D2F
330
1A
100
AcDbEntity
  8
ZISSEN1
100
AcDbLine
 10
-1440.49998195253
 20
1586.699998674582
 30
0.0
 11
-1449.59998195253
 21
1586.699998674582
 31
0.0
  0
LINE
  5
17D30
330
1A
100
AcDbEntity
  8
ZISSEN1
  6
BYBLOCK
100
AcDbLine
 10
-1539.600000167033
 20
1657.399173555976
 30
0.0
 11
-1539.600000167033
 21
1671.499999999999
 31
0.0
  0
LINE
  5
17D31
330
1A
100
AcDbEntity
  8
ZISSEN1
  6
BYBLOCK
100
AcDbLine
 10
-1579.500000167033
 20
1671.499999999999
 30
0.0
 11
-1579.500000167033
 21
1657.399173555976
 31
0.0
  0
LINE
  5
17D32
330
1A
100
AcDbEntity
  8
ZISSEN1
  6
BYBLOCK
100
AcDbLine
 10
-1439.999999999997
 20
1672.999999999999
 30
0.0
 11
-1439.999999999997
 21
1638.799999999999
 31
0.0
  0
LINE
  5
17D33
330
1A
100
AcDbEntity
  8
ZISSEN1
  6
BYBLOCK
100
AcDbLine
 10
-1589.999999999997
 20
1673.0
 30
0.0
 11
-1589.999999999997
 21
1638.799999999999
 31
0.0
  0
LINE
  5
17D34
330
1A
100
AcDbEntity
  8
ZISSEN1
  6
BYBLOCK
100
AcDbLine
 10
-1590.8
 20
1638.999999999981
 30
0.0
 11
-1590.799999999997
 21
1672.999999999999
 31
0.0
  0
LINE
  5
17D35
330
1A
100
AcDbEntity
  8
ZISSEN1
  6
BYBLOCK
100
AcDbLine
 10
-1450.599999999997
 20
1667.199999999999
 30
0.0
 11
-1450.599999999997
 21
1656.499999999999
 31
0.0
  0
LINE
  5
17D36
330
1A
100
AcDbEntity
  8
ZISSEN1
  6
BYBLOCK
100
AcDbLine
 10
-1439.199999999996
 20
1639.0
 30
0.0
 11
-1439.204999999997
 21
1672.999999999999
 31
0.0
  0
LINE
  5
17D37
330
1A
100
AcDbEntity
  8
ZISSEN1
  6
BYBLOCK
100
AcDbLine
 10
-1589.799999999997
 20
1666.199999999999
 30
0.0
 11
-1588.799999999997
 21
1667.199999999999
 31
0.0
  0
LINE
  5
17D38
330
1A
100
AcDbEntity
  8
ZISSEN1
  6
BYBLOCK
100
AcDbLine
 10
-1464.598563027126
 20
1671.499999999999
 30
0.0
 11
-1464.598563027126
 21
1657.399999999999
 31
0.0
  0
LINE
  5
17D39
330
1A
100
AcDbEntity
  8
ZISSEN1
  6
BYBLOCK
100
AcDbLine
 10
-1504.496701256677
 20
1657.399999999999
 30
0.0
 11
-1504.496701256757
 21
1671.499999999999
 31
0.0
  0
LINE
  5
17D3A
330
1A
100
AcDbEntity
  8
ZISSEN1
  6
BYBLOCK
100
AcDbLine
 10
-1455.499999999996
 20
1654.099999999999
 30
0.0
 11
-1522.599999999996
 21
1654.099999999999
 31
0.0
  0
LINE
  5
17D3B
330
1A
100
AcDbEntity
  8
ZISSEN1
  6
BYBLOCK
100
AcDbLine
 10
-1455.499999999996
 20
1643.899999999998
 30
0.0
 11
-1522.599999999996
 21
1643.899999999998
 31
0.0
  0
LINE
  5
17D3C
330
1A
100
AcDbEntity
  8
ZISSEN1
100
AcDbLine
 10
-1541.399999999998
 20
1638.799999999999
 30
0.0
 11
-1524.099999999997
 21
1638.799999999999
 31
0.0
  0
LINE
  5
17D40
330
1A
100
AcDbEntity
  8
ZISSEN1
  6
BYBLOCK
100
AcDbLine
 10
-1589.799999999996
 20
1638.0
 30
0.0
 11
-1589.799999999997
 21
1665.949999999999
 31
0.0
  0
ARC
  5
17D48
330
1A
100
AcDbEntity
  8
ZISSEN1
  6
BYBLOCK
100
AcDbCircle
 10
-1589.962361503256
 20
1638.837638496738
 30
0.0
 40
0.8532288725551467
100
AcDbArc
 50
169.0302515054559
 51
280.9697484944648
  0
LINE
  5
17D49
330
1A
100
AcDbEntity
  8
ZISSEN1
100
AcDbLine
 10
-1589.799999999996
 20
1638.799999999999
 30
0.0
 11
-1589.999999999997
 21
1638.799999999999
 31
0.0
  0
LINE
  5
17D4B
330
1A
100
AcDbEntity
  8
ZISSEN1
  6
BYBLOCK
100
AcDbLine
 10
-1579.500000167033
 20
1657.399173555976
 30
0.0
 11
-1539.600000167033
 21
1657.399173555976
 31
0.0
  0
LINE
  5
17D4C
330
1A
100
AcDbEntity
  8
ZISSEN1
100
AcDbLine
 10
-1524.099999999997
 20
1637.999999999999
 30
0.0
 11
-1524.099999999997
 21
1654.1
 31
0.0
  0
LINE
  5
17D4D
330
1A
100
AcDbEntity
  8
ZISSEN1
  6
BYBLOCK
100
AcDbLine
 10
-1522.599999999996
 20
1643.899999999999
 30
0.0
 11
-1522.599999999996
 21
1654.099999999999
 31
0.0
  0
LINE
  5
17D4E
330
1A
100
AcDbEntity
  8
ZISSEN1
  6
BYBLOCK
100
AcDbLine
 10
-1547.195691931588
 20
1644.399999999999
 30
0.0
 11
-1541.399999999997
 21
1644.399999999999
 31
0.0
  0
LINE
  5
17D4F
330
1A
100
AcDbEntity
  8
ZISSEN1
100
AcDbLine
 10
-1547.195691931588
 20
1640.899999999999
 30
0.0
 11
-1547.195691931588
 21
1644.399999999999
 31
0.0
  0
LINE
  5
17D51
330
1A
100
AcDbEntity
  8
ZISSEN1
100
AcDbLine
 10
-1541.399999999997
 20
1651.899999999999
 30
0.0
 11
-1541.399999999997
 21
1654.1
 31
0.0
  0
LINE
  5
17D52
330
1A
100
AcDbEntity
  8
ZISSEN1
100
AcDbLine
 10
-1524.099999999997
 20
1654.1
 30
0.0
 11
-1541.399999999997
 21
1654.1
 31
0.0
  0
LINE
  5
17D53
330
1A
100
AcDbEntity
  8
ZISSEN1
  6
BYBLOCK
100
AcDbLine
 10
-1440.199999999997
 20
1655.5
 30
0.0
 11
-1440.199999999996
 21
1638.0
 31
0.0
  0
LINE
  5
17D5F
330
1A
100
AcDbEntity
  8
ZISSEN1
100
AcDbLine
 10
-1440.199999999997
 20
1638.799999999999
 30
0.0
 11
-1439.999999999997
 21
1638.799999999999
 31
0.0
  0
LINE
  5
17D61
330
1A
100
AcDbEntity
  8
ZISSEN1
  6
BYBLOCK
100
AcDbLine
 10
-1464.598563027126
 20
1657.399999999999
 30
0.0
 11
-1504.496701256678
 21
1657.399999999996
 31
0.0
  0
LINE
  5
17D6A
330
1A
100
AcDbEntity
  8
ZISSEN1
  6
BYBLOCK
100
AcDbLine
 10
-1455.499999999996
 20
1654.099999999999
 30
0.0
 11
-1455.499999999996
 21
1643.899999999998
 31
0.0
  0
LINE
  5
17D6C
330
1A
100
AcDbEntity
  8
ZISSEN1
  6
BYBLOCK
100
AcDbLine
 10
-1440.199999999996
 20
1655.499999999999
 30
0.0
 11
-1441.199999999996
 21
1656.499999999999
 31
0.0
  0
LINE
  5
17D6D
330
1A
100
AcDbEntity
  8
ZISSEN1
  6
BYBLOCK
100
AcDbLine
 10
-1450.599999999997
 20
1656.499999999999
 30
0.0
 11
-1441.199999999996
 21
1656.499999999999
 31
0.0
  0
LINE
  5
17D6E
330
1A
100
AcDbEntity
  8
ZISSEN1
  6
BYBLOCK
100
AcDbLine
 10
-1538.700021393996
 20
1682.399999999999
 30
0.0
 11
-1486.300021393996
 21
1682.399999999999
 31
0.0
  0
LINE
  5
17D6F
330
1A
100
AcDbEntity
  8
ZISSEN1
  6
BYBLOCK
100
AcDbLine
 10
-1579.500000167033
 20
1671.499999999999
 30
0.0
 11
-1539.600000167033
 21
1671.499999999999
 31
0.0
  0
LINE
  5
17D70
330
1A
100
AcDbEntity
  8
ZISSEN1
  6
BYBLOCK
100
AcDbLine
 10
-1588.799999999997
 20
1682.399999999999
 30
0.0
 11
-1561.300021393996
 21
1682.399999999999
 31
0.0
  0
LINE
  5
17D71
330
1A
100
AcDbEntity
  8
ZISSEN1
  6
BYBLOCK
100
AcDbLine
 10
-1589.799999999997
 20
1681.399999999999
 30
0.0
 11
-1589.799999999997
 21
1670.199999999999
 31
0.0
  0
LINE
  5
17D72
330
1A
100
AcDbEntity
  8
ZISSEN1
  6
BYBLOCK
100
AcDbLine
 10
-1590.799999999997
 20
1672.999999999999
 30
0.0
 11
-1589.999999999997
 21
1673.0
 31
0.0
  0
LINE
  5
17D73
330
1A
100
AcDbEntity
  8
ZISSEN1
  6
BYBLOCK
100
AcDbLine
 10
-1589.799999999997
 20
1670.199999999999
 30
0.0
 11
-1588.799999999997
 21
1669.199999999999
 31
0.0
  0
LINE
  5
17D74
330
1A
100
AcDbEntity
  8
ZISSEN1
  6
BYBLOCK
100
AcDbLine
 10
-1585.999999999997
 20
1667.199999999999
 30
0.0
 11
-1588.799999999997
 21
1667.199999999999
 31
0.0
  0
LINE
  5
17D75
330
1A
100
AcDbEntity
  8
ZISSEN1
  6
BYBLOCK
100
AcDbLine
 10
-1585.999999999997
 20
1669.199999999999
 30
0.0
 11
-1585.999999999997
 21
1667.199999999999
 31
0.0
  0
LINE
  5
17D76
330
1A
100
AcDbEntity
  8
ZISSEN1
  6
BYBLOCK
100
AcDbLine
 10
-1585.999999999997
 20
1669.199999999999
 30
0.0
 11
-1588.799999999997
 21
1669.199999999999
 31
0.0
  0
LINE
  5
17D77
330
1A
100
AcDbEntity
  8
ZISSEN1
  6
BYBLOCK
100
AcDbLine
 10
-1590.799999999997
 20
1672.000000795993
 30
0.0
 11
-1589.999999999997
 21
1672.000000795993
 31
0.0
  0
LINE
  5
17D78
330
1A
100
AcDbEntity
  8
ZISSEN1
  6
BYBLOCK
100
AcDbLine
 10
-1589.799999999997
 20
1681.399999999999
 30
0.0
 11
-1588.799999999997
 21
1682.399999999999
 31
0.0
  0
LINE
  5
17D79
330
1A
100
AcDbEntity
  8
ZISSEN1
  6
BYBLOCK
100
AcDbLine
 10
-1539.700021393996
 20
1676.099999999999
 30
0.0
 11
-1539.700021393996
 21
1681.399999999999
 31
0.0
  0
LINE
  5
17D7A
330
1A
100
AcDbEntity
  8
ZISSEN1
  6
BYBLOCK
100
AcDbLine
 10
-1560.300021393996
 20
1676.099999999999
 30
0.0
 11
-1560.300021393996
 21
1681.399999999999
 31
0.0
  0
LINE
  5
17D7B
330
1A
100
AcDbEntity
  8
ZISSEN1
  6
BYBLOCK
100
AcDbLine
 10
-1539.700021393996
 20
1676.099999999999
 30
0.0
 11
-1560.300021393996
 21
1676.099999999999
 31
0.0
  0
LINE
  5
17D7C
330
1A
100
AcDbEntity
  8
ZISSEN1
  6
BYBLOCK
100
AcDbLine
 10
-1561.300021393996
 20
1682.399999999999
 30
0.0
 11
-1560.300021393996
 21
1681.399999999999
 31
0.0
  0
LINE
  5
17D7D
330
1A
100
AcDbEntity
  8
ZISSEN1
  6
BYBLOCK
100
AcDbLine
 10
-1538.700021393996
 20
1682.399999999999
 30
0.0
 11
-1539.700021393996
 21
1681.399999999999
 31
0.0
  0
LINE
  5
17D7E
330
1A
100
AcDbEntity
  8
ZISSEN1
  6
BYBLOCK
100
AcDbLine
 10
-1464.700021393996
 20
1676.099999999999
 30
0.0
 11
-1485.300021393996
 21
1676.099999999999
 31
0.0
  0
LINE
  5
17D7F
330
1A
100
AcDbEntity
  8
ZISSEN1
  6
BYBLOCK
100
AcDbLine
 10
-1504.496701256757
 20
1671.499999999999
 30
0.0
 11
-1464.598563027126
 21
1671.499999999999
 31
0.0
  0
LINE
  5
17D80
330
1A
100
AcDbEntity
  8
ZISSEN1
  6
BYBLOCK
100
AcDbLine
 10
-1485.300021393996
 20
1676.099999999999
 30
0.0
 11
-1485.300021393996
 21
1681.399999999999
 31
0.0
  0
LINE
  5
17D81
330
1A
100
AcDbEntity
  8
ZISSEN1
  6
BYBLOCK
100
AcDbLine
 10
-1486.300021393996
 20
1682.399999999999
 30
0.0
 11
-1485.300021393996
 21
1681.399999999999
 31
0.0
  0
LINE
  5
17D82
330
1A
100
AcDbEntity
  8
ZISSEN1
  6
BYBLOCK
100
AcDbLine
 10
-1464.700021393996
 20
1676.099999999999
 30
0.0
 11
-1464.700021393996
 21
1681.399999999999
 31
0.0
  0
LINE
  5
17D83
330
1A
100
AcDbEntity
  8
ZISSEN1
  6
BYBLOCK
100
AcDbLine
 10
-1439.999999999997
 20
1672.999999999999
 30
0.0
 11
-1439.204999999998
 21
1672.999999999999
 31
0.0
  0
LINE
  5
17D84
330
1A
100
AcDbEntity
  8
ZISSEN1
  6
BYBLOCK
100
AcDbLine
 10
-1439.999999999997
 20
1671.999999999998
 30
0.0
 11
-1439.204999999997
 21
1671.999999999998
 31
0.0
  0
LINE
  5
17D85
330
1A
100
AcDbEntity
  8
ZISSEN1
  6
BYBLOCK
100
AcDbLine
 10
-1450.599999999997
 20
1669.199999999999
 30
0.0
 11
-1450.599999999998
 21
1671.500000000005
 31
0.0
  0
LINE
  5
17D86
330
1A
100
AcDbEntity
  8
ZISSEN1
  6
BYBLOCK
100
AcDbLine
 10
-1453.499999999997
 20
1667.199999999999
 30
0.0
 11
-1450.599999999997
 21
1667.199999999999
 31
0.0
  0
LINE
  5
17D87
330
1A
100
AcDbEntity
  8
ZISSEN1
  6
BYBLOCK
100
AcDbLine
 10
-1453.499999999997
 20
1669.199999999999
 30
0.0
 11
-1453.499999999997
 21
1667.199999999999
 31
0.0
  0
LINE
  5
17D88
330
1A
100
AcDbEntity
  8
ZISSEN1
  6
BYBLOCK
100
AcDbLine
 10
-1453.499999999997
 20
1669.199999999999
 30
0.0
 11
-1450.599999999997
 21
1669.199999999999
 31
0.0
  0
LINE
  5
17D89
330
1A
100
AcDbEntity
  8
ZISSEN1
  6
BYBLOCK
100
AcDbLine
 10
-1463.700021393996
 20
1682.399999999999
 30
0.0
 11
-1441.199999999998
 21
1682.399999999999
 31
0.0
  0
LINE
  5
17D8A
330
1A
100
AcDbEntity
  8
ZISSEN1
  6
BYBLOCK
100
AcDbLine
 10
-1463.700021393996
 20
1682.399999999999
 30
0.0
 11
-1464.700021393996
 21
1681.399999999999
 31
0.0
  0
LINE
  5
17D8B
330
1A
100
AcDbEntity
  8
ZISSEN1
  6
BYBLOCK
100
AcDbLine
 10
-1440.199999999998
 20
1681.399999999999
 30
0.0
 11
-1441.199999999998
 21
1682.399999999999
 31
0.0
  0
LINE
  5
17D8C
330
1A
100
AcDbEntity
  8
ZISSEN1
100
AcDbLine
 10
-1541.399999999996
 20
1644.399999999999
 30
0.0
 11
-1541.399999999997
 21
1638.0
 31
0.0
  0
LINE
  5
17D90
330
1A
100
AcDbEntity
  8
ZISSEN1
100
AcDbLine
 10
-1541.399999999997
 20
1642.799999999999
 30
0.0
 11
-1524.099999999997
 21
1642.799999999999
 31
0.0
  0
DIMENSION
  5
17D91
330
1A
100
AcDbEntity
  8
SUNPOU
100
AcDbDimension
  2
*D5
 10
-1421.49764721337
 20
1658.649999999999
 30
0.0
 11
-1421.49764721337
 21
1649.524999999999
 31
0.0
 70
   160
  3
ISO-25
100
AcDbAlignedDimension
 13
-1429.999999999997
 23
1663.149999999999
 33
0.0
 14
-1429.999999999998
 24
1658.649999999999
 34
0.0
 50
90.0
100
AcDbRotatedDimension
1001
ACAD
1000
DSTYLE
1002
{
1070
   340
1005
10
1070
   140
1040
3.5
1002
}
  0
LINE
  5
17D92
330
1A
100
AcDbEntity
  8
ZISSEN1
  6
BYBLOCK
100
AcDbLine
 10
-1579.500000167033
 20
1667.399999999999
 30
0.0
 11
-1539.600000167033
 21
1667.399999999999
 31
0.0
  0
LINE
  5
17D93
330
1A
100
AcDbEntity
  8
ZISSEN1
  6
BYBLOCK
100
AcDbLine
 10
-1579.500000167033
 20
1668.999999999999
 30
0.0
 11
-1539.600000167033
 21
1668.999999999999
 31
0.0
  0
LINE
  5
17D94
330
1A
100
AcDbEntity
  8
ZISSEN1
  6
BYBLOCK
100
AcDbLine
 10
-1504.496701256754
 20
1668.999999999999
 30
0.0
 11
-1464.598563027127
 21
1668.999999999999
 31
0.0
  0
LINE
  5
17D95
330
1A
100
AcDbEntity
  8
ZISSEN1
  6
BYBLOCK
100
AcDbLine
 10
-1504.496701256735
 20
1667.399999999999
 30
0.0
 11
-1464.598563027127
 21
1667.399999999999
 31
0.0
  0
LINE
  5
17D96
330
1A
100
AcDbEntity
  8
ZISSEN1
100
AcDbLine
 10
-1585.999999999997
 20
1667.399999999999
 30
0.0
 11
-1589.499999999997
 21
1667.399999999999
 31
0.0
  0
LINE
  5
17D97
330
1A
100
AcDbEntity
  8
ZISSEN1
100
AcDbLine
 10
-1585.999999999997
 20
1668.999999999999
 30
0.0
 11
-1589.499999999998
 21
1668.999999999999
 31
0.0
  0
LINE
  5
17D98
330
1A
100
AcDbEntity
  8
ZISSEN1
 48
0.3
100
AcDbLine
 10
-1440.499999999997
 20
1667.400000000001
 30
0.0
 11
-1440.499999999997
 21
1668.999999999999
 31
0.0
  0
LINE
  5
17D99
330
1A
100
AcDbEntity
  8
ZISSEN1
100
AcDbLine
 10
-1440.499999999998
 20
1667.399999999999
 30
0.0
 11
-1453.499999999997
 21
1667.399999999999
 31
0.0
  0
LINE
  5
17D9A
330
1A
100
AcDbEntity
  8
ZISSEN1
100
AcDbLine
 10
-1440.499999999997
 20
1668.999999999999
 30
0.0
 11
-1453.499999999997
 21
1668.999999999999
 31
0.0
  0
LINE
  5
17D9B
330
1A
100
AcDbEntity
  8
ZISSEN1
100
AcDbLine
 10
-1589.499999999997
 20
1668.999999999999
 30
0.0
 11
-1589.499999999997
 21
1667.399999999999
 31
0.0
  0
LINE
  5
17D9C
330
1A
100
AcDbEntity
  8
ZISSEN1
  6
BYBLOCK
100
AcDbLine
 10
-1514.499999999997
 20
1671.499999999999
 30
0.0
 11
-1514.499999999997
 21
1656.499999999999
 31
0.0
  0
LINE
  5
17D9D
330
1A
100
AcDbEntity
  8
ZISSEN1
  6
BYBLOCK
100
AcDbLine
 10
-1525.599999999997
 20
1656.499999999999
 30
0.0
 11
-1525.599999999997
 21
1671.499999999999
 31
0.0
  0
LINE
  5
17D9E
330
1A
100
AcDbEntity
  8
ZISSEN1
  6
BYBLOCK
100
AcDbLine
 10
-1514.499999999997
 20
1656.499999999999
 30
0.0
 11
-1525.599999999997
 21
1656.499999999999
 31
0.0
  0
LINE
  5
17D9F
330
1A
100
AcDbEntity
  8
ZISSEN1
  6
BYBLOCK
100
AcDbLine
 10
-1525.599999999997
 20
1671.499999999999
 30
0.0
 11
-1514.499999999997
 21
1671.499999999999
 31
0.0
  0
DIMENSION
  5
17DB2
330
1A
100
AcDbEntity
  8
SUNPOU
100
AcDbDimension
  2
*D6
 10
-1439.20000337714
 20
1625.850494728456
 30
0.0
 11
-1515.000001688568
 21
1625.850494728456
 31
0.0
 70
   160
  3
ISO-25
100
AcDbAlignedDimension
 13
-1590.799999999996
 23
1639.0
 33
0.0
 14
-1439.20000337714
 24
1639.022626865173
 34
0.0
100
AcDbRotatedDimension
1001
ACAD
1000
DSTYLE
1002
{
1070
   340
1005
10
1070
   140
1040
3.5
1002
}
  0
LINE
  5
17DB6
330
1A
100
AcDbEntity
  8
ZISSEN1
100
AcDbLine
 10
-1560.195691931586
 20
1651.899999999999
 30
0.0
 11
-1541.399999999997
 21
1651.899999999999
 31
0.0
  0
LINE
  5
17DB7
330
1A
100
AcDbEntity
  8
ZISSEN1
100
AcDbLine
 10
-1560.195691931586
 20
1651.899999999999
 30
0.0
 11
-1560.195691931586
 21
1640.899999999999
 31
0.0
  0
LINE
  5
17DB8
330
1A
100
AcDbEntity
  8
ZISSEN1
100
AcDbLine
 10
-1560.195691931586
 20
1640.899999999999
 30
0.0
 11
-1547.195691931587
 21
1640.899999999999
 31
0.0
  0
LINE
  5
17DBB
330
1A
100
AcDbEntity
  8
ZISSEN1
100
AcDbLine
 10
-1567.504487799401
 20
1668.999999999999
 30
0.0
 11
-1568.504487799401
 21
1668.999999999999
 31
0.0
  0
LINE
  5
17DC2
330
1A
100
AcDbEntity
  8
ZISSEN1
100
AcDbLine
 10
-1363.000000000001
 20
1572.499999999998
 30
0.0
 11
-1361.399999999999
 21
1572.499999999998
 31
0.0
  0
LINE
  5
17DC3
330
1A
100
AcDbEntity
  8
ZISSEN1
100
AcDbLine
 10
-1370.600000000001
 20
1586.699999999998
 30
0.0
 11
-1378.5
 21
1586.699999999998
 31
0.0
  0
LINE
  5
17DC5
330
1A
100
AcDbEntity
  8
ZISSEN1
100
AcDbLine
 10
-1361.099999999999
 20
1572.499999999998
 30
0.0
 11
-1358.1
 21
1572.499999999998
 31
0.0
  0
LINE
  5
17DD1
330
1A
100
AcDbEntity
  8
ZISSEN1
100
AcDbLine
 10
-1518.999999999992
 20
1637.199999999997
 30
0.0
 11
-1510.999999999996
 21
1637.2
 31
0.0
  0
LINE
  5
17DD2
330
1A
100
AcDbEntity
  8
ZISSEN1
100
AcDbLine
 10
-1518.999999999994
 20
1637.999999999996
 30
0.0
 11
-1517.999999999996
 21
1638.0
 31
0.0
  0
LINE
  5
17DD3
330
1A
100
AcDbEntity
  8
ZISSEN1
100
AcDbLine
 10
-1518.999999999992
 20
1637.199999999997
 30
0.0
 11
-1518.999999999994
 21
1637.999999999996
 31
0.0
  0
LINE
  5
17DD4
330
1A
100
AcDbEntity
  8
ZISSEN1
100
AcDbLine
 10
-1510.999999999996
 20
1638.0
 30
0.0
 11
-1510.999999999996
 21
1637.2
 31
0.0
  0
LINE
  5
17DD5
330
1A
100
AcDbEntity
  8
ZISSEN1
100
AcDbLine
 10
-1517.999999999996
 20
1637.199999999997
 30
0.0
 11
-1517.999999999996
 21
1638.0
 31
0.0
  0
LINE
  5
17DD6
330
1A
100
AcDbEntity
  8
ZISSEN1
100
AcDbLine
 10
-1511.999999999996
 20
1638.0
 30
0.0
 11
-1511.999999999996
 21
1637.2
 31
0.0
  0
LINE
  5
17DD7
330
1A
100
AcDbEntity
  8
ZISSEN1
100
AcDbLine
 10
-1511.999999999996
 20
1638.0
 30
0.0
 11
-1510.999999999996
 21
1638.0
 31
0.0
  0
LINE
  5
17DD8
330
1A
100
AcDbEntity
  8
ZISSEN1
100
AcDbLine
 10
-1517.999999999996
 20
1638.0
 30
0.0
 11
-1511.999999999996
 21
1638.0
 31
0.0
  0
LINE
  5
17DD9
330
1A
100
AcDbEntity
  8
ZISSEN1
 48
0.4
100
AcDbLine
 10
-1512.249999999996
 20
1636.45
 30
0.0
 11
-1512.249999999996
 21
1637.2
 31
0.0
  0
LINE
  5
17DDA
330
1A
100
AcDbEntity
  8
ZISSEN1
 48
0.4
100
AcDbLine
 10
-1517.749999999996
 20
1636.45
 30
0.0
 11
-1517.749999999996
 21
1637.2
 31
0.0
  0
ELLIPSE
  5
17DDB
330
1A
100
AcDbEntity
  8
ZISSEN1
 48
0.4
100
AcDbEllipse
 10
-1514.999999999996
 20
1636.45
 30
0.0
 11
-2.75
 21
0.0000000000000015
 31
0.0
210
0.0
220
0.0
230
1.0
 40
0.3090909090909173
 41
6.283185307179586
 42
9.424777960769379
  0
ARC
  5
17DDC
330
1A
100
AcDbEntity
  8
ZISSEN1
100
AcDbCircle
 10
-1517.999999999997
 20
1512.499999999996
 30
0.0
 40
1.0
100
AcDbArc
 50
90.0
 51
180.0
  0
LINE
  5
17DDD
330
1A
100
AcDbEntity
  8
ZISSEN1
100
AcDbLine
 10
-1517.999999999997
 20
1513.499999999996
 30
0.0
 11
-1512.000000000001
 21
1513.499999999996
 31
0.0
  0
ARC
  5
17DDE
330
1A
100
AcDbEntity
  8
ZISSEN1
100
AcDbCircle
 10
-1512.000000000001
 20
1512.499999999996
 30
0.0
 40
1.0
100
AcDbArc
 50
0.0
 51
90.0
  0
LINE
  5
17DDF
330
1A
100
AcDbEntity
  8
ZISSEN1
100
AcDbLine
 10
-1519.000000000001
 20
1503.0
 30
0.0
 11
-1518.999999999997
 21
1512.499999999996
 31
0.0
  0
LINE
  5
17DE0
330
1A
100
AcDbEntity
  8
ZISSEN1
100
AcDbLine
 10
-1511.000000000001
 20
1512.499999999996
 30
0.0
 11
-1511.000000000001
 21
1503.0
 31
0.0
  0
LINE
  5
17DE2
330
1A
100
AcDbEntity
  8
ZISSEN1
100
AcDbLine
 10
-1519.000000000001
 20
1503.0
 30
0.0
 11
-1511.000000000001
 21
1503.0
 31
0.0
  0
CIRCLE
  5
17DE3
330
1A
100
AcDbEntity
  8
ZISSEN1
  6
BYBLOCK
100
AcDbCircle
 10
-1515.000000000001
 20
1509.499999999996
 30
0.0
 40
2.75
  0
ARC
  5
17DFA
330
1A
100
AcDbEntity
  8
ZISSEN1
100
AcDbCircle
 10
-1439.599999999997
 20
1666.899999999998
 30
0.0
 40
0.6000000000003638
100
AcDbArc
 50
179.9999999998697
 51
0.0000000001302755
  0
LINE
  5
17DFB
330
1A
100
AcDbEntity
  8
ZISSEN1
100
AcDbLine
 10
-1438.999999999997
 20
1666.899999999999
 30
0.0
 11
-1438.999999999997
 21
1672.699999999999
 31
0.0
  0
LINE
  5
17DFC
330
1A
100
AcDbEntity
  8
ZISSEN1
100
AcDbLine
 10
-1440.199999999998
 20
1672.699999999999
 30
0.0
 11
-1440.199999999998
 21
1666.899999999999
 31
0.0
  0
ARC
  5
17DFD
330
1A
100
AcDbEntity
  8
ZISSEN1
100
AcDbCircle
 10
-1439.599999999997
 20
1672.700000000001
 30
0.0
 40
0.6000000000003638
100
AcDbArc
 50
359.9999999998697
 51
180.0000000001172
  0
ARC
  5
17DFE
330
1A
100
AcDbEntity
  8
ZISSEN1
100
AcDbCircle
 10
-1590.399999999996
 20
1666.899999999998
 30
0.0
 40
0.6000000000003638
100
AcDbArc
 50
179.9999999998697
 51
0.0000000001302755
  0
LINE
  5
17DFF
330
1A
100
AcDbEntity
  8
ZISSEN1
100
AcDbLine
 10
-1589.799999999995
 20
1666.899999999999
 30
0.0
 11
-1589.799999999995
 21
1672.699999999999
 31
0.0
  0
LINE
  5
17E00
330
1A
100
AcDbEntity
  8
ZISSEN1
100
AcDbLine
 10
-1590.999999999996
 20
1672.699999999999
 30
0.0
 11
-1590.999999999996
 21
1666.899999999999
 31
0.0
  0
ARC
  5
17E01
330
1A
100
AcDbEntity
  8
ZISSEN1
100
AcDbCircle
 10
-1590.399999999996
 20
1672.700000000001
 30
0.0
 40
0.6000000000003638
100
AcDbArc
 50
359.9999999998697
 51
180.0000000001172
  0
LINE
  5
17E02
330
1A
100
AcDbEntity
  8
ZISSEN1
100
AcDbLine
 10
-1400.800000000001
 20
1513.5
 30
0.0
 11
-1400.799999999997
 21
1503.5
 31
0.0
  0
LINE
  5
17E03
330
1A
100
AcDbEntity
  8
ZISSEN1
100
AcDbLine
 10
-1400.800000000001
 20
1513.5
 30
0.0
 11
-1400.0
 21
1513.5
 31
0.0
  0
LINE
  5
17E04
330
1A
100
AcDbEntity
  8
ZISSEN1
100
AcDbLine
 10
-1400.0
 20
1513.499999999989
 30
0.0
 11
-1399.999999999998
 21
1503.800000000002
 31
0.0
  0
LINE
  5
17E05
330
1A
100
AcDbEntity
  8
ZISSEN1
100
AcDbLine
 10
-1400.299999999999
 20
1503.0
 30
0.0
 11
-1400.0
 21
1503.0
 31
0.0
  0
LINE
  5
17E06
330
1A
100
AcDbEntity
  8
ZISSEN1
100
AcDbLine
 10
-1400.799999999999
 20
1512.5
 30
0.0
 11
-1400.0
 21
1512.5
 31
0.0
  0
ARC
  5
17E07
330
1A
100
AcDbEntity
  8
ZISSEN1
100
AcDbCircle
 10
-1400.299999999997
 20
1503.5
 30
0.0
 40
0.5
100
AcDbArc
 50
180.0
 51
270.0
  0
LINE
  5
17E08
330
1A
100
AcDbEntity
  8
ZISSEN1
100
AcDbLine
 10
-1383.799999999999
 20
1503.000000000003
 30
0.0
 11
-1383.799999999997
 21
1503.800000000002
 31
0.0
  0
LINE
  5
17E09
330
1A
100
AcDbEntity
  8
ZISSEN1
100
AcDbLine
 10
-1385.500000000009
 20
1504.300000000006
 30
0.0
 11
-1385.500000000007
 21
1505.000000000003
 31
0.0
  0
LINE
  5
17E0A
330
1A
100
AcDbEntity
  8
ZISSEN1
100
AcDbLine
 10
-1385.500000000007
 20
1505.000000000003
 30
0.0
 11
-1390.100000000009
 21
1505.000000000007
 31
0.0
  0
ARC
  5
17E0B
330
1A
100
AcDbEntity
  8
ZISSEN1
100
AcDbCircle
 10
-1385.000000000009
 20
1504.300000000003
 30
0.0
 40
0.5
100
AcDbArc
 50
180.0
 51
269.9999999998957
  0
LINE
  5
17E0C
330
1A
100
AcDbEntity
  8
ZISSEN1
100
AcDbLine
 10
-1390.100000000009
 20
1504.300000000006
 30
0.0
 11
-1390.100000000009
 21
1505.000000000007
 31
0.0
  0
ARC
  5
17E0D
330
1A
100
AcDbEntity
  8
ZISSEN1
100
AcDbCircle
 10
-1390.600000000009
 20
1504.300000000006
 30
0.0
 40
0.5
100
AcDbArc
 50
269.9999999998957
 51
0.0
  0
LINE
  5
17E10
330
1A
100
AcDbEntity
  8
ZISSEN1
100
AcDbLine
 10
-1400.0
 20
1503.0
 30
0.0
 11
-1383.799999999999
 21
1503.000000000003
 31
0.0
  0
LINE
  5
17E11
330
1A
100
AcDbEntity
  8
ZISSEN1
100
AcDbLine
 10
-1383.799999999997
 20
1503.800000000002
 30
0.0
 11
-1399.999999999998
 21
1503.800000000002
 31
0.0
  0
ELLIPSE
  5
17E14
330
1A
100
AcDbEntity
  8
ZISSEN1
 48
0.4
100
AcDbEllipse
 10
-1401.549999999997
 20
1509.500000000282
 30
0.0
 11
0.000000000000001
 21
-2.75
 31
0.0
210
0.0
220
0.0
230
-1.0
 40
0.3090909090909173
 41
6.283185307179586
 42
9.424777960769379
  0
LINE
  5
17E15
330
1A
100
AcDbEntity
  8
ZISSEN1
 48
0.4
100
AcDbLine
 10
-1401.549999999997
 20
1512.250000000282
 30
0.0
 11
-1400.799999999997
 21
1512.250000000282
 31
0.0
  0
LINE
  5
17E16
330
1A
100
AcDbEntity
  8
ZISSEN1
 48
0.4
100
AcDbLine
 10
-1401.549999999997
 20
1506.750000000281
 30
0.0
 11
-1400.799999999997
 21
1506.750000000281
 31
0.0
  0
LINE
  5
17E18
330
1A
100
AcDbEntity
  8
ZISSEN1
100
AcDbLine
 10
-1624.199999999996
 20
1513.499999999998
 30
0.0
 11
-1624.199999999999
 21
1503.499999999998
 31
0.0
  0
LINE
  5
17E19
330
1A
100
AcDbEntity
  8
ZISSEN1
100
AcDbLine
 10
-1624.199999999996
 20
1513.499999999998
 30
0.0
 11
-1624.999999999997
 21
1513.499999999998
 31
0.0
  0
LINE
  5
17E1A
330
1A
100
AcDbEntity
  8
ZISSEN1
100
AcDbLine
 10
-1624.999999999997
 20
1513.499999999987
 30
0.0
 11
-1624.999999999999
 21
1503.800000000001
 31
0.0
  0
LINE
  5
17E1B
330
1A
100
AcDbEntity
  8
ZISSEN1
100
AcDbLine
 10
-1624.699999999998
 20
1502.999999999998
 30
0.0
 11
-1624.999999999997
 21
1502.999999999998
 31
0.0
  0
LINE
  5
17E1C
330
1A
100
AcDbEntity
  8
ZISSEN1
100
AcDbLine
 10
-1624.199999999998
 20
1512.499999999998
 30
0.0
 11
-1624.999999999997
 21
1512.499999999998
 31
0.0
  0
ARC
  5
17E1D
330
1A
100
AcDbEntity
  8
ZISSEN1
100
AcDbCircle
 10
-1624.699999999999
 20
1503.499999999998
 30
0.0
 40
0.5
100
AcDbArc
 50
270.0
 51
0.0
  0
LINE
  5
17E1E
330
1A
100
AcDbEntity
  8
ZISSEN1
100
AcDbLine
 10
-1641.199999999998
 20
1503.000000000001
 30
0.0
 11
-1641.199999999999
 21
1503.800000000001
 31
0.0
  0
LINE
  5
17E1F
330
1A
100
AcDbEntity
  8
ZISSEN1
100
AcDbLine
 10
-1639.499999999988
 20
1504.300000000004
 30
0.0
 11
-1639.49999999999
 21
1505.000000000001
 31
0.0
  0
LINE
  5
17E20
330
1A
100
AcDbEntity
  8
ZISSEN1
100
AcDbLine
 10
-1639.49999999999
 20
1505.000000000001
 30
0.0
 11
-1637.199999999989
 21
1505.000000000005
 31
0.0
  0
ARC
  5
17E21
330
1A
100
AcDbEntity
  8
ZISSEN1
100
AcDbCircle
 10
-1639.999999999988
 20
1504.300000000001
 30
0.0
 40
0.5
100
AcDbArc
 50
270.0000000001042
 51
0.0
  0
LINE
  5
17E22
330
1A
100
AcDbEntity
  8
ZISSEN1
100
AcDbLine
 10
-1634.899999999988
 20
1504.300000000004
 30
0.0
 11
-1634.899999999988
 21
1505.000000000005
 31
0.0
  0
ARC
  5
17E23
330
1A
100
AcDbEntity
  8
ZISSEN1
100
AcDbCircle
 10
-1634.399999999987
 20
1504.300000000004
 30
0.0
 40
0.5
100
AcDbArc
 50
180.0
 51
270.0000000001042
  0
LINE
  5
17E26
330
1A
100
AcDbEntity
  8
ZISSEN1
100
AcDbLine
 10
-1624.999999999997
 20
1502.999999999998
 30
0.0
 11
-1641.199999999998
 21
1503.000000000001
 31
0.0
  0
LINE
  5
17E27
330
1A
100
AcDbEntity
  8
ZISSEN1
100
AcDbLine
 10
-1641.199999999999
 20
1503.800000000001
 30
0.0
 11
-1624.999999999999
 21
1503.800000000001
 31
0.0
  0
LINE
  5
17E28
330
1A
100
AcDbEntity
  8
ZISSEN1
100
AcDbLine
 10
-1634.899999999988
 20
1505.000000000005
 30
0.0
 11
-1637.199999999989
 21
1505.000000000005
 31
0.0
  0
LINE
  5
17E2A
330
1A
100
AcDbEntity
  8
ZISSEN1
 48
0.4
100
AcDbLine
 10
-1623.449999999999
 20
1512.25000000028
 30
0.0
 11
-1624.199999999999
 21
1512.25000000028
 31
0.0
  0
LINE
  5
17E2B
330
1A
100
AcDbEntity
  8
ZISSEN1
 48
0.4
100
AcDbLine
 10
-1623.449999999999
 20
1506.75000000028
 30
0.0
 11
-1624.199999999999
 21
1506.75000000028
 31
0.0
  0
ELLIPSE
  5
17E2C
330
1A
100
AcDbEntity
  8
ZISSEN1
 48
0.4
100
AcDbEllipse
 10
-1623.449999999999
 20
1509.50000000028
 30
0.0
 11
-0.000000000000001
 21
-2.75
 31
0.0
210
0.0
220
0.0
230
1.0
 40
0.3090909090909173
 41
6.283185307179586
 42
9.424777960769379
  0
ARC
  5
17E2D
330
1A
100
AcDbEntity
  8
ZISSEN1
  6
BYBLOCK
100
AcDbCircle
 10
-1626.300000000001
 20
1506.90000000028
 30
0.0
 40
0.5
100
AcDbArc
 50
0.0
 51
90.0
  0
LINE
  5
17E2E
330
1A
100
AcDbEntity
  8
ZISSEN1
  6
BYBLOCK
100
AcDbLine
 10
-1627.300000000001
 20
1511.600000000279
 30
0.0
 11
-1627.300000000001
 21
1507.40000000028
 31
0.0
  0
ARC
  5
17E2F
330
1A
100
AcDbEntity
  8
ZISSEN1
  6
BYBLOCK
100
AcDbCircle
 10
-1626.300000000001
 20
1512.100000000277
 30
0.0
 40
0.5
100
AcDbArc
 50
270.0
 51
0.0
  0
LINE
  5
17E30
330
1A
100
AcDbEntity
  8
ZISSEN1
  6
BYBLOCK
100
AcDbLine
 10
-1626.300000000001
 20
1511.600000000277
 30
0.0
 11
-1627.300000000001
 21
1511.600000000279
 31
0.0
  0
LINE
  5
17E31
330
1A
100
AcDbEntity
  8
ZISSEN1
  6
BYBLOCK
100
AcDbLine
 10
-1626.300000000001
 20
1507.40000000028
 30
0.0
 11
-1627.300000000001
 21
1507.40000000028
 31
0.0
  0
ARC
  5
17E32
330
1A
100
AcDbEntity
  8
ZISSEN1
  6
BYBLOCK
100
AcDbCircle
 10
-1398.700000000001
 20
1506.90000000028
 30
0.0
 40
0.5
100
AcDbArc
 50
90.0
 51
180.0
  0
LINE
  5
17E33
330
1A
100
AcDbEntity
  8
ZISSEN1
  6
BYBLOCK
100
AcDbLine
 10
-1397.700000000001
 20
1511.600000000279
 30
0.0
 11
-1397.700000000001
 21
1507.40000000028
 31
0.0
  0
ARC
  5
17E34
330
1A
100
AcDbEntity
  8
ZISSEN1
  6
BYBLOCK
100
AcDbCircle
 10
-1398.700000000001
 20
1512.100000000277
 30
0.0
 40
0.5
100
AcDbArc
 50
180.0
 51
270.0
  0
LINE
  5
17E35
330
1A
100
AcDbEntity
  8
ZISSEN1
  6
BYBLOCK
100
AcDbLine
 10
-1398.700000000001
 20
1511.600000000277
 30
0.0
 11
-1397.700000000001
 21
1511.600000000279
 31
0.0
  0
LINE
  5
17E36
330
1A
100
AcDbEntity
  8
ZISSEN1
  6
BYBLOCK
100
AcDbLine
 10
-1398.700000000001
 20
1507.40000000028
 30
0.0
 11
-1397.700000000001
 21
1507.40000000028
 31
0.0
  0
LINE
  5
17E37
330
1A
100
AcDbEntity
  8
ZISSEN1
100
AcDbLine
 10
-1541.5
 20
1500.0
 30
0.0
 11
-1541.5
 21
1503.0
 31
0.0
  0
LINE
  5
17E38
330
1A
100
AcDbEntity
  8
ZISSEN1
100
AcDbLine
 10
-1542.5
 20
1500.0
 30
0.0
 11
-1542.5
 21
1503.0
 31
0.0
  0
LINE
  5
17E39
330
1A
100
AcDbEntity
  8
ZISSEN1
100
AcDbLine
 10
-1570.399999732829
 20
1500.0
 30
0.0
 11
-1570.399999732829
 21
1503.0
 31
0.0
  0
LINE
  5
17E3A
330
1A
100
AcDbEntity
  8
ZISSEN1
100
AcDbLine
 10
-1571.399999732829
 20
1500.0
 30
0.0
 11
-1571.399999732829
 21
1503.0
 31
0.0
  0
LINE
  5
17E3D
330
1A
100
AcDbEntity
  8
ZISSEN1
  6
CONTINUOUS
 62
     7
100
AcDbLine
 10
-1557.455000000273
 20
1511.450001124038
 30
0.0
 11
-1557.455000000273
 21
1508.000001124038
 31
0.0
  0
LINE
  5
17F0E
330
1A
100
AcDbEntity
  8
ZISSEN1
  6
CONTINUOUS
 62
     7
100
AcDbLine
 10
-1571.355000000274
 20
1511.450001124038
 30
0.0
 11
-1571.355000000274
 21
1508.000001124038
 31
0.0
  0
LINE
  5
17F18
330
1A
100
AcDbEntity
  8
ZISSEN1
  6
CONTINUOUS
 62
     7
100
AcDbLine
 10
-1541.555000000274
 20
1511.450001124038
 30
0.0
 11
-1555.455000000274
 21
1511.450001124038
 31
0.0
  0
LINE
  5
17F1C
330
1A
100
AcDbEntity
  8
ZISSEN1
  6
CONTINUOUS
 62
     7
100
AcDbLine
 10
-1557.455000000273
 20
1508.000001124038
 30
0.0
 11
-1559.405000000274
 21
1508.000001124038
 31
0.0
  0
LINE
  5
17F22
330
1A
100
AcDbEntity
  8
ZISSEN1
  6
CONTINUOUS
100
AcDbLine
 10
-1541.555000000274
 20
1511.450001124038
 30
0.0
 11
-1541.555000000274
 21
1508.000001124037
 31
0.0
  0
LINE
  5
1803F
330
1A
100
AcDbEntity
  8
ZISSEN1
  6
CONTINUOUS
100
AcDbLine
 10
-1555.455000000274
 20
1511.450001124038
 30
0.0
 11
-1555.455000000274
 21
1508.000001124037
 31
0.0
  0
LINE
  5
1804E
330
1A
100
AcDbEntity
  8
ZISSEN1
100
AcDbLine
 10
-1572.399999999999
 20
1511.000001124038
 30
0.0
 11
-1572.4
 21
1507.000001124037
 31
0.0
  0
LINE
  5
1804F
330
1A
100
AcDbEntity
  8
ZISSEN1
100
AcDbLine
 10
-1572.399999999999
 20
1511.000001124038
 30
0.0
 11
-1540.499999999999
 21
1511.000001124038
 31
0.0
  0
LINE
  5
18050
330
1A
100
AcDbEntity
  8
ZISSEN1
100
AcDbLine
 10
-1572.4
 20
1507.000001124037
 30
0.0
 11
-1573.4
 21
1506.000001124037
 31
0.0
  0
LINE
  5
18051
330
1A
100
AcDbEntity
  8
ZISSEN1
100
AcDbLine
 10
-1540.499999999999
 20
1511.000001124038
 30
0.0
 11
-1540.499999999999
 21
1507.000001124037
 31
0.0
  0
LINE
  5
18052
330
1A
100
AcDbEntity
  8
ZISSEN1
  6
BYBLOCK
100
AcDbLine
 10
-1540.499999999999
 20
1507.000001124037
 30
0.0
 11
-1539.499999999999
 21
1506.000001124037
 31
0.0
  0
LINE
  5
18053
330
1A
100
AcDbEntity
  8
ZISSEN1
100
AcDbLine
 10
-1524.599999999997
 20
1659.499999999999
 30
0.0
 11
-1515.499999999997
 21
1659.499999999999
 31
0.0
  0
LINE
  5
18054
330
1A
100
AcDbEntity
  8
ZISSEN1
100
AcDbLine
 10
-1515.499999999997
 20
1667.399999999989
 30
0.0
 11
-1515.499999999997
 21
1659.499999999999
 31
0.0
  0
LINE
  5
18058
330
1A
100
AcDbEntity
  8
ZISSEN1
100
AcDbLine
 10
-1449.599999999997
 20
1659.499999999999
 30
0.0
 11
-1440.499999999997
 21
1659.499999999999
 31
0.0
  0
LINE
  5
18059
330
1A
100
AcDbEntity
  8
ZISSEN1
  6
BYBLOCK
100
AcDbLine
 10
-1450.599999999997
 20
1671.500000000005
 30
0.0
 11
-1441.199999999998
 21
1671.500000000005
 31
0.0
  0
LINE
  5
1805A
330
1A
100
AcDbEntity
  8
ZISSEN1
  6
BYBLOCK
100
AcDbLine
 10
-1440.199999999998
 20
1672.500000000005
 30
0.0
 11
-1440.199999999997
 21
1681.399999999998
 31
0.0
  0
LINE
  5
1805B
330
1A
100
AcDbEntity
  8
ZISSEN1
100
AcDbLine
 10
-1440.199999999998
 20
1672.500000000005
 30
0.0
 11
-1441.199999999998
 21
1671.500000000005
 31
0.0
  0
LINE
  5
1805D
330
1A
100
AcDbEntity
  8
ZISSEN1
100
AcDbLine
 10
-1638.699999999989
 20
1505.000000000003
 30
0.0
 11
-1638.699999999989
 21
1506.699996961302
 31
0.0
  0
LINE
  5
18060
330
1A
100
AcDbEntity
  8
ZISSEN1
100
AcDbLine
 10
-1635.699999999989
 20
1505.000000000005
 30
0.0
 11
-1635.699999999989
 21
1506.699996961301
 31
0.0
  0
LINE
  5
18066
330
1A
100
AcDbEntity
  8
ZISSEN1
100
AcDbLine
 10
-1635.699999999989
 20
1506.699996961301
 30
0.0
 11
-1638.699999999989
 21
1506.699996961302
 31
0.0
  0
LINE
  5
1806A
330
1A
100
AcDbEntity
  8
ZISSEN1
100
AcDbLine
 10
-1389.300000000008
 20
1505.000000000006
 30
0.0
 11
-1389.300000000008
 21
1506.699996961302
 31
0.0
  0
LINE
  5
1806D
330
1A
100
AcDbEntity
  8
ZISSEN1
100
AcDbLine
 10
-1386.300000000008
 20
1505.000000000005
 30
0.0
 11
-1386.300000000008
 21
1506.699996961301
 31
0.0
  0
LINE
  5
18073
330
1A
100
AcDbEntity
  8
ZISSEN1
100
AcDbLine
 10
-1386.300000000008
 20
1506.699996961301
 30
0.0
 11
-1389.300000000008
 21
1506.699996961302
 31
0.0
  0
LINE
  5
18077
330
1A
100
AcDbEntity
  8
ZISSEN1
100
AcDbLine
 10
-1395.999999999998
 20
1510.80000000028
 30
0.0
 11
-1397.700000000001
 21
1510.80000000028
 31
0.0
  0
LINE
  5
18078
330
1A
100
AcDbEntity
  8
ZISSEN1
100
AcDbLine
 10
-1395.999999999998
 20
1510.80000000028
 30
0.0
 11
-1395.999999999998
 21
1508.20000000028
 31
0.0
  0
LINE
  5
18079
330
1A
100
AcDbEntity
  8
ZISSEN1
100
AcDbLine
 10
-1395.999999999998
 20
1508.20000000028
 30
0.0
 11
-1397.700000000001
 21
1508.20000000028
 31
0.0
  0
LINE
  5
1807A
330
1A
100
AcDbEntity
  8
ZISSEN1
100
AcDbLine
 10
-1629.000000000004
 20
1510.80000000028
 30
0.0
 11
-1627.300000000001
 21
1510.80000000028
 31
0.0
  0
LINE
  5
1807B
330
1A
100
AcDbEntity
  8
ZISSEN1
100
AcDbLine
 10
-1629.000000000004
 20
1510.80000000028
 30
0.0
 11
-1629.000000000004
 21
1508.20000000028
 31
0.0
  0
LINE
  5
1807C
330
1A
100
AcDbEntity
  8
ZISSEN1
100
AcDbLine
 10
-1629.000000000004
 20
1508.20000000028
 30
0.0
 11
-1627.300000000001
 21
1508.20000000028
 31
0.0
  0
LINE
  5
1807D
330
1A
100
AcDbEntity
  8
ZISSEN1
100
AcDbLine
 10
-1541.4
 20
1583.299999999999
 30
0.0
 11
-1541.4
 21
1578.299999999999
 31
0.0
  0
LINE
  5
1807E
330
1A
100
AcDbEntity
  8
ZISSEN1
100
AcDbLine
 10
-1524.1
 20
1583.299999999999
 30
0.0
 11
-1524.1
 21
1578.299999999999
 31
0.0
  0
LINE
  5
1807F
330
1A
100
AcDbEntity
  8
ZISSEN1
100
AcDbLine
 10
-1524.1
 20
1578.299999999999
 30
0.0
 11
-1541.4
 21
1578.299999999999
 31
0.0
  0
LINE
  5
1809E
330
1A
100
AcDbEntity
  8
ZISSEN1
100
AcDbLine
 10
-1541.399998497713
 20
1644.399999181359
 30
0.0
 11
-1524.099998497713
 21
1644.399999181359
 31
0.0
  0
LINE
  5
1809F
330
1A
100
AcDbEntity
  8
ZISSEN1
  6
BYBLOCK
100
AcDbLine
 10
-1560.195691931586
 20
1642.799999999999
 30
0.0
 11
-1547.195691931588
 21
1642.799999999999
 31
0.0
  0
LINE
  5
180A0
330
1A
100
AcDbEntity
  8
ZISSEN1
  6
BYBLOCK
100
AcDbLine
 10
-1547.195691931588
 20
1644.399999999999
 30
0.0
 11
-1560.195691931586
 21
1644.399999999999
 31
0.0
  0
LINE
  5
180A1
330
1A
100
AcDbEntity
  8
ZISSEN1
  6
BYBLOCK
100
AcDbLine
 10
-1540.600021393996
 20
1667.399999999999
 30
0.0
 11
-1540.600021393995
 21
1668.999999999999
 31
0.0
  0
LINE
  5
180A2
330
1A
100
AcDbEntity
  8
ZISSEN1
  6
BYBLOCK
100
AcDbLine
 10
-1465.600021393996
 20
1667.399999999999
 30
0.0
 11
-1465.600021393995
 21
1668.999999999999
 31
0.0
  0
DIMENSION
  5
180A3
330
1A
100
AcDbEntity
  8
SUNPOU
  6
BYBLOCK
100
AcDbDimension
  2
*D7
 10
-1434.999999999997
 20
1617.836689933995
 30
0.0
 11
-1517.119909074812
 21
1617.836689933995
 31
0.0
 70
   160
  3
ISO-25
100
AcDbAlignedDimension
 13
-1594.999999999997
 23
1657.292262875743
 33
0.0
 14
-1434.999999999997
 24
1657.749999999999
 34
0.0
100
AcDbRotatedDimension
1001
ACAD
1000
DSTYLE
1002
{
1070
   340
1005
10
1070
   140
1040
3.5
1002
}
  0
LINE
  5
180A5
330
1A
100
AcDbEntity
  8
ZISSEN1
  6
BYBLOCK
100
AcDbLine
 10
-1631.399999999999
 20
1508.0
 30
0.0
 11
-1629.800000000002
 21
1508.0
 31
0.0
  0
LINE
  5
180A8
330
1A
100
AcDbEntity
  8
ZISSEN1
  6
BYBLOCK
100
AcDbLine
 10
-1395.200000000001
 20
1507.999982702118
 30
0.0
 11
-1393.600000000001
 21
1507.999982702118
 31
0.0
  0
LINE
  5
180A9
330
1A
100
AcDbEntity
  8
ZISSEN1
  6
BYBLOCK
100
AcDbLine
 10
-1395.200000000001
 20
1513.0
 30
0.0
 11
-1395.200000000001
 21
1507.999999999999
 31
0.0
  0
LINE
  5
180AA
330
1A
100
AcDbEntity
  8
ZISSEN1
  6
BYBLOCK
100
AcDbLine
 10
-1395.200000000001
 20
1507.999999999999
 30
0.0
 11
-1393.600000000001
 21
1507.999999999999
 31
0.0
  0
LINE
  5
180AB
330
1A
100
AcDbEntity
  8
ZISSEN1
  6
BYBLOCK
100
AcDbLine
 10
-1393.600000000001
 20
1507.999999999999
 30
0.0
 11
-1393.600000000001
 21
1513.0
 31
0.0
  0
LINE
  5
180AC
330
1A
100
AcDbEntity
  8
ZISSEN1
  6
BYBLOCK
100
AcDbLine
 10
-1395.200000000001
 20
1508.999999999999
 30
0.0
 11
-1393.600000000001
 21
1508.999999999999
 31
0.0
  0
LINE
  5
180AD
330
1A
100
AcDbEntity
  8
ZISSEN1
  6
BYBLOCK
100
AcDbLine
 10
-1629.800000000002
 20
1513.003487278959
 30
0.0
 11
-1629.800000000002
 21
1507.999999999999
 31
0.0
  0
LINE
  5
180AE
330
1A
100
AcDbEntity
  8
ZISSEN1
  6
BYBLOCK
100
AcDbLine
 10
-1629.800000000002
 20
1507.999999999999
 30
0.0
 11
-1631.399999999998
 21
1507.999999999999
 31
0.0
  0
LINE
  5
180AF
330
1A
100
AcDbEntity
  8
ZISSEN1
  6
BYBLOCK
100
AcDbLine
 10
-1631.399999999998
 20
1507.999999999999
 30
0.0
 11
-1631.399999999998
 21
1513.003487278959
 31
0.0
  0
LINE
  5
180B0
330
1A
100
AcDbEntity
  8
ZISSEN1
  6
BYBLOCK
100
AcDbLine
 10
-1370.499999999999
 20
1511.499999999999
 30
0.0
 11
-1370.600000000001
 21
1511.499999999999
 31
0.0
  0
LINE
  5
180B1
330
1A
100
AcDbEntity
  8
ZISSEN1
  6
BYBLOCK
100
AcDbLine
 10
-1370.600000000001
 20
1511.499999999999
 30
0.0
 11
-1370.600000000001
 21
1513.0
 31
0.0
  0
LINE
  5
180B2
330
1A
100
AcDbEntity
  8
ZISSEN1
100
AcDbLine
 10
-1646.5
 20
1586.699999999999
 30
0.0
 11
-1654.4
 21
1586.699999999999
 31
0.0
  0
LINE
  5
180BB
330
1A
100
AcDbEntity
  8
ZISSEN1
100
AcDbLine
 10
-1646.5
 20
1586.699999999999
 30
0.0
 11
-1646.5
 21
1583.299999999999
 31
0.0
  0
LINE
  5
180BD
330
1A
100
AcDbEntity
  8
ZISSEN1
  6
BYBLOCK
100
AcDbLine
 10
-1654.4
 20
1586.699999999999
 30
0.0
 11
-1654.4
 21
1582.5
 31
0.0
  0
LINE
  5
180BF
330
1A
100
AcDbEntity
  8
ZISSEN1
  6
BYBLOCK
100
AcDbLine
 10
-1646.5
 20
1586.699999999999
 30
0.0
 11
-1646.5
 21
1583.299999999999
 31
0.0
  0
LINE
  5
180C3
330
1A
100
AcDbEntity
  8
ZISSEN1
  6
BYBLOCK
100
AcDbLine
 10
-1378.5
 20
1586.699999999998
 30
0.0
 11
-1378.500000000001
 21
1579.499999999999
 31
0.0
  0
LINE
  5
180C5
330
1A
100
AcDbEntity
  8
ZISSEN1
  6
BYBLOCK
100
AcDbLine
 10
-1370.6
 20
1580.649999999999
 30
0.0
 11
-1369.0
 21
1580.649999999999
 31
0.0
  0
LINE
  5
180C6
330
1A
100
AcDbEntity
  8
ZISSEN1
  6
BYBLOCK
100
AcDbLine
 10
-1369.100000000001
 20
1580.649999999999
 30
0.0
 11
-1369.100000000001
 21
1579.499999999998
 31
0.0
  0
LINE
  5
180C7
330
1A
100
AcDbEntity
  8
ZISSEN1
  6
BYBLOCK
100
AcDbLine
 10
-1369.000000000001
 20
1583.999999999999
 30
0.0
 11
-1369.000000000001
 21
1579.5
 31
0.0
  0
LINE
  5
180C8
330
1A
100
AcDbEntity
  8
ZISSEN1
100
AcDbLine
 10
-1356.600000000002
 20
1583.3
 30
0.0
 11
-1356.600000000002
 21
1582.499999999999
 31
0.0
  0
LINE
  5
180CA
330
1A
100
AcDbEntity
  8
ZISSEN1
100
AcDbLine
 10
-1368.55
 20
1583.3
 30
0.0
 11
-1368.549999999999
 21
1582.499999999999
 31
0.0
  0
LINE
  5
180CB
330
1A
100
AcDbEntity
  8
ZISSEN1
100
AcDbLine
 10
-1366.5
 20
1583.3
 30
0.0
 11
-1366.5
 21
1582.499999999999
 31
0.0
  0
LINE
  5
180CC
330
1A
100
AcDbEntity
  8
ZISSEN1
100
AcDbLine
 10
-1365.5
 20
1583.3
 30
0.0
 11
-1365.5
 21
1582.499999999999
 31
0.0
  0
LINE
  5
180CD
330
1A
100
AcDbEntity
  8
ZISSEN1
  6
BYBLOCK
100
AcDbLine
 10
-1369.000000000001
 20
1581.999999999998
 30
0.0
 11
-1368.0
 21
1581.999999999998
 31
0.0
  0
LINE
  5
180CE
330
1A
100
AcDbEntity
  8
ZISSEN1
  6
BYBLOCK
100
AcDbLine
 10
-1368.0
 20
1579.499999999998
 30
0.0
 11
-1368.0
 21
1582.384999999998
 31
0.0
  0
LINE
  5
180CF
330
1A
100
AcDbEntity
  8
ZISSEN1
  6
BYBLOCK
100
AcDbLine
 10
-1368.0
 20
1582.384999999998
 30
0.0
 11
-1364.0
 21
1582.384999999998
 31
0.0
  0
LINE
  5
180D0
330
1A
100
AcDbEntity
  8
ZISSEN1
  6
BYBLOCK
100
AcDbLine
 10
-1364.0
 20
1582.384999999998
 30
0.0
 11
-1364.0
 21
1576.614999999998
 31
0.0
  0
LINE
  5
180D1
330
1A
100
AcDbEntity
  8
ZISSEN1
  6
BYBLOCK
100
AcDbLine
 10
-1364.0
 20
1576.614999999998
 30
0.0
 11
-1364.999999999996
 21
1576.614999999998
 31
0.0
  0
LINE
  5
180D2
330
1A
100
AcDbEntity
  8
ZISSEN1
  6
BYBLOCK
100
AcDbLine
 10
-1364.0
 20
1579.499999999998
 30
0.0
 11
-1365.999999999996
 21
1579.499999999998
 31
0.0
  0
LINE
  5
180D3
330
1A
100
AcDbEntity
  8
ZISSEN1
  6
BYBLOCK
100
AcDbLine
 10
-1364.0
 20
1581.999999999998
 30
0.0
 11
-1363.000000000001
 21
1581.999999999998
 31
0.0
  0
LINE
  5
180D4
330
1A
100
AcDbEntity
  8
ZISSEN1
  6
BYBLOCK
100
AcDbLine
 10
-1364.0
 20
1576.999999999998
 30
0.0
 11
-1363.000000000001
 21
1576.999999999998
 31
0.0
  0
LINE
  5
180D5
330
1A
100
AcDbEntity
  8
ZISSEN1
  6
BYBLOCK
100
AcDbLine
 10
-1361.4
 20
1586.699999999998
 30
0.0
 11
-1361.4
 21
1583.3
 31
0.0
  0
LINE
  5
180D9
330
1A
100
AcDbEntity
  8
ZISSEN1
  6
BYBLOCK
100
AcDbLine
 10
-1363.000000000001
 20
1581.499999999997
 30
0.0
 11
-1361.4
 21
1581.499999999997
 31
0.0
  0
LINE
  5
180DA
330
1A
100
AcDbEntity
  8
ZISSEN1
  6
BYBLOCK
100
AcDbLine
 10
-1662.000000000002
 20
1511.999999999999
 30
0.0
 11
-1662.0
 21
1582.499999999999
 31
0.0
  0
LINE
  5
180DB
330
1A
100
AcDbEntity
  8
ZISSEN1
  6
BYBLOCK
100
AcDbLine
 10
-1656.000000000002
 20
1581.999999999999
 30
0.0
 11
-1657.000000000002
 21
1581.999999999999
 31
0.0
  0
LINE
  5
180DC
330
1A
100
AcDbEntity
  8
ZISSEN1
  6
BYBLOCK
100
AcDbLine
 10
-1657.000000000002
 20
1579.499999999999
 30
0.0
 11
-1657.000000000002
 21
1582.384999999999
 31
0.0
  0
LINE
  5
180DD
330
1A
100
AcDbEntity
  8
ZISSEN1
  6
BYBLOCK
100
AcDbLine
 10
-1657.000000000002
 20
1582.384999999999
 30
0.0
 11
-1661.000000000002
 21
1582.384999999999
 31
0.0
  0
LINE
  5
180DE
330
1A
100
AcDbEntity
  8
ZISSEN1
  6
BYBLOCK
100
AcDbLine
 10
-1661.000000000002
 20
1582.384999999999
 30
0.0
 11
-1661.000000000002
 21
1576.614999999999
 31
0.0
  0
LINE
  5
180DF
330
1A
100
AcDbEntity
  8
ZISSEN1
  6
BYBLOCK
100
AcDbLine
 10
-1661.000000000002
 20
1576.614999999999
 30
0.0
 11
-1660.000000000002
 21
1576.614999999999
 31
0.0
  0
LINE
  5
180E1
330
1A
100
AcDbEntity
  8
ZISSEN1
  6
BYBLOCK
100
AcDbLine
 10
-1661.000000000002
 20
1581.999999999999
 30
0.0
 11
-1662.0
 21
1581.999999999999
 31
0.0
  0
LINE
  5
180E2
330
1A
100
AcDbEntity
  8
ZISSEN1
  6
BYBLOCK
100
AcDbLine
 10
-1661.000000000002
 20
1576.999999999999
 30
0.0
 11
-1662.0
 21
1576.999999999999
 31
0.0
  0
LINE
  5
180E3
330
1A
100
AcDbEntity
  8
ZISSEN1
  6
BYBLOCK
100
AcDbLine
 10
-1662.000000000004
 20
1575.699999999999
 30
0.0
 11
-1660.100000000004
 21
1575.699999999999
 31
0.0
  0
LINE
  5
180E4
330
1A
100
AcDbEntity
  8
ZISSEN1
  6
BYBLOCK
100
AcDbLine
 10
-1660.100000000004
 20
1575.699999999999
 30
0.0
 11
-1660.100000000003
 21
1575.1
 31
0.0
  0
LINE
  5
180E5
330
1A
100
AcDbEntity
  8
ZISSEN1
  6
BYBLOCK
100
AcDbLine
 10
-1660.100000000003
 20
1575.1
 30
0.0
 11
-1662.0
 21
1575.1
 31
0.0
  0
LINE
  5
180E6
330
1A
100
AcDbEntity
  8
ZISSEN1
  6
BYBLOCK
100
AcDbLine
 10
-1586.499999999997
 20
1668.199999999999
 30
0.0
 11
-1586.499999999997
 21
1669.199999999999
 31
0.0
  0
LINE
  5
180E7
330
1A
100
AcDbEntity
  8
ZISSEN1
  6
BYBLOCK
100
AcDbLine
 10
-1586.499999999997
 20
1668.199999999999
 30
0.0
 11
-1586.499999999997
 21
1667.199999999999
 31
0.0
  0
LINE
  5
184DE
330
1A
100
AcDbEntity
  8
ZISSEN1
100
AcDbLine
 10
-1571.355000000274
 20
1511.450001124038
 30
0.0
 11
-1557.455000000273
 21
1511.450001124038
 31
0.0
  0
LINE
  5
184E1
330
1A
100
AcDbEntity
  8
ZISSEN1
100
AcDbLine
 10
-1379.524898126238
 20
1583.3
 30
0.0
 11
-1379.524898126238
 21
1582.499999999998
 31
0.0
  0
LINE
  5
184E2
330
1A
100
AcDbEntity
  8
ZISSEN1
100
AcDbLine
 10
-1379.524898126238
 20
1581.519999999997
 30
0.0
 11
-1379.524898126238
 21
1579.499999999998
 31
0.0
  0
LINE
  5
184E3
330
1A
100
AcDbEntity
  8
ZISSEN1
100
AcDbLine
 10
-1393.600000000001
 20
1586.699999999997
 30
0.0
 11
-1386.900000000001
 21
1586.699999999997
 31
0.0
  0
LINE
  5
184E4
330
1A
100
AcDbEntity
  8
ZISSEN1
100
AcDbLine
 10
-1386.900000000001
 20
1586.699999999997
 30
0.0
 11
-1386.900000000001
 21
1583.299999999999
 31
0.0
  0
LINE
  5
184E5
330
1A
100
AcDbEntity
  8
ZISSEN1
100
AcDbLine
 10
-1386.900000000001
 20
1582.499999999999
 30
0.0
 11
-1386.900000000001
 21
1581.519999999998
 31
0.0
  0
LINE
  5
184E6
330
1A
100
AcDbEntity
  8
ZISSEN1
100
AcDbLine
 10
-1397.000000000001
 20
1578.049999999997
 30
0.0
 11
-1395.200000000001
 21
1578.049999999997
 31
0.0
  0
LINE
  5
184E7
330
1A
100
AcDbEntity
  8
ZISSEN1
100
AcDbLine
 10
-1395.200000000001
 20
1578.049999999997
 30
0.0
 11
-1395.200000000001
 21
1577.449999999998
 31
0.0
  0
LINE
  5
184E8
330
1A
100
AcDbEntity
  8
ZISSEN1
100
AcDbLine
 10
-1395.200000000001
 20
1577.449999999998
 30
0.0
 11
-1397.000000000001
 21
1577.449999999998
 31
0.0
  0
LINE
  5
184E9
330
1A
100
AcDbEntity
  8
ZISSEN1
100
AcDbLine
 10
-1397.000000000001
 20
1577.449999999998
 30
0.0
 11
-1397.000000000001
 21
1578.049999999997
 31
0.0
  0
LINE
  5
1852E
330
1A
100
AcDbEntity
  8
ZISSEN1
  6
BYBLOCK
100
AcDbLine
 10
-1524.099999999997
 20
1644.399999999999
 30
0.0
 11
-1560.195691931586
 21
1644.399999999999
 31
0.0
  0
LINE
  5
1855D
330
1A
100
AcDbEntity
  8
CL1
100
AcDbLine
 10
-1438.149999999997
 20
1660.899999999999
 30
0.0
 11
-1427.999999999997
 21
1660.899999999999
 31
0.0
  0
LINE
  5
1855E
330
1A
100
AcDbEntity
  8
CL1
100
AcDbLine
 10
-1434.999999999997
 20
1664.049999999999
 30
0.0
 11
-1434.999999999997
 21
1657.749999999999
 31
0.0
  0
CIRCLE
  5
186A8
330
1A
100
AcDbEntity
  8
ZISSEN1
  6
BYBLOCK
100
AcDbCircle
 10
-1571.663285618154
 20
1602.800000000002
 30
0.0
 40
2.5
  0
LINE
  5
186A9
330
1A
100
AcDbEntity
  8
ZISSEN1
100
AcDbLine
 10
-1572.163285618153
 20
1600.350510257218
 30
0.0
 11
-1572.163285618157
 21
1585.300000000046
 31
0.0
  0
LINE
  5
186AA
330
1A
100
AcDbEntity
  8
ZISSEN1
100
AcDbLine
 10
-1571.163285618153
 20
1600.350510257219
 30
0.0
 11
-1571.163285618156
 21
1585.300000000046
 31
0.0
  0
LINE
  5
186AB
330
1A
100
AcDbEntity
  8
ZISSEN1
  6
BYBLOCK
100
AcDbLine
 10
-1574.663285618154
 20
1585.300000000046
 30
0.0
 11
-1568.663285618156
 21
1585.300000000046
 31
0.0
  0
LINE
  5
186AC
330
1A
100
AcDbEntity
  8
ZISSEN1
100
AcDbLine
 10
-1568.663285618156
 20
1585.300000000046
 30
0.0
 11
-1568.663285618156
 21
1583.29977291177
 31
0.0
  0
LINE
  5
186AD
330
1A
100
AcDbEntity
  8
ZISSEN1
  6
BYBLOCK
100
AcDbLine
 10
-1574.663285618154
 20
1583.29977291177
 30
0.0
 11
-1574.663285618154
 21
1585.300000000046
 31
0.0
  0
CIRCLE
  5
186BE
330
1A
100
AcDbEntity
  8
ZISSEN1
  6
BYBLOCK
100
AcDbCircle
 10
-1571.663285618151
 20
1648.299191145885
 30
0.0
 40
2.399999999999999
  0
MTEXT
  5
187D0
330
1A
100
AcDbEntity
  8
ZISSEN1
  6
BYBLOCK
100
AcDbMText
 10
-1419.549142160627
 20
1663.174642388767
 30
0.0
 40
3.0
 41
24.08950308851381
 71
     1
 72
     5
  1
{\fＭＳ ゴシック|b0|i0|c128|p49;2-M3(M4可)}
 11
0.0000000000000001
 21
1.0
 31
0.0
1001
ACAD
1000
MTEXTBEGIN
1070
    73
1070
     1
1070
    44
1040
1.0
1070
    74
1070
     0
1000
MTEXTEND
  0
DIMENSION
  5
1888F
330
1A
100
AcDbEntity
  8
SUNPOU
100
AcDbDimension
  2
*D8
 10
-1682.37445885969
 20
1613.3
 30
0.0
 11
-1685.12445885969
 21
1598.299999999999
 31
0.0
 70
    32
  1
(30)
  3
標準スタイル
100
AcDbAlignedDimension
 13
-1669.400000000002
 23
1583.299999999999
 33
0.0
 14
-1642.454192808496
 24
1613.3
 34
0.0
 50
90.0
100
AcDbRotatedDimension
1001
ACAD
1000
DSTYLE
1002
{
1070
   287
1070
     4
1070
    41
1040
2.5
1070
   340
1005
10
1070
    40
1040
1.0
1070
   279
1070
     1
1002
}
  0
LINE
  5
1897C
330
1A
100
AcDbEntity
  8
ZISSEN1
100
AcDbLine
 10
-1590.0
 20
1503.0
 30
0.0
 11
-1590.0
 21
1513.0
 31
0.0
  0
LINE
  5
1897D
330
1A
100
AcDbEntity
  8
ZISSEN1
100
AcDbLine
 10
-1590.0
 20
1513.0
 30
0.0
 11
-1590.799690857564
 21
1512.977761917164
 31
0.0
  0
LINE
  5
189D8
330
1A
100
AcDbEntity
  8
ZISSEN1
100
AcDbLine
 10
-1589.8
 20
1583.299999999999
 30
0.0
 11
-1590.0
 21
1583.299999999999
 31
0.0
  0
LINE
  5
189D9
330
1A
100
AcDbEntity
  8
ZISSEN1
100
AcDbLine
 10
-1590.0
 20
1583.299999999999
 30
0.0
 11
-1590.0
 21
1579.499999999999
 31
0.0
  0
LINE
  5
189DA
330
1A
100
AcDbEntity
  8
ZISSEN1
100
AcDbLine
 10
-1590.0
 20
1579.499999999999
 30
0.0
 11
-1590.0
 21
1580.500000965373
 31
0.0
  0
LINE
  5
189E9
330
1A
100
AcDbEntity
  8
SOUZOUSEN
100
AcDbLine
 10
-1430.0
 20
1503.0
 30
0.0
 11
-1435.0
 21
1503.0
 31
0.0
  0
LINE
  5
189ED
330
1A
100
AcDbEntity
  8
CL1
100
AcDbLine
 10
-1594.998640365369
 20
1497.842127712262
 30
0.0
 11
-1594.998640365369
 21
1505.386302742722
 31
0.0
  0
LINE
  5
189EE
330
1A
100
AcDbEntity
  8
CL1
100
AcDbLine
 10
-1434.996846882144
 20
1497.238593803198
 30
0.0
 11
-1434.996846882144
 21
1505.989836651786
 31
0.0
  0
LINE
  5
19F75
330
1A
100
AcDbEntity
  8
ZISSEN1
100
AcDbLine
 10
-1594.500000720623
 20
1557.058343980715
 30
0.0
 11
-1594.500000720623
 21
1556.058343980715
 31
0.0
  0
LINE
  5
19F77
330
1A
100
AcDbEntity
  8
ZISSEN1
100
AcDbLine
 10
-1594.500000720623
 20
1557.058343980715
 30
0.0
 11
-1594.500000720623
 21
1556.058343980715
 31
0.0
  0
LINE
  5
19F78
330
1A
100
AcDbEntity
  8
ZISSEN1
100
AcDbLine
 10
-1594.500000720623
 20
1557.058343980715
 30
0.0
 11
-1594.500000720623
 21
1556.058343980715
 31
0.0
  0
LINE
  5
19F7A
330
1A
100
AcDbEntity
  8
ZISSEN1
  6
BYBLOCK
 62
     0
100
AcDbLine
 10
-1594.500000720623
 20
1557.058343980715
 30
0.0
 11
-1590.8
 21
1557.058343980716
 31
0.0
  0
LINE
  5
19F7B
330
1A
100
AcDbEntity
  8
ZISSEN1
100
AcDbLine
 10
-1594.500000720623
 20
1539.058343980715
 30
0.0
 11
-1594.500000720623
 21
1540.058343980715
 31
0.0
  0
LINE
  5
19F7D
330
1A
100
AcDbEntity
  8
ZISSEN1
100
AcDbLine
 10
-1594.500000720623
 20
1539.058343980715
 30
0.0
 11
-1594.500000720623
 21
1540.058343980715
 31
0.0
  0
LINE
  5
19F7E
330
1A
100
AcDbEntity
  8
ZISSEN1
100
AcDbLine
 10
-1594.500000720623
 20
1539.058343980715
 30
0.0
 11
-1594.500000720623
 21
1540.058343980715
 31
0.0
  0
LINE
  5
19F80
330
1A
100
AcDbEntity
  8
ZISSEN1
100
AcDbLine
 10
-1590.8
 20
1539.058343980715
 30
0.0
 11
-1594.500000720623
 21
1539.058343980715
 31
0.0
  0
LINE
  5
1A683
330
1A
100
AcDbEntity
  8
ZISSEN1
  6
BYBLOCK
 62
     0
100
AcDbLine
 10
-1631.399999999998
 20
1508.0
 30
0.0
 11
-1631.399999999999
 21
1539.058343980716
 31
0.0
  0
LINE
  5
1A684
330
1A
100
AcDbEntity
  8
ZISSEN1
  6
BYBLOCK
 62
     0
100
AcDbLine
 10
-1630.897846538318
 20
1514.061830417905
 30
0.0
 11
-1630.899999999999
 21
1557.998343980716
 31
0.0
  0
LINE
  5
1A685
330
1A
100
AcDbEntity
  8
ZISSEN1
  6
BYBLOCK
 62
     0
100
AcDbLine
 10
-1636.897846538317
 20
1557.998343980716
 30
0.0
 11
-1636.897846538317
 21
1514.061830417905
 31
0.0
  0
LINE
  5
1A686
330
1A
100
AcDbEntity
  8
ZISSEN1
  6
BYBLOCK
 62
     0
100
AcDbLine
 10
-1630.880000000002
 20
1514.00348727896
 30
0.0
 11
-1629.800000000002
 21
1513.00348727896
 31
0.0
  0
LINE
  5
1A687
330
1A
100
AcDbEntity
  8
ZISSEN1
  6
BYBLOCK
 62
     0
100
AcDbLine
 10
-1629.800000000002
 20
1508.0
 30
0.0
 11
-1631.399999999998
 21
1508.0
 31
0.0
  0
LINE
  5
1A688
330
1A
100
AcDbEntity
  8
ZISSEN1
  6
BYBLOCK
 62
     0
100
AcDbLine
 10
-1629.800000000002
 20
1513.00348727896
 30
0.0
 11
-1629.800000000002
 21
1508.0
 31
0.0
  0
LINE
  5
1A689
330
1A
100
AcDbEntity
  8
ZISSEN1
  6
BYBLOCK
 62
     0
100
AcDbLine
 10
-1631.399999999999
 20
1508.0
 30
0.0
 11
-1629.800000000002
 21
1508.0
 31
0.0
  0
LINE
  5
1A68A
330
1A
100
AcDbEntity
  8
ZISSEN1
 62
     0
100
AcDbLine
 10
-1629.800000000002
 20
1509.0
 30
0.0
 11
-1631.399999999999
 21
1509.0
 31
0.0
  0
LINE
  5
1A68B
330
1A
100
AcDbEntity
  8
ZISSEN1
 62
     0
100
AcDbLine
 10
-1629.800000000002
 20
1508.0
 30
0.0
 11
-1631.4
 21
1508.0
 31
0.0
  0
LINE
  5
1A68C
330
1A
100
AcDbEntity
  8
ZISSEN1
  6
BYBLOCK
 62
     0
100
AcDbLine
 10
-1636.897846538317
 20
1514.0
 30
0.0
 11
-1637.817846538317
 21
1513.0
 31
0.0
  0
LINE
  5
1A6D7
330
1A
100
AcDbEntity
  8
ZISSEN1
  6
BYBLOCK
 62
     0
100
AcDbLine
 10
-1631.399999999999
 20
1557.058343980716
 30
0.0
 11
-1631.399999999999
 21
1539.058343980716
 31
0.0
  0
LINE
  5
1A6D8
330
1A
100
AcDbEntity
  8
ZISSEN1
  6
BYBLOCK
 62
     0
100
AcDbLine
 10
-1636.399999999999
 20
1539.058343980716
 30
0.0
 11
-1636.399999999999
 21
1557.058343980716
 31
0.0
  0
LINE
  5
1A6D9
330
1A
100
AcDbEntity
  8
ZISSEN1
  6
BYBLOCK
 62
     0
100
AcDbLine
 10
-1636.897846538317
 20
1557.998343980716
 30
0.0
 11
-1630.897846538318
 21
1557.998343980716
 31
0.0
  0
LINE
  5
1A6DA
330
1A
100
AcDbEntity
  8
ZISSEN1
  6
BYBLOCK
 62
     0
100
AcDbLine
 10
-1636.399999999999
 20
1557.058343980716
 30
0.0
 11
-1631.399999999999
 21
1557.058343980716
 31
0.0
  0
LINE
  5
1A6DD
330
1A
100
AcDbEntity
  8
ZISSEN1
  6
BYBLOCK
 62
     0
100
AcDbLine
 10
-1631.399999999999
 20
1539.058343980716
 30
0.0
 11
-1636.399999999999
 21
1539.058343980716
 31
0.0
  0
LINE
  5
1A9AF
330
1A
100
AcDbEntity
  8
ZISSEN1
100
AcDbLine
 10
-1629.800000000002
 20
1513.003487278959
 30
0.0
 11
-1625.0
 21
1513.003487278959
 31
0.0
  0
LINE
  5
1A9B1
330
1A
100
AcDbEntity
  8
ZISSEN1
100
AcDbLine
 10
-1631.399999999999
 20
1557.058343980716
 30
0.0
 11
-1631.399999999999
 21
1557.998343980716
 31
0.0
  0
LINE
  5
1A9B2
330
1A
100
AcDbEntity
  8
ZISSEN1
100
AcDbLine
 10
-1590.799999999999
 20
1650.2
 30
0.0
 11
-1594.500000720623
 21
1650.2
 31
0.0
  0
LINE
  5
1A9B3
330
1A
100
AcDbEntity
  8
ZISSEN1
100
AcDbLine
 10
-1594.500000720623
 20
1650.2
 30
0.0
 11
-1594.500000720623
 21
1645.2
 31
0.0
  0
LINE
  5
1A9B4
330
1A
100
AcDbEntity
  8
ZISSEN1
100
AcDbLine
 10
-1594.500000720623
 20
1645.2
 30
0.0
 11
-1590.799999999999
 21
1645.2
 31
0.0
  0
LINE
  5
1A9B5
330
1A
100
AcDbEntity
  8
ZISSEN1
100
AcDbLine
 10
-1594.500000720623
 20
1557.058343980715
 30
0.0
 11
-1594.500000720623
 21
1539.058343980715
 31
0.0
  0
LINE
  5
1A9C7
330
1A
100
AcDbEntity
  8
ZISSEN1
100
AcDbLine
 10
-1590.799999999999
 20
1650.2
 30
0.0
 11
-1594.500000720623
 21
1650.2
 31
0.0
  0
LINE
  5
1AA38
330
1A
100
AcDbEntity
  8
CL1
100
AcDbLine
 10
-1501.97000337714
 20
1643.95
 30
0.0
 11
-1501.97000337714
 21
1637.95
 31
0.0
  0
LINE
  5
1AA39
330
1A
100
AcDbEntity
  8
CL1
100
AcDbLine
 10
-1501.97000337714
 20
1643.95
 30
0.0
 11
-1501.97000337714
 21
1637.95
 31
0.0
  0
LINE
  5
1AA3A
330
1A
100
AcDbEntity
  8
CL1
100
AcDbLine
 10
-1504.97000337714
 20
1640.95
 30
0.0
 11
-1498.97000337714
 21
1640.95
 31
0.0
  0
LINE
  5
1AA3B
330
1A
100
AcDbEntity
  8
CL1
100
AcDbLine
 10
-1504.97000337714
 20
1640.95
 30
0.0
 11
-1498.97000337714
 21
1640.95
 31
0.0
  0
CIRCLE
  5
1AA3C
330
1A
100
AcDbEntity
  8
ZISSEN1
100
AcDbCircle
 10
-1501.97000337714
 20
1640.95
 30
0.0
 40
0.8
  0
CIRCLE
  5
1AA3D
330
1A
100
AcDbEntity
  8
SAISEN
100
AcDbCircle
 10
-1501.97000337714
 20
1640.95
 30
0.0
 40
1.3
  0
LINE
  5
1AA3E
330
1A
100
AcDbEntity
  8
CL1
100
AcDbLine
 10
-1484.05000337714
 20
1643.95
 30
0.0
 11
-1484.05000337714
 21
1637.95
 31
0.0
  0
LINE
  5
1AA3F
330
1A
100
AcDbEntity
  8
CL1
100
AcDbLine
 10
-1484.05000337714
 20
1643.95
 30
0.0
 11
-1484.05000337714
 21
1637.95
 31
0.0
  0
LINE
  5
1AA40
330
1A
100
AcDbEntity
  8
CL1
100
AcDbLine
 10
-1487.05000337714
 20
1640.95
 30
0.0
 11
-1481.05000337714
 21
1640.95
 31
0.0
  0
LINE
  5
1AA41
330
1A
100
AcDbEntity
  8
CL1
100
AcDbLine
 10
-1487.05000337714
 20
1640.95
 30
0.0
 11
-1481.05000337714
 21
1640.95
 31
0.0
  0
CIRCLE
  5
1AA42
330
1A
100
AcDbEntity
  8
ZISSEN1
100
AcDbCircle
 10
-1484.05000337714
 20
1640.95
 30
0.0
 40
0.8
  0
CIRCLE
  5
1AA43
330
1A
100
AcDbEntity
  8
SAISEN
100
AcDbCircle
 10
-1484.05000337714
 20
1640.95
 30
0.0
 40
1.3
  0
VIEWPORT
  5
5D8F
330
5D8E
100
AcDbEntity
 67
     1
  8
0
100
AcDbViewport
 10
217.5792637501746
 20
160.2089233184985
 30
0.0
 40
599.5675899447417
 41
344.3505837436645
 68
     1
 69
     1
1001
ACAD
1000
MVIEW
1002
{
1070
    16
1010
0.0
1020
0.0
1030
0.0
1010
0.0
1020
0.0
1030
1.0
1040
0.0
1040
344.3505837436645
1040
217.5792637501746
1040
160.2089233184985
1040
50.0
1040
0.0
1040
0.0
1070
     0
1070
   100
1070
     1
1070
     0
1070
     0
1070
     0
1070
     0
1070
     0
1040
0.0
1040
0.0
1040
0.0
1040
1.0
1040
1.0
1040
10.0
1040
10.0
1070
     0
1002
{
1002
}
1002
}
  0
VIEWPORT
  5
6001
330
5D8E
100
AcDbEntity
 67
     1
  8
ZISSEN1
100
AcDbViewport
 10
221.7861955525412
 20
157.6960273330388
 30
0.0
 40
385.4999999999997
 41
259.9999999999999
 68
     2
 69
     2
1001
ACAD
1000
MVIEW
1002
{
1070
    16
1010
0.0
1020
0.0
1030
0.0
1010
0.0
1020
0.0
1030
1.0
1040
0.0
1040
259.9999999999999
1040
-1514.945063409687
1040
1605.346919836038
1040
50.0
1040
0.0
1040
0.0
1070
     0
1070
   100
1070
     1
1070
     0
1070
     0
1070
     0
1070
     0
1070
     0
1040
0.0
1040
0.0
1040
0.0
1040
1.0
1040
1.0
1040
10.0
1040
10.0
1070
     0
1002
{
1002
}
1002
}
  0
TEXT
  5
716F
330
5D8E
100
AcDbEntity
 67
     1
  8
SUNPOU
 62
     0
100
AcDbText
 10
373.5869942185031
 20
41.65187846541698
 30
0.0
 40
3.5
  1
縮尺 1/1
  7
ゴシック体
100
AcDbText
  0
ENDSEC
  0
SECTION
  2
OBJECTS
  0
DICTIONARY
  5
C
330
0
100
AcDbDictionary
  3
ACAD_GROUP
350
D
  3
ACAD_LAYOUT
350
5C7D
  3
ACAD_MLINESTYLE
350
E
  3
ACAD_PLOTSETTINGS
350
5C7E
  3
ACAD_PLOTSTYLENAME
350
5C7B
  3
DWGPROPS
350
5E8E
  3
ACDBHEADERROUNDTRIPXREC
350
1AA56
  0
DICTIONARY
  5
130FA
330
2
100
AcDbDictionary
280
     1
  3
ACAD_LAYERFILTERS
360
130FB
  0
DICTIONARY
  5
1AA76
330
1A
100
AcDbDictionary
280
     1
  3
ACAD_LAYOUTSELFREF
360
1AA77
  0
DICTIONARY
  5
1AA78
330
5D8E
100
AcDbDictionary
280
     1
  3
ACAD_LAYOUTSELFREF
360
1AA79
  0
DICTIONARY
  5
D
102
{ACAD_REACTORS
330
C
102
}
330
C
100
AcDbDictionary
  3
*A1
350
477D
  3
*A2
350
4780
  3
*A3
350
4781
  3
*A4
350
4C0E
  3
*A5
350
4C0F
  3
*A6
350
4C10
  3
*A7
350
4C11
  3
*A8
350
4C12
  3
*A9
350
4C13
  3
*A10
350
4C14
  3
*A11
350
4C15
  3
*A12
350
4C16
  3
*A13
350
4C17
  3
*A14
350
477E
  3
*A15
350
477F
  0
DICTIONARY
  5
5C7D
102
{ACAD_REACTORS
330
C
102
}
330
C
100
AcDbDictionary
  0
DICTIONARY
  5
E
102
{ACAD_REACTORS
330
C
102
}
330
C
100
AcDbDictionary
  3
STANDARD
350
13
  0
DICTIONARY
  5
5C7E
102
{ACAD_REACTORS
330
C
102
}
330
C
100
AcDbDictionary
  0
ACDBDICTIONARYWDFLT
  5
5C7B
102
{ACAD_REACTORS
330
C
102
}
330
C
100
AcDbDictionary
281
     1
  3
Normal
350
5C7C
100
AcDbDictionaryWithDefault
340
5C7C
  0
XRECORD
  5
5E8E
102
{ACAD_REACTORS
330
C
102
}
330
C
100
AcDbXrecord
  1
DWGPROPS COOKIE
  2

  3

  4

  6

  7

  8

  9

300
=
301
=
302
=
303
=
304
=
305
=
306
=
307
=
308
=
309
=
 40
0.586753587962963
 41
2450495.493631365
 42
2453208.662277431
  1

 90
        0
  0
DICTIONARY
  5
1AA56
102
{ACAD_REACTORS
330
C
102
}
330
C
100
AcDbDictionary
  3
TSTACKALIGN
350
1AA57
  3
TSTACKSIZE
350
1AA58
  3
HYPERLINKBASE
350
1AA59
  3
STYLESHEET
350
1AA5A
  3
LAYOUTDICT
350
1AA5B
  3
PLOTSETDICT
350
1AA5C
  3
PLOTSTYLNAMDICT
350
1AA5D
  3
LWETCUNION
350
1AA5E
  3
INSUNITS
350
1AA5F
  3
CEPSNTYPE
350
1AA60
  3
FINGERPRINTGUID
350
1AA61
  3
VERSIONGUID
350
1AA62
  3
PSVPSCALE
350
1AA63
  3
PUCSORTHOREF
350
1AA64
  3
PUCSORTHOVIEW
350
1AA65
  3
PUCSBASE
350
1AA66
  3
PUCSORGTOP
350
1AA67
  3
PUCSORGBOTTOM
350
1AA68
  3
PUCSORGLEFT
350
1AA69
  3
PUCSORGRIGHT
350
1AA6A
  3
PUCSORGFRONT
350
1AA6B
  3
PUCSORGBACK
350
1AA6C
  3
UCSORTHOREF
350
1AA6D
  3
UCSORTHOVIEW
350
1AA6E
  3
UCSBASE
350
1AA6F
  3
UCSORGTOP
350
1AA70
  3
UCSORGBOTTOM
350
1AA71
  3
UCSORGLEFT
350
1AA72
  3
UCSORGRIGHT
350
1AA73
  3
UCSORGFRONT
350
1AA74
  3
UCSORGBACK
350
1AA75
  0
DICTIONARY
  5
130FB
102
{ACAD_REACTORS
330
130FA
102
}
330
130FA
100
AcDbDictionary
280
     1
  3
BASE
360
130FC
  3
CASE
360
130FD
  3
KIKOU
360
130FE
  0
XRECORD
  5
1AA77
102
{ACAD_REACTORS
330
1AA76
102
}
330
1AA76
100
AcDbXrecord
340
1A
  0
XRECORD
  5
1AA79
102
{ACAD_REACTORS
330
1AA78
102
}
330
1AA78
100
AcDbXrecord
340
5D8E
  0
GROUP
  5
477D
102
{ACAD_REACTORS
330
D
102
}
330
D
100
AcDbGroup
300

 70
     1
 71
     1
  0
GROUP
  5
4780
102
{ACAD_REACTORS
330
D
102
}
330
D
100
AcDbGroup
300

 70
     1
 71
     1
  0
GROUP
  5
4781
102
{ACAD_REACTORS
330
D
102
}
330
D
100
AcDbGroup
300

 70
     1
 71
     1
  0
GROUP
  5
4C0E
102
{ACAD_REACTORS
330
D
102
}
330
D
100
AcDbGroup
300

 70
     1
 71
     1
  0
GROUP
  5
4C0F
102
{ACAD_REACTORS
330
D
102
}
330
D
100
AcDbGroup
300

 70
     1
 71
     1
  0
GROUP
  5
4C10
102
{ACAD_REACTORS
330
D
102
}
330
D
100
AcDbGroup
300

 70
     1
 71
     1
  0
GROUP
  5
4C11
102
{ACAD_REACTORS
330
D
102
}
330
D
100
AcDbGroup
300

 70
     1
 71
     1
  0
GROUP
  5
4C12
102
{ACAD_REACTORS
330
D
102
}
330
D
100
AcDbGroup
300

 70
     1
 71
     1
  0
GROUP
  5
4C13
102
{ACAD_REACTORS
330
D
102
}
330
D
100
AcDbGroup
300

 70
     1
 71
     1
  0
GROUP
  5
4C14
102
{ACAD_REACTORS
330
D
102
}
330
D
100
AcDbGroup
300

 70
     1
 71
     1
  0
GROUP
  5
4C15
102
{ACAD_REACTORS
330
D
102
}
330
D
100
AcDbGroup
300

 70
     1
 71
     1
  0
GROUP
  5
4C16
102
{ACAD_REACTORS
330
D
102
}
330
D
100
AcDbGroup
300

 70
     1
 71
     1
  0
GROUP
  5
4C17
102
{ACAD_REACTORS
330
D
102
}
330
D
100
AcDbGroup
300

 70
     1
 71
     1
  0
GROUP
  5
477E
102
{ACAD_REACTORS
330
D
102
}
330
D
100
AcDbGroup
300

 70
     1
 71
     1
  0
GROUP
  5
477F
102
{ACAD_REACTORS
330
D
102
}
330
D
100
AcDbGroup
300

 70
     1
 71
     1
  0
MLINESTYLE
  5
13
102
{ACAD_REACTORS
330
E
102
}
330
E
100
AcDbMlineStyle
  2
STANDARD
 70
     0
  3

 62
     0
 51
90.0
 52
90.0
 71
     2
 49
0.5
 62
   256
  6
BYLAYER
 49
-0.5
 62
   256
  6
BYLAYER
  0
ACDBPLACEHOLDER
  5
5C7C
102
{ACAD_REACTORS
330
5C7B
102
}
330
5C7B
100
AcDbPlaceHolder
280
     0
  0
XRECORD
  5
1AA57
102
{ACAD_REACTORS
330
1AA56
102
}
330
1AA56
100
AcDbXrecord
 90
        1
  0
XRECORD
  5
1AA58
102
{ACAD_REACTORS
330
1AA56
102
}
330
1AA56
100
AcDbXrecord
 90
       70
  0
XRECORD
  5
1AA59
102
{ACAD_REACTORS
330
1AA56
102
}
330
1AA56
100
AcDbXrecord
  1

  0
XRECORD
  5
1AA5A
102
{ACAD_REACTORS
330
1AA56
102
}
330
1AA56
100
AcDbXrecord
  1

  0
XRECORD
  5
1AA5B
102
{ACAD_REACTORS
330
1AA56
102
}
330
1AA56
100
AcDbXrecord
340
5C7D
  0
XRECORD
  5
1AA5C
102
{ACAD_REACTORS
330
1AA56
102
}
330
1AA56
100
AcDbXrecord
340
5C7E
  0
XRECORD
  5
1AA5D
102
{ACAD_REACTORS
330
1AA56
102
}
330
1AA56
100
AcDbXrecord
340
5C7B
  0
XRECORD
  5
1AA5E
102
{ACAD_REACTORS
330
1AA56
102
}
330
1AA56
100
AcDbXrecord
 90
    10781
  0
XRECORD
  5
1AA5F
102
{ACAD_REACTORS
330
1AA56
102
}
330
1AA56
100
AcDbXrecord
 90
        0
  0
XRECORD
  5
1AA60
102
{ACAD_REACTORS
330
1AA56
102
}
330
1AA56
100
AcDbXrecord
 90
        0
  0
XRECORD
  5
1AA61
102
{ACAD_REACTORS
330
1AA56
102
}
330
1AA56
100
AcDbXrecord
  1
{225A7F0D-DA29-11D8-946A-0000E2416295}
  0
XRECORD
  5
1AA62
102
{ACAD_REACTORS
330
1AA56
102
}
330
1AA56
100
AcDbXrecord
  1
{CC3C4E31-06A0-4C33-9404-956CCCDA4CD7}
  0
XRECORD
  5
1AA63
102
{ACAD_REACTORS
330
1AA56
102
}
330
1AA56
100
AcDbXrecord
 40
0.0
  0
XRECORD
  5
1AA64
102
{ACAD_REACTORS
330
1AA56
102
}
330
1AA56
100
AcDbXrecord
340
0
  0
XRECORD
  5
1AA65
102
{ACAD_REACTORS
330
1AA56
102
}
330
1AA56
100
AcDbXrecord
 70
     0
  0
XRECORD
  5
1AA66
102
{ACAD_REACTORS
330
1AA56
102
}
330
1AA56
100
AcDbXrecord
340
0
  0
XRECORD
  5
1AA67
102
{ACAD_REACTORS
330
1AA56
102
}
330
1AA56
100
AcDbXrecord
 10
0.0
 20
0.0
 30
0.0
  0
XRECORD
  5
1AA68
102
{ACAD_REACTORS
330
1AA56
102
}
330
1AA56
100
AcDbXrecord
 10
0.0
 20
0.0
 30
0.0
  0
XRECORD
  5
1AA69
102
{ACAD_REACTORS
330
1AA56
102
}
330
1AA56
100
AcDbXrecord
 10
0.0
 20
0.0
 30
0.0
  0
XRECORD
  5
1AA6A
102
{ACAD_REACTORS
330
1AA56
102
}
330
1AA56
100
AcDbXrecord
 10
0.0
 20
0.0
 30
0.0
  0
XRECORD
  5
1AA6B
102
{ACAD_REACTORS
330
1AA56
102
}
330
1AA56
100
AcDbXrecord
 10
0.0
 20
0.0
 30
0.0
  0
XRECORD
  5
1AA6C
102
{ACAD_REACTORS
330
1AA56
102
}
330
1AA56
100
AcDbXrecord
 10
0.0
 20
0.0
 30
0.0
  0
XRECORD
  5
1AA6D
102
{ACAD_REACTORS
330
1AA56
102
}
330
1AA56
100
AcDbXrecord
340
0
  0
XRECORD
  5
1AA6E
102
{ACAD_REACTORS
330
1AA56
102
}
330
1AA56
100
AcDbXrecord
 70
     0
  0
XRECORD
  5
1AA6F
102
{ACAD_REACTORS
330
1AA56
102
}
330
1AA56
100
AcDbXrecord
340
0
  0
XRECORD
  5
1AA70
102
{ACAD_REACTORS
330
1AA56
102
}
330
1AA56
100
AcDbXrecord
 10
0.0
 20
0.0
 30
0.0
  0
XRECORD
  5
1AA71
102
{ACAD_REACTORS
330
1AA56
102
}
330
1AA56
100
AcDbXrecord
 10
0.0
 20
0.0
 30
0.0
  0
XRECORD
  5
1AA72
102
{ACAD_REACTORS
330
1AA56
102
}
330
1AA56
100
AcDbXrecord
 10
0.0
 20
0.0
 30
0.0
  0
XRECORD
  5
1AA73
102
{ACAD_REACTORS
330
1AA56
102
}
330
1AA56
100
AcDbXrecord
 10
0.0
 20
0.0
 30
0.0
  0
XRECORD
  5
1AA74
102
{ACAD_REACTORS
330
1AA56
102
}
330
1AA56
100
AcDbXrecord
 10
0.0
 20
0.0
 30
0.0
  0
XRECORD
  5
1AA75
102
{ACAD_REACTORS
330
1AA56
102
}
330
1AA56
100
AcDbXrecord
 10
0.0
 20
0.0
 30
0.0
  0
XRECORD
  5
130FC
102
{ACAD_REACTORS
330
130FB
102
}
330
130FB
100
AcDbXrecord
  1
BASE
  1
BASE*
  1
*
  1
*
 70
     0
  1
*
  1
*
  0
XRECORD
  5
130FD
102
{ACAD_REACTORS
330
130FB
102
}
330
130FB
100
AcDbXrecord
  1
CASE
  1
CASE*
  1
*
  1
*
 70
     0
  1
*
  1
*
  0
XRECORD
  5
130FE
102
{ACAD_REACTORS
330
130FB
102
}
330
130FB
100
AcDbXrecord
  1
KIKOU
  1
KIKOU*
  1
*
  1
*
 70
     0
  1
*
  1
*
  0
ENDSEC
  0
EOF
