  0
SECTION
  2
HEADER
  9
$ACADVER
  1
AC1014
  9
$ACADMAINTVER
 70
     9
  9
$DWGCODEPAGE
  3
ANSI_932
  9
$INSBASE
 10
0.0
 20
0.0
 30
0.0
  9
$EXTMIN
 10
-1321.579526204305
 20
1517.569829010938
 30
0.0
  9
$EXTMAX
 10
-1170.074016257343
 20
1689.682402445169
 30
0.0
  9
$LIMMIN
 10
0.0
 20
0.0
  9
$LIMMAX
 10
420.0
 20
297.0
  9
$ORTHOMODE
 70
     1
  9
$REGENMODE
 70
     1
  9
$FILLMODE
 70
     1
  9
$QTEXTMODE
 70
     0
  9
$MIRRTEXT
 70
     1
  9
$DRAGMODE
 70
     2
  9
$LTSCALE
 40
1.0
  9
$OSMODE
 70
    37
  9
$ATTMODE
 70
     1
  9
$TEXTSIZE
 40
2.5
  9
$TRACEWID
 40
1.0
  9
$TEXTSTYLE
  7
ゴシック体
  9
$CLAYER
  8
SUNPOU
  9
$CELTYPE
  6
BYLAYER
  9
$CECOLOR
 62
   256
  9
$CELTSCALE
 40
1.0
  9
$DELOBJ
 70
     1
  9
$DISPSILH
 70
     0
  9
$DIMSCALE
 40
0.0
  9
$DIMASZ
 40
3.0
  9
$DIMEXO
 40
0.5
  9
$DIMDLI
 40
0.5
  9
$DIMRND
 40
0.0
  9
$DIMDLE
 40
0.0
  9
$DIMEXE
 40
0.5
  9
$DIMTP
 40
0.0
  9
$DIMTM
 40
0.0
  9
$DIMTXT
 40
3.5
  9
$DIMCEN
 40
0.0
  9
$DIMTSZ
 40
0.0
  9
$DIMTOL
 70
     0
  9
$DIMLIM
 70
     0
  9
$DIMTIH
 70
     0
  9
$DIMTOH
 70
     0
  9
$DIMSE1
 70
     0
  9
$DIMSE2
 70
     0
  9
$DIMTAD
 70
     1
  9
$DIMZIN
 70
     8
  9
$DIMBLK
  1

  9
$DIMASO
 70
     1
  9
$DIMSHO
 70
     1
  9
$DIMPOST
  1

  9
$DIMAPOST
  1

  9
$DIMALT
 70
     0
  9
$DIMALTD
 70
     2
  9
$DIMALTF
 40
25.4
  9
$DIMLFAC
 40
1.0
  9
$DIMTOFL
 70
     1
  9
$DIMTVP
 40
0.0
  9
$DIMTIX
 70
     0
  9
$DIMSOXD
 70
     0
  9
$DIMSAH
 70
     0
  9
$DIMBLK1
  1

  9
$DIMBLK2
  1

  9
$DIMSTYLE
  2
標準スタイル
  9
$DIMCLRD
 70
     1
  9
$DIMCLRE
 70
     1
  9
$DIMCLRT
 70
     1
  9
$DIMTFAC
 40
1.0
  9
$DIMGAP
 40
1.0
  9
$DIMJUST
 70
     0
  9
$DIMSD1
 70
     0
  9
$DIMSD2
 70
     0
  9
$DIMTOLJ
 70
     1
  9
$DIMTZIN
 70
     8
  9
$DIMALTZ
 70
     0
  9
$DIMALTTZ
 70
     0
  9
$DIMFIT
 70
     3
  9
$DIMUPT
 70
     0
  9
$DIMUNIT
 70
     2
  9
$DIMDEC
 70
     2
  9
$DIMTDEC
 70
     2
  9
$DIMALTU
 70
     2
  9
$DIMALTTD
 70
     2
  9
$DIMTXSTY
  7
ゴシック体
  9
$DIMAUNIT
 70
     0
  9
$LUNITS
 70
     2
  9
$LUPREC
 70
     4
  9
$SKETCHINC
 40
1.0
  9
$FILLETRAD
 40
0.0
  9
$AUNITS
 70
     0
  9
$AUPREC
 70
     0
  9
$MENU
  1
.
  9
$ELEVATION
 40
0.0
  9
$PELEVATION
 40
0.0
  9
$THICKNESS
 40
0.0
  9
$LIMCHECK
 70
     0
  9
$BLIPMODE
 70
     0
  9
$CHAMFERA
 40
10.0
  9
$CHAMFERB
 40
10.0
  9
$CHAMFERC
 40
2.0
  9
$CHAMFERD
 40
0.7853981633974483
  9
$SKPOLY
 70
     0
  9
$TDCREATE
 40
2450495.493631365
  9
$TDUPDATE
 40
2455345.761030300
  9
$TDINDWG
 40
1.6760231481
  9
$TDUSRTIMER
 40
1.6760231481
  9
$USRTIMER
 70
     1
  9
$ANGBASE
 50
0.0
  9
$ANGDIR
 70
     0
  9
$PDMODE
 70
    99
  9
$PDSIZE
 40
0.0
  9
$PLINEWID
 40
0.0
  9
$COORDS
 70
     1
  9
$SPLFRAME
 70
     0
  9
$SPLINETYPE
 70
     6
  9
$SPLINESEGS
 70
     8
  9
$ATTDIA
 70
     0
  9
$ATTREQ
 70
     1
  9
$HANDLING
 70
 10241
  9
$HANDSEED
  5
14086
  9
$SURFTAB1
 70
     6
  9
$SURFTAB2
 70
     6
  9
$SURFTYPE
 70
     6
  9
$SURFU
 70
     6
  9
$SURFV
 70
     6
  9
$UCSNAME
  2

  9
$UCSORG
 10
0.0
 20
0.0
 30
0.0
  9
$UCSXDIR
 10
1.0
 20
0.0
 30
0.0
  9
$UCSYDIR
 10
0.0
 20
1.0
 30
0.0
  9
$PUCSNAME
  2

  9
$PUCSORG
 10
0.0
 20
0.0
 30
0.0
  9
$PUCSXDIR
 10
1.0
 20
0.0
 30
0.0
  9
$PUCSYDIR
 10
0.0
 20
1.0
 30
0.0
  9
$USERI1
 70
     0
  9
$USERI2
 70
     0
  9
$USERI3
 70
     0
  9
$USERI4
 70
     0
  9
$USERI5
 70
     0
  9
$USERR1
 40
0.0
  9
$USERR2
 40
0.0
  9
$USERR3
 40
0.0
  9
$USERR4
 40
0.0
  9
$USERR5
 40
0.0
  9
$WORLDVIEW
 70
     1
  9
$SHADEDGE
 70
     3
  9
$SHADEDIF
 70
    70
  9
$TILEMODE
 70
     0
  9
$MAXACTVP
 70
    16
  9
$PINSBASE
 10
0.0
 20
0.0
 30
0.0
  9
$PLIMCHECK
 70
     0
  9
$PEXTMIN
 10
29.03619555254135
 20
27.69602733303884
 30
0.0
  9
$PEXTMAX
 10
414.5361955525411
 20
287.6960273330388
 30
0.0
  9
$PLIMMIN
 10
11.82004301553063
 20
9.193992763477359
  9
$PLIMMAX
 10
431.7666982889681
 20
306.204643398243
  9
$UNITMODE
 70
     0
  9
$VISRETAIN
 70
     0
  9
$PLINEGEN
 70
     0
  9
$PSLTSCALE
 70
     1
  9
$TREEDEPTH
 70
  3020
  9
$PICKSTYLE
 70
     1
  9
$CMLSTYLE
  2
STANDARD
  9
$CMLJUST
 70
     0
  9
$CMLSCALE
 40
1.0
  9
$PROXYGRAPHICS
 70
     1
  9
$MEASUREMENT
 70
     1
  0
ENDSEC
  0
SECTION
  2
CLASSES
  0
CLASS
  1
LWPOLYLINE
  2
AcDbPolyline
  3
AutoCAD 2000
 90
        0
280
     0
281
     1
  0
CLASS
  1
HATCH
  2
AcDbHatch
  3
AutoCAD 2000
 90
        0
280
     0
281
     1
  0
CLASS
  1
ACDBDICTIONARYWDFLT
  2
AcDbDictionaryWithDefault
  3
AutoCAD 2000
 90
        0
280
     0
281
     0
  0
CLASS
  1
ACDBPLACEHOLDER
  2
AcDbPlaceHolder
  3
AutoCAD 2000
 90
        0
280
     0
281
     0
  0
CLASS
  1
LAYOUT
  2
AcDbLayout
  3
AutoCAD 2000
 90
        0
280
     0
281
     0
  0
CLASS
  1
DICTIONARYVAR
  2
AcDbDictionaryVar
  3
AutoCAD 2000
 90
        0
280
     0
281
     0
  0
CLASS
  1
LONG_TRANSACTION
  2
AcDbLongTransaction
  3
AutoCAD 2000
 90
        0
280
     0
281
     0
  0
CLASS
  1
LWPOLYLINE
  2
AcDbPolyline
  3
AutoCAD 2000
 90
        0
280
     0
281
     1
  0
CLASS
  1
HATCH
  2
AcDbHatch
  3
AutoCAD 2000
 90
        0
280
     0
281
     1
  0
CLASS
  1
XRECORD
  2
AcDbXrecord
  3
AutoCAD 2000
 90
        0
280
     0
281
     0
  0
ENDSEC
  0
SECTION
  2
TABLES
  0
TABLE
  2
VPORT
  5
8
330
0
100
AcDbSymbolTable
 70
     1
  0
VPORT
  5
1404D
330
8
100
AcDbSymbolTableRecord
100
AcDbViewportTableRecord
  2
*ACTIVE
 70
     0
 10
0.0
 20
0.0
 11
1.0
 21
1.0
 12
-1245.829211193736
 22
1603.620397689819
 13
0.0
 23
0.0
 14
5.0
 24
5.0
 15
0.0
 25
0.0
 16
0.0
 26
0.0
 36
1.0
 17
0.0
 27
0.0
 37
0.0
 40
174.2143837247162
 41
1.826589595375722
 42
50.0
 43
0.0
 44
0.0
 50
0.0
 51
0.0
 71
     0
 72
   100
 73
     1
 74
     0
 75
     0
 76
     0
 77
     0
 78
     0
  0
ENDTAB
  0
TABLE
  2
LTYPE
  5
5
330
0
100
AcDbSymbolTable
 70
     3
  0
LTYPE
  5
14
330
5
100
AcDbSymbolTableRecord
100
AcDbLinetypeTableRecord
  2
BYBLOCK
 70
     0
  3

 72
    65
 73
     0
 40
0.0
  0
LTYPE
  5
15
330
5
100
AcDbSymbolTableRecord
100
AcDbLinetypeTableRecord
  2
BYLAYER
 70
     0
  3

 72
    65
 73
     0
 40
0.0
  0
LTYPE
  5
16
330
5
100
AcDbSymbolTableRecord
100
AcDbLinetypeTableRecord
  2
CONTINUOUS
 70
     0
  3
Solid line
 72
    65
 73
     0
 40
0.0
  0
LTYPE
  5
1956
330
5
100
AcDbSymbolTableRecord
100
AcDbLinetypeTableRecord
  2
CENTERX2
 70
     0
  3
________  __  ________  __  ________  __  _____
 72
    65
 73
     4
 40
4.0
 49
2.5
 74
     0
 49
-0.5
 74
     0
 49
0.5
 74
     0
 49
-0.5
 74
     0
  0
LTYPE
  5
1958
330
5
100
AcDbSymbolTableRecord
100
AcDbLinetypeTableRecord
  2
PHANTOMX2
 70
     0
  3
____________    ____    ____    ____________   
 72
    65
 73
     6
 40
5.0
 49
2.5
 74
     0
 49
-0.5
 74
     0
 49
0.5
 74
     0
 49
-0.5
 74
     0
 49
0.5
 74
     0
 49
-0.5
 74
     0
  0
ENDTAB
  0
TABLE
  2
LAYER
  5
2
330
0
100
AcDbSymbolTable
 70
     7
  0
LAYER
  5
F
330
2
100
AcDbSymbolTableRecord
100
AcDbLayerTableRecord
  2
0
 70
     0
 62
     7
  6
CONTINUOUS
  0
LAYER
  5
18F
330
2
100
AcDbSymbolTableRecord
100
AcDbLayerTableRecord
  2
ZISSEN1
 70
     0
 62
     7
  6
CONTINUOUS
  0
LAYER
  5
529
330
2
100
AcDbSymbolTableRecord
100
AcDbLayerTableRecord
  2
SUNPOU
 70
     0
 62
     1
  6
CONTINUOUS
  0
LAYER
  5
195A
330
2
100
AcDbSymbolTableRecord
100
AcDbLayerTableRecord
  2
CL1
 70
     0
 62
   210
  6
CENTERX2
  0
LAYER
  5
195C
330
2
100
AcDbSymbolTableRecord
100
AcDbLayerTableRecord
  2
SOUZOUSEN
 70
     0
 62
     5
  6
PHANTOMX2
  0
LAYER
  5
3A9B
330
2
100
AcDbSymbolTableRecord
100
AcDbLayerTableRecord
  2
DEFPOINTS
 70
     0
 62
     7
  6
CONTINUOUS
  0
LAYER
  5
11C19
330
2
100
AcDbSymbolTableRecord
100
AcDbLayerTableRecord
  2
出力ｷﾊ_ﾝ
 70
     0
 62
     7
  6
CONTINUOUS
  0
ENDTAB
  0
TABLE
  2
STYLE
  5
3
330
0
100
AcDbSymbolTable
 70
     2
  0
STYLE
  5
10
330
3
100
AcDbSymbolTableRecord
100
AcDbTextStyleTableRecord
  2
STANDARD
 70
     0
 40
0.0
 41
1.0
 50
0.0
 71
     0
 42
3.0
  3
txt
  4
BigFont
  0
STYLE
  5
1960
330
3
100
AcDbSymbolTableRecord
100
AcDbTextStyleTableRecord
  2
ゴシック体
 70
     0
 40
0.0
 41
1.0
 50
0.0
 71
     0
 42
2.5
  3
MS Gothic.ttf
  4

1001
ACAD
1000
MS Gothic
1071
    32817
  0
ENDTAB
  0
TABLE
  2
VIEW
  5
6
330
0
100
AcDbSymbolTable
 70
     0
  0
ENDTAB
  0
TABLE
  2
UCS
  5
7
330
0
100
AcDbSymbolTable
 70
     0
  0
ENDTAB
  0
TABLE
  2
APPID
  5
9
330
0
100
AcDbSymbolTable
 70
     5
  0
APPID
  5
11
330
9
100
AcDbSymbolTableRecord
100
AcDbRegAppTableRecord
  2
ACAD
 70
     0
  0
APPID
  5
4005
330
9
100
AcDbSymbolTableRecord
100
AcDbRegAppTableRecord
  2
CONTENTTABDATA
 70
     0
  0
APPID
  5
4006
330
9
100
AcDbSymbolTableRecord
100
AcDbRegAppTableRecord
  2
CONTENTCURRENTTAB
 70
     0
  0
APPID
  5
477B
330
9
100
AcDbSymbolTableRecord
100
AcDbRegAppTableRecord
  2
CONTENTBLOCKDESCRIPTION
 70
     0
  0
APPID
  5
477C
330
9
100
AcDbSymbolTableRecord
100
AcDbRegAppTableRecord
  2
CONTENTBLOCKICON
 70
     0
  0
ENDTAB
  0
TABLE
  2
DIMSTYLE
  5
A
330
0
100
AcDbSymbolTable
 70
     2
  0
DIMSTYLE
105
1D
330
A
100
AcDbSymbolTableRecord
100
AcDbDimStyleTableRecord
  2
STANDARD
 70
     0
  3

  4

  5

  6

  7

 40
1.0
 41
0.18
 42
0.0625
 43
0.38
 44
0.18
 45
0.0
 46
0.0
 47
0.0
 48
0.0
140
0.18
141
0.09
142
0.0
143
25.4
144
1.0
145
0.0
146
1.0
147
0.09
 71
     0
 72
     0
 73
     1
 74
     1
 75
     0
 76
     0
 77
     0
 78
     0
170
     0
171
     2
172
     0
173
     0
174
     0
175
     0
176
     0
177
     0
178
     0
270
     2
271
     4
272
     4
273
     2
274
     2
340
10
275
     0
280
     0
281
     0
282
     0
283
     1
284
     0
285
     0
286
     0
287
     3
288
     0
  0
DIMSTYLE
105
52E
102
{ACAD_REACTORS
330
13659
330
135B1
330
135B2
330
13516
330
13531
330
135B0
330
13200
330
13658
330
13210
330
13204
330
13205
330
13207
330
1320E
330
13517
330
13F96
102
}
330
A
100
AcDbSymbolTableRecord
100
AcDbDimStyleTableRecord
  2
標準スタイル
 70
     0
  3

  4

  5

  6

  7

 40
0.0
 41
3.0
 42
0.5
 43
0.5
 44
0.5
 45
0.0
 46
0.0
 47
0.0
 48
0.0
140
3.5
141
0.0
142
0.0
143
25.4
144
1.0
145
0.0
146
1.0
147
1.0
 71
     0
 72
     0
 73
     0
 74
     0
 75
     0
 76
     0
 77
     1
 78
     8
170
     0
171
     2
172
     1
173
     0
174
     0
175
     0
176
     1
177
     1
178
     1
270
     2
271
     2
272
     2
273
     2
274
     2
340
1960
275
     0
280
     0
281
     0
282
     0
283
     1
284
     8
285
     0
286
     0
287
     3
288
     0
  0
ENDTAB
  0
TABLE
  2
BLOCK_RECORD
  5
1
330
0
100
AcDbSymbolTable
 70
    15
  0
BLOCK_RECORD
  5
1A
102
{ACAD_XDICTIONARY
360
14075
102
}
330
1
100
AcDbSymbolTableRecord
100
AcDbBlockTableRecord
  2
*MODEL_SPACE
  0
BLOCK_RECORD
  5
5D8E
102
{ACAD_XDICTIONARY
360
14077
102
}
330
1
100
AcDbSymbolTableRecord
100
AcDbBlockTableRecord
  2
*PAPER_SPACE
  0
BLOCK_RECORD
  5
1365C
330
1
100
AcDbSymbolTableRecord
100
AcDbBlockTableRecord
  2
*D0
  0
BLOCK_RECORD
  5
13668
330
1
100
AcDbSymbolTableRecord
100
AcDbBlockTableRecord
  2
*D1
  0
BLOCK_RECORD
  5
13674
330
1
100
AcDbSymbolTableRecord
100
AcDbBlockTableRecord
  2
*D2
  0
BLOCK_RECORD
  5
1368C
330
1
100
AcDbSymbolTableRecord
100
AcDbBlockTableRecord
  2
*D3
  0
BLOCK_RECORD
  5
13698
330
1
100
AcDbSymbolTableRecord
100
AcDbBlockTableRecord
  2
*D4
  0
BLOCK_RECORD
  5
136A4
330
1
100
AcDbSymbolTableRecord
100
AcDbBlockTableRecord
  2
*D5
  0
BLOCK_RECORD
  5
136B2
330
1
100
AcDbSymbolTableRecord
100
AcDbBlockTableRecord
  2
*D6
  0
BLOCK_RECORD
  5
136C0
330
1
100
AcDbSymbolTableRecord
100
AcDbBlockTableRecord
  2
*D7
  0
BLOCK_RECORD
  5
136CE
330
1
100
AcDbSymbolTableRecord
100
AcDbBlockTableRecord
  2
*D8
  0
BLOCK_RECORD
  5
136DA
330
1
100
AcDbSymbolTableRecord
100
AcDbBlockTableRecord
  2
*D9
  0
BLOCK_RECORD
  5
136E8
330
1
100
AcDbSymbolTableRecord
100
AcDbBlockTableRecord
  2
*D10
  0
BLOCK_RECORD
  5
136F4
330
1
100
AcDbSymbolTableRecord
100
AcDbBlockTableRecord
  2
*D11
  0
BLOCK_RECORD
  5
13700
330
1
100
AcDbSymbolTableRecord
100
AcDbBlockTableRecord
  2
*D12
  0
BLOCK_RECORD
  5
1370E
330
1
100
AcDbSymbolTableRecord
100
AcDbBlockTableRecord
  2
*D13
  0
BLOCK_RECORD
  5
13F97
330
1
100
AcDbSymbolTableRecord
100
AcDbBlockTableRecord
  2
*D14
  0
ENDTAB
  0
ENDSEC
  0
SECTION
  2
BLOCKS
  0
BLOCK
  5
1B
330
1A
100
AcDbEntity
  8
0
100
AcDbBlockBegin
  2
*MODEL_SPACE
 70
     0
 10
0.0
 20
0.0
 30
0.0
  3
*MODEL_SPACE
  1

  0
ENDBLK
  5
1C
330
1A
100
AcDbEntity
  8
0
100
AcDbBlockEnd
  0
BLOCK
  5
5E60
330
5D8E
100
AcDbEntity
 67
     1
  8
0
100
AcDbBlockBegin
  2
*PAPER_SPACE
 70
     0
 10
0.0
 20
0.0
 30
0.0
  3
*PAPER_SPACE
  1

  0
ENDBLK
  5
5E61
330
5D8E
100
AcDbEntity
 67
     1
  8
0
100
AcDbBlockEnd
  0
BLOCK
  5
13666
330
1365C
100
AcDbEntity
  8
0
100
AcDbBlockBegin
  2
*D0
 70
     1
 10
0.0
 20
0.0
 30
0.0
  3
*D0
  1

  0
LINE
  5
13F4C
330
1365C
100
AcDbEntity
  8
SUNPOU
 62
     1
100
AcDbLine
 10
-1187.574016257342
 20
1640.573527651525
 30
0.0
 11
-1210.574188168253
 21
1640.573527651525
 31
0.0
  0
LINE
  5
13F4D
330
1365C
100
AcDbEntity
  8
SUNPOU
 62
     1
100
AcDbLine
 10
-1187.574016257342
 20
1587.573527651525
 30
0.0
 11
-1210.574188168253
 21
1587.573527651525
 31
0.0
  0
LINE
  5
13F4E
330
1365C
100
AcDbEntity
  8
SUNPOU
 62
     1
100
AcDbLine
 10
-1210.074188168253
 20
1637.573527651525
 30
0.0
 11
-1210.074188168253
 21
1590.573527651525
 31
0.0
  0
SOLID
  5
13F4F
330
1365C
100
AcDbEntity
  8
SUNPOU
 62
     1
100
AcDbTrace
 10
-1210.574188168253
 20
1637.573527651525
 30
0.0
 11
-1209.574188168253
 21
1637.573527651525
 31
0.0
 12
-1210.074188168253
 22
1640.573527651525
 32
0.0
 13
-1210.074188168253
 23
1640.573527651525
 33
0.0
  0
SOLID
  5
13F50
330
1365C
100
AcDbEntity
  8
SUNPOU
 62
     1
100
AcDbTrace
 10
-1210.574188168253
 20
1590.573527651525
 30
0.0
 11
-1209.574188168253
 21
1590.573527651525
 31
0.0
 12
-1210.074188168253
 22
1587.573527651525
 32
0.0
 13
-1210.074188168253
 23
1587.573527651525
 33
0.0
  0
MTEXT
  5
13F51
330
1365C
100
AcDbEntity
  8
SUNPOU
 62
     1
100
AcDbMText
 10
-1212.824188168253
 20
1614.073527651525
 30
0.0
 40
3.5
 41
0.0
 71
     5
 72
     1
  1
\A1;53
 11
0.0000000000000001
 21
1.0
 31
0.0
1001
ACAD
1000
MTEXTBEGIN
1070
    73
1070
     1
1070
    44
1040
1.0
1070
    74
1070
     0
1000
MTEXTEND
  0
POINT
  5
13F52
330
1365C
100
AcDbEntity
  8
DEFPOINTS
 62
     0
100
AcDbPoint
 10
-1187.074016257342
 20
1640.573527651525
 30
0.0
  0
POINT
  5
13F53
330
1365C
100
AcDbEntity
  8
DEFPOINTS
 62
     0
100
AcDbPoint
 10
-1187.074016257342
 20
1587.573527651525
 30
0.0
  0
POINT
  5
13F54
330
1365C
100
AcDbEntity
  8
DEFPOINTS
 62
     0
100
AcDbPoint
 10
-1210.074188168253
 20
1587.573527651525
 30
0.0
  0
ENDBLK
  5
13667
330
1365C
100
AcDbEntity
  8
0
100
AcDbBlockEnd
  0
BLOCK
  5
13672
330
13668
100
AcDbEntity
  8
0
100
AcDbBlockBegin
  2
*D1
 70
     1
 10
0.0
 20
0.0
 30
0.0
  3
*D1
  1

  0
LINE
  5
13F8A
330
13668
100
AcDbEntity
  8
SUNPOU
 62
     1
100
AcDbLine
 10
-1301.079354293395
 20
1637.073527651525
 30
0.0
 11
-1301.079354293395
 21
1576.569829010938
 31
0.0
  0
LINE
  5
13F8B
330
13668
100
AcDbEntity
  8
SUNPOU
 62
     1
100
AcDbLine
 10
-1309.079354293395
 20
1584.573527651525
 30
0.0
 11
-1309.079354293395
 21
1576.569829010938
 31
0.0
  0
LINE
  5
13F8C
330
13668
100
AcDbEntity
  8
SUNPOU
 62
     1
100
AcDbLine
 10
-1298.079354293395
 20
1577.069829010938
 30
0.0
 11
-1295.079354293395
 21
1577.069829010938
 31
0.0
  0
LINE
  5
13F8D
330
13668
100
AcDbEntity
  8
SUNPOU
 62
     1
100
AcDbLine
 10
-1312.079354293395
 20
1577.069829010938
 30
0.0
 11
-1315.079354293395
 21
1577.069829010938
 31
0.0
  0
LINE
  5
13F8E
330
13668
100
AcDbEntity
  8
SUNPOU
 62
     1
100
AcDbLine
 10
-1301.079354293395
 20
1577.069829010938
 30
0.0
 11
-1309.079354293395
 21
1577.069829010938
 31
0.0
  0
SOLID
  5
13F8F
330
13668
100
AcDbEntity
  8
SUNPOU
 62
     1
100
AcDbTrace
 10
-1298.079354293395
 20
1577.569829010938
 30
0.0
 11
-1298.079354293395
 21
1576.569829010938
 31
0.0
 12
-1301.079354293395
 22
1577.069829010938
 32
0.0
 13
-1301.079354293395
 23
1577.069829010938
 33
0.0
  0
SOLID
  5
13F90
330
13668
100
AcDbEntity
  8
SUNPOU
 62
     1
100
AcDbTrace
 10
-1312.079354293395
 20
1577.569829010938
 30
0.0
 11
-1312.079354293395
 21
1576.569829010938
 31
0.0
 12
-1309.079354293395
 22
1577.069829010938
 32
0.0
 13
-1309.079354293395
 23
1577.069829010938
 33
0.0
  0
MTEXT
  5
13F91
330
13668
100
AcDbEntity
  8
SUNPOU
 62
     1
100
AcDbMText
 10
-1305.079354293395
 20
1579.819829010938
 30
0.0
 40
3.5
 41
0.0
 71
     5
 72
     1
  1
\A1;8
1001
ACAD
1000
MTEXTBEGIN
1070
    73
1070
     1
1070
    44
1040
1.0
1070
    74
1070
     0
1000
MTEXTEND
  0
POINT
  5
13F92
330
13668
100
AcDbEntity
  8
DEFPOINTS
 62
     0
100
AcDbPoint
 10
-1301.079354293395
 20
1637.573527651525
 30
0.0
  0
POINT
  5
13F93
330
13668
100
AcDbEntity
  8
DEFPOINTS
 62
     0
100
AcDbPoint
 10
-1309.079354293395
 20
1585.073527651525
 30
0.0
  0
POINT
  5
13F94
330
13668
100
AcDbEntity
  8
DEFPOINTS
 62
     0
100
AcDbPoint
 10
-1309.079354293395
 20
1577.069829010938
 30
0.0
  0
ENDBLK
  5
13673
330
13668
100
AcDbEntity
  8
0
100
AcDbBlockEnd
  0
BLOCK
  5
1367E
330
13674
100
AcDbEntity
  8
0
100
AcDbBlockBegin
  2
*D2
 70
     1
 10
0.0
 20
0.0
 30
0.0
  3
*D2
  1

  0
LINE
  5
13E86
330
13674
100
AcDbEntity
  8
SUNPOU
 62
     1
100
AcDbLine
 10
-1309.579354293395
 20
1643.073527651525
 30
0.0
 11
-1317.579526204305
 21
1643.073527651525
 31
0.0
  0
LINE
  5
13E87
330
13674
100
AcDbEntity
  8
SUNPOU
 62
     1
100
AcDbLine
 10
-1309.579354293395
 20
1585.073527651525
 30
0.0
 11
-1317.579526204305
 21
1585.073527651525
 31
0.0
  0
LINE
  5
13E88
330
13674
100
AcDbEntity
  8
SUNPOU
 62
     1
100
AcDbLine
 10
-1317.079526204305
 20
1640.073527651525
 30
0.0
 11
-1317.079526204305
 21
1588.073527651525
 31
0.0
  0
SOLID
  5
13E89
330
13674
100
AcDbEntity
  8
SUNPOU
 62
     1
100
AcDbTrace
 10
-1317.579526204305
 20
1640.073527651525
 30
0.0
 11
-1316.579526204305
 21
1640.073527651525
 31
0.0
 12
-1317.079526204305
 22
1643.073527651525
 32
0.0
 13
-1317.079526204305
 23
1643.073527651525
 33
0.0
  0
SOLID
  5
13E8A
330
13674
100
AcDbEntity
  8
SUNPOU
 62
     1
100
AcDbTrace
 10
-1317.579526204305
 20
1588.073527651525
 30
0.0
 11
-1316.579526204305
 21
1588.073527651525
 31
0.0
 12
-1317.079526204305
 22
1585.073527651525
 32
0.0
 13
-1317.079526204305
 23
1585.073527651525
 33
0.0
  0
MTEXT
  5
13E8B
330
13674
100
AcDbEntity
  8
SUNPOU
 62
     1
100
AcDbMText
 10
-1319.829526204305
 20
1614.073527651525
 30
0.0
 40
3.5
 41
0.0
 71
     5
 72
     1
  1
\A1;58
 11
0.0000000000000001
 21
1.0
 31
0.0
1001
ACAD
1000
MTEXTBEGIN
1070
    73
1070
     1
1070
    44
1040
1.0
1070
    74
1070
     0
1000
MTEXTEND
  0
POINT
  5
13E8C
330
13674
100
AcDbEntity
  8
DEFPOINTS
 62
     0
100
AcDbPoint
 10
-1309.079354293395
 20
1643.073527651525
 30
0.0
  0
POINT
  5
13E8D
330
13674
100
AcDbEntity
  8
DEFPOINTS
 62
     0
100
AcDbPoint
 10
-1309.079354293395
 20
1585.073527651525
 30
0.0
  0
POINT
  5
13E8E
330
13674
100
AcDbEntity
  8
DEFPOINTS
 62
     0
100
AcDbPoint
 10
-1317.079526204305
 20
1585.073527651525
 30
0.0
  0
ENDBLK
  5
1367F
330
13674
100
AcDbEntity
  8
0
100
AcDbBlockEnd
  0
BLOCK
  5
13696
330
1368C
100
AcDbEntity
  8
0
100
AcDbBlockBegin
  2
*D3
 70
     1
 10
0.0
 20
0.0
 30
0.0
  3
*D3
  1

  0
LINE
  5
13EB7
330
1368C
100
AcDbEntity
  8
SUNPOU
 62
     1
100
AcDbLine
 10
-1300.577253807948
 20
1640.573527651525
 30
0.0
 11
-1225.582885978211
 21
1640.573527651525
 31
0.0
  0
LINE
  5
13EB8
330
1368C
100
AcDbEntity
  8
SUNPOU
 62
     1
100
AcDbLine
 10
-1238.579354293395
 20
1587.573527651525
 30
0.0
 11
-1225.582885978211
 21
1587.573527651525
 31
0.0
  0
LINE
  5
13EB9
330
1368C
100
AcDbEntity
  8
SUNPOU
 62
     1
100
AcDbLine
 10
-1226.082885978211
 20
1637.573527651525
 30
0.0
 11
-1226.082885978211
 21
1590.573527651525
 31
0.0
  0
SOLID
  5
13EBA
330
1368C
100
AcDbEntity
  8
SUNPOU
 62
     1
100
AcDbTrace
 10
-1226.582885978211
 20
1637.573527651525
 30
0.0
 11
-1225.582885978211
 21
1637.573527651525
 31
0.0
 12
-1226.082885978211
 22
1640.573527651525
 32
0.0
 13
-1226.082885978211
 23
1640.573527651525
 33
0.0
  0
SOLID
  5
13EBB
330
1368C
100
AcDbEntity
  8
SUNPOU
 62
     1
100
AcDbTrace
 10
-1226.582885978211
 20
1590.573527651525
 30
0.0
 11
-1225.582885978211
 21
1590.573527651525
 31
0.0
 12
-1226.082885978211
 22
1587.573527651525
 32
0.0
 13
-1226.082885978211
 23
1587.573527651525
 33
0.0
  0
MTEXT
  5
13EBC
330
1368C
100
AcDbEntity
  8
SUNPOU
 62
     1
100
AcDbMText
 10
-1228.832885978212
 20
1614.073527651525
 30
0.0
 40
3.5
 41
0.0
 71
     5
 72
     1
  1
\A1;53
 11
0.0000000000000001
 21
1.0
 31
0.0
1001
ACAD
1000
MTEXTBEGIN
1070
    73
1070
     1
1070
    44
1040
1.0
1070
    74
1070
     0
1000
MTEXTEND
  0
POINT
  5
13EBD
330
1368C
100
AcDbEntity
  8
DEFPOINTS
 62
     0
100
AcDbPoint
 10
-1301.077253807949
 20
1640.573527651525
 30
0.0
  0
POINT
  5
13EBE
330
1368C
100
AcDbEntity
  8
DEFPOINTS
 62
     0
100
AcDbPoint
 10
-1239.079354293395
 20
1587.573527651525
 30
0.0
  0
POINT
  5
13EBF
330
1368C
100
AcDbEntity
  8
DEFPOINTS
 62
     0
100
AcDbPoint
 10
-1226.082885978211
 20
1587.573527651525
 30
0.0
  0
ENDBLK
  5
13697
330
1368C
100
AcDbEntity
  8
0
100
AcDbBlockEnd
  0
BLOCK
  5
136A2
330
13698
100
AcDbEntity
  8
0
100
AcDbBlockBegin
  2
*D4
 70
     1
 10
0.0
 20
0.0
 30
0.0
  3
*D4
  1

  0
LINE
  5
13EE8
330
13698
100
AcDbEntity
  8
SUNPOU
 62
     1
100
AcDbLine
 10
-1234.079354293394
 20
1525.573527651525
 30
0.0
 11
-1234.079354293394
 21
1517.569829010938
 31
0.0
  0
LINE
  5
13EE9
330
13698
100
AcDbEntity
  8
SUNPOU
 62
     1
100
AcDbLine
 10
-1309.079354293395
 20
1525.573527651525
 30
0.0
 11
-1309.079354293395
 21
1517.569829010938
 31
0.0
  0
LINE
  5
13EEA
330
13698
100
AcDbEntity
  8
SUNPOU
 62
     1
100
AcDbLine
 10
-1237.079354293395
 20
1518.069829010938
 30
0.0
 11
-1306.079354293395
 21
1518.069829010938
 31
0.0
  0
SOLID
  5
13EEB
330
13698
100
AcDbEntity
  8
SUNPOU
 62
     1
100
AcDbTrace
 10
-1237.079354293395
 20
1518.569829010938
 30
0.0
 11
-1237.079354293395
 21
1517.569829010938
 31
0.0
 12
-1234.079354293394
 22
1518.069829010938
 32
0.0
 13
-1234.079354293394
 23
1518.069829010938
 33
0.0
  0
SOLID
  5
13EEC
330
13698
100
AcDbEntity
  8
SUNPOU
 62
     1
100
AcDbTrace
 10
-1306.079354293395
 20
1518.569829010938
 30
0.0
 11
-1306.079354293395
 21
1517.569829010938
 31
0.0
 12
-1309.079354293395
 22
1518.069829010938
 32
0.0
 13
-1309.079354293395
 23
1518.069829010938
 33
0.0
  0
MTEXT
  5
13EED
330
13698
100
AcDbEntity
  8
SUNPOU
 62
     1
100
AcDbMText
 10
-1271.579354293395
 20
1520.819829010938
 30
0.0
 40
3.5
 41
0.0
 71
     5
 72
     1
  1
\A1;75
1001
ACAD
1000
MTEXTBEGIN
1070
    73
1070
     1
1070
    44
1040
1.0
1070
    74
1070
     0
1000
MTEXTEND
  0
POINT
  5
13EEE
330
13698
100
AcDbEntity
  8
DEFPOINTS
 62
     0
100
AcDbPoint
 10
-1234.079354293394
 20
1526.073527651525
 30
0.0
  0
POINT
  5
13EEF
330
13698
100
AcDbEntity
  8
DEFPOINTS
 62
     0
100
AcDbPoint
 10
-1309.079354293395
 20
1526.073527651525
 30
0.0
  0
POINT
  5
13EF0
330
13698
100
AcDbEntity
  8
DEFPOINTS
 62
     0
100
AcDbPoint
 10
-1309.079354293395
 20
1518.069829010938
 30
0.0
  0
ENDBLK
  5
136A3
330
13698
100
AcDbEntity
  8
0
100
AcDbBlockEnd
  0
BLOCK
  5
136B0
330
136A4
100
AcDbEntity
  8
0
100
AcDbBlockBegin
  2
*D5
 70
     1
 10
0.0
 20
0.0
 30
0.0
  3
*D5
  1

  0
LINE
  5
13EDD
330
136A4
100
AcDbEntity
  8
SUNPOU
 62
     1
100
AcDbLine
 10
-1309.079354293395
 20
1558.573527651525
 30
0.0
 11
-1309.079354293395
 21
1566.575058306153
 31
0.0
  0
LINE
  5
13EDE
330
136A4
100
AcDbEntity
  8
SUNPOU
 62
     1
100
AcDbLine
 10
-1306.079354293395
 20
1558.573527651525
 30
0.0
 11
-1306.079354293395
 21
1566.575058306153
 31
0.0
  0
LINE
  5
13EDF
330
136A4
100
AcDbEntity
  8
SUNPOU
 62
     1
100
AcDbLine
 10
-1312.079354293395
 20
1566.075058306153
 30
0.0
 11
-1315.079354293395
 21
1566.075058306153
 31
0.0
  0
LINE
  5
13EE0
330
136A4
100
AcDbEntity
  8
SUNPOU
 62
     1
100
AcDbLine
 10
-1303.079354293394
 20
1566.075058306153
 30
0.0
 11
-1295.746020960061
 21
1566.075058306153
 31
0.0
  0
LINE
  5
13EE1
330
136A4
100
AcDbEntity
  8
SUNPOU
 62
     1
100
AcDbLine
 10
-1309.079354293395
 20
1566.075058306153
 30
0.0
 11
-1306.079354293395
 21
1566.075058306153
 31
0.0
  0
SOLID
  5
13EE2
330
136A4
100
AcDbEntity
  8
SUNPOU
 62
     1
100
AcDbTrace
 10
-1312.079354293395
 20
1566.575058306153
 30
0.0
 11
-1312.079354293395
 21
1565.575058306153
 31
0.0
 12
-1309.079354293395
 22
1566.075058306153
 32
0.0
 13
-1309.079354293395
 23
1566.075058306153
 33
0.0
  0
SOLID
  5
13EE3
330
136A4
100
AcDbEntity
  8
SUNPOU
 62
     1
100
AcDbTrace
 10
-1303.079354293394
 20
1566.575058306153
 30
0.0
 11
-1303.079354293394
 21
1565.575058306153
 31
0.0
 12
-1306.079354293395
 22
1566.075058306153
 32
0.0
 13
-1306.079354293395
 23
1566.075058306153
 33
0.0
  0
MTEXT
  5
13EE4
330
136A4
100
AcDbEntity
  8
SUNPOU
 62
     1
100
AcDbMText
 10
-1297.912687626728
 20
1568.825058306153
 30
0.0
 40
3.5
 41
0.0
 71
     5
 72
     1
  1
\A1;3
1001
ACAD
1000
MTEXTBEGIN
1070
    73
1070
     1
1070
    44
1040
1.0
1070
    74
1070
     0
1000
MTEXTEND
  0
POINT
  5
13EE5
330
136A4
100
AcDbEntity
  8
DEFPOINTS
 62
     0
100
AcDbPoint
 10
-1309.079354293395
 20
1558.073527651525
 30
0.0
  0
POINT
  5
13EE6
330
136A4
100
AcDbEntity
  8
DEFPOINTS
 62
     0
100
AcDbPoint
 10
-1306.079354293395
 20
1558.073527651525
 30
0.0
  0
POINT
  5
13EE7
330
136A4
100
AcDbEntity
  8
DEFPOINTS
 62
     0
100
AcDbPoint
 10
-1306.079354293395
 20
1566.075058306153
 30
0.0
  0
ENDBLK
  5
136B1
330
136A4
100
AcDbEntity
  8
0
100
AcDbBlockEnd
  0
BLOCK
  5
136BE
330
136B2
100
AcDbEntity
  8
0
100
AcDbBlockBegin
  2
*D6
 70
     1
 10
0.0
 20
0.0
 30
0.0
  3
*D6
  1

  0
LINE
  5
13EA1
330
136B2
100
AcDbEntity
  8
SUNPOU
 62
     1
100
AcDbLine
 10
-1234.079354293394
 20
1584.573527651525
 30
0.0
 11
-1234.079354293394
 21
1576.569829010938
 31
0.0
  0
LINE
  5
13EA2
330
136B2
100
AcDbEntity
  8
SUNPOU
 62
     1
100
AcDbLine
 10
-1239.079354293395
 20
1587.073527651525
 30
0.0
 11
-1239.079354293395
 21
1576.569829010938
 31
0.0
  0
LINE
  5
13EA3
330
136B2
100
AcDbEntity
  8
SUNPOU
 62
     1
100
AcDbLine
 10
-1231.079354293395
 20
1577.069829010938
 30
0.0
 11
-1228.079354293394
 21
1577.069829010938
 31
0.0
  0
LINE
  5
13EA4
330
136B2
100
AcDbEntity
  8
SUNPOU
 62
     1
100
AcDbLine
 10
-1242.079354293394
 20
1577.069829010938
 30
0.0
 11
-1245.079354293395
 21
1577.069829010938
 31
0.0
  0
LINE
  5
13EA5
330
136B2
100
AcDbEntity
  8
SUNPOU
 62
     1
100
AcDbLine
 10
-1234.079354293394
 20
1577.069829010938
 30
0.0
 11
-1239.079354293395
 21
1577.069829010938
 31
0.0
  0
SOLID
  5
13EA6
330
136B2
100
AcDbEntity
  8
SUNPOU
 62
     1
100
AcDbTrace
 10
-1231.079354293395
 20
1577.569829010938
 30
0.0
 11
-1231.079354293395
 21
1576.569829010938
 31
0.0
 12
-1234.079354293394
 22
1577.069829010938
 32
0.0
 13
-1234.079354293394
 23
1577.069829010938
 33
0.0
  0
SOLID
  5
13EA7
330
136B2
100
AcDbEntity
  8
SUNPOU
 62
     1
100
AcDbTrace
 10
-1242.079354293394
 20
1577.569829010938
 30
0.0
 11
-1242.079354293394
 21
1576.569829010938
 31
0.0
 12
-1239.079354293395
 22
1577.069829010938
 32
0.0
 13
-1239.079354293395
 23
1577.069829010938
 33
0.0
  0
MTEXT
  5
13EA8
330
136B2
100
AcDbEntity
  8
SUNPOU
 62
     1
100
AcDbMText
 10
-1236.579354293395
 20
1579.819829010938
 30
0.0
 40
3.5
 41
0.0
 71
     5
 72
     1
  1
\A1;5
1001
ACAD
1000
MTEXTBEGIN
1070
    73
1070
     1
1070
    44
1040
1.0
1070
    74
1070
     0
1000
MTEXTEND
  0
POINT
  5
13EA9
330
136B2
100
AcDbEntity
  8
DEFPOINTS
 62
     0
100
AcDbPoint
 10
-1234.079354293394
 20
1585.073527651525
 30
0.0
  0
POINT
  5
13EAA
330
136B2
100
AcDbEntity
  8
DEFPOINTS
 62
     0
100
AcDbPoint
 10
-1239.079354293395
 20
1587.573527651525
 30
0.0
  0
POINT
  5
13EAB
330
136B2
100
AcDbEntity
  8
DEFPOINTS
 62
     0
100
AcDbPoint
 10
-1239.079354293395
 20
1577.069829010938
 30
0.0
  0
ENDBLK
  5
136BF
330
136B2
100
AcDbEntity
  8
0
100
AcDbBlockEnd
  0
BLOCK
  5
136CC
330
136C0
100
AcDbEntity
  8
0
100
AcDbBlockBegin
  2
*D7
 70
     1
 10
0.0
 20
0.0
 30
0.0
  3
*D7
  1

  0
LINE
  5
14079
330
136C0
100
AcDbEntity
  8
SUNPOU
 62
     1
100
AcDbLine
 10
-1238.581523239261
 20
1587.573527651525
 30
0.0
 11
-1225.582885978211
 21
1587.573527651525
 31
0.0
  0
LINE
  5
1407A
330
136C0
100
AcDbEntity
  8
SUNPOU
 62
     1
100
AcDbLine
 10
-1233.579354293395
 20
1585.073527651525
 30
0.0
 11
-1225.582885978211
 21
1585.073527651525
 31
0.0
  0
LINE
  5
1407B
330
136C0
100
AcDbEntity
  8
SUNPOU
 62
     1
100
AcDbLine
 10
-1226.082885978211
 20
1590.573527651525
 30
0.0
 11
-1226.082885978211
 21
1593.573527651525
 31
0.0
  0
LINE
  5
1407C
330
136C0
100
AcDbEntity
  8
SUNPOU
 62
     1
100
AcDbLine
 10
-1226.082885978211
 20
1582.073527651525
 30
0.0
 11
-1226.082885978211
 21
1579.073527651525
 31
0.0
  0
LINE
  5
1407D
330
136C0
100
AcDbEntity
  8
SUNPOU
 62
     1
100
AcDbLine
 10
-1226.082885978211
 20
1567.087456646915
 30
0.0
 11
-1226.082885978211
 21
1585.073527651525
 31
0.0
  0
MTEXT
  5
1407E
330
136C0
100
AcDbEntity
  8
SUNPOU
 62
     1
100
AcDbMText
 10
-1228.832885978212
 20
1571.587456646914
 30
0.0
 40
3.5
 41
0.0
 71
     5
 72
     1
  1
\A1;2.5
 11
0.0000000000000001
 21
1.0
 31
0.0
  0
LINE
  5
1407F
330
136C0
100
AcDbEntity
  8
SUNPOU
 62
     1
100
AcDbLine
 10
-1226.082885978211
 20
1587.573527651525
 30
0.0
 11
-1226.082885978211
 21
1585.073527651525
 31
0.0
  0
LINE
  5
14080
330
136C0
100
AcDbEntity
  8
SUNPOU
 62
     1
100
AcDbLine
 10
-1226.082885978211
 20
1587.573527651525
 30
0.0
 11
-1226.082885978211
 21
1585.073527651525
 31
0.0
  0
SOLID
  5
14081
330
136C0
100
AcDbEntity
  8
SUNPOU
 62
     1
100
AcDbTrace
 10
-1226.582885978211
 20
1590.573527651525
 30
0.0
 11
-1225.582885978211
 21
1590.573527651525
 31
0.0
 12
-1226.082885978211
 22
1587.573527651525
 32
0.0
 13
-1226.082885978211
 23
1587.573527651525
 33
0.0
  0
SOLID
  5
14082
330
136C0
100
AcDbEntity
  8
SUNPOU
 62
     1
100
AcDbTrace
 10
-1226.582885978211
 20
1582.073527651525
 30
0.0
 11
-1225.582885978211
 21
1582.073527651525
 31
0.0
 12
-1226.082885978211
 22
1585.073527651525
 32
0.0
 13
-1226.082885978211
 23
1585.073527651525
 33
0.0
  0
POINT
  5
14083
330
136C0
100
AcDbEntity
  8
DEFPOINTS
 62
     0
100
AcDbPoint
 10
-1239.081523239261
 20
1587.573527651525
 30
0.0
  0
POINT
  5
14084
330
136C0
100
AcDbEntity
  8
DEFPOINTS
 62
     0
100
AcDbPoint
 10
-1234.079354293394
 20
1585.073527651525
 30
0.0
  0
POINT
  5
14085
330
136C0
100
AcDbEntity
  8
DEFPOINTS
 62
     0
100
AcDbPoint
 10
-1226.082885978211
 20
1585.073527651525
 30
0.0
  0
ENDBLK
  5
136CD
330
136C0
100
AcDbEntity
  8
0
100
AcDbBlockEnd
  0
BLOCK
  5
136D8
330
136CE
100
AcDbEntity
  8
0
100
AcDbBlockBegin
  2
*D8
 70
     1
 10
0.0
 20
0.0
 30
0.0
  3
*D8
  1

  0
LINE
  5
13EF1
330
136CE
100
AcDbEntity
  8
SUNPOU
 62
     1
100
AcDbLine
 10
-1233.579422209235
 20
1555.072378983439
 30
0.0
 11
-1225.582885978211
 21
1555.072378983439
 31
0.0
  0
LINE
  5
13EF2
330
136CE
100
AcDbEntity
  8
SUNPOU
 62
     1
100
AcDbLine
 10
-1233.579354293395
 20
1526.073527651525
 30
0.0
 11
-1225.582885978211
 21
1526.073527651525
 31
0.0
  0
LINE
  5
13EF3
330
136CE
100
AcDbEntity
  8
SUNPOU
 62
     1
100
AcDbLine
 10
-1226.082885978211
 20
1552.072378983439
 30
0.0
 11
-1226.082885978211
 21
1529.073527651525
 31
0.0
  0
SOLID
  5
13EF4
330
136CE
100
AcDbEntity
  8
SUNPOU
 62
     1
100
AcDbTrace
 10
-1226.582885978211
 20
1552.072378983439
 30
0.0
 11
-1225.582885978211
 21
1552.072378983439
 31
0.0
 12
-1226.082885978211
 22
1555.072378983439
 32
0.0
 13
-1226.082885978211
 23
1555.072378983439
 33
0.0
  0
SOLID
  5
13EF5
330
136CE
100
AcDbEntity
  8
SUNPOU
 62
     1
100
AcDbTrace
 10
-1226.582885978211
 20
1529.073527651525
 30
0.0
 11
-1225.582885978211
 21
1529.073527651525
 31
0.0
 12
-1226.082885978211
 22
1526.073527651525
 32
0.0
 13
-1226.082885978211
 23
1526.073527651525
 33
0.0
  0
MTEXT
  5
13EF6
330
136CE
100
AcDbEntity
  8
SUNPOU
 62
     1
100
AcDbMText
 10
-1228.832885978211
 20
1540.572953317482
 30
0.0
 40
3.5
 41
0.0
 71
     5
 72
     1
  1
\A1;29
 11
0.0000000000000001
 21
1.0
 31
0.0
1001
ACAD
1000
MTEXTBEGIN
1070
    73
1070
     1
1070
    44
1040
1.0
1070
    74
1070
     0
1000
MTEXTEND
  0
POINT
  5
13EF7
330
136CE
100
AcDbEntity
  8
DEFPOINTS
 62
     0
100
AcDbPoint
 10
-1234.079422209235
 20
1555.072378983439
 30
0.0
  0
POINT
  5
13EF8
330
136CE
100
AcDbEntity
  8
DEFPOINTS
 62
     0
100
AcDbPoint
 10
-1234.079354293394
 20
1526.073527651525
 30
0.0
  0
POINT
  5
13EF9
330
136CE
100
AcDbEntity
  8
DEFPOINTS
 62
     0
100
AcDbPoint
 10
-1226.082885978211
 20
1526.073527651525
 30
0.0
  0
ENDBLK
  5
136D9
330
136CE
100
AcDbEntity
  8
0
100
AcDbBlockEnd
  0
BLOCK
  5
136E6
330
136DA
100
AcDbEntity
  8
0
100
AcDbBlockBegin
  2
*D9
 70
     1
 10
0.0
 20
0.0
 30
0.0
  3
*D9
  1

  0
LINE
  5
13F55
330
136DA
100
AcDbEntity
  8
SUNPOU
 62
     1
100
AcDbLine
 10
-1187.576185203208
 20
1587.573527651525
 30
0.0
 11
-1210.574188168253
 21
1587.573527651525
 31
0.0
  0
LINE
  5
13F56
330
136DA
100
AcDbEntity
  8
SUNPOU
 62
     1
100
AcDbLine
 10
-1202.574016257343
 20
1585.073527651525
 30
0.0
 11
-1210.574188168253
 21
1585.073527651525
 31
0.0
  0
LINE
  5
13F57
330
136DA
100
AcDbEntity
  8
SUNPOU
 62
     1
100
AcDbLine
 10
-1210.074188168253
 20
1590.573527651525
 30
0.0
 11
-1210.074188168253
 21
1593.573527651525
 31
0.0
  0
LINE
  5
13F58
330
136DA
100
AcDbEntity
  8
SUNPOU
 62
     1
100
AcDbLine
 10
-1210.074188168253
 20
1582.073527651525
 30
0.0
 11
-1210.074188168253
 21
1570.073527651525
 31
0.0
  0
LINE
  5
13F59
330
136DA
100
AcDbEntity
  8
SUNPOU
 62
     1
100
AcDbLine
 10
-1210.074188168253
 20
1587.573527651525
 30
0.0
 11
-1210.074188168253
 21
1585.073527651525
 31
0.0
  0
SOLID
  5
13F5A
330
136DA
100
AcDbEntity
  8
SUNPOU
 62
     1
100
AcDbTrace
 10
-1210.574188168253
 20
1590.573527651525
 30
0.0
 11
-1209.574188168253
 21
1590.573527651525
 31
0.0
 12
-1210.074188168253
 22
1587.573527651525
 32
0.0
 13
-1210.074188168253
 23
1587.573527651525
 33
0.0
  0
SOLID
  5
13F5B
330
136DA
100
AcDbEntity
  8
SUNPOU
 62
     1
100
AcDbTrace
 10
-1210.574188168253
 20
1582.073527651525
 30
0.0
 11
-1209.574188168253
 21
1582.073527651525
 31
0.0
 12
-1210.074188168253
 22
1585.073527651525
 32
0.0
 13
-1210.074188168253
 23
1585.073527651525
 33
0.0
  0
MTEXT
  5
13F5C
330
136DA
100
AcDbEntity
  8
SUNPOU
 62
     1
100
AcDbMText
 10
-1212.824188168253
 20
1574.573527651525
 30
0.0
 40
3.5
 41
0.0
 71
     5
 72
     1
  1
\A1;2.5
 11
0.0000000000000001
 21
1.0
 31
0.0
1001
ACAD
1000
MTEXTBEGIN
1070
    73
1070
     1
1070
    44
1040
1.0
1070
    74
1070
     0
1000
MTEXTEND
  0
POINT
  5
13F5D
330
136DA
100
AcDbEntity
  8
DEFPOINTS
 62
     0
100
AcDbPoint
 10
-1187.076185203209
 20
1587.573527651525
 30
0.0
  0
POINT
  5
13F5E
330
136DA
100
AcDbEntity
  8
DEFPOINTS
 62
     0
100
AcDbPoint
 10
-1202.074016257343
 20
1585.073527651525
 30
0.0
  0
POINT
  5
13F5F
330
136DA
100
AcDbEntity
  8
DEFPOINTS
 62
     0
100
AcDbPoint
 10
-1210.074188168253
 20
1585.073527651525
 30
0.0
  0
ENDBLK
  5
136E7
330
136DA
100
AcDbEntity
  8
0
100
AcDbBlockEnd
  0
BLOCK
  5
136F2
330
136E8
100
AcDbEntity
  8
0
100
AcDbBlockBegin
  2
*D10
 70
     1
 10
0.0
 20
0.0
 30
0.0
  3
*D10
  1

  0
LINE
  5
13F69
330
136E8
100
AcDbEntity
  8
SUNPOU
 62
     1
100
AcDbLine
 10
-1170.074016257343
 20
1584.573527651525
 30
0.0
 11
-1170.074016257343
 21
1576.569829010938
 31
0.0
  0
LINE
  5
13F6A
330
136E8
100
AcDbEntity
  8
SUNPOU
 62
     1
100
AcDbLine
 10
-1187.074016257342
 20
1587.073527651525
 30
0.0
 11
-1187.074016257342
 21
1576.569829010938
 31
0.0
  0
LINE
  5
13F6B
330
136E8
100
AcDbEntity
  8
SUNPOU
 62
     1
100
AcDbLine
 10
-1173.074016257343
 20
1577.069829010938
 30
0.0
 11
-1184.074016257342
 21
1577.069829010938
 31
0.0
  0
SOLID
  5
13F6C
330
136E8
100
AcDbEntity
  8
SUNPOU
 62
     1
100
AcDbTrace
 10
-1173.074016257343
 20
1577.569829010938
 30
0.0
 11
-1173.074016257343
 21
1576.569829010938
 31
0.0
 12
-1170.074016257343
 22
1577.069829010938
 32
0.0
 13
-1170.074016257343
 23
1577.069829010938
 33
0.0
  0
SOLID
  5
13F6D
330
136E8
100
AcDbEntity
  8
SUNPOU
 62
     1
100
AcDbTrace
 10
-1184.074016257342
 20
1577.569829010938
 30
0.0
 11
-1184.074016257342
 21
1576.569829010938
 31
0.0
 12
-1187.074016257342
 22
1577.069829010938
 32
0.0
 13
-1187.074016257342
 23
1577.069829010938
 33
0.0
  0
MTEXT
  5
13F6E
330
136E8
100
AcDbEntity
  8
SUNPOU
 62
     1
100
AcDbMText
 10
-1178.574016257343
 20
1579.819829010938
 30
0.0
 40
3.5
 41
0.0
 71
     5
 72
     1
  1
\A1;17
1001
ACAD
1000
MTEXTBEGIN
1070
    73
1070
     1
1070
    44
1040
1.0
1070
    74
1070
     0
1000
MTEXTEND
  0
POINT
  5
13F6F
330
136E8
100
AcDbEntity
  8
DEFPOINTS
 62
     0
100
AcDbPoint
 10
-1170.074016257343
 20
1585.073527651525
 30
0.0
  0
POINT
  5
13F70
330
136E8
100
AcDbEntity
  8
DEFPOINTS
 62
     0
100
AcDbPoint
 10
-1187.074016257342
 20
1587.573527651525
 30
0.0
  0
POINT
  5
13F71
330
136E8
100
AcDbEntity
  8
DEFPOINTS
 62
     0
100
AcDbPoint
 10
-1187.074016257342
 20
1577.069829010938
 30
0.0
  0
ENDBLK
  5
136F3
330
136E8
100
AcDbEntity
  8
0
100
AcDbBlockEnd
  0
BLOCK
  5
136FE
330
136F4
100
AcDbEntity
  8
0
100
AcDbBlockBegin
  2
*D11
 70
     1
 10
0.0
 20
0.0
 30
0.0
  3
*D11
  1

  0
LINE
  5
13F60
330
136F4
100
AcDbEntity
  8
SUNPOU
 62
     1
100
AcDbLine
 10
-1170.074016257343
 20
1584.573527651525
 30
0.0
 11
-1170.074016257343
 21
1568.569829010938
 31
0.0
  0
LINE
  5
13F61
330
136F4
100
AcDbEntity
  8
SUNPOU
 62
     1
100
AcDbLine
 10
-1202.074016257343
 20
1584.573527651525
 30
0.0
 11
-1202.074016257343
 21
1568.569829010938
 31
0.0
  0
LINE
  5
13F62
330
136F4
100
AcDbEntity
  8
SUNPOU
 62
     1
100
AcDbLine
 10
-1173.074016257343
 20
1569.069829010938
 30
0.0
 11
-1199.074016257343
 21
1569.069829010938
 31
0.0
  0
SOLID
  5
13F63
330
136F4
100
AcDbEntity
  8
SUNPOU
 62
     1
100
AcDbTrace
 10
-1173.074016257343
 20
1569.569829010938
 30
0.0
 11
-1173.074016257343
 21
1568.569829010938
 31
0.0
 12
-1170.074016257343
 22
1569.069829010938
 32
0.0
 13
-1170.074016257343
 23
1569.069829010938
 33
0.0
  0
SOLID
  5
13F64
330
136F4
100
AcDbEntity
  8
SUNPOU
 62
     1
100
AcDbTrace
 10
-1199.074016257343
 20
1569.569829010938
 30
0.0
 11
-1199.074016257343
 21
1568.569829010938
 31
0.0
 12
-1202.074016257343
 22
1569.069829010938
 32
0.0
 13
-1202.074016257343
 23
1569.069829010938
 33
0.0
  0
MTEXT
  5
13F65
330
136F4
100
AcDbEntity
  8
SUNPOU
 62
     1
100
AcDbMText
 10
-1186.074016257343
 20
1571.819829010938
 30
0.0
 40
3.5
 41
0.0
 71
     5
 72
     1
  1
\A1;32
1001
ACAD
1000
MTEXTBEGIN
1070
    73
1070
     1
1070
    44
1040
1.0
1070
    74
1070
     0
1000
MTEXTEND
  0
POINT
  5
13F66
330
136F4
100
AcDbEntity
  8
DEFPOINTS
 62
     0
100
AcDbPoint
 10
-1170.074016257343
 20
1585.073527651525
 30
0.0
  0
POINT
  5
13F67
330
136F4
100
AcDbEntity
  8
DEFPOINTS
 62
     0
100
AcDbPoint
 10
-1202.074016257343
 20
1585.073527651525
 30
0.0
  0
POINT
  5
13F68
330
136F4
100
AcDbEntity
  8
DEFPOINTS
 62
     0
100
AcDbPoint
 10
-1202.074016257343
 20
1569.069829010938
 30
0.0
  0
ENDBLK
  5
136FF
330
136F4
100
AcDbEntity
  8
0
100
AcDbBlockEnd
  0
BLOCK
  5
1370C
330
13700
100
AcDbEntity
  8
0
100
AcDbBlockBegin
  2
*D12
 70
     1
 10
0.0
 20
0.0
 30
0.0
  3
*D12
  1

  0
LINE
  5
13F36
330
13700
100
AcDbEntity
  8
SUNPOU
 62
     1
100
AcDbLine
 10
-1202.574016257342
 20
1643.073527651525
 30
0.0
 11
-1210.574188168253
 21
1643.073527651525
 31
0.0
  0
LINE
  5
13F37
330
13700
100
AcDbEntity
  8
SUNPOU
 62
     1
100
AcDbLine
 10
-1187.574016257342
 20
1640.573527651525
 30
0.0
 11
-1210.574188168253
 21
1640.573527651525
 31
0.0
  0
LINE
  5
13F38
330
13700
100
AcDbEntity
  8
SUNPOU
 62
     1
100
AcDbLine
 10
-1210.074188168253
 20
1637.573527651525
 30
0.0
 11
-1210.074188168253
 21
1634.573527651525
 31
0.0
  0
LINE
  5
13F39
330
13700
100
AcDbEntity
  8
SUNPOU
 62
     1
100
AcDbLine
 10
-1210.074188168253
 20
1646.073527651525
 30
0.0
 11
-1210.074188168253
 21
1658.073527651525
 31
0.0
  0
LINE
  5
13F3A
330
13700
100
AcDbEntity
  8
SUNPOU
 62
     1
100
AcDbLine
 10
-1210.074188168253
 20
1640.573527651525
 30
0.0
 11
-1210.074188168253
 21
1643.073527651525
 31
0.0
  0
SOLID
  5
13F3B
330
13700
100
AcDbEntity
  8
SUNPOU
 62
     1
100
AcDbTrace
 10
-1210.574188168253
 20
1637.573527651525
 30
0.0
 11
-1209.574188168253
 21
1637.573527651525
 31
0.0
 12
-1210.074188168253
 22
1640.573527651525
 32
0.0
 13
-1210.074188168253
 23
1640.573527651525
 33
0.0
  0
SOLID
  5
13F3C
330
13700
100
AcDbEntity
  8
SUNPOU
 62
     1
100
AcDbTrace
 10
-1210.574188168253
 20
1646.073527651525
 30
0.0
 11
-1209.574188168253
 21
1646.073527651525
 31
0.0
 12
-1210.074188168253
 22
1643.073527651525
 32
0.0
 13
-1210.074188168253
 23
1643.073527651525
 33
0.0
  0
MTEXT
  5
13F3D
330
13700
100
AcDbEntity
  8
SUNPOU
 62
     1
100
AcDbMText
 10
-1212.824188168253
 20
1653.573527651525
 30
0.0
 40
3.5
 41
0.0
 71
     5
 72
     1
  1
\A1;2.5
 11
0.0000000000000001
 21
1.0
 31
0.0
1001
ACAD
1000
MTEXTBEGIN
1070
    73
1070
     1
1070
    44
1040
1.0
1070
    74
1070
     0
1000
MTEXTEND
  0
POINT
  5
13F3E
330
13700
100
AcDbEntity
  8
DEFPOINTS
 62
     0
100
AcDbPoint
 10
-1202.074016257342
 20
1643.073527651525
 30
0.0
  0
POINT
  5
13F3F
330
13700
100
AcDbEntity
  8
DEFPOINTS
 62
     0
100
AcDbPoint
 10
-1187.074016257342
 20
1640.573527651525
 30
0.0
  0
POINT
  5
13F40
330
13700
100
AcDbEntity
  8
DEFPOINTS
 62
     0
100
AcDbPoint
 10
-1210.074188168253
 20
1640.573527651525
 30
0.0
  0
ENDBLK
  5
1370D
330
13700
100
AcDbEntity
  8
0
100
AcDbBlockEnd
  0
BLOCK
  5
1371A
330
1370E
100
AcDbEntity
  8
0
100
AcDbBlockBegin
  2
*D13
 70
     1
 10
0.0
 20
0.0
 30
0.0
  3
*D13
  1

  0
LINE
  5
13F41
330
1370E
100
AcDbEntity
  8
SUNPOU
 62
     1
100
AcDbLine
 10
-1188.824016257342
 20
1643.573527651525
 30
0.0
 11
-1188.824016257342
 21
1651.575058306153
 31
0.0
  0
LINE
  5
13F42
330
1370E
100
AcDbEntity
  8
SUNPOU
 62
     1
100
AcDbLine
 10
-1185.324016257342
 20
1643.573527651525
 30
0.0
 11
-1185.324016257342
 21
1651.575058306153
 31
0.0
  0
LINE
  5
13F43
330
1370E
100
AcDbEntity
  8
SUNPOU
 62
     1
100
AcDbLine
 10
-1191.824016257342
 20
1651.075058306153
 30
0.0
 11
-1194.824016257342
 21
1651.075058306153
 31
0.0
  0
LINE
  5
13F44
330
1370E
100
AcDbEntity
  8
SUNPOU
 62
     1
100
AcDbLine
 10
-1182.324016257342
 20
1651.075058306153
 30
0.0
 11
-1170.324016257342
 21
1651.075058306153
 31
0.0
  0
LINE
  5
13F45
330
1370E
100
AcDbEntity
  8
SUNPOU
 62
     1
100
AcDbLine
 10
-1188.824016257342
 20
1651.075058306153
 30
0.0
 11
-1185.324016257342
 21
1651.075058306153
 31
0.0
  0
SOLID
  5
13F46
330
1370E
100
AcDbEntity
  8
SUNPOU
 62
     1
100
AcDbTrace
 10
-1191.824016257342
 20
1651.575058306153
 30
0.0
 11
-1191.824016257342
 21
1650.575058306153
 31
0.0
 12
-1188.824016257342
 22
1651.075058306153
 32
0.0
 13
-1188.824016257342
 23
1651.075058306153
 33
0.0
  0
SOLID
  5
13F47
330
1370E
100
AcDbEntity
  8
SUNPOU
 62
     1
100
AcDbTrace
 10
-1182.324016257342
 20
1651.575058306153
 30
0.0
 11
-1182.324016257342
 21
1650.575058306153
 31
0.0
 12
-1185.324016257342
 22
1651.075058306153
 32
0.0
 13
-1185.324016257342
 23
1651.075058306153
 33
0.0
  0
MTEXT
  5
13F48
330
1370E
100
AcDbEntity
  8
SUNPOU
 62
     1
100
AcDbMText
 10
-1174.824016257342
 20
1653.825058306153
 30
0.0
 40
3.5
 41
0.0
 71
     5
 72
     1
  1
\A1;3.5
1001
ACAD
1000
MTEXTBEGIN
1070
    73
1070
     1
1070
    44
1040
1.0
1070
    74
1070
     0
1000
MTEXTEND
  0
POINT
  5
13F49
330
1370E
100
AcDbEntity
  8
DEFPOINTS
 62
     0
100
AcDbPoint
 10
-1188.824016257342
 20
1643.073527651525
 30
0.0
  0
POINT
  5
13F4A
330
1370E
100
AcDbEntity
  8
DEFPOINTS
 62
     0
100
AcDbPoint
 10
-1185.324016257342
 20
1643.073527651525
 30
0.0
  0
POINT
  5
13F4B
330
1370E
100
AcDbEntity
  8
DEFPOINTS
 62
     0
100
AcDbPoint
 10
-1185.324016257342
 20
1651.075058306153
 30
0.0
  0
ENDBLK
  5
1371B
330
1370E
100
AcDbEntity
  8
0
100
AcDbBlockEnd
  0
BLOCK
  5
13FA1
330
13F97
100
AcDbEntity
  8
0
100
AcDbBlockBegin
  2
*D14
 70
     1
 10
0.0
 20
0.0
 30
0.0
  3
*D14
  1

  0
LINE
  5
13FAC
330
13F97
100
AcDbEntity
  8
SUNPOU
 62
     1
100
AcDbLine
 10
-1301.079354293395
 20
1640.073527651525
 30
0.0
 11
-1301.079354293395
 21
1576.571154041053
 31
0.0
  0
LINE
  5
13FAD
330
13F97
100
AcDbEntity
  8
SUNPOU
 62
     1
100
AcDbLine
 10
-1239.079354293395
 20
1587.073527651525
 30
0.0
 11
-1239.079354293395
 21
1576.571154041053
 31
0.0
  0
LINE
  5
13FAE
330
13F97
100
AcDbEntity
  8
SUNPOU
 62
     1
100
AcDbLine
 10
-1298.079354293395
 20
1577.071154041053
 30
0.0
 11
-1242.079354293394
 21
1577.071154041053
 31
0.0
  0
SOLID
  5
13FAF
330
13F97
100
AcDbEntity
  8
SUNPOU
 62
     1
100
AcDbTrace
 10
-1298.079354293395
 20
1577.571154041053
 30
0.0
 11
-1298.079354293395
 21
1576.571154041053
 31
0.0
 12
-1301.079354293395
 22
1577.071154041053
 32
0.0
 13
-1301.079354293395
 23
1577.071154041053
 33
0.0
  0
SOLID
  5
13FB0
330
13F97
100
AcDbEntity
  8
SUNPOU
 62
     1
100
AcDbTrace
 10
-1242.079354293394
 20
1577.571154041053
 30
0.0
 11
-1242.079354293394
 21
1576.571154041053
 31
0.0
 12
-1239.079354293395
 22
1577.071154041053
 32
0.0
 13
-1239.079354293395
 23
1577.071154041053
 33
0.0
  0
MTEXT
  5
13FB1
330
13F97
100
AcDbEntity
  8
SUNPOU
 62
     1
100
AcDbMText
 10
-1270.079354293395
 20
1579.821154041053
 30
0.0
 40
3.5
 41
0.0
 71
     5
 72
     1
  1
\A1;62
1001
ACAD
1000
MTEXTBEGIN
1070
    73
1070
     1
1070
    44
1040
1.0
1070
    74
1070
     0
1000
MTEXTEND
  0
POINT
  5
13FB2
330
13F97
100
AcDbEntity
  8
DEFPOINTS
 62
     0
100
AcDbPoint
 10
-1301.079354293395
 20
1640.573527651525
 30
0.0
  0
POINT
  5
13FB3
330
13F97
100
AcDbEntity
  8
DEFPOINTS
 62
     0
100
AcDbPoint
 10
-1239.079354293395
 20
1587.573527651525
 30
0.0
  0
POINT
  5
13FB4
330
13F97
100
AcDbEntity
  8
DEFPOINTS
 62
     0
100
AcDbPoint
 10
-1239.079354293395
 20
1577.071154041053
 30
0.0
  0
ENDBLK
  5
13FA2
330
13F97
100
AcDbEntity
  8
0
100
AcDbBlockEnd
  0
ENDSEC
  0
SECTION
  2
ENTITIES
  0
MTEXT
  5
5084
330
1A
100
AcDbEntity
  8
0
100
AcDbMText
 10
1985.239088685435
 20
-948.5420423450428
 30
0.0
 40
8.0
 41
0.0
 71
     7
 72
     5
  1

1001
ACAD
1000
MTEXTBEGIN
1070
    73
1070
     1
1070
    44
1040
1.0
1070
    74
1070
     0
1000
MTEXTEND
  0
MTEXT
  5
5085
330
1A
100
AcDbEntity
  8
0
100
AcDbMText
 10
4270.596778580329
 20
22.24825240601649
 30
0.0
 40
8.0
 41
0.0
 71
     7
 72
     5
  1

1001
ACAD
1000
MTEXTBEGIN
1070
    73
1070
     1
1070
    44
1040
1.0
1070
    74
1070
     0
1000
MTEXTEND
  0
MTEXT
  5
5343
330
1A
100
AcDbEntity
  8
SUNPOU
100
AcDbMText
 10
6936.493799262471
 20
9534.359644781135
 30
0.0
 40
10.5
 41
0.0
 71
     1
 72
     5
  1

1001
ACAD
1000
MTEXTBEGIN
1070
    73
1070
     1
1070
    44
1040
1.0
1070
    74
1070
     0
1000
MTEXTEND
  0
MTEXT
  5
544F
330
1A
100
AcDbEntity
  8
0
100
AcDbMText
 10
16317.2832773148
 20
12833.35428897674
 30
0.0
 40
8.0
 41
0.0
 71
     7
 72
     5
  1

1001
ACAD
1000
MTEXTBEGIN
1070
    73
1070
     1
1070
    44
1040
1.0
1070
    74
1070
     0
1000
MTEXTEND
  0
MTEXT
  5
5450
330
1A
100
AcDbEntity
  8
0
100
AcDbMText
 10
18602.64096720969
 20
13804.1445837278
 30
0.0
 40
8.0
 41
0.0
 71
     7
 72
     5
  1

1001
ACAD
1000
MTEXTBEGIN
1070
    73
1070
     1
1070
    44
1040
1.0
1070
    74
1070
     0
1000
MTEXTEND
  0
MTEXT
  5
5451
330
1A
100
AcDbEntity
  8
SUNPOU
100
AcDbMText
 10
21268.53798789184
 20
23316.25597610292
 30
0.0
 40
10.5
 41
0.0
 71
     1
 72
     5
  1

1001
ACAD
1000
MTEXTBEGIN
1070
    73
1070
     1
1070
    44
1040
1.0
1070
    74
1070
     0
1000
MTEXTEND
  0
MTEXT
  5
5452
330
1A
100
AcDbEntity
  8
SUNPOU
100
AcDbMText
 10
13337.6147919559
 20
22369.46284218996
 30
0.0
 40
10.5
 41
0.0
 71
     7
 72
     5
  1

1001
ACAD
1000
MTEXTBEGIN
1070
    73
1070
     1
1070
    44
1040
1.0
1070
    74
1070
     0
1000
MTEXTEND
  0
MTEXT
  5
5453
330
1A
100
AcDbEntity
  8
SUNPOU
100
AcDbMText
 10
16286.59845646867
 20
27270.13891403281
 30
0.0
 40
10.5
 41
0.0
 71
     7
 72
     5
  1

1001
ACAD
1000
MTEXTBEGIN
1070
    73
1070
     1
1070
    44
1040
1.0
1070
    74
1070
     0
1000
MTEXTEND
  0
MTEXT
  5
5454
330
1A
100
AcDbEntity
  8
SUNPOU
100
AcDbMText
 10
20795.67658441924
 20
29706.43966165288
 30
0.0
 40
10.5
 41
0.0
 71
     7
 72
     5
  1

1001
ACAD
1000
MTEXTBEGIN
1070
    73
1070
     1
1070
    44
1040
1.0
1070
    74
1070
     0
1000
MTEXTEND
  0
MTEXT
  5
5455
330
1A
100
AcDbEntity
  8
0
100
AcDbMText
 10
16611.93789220314
 20
14707.52144344448
 30
0.0
 40
8.0
 41
0.0
 71
     7
 72
     5
  1

1001
ACAD
1000
MTEXTBEGIN
1070
    73
1070
     1
1070
    44
1040
1.0
1070
    74
1070
     0
1000
MTEXTEND
  0
MTEXT
  5
5456
330
1A
100
AcDbEntity
  8
0
100
AcDbMText
 10
18897.29558209804
 20
15678.31173819554
 30
0.0
 40
8.0
 41
0.0
 71
     7
 72
     5
  1

1001
ACAD
1000
MTEXTBEGIN
1070
    73
1070
     1
1070
    44
1040
1.0
1070
    74
1070
     0
1000
MTEXTEND
  0
MTEXT
  5
5457
330
1A
100
AcDbEntity
  8
SUNPOU
100
AcDbMText
 10
21563.19260278019
 20
25190.42313057066
 30
0.0
 40
10.5
 41
0.0
 71
     1
 72
     5
  1

1001
ACAD
1000
MTEXTBEGIN
1070
    73
1070
     1
1070
    44
1040
1.0
1070
    74
1070
     0
1000
MTEXTEND
  0
MTEXT
  5
5458
330
1A
100
AcDbEntity
  8
SUNPOU
100
AcDbMText
 10
13632.26940684426
 20
24243.6299966577
 30
0.0
 40
10.5
 41
0.0
 71
     7
 72
     5
  1

1001
ACAD
1000
MTEXTBEGIN
1070
    73
1070
     1
1070
    44
1040
1.0
1070
    74
1070
     0
1000
MTEXTEND
  0
MTEXT
  5
5459
330
1A
100
AcDbEntity
  8
SUNPOU
100
AcDbMText
 10
16581.25307135702
 20
29144.30606850055
 30
0.0
 40
10.5
 41
0.0
 71
     7
 72
     5
  1

1001
ACAD
1000
MTEXTBEGIN
1070
    73
1070
     1
1070
    44
1040
1.0
1070
    74
1070
     0
1000
MTEXTEND
  0
MTEXT
  5
545A
330
1A
100
AcDbEntity
  8
SUNPOU
100
AcDbMText
 10
21090.33119930759
 20
31580.60681612062
 30
0.0
 40
10.5
 41
0.0
 71
     7
 72
     5
  1

1001
ACAD
1000
MTEXTBEGIN
1070
    73
1070
     1
1070
    44
1040
1.0
1070
    74
1070
     0
1000
MTEXTEND
  0
MTEXT
  5
545B
330
1A
100
AcDbEntity
  8
0
100
AcDbMText
 10
22871.60517627167
 20
23974.88367124799
 30
0.0
 40
8.0
 41
0.0
 71
     7
 72
     5
  1

1001
ACAD
1000
MTEXTBEGIN
1070
    73
1070
     1
1070
    44
1040
1.0
1070
    74
1070
     0
1000
MTEXTEND
  0
MTEXT
  5
545C
330
1A
100
AcDbEntity
  8
0
100
AcDbMText
 10
25156.96286616657
 20
24945.67396599906
 30
0.0
 40
8.0
 41
0.0
 71
     7
 72
     5
  1

1001
ACAD
1000
MTEXTBEGIN
1070
    73
1070
     1
1070
    44
1040
1.0
1070
    74
1070
     0
1000
MTEXTEND
  0
MTEXT
  5
545D
330
1A
100
AcDbEntity
  8
SUNPOU
100
AcDbMText
 10
27822.85988684871
 20
34457.78535837418
 30
0.0
 40
10.5
 41
0.0
 71
     1
 72
     5
  1

1001
ACAD
1000
MTEXTBEGIN
1070
    73
1070
     1
1070
    44
1040
1.0
1070
    74
1070
     0
1000
MTEXTEND
  0
MTEXT
  5
545E
330
1A
100
AcDbEntity
  8
SUNPOU
100
AcDbMText
 10
19891.93669091278
 20
33510.99222446122
 30
0.0
 40
10.5
 41
0.0
 71
     7
 72
     5
  1

1001
ACAD
1000
MTEXTBEGIN
1070
    73
1070
     1
1070
    44
1040
1.0
1070
    74
1070
     0
1000
MTEXTEND
  0
MTEXT
  5
545F
330
1A
100
AcDbEntity
  8
SUNPOU
100
AcDbMText
 10
22840.92035542555
 20
38411.66829630407
 30
0.0
 40
10.5
 41
0.0
 71
     7
 72
     5
  1

1001
ACAD
1000
MTEXTBEGIN
1070
    73
1070
     1
1070
    44
1040
1.0
1070
    74
1070
     0
1000
MTEXTEND
  0
MTEXT
  5
5460
330
1A
100
AcDbEntity
  8
SUNPOU
100
AcDbMText
 10
27349.99848337611
 20
40847.96904392415
 30
0.0
 40
10.5
 41
0.0
 71
     7
 72
     5
  1

1001
ACAD
1000
MTEXTBEGIN
1070
    73
1070
     1
1070
    44
1040
1.0
1070
    74
1070
     0
1000
MTEXTEND
  0
MTEXT
  5
55B7
330
1A
100
AcDbEntity
  8
SUNPOU
100
AcDbMText
 10
67424.23923338197
 20
64463.86602884816
 30
0.0
 40
10.5
 41
0.0
 71
     9
 72
     5
  1

1001
ACAD
1000
MTEXTBEGIN
1070
    73
1070
     1
1070
    44
1040
1.0
1070
    74
1070
     0
1000
MTEXTEND
  0
MTEXT
  5
55B8
330
1A
100
AcDbEntity
  8
SUNPOU
100
AcDbMText
 10
76146.40679929998
 20
71879.70056038563
 30
0.0
 40
10.5
 41
0.0
 71
     9
 72
     5
  1

1001
ACAD
1000
MTEXTBEGIN
1070
    73
1070
     1
1070
    44
1040
1.0
1070
    74
1070
     0
1000
MTEXTEND
  0
MTEXT
  5
55B9
330
1A
100
AcDbEntity
  8
SUNPOU
100
AcDbMText
 10
95100.16551662994
 20
89346.27661287766
 30
0.0
 40
10.5
 41
0.0
 71
     9
 72
     5
  1

1001
ACAD
1000
MTEXTBEGIN
1070
    73
1070
     1
1070
    44
1040
1.0
1070
    74
1070
     0
1000
MTEXTEND
  0
MTEXT
  5
55BA
330
1A
100
AcDbEntity
  8
SUNPOU
100
AcDbMText
 10
97043.57276333936
 20
87545.22753299966
 30
0.0
 40
3.5
 41
0.0
 71
     9
 72
     5
  1

1001
ACAD
1000
MTEXTBEGIN
1070
    73
1070
     1
1070
    44
1040
1.0
1070
    74
1070
     0
1000
MTEXTEND
  0
MTEXT
  5
55BB
330
1A
100
AcDbEntity
  8
SUNPOU
100
AcDbMText
 10
128169.752595959
 20
130040.1732006569
 30
0.0
 40
10.5
 41
0.0
 71
     9
 72
     5
  1

1001
ACAD
1000
MTEXTBEGIN
1070
    73
1070
     1
1070
    44
1040
1.0
1070
    74
1070
     0
1000
MTEXTEND
  0
MTEXT
  5
55BC
330
1A
100
AcDbEntity
  8
SUNPOU
100
AcDbMText
 10
130113.1598426684
 20
128239.1241207789
 30
0.0
 40
3.5
 41
0.0
 71
     9
 72
     5
  1

1001
ACAD
1000
MTEXTBEGIN
1070
    73
1070
     1
1070
    44
1040
1.0
1070
    74
1070
     0
1000
MTEXTEND
  0
MTEXT
  5
55BD
330
1A
100
AcDbEntity
  8
SUNPOU
100
AcDbMText
 10
78610.02030175463
 20
75873.33835563206
 30
0.0
 40
10.5
 41
0.0
 71
     9
 72
     5
  1

1001
ACAD
1000
MTEXTBEGIN
1070
    73
1070
     1
1070
    44
1040
1.0
1070
    74
1070
     0
1000
MTEXTEND
  0
MTEXT
  5
55BE
330
1A
100
AcDbEntity
  8
SUNPOU
100
AcDbMText
 10
64662.02020137863
 20
56700.93921651987
 30
0.0
 40
3.5
 41
0.0
 71
     7
 72
     5
  1

1001
ACAD
1000
MTEXTBEGIN
1070
    73
1070
     1
1070
    44
1040
1.0
1070
    74
1070
     0
1000
MTEXTEND
  0
MTEXT
  5
55BF
330
1A
100
AcDbEntity
  8
SUNPOU
100
AcDbMText
 10
45647.18959837178
 20
44463.08794733807
 30
0.0
 40
10.5
 41
0.0
 71
     7
 72
     5
  1

1001
ACAD
1000
MTEXTBEGIN
1070
    73
1070
     1
1070
    44
1040
1.0
1070
    74
1070
     0
1000
MTEXTEND
  0
MTEXT
  5
55C0
330
1A
100
AcDbEntity
  8
SUNPOU
100
AcDbMText
 10
33189.96133342368
 20
28618.15636923965
 30
0.0
 40
35.0
 41
0.0
 71
     9
 72
     5
  1

1001
ACAD
1000
MTEXTBEGIN
1070
    73
1070
     1
1070
    44
1040
1.0
1070
    74
1070
     0
1000
MTEXTEND
  0
MTEXT
  5
55C1
330
1A
100
AcDbEntity
  8
SUNPOU
100
AcDbMText
 10
32098.44639099864
 20
29226.93177928835
 30
0.0
 40
350.0000004171781
 41
0.0
 71
     7
 72
     5
  1

1001
ACAD
1000
MTEXTBEGIN
1070
    73
1070
     1
1070
    44
1040
1.0
1070
    74
1070
     0
1000
MTEXTEND
  0
MTEXT
  5
55C2
330
1A
100
AcDbEntity
  8
0
100
AcDbMText
 10
38142.39714894154
 20
27206.85414142458
 30
0.0
 40
8.0
 41
0.0
 71
     7
 72
     5
  1

1001
ACAD
1000
MTEXTBEGIN
1070
    73
1070
     1
1070
    44
1040
1.0
1070
    74
1070
     0
1000
MTEXTEND
  0
MTEXT
  5
55C3
330
1A
100
AcDbEntity
  8
0
100
AcDbMText
 10
40427.75483883644
 20
28177.64443617564
 30
0.0
 40
8.0
 41
0.0
 71
     7
 72
     5
  1

1001
ACAD
1000
MTEXTBEGIN
1070
    73
1070
     1
1070
    44
1040
1.0
1070
    74
1070
     0
1000
MTEXTEND
  0
MTEXT
  5
55C4
330
1A
100
AcDbEntity
  8
SUNPOU
100
AcDbMText
 10
43093.65185951858
 20
37689.75582855077
 30
0.0
 40
10.5
 41
0.0
 71
     1
 72
     5
  1

1001
ACAD
1000
MTEXTBEGIN
1070
    73
1070
     1
1070
    44
1040
1.0
1070
    74
1070
     0
1000
MTEXTEND
  0
MTEXT
  5
55C5
330
1A
100
AcDbEntity
  8
SUNPOU
100
AcDbMText
 10
35162.72866358265
 20
36742.96269463781
 30
0.0
 40
10.5
 41
0.0
 71
     7
 72
     5
  1

1001
ACAD
1000
MTEXTBEGIN
1070
    73
1070
     1
1070
    44
1040
1.0
1070
    74
1070
     0
1000
MTEXTEND
  0
MTEXT
  5
55C6
330
1A
100
AcDbEntity
  8
SUNPOU
100
AcDbMText
 10
38111.71232809542
 20
41643.63876648066
 30
0.0
 40
10.5
 41
0.0
 71
     7
 72
     5
  1

1001
ACAD
1000
MTEXTBEGIN
1070
    73
1070
     1
1070
    44
1040
1.0
1070
    74
1070
     0
1000
MTEXTEND
  0
MTEXT
  5
55C7
330
1A
100
AcDbEntity
  8
SUNPOU
100
AcDbMText
 10
42620.79045604597
 20
44079.93951410074
 30
0.0
 40
10.5
 41
0.0
 71
     7
 72
     5
  1

1001
ACAD
1000
MTEXTBEGIN
1070
    73
1070
     1
1070
    44
1040
1.0
1070
    74
1070
     0
1000
MTEXTEND
  0
MTEXT
  5
55C8
330
1A
100
AcDbEntity
  8
SUNPOU
100
AcDbMText
 10
26221.62834281429
 20
23077.53566448964
 30
0.0
 40
10.5
 41
0.0
 71
     7
 72
     5
  1

1001
ACAD
1000
MTEXTBEGIN
1070
    73
1070
     1
1070
    44
1040
1.0
1070
    74
1070
     0
1000
MTEXTEND
  0
MTEXT
  5
55C9
330
1A
100
AcDbEntity
  8
SUNPOU
100
AcDbMText
 10
77413.14677671455
 20
68750.51622813789
 30
0.0
 40
10.5
 41
0.0
 71
     9
 72
     5
  1

1001
ACAD
1000
MTEXTBEGIN
1070
    73
1070
     1
1070
    44
1040
1.0
1070
    74
1070
     0
1000
MTEXTEND
  0
MTEXT
  5
55CA
330
1A
100
AcDbEntity
  8
SUNPOU
100
AcDbMText
 10
86135.31434263256
 20
76166.35075967536
 30
0.0
 40
10.5
 41
0.0
 71
     9
 72
     5
  1

1001
ACAD
1000
MTEXTBEGIN
1070
    73
1070
     1
1070
    44
1040
1.0
1070
    74
1070
     0
1000
MTEXTEND
  0
MTEXT
  5
55CB
330
1A
100
AcDbEntity
  8
SUNPOU
100
AcDbMText
 10
105089.0730599625
 20
93632.92681216739
 30
0.0
 40
10.5
 41
0.0
 71
     9
 72
     5
  1

1001
ACAD
1000
MTEXTBEGIN
1070
    73
1070
     1
1070
    44
1040
1.0
1070
    74
1070
     0
1000
MTEXTEND
  0
MTEXT
  5
55CC
330
1A
100
AcDbEntity
  8
SUNPOU
100
AcDbMText
 10
107032.4803066719
 20
91831.8777322894
 30
0.0
 40
3.5
 41
0.0
 71
     9
 72
     5
  1

1001
ACAD
1000
MTEXTBEGIN
1070
    73
1070
     1
1070
    44
1040
1.0
1070
    74
1070
     0
1000
MTEXTEND
  0
MTEXT
  5
55CD
330
1A
100
AcDbEntity
  8
SUNPOU
100
AcDbMText
 10
138158.6601392916
 20
134326.8233999467
 30
0.0
 40
10.5
 41
0.0
 71
     9
 72
     5
  1

1001
ACAD
1000
MTEXTBEGIN
1070
    73
1070
     1
1070
    44
1040
1.0
1070
    74
1070
     0
1000
MTEXTEND
  0
MTEXT
  5
55CE
330
1A
100
AcDbEntity
  8
SUNPOU
100
AcDbMText
 10
140102.067386001
 20
132525.7743200686
 30
0.0
 40
3.5
 41
0.0
 71
     9
 72
     5
  1

1001
ACAD
1000
MTEXTBEGIN
1070
    73
1070
     1
1070
    44
1040
1.0
1070
    74
1070
     0
1000
MTEXTEND
  0
MTEXT
  5
55CF
330
1A
100
AcDbEntity
  8
SUNPOU
100
AcDbMText
 10
88598.92784508721
 20
80159.98855492179
 30
0.0
 40
10.5
 41
0.0
 71
     9
 72
     5
  1

1001
ACAD
1000
MTEXTBEGIN
1070
    73
1070
     1
1070
    44
1040
1.0
1070
    74
1070
     0
1000
MTEXTEND
  0
MTEXT
  5
55D0
330
1A
100
AcDbEntity
  8
SUNPOU
100
AcDbMText
 10
74650.92774471121
 20
60987.5894158096
 30
0.0
 40
3.5
 41
0.0
 71
     7
 72
     5
  1

1001
ACAD
1000
MTEXTBEGIN
1070
    73
1070
     1
1070
    44
1040
1.0
1070
    74
1070
     0
1000
MTEXTEND
  0
MTEXT
  5
55D1
330
1A
100
AcDbEntity
  8
SUNPOU
100
AcDbMText
 10
55636.09714170436
 20
48749.73814662781
 30
0.0
 40
10.5
 41
0.0
 71
     7
 72
     5
  1

1001
ACAD
1000
MTEXTBEGIN
1070
    73
1070
     1
1070
    44
1040
1.0
1070
    74
1070
     0
1000
MTEXTEND
  0
MTEXT
  5
55D2
330
1A
100
AcDbEntity
  8
SUNPOU
100
AcDbMText
 10
43178.86887675626
 20
32904.80656852938
 30
0.0
 40
35.0
 41
0.0
 71
     9
 72
     5
  1

1001
ACAD
1000
MTEXTBEGIN
1070
    73
1070
     1
1070
    44
1040
1.0
1070
    74
1070
     0
1000
MTEXTEND
  0
MTEXT
  5
55D3
330
1A
100
AcDbEntity
  8
SUNPOU
100
AcDbMText
 10
42087.35393433121
 20
33513.58197857809
 30
0.0
 40
350.0000004171781
 41
0.0
 71
     7
 72
     5
  1

1001
ACAD
1000
MTEXTBEGIN
1070
    73
1070
     1
1070
    44
1040
1.0
1070
    74
1070
     0
1000
MTEXTEND
  0
MTEXT
  5
55D4
330
1A
100
AcDbEntity
  8
0
100
AcDbMText
 10
48131.30469227412
 20
31493.50434071431
 30
0.0
 40
8.0
 41
0.0
 71
     7
 72
     5
  1

1001
ACAD
1000
MTEXTBEGIN
1070
    73
1070
     1
1070
    44
1040
1.0
1070
    74
1070
     0
1000
MTEXTEND
  0
MTEXT
  5
55D5
330
1A
100
AcDbEntity
  8
0
100
AcDbMText
 10
50416.66238216901
 20
32464.29463546537
 30
0.0
 40
8.0
 41
0.0
 71
     7
 72
     5
  1

1001
ACAD
1000
MTEXTBEGIN
1070
    73
1070
     1
1070
    44
1040
1.0
1070
    74
1070
     0
1000
MTEXTEND
  0
MTEXT
  5
55D6
330
1A
100
AcDbEntity
  8
SUNPOU
100
AcDbMText
 10
53082.55940285115
 20
41976.4060278405
 30
0.0
 40
10.5
 41
0.0
 71
     1
 72
     5
  1

1001
ACAD
1000
MTEXTBEGIN
1070
    73
1070
     1
1070
    44
1040
1.0
1070
    74
1070
     0
1000
MTEXTEND
  0
MTEXT
  5
55D7
330
1A
100
AcDbEntity
  8
SUNPOU
100
AcDbMText
 10
45151.63620691522
 20
41029.61289392755
 30
0.0
 40
10.5
 41
0.0
 71
     7
 72
     5
  1

1001
ACAD
1000
MTEXTBEGIN
1070
    73
1070
     1
1070
    44
1040
1.0
1070
    74
1070
     0
1000
MTEXTEND
  0
MTEXT
  5
55D8
330
1A
100
AcDbEntity
  8
SUNPOU
100
AcDbMText
 10
48100.61987142798
 20
45930.28896577039
 30
0.0
 40
10.5
 41
0.0
 71
     7
 72
     5
  1

1001
ACAD
1000
MTEXTBEGIN
1070
    73
1070
     1
1070
    44
1040
1.0
1070
    74
1070
     0
1000
MTEXTEND
  0
MTEXT
  5
55D9
330
1A
100
AcDbEntity
  8
SUNPOU
100
AcDbMText
 10
52609.69799937854
 20
48366.58971339046
 30
0.0
 40
10.5
 41
0.0
 71
     7
 72
     5
  1

1001
ACAD
1000
MTEXTBEGIN
1070
    73
1070
     1
1070
    44
1040
1.0
1070
    74
1070
     0
1000
MTEXTEND
  0
MTEXT
  5
55DA
330
1A
100
AcDbEntity
  8
SUNPOU
100
AcDbMText
 10
36210.53588614687
 20
27364.18586377937
 30
0.0
 40
10.5
 41
0.0
 71
     7
 72
     5
  1

1001
ACAD
1000
MTEXTBEGIN
1070
    73
1070
     1
1070
    44
1040
1.0
1070
    74
1070
     0
1000
MTEXTEND
  0
MTEXT
  5
55DB
330
1A
100
AcDbEntity
  8
SUNPOU
100
AcDbMText
 10
38021.29879752181
 20
33691.59985125794
 30
0.0
 40
10.5
 41
0.0
 71
     9
 72
     5
  1

1001
ACAD
1000
MTEXTBEGIN
1070
    73
1070
     1
1070
    44
1040
1.0
1070
    74
1070
     0
1000
MTEXTEND
  0
MTEXT
  5
55DC
330
1A
100
AcDbEntity
  8
SUNPOU
100
AcDbMText
 10
46743.46636343979
 20
41107.43438279541
 30
0.0
 40
10.5
 41
0.0
 71
     9
 72
     5
  1

1001
ACAD
1000
MTEXTBEGIN
1070
    73
1070
     1
1070
    44
1040
1.0
1070
    74
1070
     0
1000
MTEXTEND
  0
MTEXT
  5
55DD
330
1A
100
AcDbEntity
  8
SUNPOU
100
AcDbMText
 10
65697.22508076975
 20
58574.01043528746
 30
0.0
 40
10.5
 41
0.0
 71
     9
 72
     5
  1

1001
ACAD
1000
MTEXTBEGIN
1070
    73
1070
     1
1070
    44
1040
1.0
1070
    74
1070
     0
1000
MTEXTEND
  0
MTEXT
  5
55DE
330
1A
100
AcDbEntity
  8
SUNPOU
100
AcDbMText
 10
67640.63232747917
 20
56772.96135540945
 30
0.0
 40
3.5
 41
0.0
 71
     9
 72
     5
  1

1001
ACAD
1000
MTEXTBEGIN
1070
    73
1070
     1
1070
    44
1040
1.0
1070
    74
1070
     0
1000
MTEXTEND
  0
MTEXT
  5
55DF
330
1A
100
AcDbEntity
  8
SUNPOU
100
AcDbMText
 10
98766.81216009888
 20
99267.9070230668
 30
0.0
 40
10.5
 41
0.0
 71
     9
 72
     5
  1

1001
ACAD
1000
MTEXTBEGIN
1070
    73
1070
     1
1070
    44
1040
1.0
1070
    74
1070
     0
1000
MTEXTEND
  0
MTEXT
  5
55E0
330
1A
100
AcDbEntity
  8
SUNPOU
100
AcDbMText
 10
100710.2194068083
 20
97466.85794318878
 30
0.0
 40
3.5
 41
0.0
 71
     9
 72
     5
  1

1001
ACAD
1000
MTEXTBEGIN
1070
    73
1070
     1
1070
    44
1040
1.0
1070
    74
1070
     0
1000
MTEXTEND
  0
MTEXT
  5
55E1
330
1A
100
AcDbEntity
  8
SUNPOU
100
AcDbMText
 10
49207.07986589444
 20
45101.07217804185
 30
0.0
 40
10.5
 41
0.0
 71
     9
 72
     5
  1

1001
ACAD
1000
MTEXTBEGIN
1070
    73
1070
     1
1070
    44
1040
1.0
1070
    74
1070
     0
1000
MTEXTEND
  0
MTEXT
  5
55E2
330
1A
100
AcDbEntity
  8
SUNPOU
100
AcDbMText
 10
35259.07976551845
 20
25928.67303892964
 30
0.0
 40
3.5
 41
0.0
 71
     7
 72
     5
  1

1001
ACAD
1000
MTEXTBEGIN
1070
    73
1070
     1
1070
    44
1040
1.0
1070
    74
1070
     0
1000
MTEXTEND
  0
MTEXT
  5
55E3
330
1A
100
AcDbEntity
  8
SUNPOU
100
AcDbMText
 10
48951.43044828905
 20
35287.73625995099
 30
0.0
 40
10.5
 41
0.0
 71
     9
 72
     5
  1

1001
ACAD
1000
MTEXTBEGIN
1070
    73
1070
     1
1070
    44
1040
1.0
1070
    74
1070
     0
1000
MTEXTEND
  0
MTEXT
  5
55E4
330
1A
100
AcDbEntity
  8
SUNPOU
100
AcDbMText
 10
57673.59801420702
 20
42703.57079148847
 30
0.0
 40
10.5
 41
0.0
 71
     9
 72
     5
  1

1001
ACAD
1000
MTEXTBEGIN
1070
    73
1070
     1
1070
    44
1040
1.0
1070
    74
1070
     0
1000
MTEXTEND
  0
MTEXT
  5
55E5
330
1A
100
AcDbEntity
  8
SUNPOU
100
AcDbMText
 10
76627.35673153699
 20
60170.14684398051
 30
0.0
 40
10.5
 41
0.0
 71
     9
 72
     5
  1

1001
ACAD
1000
MTEXTBEGIN
1070
    73
1070
     1
1070
    44
1040
1.0
1070
    74
1070
     0
1000
MTEXTEND
  0
MTEXT
  5
55E6
330
1A
100
AcDbEntity
  8
SUNPOU
100
AcDbMText
 10
78570.76397824641
 20
58369.09776410251
 30
0.0
 40
3.5
 41
0.0
 71
     9
 72
     5
  1

1001
ACAD
1000
MTEXTBEGIN
1070
    73
1070
     1
1070
    44
1040
1.0
1070
    74
1070
     0
1000
MTEXTEND
  0
MTEXT
  5
55E7
330
1A
100
AcDbEntity
  8
SUNPOU
100
AcDbMText
 10
109696.9438108661
 20
100864.0434317598
 30
0.0
 40
10.5
 41
0.0
 71
     9
 72
     5
  1

1001
ACAD
1000
MTEXTBEGIN
1070
    73
1070
     1
1070
    44
1040
1.0
1070
    74
1070
     0
1000
MTEXTEND
  0
MTEXT
  5
55E8
330
1A
100
AcDbEntity
  8
SUNPOU
100
AcDbMText
 10
111640.3510575755
 20
99062.99435188183
 30
0.0
 40
3.5
 41
0.0
 71
     9
 72
     5
  1

1001
ACAD
1000
MTEXTBEGIN
1070
    73
1070
     1
1070
    44
1040
1.0
1070
    74
1070
     0
1000
MTEXTEND
  0
MTEXT
  5
55E9
330
1A
100
AcDbEntity
  8
SUNPOU
100
AcDbMText
 10
60137.21151666167
 20
46697.20858673491
 30
0.0
 40
10.5
 41
0.0
 71
     9
 72
     5
  1

1001
ACAD
1000
MTEXTBEGIN
1070
    73
1070
     1
1070
    44
1040
1.0
1070
    74
1070
     0
1000
MTEXTEND
  0
MTEXT
  5
55EA
330
1A
100
AcDbEntity
  8
SUNPOU
100
AcDbMText
 10
46189.21141628568
 20
27524.80944762269
 30
0.0
 40
3.5
 41
0.0
 71
     7
 72
     5
  1

1001
ACAD
1000
MTEXTBEGIN
1070
    73
1070
     1
1070
    44
1040
1.0
1070
    74
1070
     0
1000
MTEXTEND
  0
MTEXT
  5
55EB
330
1A
100
AcDbEntity
  8
SUNPOU
100
AcDbMText
 10
45007.68847015541
 20
38269.57947701874
 30
0.0
 40
10.5
 41
0.0
 71
     9
 72
     5
  1

1001
ACAD
1000
MTEXTBEGIN
1070
    73
1070
     1
1070
    44
1040
1.0
1070
    74
1070
     0
1000
MTEXTEND
  0
MTEXT
  5
55EC
330
1A
100
AcDbEntity
  8
SUNPOU
100
AcDbMText
 10
63961.44718748539
 20
55736.15552951081
 30
0.0
 40
10.5
 41
0.0
 71
     9
 72
     5
  1

1001
ACAD
1000
MTEXTBEGIN
1070
    73
1070
     1
1070
    44
1040
1.0
1070
    74
1070
     0
1000
MTEXTEND
  0
MTEXT
  5
55ED
330
1A
100
AcDbEntity
  8
SUNPOU
100
AcDbMText
 10
65904.85443419479
 20
53935.10644963279
 30
0.0
 40
3.5
 41
0.0
 71
     9
 72
     5
  1

1001
ACAD
1000
MTEXTBEGIN
1070
    73
1070
     1
1070
    44
1040
1.0
1070
    74
1070
     0
1000
MTEXTEND
  0
MTEXT
  5
55EE
330
1A
100
AcDbEntity
  8
SUNPOU
100
AcDbMText
 10
97031.03426681451
 20
96430.05211729015
 30
0.0
 40
10.5
 41
0.0
 71
     9
 72
     5
  1

1001
ACAD
1000
MTEXTBEGIN
1070
    73
1070
     1
1070
    44
1040
1.0
1070
    74
1070
     0
1000
MTEXTEND
  0
MTEXT
  5
55EF
330
1A
100
AcDbEntity
  8
SUNPOU
100
AcDbMText
 10
98974.44151352393
 20
94629.00303741212
 30
0.0
 40
3.5
 41
0.0
 71
     9
 72
     5
  1

1001
ACAD
1000
MTEXTBEGIN
1070
    73
1070
     1
1070
    44
1040
1.0
1070
    74
1070
     0
1000
MTEXTEND
  0
MTEXT
  5
55F0
330
1A
100
AcDbEntity
  8
SUNPOU
100
AcDbMText
 10
47471.30197261006
 20
42263.21727226519
 30
0.0
 40
10.5
 41
0.0
 71
     9
 72
     5
  1

1001
ACAD
1000
MTEXTBEGIN
1070
    73
1070
     1
1070
    44
1040
1.0
1070
    74
1070
     0
1000
MTEXTEND
  0
MTEXT
  5
55F1
330
1A
100
AcDbEntity
  8
SUNPOU
100
AcDbMText
 10
33523.30187223408
 20
23090.81813315298
 30
0.0
 40
3.5
 41
0.0
 71
     7
 72
     5
  1

1001
ACAD
1000
MTEXTBEGIN
1070
    73
1070
     1
1070
    44
1040
1.0
1070
    74
1070
     0
1000
MTEXTEND
  0
MTEXT
  5
55F2
330
1A
100
AcDbEntity
  8
SUNPOU
100
AcDbMText
 10
57959.46254102503
 20
50038.08111611015
 30
0.0
 40
10.5
 41
0.0
 71
     9
 72
     5
  1

1001
ACAD
1000
MTEXTBEGIN
1070
    73
1070
     1
1070
    44
1040
1.0
1070
    74
1070
     0
1000
MTEXTEND
  0
MTEXT
  5
55F3
330
1A
100
AcDbEntity
  8
SUNPOU
100
AcDbMText
 10
76913.22125835503
 20
67504.65716860222
 30
0.0
 40
10.5
 41
0.0
 71
     9
 72
     5
  1

1001
ACAD
1000
MTEXTBEGIN
1070
    73
1070
     1
1070
    44
1040
1.0
1070
    74
1070
     0
1000
MTEXTEND
  0
MTEXT
  5
55F4
330
1A
100
AcDbEntity
  8
SUNPOU
100
AcDbMText
 10
78856.62850506443
 20
65703.6080887242
 30
0.0
 40
3.5
 41
0.0
 71
     9
 72
     5
  1

1001
ACAD
1000
MTEXTBEGIN
1070
    73
1070
     1
1070
    44
1040
1.0
1070
    74
1070
     0
1000
MTEXTEND
  0
MTEXT
  5
55F5
330
1A
100
AcDbEntity
  8
SUNPOU
100
AcDbMText
 10
109982.8083376841
 20
108198.5537563815
 30
0.0
 40
10.5
 41
0.0
 71
     9
 72
     5
  1

1001
ACAD
1000
MTEXTBEGIN
1070
    73
1070
     1
1070
    44
1040
1.0
1070
    74
1070
     0
1000
MTEXTEND
  0
MTEXT
  5
55F6
330
1A
100
AcDbEntity
  8
SUNPOU
100
AcDbMText
 10
111926.2155843935
 20
106397.5046765035
 30
0.0
 40
3.5
 41
0.0
 71
     9
 72
     5
  1

1001
ACAD
1000
MTEXTBEGIN
1070
    73
1070
     1
1070
    44
1040
1.0
1070
    74
1070
     0
1000
MTEXTEND
  0
MTEXT
  5
55F7
330
1A
100
AcDbEntity
  8
SUNPOU
100
AcDbMText
 10
60423.07604347968
 20
54031.71891135659
 30
0.0
 40
10.5
 41
0.0
 71
     9
 72
     5
  1

1001
ACAD
1000
MTEXTBEGIN
1070
    73
1070
     1
1070
    44
1040
1.0
1070
    74
1070
     0
1000
MTEXTEND
  0
MTEXT
  5
55F8
330
1A
100
AcDbEntity
  8
SUNPOU
100
AcDbMText
 10
46475.07594310369
 20
34859.3197722444
 30
0.0
 40
3.5
 41
0.0
 71
     7
 72
     5
  1

1001
ACAD
1000
MTEXTBEGIN
1070
    73
1070
     1
1070
    44
1040
1.0
1070
    74
1070
     0
1000
MTEXTEND
  0
MTEXT
  5
55F9
330
1A
100
AcDbEntity
  8
SUNPOU
100
AcDbMText
 10
74027.35402123588
 20
68370.58278833383
 30
0.0
 40
10.5
 41
0.0
 71
     9
 72
     5
  1

1001
ACAD
1000
MTEXTBEGIN
1070
    73
1070
     1
1070
    44
1040
1.0
1070
    74
1070
     0
1000
MTEXTEND
  0
MTEXT
  5
55FA
330
1A
100
AcDbEntity
  8
SUNPOU
100
AcDbMText
 10
75970.7612679453
 20
66569.53370845583
 30
0.0
 40
3.5
 41
0.0
 71
     9
 72
     5
  1

1001
ACAD
1000
MTEXTBEGIN
1070
    73
1070
     1
1070
    44
1040
1.0
1070
    74
1070
     0
1000
MTEXTEND
  0
MTEXT
  5
55FB
330
1A
100
AcDbEntity
  8
SUNPOU
100
AcDbMText
 10
107096.941100565
 20
109064.4793761132
 30
0.0
 40
10.5
 41
0.0
 71
     9
 72
     5
  1

1001
ACAD
1000
MTEXTBEGIN
1070
    73
1070
     1
1070
    44
1040
1.0
1070
    74
1070
     0
1000
MTEXTEND
  0
MTEXT
  5
55FC
330
1A
100
AcDbEntity
  8
SUNPOU
100
AcDbMText
 10
109040.3483472744
 20
107263.4302962351
 30
0.0
 40
3.5
 41
0.0
 71
     9
 72
     5
  1

1001
ACAD
1000
MTEXTBEGIN
1070
    73
1070
     1
1070
    44
1040
1.0
1070
    74
1070
     0
1000
MTEXTEND
  0
MTEXT
  5
55FD
330
1A
100
AcDbEntity
  8
SUNPOU
100
AcDbMText
 10
105709.1709283621
 20
108141.3777665285
 30
0.0
 40
10.5
 41
0.0
 71
     9
 72
     5
  1

1001
ACAD
1000
MTEXTBEGIN
1070
    73
1070
     1
1070
    44
1040
1.0
1070
    74
1070
     0
1000
MTEXTEND
  0
MTEXT
  5
55FE
330
1A
100
AcDbEntity
  8
SUNPOU
100
AcDbMText
 10
107652.5781750715
 20
106340.3286866505
 30
0.0
 40
3.5
 41
0.0
 71
     9
 72
     5
  1

1001
ACAD
1000
MTEXTBEGIN
1070
    73
1070
     1
1070
    44
1040
1.0
1070
    74
1070
     0
1000
MTEXTEND
  0
MTEXT
  5
55FF
330
1A
100
AcDbEntity
  8
SUNPOU
100
AcDbMText
 10
73193.09268743351
 20
66158.78082845056
 30
0.0
 40
10.5
 41
0.0
 71
     9
 72
     5
  1

1001
ACAD
1000
MTEXTBEGIN
1070
    73
1070
     1
1070
    44
1040
1.0
1070
    74
1070
     0
1000
MTEXTEND
  0
MTEXT
  5
5600
330
1A
100
AcDbEntity
  8
SUNPOU
100
AcDbMText
 10
75916.39889159806
 20
66563.46252003162
 30
0.0
 40
3.5
 41
0.0
 71
     9
 72
     5
  1

1001
ACAD
1000
MTEXTBEGIN
1070
    73
1070
     1
1070
    44
1040
1.0
1070
    74
1070
     0
1000
MTEXTEND
  0
MTEXT
  5
5601
330
1A
100
AcDbEntity
  8
SUNPOU
100
AcDbMText
 10
75124.04436649058
 20
63402.1566819768
 30
0.0
 40
10.5
 41
0.0
 71
     9
 72
     5
  1

1001
ACAD
1000
MTEXTBEGIN
1070
    73
1070
     1
1070
    44
1040
1.0
1070
    74
1070
     0
1000
MTEXTEND
  0
MTEXT
  5
5602
330
1A
100
AcDbEntity
  8
SUNPOU
100
AcDbMText
 10
77067.4516132
 20
61601.1076020988
 30
0.0
 40
3.5
 41
0.0
 71
     9
 72
     5
  1

1001
ACAD
1000
MTEXTBEGIN
1070
    73
1070
     1
1070
    44
1040
1.0
1070
    74
1070
     0
1000
MTEXTEND
  0
MTEXT
  5
5603
330
1A
100
AcDbEntity
  8
SUNPOU
100
AcDbMText
 10
77012.54710378659
 20
61488.33571981449
 30
0.0
 40
3.5
 41
0.0
 71
     9
 72
     5
  1

1001
ACAD
1000
MTEXTBEGIN
1070
    73
1070
     1
1070
    44
1040
1.0
1070
    74
1070
     0
1000
MTEXTEND
  0
MTEXT
  5
5604
330
1A
100
AcDbEntity
  8
SUNPOU
100
AcDbMText
 10
76376.61896736668
 20
60677.01447874797
 30
0.0
 40
3.5
 41
0.0
 71
     9
 72
     5
  1

1001
ACAD
1000
MTEXTBEGIN
1070
    73
1070
     1
1070
    44
1040
1.0
1070
    74
1070
     0
1000
MTEXTEND
  0
MTEXT
  5
5605
330
1A
100
AcDbEntity
  8
SUNPOU
100
AcDbMText
 10
76375.37854794595
 20
60676.76650181047
 30
0.0
 40
10.5
 41
0.0
 71
     9
 72
     5
  1

1001
ACAD
1000
MTEXTBEGIN
1070
    73
1070
     1
1070
    44
1040
1.0
1070
    74
1070
     0
1000
MTEXTEND
  0
MTEXT
  5
5606
330
1A
100
AcDbEntity
  8
SUNPOU
100
AcDbMText
 10
84709.93991079748
 20
78034.0328293557
 30
0.0
 40
10.5
 41
0.0
 71
     9
 72
     5
  1

1001
ACAD
1000
MTEXTBEGIN
1070
    73
1070
     1
1070
    44
1040
1.0
1070
    74
1070
     0
1000
MTEXTEND
  0
MTEXT
  5
5607
330
1A
100
AcDbEntity
  8
SUNPOU
100
AcDbMText
 10
93432.10747671548
 20
85449.86736089315
 30
0.0
 40
10.5
 41
0.0
 71
     9
 72
     5
  1

1001
ACAD
1000
MTEXTBEGIN
1070
    73
1070
     1
1070
    44
1040
1.0
1070
    74
1070
     0
1000
MTEXTEND
  0
MTEXT
  5
5608
330
1A
100
AcDbEntity
  8
SUNPOU
100
AcDbMText
 10
112385.8661940454
 20
102916.4434133851
 30
0.0
 40
10.5
 41
0.0
 71
     9
 72
     5
  1

1001
ACAD
1000
MTEXTBEGIN
1070
    73
1070
     1
1070
    44
1040
1.0
1070
    74
1070
     0
1000
MTEXTEND
  0
MTEXT
  5
5609
330
1A
100
AcDbEntity
  8
SUNPOU
100
AcDbMText
 10
114329.2734407548
 20
101115.3943335072
 30
0.0
 40
3.5
 41
0.0
 71
     9
 72
     5
  1

1001
ACAD
1000
MTEXTBEGIN
1070
    73
1070
     1
1070
    44
1040
1.0
1070
    74
1070
     0
1000
MTEXTEND
  0
MTEXT
  5
560A
330
1A
100
AcDbEntity
  8
SUNPOU
100
AcDbMText
 10
145455.4532733745
 20
143610.3400011645
 30
0.0
 40
10.5
 41
0.0
 71
     9
 72
     5
  1

1001
ACAD
1000
MTEXTBEGIN
1070
    73
1070
     1
1070
    44
1040
1.0
1070
    74
1070
     0
1000
MTEXTEND
  0
MTEXT
  5
560B
330
1A
100
AcDbEntity
  8
SUNPOU
100
AcDbMText
 10
147398.8605200839
 20
141809.2909212864
 30
0.0
 40
3.5
 41
0.0
 71
     9
 72
     5
  1

1001
ACAD
1000
MTEXTBEGIN
1070
    73
1070
     1
1070
    44
1040
1.0
1070
    74
1070
     0
1000
MTEXTEND
  0
MTEXT
  5
560C
330
1A
100
AcDbEntity
  8
SUNPOU
100
AcDbMText
 10
95895.72097917013
 20
89443.5051561396
 30
0.0
 40
10.5
 41
0.0
 71
     9
 72
     5
  1

1001
ACAD
1000
MTEXTBEGIN
1070
    73
1070
     1
1070
    44
1040
1.0
1070
    74
1070
     0
1000
MTEXTEND
  0
MTEXT
  5
560D
330
1A
100
AcDbEntity
  8
SUNPOU
100
AcDbMText
 10
81947.72087879414
 20
70271.1060170274
 30
0.0
 40
3.5
 41
0.0
 71
     7
 72
     5
  1

1001
ACAD
1000
MTEXTBEGIN
1070
    73
1070
     1
1070
    44
1040
1.0
1070
    74
1070
     0
1000
MTEXTEND
  0
MTEXT
  5
560E
330
1A
100
AcDbEntity
  8
SUNPOU
100
AcDbMText
 10
62932.89027578729
 20
58033.25474784561
 30
0.0
 40
10.5
 41
0.0
 71
     7
 72
     5
  1

1001
ACAD
1000
MTEXTBEGIN
1070
    73
1070
     1
1070
    44
1040
1.0
1070
    74
1070
     0
1000
MTEXTEND
  0
MTEXT
  5
560F
330
1A
100
AcDbEntity
  8
SUNPOU
100
AcDbMText
 10
50475.66201083918
 20
42188.32316974719
 30
0.0
 40
35.0
 41
0.0
 71
     9
 72
     5
  1

1001
ACAD
1000
MTEXTBEGIN
1070
    73
1070
     1
1070
    44
1040
1.0
1070
    74
1070
     0
1000
MTEXTEND
  0
MTEXT
  5
5610
330
1A
100
AcDbEntity
  8
SUNPOU
100
AcDbMText
 10
49384.14706841413
 20
42797.0985797959
 30
0.0
 40
350.0000004171781
 41
0.0
 71
     7
 72
     5
  1

1001
ACAD
1000
MTEXTBEGIN
1070
    73
1070
     1
1070
    44
1040
1.0
1070
    74
1070
     0
1000
MTEXTEND
  0
MTEXT
  5
5611
330
1A
100
AcDbEntity
  8
0
100
AcDbMText
 10
55428.09782635704
 20
40777.02094193211
 30
0.0
 40
8.0
 41
0.0
 71
     7
 72
     5
  1

1001
ACAD
1000
MTEXTBEGIN
1070
    73
1070
     1
1070
    44
1040
1.0
1070
    74
1070
     0
1000
MTEXTEND
  0
MTEXT
  5
5612
330
1A
100
AcDbEntity
  8
0
100
AcDbMText
 10
57713.45551625194
 20
41747.81123668317
 30
0.0
 40
8.0
 41
0.0
 71
     7
 72
     5
  1

1001
ACAD
1000
MTEXTBEGIN
1070
    73
1070
     1
1070
    44
1040
1.0
1070
    74
1070
     0
1000
MTEXTEND
  0
MTEXT
  5
5613
330
1A
100
AcDbEntity
  8
SUNPOU
100
AcDbMText
 10
60379.35253693408
 20
51259.9226290583
 30
0.0
 40
10.5
 41
0.0
 71
     1
 72
     5
  1

1001
ACAD
1000
MTEXTBEGIN
1070
    73
1070
     1
1070
    44
1040
1.0
1070
    74
1070
     0
1000
MTEXTEND
  0
MTEXT
  5
5614
330
1A
100
AcDbEntity
  8
SUNPOU
100
AcDbMText
 10
52448.42934099814
 20
50313.12949514535
 30
0.0
 40
10.5
 41
0.0
 71
     7
 72
     5
  1

1001
ACAD
1000
MTEXTBEGIN
1070
    73
1070
     1
1070
    44
1040
1.0
1070
    74
1070
     0
1000
MTEXTEND
  0
MTEXT
  5
5615
330
1A
100
AcDbEntity
  8
SUNPOU
100
AcDbMText
 10
55397.41300551091
 20
55213.80556698819
 30
0.0
 40
10.5
 41
0.0
 71
     7
 72
     5
  1

1001
ACAD
1000
MTEXTBEGIN
1070
    73
1070
     1
1070
    44
1040
1.0
1070
    74
1070
     0
1000
MTEXTEND
  0
MTEXT
  5
5616
330
1A
100
AcDbEntity
  8
SUNPOU
100
AcDbMText
 10
59906.49113346147
 20
57650.10631460826
 30
0.0
 40
10.5
 41
0.0
 71
     7
 72
     5
  1

1001
ACAD
1000
MTEXTBEGIN
1070
    73
1070
     1
1070
    44
1040
1.0
1070
    74
1070
     0
1000
MTEXTEND
  0
MTEXT
  5
5617
330
1A
100
AcDbEntity
  8
SUNPOU
100
AcDbMText
 10
43507.32902022979
 20
36647.70246499718
 30
0.0
 40
10.5
 41
0.0
 71
     7
 72
     5
  1

1001
ACAD
1000
MTEXTBEGIN
1070
    73
1070
     1
1070
    44
1040
1.0
1070
    74
1070
     0
1000
MTEXTEND
  0
MTEXT
  5
5618
330
1A
100
AcDbEntity
  8
SUNPOU
100
AcDbMText
 10
94698.84745413006
 20
82320.68302864542
 30
0.0
 40
10.5
 41
0.0
 71
     9
 72
     5
  1

1001
ACAD
1000
MTEXTBEGIN
1070
    73
1070
     1
1070
    44
1040
1.0
1070
    74
1070
     0
1000
MTEXTEND
  0
MTEXT
  5
5619
330
1A
100
AcDbEntity
  8
SUNPOU
100
AcDbMText
 10
103421.015020048
 20
89736.5175601829
 30
0.0
 40
10.5
 41
0.0
 71
     9
 72
     5
  1

1001
ACAD
1000
MTEXTBEGIN
1070
    73
1070
     1
1070
    44
1040
1.0
1070
    74
1070
     0
1000
MTEXTEND
  0
MTEXT
  5
561A
330
1A
100
AcDbEntity
  8
SUNPOU
100
AcDbMText
 10
122374.773737378
 20
107203.0936126749
 30
0.0
 40
10.5
 41
0.0
 71
     9
 72
     5
  1

1001
ACAD
1000
MTEXTBEGIN
1070
    73
1070
     1
1070
    44
1040
1.0
1070
    74
1070
     0
1000
MTEXTEND
  0
MTEXT
  5
561B
330
1A
100
AcDbEntity
  8
SUNPOU
100
AcDbMText
 10
124318.1809840874
 20
105402.0445327969
 30
0.0
 40
3.5
 41
0.0
 71
     9
 72
     5
  1

1001
ACAD
1000
MTEXTBEGIN
1070
    73
1070
     1
1070
    44
1040
1.0
1070
    74
1070
     0
1000
MTEXTEND
  0
MTEXT
  5
561C
330
1A
100
AcDbEntity
  8
SUNPOU
100
AcDbMText
 10
155444.3608167071
 20
147896.9902004542
 30
0.0
 40
10.5
 41
0.0
 71
     9
 72
     5
  1

1001
ACAD
1000
MTEXTBEGIN
1070
    73
1070
     1
1070
    44
1040
1.0
1070
    74
1070
     0
1000
MTEXTEND
  0
MTEXT
  5
561D
330
1A
100
AcDbEntity
  8
SUNPOU
100
AcDbMText
 10
157387.7680634165
 20
146095.9411205762
 30
0.0
 40
3.5
 41
0.0
 71
     9
 72
     5
  1

1001
ACAD
1000
MTEXTBEGIN
1070
    73
1070
     1
1070
    44
1040
1.0
1070
    74
1070
     0
1000
MTEXTEND
  0
MTEXT
  5
561E
330
1A
100
AcDbEntity
  8
SUNPOU
100
AcDbMText
 10
105884.6285225027
 20
93730.15535542933
 30
0.0
 40
10.5
 41
0.0
 71
     9
 72
     5
  1

1001
ACAD
1000
MTEXTBEGIN
1070
    73
1070
     1
1070
    44
1040
1.0
1070
    74
1070
     0
1000
MTEXTEND
  0
MTEXT
  5
561F
330
1A
100
AcDbEntity
  8
SUNPOU
100
AcDbMText
 10
91936.6284221267
 20
74557.75621631714
 30
0.0
 40
3.5
 41
0.0
 71
     7
 72
     5
  1

1001
ACAD
1000
MTEXTBEGIN
1070
    73
1070
     1
1070
    44
1040
1.0
1070
    74
1070
     0
1000
MTEXTEND
  0
MTEXT
  5
5620
330
1A
100
AcDbEntity
  8
SUNPOU
100
AcDbMText
 10
72921.79781911986
 20
62319.90494713533
 30
0.0
 40
10.5
 41
0.0
 71
     7
 72
     5
  1

1001
ACAD
1000
MTEXTBEGIN
1070
    73
1070
     1
1070
    44
1040
1.0
1070
    74
1070
     0
1000
MTEXTEND
  0
MTEXT
  5
5621
330
1A
100
AcDbEntity
  8
SUNPOU
100
AcDbMText
 10
60464.56955417175
 20
46474.97336903692
 30
0.0
 40
35.0
 41
0.0
 71
     9
 72
     5
  1

1001
ACAD
1000
MTEXTBEGIN
1070
    73
1070
     1
1070
    44
1040
1.0
1070
    74
1070
     0
1000
MTEXTEND
  0
MTEXT
  5
5622
330
1A
100
AcDbEntity
  8
SUNPOU
100
AcDbMText
 10
59373.05461174672
 20
47083.74877908562
 30
0.0
 40
350.0000004171781
 41
0.0
 71
     7
 72
     5
  1

1001
ACAD
1000
MTEXTBEGIN
1070
    73
1070
     1
1070
    44
1040
1.0
1070
    74
1070
     0
1000
MTEXTEND
  0
MTEXT
  5
5623
330
1A
100
AcDbEntity
  8
0
100
AcDbMText
 10
65417.00536968962
 20
45063.67114122186
 30
0.0
 40
8.0
 41
0.0
 71
     7
 72
     5
  1

1001
ACAD
1000
MTEXTBEGIN
1070
    73
1070
     1
1070
    44
1040
1.0
1070
    74
1070
     0
1000
MTEXTEND
  0
MTEXT
  5
5624
330
1A
100
AcDbEntity
  8
0
100
AcDbMText
 10
67702.36305958452
 20
46034.46143597292
 30
0.0
 40
8.0
 41
0.0
 71
     7
 72
     5
  1

1001
ACAD
1000
MTEXTBEGIN
1070
    73
1070
     1
1070
    44
1040
1.0
1070
    74
1070
     0
1000
MTEXTEND
  0
MTEXT
  5
5625
330
1A
100
AcDbEntity
  8
SUNPOU
100
AcDbMText
 10
70368.26008026666
 20
55546.57282834803
 30
0.0
 40
10.5
 41
0.0
 71
     1
 72
     5
  1

1001
ACAD
1000
MTEXTBEGIN
1070
    73
1070
     1
1070
    44
1040
1.0
1070
    74
1070
     0
1000
MTEXTEND
  0
MTEXT
  5
5626
330
1A
100
AcDbEntity
  8
SUNPOU
100
AcDbMText
 10
62437.33688433072
 20
54599.77969443508
 30
0.0
 40
10.5
 41
0.0
 71
     7
 72
     5
  1

1001
ACAD
1000
MTEXTBEGIN
1070
    73
1070
     1
1070
    44
1040
1.0
1070
    74
1070
     0
1000
MTEXTEND
  0
MTEXT
  5
5627
330
1A
100
AcDbEntity
  8
SUNPOU
100
AcDbMText
 10
65386.32054884349
 20
59500.45576627792
 30
0.0
 40
10.5
 41
0.0
 71
     7
 72
     5
  1

1001
ACAD
1000
MTEXTBEGIN
1070
    73
1070
     1
1070
    44
1040
1.0
1070
    74
1070
     0
1000
MTEXTEND
  0
MTEXT
  5
5628
330
1A
100
AcDbEntity
  8
SUNPOU
100
AcDbMText
 10
69895.39867679405
 20
61936.756513898
 30
0.0
 40
10.5
 41
0.0
 71
     7
 72
     5
  1

1001
ACAD
1000
MTEXTBEGIN
1070
    73
1070
     1
1070
    44
1040
1.0
1070
    74
1070
     0
1000
MTEXTEND
  0
MTEXT
  5
5629
330
1A
100
AcDbEntity
  8
SUNPOU
100
AcDbMText
 10
53496.23656356237
 20
40934.35266428691
 30
0.0
 40
10.5
 41
0.0
 71
     7
 72
     5
  1

1001
ACAD
1000
MTEXTBEGIN
1070
    73
1070
     1
1070
    44
1040
1.0
1070
    74
1070
     0
1000
MTEXTEND
  0
MTEXT
  5
562A
330
1A
100
AcDbEntity
  8
SUNPOU
100
AcDbMText
 10
55306.99947493731
 20
47261.76665176547
 30
0.0
 40
10.5
 41
0.0
 71
     9
 72
     5
  1

1001
ACAD
1000
MTEXTBEGIN
1070
    73
1070
     1
1070
    44
1040
1.0
1070
    74
1070
     0
1000
MTEXTEND
  0
MTEXT
  5
562B
330
1A
100
AcDbEntity
  8
SUNPOU
100
AcDbMText
 10
64029.16704085528
 20
54677.60118330295
 30
0.0
 40
10.5
 41
0.0
 71
     9
 72
     5
  1

1001
ACAD
1000
MTEXTBEGIN
1070
    73
1070
     1
1070
    44
1040
1.0
1070
    74
1070
     0
1000
MTEXTEND
  0
MTEXT
  5
562C
330
1A
100
AcDbEntity
  8
SUNPOU
100
AcDbMText
 10
82982.92575818527
 20
72144.17723579499
 30
0.0
 40
10.5
 41
0.0
 71
     9
 72
     5
  1

1001
ACAD
1000
MTEXTBEGIN
1070
    73
1070
     1
1070
    44
1040
1.0
1070
    74
1070
     0
1000
MTEXTEND
  0
MTEXT
  5
562D
330
1A
100
AcDbEntity
  8
SUNPOU
100
AcDbMText
 10
84926.33300489467
 20
70343.12815591698
 30
0.0
 40
3.5
 41
0.0
 71
     9
 72
     5
  1

1001
ACAD
1000
MTEXTBEGIN
1070
    73
1070
     1
1070
    44
1040
1.0
1070
    74
1070
     0
1000
MTEXTEND
  0
MTEXT
  5
562E
330
1A
100
AcDbEntity
  8
SUNPOU
100
AcDbMText
 10
116052.5128375143
 20
112838.0738235743
 30
0.0
 40
10.5
 41
0.0
 71
     9
 72
     5
  1

1001
ACAD
1000
MTEXTBEGIN
1070
    73
1070
     1
1070
    44
1040
1.0
1070
    74
1070
     0
1000
MTEXTEND
  0
MTEXT
  5
562F
330
1A
100
AcDbEntity
  8
SUNPOU
100
AcDbMText
 10
117995.9200842238
 20
111037.0247436963
 30
0.0
 40
3.5
 41
0.0
 71
     9
 72
     5
  1

1001
ACAD
1000
MTEXTBEGIN
1070
    73
1070
     1
1070
    44
1040
1.0
1070
    74
1070
     0
1000
MTEXTEND
  0
MTEXT
  5
5630
330
1A
100
AcDbEntity
  8
SUNPOU
100
AcDbMText
 10
66492.78054330994
 20
58671.23897854939
 30
0.0
 40
10.5
 41
0.0
 71
     9
 72
     5
  1

1001
ACAD
1000
MTEXTBEGIN
1070
    73
1070
     1
1070
    44
1040
1.0
1070
    74
1070
     0
1000
MTEXTEND
  0
MTEXT
  5
5631
330
1A
100
AcDbEntity
  8
SUNPOU
100
AcDbMText
 10
52544.78044293396
 20
39498.83983943717
 30
0.0
 40
3.5
 41
0.0
 71
     7
 72
     5
  1

1001
ACAD
1000
MTEXTBEGIN
1070
    73
1070
     1
1070
    44
1040
1.0
1070
    74
1070
     0
1000
MTEXTEND
  0
MTEXT
  5
5632
330
1A
100
AcDbEntity
  8
SUNPOU
100
AcDbMText
 10
66237.13112570454
 20
48857.90306045851
 30
0.0
 40
10.5
 41
0.0
 71
     9
 72
     5
  1

1001
ACAD
1000
MTEXTBEGIN
1070
    73
1070
     1
1070
    44
1040
1.0
1070
    74
1070
     0
1000
MTEXTEND
  0
MTEXT
  5
5633
330
1A
100
AcDbEntity
  8
SUNPOU
100
AcDbMText
 10
74959.29869162252
 20
56273.737591996
 30
0.0
 40
10.5
 41
0.0
 71
     9
 72
     5
  1

1001
ACAD
1000
MTEXTBEGIN
1070
    73
1070
     1
1070
    44
1040
1.0
1070
    74
1070
     0
1000
MTEXTEND
  0
MTEXT
  5
5634
330
1A
100
AcDbEntity
  8
SUNPOU
100
AcDbMText
 10
93913.0574089525
 20
73740.31364448805
 30
0.0
 40
10.5
 41
0.0
 71
     9
 72
     5
  1

1001
ACAD
1000
MTEXTBEGIN
1070
    73
1070
     1
1070
    44
1040
1.0
1070
    74
1070
     0
1000
MTEXTEND
  0
MTEXT
  5
5635
330
1A
100
AcDbEntity
  8
SUNPOU
100
AcDbMText
 10
95856.46465566192
 20
71939.26456461004
 30
0.0
 40
3.5
 41
0.0
 71
     9
 72
     5
  1

1001
ACAD
1000
MTEXTBEGIN
1070
    73
1070
     1
1070
    44
1040
1.0
1070
    74
1070
     0
1000
MTEXTEND
  0
MTEXT
  5
5636
330
1A
100
AcDbEntity
  8
SUNPOU
100
AcDbMText
 10
126982.6444882816
 20
114434.2102322673
 30
0.0
 40
10.5
 41
0.0
 71
     9
 72
     5
  1

1001
ACAD
1000
MTEXTBEGIN
1070
    73
1070
     1
1070
    44
1040
1.0
1070
    74
1070
     0
1000
MTEXTEND
  0
MTEXT
  5
5637
330
1A
100
AcDbEntity
  8
SUNPOU
100
AcDbMText
 10
128926.051734991
 20
112633.1611523893
 30
0.0
 40
3.5
 41
0.0
 71
     9
 72
     5
  1

1001
ACAD
1000
MTEXTBEGIN
1070
    73
1070
     1
1070
    44
1040
1.0
1070
    74
1070
     0
1000
MTEXTEND
  0
MTEXT
  5
5638
330
1A
100
AcDbEntity
  8
SUNPOU
100
AcDbMText
 10
77422.91219407717
 20
60267.37538724244
 30
0.0
 40
10.5
 41
0.0
 71
     9
 72
     5
  1

1001
ACAD
1000
MTEXTBEGIN
1070
    73
1070
     1
1070
    44
1040
1.0
1070
    74
1070
     0
1000
MTEXTEND
  0
MTEXT
  5
5639
330
1A
100
AcDbEntity
  8
SUNPOU
100
AcDbMText
 10
63474.91209370119
 20
41094.97624813023
 30
0.0
 40
3.5
 41
0.0
 71
     7
 72
     5
  1

1001
ACAD
1000
MTEXTBEGIN
1070
    73
1070
     1
1070
    44
1040
1.0
1070
    74
1070
     0
1000
MTEXTEND
  0
MTEXT
  5
563A
330
1A
100
AcDbEntity
  8
SUNPOU
100
AcDbMText
 10
48117.65086229006
 20
40806.11043916631
 30
0.0
 40
10.5
 41
0.0
 71
     9
 72
     5
  1

1001
ACAD
1000
MTEXTBEGIN
1070
    73
1070
     1
1070
    44
1040
1.0
1070
    74
1070
     0
1000
MTEXTEND
  0
MTEXT
  5
563B
330
1A
100
AcDbEntity
  8
SUNPOU
100
AcDbMText
 10
67071.40957962004
 20
58272.68649165837
 30
0.0
 40
10.5
 41
0.0
 71
     9
 72
     5
  1

1001
ACAD
1000
MTEXTBEGIN
1070
    73
1070
     1
1070
    44
1040
1.0
1070
    74
1070
     0
1000
MTEXTEND
  0
MTEXT
  5
563C
330
1A
100
AcDbEntity
  8
SUNPOU
100
AcDbMText
 10
69014.81682632945
 20
56471.63741178035
 30
0.0
 40
3.5
 41
0.0
 71
     9
 72
     5
  1

1001
ACAD
1000
MTEXTBEGIN
1070
    73
1070
     1
1070
    44
1040
1.0
1070
    74
1070
     0
1000
MTEXTEND
  0
MTEXT
  5
563D
330
1A
100
AcDbEntity
  8
SUNPOU
100
AcDbMText
 10
100140.9966589491
 20
98966.58307943772
 30
0.0
 40
10.5
 41
0.0
 71
     9
 72
     5
  1

1001
ACAD
1000
MTEXTBEGIN
1070
    73
1070
     1
1070
    44
1040
1.0
1070
    74
1070
     0
1000
MTEXTEND
  0
MTEXT
  5
563E
330
1A
100
AcDbEntity
  8
SUNPOU
100
AcDbMText
 10
102084.4039056586
 20
97165.53399955969
 30
0.0
 40
3.5
 41
0.0
 71
     9
 72
     5
  1

1001
ACAD
1000
MTEXTBEGIN
1070
    73
1070
     1
1070
    44
1040
1.0
1070
    74
1070
     0
1000
MTEXTEND
  0
MTEXT
  5
563F
330
1A
100
AcDbEntity
  8
SUNPOU
100
AcDbMText
 10
50581.26436474472
 20
44799.74823441275
 30
0.0
 40
10.5
 41
0.0
 71
     9
 72
     5
  1

1001
ACAD
1000
MTEXTBEGIN
1070
    73
1070
     1
1070
    44
1040
1.0
1070
    74
1070
     0
1000
MTEXTEND
  0
MTEXT
  5
5640
330
1A
100
AcDbEntity
  8
SUNPOU
100
AcDbMText
 10
36633.26426436873
 20
25627.34909530054
 30
0.0
 40
3.5
 41
0.0
 71
     7
 72
     5
  1

1001
ACAD
1000
MTEXTBEGIN
1070
    73
1070
     1
1070
    44
1040
1.0
1070
    74
1070
     0
1000
MTEXTEND
  0
MTEXT
  5
5641
330
1A
100
AcDbEntity
  8
SUNPOU
100
AcDbMText
 10
61069.42493315968
 20
52574.61207825771
 30
0.0
 40
10.5
 41
0.0
 71
     9
 72
     5
  1

1001
ACAD
1000
MTEXTBEGIN
1070
    73
1070
     1
1070
    44
1040
1.0
1070
    74
1070
     0
1000
MTEXTEND
  0
MTEXT
  5
5642
330
1A
100
AcDbEntity
  8
SUNPOU
100
AcDbMText
 10
80023.18365048967
 20
70041.18813074978
 30
0.0
 40
10.5
 41
0.0
 71
     9
 72
     5
  1

1001
ACAD
1000
MTEXTBEGIN
1070
    73
1070
     1
1070
    44
1040
1.0
1070
    74
1070
     0
1000
MTEXTEND
  0
MTEXT
  5
5643
330
1A
100
AcDbEntity
  8
SUNPOU
100
AcDbMText
 10
81966.59089719908
 20
68240.13905087176
 30
0.0
 40
3.5
 41
0.0
 71
     9
 72
     5
  1

1001
ACAD
1000
MTEXTBEGIN
1070
    73
1070
     1
1070
    44
1040
1.0
1070
    74
1070
     0
1000
MTEXTEND
  0
MTEXT
  5
5644
330
1A
100
AcDbEntity
  8
SUNPOU
100
AcDbMText
 10
113092.7707298187
 20
110735.0847185291
 30
0.0
 40
10.5
 41
0.0
 71
     9
 72
     5
  1

1001
ACAD
1000
MTEXTBEGIN
1070
    73
1070
     1
1070
    44
1040
1.0
1070
    74
1070
     0
1000
MTEXTEND
  0
MTEXT
  5
5645
330
1A
100
AcDbEntity
  8
SUNPOU
100
AcDbMText
 10
115036.1779765282
 20
108934.0356386511
 30
0.0
 40
3.5
 41
0.0
 71
     9
 72
     5
  1

1001
ACAD
1000
MTEXTBEGIN
1070
    73
1070
     1
1070
    44
1040
1.0
1070
    74
1070
     0
1000
MTEXTEND
  0
MTEXT
  5
5646
330
1A
100
AcDbEntity
  8
SUNPOU
100
AcDbMText
 10
63533.03843561433
 20
56568.24987350415
 30
0.0
 40
10.5
 41
0.0
 71
     9
 72
     5
  1

1001
ACAD
1000
MTEXTBEGIN
1070
    73
1070
     1
1070
    44
1040
1.0
1070
    74
1070
     0
1000
MTEXTEND
  0
MTEXT
  5
5647
330
1A
100
AcDbEntity
  8
SUNPOU
100
AcDbMText
 10
49585.03833523835
 20
37395.85073439196
 30
0.0
 40
3.5
 41
0.0
 71
     7
 72
     5
  1

1001
ACAD
1000
MTEXTBEGIN
1070
    73
1070
     1
1070
    44
1040
1.0
1070
    74
1070
     0
1000
MTEXTEND
  0
MTEXT
  5
5648
330
1A
100
AcDbEntity
  8
SUNPOU
100
AcDbMText
 10
77137.31641337052
 20
70907.11375048141
 30
0.0
 40
10.5
 41
0.0
 71
     9
 72
     5
  1

1001
ACAD
1000
MTEXTBEGIN
1070
    73
1070
     1
1070
    44
1040
1.0
1070
    74
1070
     0
1000
MTEXTEND
  0
MTEXT
  5
5649
330
1A
100
AcDbEntity
  8
SUNPOU
100
AcDbMText
 10
79080.72366007995
 20
69106.06467060339
 30
0.0
 40
3.5
 41
0.0
 71
     9
 72
     5
  1

1001
ACAD
1000
MTEXTBEGIN
1070
    73
1070
     1
1070
    44
1040
1.0
1070
    74
1070
     0
1000
MTEXTEND
  0
MTEXT
  5
564A
330
1A
100
AcDbEntity
  8
SUNPOU
100
AcDbMText
 10
110206.9034926996
 20
111601.0103382607
 30
0.0
 40
10.5
 41
0.0
 71
     9
 72
     5
  1

1001
ACAD
1000
MTEXTBEGIN
1070
    73
1070
     1
1070
    44
1040
1.0
1070
    74
1070
     0
1000
MTEXTEND
  0
MTEXT
  5
564B
330
1A
100
AcDbEntity
  8
SUNPOU
100
AcDbMText
 10
112150.310739409
 20
109799.9612583827
 30
0.0
 40
3.5
 41
0.0
 71
     9
 72
     5
  1

1001
ACAD
1000
MTEXTBEGIN
1070
    73
1070
     1
1070
    44
1040
1.0
1070
    74
1070
     0
1000
MTEXTEND
  0
MTEXT
  5
564C
330
1A
100
AcDbEntity
  8
SUNPOU
100
AcDbMText
 10
108819.1333204968
 20
110677.9087286761
 30
0.0
 40
10.5
 41
0.0
 71
     9
 72
     5
  1

1001
ACAD
1000
MTEXTBEGIN
1070
    73
1070
     1
1070
    44
1040
1.0
1070
    74
1070
     0
1000
MTEXTEND
  0
MTEXT
  5
564D
330
1A
100
AcDbEntity
  8
SUNPOU
100
AcDbMText
 10
110762.5405672062
 20
108876.8596487981
 30
0.0
 40
3.5
 41
0.0
 71
     9
 72
     5
  1

1001
ACAD
1000
MTEXTBEGIN
1070
    73
1070
     1
1070
    44
1040
1.0
1070
    74
1070
     0
1000
MTEXTEND
  0
MTEXT
  5
564E
330
1A
100
AcDbEntity
  8
SUNPOU
100
AcDbMText
 10
76303.05507956816
 20
68695.31179059812
 30
0.0
 40
10.5
 41
0.0
 71
     9
 72
     5
  1

1001
ACAD
1000
MTEXTBEGIN
1070
    73
1070
     1
1070
    44
1040
1.0
1070
    74
1070
     0
1000
MTEXTEND
  0
MTEXT
  5
564F
330
1A
100
AcDbEntity
  8
SUNPOU
100
AcDbMText
 10
79026.36128373271
 20
69099.99348217918
 30
0.0
 40
3.5
 41
0.0
 71
     9
 72
     5
  1

1001
ACAD
1000
MTEXTBEGIN
1070
    73
1070
     1
1070
    44
1040
1.0
1070
    74
1070
     0
1000
MTEXTEND
  0
MTEXT
  5
5650
330
1A
100
AcDbEntity
  8
SUNPOU
100
AcDbMText
 10
78234.00675862522
 20
65938.68764412436
 30
0.0
 40
10.5
 41
0.0
 71
     9
 72
     5
  1

1001
ACAD
1000
MTEXTBEGIN
1070
    73
1070
     1
1070
    44
1040
1.0
1070
    74
1070
     0
1000
MTEXTEND
  0
MTEXT
  5
5651
330
1A
100
AcDbEntity
  8
SUNPOU
100
AcDbMText
 10
80177.41400533465
 20
64137.63856424636
 30
0.0
 40
3.5
 41
0.0
 71
     9
 72
     5
  1

1001
ACAD
1000
MTEXTBEGIN
1070
    73
1070
     1
1070
    44
1040
1.0
1070
    74
1070
     0
1000
MTEXTEND
  0
MTEXT
  5
5652
330
1A
100
AcDbEntity
  8
SUNPOU
100
AcDbMText
 10
80122.50949592123
 20
64024.86668196205
 30
0.0
 40
3.5
 41
0.0
 71
     9
 72
     5
  1

1001
ACAD
1000
MTEXTBEGIN
1070
    73
1070
     1
1070
    44
1040
1.0
1070
    74
1070
     0
1000
MTEXTEND
  0
MTEXT
  5
5653
330
1A
100
AcDbEntity
  8
SUNPOU
100
AcDbMText
 10
79486.58135950133
 20
63213.54544089553
 30
0.0
 40
3.5
 41
0.0
 71
     9
 72
     5
  1

1001
ACAD
1000
MTEXTBEGIN
1070
    73
1070
     1
1070
    44
1040
1.0
1070
    74
1070
     0
1000
MTEXTEND
  0
MTEXT
  5
5654
330
1A
100
AcDbEntity
  8
SUNPOU
100
AcDbMText
 10
79485.3409400806
 20
63213.29746395804
 30
0.0
 40
10.5
 41
0.0
 71
     9
 72
     5
  1

1001
ACAD
1000
MTEXTBEGIN
1070
    73
1070
     1
1070
    44
1040
1.0
1070
    74
1070
     0
1000
MTEXTEND
  0
MTEXT
  5
5655
330
1A
100
AcDbEntity
  8
SUNPOU
100
AcDbMText
 10
85473.63363627567
 20
80747.76348077064
 30
0.0
 40
10.5
 41
0.0
 71
     9
 72
     5
  1

1001
ACAD
1000
MTEXTBEGIN
1070
    73
1070
     1
1070
    44
1040
1.0
1070
    74
1070
     0
1000
MTEXTEND
  0
MTEXT
  5
5656
330
1A
100
AcDbEntity
  8
SUNPOU
100
AcDbMText
 10
94195.80120219368
 20
88163.59801230809
 30
0.0
 40
10.5
 41
0.0
 71
     9
 72
     5
  1

1001
ACAD
1000
MTEXTBEGIN
1070
    73
1070
     1
1070
    44
1040
1.0
1070
    74
1070
     0
1000
MTEXTEND
  0
MTEXT
  5
5657
330
1A
100
AcDbEntity
  8
SUNPOU
100
AcDbMText
 10
113149.5599195236
 20
105630.1740648001
 30
0.0
 40
10.5
 41
0.0
 71
     9
 72
     5
  1

1001
ACAD
1000
MTEXTBEGIN
1070
    73
1070
     1
1070
    44
1040
1.0
1070
    74
1070
     0
1000
MTEXTEND
  0
MTEXT
  5
5658
330
1A
100
AcDbEntity
  8
SUNPOU
100
AcDbMText
 10
115092.967166233
 20
103829.1249849221
 30
0.0
 40
3.5
 41
0.0
 71
     9
 72
     5
  1

1001
ACAD
1000
MTEXTBEGIN
1070
    73
1070
     1
1070
    44
1040
1.0
1070
    74
1070
     0
1000
MTEXTEND
  0
MTEXT
  5
5659
330
1A
100
AcDbEntity
  8
SUNPOU
100
AcDbMText
 10
146219.1469988527
 20
146324.0706525794
 30
0.0
 40
10.5
 41
0.0
 71
     9
 72
     5
  1

1001
ACAD
1000
MTEXTBEGIN
1070
    73
1070
     1
1070
    44
1040
1.0
1070
    74
1070
     0
1000
MTEXTEND
  0
MTEXT
  5
565A
330
1A
100
AcDbEntity
  8
SUNPOU
100
AcDbMText
 10
148162.5542455621
 20
144523.0215727014
 30
0.0
 40
3.5
 41
0.0
 71
     9
 72
     5
  1

1001
ACAD
1000
MTEXTBEGIN
1070
    73
1070
     1
1070
    44
1040
1.0
1070
    74
1070
     0
1000
MTEXTEND
  0
MTEXT
  5
565B
330
1A
100
AcDbEntity
  8
SUNPOU
100
AcDbMText
 10
96659.41470464833
 20
92157.23580755453
 30
0.0
 40
10.5
 41
0.0
 71
     9
 72
     5
  1

1001
ACAD
1000
MTEXTBEGIN
1070
    73
1070
     1
1070
    44
1040
1.0
1070
    74
1070
     0
1000
MTEXTEND
  0
MTEXT
  5
565C
330
1A
100
AcDbEntity
  8
SUNPOU
100
AcDbMText
 10
82711.41460427234
 20
72984.83666844234
 30
0.0
 40
3.5
 41
0.0
 71
     7
 72
     5
  1

1001
ACAD
1000
MTEXTBEGIN
1070
    73
1070
     1
1070
    44
1040
1.0
1070
    74
1070
     0
1000
MTEXTEND
  0
MTEXT
  5
565D
330
1A
100
AcDbEntity
  8
SUNPOU
100
AcDbMText
 10
63696.58400126548
 20
60746.98539926055
 30
0.0
 40
10.5
 41
0.0
 71
     7
 72
     5
  1

1001
ACAD
1000
MTEXTBEGIN
1070
    73
1070
     1
1070
    44
1040
1.0
1070
    74
1070
     0
1000
MTEXTEND
  0
MTEXT
  5
565E
330
1A
100
AcDbEntity
  8
SUNPOU
100
AcDbMText
 10
51239.35573631738
 20
44902.05382116213
 30
0.0
 40
35.0
 41
0.0
 71
     9
 72
     5
  1

1001
ACAD
1000
MTEXTBEGIN
1070
    73
1070
     1
1070
    44
1040
1.0
1070
    74
1070
     0
1000
MTEXTEND
  0
MTEXT
  5
565F
330
1A
100
AcDbEntity
  8
SUNPOU
100
AcDbMText
 10
50147.84079389233
 20
45510.82923121084
 30
0.0
 40
350.0000004171781
 41
0.0
 71
     7
 72
     5
  1

1001
ACAD
1000
MTEXTBEGIN
1070
    73
1070
     1
1070
    44
1040
1.0
1070
    74
1070
     0
1000
MTEXTEND
  0
MTEXT
  5
5660
330
1A
100
AcDbEntity
  8
0
100
AcDbMText
 10
56191.79155183523
 20
43490.75159334705
 30
0.0
 40
8.0
 41
0.0
 71
     7
 72
     5
  1

1001
ACAD
1000
MTEXTBEGIN
1070
    73
1070
     1
1070
    44
1040
1.0
1070
    74
1070
     0
1000
MTEXTEND
  0
MTEXT
  5
5661
330
1A
100
AcDbEntity
  8
0
100
AcDbMText
 10
58477.14924173013
 20
44461.54188809812
 30
0.0
 40
8.0
 41
0.0
 71
     7
 72
     5
  1

1001
ACAD
1000
MTEXTBEGIN
1070
    73
1070
     1
1070
    44
1040
1.0
1070
    74
1070
     0
1000
MTEXTEND
  0
MTEXT
  5
5662
330
1A
100
AcDbEntity
  8
SUNPOU
100
AcDbMText
 10
61143.04626241227
 20
53973.65328047324
 30
0.0
 40
10.5
 41
0.0
 71
     1
 72
     5
  1

1001
ACAD
1000
MTEXTBEGIN
1070
    73
1070
     1
1070
    44
1040
1.0
1070
    74
1070
     0
1000
MTEXTEND
  0
MTEXT
  5
5663
330
1A
100
AcDbEntity
  8
SUNPOU
100
AcDbMText
 10
53212.12306647634
 20
53026.86014656028
 30
0.0
 40
10.5
 41
0.0
 71
     7
 72
     5
  1

1001
ACAD
1000
MTEXTBEGIN
1070
    73
1070
     1
1070
    44
1040
1.0
1070
    74
1070
     0
1000
MTEXTEND
  0
MTEXT
  5
5664
330
1A
100
AcDbEntity
  8
SUNPOU
100
AcDbMText
 10
56161.1067309891
 20
57927.53621840312
 30
0.0
 40
10.5
 41
0.0
 71
     7
 72
     5
  1

1001
ACAD
1000
MTEXTBEGIN
1070
    73
1070
     1
1070
    44
1040
1.0
1070
    74
1070
     0
1000
MTEXTEND
  0
MTEXT
  5
5665
330
1A
100
AcDbEntity
  8
SUNPOU
100
AcDbMText
 10
60670.18485893966
 20
60363.8369660232
 30
0.0
 40
10.5
 41
0.0
 71
     7
 72
     5
  1

1001
ACAD
1000
MTEXTBEGIN
1070
    73
1070
     1
1070
    44
1040
1.0
1070
    74
1070
     0
1000
MTEXTEND
  0
MTEXT
  5
5666
330
1A
100
AcDbEntity
  8
SUNPOU
100
AcDbMText
 10
44271.02274570799
 20
39361.43311641212
 30
0.0
 40
10.5
 41
0.0
 71
     7
 72
     5
  1

1001
ACAD
1000
MTEXTBEGIN
1070
    73
1070
     1
1070
    44
1040
1.0
1070
    74
1070
     0
1000
MTEXTEND
  0
MTEXT
  5
5667
330
1A
100
AcDbEntity
  8
SUNPOU
100
AcDbMText
 10
95462.54117960824
 20
85034.41368006038
 30
0.0
 40
10.5
 41
0.0
 71
     9
 72
     5
  1

1001
ACAD
1000
MTEXTBEGIN
1070
    73
1070
     1
1070
    44
1040
1.0
1070
    74
1070
     0
1000
MTEXTEND
  0
MTEXT
  5
5668
330
1A
100
AcDbEntity
  8
SUNPOU
100
AcDbMText
 10
104184.7087455262
 20
92450.24821159784
 30
0.0
 40
10.5
 41
0.0
 71
     9
 72
     5
  1

1001
ACAD
1000
MTEXTBEGIN
1070
    73
1070
     1
1070
    44
1040
1.0
1070
    74
1070
     0
1000
MTEXTEND
  0
MTEXT
  5
5669
330
1A
100
AcDbEntity
  8
SUNPOU
100
AcDbMText
 10
123138.4674628562
 20
109916.8242640898
 30
0.0
 40
10.5
 41
0.0
 71
     9
 72
     5
  1

1001
ACAD
1000
MTEXTBEGIN
1070
    73
1070
     1
1070
    44
1040
1.0
1070
    74
1070
     0
1000
MTEXTEND
  0
MTEXT
  5
566A
330
1A
100
AcDbEntity
  8
SUNPOU
100
AcDbMText
 10
125081.8747095656
 20
108115.7751842118
 30
0.0
 40
3.5
 41
0.0
 71
     9
 72
     5
  1

1001
ACAD
1000
MTEXTBEGIN
1070
    73
1070
     1
1070
    44
1040
1.0
1070
    74
1070
     0
1000
MTEXTEND
  0
MTEXT
  5
566B
330
1A
100
AcDbEntity
  8
SUNPOU
100
AcDbMText
 10
156208.0545421853
 20
150610.7208518691
 30
0.0
 40
10.5
 41
0.0
 71
     9
 72
     5
  1

1001
ACAD
1000
MTEXTBEGIN
1070
    73
1070
     1
1070
    44
1040
1.0
1070
    74
1070
     0
1000
MTEXTEND
  0
MTEXT
  5
566C
330
1A
100
AcDbEntity
  8
SUNPOU
100
AcDbMText
 10
158151.4617888947
 20
148809.6717719911
 30
0.0
 40
3.5
 41
0.0
 71
     9
 72
     5
  1

1001
ACAD
1000
MTEXTBEGIN
1070
    73
1070
     1
1070
    44
1040
1.0
1070
    74
1070
     0
1000
MTEXTEND
  0
MTEXT
  5
566D
330
1A
100
AcDbEntity
  8
SUNPOU
100
AcDbMText
 10
106648.3222479809
 20
96443.88600684427
 30
0.0
 40
10.5
 41
0.0
 71
     9
 72
     5
  1

1001
ACAD
1000
MTEXTBEGIN
1070
    73
1070
     1
1070
    44
1040
1.0
1070
    74
1070
     0
1000
MTEXTEND
  0
MTEXT
  5
566E
330
1A
100
AcDbEntity
  8
SUNPOU
100
AcDbMText
 10
92700.3221476049
 20
77271.48686773207
 30
0.0
 40
3.5
 41
0.0
 71
     7
 72
     5
  1

1001
ACAD
1000
MTEXTBEGIN
1070
    73
1070
     1
1070
    44
1040
1.0
1070
    74
1070
     0
1000
MTEXTEND
  0
MTEXT
  5
566F
330
1A
100
AcDbEntity
  8
SUNPOU
100
AcDbMText
 10
73685.49154459806
 20
65033.63559855027
 30
0.0
 40
10.5
 41
0.0
 71
     7
 72
     5
  1

1001
ACAD
1000
MTEXTBEGIN
1070
    73
1070
     1
1070
    44
1040
1.0
1070
    74
1070
     0
1000
MTEXTEND
  0
MTEXT
  5
5670
330
1A
100
AcDbEntity
  8
SUNPOU
100
AcDbMText
 10
61228.26327964995
 20
49188.70402045185
 30
0.0
 40
35.0
 41
0.0
 71
     9
 72
     5
  1

1001
ACAD
1000
MTEXTBEGIN
1070
    73
1070
     1
1070
    44
1040
1.0
1070
    74
1070
     0
1000
MTEXTEND
  0
MTEXT
  5
5671
330
1A
100
AcDbEntity
  8
SUNPOU
100
AcDbMText
 10
60136.74833722491
 20
49797.47943050056
 30
0.0
 40
350.0000004171781
 41
0.0
 71
     7
 72
     5
  1

1001
ACAD
1000
MTEXTBEGIN
1070
    73
1070
     1
1070
    44
1040
1.0
1070
    74
1070
     0
1000
MTEXTEND
  0
MTEXT
  5
5672
330
1A
100
AcDbEntity
  8
0
100
AcDbMText
 10
66180.69909516782
 20
47777.40179263678
 30
0.0
 40
8.0
 41
0.0
 71
     7
 72
     5
  1

1001
ACAD
1000
MTEXTBEGIN
1070
    73
1070
     1
1070
    44
1040
1.0
1070
    74
1070
     0
1000
MTEXTEND
  0
MTEXT
  5
5673
330
1A
100
AcDbEntity
  8
0
100
AcDbMText
 10
68466.05678506271
 20
48748.19208738784
 30
0.0
 40
8.0
 41
0.0
 71
     7
 72
     5
  1

1001
ACAD
1000
MTEXTBEGIN
1070
    73
1070
     1
1070
    44
1040
1.0
1070
    74
1070
     0
1000
MTEXTEND
  0
MTEXT
  5
5674
330
1A
100
AcDbEntity
  8
SUNPOU
100
AcDbMText
 10
71131.95380574485
 20
58260.30347976296
 30
0.0
 40
10.5
 41
0.0
 71
     1
 72
     5
  1

1001
ACAD
1000
MTEXTBEGIN
1070
    73
1070
     1
1070
    44
1040
1.0
1070
    74
1070
     0
1000
MTEXTEND
  0
MTEXT
  5
5675
330
1A
100
AcDbEntity
  8
SUNPOU
100
AcDbMText
 10
63201.03060980891
 20
57313.51034585002
 30
0.0
 40
10.5
 41
0.0
 71
     7
 72
     5
  1

1001
ACAD
1000
MTEXTBEGIN
1070
    73
1070
     1
1070
    44
1040
1.0
1070
    74
1070
     0
1000
MTEXTEND
  0
MTEXT
  5
5676
330
1A
100
AcDbEntity
  8
SUNPOU
100
AcDbMText
 10
66150.01427432169
 20
62214.18641769286
 30
0.0
 40
10.5
 41
0.0
 71
     7
 72
     5
  1

1001
ACAD
1000
MTEXTBEGIN
1070
    73
1070
     1
1070
    44
1040
1.0
1070
    74
1070
     0
1000
MTEXTEND
  0
MTEXT
  5
5677
330
1A
100
AcDbEntity
  8
SUNPOU
100
AcDbMText
 10
70659.09240227225
 20
64650.48716531294
 30
0.0
 40
10.5
 41
0.0
 71
     7
 72
     5
  1

1001
ACAD
1000
MTEXTBEGIN
1070
    73
1070
     1
1070
    44
1040
1.0
1070
    74
1070
     0
1000
MTEXTEND
  0
MTEXT
  5
5678
330
1A
100
AcDbEntity
  8
SUNPOU
100
AcDbMText
 10
54259.93028904056
 20
43648.08331570185
 30
0.0
 40
10.5
 41
0.0
 71
     7
 72
     5
  1

1001
ACAD
1000
MTEXTBEGIN
1070
    73
1070
     1
1070
    44
1040
1.0
1070
    74
1070
     0
1000
MTEXTEND
  0
MTEXT
  5
5679
330
1A
100
AcDbEntity
  8
SUNPOU
100
AcDbMText
 10
56070.69320041551
 20
49975.4973031804
 30
0.0
 40
10.5
 41
0.0
 71
     9
 72
     5
  1

1001
ACAD
1000
MTEXTBEGIN
1070
    73
1070
     1
1070
    44
1040
1.0
1070
    74
1070
     0
1000
MTEXTEND
  0
MTEXT
  5
567A
330
1A
100
AcDbEntity
  8
SUNPOU
100
AcDbMText
 10
64792.86076633348
 20
57391.33183471788
 30
0.0
 40
10.5
 41
0.0
 71
     9
 72
     5
  1

1001
ACAD
1000
MTEXTBEGIN
1070
    73
1070
     1
1070
    44
1040
1.0
1070
    74
1070
     0
1000
MTEXTEND
  0
MTEXT
  5
567B
330
1A
100
AcDbEntity
  8
SUNPOU
100
AcDbMText
 10
83746.61948366345
 20
74857.90788720994
 30
0.0
 40
10.5
 41
0.0
 71
     9
 72
     5
  1

1001
ACAD
1000
MTEXTBEGIN
1070
    73
1070
     1
1070
    44
1040
1.0
1070
    74
1070
     0
1000
MTEXTEND
  0
MTEXT
  5
567C
330
1A
100
AcDbEntity
  8
SUNPOU
100
AcDbMText
 10
85690.02673037287
 20
73056.85880733192
 30
0.0
 40
3.5
 41
0.0
 71
     9
 72
     5
  1

1001
ACAD
1000
MTEXTBEGIN
1070
    73
1070
     1
1070
    44
1040
1.0
1070
    74
1070
     0
1000
MTEXTEND
  0
MTEXT
  5
567D
330
1A
100
AcDbEntity
  8
SUNPOU
100
AcDbMText
 10
116816.2065629925
 20
115551.8044749892
 30
0.0
 40
10.5
 41
0.0
 71
     9
 72
     5
  1

1001
ACAD
1000
MTEXTBEGIN
1070
    73
1070
     1
1070
    44
1040
1.0
1070
    74
1070
     0
1000
MTEXTEND
  0
MTEXT
  5
567E
330
1A
100
AcDbEntity
  8
SUNPOU
100
AcDbMText
 10
118759.613809702
 20
113750.7553951112
 30
0.0
 40
3.5
 41
0.0
 71
     9
 72
     5
  1

1001
ACAD
1000
MTEXTBEGIN
1070
    73
1070
     1
1070
    44
1040
1.0
1070
    74
1070
     0
1000
MTEXTEND
  0
MTEXT
  5
567F
330
1A
100
AcDbEntity
  8
SUNPOU
100
AcDbMText
 10
67256.47426878814
 20
61384.96962996432
 30
0.0
 40
10.5
 41
0.0
 71
     9
 72
     5
  1

1001
ACAD
1000
MTEXTBEGIN
1070
    73
1070
     1
1070
    44
1040
1.0
1070
    74
1070
     0
1000
MTEXTEND
  0
MTEXT
  5
5680
330
1A
100
AcDbEntity
  8
SUNPOU
100
AcDbMText
 10
53308.47416841216
 20
42212.57049085211
 30
0.0
 40
3.5
 41
0.0
 71
     7
 72
     5
  1

1001
ACAD
1000
MTEXTBEGIN
1070
    73
1070
     1
1070
    44
1040
1.0
1070
    74
1070
     0
1000
MTEXTEND
  0
MTEXT
  5
5681
330
1A
100
AcDbEntity
  8
SUNPOU
100
AcDbMText
 10
67000.82485118274
 20
51571.63371187345
 30
0.0
 40
10.5
 41
0.0
 71
     9
 72
     5
  1

1001
ACAD
1000
MTEXTBEGIN
1070
    73
1070
     1
1070
    44
1040
1.0
1070
    74
1070
     0
1000
MTEXTEND
  0
MTEXT
  5
5682
330
1A
100
AcDbEntity
  8
SUNPOU
100
AcDbMText
 10
75722.99241710071
 20
58987.46824341094
 30
0.0
 40
10.5
 41
0.0
 71
     9
 72
     5
  1

1001
ACAD
1000
MTEXTBEGIN
1070
    73
1070
     1
1070
    44
1040
1.0
1070
    74
1070
     0
1000
MTEXTEND
  0
MTEXT
  5
5683
330
1A
100
AcDbEntity
  8
SUNPOU
100
AcDbMText
 10
94676.75113443068
 20
76454.04429590299
 30
0.0
 40
10.5
 41
0.0
 71
     9
 72
     5
  1

1001
ACAD
1000
MTEXTBEGIN
1070
    73
1070
     1
1070
    44
1040
1.0
1070
    74
1070
     0
1000
MTEXTEND
  0
MTEXT
  5
5684
330
1A
100
AcDbEntity
  8
SUNPOU
100
AcDbMText
 10
96620.1583811401
 20
74652.99521602498
 30
0.0
 40
3.5
 41
0.0
 71
     9
 72
     5
  1

1001
ACAD
1000
MTEXTBEGIN
1070
    73
1070
     1
1070
    44
1040
1.0
1070
    74
1070
     0
1000
MTEXTEND
  0
MTEXT
  5
5685
330
1A
100
AcDbEntity
  8
SUNPOU
100
AcDbMText
 10
127746.3382137598
 20
117147.9408836823
 30
0.0
 40
10.5
 41
0.0
 71
     9
 72
     5
  1

1001
ACAD
1000
MTEXTBEGIN
1070
    73
1070
     1
1070
    44
1040
1.0
1070
    74
1070
     0
1000
MTEXTEND
  0
MTEXT
  5
5686
330
1A
100
AcDbEntity
  8
SUNPOU
100
AcDbMText
 10
129689.7454604692
 20
115346.8918038043
 30
0.0
 40
3.5
 41
0.0
 71
     9
 72
     5
  1

1001
ACAD
1000
MTEXTBEGIN
1070
    73
1070
     1
1070
    44
1040
1.0
1070
    74
1070
     0
1000
MTEXTEND
  0
MTEXT
  5
5687
330
1A
100
AcDbEntity
  8
SUNPOU
100
AcDbMText
 10
78186.60591955537
 20
62981.10603865738
 30
0.0
 40
10.5
 41
0.0
 71
     9
 72
     5
  1

1001
ACAD
1000
MTEXTBEGIN
1070
    73
1070
     1
1070
    44
1040
1.0
1070
    74
1070
     0
1000
MTEXTEND
  0
MTEXT
  5
5688
330
1A
100
AcDbEntity
  8
SUNPOU
100
AcDbMText
 10
64238.60581917939
 20
43808.70689954517
 30
0.0
 40
3.5
 41
0.0
 71
     7
 72
     5
  1

1001
ACAD
1000
MTEXTBEGIN
1070
    73
1070
     1
1070
    44
1040
1.0
1070
    74
1070
     0
1000
MTEXTEND
  0
MTEXT
  5
5689
330
1A
100
AcDbEntity
  8
SUNPOU
100
AcDbMText
 10
33428.13481137435
 20
32770.04710035564
 30
0.0
 40
10.5
 41
0.0
 71
     9
 72
     5
  1

1001
ACAD
1000
MTEXTBEGIN
1070
    73
1070
     1
1070
    44
1040
1.0
1070
    74
1070
     0
1000
MTEXTEND
  0
MTEXT
  5
568A
330
1A
100
AcDbEntity
  8
SUNPOU
100
AcDbMText
 10
52381.89352870432
 20
50236.62315284769
 30
0.0
 40
10.5
 41
0.0
 71
     9
 72
     5
  1

1001
ACAD
1000
MTEXTBEGIN
1070
    73
1070
     1
1070
    44
1040
1.0
1070
    74
1070
     0
1000
MTEXTEND
  0
MTEXT
  5
568B
330
1A
100
AcDbEntity
  8
SUNPOU
100
AcDbMText
 10
54325.30077541374
 20
48435.57407296968
 30
0.0
 40
3.5
 41
0.0
 71
     9
 72
     5
  1

1001
ACAD
1000
MTEXTBEGIN
1070
    73
1070
     1
1070
    44
1040
1.0
1070
    74
1070
     0
1000
MTEXTEND
  0
MTEXT
  5
568C
330
1A
100
AcDbEntity
  8
SUNPOU
100
AcDbMText
 10
85451.48060803343
 20
90930.51974062703
 30
0.0
 40
10.5
 41
0.0
 71
     9
 72
     5
  1

1001
ACAD
1000
MTEXTBEGIN
1070
    73
1070
     1
1070
    44
1040
1.0
1070
    74
1070
     0
1000
MTEXTEND
  0
MTEXT
  5
568D
330
1A
100
AcDbEntity
  8
SUNPOU
100
AcDbMText
 10
87394.88785474286
 20
89129.47066074901
 30
0.0
 40
3.5
 41
0.0
 71
     9
 72
     5
  1

1001
ACAD
1000
MTEXTBEGIN
1070
    73
1070
     1
1070
    44
1040
1.0
1070
    74
1070
     0
1000
MTEXTEND
  0
MTEXT
  5
568E
330
1A
100
AcDbEntity
  8
SUNPOU
100
AcDbMText
 10
35891.74831382901
 20
36763.68489560208
 30
0.0
 40
10.5
 41
0.0
 71
     9
 72
     5
  1

1001
ACAD
1000
MTEXTBEGIN
1070
    73
1070
     1
1070
    44
1040
1.0
1070
    74
1070
     0
1000
MTEXTEND
  0
MTEXT
  5
568F
330
1A
100
AcDbEntity
  8
SUNPOU
100
AcDbMText
 10
21943.74821345303
 20
17591.28575648986
 30
0.0
 40
3.5
 41
0.0
 71
     7
 72
     5
  1

1001
ACAD
1000
MTEXTBEGIN
1070
    73
1070
     1
1070
    44
1040
1.0
1070
    74
1070
     0
1000
MTEXTEND
  0
MTEXT
  5
11084
330
1A
100
AcDbEntity
  8
ZISSEN1
100
AcDbMText
 10
-1290.801949536872
 20
1689.682402445169
 30
0.0
 40
5.0
 41
108.3598999999999
 71
     1
 72
     5
  1
ADB-2F40B  No.SS0001f80
1001
ACAD
1000
MTEXTBEGIN
1070
    73
1070
     1
1070
    44
1040
1.0
1070
    74
1070
     0
1000
MTEXTEND
1000
MTEXTBEGIN
1070
    73
1070
     1
1070
    44
1040
1.0
1070
    74
1070
     0
1000
MTEXTEND
1000
MTEXTBEGIN
1070
    73
1070
     1
1070
    44
1040
1.0
1070
    74
1070
     0
1000
MTEXTEND
  0
XLINE
  5
126D7
330
1A
100
AcDbEntity
  8
SOUZOUSEN
100
AcDbXline
 10
-2343.442450720007
 20
3248.111410528631
 30
0.0
 11
0.0
 21
1.0
 31
0.0
  0
XLINE
  5
126D8
330
1A
100
AcDbEntity
  8
SOUZOUSEN
100
AcDbXline
 10
-2343.419932224668
 20
3244.179140051123
 30
0.0
 11
0.0
 21
-1.0
 31
0.0
  0
LINE
  5
131F7
330
1A
100
AcDbEntity
  8
ZISSEN1
100
AcDbLine
 10
-1243.979354293395
 20
1620.073527651525
 30
0.0
 11
-1243.979354293395
 21
1601.173527651526
 31
0.0
  0
LINE
  5
131F8
330
1A
100
AcDbEntity
  8
出力ｷﾊ_ﾝ
100
AcDbLine
 10
-1234.579354293394
 20
1601.173527651526
 30
0.0
 11
-1234.579354293394
 21
1601.973527651525
 31
0.0
  0
LINE
  5
131F9
330
1A
100
AcDbEntity
  8
ZISSEN1
100
AcDbLine
 10
-1202.074016257343
 20
1587.073527651525
 30
0.0
 11
-1202.074016257342
 21
1641.073527651525
 31
0.0
  0
LINE
  5
131FA
330
1A
100
AcDbEntity
  8
ZISSEN1
 48
0.3
100
AcDbLine
 10
-1174.974016257343
 20
1585.573527651525
 30
0.0
 11
-1174.974016257343
 21
1642.573527651525
 31
0.0
  0
LINE
  5
131FB
330
1A
100
AcDbEntity
  8
ZISSEN1
 48
0.3
100
AcDbLine
 10
-1173.374016257343
 20
1585.573527651525
 30
0.0
 11
-1173.374016257343
 21
1642.573527651525
 31
0.0
  0
LINE
  5
131FC
330
1A
100
AcDbEntity
  8
ZISSEN1
 48
0.3
100
AcDbLine
 10
-1173.074016257343
 20
1590.073527651525
 30
0.0
 11
-1173.074016257343
 21
1636.073527651525
 31
0.0
  0
LINE
  5
131FD
330
1A
100
AcDbEntity
  8
出力ｷﾊ_ﾝ
100
AcDbLine
 10
-1170.074016257343
 20
1590.073527651525
 30
0.0
 11
-1170.074016257343
 21
1636.073527651525
 31
0.0
  0
LINE
  5
131FE
330
1A
100
AcDbEntity
  8
ZISSEN1
100
AcDbLine
 10
-1174.974016257343
 20
1636.073527651525
 30
0.0
 11
-1174.974016257343
 21
1604.673527651525
 31
0.0
  0
LINE
  5
131FF
330
1A
100
AcDbEntity
  8
ZISSEN1
100
AcDbLine
 10
-1174.974016257343
 20
1601.973527651525
 30
0.0
 11
-1174.974016257343
 21
1625.073527651525
 31
0.0
  0
DIMENSION
  5
13200
330
1A
100
AcDbEntity
  8
SUNPOU
100
AcDbDimension
  2
*D0
 10
-1210.074188168253
 20
1587.573527651525
 30
0.0
 11
-1212.824188168253
 21
1614.073527651525
 31
0.0
 70
    32
  3
標準スタイル
100
AcDbAlignedDimension
 13
-1187.074016257342
 23
1640.573527651525
 33
0.0
 14
-1187.074016257342
 24
1587.573527651525
 34
0.0
 50
90.0
100
AcDbRotatedDimension
1001
ACAD
1000
DSTYLE
1002
{
1070
   340
1005
10
1070
    40
1040
1.0
1002
}
  0
LINE
  5
13201
330
1A
100
AcDbEntity
  8
出力ｷﾊ_ﾝ
100
AcDbLine
 10
-1309.079354293395
 20
1643.073527651525
 30
0.0
 11
-1309.079354293395
 21
1585.073527651525
 31
0.0
  0
LINE
  5
13202
330
1A
100
AcDbEntity
  8
出力ｷﾊ_ﾝ
100
AcDbLine
 10
-1305.579354293395
 20
1636.073527651525
 30
0.0
 11
-1305.579354293395
 21
1585.573527651525
 31
0.0
  0
LINE
  5
13203
330
1A
100
AcDbEntity
  8
出力ｷﾊ_ﾝ
100
AcDbLine
 10
-1306.079354293395
 20
1643.073527651525
 30
0.0
 11
-1306.079354293395
 21
1585.073527651525
 31
0.0
  0
DIMENSION
  5
13204
330
1A
100
AcDbEntity
  8
SUNPOU
100
AcDbDimension
  2
*D1
 10
-1309.079354293395
 20
1577.069829010938
 30
0.0
 11
-1305.079354293395
 21
1579.819829010938
 31
0.0
 70
    32
  3
標準スタイル
100
AcDbAlignedDimension
 13
-1301.079354293395
 23
1637.573527651525
 33
0.0
 14
-1309.079354293395
 24
1585.073527651525
 34
0.0
100
AcDbRotatedDimension
1001
ACAD
1000
DSTYLE
1002
{
1070
   340
1005
10
1070
    40
1040
1.0
1002
}
  0
DIMENSION
  5
13205
330
1A
100
AcDbEntity
  8
SUNPOU
100
AcDbDimension
  2
*D2
 10
-1317.079526204305
 20
1585.073527651525
 30
0.0
 11
-1319.829526204305
 21
1614.073527651525
 31
0.0
 70
    32
  3
標準スタイル
100
AcDbAlignedDimension
 13
-1309.079354293395
 23
1643.073527651525
 33
0.0
 14
-1309.079354293395
 24
1585.073527651525
 34
0.0
 50
90.0
100
AcDbRotatedDimension
1001
ACAD
1000
DSTYLE
1002
{
1070
   340
1005
10
1070
    40
1040
1.0
1002
}
  0
DIMENSION
  5
13207
330
1A
100
AcDbEntity
  8
SUNPOU
100
AcDbDimension
  2
*D3
 10
-1226.082885978211
 20
1587.573527651525
 30
0.0
 11
-1228.832885978212
 21
1614.073527651525
 31
0.0
 70
    32
  3
標準スタイル
100
AcDbAlignedDimension
 13
-1301.077253807949
 23
1640.573527651525
 33
0.0
 14
-1239.079354293395
 24
1587.573527651525
 34
0.0
 50
270.0
100
AcDbRotatedDimension
1001
ACAD
1000
DSTYLE
1002
{
1070
   340
1005
10
1070
    40
1040
1.0
1002
}
  0
LINE
  5
13208
330
1A
100
AcDbEntity
  8
ZISSEN1
100
AcDbLine
 10
-1305.579354293395
 20
1585.573527651525
 30
0.0
 11
-1244.579354293395
 21
1585.573527651525
 31
0.0
  0
LINE
  5
13209
330
1A
100
AcDbEntity
  8
出力ｷﾊ_ﾝ
100
AcDbLine
 10
-1306.079354293395
 20
1526.073527651525
 30
0.0
 11
-1234.079354293394
 21
1526.073527651525
 31
0.0
  0
LINE
  5
1320A
330
1A
100
AcDbEntity
  8
ZISSEN1
100
AcDbLine
 10
-1305.079354293395
 20
1530.973527651525
 30
0.0
 11
-1234.579354293395
 21
1530.973527651525
 31
0.0
  0
LINE
  5
1320B
330
1A
100
AcDbEntity
  8
ZISSEN1
100
AcDbLine
 10
-1264.579354293394
 20
1529.373527651525
 30
0.0
 11
-1234.579354293395
 21
1529.373527651525
 31
0.0
  0
LINE
  5
1320C
330
1A
100
AcDbEntity
  8
出力ｷﾊ_ﾝ
100
AcDbLine
 10
-1234.579354293395
 20
1538.573527651525
 30
0.0
 11
-1305.57498091938
 21
1538.573527651525
 31
0.0
  0
LINE
  5
1320D
330
1A
100
AcDbEntity
  8
出力ｷﾊ_ﾝ
100
AcDbLine
 10
-1305.579354293395
 20
1536.973527651525
 30
0.0
 11
-1234.579354293395
 21
1536.973527651525
 31
0.0
  0
DIMENSION
  5
1320E
330
1A
100
AcDbEntity
  8
SUNPOU
100
AcDbDimension
  2
*D4
 10
-1309.079354293395
 20
1518.069829010938
 30
0.0
 11
-1271.579354293395
 21
1520.819829010938
 31
0.0
 70
    32
  3
標準スタイル
100
AcDbAlignedDimension
 13
-1234.079354293394
 23
1526.073527651525
 33
0.0
 14
-1309.079354293395
 24
1526.073527651525
 34
0.0
100
AcDbRotatedDimension
1001
ACAD
1000
DSTYLE
1002
{
1070
   340
1005
10
1070
    40
1040
1.0
1002
}
  0
DIMENSION
  5
13210
330
1A
100
AcDbEntity
  8
SUNPOU
100
AcDbDimension
  2
*D5
 10
-1306.079354293395
 20
1566.075058306153
 30
0.0
 11
-1297.912687626728
 21
1568.825058306153
 31
0.0
 70
    32
  3
標準スタイル
100
AcDbAlignedDimension
 13
-1309.079354293395
 23
1558.073527651525
 33
0.0
 14
-1306.079354293395
 24
1558.073527651525
 34
0.0
100
AcDbRotatedDimension
1001
ACAD
1000
DSTYLE
1002
{
1070
   340
1005
10
1070
    40
1040
1.0
1002
}
  0
LINE
  5
13211
330
1A
100
AcDbEntity
  8
出力ｷﾊ_ﾝ
100
AcDbLine
 10
-1309.079354293395
 20
1587.073527651525
 30
0.0
 11
-1306.079354293395
 21
1587.073527651525
 31
0.0
  0
LINE
  5
13212
330
1A
100
AcDbEntity
  8
出力ｷﾊ_ﾝ
100
AcDbLine
 10
-1309.079354293395
 20
1585.073527651525
 30
0.0
 11
-1306.079354293395
 21
1585.073527651525
 31
0.0
  0
LINE
  5
13213
330
1A
100
AcDbEntity
  8
出力ｷﾊ_ﾝ
100
AcDbLine
 10
-1306.079354293395
 20
1558.073527651525
 30
0.0
 11
-1309.079354293395
 21
1558.073527651525
 31
0.0
  0
LINE
  5
13214
330
1A
100
AcDbEntity
  8
出力ｷﾊ_ﾝ
100
AcDbLine
 10
-1306.079354293395
 20
1556.073527651525
 30
0.0
 11
-1309.079354293395
 21
1556.073527651525
 31
0.0
  0
LINE
  5
13215
330
1A
100
AcDbEntity
  8
ZISSEN1
100
AcDbLine
 10
-1305.579354293395
 20
1590.073527651525
 30
0.0
 11
-1306.079354293395
 21
1590.073527651525
 31
0.0
  0
LINE
  5
13216
330
1A
100
AcDbEntity
  8
出力ｷﾊ_ﾝ
100
AcDbLine
 10
-1306.079354293395
 20
1585.073527651525
 30
0.0
 11
-1306.079354293395
 21
1590.073527651525
 31
0.0
  0
LINE
  5
13217
330
1A
100
AcDbEntity
  8
ZISSEN1
100
AcDbLine
 10
-1298.584222376821
 20
1550.073527651525
 30
0.0
 11
-1271.184222376821
 21
1550.073527651525
 31
0.0
  0
ARC
  5
13240
330
1A
100
AcDbEntity
  8
出力ｷﾊ_ﾝ
100
AcDbCircle
 10
-1306.079354293395
 20
1529.073527651525
 30
0.0
 40
3.0
100
AcDbArc
 50
180.0
 51
270.0
  0
LINE
  5
13241
330
1A
100
AcDbEntity
  8
ZISSEN1
100
AcDbLine
 10
-1309.079354293395
 20
1529.073527651525
 30
0.0
 11
-1306.079354293395
 21
1529.073527651525
 31
0.0
  0
LINE
  5
13242
330
1A
100
AcDbEntity
  8
ZISSEN1
100
AcDbLine
 10
-1309.079354293395
 20
1531.073527651525
 30
0.0
 11
-1306.079354293395
 21
1531.073527651525
 31
0.0
  0
LINE
  5
13244
330
1A
100
AcDbEntity
  8
ZISSEN1
100
AcDbLine
 10
-1306.079354293395
 20
1529.073527651525
 30
0.0
 11
-1306.079354293395
 21
1526.073527651525
 31
0.0
  0
LINE
  5
13245
330
1A
100
AcDbEntity
  8
ZISSEN1
100
AcDbLine
 10
-1305.079354293395
 20
1536.973527651525
 30
0.0
 11
-1305.079354293395
 21
1530.973527651525
 31
0.0
  0
LINE
  5
13246
330
1A
100
AcDbEntity
  8
ZISSEN1
100
AcDbLine
 10
-1305.079354293395
 20
1529.073527651525
 30
0.0
 11
-1305.079354293395
 21
1526.073527651525
 31
0.0
  0
LINE
  5
13247
330
1A
100
AcDbEntity
  8
ZISSEN1
100
AcDbLine
 10
-1305.079354293395
 20
1529.373527651525
 30
0.0
 11
-1305.079354293395
 21
1529.073527651525
 31
0.0
  0
LINE
  5
13248
330
1A
100
AcDbEntity
  8
ZISSEN1
100
AcDbLine
 10
-1305.079354293395
 20
1529.373527651525
 30
0.0
 11
-1305.079354293395
 21
1530.973527651525
 31
0.0
  0
LINE
  5
13249
330
1A
100
AcDbEntity
  8
ZISSEN1
100
AcDbLine
 10
-1264.579354293394
 20
1529.373527651525
 30
0.0
 11
-1305.079354293395
 21
1529.373527651525
 31
0.0
  0
LINE
  5
1324A
330
1A
100
AcDbEntity
  8
ZISSEN1
100
AcDbLine
 10
-1305.279354293394
 20
1529.073527651525
 30
0.0
 11
-1306.079354293395
 21
1529.073527651525
 31
0.0
  0
LINE
  5
1324B
330
1A
100
AcDbEntity
  8
出力ｷﾊ_ﾝ
100
AcDbLine
 10
-1305.57498091938
 20
1538.573527651525
 30
0.0
 11
-1305.579354293395
 21
1536.973527651525
 31
0.0
  0
LWPOLYLINE
  5
1324D
330
1A
100
AcDbEntity
  8
出力ｷﾊ_ﾝ
100
AcDbPolyline
 90
        4
 70
     1
 43
0.0
 10
-1306.079354293395
 20
1544.823527651525
 10
-1306.079354293395
 20
1541.323527651525
 10
-1309.079354293395
 20
1541.323527651525
 10
-1309.079354293395
 20
1544.823527651525
  0
LINE
  5
1324E
330
1A
100
AcDbEntity
  8
出力ｷﾊ_ﾝ
100
AcDbLine
 10
-1309.079354293395
 20
1558.073527651525
 30
0.0
 11
-1309.079354293395
 21
1529.073527651525
 31
0.0
  0
LINE
  5
1324F
330
1A
100
AcDbEntity
  8
出力ｷﾊ_ﾝ
100
AcDbLine
 10
-1306.079354293395
 20
1558.073527651525
 30
0.0
 11
-1306.079354293395
 21
1529.073527651525
 31
0.0
  0
LINE
  5
13250
330
1A
100
AcDbEntity
  8
ZISSEN1
100
AcDbLine
 10
-1271.184222376821
 20
1550.073527651525
 30
0.0
 11
-1271.184222376821
 21
1538.573527651525
 31
0.0
  0
LINE
  5
13251
330
1A
100
AcDbEntity
  8
ZISSEN1
100
AcDbLine
 10
-1298.584222376821
 20
1550.073527651525
 30
0.0
 11
-1298.584222376821
 21
1538.573527651525
 31
0.0
  0
LINE
  5
13252
330
1A
100
AcDbEntity
  8
出力ｷﾊ_ﾝ
100
AcDbLine
 10
-1306.079354293395
 20
1541.323527651525
 30
0.0
 11
-1306.079354293395
 21
1543.073527651525
 31
0.0
  0
LINE
  5
13270
330
1A
100
AcDbEntity
  8
ZISSEN1
100
AcDbLine
 10
-1305.279354293394
 20
1529.073527651525
 30
0.0
 11
-1259.779354293394
 21
1529.073527651525
 31
0.0
  0
LINE
  5
134E7
330
1A
100
AcDbEntity
  8
ZISSEN1
100
AcDbLine
 10
-1234.579354293395
 20
1601.173527651526
 30
0.0
 11
-1234.579354293394
 21
1593.073527651525
 31
0.0
  0
LINE
  5
134EA
330
1A
100
AcDbEntity
  8
出力ｷﾊ_ﾝ
100
AcDbLine
 10
-1234.079354293394
 20
1601.473527651525
 30
0.0
 11
-1234.079354293394
 21
1586.073527651525
 31
0.0
  0
LINE
  5
134EB
330
1A
100
AcDbEntity
  8
ZISSEN1
100
AcDbLine
 10
-1234.579354293395
 20
1601.473527651525
 30
0.0
 11
-1234.079354293394
 21
1601.473527651525
 31
0.0
  0
LINE
  5
134EC
330
1A
100
AcDbEntity
  8
ZISSEN1
100
AcDbLine
 10
-1243.979354293395
 20
1601.173527651525
 30
0.0
 11
-1234.579354293395
 21
1601.173527651526
 31
0.0
  0
ARC
  5
134ED
330
1A
100
AcDbEntity
  8
ZISSEN1
100
AcDbCircle
 10
-1243.579354293395
 20
1585.573527651525
 30
0.0
 40
1.0
100
AcDbArc
 50
90.0
 51
180.0
  0
ARC
  5
134EE
330
1A
100
AcDbEntity
  8
ZISSEN1
100
AcDbCircle
 10
-1234.579354293394
 20
1592.073527651525
 30
0.0
 40
1.0
100
AcDbArc
 50
90.0
 51
180.0
  0
LINE
  5
134EF
330
1A
100
AcDbEntity
  8
ZISSEN1
100
AcDbLine
 10
-1243.579354293395
 20
1592.073527651525
 30
0.0
 11
-1235.579354293394
 21
1592.073527651525
 31
0.0
  0
LINE
  5
134F0
330
1A
100
AcDbEntity
  8
ZISSEN1
100
AcDbLine
 10
-1243.579354293395
 20
1586.573527651525
 30
0.0
 11
-1243.579354293395
 21
1592.073527651525
 31
0.0
  0
LINE
  5
134F1
330
1A
100
AcDbEntity
  8
出力ｷﾊ_ﾝ
100
AcDbLine
 10
-1237.331523239261
 20
1585.073527651525
 30
0.0
 11
-1237.331523239261
 21
1588.573527651525
 31
0.0
  0
LINE
  5
134F2
330
1A
100
AcDbEntity
  8
出力ｷﾊ_ﾝ
100
AcDbLine
 10
-1240.831523239261
 20
1585.073527651525
 30
0.0
 11
-1240.831523239261
 21
1588.573527651525
 31
0.0
  0
ARC
  5
134F3
330
1A
100
AcDbEntity
  8
出力ｷﾊ_ﾝ
100
AcDbCircle
 10
-1239.081523239261
 20
1588.573527651525
 30
0.0
 40
1.749999999999772
100
AcDbArc
 50
0.0
 51
180.0
  0
LINE
  5
134F4
330
1A
100
AcDbEntity
  8
CL1
100
AcDbLine
 10
-1239.079354293395
 20
1585.073527651525
 30
0.0
 11
-1239.079354293395
 21
1590.073527651525
 31
0.0
  0
LINE
  5
134F5
330
1A
100
AcDbEntity
  8
出力ｷﾊ_ﾝ
100
AcDbLine
 10
-1235.079354293395
 20
1585.073527651525
 30
0.0
 11
-1237.331523239261
 21
1585.073527651525
 31
0.0
  0
LINE
  5
134F6
330
1A
100
AcDbEntity
  8
CL1
100
AcDbLine
 10
-1237.331523239261
 20
1587.573527651525
 30
0.0
 11
-1240.831523239261
 21
1587.573527651525
 31
0.0
  0
LINE
  5
134F7
330
1A
100
AcDbEntity
  8
出力ｷﾊ_ﾝ
100
AcDbLine
 10
-1234.079354293394
 20
1586.073527651525
 30
0.0
 11
-1235.079354293395
 21
1585.073527651525
 31
0.0
  0
LINE
  5
134F8
330
1A
100
AcDbEntity
  8
ZISSEN1
100
AcDbLine
 10
-1240.831523239261
 20
1585.073527651525
 30
0.0
 11
-1257.079354293394
 21
1585.073527651525
 31
0.0
  0
LINE
  5
134FA
330
1A
100
AcDbEntity
  8
ZISSEN1
100
AcDbLine
 10
-1248.559354293394
 20
1601.173527651525
 30
0.0
 11
-1240.959354293394
 21
1601.173527651525
 31
0.0
  0
LINE
  5
134FC
330
1A
100
AcDbEntity
  8
ZISSEN1
100
AcDbLine
 10
-1240.959354293394
 20
1592.073527651525
 30
0.0
 11
-1248.559354293394
 21
1592.073527651525
 31
0.0
  0
DIMENSION
  5
13516
330
1A
100
AcDbEntity
  8
SUNPOU
100
AcDbDimension
  2
*D6
 10
-1239.079354293395
 20
1577.069829010938
 30
0.0
 11
-1236.579354293395
 21
1579.819829010938
 31
0.0
 70
    32
  3
標準スタイル
100
AcDbAlignedDimension
 13
-1234.079354293394
 23
1585.073527651525
 33
0.0
 14
-1239.079354293395
 24
1587.573527651525
 34
0.0
100
AcDbRotatedDimension
1001
ACAD
1000
DSTYLE
1002
{
1070
   340
1005
10
1070
    40
1040
1.0
1002
}
  0
DIMENSION
  5
13517
330
1A
100
AcDbEntity
  8
SUNPOU
100
AcDbDimension
  2
*D7
 10
-1226.082885978211
 20
1585.073527651525
 30
0.0
 11
-1226.517802214946
 21
1571.587456646914
 31
0.0
 70
   160
  3
標準スタイル
100
AcDbAlignedDimension
 13
-1239.081523239261
 23
1587.573527651525
 33
0.0
 14
-1234.079354293394
 24
1585.073527651525
 34
0.0
 50
270.0
100
AcDbRotatedDimension
1001
ACAD
1000
DSTYLE
1002
{
1070
   287
1070
     4
1070
    40
1040
1.0
1070
   279
1070
     1
1070
   340
1005
10
1002
}
  0
LINE
  5
1351E
330
1A
100
AcDbEntity
  8
出力ｷﾊ_ﾝ
100
AcDbLine
 10
-1234.579354293395
 20
1529.373527651525
 30
0.0
 11
-1234.579354293395
 21
1530.973527651525
 31
0.0
  0
LINE
  5
13522
330
1A
100
AcDbEntity
  8
ZISSEN1
 48
0.4
100
AcDbLine
 10
-1237.331523239261
 20
1529.073527651525
 30
0.0
 11
-1237.331523239261
 21
1526.073527651525
 31
0.0
  0
LINE
  5
13523
330
1A
100
AcDbEntity
  8
ZISSEN1
 48
0.4
100
AcDbLine
 10
-1240.831523239261
 20
1529.073527651525
 30
0.0
 11
-1240.831523239261
 21
1526.073527651525
 31
0.0
  0
LINE
  5
13524
330
1A
100
AcDbEntity
  8
出力ｷﾊ_ﾝ
100
AcDbLine
 10
-1234.079354293394
 20
1529.073527651525
 30
0.0
 11
-1234.079354293394
 21
1526.073527651525
 31
0.0
  0
LINE
  5
13525
330
1A
100
AcDbEntity
  8
ZISSEN1
100
AcDbLine
 10
-1242.379354293395
 20
1536.973527651525
 30
0.0
 11
-1242.379354293395
 21
1530.973527651525
 31
0.0
  0
LINE
  5
13526
330
1A
100
AcDbEntity
  8
ZISSEN1
100
AcDbLine
 10
-1240.079354293395
 20
1536.973527651525
 30
0.0
 11
-1240.079354293395
 21
1530.973527651525
 31
0.0
  0
LINE
  5
13527
330
1A
100
AcDbEntity
  8
ZISSEN1
100
AcDbLine
 10
-1235.079354293395
 20
1536.973527651525
 30
0.0
 11
-1235.079354293395
 21
1530.973527651525
 31
0.0
  0
LINE
  5
13528
330
1A
100
AcDbEntity
  8
出力ｷﾊ_ﾝ
100
AcDbLine
 10
-1235.079354293395
 20
1529.073527651525
 30
0.0
 11
-1235.079354293395
 21
1526.073527651525
 31
0.0
  0
LINE
  5
13529
330
1A
100
AcDbEntity
  8
ZISSEN1
100
AcDbLine
 10
-1234.579354293395
 20
1529.373527651525
 30
0.0
 11
-1234.579354293395
 21
1529.073527651525
 31
0.0
  0
LINE
  5
1352A
330
1A
100
AcDbEntity
  8
ZISSEN1
100
AcDbLine
 10
-1243.579354293395
 20
1538.573527651525
 30
0.0
 11
-1243.579354293395
 21
1536.973527651525
 31
0.0
  0
LINE
  5
1352B
330
1A
100
AcDbEntity
  8
ZISSEN1
100
AcDbLine
 10
-1243.579354293395
 20
1530.973527651525
 30
0.0
 11
-1243.579354293395
 21
1529.373527651525
 31
0.0
  0
LINE
  5
1352C
330
1A
100
AcDbEntity
  8
出力ｷﾊ_ﾝ
100
AcDbLine
 10
-1234.579354293395
 20
1536.973527651525
 30
0.0
 11
-1234.579354293395
 21
1538.573527651525
 31
0.0
  0
DIMENSION
  5
13531
330
1A
100
AcDbEntity
  8
SUNPOU
100
AcDbDimension
  2
*D8
 10
-1226.082885978211
 20
1526.073527651525
 30
0.0
 11
-1228.832885978211
 21
1540.572953317482
 31
0.0
 70
    32
  3
標準スタイル
100
AcDbAlignedDimension
 13
-1234.079422209235
 23
1555.072378983439
 33
0.0
 14
-1234.079354293394
 24
1526.073527651525
 34
0.0
 50
270.0
100
AcDbRotatedDimension
1001
ACAD
1000
DSTYLE
1002
{
1070
   340
1005
10
1070
    40
1040
1.0
1002
}
  0
LINE
  5
1354A
330
1A
100
AcDbEntity
  8
ZISSEN1
100
AcDbLine
 10
-1258.079354293394
 20
1529.073527651525
 30
0.0
 11
-1258.079354293394
 21
1529.373527651525
 31
0.0
  0
LINE
  5
1354B
330
1A
100
AcDbEntity
  8
ZISSEN1
100
AcDbLine
 10
-1257.079354293394
 20
1529.073527651525
 30
0.0
 11
-1257.079354293394
 21
1526.073527651525
 31
0.0
  0
LINE
  5
13573
330
1A
100
AcDbEntity
  8
ZISSEN1
100
AcDbLine
 10
-1257.079354293394
 20
1585.573527651525
 30
0.0
 11
-1257.079354293394
 21
1585.073527651525
 31
0.0
  0
LINE
  5
13574
330
1A
100
AcDbEntity
  8
出力ｷﾊ_ﾝ
100
AcDbLine
 10
-1259.779354293394
 20
1529.073527651525
 30
0.0
 11
-1234.079354293394
 21
1529.073527651525
 31
0.0
  0
LINE
  5
13579
330
1A
100
AcDbEntity
  8
ZISSEN1
 48
0.3
100
AcDbLine
 10
-1180.974016257343
 20
1585.573527651525
 30
0.0
 11
-1180.974016257343
 21
1601.173527651526
 31
0.0
  0
LINE
  5
1357A
330
1A
100
AcDbEntity
  8
ZISSEN1
100
AcDbLine
 10
-1182.574016257343
 20
1585.573527651525
 30
0.0
 11
-1182.574016257342
 21
1601.173527651525
 31
0.0
  0
LINE
  5
1357C
330
1A
100
AcDbEntity
  8
ZISSEN1
100
AcDbLine
 10
-1182.574016257343
 20
1599.773527651525
 30
0.0
 11
-1182.574016257343
 21
1586.973527651525
 31
0.0
  0
LINE
  5
1357F
330
1A
100
AcDbEntity
  8
ZISSEN1
 48
0.3
100
AcDbLine
 10
-1180.974016257343
 20
1597.573527651525
 30
0.0
 11
-1174.974016257343
 21
1597.573527651525
 31
0.0
  0
LINE
  5
13581
330
1A
100
AcDbEntity
  8
ZISSEN1
100
AcDbLine
 10
-1173.074016257343
 20
1601.473527651525
 30
0.0
 11
-1170.074016257343
 21
1601.473527651525
 31
0.0
  0
LINE
  5
13583
330
1A
100
AcDbEntity
  8
ZISSEN1
 48
0.3
100
AcDbLine
 10
-1173.374016257343
 20
1602.473527651525
 30
0.0
 11
-1173.074016257343
 21
1602.473527651525
 31
0.0
  0
LINE
  5
13585
330
1A
100
AcDbEntity
  8
出力ｷﾊ_ﾝ
100
AcDbLine
 10
-1200.074016257343
 20
1585.073527651525
 30
0.0
 11
-1188.824016257343
 21
1585.073527651525
 31
0.0
  0
LINE
  5
13586
330
1A
100
AcDbEntity
  8
出力ｷﾊ_ﾝ
100
AcDbLine
 10
-1202.074016257343
 20
1587.073527651525
 30
0.0
 11
-1200.074016257343
 21
1585.073527651525
 31
0.0
  0
LINE
  5
1358D
330
1A
100
AcDbEntity
  8
出力ｷﾊ_ﾝ
100
AcDbLine
 10
-1185.324016257343
 20
1585.073527651525
 30
0.0
 11
-1175.074016257343
 21
1585.073527651525
 31
0.0
  0
LINE
  5
1358E
330
1A
100
AcDbEntity
  8
CL1
100
AcDbLine
 10
-1187.074016257342
 20
1585.073527651525
 30
0.0
 11
-1187.074016257342
 21
1590.073527651525
 31
0.0
  0
LINE
  5
1358F
330
1A
100
AcDbEntity
  8
出力ｷﾊ_ﾝ
100
AcDbLine
 10
-1185.324016257343
 20
1585.073527651525
 30
0.0
 11
-1185.324016257342
 21
1588.573527651525
 31
0.0
  0
LINE
  5
13590
330
1A
100
AcDbEntity
  8
出力ｷﾊ_ﾝ
100
AcDbLine
 10
-1188.824016257343
 20
1585.073527651525
 30
0.0
 11
-1188.824016257342
 21
1588.573527651525
 31
0.0
  0
ARC
  5
13591
330
1A
100
AcDbEntity
  8
出力ｷﾊ_ﾝ
100
AcDbCircle
 10
-1187.074016257342
 20
1588.573527651525
 30
0.0
 40
1.749999999999772
100
AcDbArc
 50
0.0
 51
180.0
  0
LINE
  5
13593
330
1A
100
AcDbEntity
  8
CL1
100
AcDbLine
 10
-1185.326185203208
 20
1587.573527651525
 30
0.0
 11
-1188.826185203208
 21
1587.573527651525
 31
0.0
  0
LINE
  5
13594
330
1A
100
AcDbEntity
  8
出力ｷﾊ_ﾝ
100
AcDbLine
 10
-1170.074016257343
 20
1585.073527651525
 30
0.0
 11
-1170.074016257343
 21
1590.073527651525
 31
0.0
  0
LINE
  5
13595
330
1A
100
AcDbEntity
  8
出力ｷﾊ_ﾝ
100
AcDbLine
 10
-1173.074016257343
 20
1585.073527651525
 30
0.0
 11
-1173.074016257343
 21
1590.073527651525
 31
0.0
  0
LINE
  5
13596
330
1A
100
AcDbEntity
  8
ZISSEN1
100
AcDbLine
 10
-1174.974016257343
 20
1592.073527651525
 30
0.0
 11
-1173.074016257343
 21
1592.073527651525
 31
0.0
  0
LINE
  5
13597
330
1A
100
AcDbEntity
  8
ZISSEN1
100
AcDbLine
 10
-1174.974016257343
 20
1594.873527651525
 30
0.0
 11
-1174.974016257343
 21
1592.273527651525
 31
0.0
  0
LINE
  5
13598
330
1A
100
AcDbEntity
  8
ZISSEN1
 48
0.3
100
AcDbLine
 10
-1174.974016257343
 20
1592.573527651525
 30
0.0
 11
-1180.974016257343
 21
1592.573527651525
 31
0.0
  0
LINE
  5
13599
330
1A
100
AcDbEntity
  8
ZISSEN1
 48
0.3
100
AcDbLine
 10
-1174.974016257343
 20
1595.573527651525
 30
0.0
 11
-1174.974016257343
 21
1590.573527651525
 31
0.0
  0
LINE
  5
1359A
330
1A
100
AcDbEntity
  8
ZISSEN1
100
AcDbLine
 10
-1174.974016257343
 20
1585.573527651525
 30
0.0
 11
-1173.374016257343
 21
1585.573527651525
 31
0.0
  0
LINE
  5
1359D
330
1A
100
AcDbEntity
  8
ZISSEN1
 48
0.3
100
AcDbLine
 10
-1170.074016257343
 20
1586.073527651525
 30
0.0
 11
-1173.074016257343
 21
1586.073527651525
 31
0.0
  0
LINE
  5
1359E
330
1A
100
AcDbEntity
  8
ZISSEN1
 48
0.3
100
AcDbLine
 10
-1170.074016257343
 20
1585.073527651525
 30
0.0
 11
-1173.074016257343
 21
1585.073527651525
 31
0.0
  0
LINE
  5
1359F
330
1A
100
AcDbEntity
  8
出力ｷﾊ_ﾝ
100
AcDbLine
 10
-1173.074016257343
 20
1585.073527651525
 30
0.0
 11
-1170.074016257343
 21
1585.073527651525
 31
0.0
  0
LINE
  5
135A0
330
1A
100
AcDbEntity
  8
ZISSEN1
 48
0.3
100
AcDbLine
 10
-1182.574016257343
 20
1585.573527651525
 30
0.0
 11
-1180.974016257343
 21
1585.573527651525
 31
0.0
  0
LINE
  5
135A2
330
1A
100
AcDbEntity
  8
ZISSEN1
 48
0.3
100
AcDbLine
 10
-1173.374016257343
 20
1585.573527651525
 30
0.0
 11
-1173.074016257343
 21
1585.573527651525
 31
0.0
  0
LINE
  5
135A4
330
1A
100
AcDbEntity
  8
ZISSEN1
100
AcDbLine
 10
-1175.074016257343
 20
1585.073527651525
 30
0.0
 11
-1173.074016257343
 21
1587.073527651525
 31
0.0
  0
LINE
  5
135A5
330
1A
100
AcDbEntity
  8
ZISSEN1
100
AcDbLine
 10
-1182.574016257342
 20
1601.173527651525
 30
0.0
 11
-1182.574016257343
 21
1601.973527651525
 31
0.0
  0
LINE
  5
135A6
330
1A
100
AcDbEntity
  8
ZISSEN1
100
AcDbLine
 10
-1180.974016257343
 20
1601.173527651526
 30
0.0
 11
-1180.974016257343
 21
1601.973527651525
 31
0.0
  0
DIMENSION
  5
135B0
330
1A
100
AcDbEntity
  8
SUNPOU
100
AcDbDimension
  2
*D9
 10
-1210.074188168253
 20
1585.073527651525
 30
0.0
 11
-1212.824188168253
 21
1574.573527651525
 31
0.0
 70
    32
  3
標準スタイル
100
AcDbAlignedDimension
 13
-1187.076185203209
 23
1587.573527651525
 33
0.0
 14
-1202.074016257343
 24
1585.073527651525
 34
0.0
 50
90.0
100
AcDbRotatedDimension
1001
ACAD
1000
DSTYLE
1002
{
1070
   340
1005
10
1070
    40
1040
1.0
1002
}
  0
DIMENSION
  5
135B1
330
1A
100
AcDbEntity
  8
SUNPOU
100
AcDbDimension
  2
*D10
 10
-1187.074016257342
 20
1577.069829010938
 30
0.0
 11
-1178.574016257343
 21
1579.819829010938
 31
0.0
 70
    32
  3
標準スタイル
100
AcDbAlignedDimension
 13
-1170.074016257343
 23
1585.073527651525
 33
0.0
 14
-1187.074016257342
 24
1587.573527651525
 34
0.0
100
AcDbRotatedDimension
1001
ACAD
1000
DSTYLE
1002
{
1070
   340
1005
10
1070
    40
1040
1.0
1002
}
  0
DIMENSION
  5
135B2
330
1A
100
AcDbEntity
  8
SUNPOU
100
AcDbDimension
  2
*D11
 10
-1202.074016257343
 20
1569.069829010938
 30
0.0
 11
-1186.074016257343
 21
1571.819829010938
 31
0.0
 70
    32
  3
標準スタイル
100
AcDbAlignedDimension
 13
-1170.074016257343
 23
1585.073527651525
 33
0.0
 14
-1202.074016257343
 24
1585.073527651525
 34
0.0
100
AcDbRotatedDimension
1001
ACAD
1000
DSTYLE
1002
{
1070
   340
1005
10
1070
    40
1040
1.0
1002
}
  0
LINE
  5
135B3
330
1A
100
AcDbEntity
  8
ZISSEN1
100
AcDbLine
 10
-1174.974016257343
 20
1601.973527651525
 30
0.0
 11
-1191.474016257343
 21
1601.973527651525
 31
0.0
  0
LINE
  5
135B5
330
1A
100
AcDbEntity
  8
出力ｷﾊ_ﾝ
100
AcDbLine
 10
-1235.579354293395
 20
1642.573527651525
 30
0.0
 11
-1295.579354293395
 21
1642.573527651525
 31
0.0
  0
LINE
  5
135B6
330
1A
100
AcDbEntity
  8
ZISSEN1
100
AcDbLine
 10
-1299.327253807948
 20
1643.073527651525
 30
0.0
 11
-1235.079354293395
 21
1643.073527651525
 31
0.0
  0
LINE
  5
135B7
330
1A
100
AcDbEntity
  8
出力ｷﾊ_ﾝ
100
AcDbLine
 10
-1309.079354293395
 20
1641.073527651525
 30
0.0
 11
-1306.079354293395
 21
1641.073527651525
 31
0.0
  0
LINE
  5
135B8
330
1A
100
AcDbEntity
  8
出力ｷﾊ_ﾝ
100
AcDbLine
 10
-1309.079354293395
 20
1643.073527651525
 30
0.0
 11
-1306.079354293395
 21
1643.073527651525
 31
0.0
  0
LINE
  5
135DF
330
1A
100
AcDbEntity
  8
ZISSEN1
100
AcDbLine
 10
-1271.184222376821
 20
1636.073527651525
 30
0.0
 11
-1298.584222376821
 21
1636.073527651525
 31
0.0
  0
LINE
  5
135E0
330
1A
100
AcDbEntity
  8
ZISSEN1
100
AcDbLine
 10
-1271.184222376821
 20
1629.273527651525
 30
0.0
 11
-1271.184222376821
 21
1636.073527651525
 31
0.0
  0
ARC
  5
135F2
330
1A
100
AcDbEntity
  8
ZISSEN1
100
AcDbCircle
 10
-1296.579354293395
 20
1642.573527651525
 30
0.0
 40
1.0
100
AcDbArc
 50
270.0
 51
0.0
  0
LINE
  5
135F3
330
1A
100
AcDbEntity
  8
出力ｷﾊ_ﾝ
100
AcDbLine
 10
-1296.579354293394
 20
1636.073527651525
 30
0.0
 11
-1305.579354293395
 21
1636.073527651525
 31
0.0
  0
LINE
  5
135F4
330
1A
100
AcDbEntity
  8
ZISSEN1
100
AcDbLine
 10
-1296.579354293394
 20
1641.573527651525
 30
0.0
 11
-1296.579354293394
 21
1636.073527651525
 31
0.0
  0
ARC
  5
135F7
330
1A
100
AcDbEntity
  8
出力ｷﾊ_ﾝ
100
AcDbCircle
 10
-1301.077253807949
 20
1639.573527651525
 30
0.0
 40
1.749999999999772
100
AcDbArc
 50
180.0
 51
0.0
  0
LINE
  5
135F8
330
1A
100
AcDbEntity
  8
CL1
100
AcDbLine
 10
-1299.327253807948
 20
1640.573527651525
 30
0.0
 11
-1302.827253807949
 21
1640.573527651525
 31
0.0
  0
LINE
  5
135F9
330
1A
100
AcDbEntity
  8
出力ｷﾊ_ﾝ
100
AcDbLine
 10
-1305.079354293395
 20
1643.073527651525
 30
0.0
 11
-1306.079354293395
 21
1642.073527651525
 31
0.0
  0
LINE
  5
135FA
330
1A
100
AcDbEntity
  8
ZISSEN1
100
AcDbLine
 10
-1302.827253807949
 20
1643.073527651525
 30
0.0
 11
-1305.079354293395
 21
1643.073527651525
 31
0.0
  0
LINE
  5
135FB
330
1A
100
AcDbEntity
  8
CL1
100
AcDbLine
 10
-1301.079354293395
 20
1642.573527651525
 30
0.0
 11
-1301.079354293395
 21
1637.573527651525
 31
0.0
  0
LINE
  5
135FC
330
1A
100
AcDbEntity
  8
出力ｷﾊ_ﾝ
100
AcDbLine
 10
-1302.827253807949
 20
1643.073527651525
 30
0.0
 11
-1302.827253807949
 21
1639.573527651525
 31
0.0
  0
LINE
  5
135FD
330
1A
100
AcDbEntity
  8
出力ｷﾊ_ﾝ
100
AcDbLine
 10
-1299.327253807948
 20
1643.073527651525
 30
0.0
 11
-1299.327253807948
 21
1639.573527651525
 31
0.0
  0
LINE
  5
135FE
330
1A
100
AcDbEntity
  8
ZISSEN1
100
AcDbLine
 10
-1234.579354293394
 20
1641.573527651525
 30
0.0
 11
-1234.579354293394
 21
1620.073527651525
 31
0.0
  0
LINE
  5
135FF
330
1A
100
AcDbEntity
  8
ZISSEN1
100
AcDbLine
 10
-1234.079354293394
 20
1642.073527651525
 30
0.0
 11
-1234.079354293394
 21
1618.573527651526
 31
0.0
  0
LINE
  5
13600
330
1A
100
AcDbEntity
  8
ZISSEN1
100
AcDbLine
 10
-1243.979354293395
 20
1620.073527651525
 30
0.0
 11
-1234.579354293394
 21
1620.073527651525
 31
0.0
  0
LINE
  5
1360C
330
1A
100
AcDbEntity
  8
出力ｷﾊ_ﾝ
100
AcDbLine
 10
-1242.663099775221
 20
1638.122866579486
 30
0.0
 11
-1242.663099775221
 21
1639.372866579486
 31
0.0
  0
LINE
  5
1360D
330
1A
100
AcDbEntity
  8
出力ｷﾊ_ﾝ
100
AcDbLine
 10
-1244.663099775221
 20
1639.372866579486
 30
0.0
 11
-1244.663099775221
 21
1638.122866579486
 31
0.0
  0
ARC
  5
13613
330
1A
100
AcDbEntity
  8
ZISSEN1
100
AcDbCircle
 10
-1234.579354293395
 20
1642.573527651525
 30
0.0
 40
1.0
100
AcDbArc
 50
180.0
 51
270.0
  0
LINE
  5
13614
330
1A
100
AcDbEntity
  8
出力ｷﾊ_ﾝ
100
AcDbLine
 10
-1242.663099775221
 20
1639.372866579486
 30
0.0
 11
-1244.663099775221
 21
1639.372866579486
 31
0.0
  0
LINE
  5
13615
330
1A
100
AcDbEntity
  8
出力ｷﾊ_ﾝ
100
AcDbLine
 10
-1244.663099775221
 20
1639.372866579486
 30
0.0
 11
-1243.663099775221
 21
1639.372866579486
 31
0.0
  0
LINE
  5
13617
330
1A
100
AcDbEntity
  8
出力ｷﾊ_ﾝ
100
AcDbLine
 10
-1244.663099775221
 20
1640.122866579486
 30
0.0
 11
-1244.663099775221
 21
1640.747866579486
 31
0.0
  0
LINE
  5
13618
330
1A
100
AcDbEntity
  8
出力ｷﾊ_ﾝ
100
AcDbLine
 10
-1242.663099775221
 20
1640.122866579486
 30
0.0
 11
-1242.963099775221
 21
1640.122866579486
 31
0.0
  0
LINE
  5
13619
330
1A
100
AcDbEntity
  8
出力ｷﾊ_ﾝ
100
AcDbLine
 10
-1244.663099775221
 20
1640.122866579486
 30
0.0
 11
-1244.363099775221
 21
1640.122866579486
 31
0.0
  0
LINE
  5
1361A
330
1A
100
AcDbEntity
  8
出力ｷﾊ_ﾝ
100
AcDbLine
 10
-1244.663099775221
 20
1640.122866579486
 30
0.0
 11
-1242.663099775221
 21
1640.122866579486
 31
0.0
  0
LINE
  5
1361B
330
1A
100
AcDbEntity
  8
出力ｷﾊ_ﾝ
100
AcDbLine
 10
-1244.663099775221
 20
1641.372866579486
 30
0.0
 11
-1243.663099775221
 21
1641.372866579486
 31
0.0
  0
LINE
  5
1361C
330
1A
100
AcDbEntity
  8
出力ｷﾊ_ﾝ
100
AcDbLine
 10
-1242.663099775221
 20
1641.372866579486
 30
0.0
 11
-1244.663099775221
 21
1641.372866579486
 31
0.0
  0
LINE
  5
13622
330
1A
100
AcDbEntity
  8
出力ｷﾊ_ﾝ
100
AcDbLine
 10
-1244.663099775221
 20
1641.372866579486
 30
0.0
 11
-1244.663099775221
 21
1640.122866579486
 31
0.0
  0
LINE
  5
13623
330
1A
100
AcDbEntity
  8
出力ｷﾊ_ﾝ
100
AcDbLine
 10
-1242.663099775221
 20
1640.122866579486
 30
0.0
 11
-1242.663099775221
 21
1641.372866579486
 31
0.0
  0
LINE
  5
13624
330
1A
100
AcDbEntity
  8
出力ｷﾊ_ﾝ
100
AcDbLine
 10
-1244.663099775221
 20
1638.122866579486
 30
0.0
 11
-1242.663099775221
 21
1638.122866579486
 31
0.0
  0
LINE
  5
13625
330
1A
100
AcDbEntity
  8
出力ｷﾊ_ﾝ
100
AcDbLine
 10
-1244.663099775221
 20
1638.122866579486
 30
0.0
 11
-1244.363099775221
 21
1638.122866579486
 31
0.0
  0
LINE
  5
13626
330
1A
100
AcDbEntity
  8
出力ｷﾊ_ﾝ
100
AcDbLine
 10
-1242.663099775221
 20
1638.122866579486
 30
0.0
 11
-1242.963099775221
 21
1638.122866579486
 31
0.0
  0
LINE
  5
13627
330
1A
100
AcDbEntity
  8
出力ｷﾊ_ﾝ
100
AcDbLine
 10
-1244.663099775221
 20
1638.122866579486
 30
0.0
 11
-1244.663099775221
 21
1638.747866579486
 31
0.0
  0
LINE
  5
1362D
330
1A
100
AcDbEntity
  8
ZISSEN1
100
AcDbLine
 10
-1235.079354293395
 20
1643.073527651525
 30
0.0
 11
-1234.079354293394
 21
1642.073527651525
 31
0.0
  0
LINE
  5
1362E
330
1A
100
AcDbEntity
  8
ZISSEN1
100
AcDbLine
 10
-1234.079354293394
 20
1618.573527651526
 30
0.0
 11
-1234.579354293394
 21
1618.573527651526
 31
0.0
  0
LINE
  5
1362F
330
1A
100
AcDbEntity
  8
ZISSEN1
 48
0.3
100
AcDbLine
 10
-1173.374016257343
 20
1617.573527651526
 30
0.0
 11
-1173.074016257342
 21
1617.573527651526
 31
0.0
  0
LINE
  5
13630
330
1A
100
AcDbEntity
  8
ZISSEN1
100
AcDbLine
 10
-1170.074016257343
 20
1618.573527651526
 30
0.0
 11
-1173.074016257342
 21
1618.573527651526
 31
0.0
  0
LINE
  5
13631
330
1A
100
AcDbEntity
  8
ZISSEN1
100
AcDbLine
 10
-1182.574016257343
 20
1620.073527651525
 30
0.0
 11
-1180.974016257342
 21
1620.073527651525
 31
0.0
  0
LINE
  5
13639
330
1A
100
AcDbEntity
  8
出力ｷﾊ_ﾝ
100
AcDbLine
 10
-1188.824016257342
 20
1643.073527651525
 30
0.0
 11
-1200.074016257342
 21
1643.073527651525
 31
0.0
  0
LINE
  5
1363D
330
1A
100
AcDbEntity
  8
ZISSEN1
100
AcDbLine
 10
-1202.074016257342
 20
1641.073527651525
 30
0.0
 11
-1200.074016257342
 21
1643.073527651525
 31
0.0
  0
LINE
  5
1363E
330
1A
100
AcDbEntity
  8
ZISSEN1
100
AcDbLine
 10
-1180.974016257343
 20
1642.573527651525
 30
0.0
 11
-1180.974016257342
 21
1620.073527651525
 31
0.0
  0
LINE
  5
1363F
330
1A
100
AcDbEntity
  8
ZISSEN1
100
AcDbLine
 10
-1182.574016257343
 20
1642.573527651525
 30
0.0
 11
-1182.574016257343
 21
1620.073527651525
 31
0.0
  0
LINE
  5
13643
330
1A
100
AcDbEntity
  8
CL1
100
AcDbLine
 10
-1185.326185203208
 20
1640.573527651525
 30
0.0
 11
-1188.826185203208
 21
1640.573527651525
 31
0.0
  0
ARC
  5
13644
330
1A
100
AcDbEntity
  8
出力ｷﾊ_ﾝ
100
AcDbCircle
 10
-1187.074016257342
 20
1639.573527651525
 30
0.0
 40
1.749999999999772
100
AcDbArc
 50
180.0
 51
0.0
  0
LINE
  5
13645
330
1A
100
AcDbEntity
  8
ZISSEN1
100
AcDbLine
 10
-1174.974016257343
 20
1634.373527651525
 30
0.0
 11
-1174.974016257343
 21
1631.773527651525
 31
0.0
  0
LINE
  5
13646
330
1A
100
AcDbEntity
  8
ZISSEN1
 48
0.3
100
AcDbLine
 10
-1180.974016257343
 20
1634.573527651525
 30
0.0
 11
-1180.974016257343
 21
1632.073527651525
 31
0.0
  0
LINE
  5
13647
330
1A
100
AcDbEntity
  8
ZISSEN1
 48
0.3
100
AcDbLine
 10
-1174.974016257343
 20
1642.573527651525
 30
0.0
 11
-1173.374016257343
 21
1642.573527651525
 31
0.0
  0
LINE
  5
13648
330
1A
100
AcDbEntity
  8
ZISSEN1
 48
0.3
100
AcDbLine
 10
-1180.974016257343
 20
1642.573527651525
 30
0.0
 11
-1182.574016257343
 21
1642.573527651525
 31
0.0
  0
LINE
  5
13649
330
1A
100
AcDbEntity
  8
出力ｷﾊ_ﾝ
100
AcDbLine
 10
-1185.324016257342
 20
1643.073527651525
 30
0.0
 11
-1175.074016257343
 21
1643.073527651525
 31
0.0
  0
LINE
  5
1364A
330
1A
100
AcDbEntity
  8
ZISSEN1
100
AcDbLine
 10
-1173.074016257343
 20
1642.073527651525
 30
0.0
 11
-1170.074016257343
 21
1642.073527651525
 31
0.0
  0
LINE
  5
1364B
330
1A
100
AcDbEntity
  8
ZISSEN1
100
AcDbLine
 10
-1173.074016257343
 20
1643.073527651525
 30
0.0
 11
-1170.074016257343
 21
1643.073527651525
 31
0.0
  0
LINE
  5
1364C
330
1A
100
AcDbEntity
  8
CL1
100
AcDbLine
 10
-1187.074016257342
 20
1638.073527651525
 30
0.0
 11
-1187.074016257342
 21
1643.073527651525
 31
0.0
  0
LINE
  5
1364D
330
1A
100
AcDbEntity
  8
出力ｷﾊ_ﾝ
100
AcDbLine
 10
-1188.824016257342
 20
1643.073527651525
 30
0.0
 11
-1188.824016257342
 21
1639.573527651525
 31
0.0
  0
LINE
  5
1364E
330
1A
100
AcDbEntity
  8
出力ｷﾊ_ﾝ
100
AcDbLine
 10
-1185.324016257342
 20
1643.073527651525
 30
0.0
 11
-1185.324016257342
 21
1639.573527651525
 31
0.0
  0
LINE
  5
1364F
330
1A
100
AcDbEntity
  8
ZISSEN1
100
AcDbLine
 10
-1175.074016257343
 20
1643.073527651525
 30
0.0
 11
-1173.074016257343
 21
1641.073527651525
 31
0.0
  0
LINE
  5
13650
330
1A
100
AcDbEntity
  8
ZISSEN1
100
AcDbLine
 10
-1170.074016257343
 20
1636.073527651525
 30
0.0
 11
-1170.074016257343
 21
1643.073527651525
 31
0.0
  0
LINE
  5
13651
330
1A
100
AcDbEntity
  8
ZISSEN1
100
AcDbLine
 10
-1173.074016257343
 20
1636.073527651525
 30
0.0
 11
-1173.074016257343
 21
1643.073527651525
 31
0.0
  0
LINE
  5
13654
330
1A
100
AcDbEntity
  8
ZISSEN1
100
AcDbLine
 10
-1180.974016257343
 20
1642.073527651525
 30
0.0
 11
-1174.974016257343
 21
1642.073527651525
 31
0.0
  0
LINE
  5
13655
330
1A
100
AcDbEntity
  8
ZISSEN1
 48
0.3
100
AcDbLine
 10
-1180.974016257343
 20
1637.073527651525
 30
0.0
 11
-1174.974016257343
 21
1637.073527651525
 31
0.0
  0
LINE
  5
13656
330
1A
100
AcDbEntity
  8
ZISSEN1
100
AcDbLine
 10
-1182.574016257343
 20
1620.073527651525
 30
0.0
 11
-1182.574016257343
 21
1618.073527651525
 31
0.0
  0
LINE
  5
13657
330
1A
100
AcDbEntity
  8
ZISSEN1
100
AcDbLine
 10
-1180.974016257342
 20
1620.073527651525
 30
0.0
 11
-1180.974016257342
 21
1618.073527651525
 31
0.0
  0
DIMENSION
  5
13658
330
1A
100
AcDbEntity
  8
SUNPOU
100
AcDbDimension
  2
*D12
 10
-1210.074188168253
 20
1640.573527651525
 30
0.0
 11
-1210.074188168253
 21
1653.573527651525
 31
0.0
 70
   160
  3
標準スタイル
100
AcDbAlignedDimension
 13
-1202.074016257342
 23
1643.073527651525
 33
0.0
 14
-1187.074016257342
 24
1640.573527651525
 34
0.0
 50
90.0
100
AcDbRotatedDimension
1001
ACAD
1000
DSTYLE
1002
{
1070
   340
1005
10
1070
    40
1040
1.0
1002
}
  0
DIMENSION
  5
13659
330
1A
100
AcDbEntity
  8
SUNPOU
100
AcDbDimension
  2
*D13
 10
-1185.324016257342
 20
1651.075058306153
 30
0.0
 11
-1174.824016257342
 21
1653.825058306153
 31
0.0
 70
    32
  3
標準スタイル
100
AcDbAlignedDimension
 13
-1188.824016257342
 23
1643.073527651525
 33
0.0
 14
-1185.324016257342
 24
1643.073527651525
 34
0.0
100
AcDbRotatedDimension
1001
ACAD
1000
DSTYLE
1002
{
1070
   340
1005
10
1070
    40
1040
1.0
1002
}
  0
LINE
  5
1365A
330
1A
100
AcDbEntity
  8
ZISSEN1
100
AcDbLine
 10
-1185.474016257342
 20
1618.073527651525
 30
0.0
 11
-1174.974016257342
 21
1618.073527651525
 31
0.0
  0
LINE
  5
13D85
330
1A
100
AcDbEntity
  8
ZISSEN1
100
AcDbLine
 10
-1271.184222376821
 20
1636.073527651525
 30
0.0
 11
-1298.584222376821
 21
1636.073527651525
 31
0.0
  0
LINE
  5
13D86
330
1A
100
AcDbEntity
  8
ZISSEN1
100
AcDbLine
 10
-1271.184222376821
 20
1628.473527651525
 30
0.0
 11
-1298.584222376821
 21
1628.473527651525
 31
0.0
  0
LINE
  5
13D87
330
1A
100
AcDbEntity
  8
ZISSEN1
100
AcDbLine
 10
-1298.584222376821
 20
1636.073527651525
 30
0.0
 11
-1271.184222376821
 21
1636.073527651525
 31
0.0
  0
LINE
  5
13D88
330
1A
100
AcDbEntity
  8
ZISSEN1
100
AcDbLine
 10
-1298.584222376821
 20
1636.073527651525
 30
0.0
 11
-1298.584222376821
 21
1629.273527651525
 31
0.0
  0
LINE
  5
13D89
330
1A
100
AcDbEntity
  8
ZISSEN1
100
AcDbLine
 10
-1298.584222376821
 20
1628.473527651525
 30
0.0
 11
-1298.584222376821
 21
1636.073527651525
 31
0.0
  0
LINE
  5
13D8A
330
1A
100
AcDbEntity
  8
ZISSEN1
100
AcDbLine
 10
-1271.184222376821
 20
1629.273527651525
 30
0.0
 11
-1271.184222376821
 21
1636.073527651525
 31
0.0
  0
LINE
  5
13D8B
330
1A
100
AcDbEntity
  8
ZISSEN1
100
AcDbLine
 10
-1271.184222376821
 20
1636.073527651525
 30
0.0
 11
-1271.184222376821
 21
1628.473527651525
 31
0.0
  0
LINE
  5
13D8C
330
1A
100
AcDbEntity
  8
ZISSEN1
100
AcDbLine
 10
-1271.184222376821
 20
1636.073527651525
 30
0.0
 11
-1271.184222376821
 21
1628.473527651525
 31
0.0
  0
LINE
  5
13D94
330
1A
100
AcDbEntity
  8
ZISSEN1
100
AcDbLine
 10
-1247.695698028245
 20
1629.073527651525
 30
0.0
 11
-1247.695698028245
 21
1636.573527651525
 31
0.0
  0
LINE
  5
13D95
330
1A
100
AcDbEntity
  8
ZISSEN1
100
AcDbLine
 10
-1254.145698028245
 20
1636.573527651525
 30
0.0
 11
-1254.145698028245
 21
1629.073527651525
 31
0.0
  0
LINE
  5
13D96
330
1A
100
AcDbEntity
  8
ZISSEN1
100
AcDbLine
 10
-1247.695698028245
 20
1636.573527651525
 30
0.0
 11
-1254.145698028245
 21
1636.573527651525
 31
0.0
  0
LINE
  5
13D97
330
1A
100
AcDbEntity
  8
ZISSEN1
100
AcDbLine
 10
-1254.145698028245
 20
1629.073527651525
 30
0.0
 11
-1247.695698028245
 21
1629.073527651525
 31
0.0
  0
LWPOLYLINE
  5
13D98
330
1A
100
AcDbEntity
  8
ZISSEN1
100
AcDbPolyline
 90
        4
 70
     1
 43
0.0
 10
-1243.180698028245
 20
1635.373527651525
 10
-1237.580698028245
 20
1635.373527651525
 10
-1237.580698028245
 20
1628.773527651525
 10
-1243.180698028245
 20
1628.773527651525
  0
LWPOLYLINE
  5
13D99
330
1A
100
AcDbEntity
  8
ZISSEN1
100
AcDbPolyline
 90
        4
 70
     1
 43
0.0
 10
-1243.180698028244
 20
1628.273527651526
 10
-1237.580698028244
 20
1628.273527651526
 10
-1237.580698028244
 20
1621.673527651525
 10
-1243.180698028244
 20
1621.673527651525
  0
LINE
  5
13D9B
330
1A
100
AcDbEntity
  8
出力ｷﾊ_ﾝ
100
AcDbLine
 10
-1182.574016257343
 20
1640.122866579486
 30
0.0
 11
-1182.874016257342
 21
1640.122866579486
 31
0.0
  0
LINE
  5
13D9C
330
1A
100
AcDbEntity
  8
出力ｷﾊ_ﾝ
100
AcDbLine
 10
-1182.574016257343
 20
1640.122866579486
 30
0.0
 11
-1182.574016257343
 21
1641.372866579486
 31
0.0
  0
LINE
  5
13D9D
330
1A
100
AcDbEntity
  8
出力ｷﾊ_ﾝ
100
AcDbLine
 10
-1183.674016257343
 20
1641.372866579486
 30
0.0
 11
-1183.674016257343
 21
1640.122866579486
 31
0.0
  0
LINE
  5
13D9E
330
1A
100
AcDbEntity
  8
出力ｷﾊ_ﾝ
100
AcDbLine
 10
-1183.674016257343
 20
1640.122866579486
 30
0.0
 11
-1182.574016257343
 21
1640.122866579486
 31
0.0
  0
LINE
  5
13D9F
330
1A
100
AcDbEntity
  8
出力ｷﾊ_ﾝ
100
AcDbLine
 10
-1182.574016257343
 20
1641.372866579486
 30
0.0
 11
-1183.674016257343
 21
1641.372866579486
 31
0.0
  0
LINE
  5
13DA0
330
1A
100
AcDbEntity
  8
出力ｷﾊ_ﾝ
100
AcDbLine
 10
-1182.574016257343
 20
1638.122866579486
 30
0.0
 11
-1182.574016257343
 21
1639.372866579486
 31
0.0
  0
LINE
  5
13DA1
330
1A
100
AcDbEntity
  8
出力ｷﾊ_ﾝ
100
AcDbLine
 10
-1182.574016257343
 20
1638.122866579486
 30
0.0
 11
-1182.874016257342
 21
1638.122866579486
 31
0.0
  0
LINE
  5
13DA2
330
1A
100
AcDbEntity
  8
出力ｷﾊ_ﾝ
100
AcDbLine
 10
-1183.674016257343
 20
1639.372866579486
 30
0.0
 11
-1183.674016257343
 21
1638.747866579486
 31
0.0
  0
LINE
  5
13DA3
330
1A
100
AcDbEntity
  8
出力ｷﾊ_ﾝ
100
AcDbLine
 10
-1183.674016257343
 20
1638.122866579486
 30
0.0
 11
-1183.674016257343
 21
1638.747866579486
 31
0.0
  0
LINE
  5
13DA4
330
1A
100
AcDbEntity
  8
出力ｷﾊ_ﾝ
100
AcDbLine
 10
-1182.574016257343
 20
1639.372866579486
 30
0.0
 11
-1183.674016257343
 21
1639.372866579486
 31
0.0
  0
LINE
  5
13DA5
330
1A
100
AcDbEntity
  8
出力ｷﾊ_ﾝ
100
AcDbLine
 10
-1183.674016257343
 20
1638.122866579486
 30
0.0
 11
-1182.574016257343
 21
1638.122866579486
 31
0.0
  0
LINE
  5
13DB9
330
1A
100
AcDbEntity
  8
出力ｷﾊ_ﾝ
100
AcDbLine
 10
-1244.663099775221
 20
1641.372866579486
 30
0.0
 11
-1243.663099775221
 21
1641.372866579486
 31
0.0
  0
LINE
  5
13DBE
330
1A
100
AcDbEntity
  8
出力ｷﾊ_ﾝ
100
AcDbLine
 10
-1244.663099775221
 20
1638.122866579486
 30
0.0
 11
-1244.663099775221
 21
1638.747866579486
 31
0.0
  0
LINE
  5
13DBF
330
1A
100
AcDbEntity
  8
出力ｷﾊ_ﾝ
100
AcDbLine
 10
-1242.663099775221
 20
1638.122866579486
 30
0.0
 11
-1242.963099775221
 21
1638.122866579486
 31
0.0
  0
LINE
  5
13DC0
330
1A
100
AcDbEntity
  8
出力ｷﾊ_ﾝ
100
AcDbLine
 10
-1244.663099775221
 20
1638.122866579486
 30
0.0
 11
-1244.363099775221
 21
1638.122866579486
 31
0.0
  0
LINE
  5
13DC2
330
1A
100
AcDbEntity
  8
出力ｷﾊ_ﾝ
100
AcDbLine
 10
-1244.663099775221
 20
1639.372866579486
 30
0.0
 11
-1243.663099775221
 21
1639.372866579486
 31
0.0
  0
LINE
  5
13DD4
330
1A
100
AcDbEntity
  8
ZISSEN1
100
AcDbLine
 10
-1190.074016257343
 20
1629.073527651525
 30
0.0
 11
-1185.074016257343
 21
1629.073527651525
 31
0.0
  0
LINE
  5
13DD5
330
1A
100
AcDbEntity
  8
ZISSEN1
100
AcDbLine
 10
-1194.074016257343
 20
1628.473527651525
 30
0.0
 11
-1182.574016257343
 21
1628.473527651525
 31
0.0
  0
LINE
  5
13DD6
330
1A
100
AcDbEntity
  8
ZISSEN1
100
AcDbLine
 10
-1182.574016257343
 20
1636.573527651525
 30
0.0
 11
-1190.074016257343
 21
1636.573527651525
 31
0.0
  0
LINE
  5
13DD7
330
1A
100
AcDbEntity
  8
ZISSEN1
100
AcDbLine
 10
-1194.074016257343
 20
1636.073527651525
 30
0.0
 11
-1194.074016257343
 21
1628.473527651525
 31
0.0
  0
LINE
  5
13DD8
330
1A
100
AcDbEntity
  8
ZISSEN1
100
AcDbLine
 10
-1194.074016257343
 20
1636.073527651525
 30
0.0
 11
-1194.074016257343
 21
1629.273527651525
 31
0.0
  0
LINE
  5
13DD9
330
1A
100
AcDbEntity
  8
ZISSEN1
100
AcDbLine
 10
-1194.074016257343
 20
1636.073527651525
 30
0.0
 11
-1194.074016257343
 21
1634.573527651525
 31
0.0
  0
LINE
  5
13DDA
330
1A
100
AcDbEntity
  8
ZISSEN1
100
AcDbLine
 10
-1194.074016257343
 20
1628.473527651525
 30
0.0
 11
-1193.074016257343
 21
1628.473527651525
 31
0.0
  0
LINE
  5
13DDB
330
1A
100
AcDbEntity
  8
ZISSEN1
100
AcDbLine
 10
-1190.074016257343
 20
1636.573527651525
 30
0.0
 11
-1190.074016257343
 21
1629.073527651525
 31
0.0
  0
LINE
  5
13DDC
330
1A
100
AcDbEntity
  8
ZISSEN1
100
AcDbLine
 10
-1190.074016257343
 20
1636.073527651525
 30
0.0
 11
-1194.074016257343
 21
1636.073527651525
 31
0.0
  0
LINE
  5
13DDD
330
1A
100
AcDbEntity
  8
ZISSEN1
100
AcDbLine
 10
-1185.074016257343
 20
1635.373527651525
 30
0.0
 11
-1185.074016257343
 21
1628.773527651525
 31
0.0
  0
LINE
  5
13DDE
330
1A
100
AcDbEntity
  8
ZISSEN1
100
AcDbLine
 10
-1182.574016257343
 20
1635.373527651525
 30
0.0
 11
-1185.074016257343
 21
1635.373527651525
 31
0.0
  0
LINE
  5
13DDF
330
1A
100
AcDbEntity
  8
ZISSEN1
100
AcDbLine
 10
-1185.074016257343
 20
1628.773527651525
 30
0.0
 11
-1182.574016257343
 21
1628.773527651525
 31
0.0
  0
LINE
  5
13DE8
330
1A
100
AcDbEntity
  8
ZISSEN1
100
AcDbLine
 10
-1182.574016257343
 20
1628.273527651526
 30
0.0
 11
-1185.074016257342
 21
1628.273527651526
 31
0.0
  0
LINE
  5
13DE9
330
1A
100
AcDbEntity
  8
ZISSEN1
100
AcDbLine
 10
-1185.074016257342
 20
1621.673527651526
 30
0.0
 11
-1182.574016257343
 21
1621.673527651526
 31
0.0
  0
LINE
  5
13DEA
330
1A
100
AcDbEntity
  8
ZISSEN1
100
AcDbLine
 10
-1185.074016257342
 20
1628.273527651526
 30
0.0
 11
-1185.074016257342
 21
1621.673527651526
 31
0.0
  0
LINE
  5
13DF7
330
1A
100
AcDbEntity
  8
ZISSEN1
100
AcDbLine
 10
-1243.479354293394
 20
1618.073527651526
 30
0.0
 11
-1243.479354293394
 21
1601.973527651525
 31
0.0
  0
LINE
  5
13DF8
330
1A
100
AcDbEntity
  8
ZISSEN1
100
AcDbLine
 10
-1234.079354293394
 20
1618.073527651526
 30
0.0
 11
-1234.079354293394
 21
1601.973527651525
 31
0.0
  0
LINE
  5
13DFA
330
1A
100
AcDbEntity
  8
ZISSEN1
100
AcDbLine
 10
-1235.879354293395
 20
1601.973527651525
 30
0.0
 11
-1243.479354293394
 21
1601.973527651525
 31
0.0
  0
LINE
  5
13DFB
330
1A
100
AcDbEntity
  8
ZISSEN1
100
AcDbLine
 10
-1234.079354293394
 20
1601.973527651525
 30
0.0
 11
-1243.479354293394
 21
1601.973527651525
 31
0.0
  0
LINE
  5
13DFD
330
1A
100
AcDbEntity
  8
ZISSEN1
100
AcDbLine
 10
-1243.479354293394
 20
1618.073527651526
 30
0.0
 11
-1234.079354293394
 21
1618.073527651526
 31
0.0
  0
LINE
  5
13E01
330
1A
100
AcDbEntity
  8
ZISSEN1
100
AcDbLine
 10
-1191.474016257343
 20
1618.073527651526
 30
0.0
 11
-1191.474016257343
 21
1601.973527651525
 31
0.0
  0
LINE
  5
13E02
330
1A
100
AcDbEntity
  8
ZISSEN1
100
AcDbLine
 10
-1174.974016257342
 20
1618.073527651525
 30
0.0
 11
-1191.474016257343
 21
1618.073527651526
 31
0.0
  0
LINE
  5
13E04
330
1A
100
AcDbEntity
  8
ZISSEN1
100
AcDbLine
 10
-1234.579354293394
 20
1620.073527651525
 30
0.0
 11
-1234.579354293394
 21
1618.073527651526
 31
0.0
  0
LINE
  5
13E13
330
1A
100
AcDbEntity
  8
ZISSEN1
100
AcDbLine
 10
-1182.574016257343
 20
1592.073527651525
 30
0.0
 11
-1192.074016257343
 21
1592.073527651525
 31
0.0
  0
LINE
  5
13E14
330
1A
100
AcDbEntity
  8
ZISSEN1
100
AcDbLine
 10
-1182.574016257343
 20
1592.073527651525
 30
0.0
 11
-1190.824016257343
 21
1592.073527651525
 31
0.0
  0
LINE
  5
13E15
330
1A
100
AcDbEntity
  8
ZISSEN1
100
AcDbLine
 10
-1182.574016257343
 20
1592.073527651525
 30
0.0
 11
-1190.824016257343
 21
1592.073527651525
 31
0.0
  0
LINE
  5
13E16
330
1A
100
AcDbEntity
  8
ZISSEN1
100
AcDbLine
 10
-1182.574016257343
 20
1592.073527651525
 30
0.0
 11
-1193.074016257342
 21
1592.073527651525
 31
0.0
  0
LINE
  5
13E17
330
1A
100
AcDbEntity
  8
ZISSEN1
100
AcDbLine
 10
-1193.074016257342
 20
1601.173527651525
 30
0.0
 11
-1182.574016257342
 21
1601.173527651525
 31
0.0
  0
LINE
  5
13E18
330
1A
100
AcDbEntity
  8
ZISSEN1
100
AcDbLine
 10
-1182.574016257343
 20
1601.173527651525
 30
0.0
 11
-1199.074016257343
 21
1601.173527651525
 31
0.0
  0
LINE
  5
13E19
330
1A
100
AcDbEntity
  8
ZISSEN1
100
AcDbLine
 10
-1199.074016257343
 20
1592.073527651525
 30
0.0
 11
-1182.574016257343
 21
1592.073527651525
 31
0.0
  0
LINE
  5
13E1A
330
1A
100
AcDbEntity
  8
ZISSEN1
100
AcDbLine
 10
-1199.074016257343
 20
1601.173527651525
 30
0.0
 11
-1199.074016257343
 21
1592.073527651525
 31
0.0
  0
LINE
  5
13E1B
330
1A
100
AcDbEntity
  8
ZISSEN1
100
AcDbLine
 10
-1182.574016257343
 20
1592.073527651525
 30
0.0
 11
-1180.974016257343
 21
1592.073527651525
 31
0.0
  0
LINE
  5
13E1C
330
1A
100
AcDbEntity
  8
ZISSEN1
100
AcDbLine
 10
-1182.574016257343
 20
1599.473527651525
 30
0.0
 11
-1182.574016257343
 21
1598.473527651525
 31
0.0
  0
LINE
  5
13E1D
330
1A
100
AcDbEntity
  8
ZISSEN1
100
AcDbLine
 10
-1182.574016257343
 20
1601.173527651525
 30
0.0
 11
-1180.974016257343
 21
1601.173527651526
 31
0.0
  0
LINE
  5
13E1E
330
1A
100
AcDbEntity
  8
ZISSEN1
100
AcDbLine
 10
-1182.574016257343
 20
1592.073527651525
 30
0.0
 11
-1182.574016257343
 21
1599.473527651525
 31
0.0
  0
LINE
  5
13E1F
330
1A
100
AcDbEntity
  8
ZISSEN1
100
AcDbLine
 10
-1182.574016257342
 20
1601.173527651525
 30
0.0
 11
-1182.574016257342
 21
1592.073527651525
 31
0.0
  0
LINE
  5
13E21
330
1A
100
AcDbEntity
  8
ZISSEN1
100
AcDbLine
 10
-1240.959354293394
 20
1592.073527651525
 30
0.0
 11
-1248.559354293394
 21
1592.073527651525
 31
0.0
  0
LINE
  5
13E22
330
1A
100
AcDbEntity
  8
ZISSEN1
100
AcDbLine
 10
-1248.559354293394
 20
1601.173527651525
 30
0.0
 11
-1240.959354293394
 21
1601.173527651525
 31
0.0
  0
LINE
  5
13E23
330
1A
100
AcDbEntity
  8
ZISSEN1
100
AcDbLine
 10
-1239.159354293394
 20
1592.073527651525
 30
0.0
 11
-1248.559354293394
 21
1592.073527651525
 31
0.0
  0
LINE
  5
13E24
330
1A
100
AcDbEntity
  8
ZISSEN1
100
AcDbLine
 10
-1248.559354293394
 20
1601.173527651525
 30
0.0
 11
-1239.159354293394
 21
1601.173527651525
 31
0.0
  0
LINE
  5
13E25
330
1A
100
AcDbEntity
  8
ZISSEN1
100
AcDbLine
 10
-1248.559354293394
 20
1601.173527651525
 30
0.0
 11
-1248.559354293394
 21
1592.073527651525
 31
0.0
  0
LINE
  5
13E26
330
1A
100
AcDbEntity
  8
ZISSEN1
100
AcDbLine
 10
-1248.559354293394
 20
1592.073527651525
 30
0.0
 11
-1248.559354293394
 21
1601.173527651525
 31
0.0
  0
LINE
  5
13E27
330
1A
100
AcDbEntity
  8
ZISSEN1
100
AcDbLine
 10
-1239.159354293394
 20
1601.173527651525
 30
0.0
 11
-1239.159354293394
 21
1592.073527651525
 31
0.0
  0
LINE
  5
13E2F
330
1A
100
AcDbEntity
  8
ZISSEN1
100
AcDbLine
 10
-1248.559354293394
 20
1555.072378983439
 30
0.0
 11
-1248.559354293394
 21
1553.272378983439
 31
0.0
  0
LINE
  5
13E30
330
1A
100
AcDbEntity
  8
ZISSEN1
100
AcDbLine
 10
-1241.609422209235
 20
1555.07238914943
 30
0.0
 11
-1247.909422209235
 21
1555.072378983439
 31
0.0
  0
LINE
  5
13E31
330
1A
100
AcDbEntity
  8
ZISSEN1
100
AcDbLine
 10
-1248.559354293393
 20
1555.072378983439
 30
0.0
 11
-1239.159354293393
 21
1555.072378983439
 31
0.0
  0
LINE
  5
13E32
330
1A
100
AcDbEntity
  8
ZISSEN1
100
AcDbLine
 10
-1247.909422209235
 20
1555.072378983439
 30
0.0
 11
-1248.559354293394
 21
1555.072378983439
 31
0.0
  0
LINE
  5
13E34
330
1A
100
AcDbEntity
  8
ZISSEN1
100
AcDbLine
 10
-1248.559354293394
 20
1546.073527651525
 30
0.0
 11
-1254.145698028245
 21
1546.073527651525
 31
0.0
  0
LINE
  5
13E35
330
1A
100
AcDbEntity
  8
ZISSEN1
100
AcDbLine
 10
-1248.559354293394
 20
1549.073527651525
 30
0.0
 11
-1248.559354293393
 21
1538.573527651525
 31
0.0
  0
LINE
  5
13E37
330
1A
100
AcDbEntity
  8
ZISSEN1
100
AcDbLine
 10
-1254.145698028245
 20
1546.073527651525
 30
0.0
 11
-1254.145698028245
 21
1538.573527651525
 31
0.0
  0
LINE
  5
13E38
330
1A
100
AcDbEntity
  8
ZISSEN1
100
AcDbLine
 10
-1248.559354293393
 20
1538.573527651525
 30
0.0
 11
-1248.559354293393
 21
1555.072378983439
 31
0.0
  0
LINE
  5
13E39
330
1A
100
AcDbEntity
  8
ZISSEN1
100
AcDbLine
 10
-1239.159422209235
 20
1554.572378983439
 30
0.0
 11
-1239.159422209235
 21
1553.072378983439
 31
0.0
  0
LINE
  5
13E3A
330
1A
100
AcDbEntity
  8
ZISSEN1
100
AcDbLine
 10
-1234.079354293394
 20
1547.473527651525
 30
0.0
 11
-1239.159354293393
 21
1547.473527651525
 31
0.0
  0
LINE
  5
13E3B
330
1A
100
AcDbEntity
  8
ZISSEN1
 48
0.4
100
AcDbLine
 10
-1237.579354293394
 20
1538.572378983438
 30
0.0
 11
-1240.329354293394
 21
1538.572378983438
 31
0.0
  0
LINE
  5
13E3C
330
1A
100
AcDbEntity
  8
ZISSEN1
100
AcDbLine
 10
-1239.159354293393
 20
1555.072378983439
 30
0.0
 11
-1239.159354293393
 21
1538.573527651525
 31
0.0
  0
LINE
  5
13E3D
330
1A
100
AcDbEntity
  8
ZISSEN1
100
AcDbLine
 10
-1234.079354293394
 20
1538.573527651525
 30
0.0
 11
-1234.079354293394
 21
1547.473527651525
 31
0.0
  0
LINE
  5
13E3E
330
1A
100
AcDbEntity
  8
ZISSEN1
100
AcDbLine
 10
-1234.079354293394
 20
1530.973527651525
 30
0.0
 11
-1234.079354293394
 21
1538.573527651525
 31
0.0
  0
LINE
  5
13E3F
330
1A
100
AcDbEntity
  8
ZISSEN1
100
AcDbLine
 10
-1234.079354293394
 20
1530.973527651525
 30
0.0
 11
-1234.579354293394
 21
1530.973527651525
 31
0.0
  0
DIMENSION
  5
13F96
330
1A
100
AcDbEntity
  8
SUNPOU
100
AcDbDimension
  2
*D14
 10
-1239.079354293395
 20
1577.071154041053
 30
0.0
 11
-1270.079354293395
 21
1579.821154041053
 31
0.0
 70
    32
  3
標準スタイル
100
AcDbAlignedDimension
 13
-1301.079354293395
 23
1640.573527651525
 33
0.0
 14
-1239.079354293395
 24
1587.573527651525
 34
0.0
100
AcDbRotatedDimension
1001
ACAD
1000
DSTYLE
1002
{
1070
   340
1005
10
1070
    40
1040
1.0
1002
}
  0
LINE
  5
13FB7
330
1A
100
AcDbEntity
  8
CL1
100
AcDbLine
 10
-1305.712324001206
 20
1587.573527651525
 30
0.0
 11
-1309.566178699351
 21
1587.573527651525
 31
0.0
  0
LINE
  5
13FB8
330
1A
100
AcDbEntity
  8
CL1
100
AcDbLine
 10
-1305.712324001206
 20
1640.573527651525
 30
0.0
 11
-1309.566178699351
 21
1640.573527651525
 31
0.0
  0
LINE
  5
13FC1
330
1A
100
AcDbEntity
  8
CL1
100
AcDbLine
 10
-1310.179354293395
 20
1543.073527651525
 30
0.0
 11
-1304.967580858023
 21
1543.073527651525
 31
0.0
  0
LINE
  5
13FC2
330
1A
100
AcDbEntity
  8
CL1
100
AcDbLine
 10
-1239.079354293395
 20
1530.001774610018
 30
0.0
 11
-1239.079354293395
 21
1524.875691413915
 31
0.0
  0
LINE
  5
14045
330
1A
100
AcDbEntity
  8
ZISSEN1
100
AcDbLine
 10
-1300.079354293395
 20
1536.973527651525
 30
0.0
 11
-1300.079354293395
 21
1530.973527651525
 31
0.0
  0
LINE
  5
14046
330
1A
100
AcDbEntity
  8
ZISSEN1
100
AcDbLine
 10
-1305.079354293395
 20
1536.973527651525
 30
0.0
 11
-1305.079354293395
 21
1530.973527651525
 31
0.0
  0
VIEWPORT
  5
5D8F
330
5D8E
100
AcDbEntity
 67
     1
  8
0
100
AcDbViewport
 10
279.2941682835933
 20
157.6993180808601
 30
0.0
 40
688.9841201495081
 41
314.237268371582
 68
     1
 69
     1
1001
ACAD
1000
MVIEW
1002
{
1070
    16
1010
0.0
1020
0.0
1030
0.0
1010
0.0
1020
0.0
1030
1.0
1040
0.0
1040
314.237268371582
1040
279.2941682835933
1040
157.6993180808601
1040
50.0
1040
0.0
1040
0.0
1070
     0
1070
   100
1070
     1
1070
     0
1070
     0
1070
     0
1070
     0
1070
     0
1040
0.0
1040
0.0
1040
0.0
1040
1.0
1040
1.0
1040
10.0
1040
10.0
1070
     0
1002
{
1002
}
1002
}
  0
VIEWPORT
  5
6001
330
5D8E
100
AcDbEntity
 67
     1
  8
ZISSEN1
100
AcDbViewport
 10
221.7861955525412
 20
157.6960273330388
 30
0.0
 40
385.4999999999997
 41
259.9999999999999
 68
     2
 69
     2
1001
ACAD
1000
MVIEW
1002
{
1070
    16
1010
0.0
1020
0.0
1030
0.0
1010
0.0
1020
0.0
1030
1.0
1040
0.0
1040
259.9999999999999
1040
-1231.510439572765
1040
1597.522664279137
1040
50.0
1040
0.0
1040
0.0
1070
     0
1070
   100
1070
     1
1070
     0
1070
     0
1070
     0
1070
     0
1070
     0
1040
0.0
1040
0.0
1040
0.0
1040
1.0
1040
1.0
1040
10.0
1040
10.0
1070
     0
1002
{
1002
}
1002
}
  0
TEXT
  5
716F
330
5D8E
100
AcDbEntity
 67
     1
  8
SUNPOU
 62
     0
100
AcDbText
 10
374.1863124306944
 20
60.86794705907585
 30
0.0
 40
3.5
  1
縮尺 1/1
  7
ゴシック体
100
AcDbText
  0
ENDSEC
  0
SECTION
  2
OBJECTS
  0
DICTIONARY
  5
C
330
0
100
AcDbDictionary
  3
ACAD_GROUP
350
D
  3
ACAD_LAYOUT
350
5C7D
  3
ACAD_MLINESTYLE
350
E
  3
ACAD_PLOTSETTINGS
350
5C7E
  3
ACAD_PLOTSTYLENAME
350
5C7B
  3
DWGPROPS
350
12861
  3
ACDBVARIABLEDICTIONARY
350
14053
  3
ACDBHEADERROUNDTRIPXREC
350
14055
  0
DICTIONARY
  5
14075
330
1A
100
AcDbDictionary
280
     1
  3
ACAD_LAYOUTSELFREF
360
14076
  0
DICTIONARY
  5
14077
330
5D8E
100
AcDbDictionary
280
     1
  3
ACAD_LAYOUTSELFREF
360
14078
  0
DICTIONARY
  5
D
102
{ACAD_REACTORS
330
C
102
}
330
C
100
AcDbDictionary
  3
*A1
350
477D
  3
*A2
350
4780
  3
*A3
350
4781
  3
*A4
350
4C0E
  3
*A5
350
4C0F
  3
*A6
350
13E2E
  3
*A7
350
4C10
  3
*A8
350
4C11
  3
*A9
350
4C12
  3
*A10
350
4C13
  3
*A11
350
4C14
  3
*A12
350
4C15
  3
*A13
350
4C16
  3
*A14
350
4C17
  3
*A15
350
477E
  3
*A16
350
477F
  0
DICTIONARY
  5
5C7D
102
{ACAD_REACTORS
330
C
102
}
330
C
100
AcDbDictionary
  0
DICTIONARY
  5
E
102
{ACAD_REACTORS
330
C
102
}
330
C
100
AcDbDictionary
  3
STANDARD
350
13
  0
DICTIONARY
  5
5C7E
102
{ACAD_REACTORS
330
C
102
}
330
C
100
AcDbDictionary
  0
ACDBDICTIONARYWDFLT
  5
5C7B
102
{ACAD_REACTORS
330
C
102
}
330
C
100
AcDbDictionary
281
     1
  3
Normal
350
5C7C
100
AcDbDictionaryWithDefault
340
5C7C
  0
XRECORD
  5
12861
102
{ACAD_REACTORS
330
C
102
}
330
C
100
AcDbXrecord
  1
DWGPROPS COOKIE
  2

  3

  4

  6

  7

  8

  9

300
=
301
=
302
=
303
=
304
=
305
=
306
=
307
=
308
=
309
=
 40
1.583646701388888
 41
2450495.493631365
 42
2455325.72058449
  1

 90
        0
  0
DICTIONARY
  5
14053
102
{ACAD_REACTORS
330
C
102
}
330
C
100
AcDbDictionary
  3
INDEXCTL
350
14054
  0
DICTIONARY
  5
14055
102
{ACAD_REACTORS
330
C
102
}
330
C
100
AcDbDictionary
  3
TSTACKALIGN
350
14056
  3
TSTACKSIZE
350
14057
  3
HYPERLINKBASE
350
14058
  3
STYLESHEET
350
14059
  3
LAYOUTDICT
350
1405A
  3
PLOTSETDICT
350
1405B
  3
PLOTSTYLNAMDICT
350
1405C
  3
LWETCUNION
350
1405D
  3
INSUNITS
350
1405E
  3
CEPSNTYPE
350
1405F
  3
FINGERPRINTGUID
350
14060
  3
VERSIONGUID
350
14061
  3
PSVPSCALE
350
14062
  3
PUCSORTHOREF
350
14063
  3
PUCSORTHOVIEW
350
14064
  3
PUCSBASE
350
14065
  3
PUCSORGTOP
350
14066
  3
PUCSORGBOTTOM
350
14067
  3
PUCSORGLEFT
350
14068
  3
PUCSORGRIGHT
350
14069
  3
PUCSORGFRONT
350
1406A
  3
PUCSORGBACK
350
1406B
  3
UCSORTHOREF
350
1406C
  3
UCSORTHOVIEW
350
1406D
  3
UCSBASE
350
1406E
  3
UCSORGTOP
350
1406F
  3
UCSORGBOTTOM
350
14070
  3
UCSORGLEFT
350
14071
  3
UCSORGRIGHT
350
14072
  3
UCSORGFRONT
350
14073
  3
UCSORGBACK
350
14074
  0
XRECORD
  5
14076
102
{ACAD_REACTORS
330
14075
102
}
330
14075
100
AcDbXrecord
340
1A
  0
XRECORD
  5
14078
102
{ACAD_REACTORS
330
14077
102
}
330
14077
100
AcDbXrecord
340
5D8E
  0
GROUP
  5
477D
102
{ACAD_REACTORS
330
D
102
}
330
D
100
AcDbGroup
300

 70
     1
 71
     1
  0
GROUP
  5
4780
102
{ACAD_REACTORS
330
D
102
}
330
D
100
AcDbGroup
300

 70
     1
 71
     1
  0
GROUP
  5
4781
102
{ACAD_REACTORS
330
D
102
}
330
D
100
AcDbGroup
300

 70
     1
 71
     1
  0
GROUP
  5
4C0E
102
{ACAD_REACTORS
330
D
102
}
330
D
100
AcDbGroup
300

 70
     1
 71
     1
  0
GROUP
  5
4C0F
102
{ACAD_REACTORS
330
D
102
}
330
D
100
AcDbGroup
300

 70
     1
 71
     1
  0
GROUP
  5
13E2E
102
{ACAD_REACTORS
330
D
102
}
330
D
100
AcDbGroup
300

 70
     1
 71
     1
  0
GROUP
  5
4C10
102
{ACAD_REACTORS
330
D
102
}
330
D
100
AcDbGroup
300

 70
     1
 71
     1
  0
GROUP
  5
4C11
102
{ACAD_REACTORS
330
D
102
}
330
D
100
AcDbGroup
300

 70
     1
 71
     1
  0
GROUP
  5
4C12
102
{ACAD_REACTORS
330
D
102
}
330
D
100
AcDbGroup
300

 70
     1
 71
     1
  0
GROUP
  5
4C13
102
{ACAD_REACTORS
330
D
102
}
330
D
100
AcDbGroup
300

 70
     1
 71
     1
  0
GROUP
  5
4C14
102
{ACAD_REACTORS
330
D
102
}
330
D
100
AcDbGroup
300

 70
     1
 71
     1
  0
GROUP
  5
4C15
102
{ACAD_REACTORS
330
D
102
}
330
D
100
AcDbGroup
300

 70
     1
 71
     1
  0
GROUP
  5
4C16
102
{ACAD_REACTORS
330
D
102
}
330
D
100
AcDbGroup
300

 70
     1
 71
     1
  0
GROUP
  5
4C17
102
{ACAD_REACTORS
330
D
102
}
330
D
100
AcDbGroup
300

 70
     1
 71
     1
  0
GROUP
  5
477E
102
{ACAD_REACTORS
330
D
102
}
330
D
100
AcDbGroup
300

 70
     1
 71
     1
  0
GROUP
  5
477F
102
{ACAD_REACTORS
330
D
102
}
330
D
100
AcDbGroup
300

 70
     1
 71
     1
  0
MLINESTYLE
  5
13
102
{ACAD_REACTORS
330
E
102
}
330
E
100
AcDbMlineStyle
  2
STANDARD
 70
     0
  3

 62
     0
 51
90.0
 52
90.0
 71
     2
 49
0.5
 62
   256
  6
BYLAYER
 49
-0.5
 62
   256
  6
BYLAYER
  0
ACDBPLACEHOLDER
  5
5C7C
102
{ACAD_REACTORS
330
5C7B
102
}
330
5C7B
100
AcDbPlaceHolder
280
     0
  0
DICTIONARYVAR
  5
14054
102
{ACAD_REACTORS
330
14053
102
}
330
14053
100
DictionaryVariables
280
     0
  1
-1
  0
XRECORD
  5
14056
102
{ACAD_REACTORS
330
14055
102
}
330
14055
100
AcDbXrecord
 90
        1
  0
XRECORD
  5
14057
102
{ACAD_REACTORS
330
14055
102
}
330
14055
100
AcDbXrecord
 90
       70
  0
XRECORD
  5
14058
102
{ACAD_REACTORS
330
14055
102
}
330
14055
100
AcDbXrecord
  1

  0
XRECORD
  5
14059
102
{ACAD_REACTORS
330
14055
102
}
330
14055
100
AcDbXrecord
  1

  0
XRECORD
  5
1405A
102
{ACAD_REACTORS
330
14055
102
}
330
14055
100
AcDbXrecord
340
5C7D
  0
XRECORD
  5
1405B
102
{ACAD_REACTORS
330
14055
102
}
330
14055
100
AcDbXrecord
340
5C7E
  0
XRECORD
  5
1405C
102
{ACAD_REACTORS
330
14055
102
}
330
14055
100
AcDbXrecord
340
5C7B
  0
XRECORD
  5
1405D
102
{ACAD_REACTORS
330
14055
102
}
330
14055
100
AcDbXrecord
 90
    10781
  0
XRECORD
  5
1405E
102
{ACAD_REACTORS
330
14055
102
}
330
14055
100
AcDbXrecord
 90
        0
  0
XRECORD
  5
1405F
102
{ACAD_REACTORS
330
14055
102
}
330
14055
100
AcDbXrecord
 90
        0
  0
XRECORD
  5
14060
102
{ACAD_REACTORS
330
14055
102
}
330
14055
100
AcDbXrecord
  1
{225A7F0D-DA29-11D8-946A-0000E2416295}
  0
XRECORD
  5
14061
102
{ACAD_REACTORS
330
14055
102
}
330
14055
100
AcDbXrecord
  1
{C59F04B2-A430-4DF3-A883-924F44246291}
  0
XRECORD
  5
14062
102
{ACAD_REACTORS
330
14055
102
}
330
14055
100
AcDbXrecord
 40
0.0
  0
XRECORD
  5
14063
102
{ACAD_REACTORS
330
14055
102
}
330
14055
100
AcDbXrecord
340
0
  0
XRECORD
  5
14064
102
{ACAD_REACTORS
330
14055
102
}
330
14055
100
AcDbXrecord
 70
     0
  0
XRECORD
  5
14065
102
{ACAD_REACTORS
330
14055
102
}
330
14055
100
AcDbXrecord
340
0
  0
XRECORD
  5
14066
102
{ACAD_REACTORS
330
14055
102
}
330
14055
100
AcDbXrecord
 10
0.0
 20
0.0
 30
0.0
  0
XRECORD
  5
14067
102
{ACAD_REACTORS
330
14055
102
}
330
14055
100
AcDbXrecord
 10
0.0
 20
0.0
 30
0.0
  0
XRECORD
  5
14068
102
{ACAD_REACTORS
330
14055
102
}
330
14055
100
AcDbXrecord
 10
0.0
 20
0.0
 30
0.0
  0
XRECORD
  5
14069
102
{ACAD_REACTORS
330
14055
102
}
330
14055
100
AcDbXrecord
 10
0.0
 20
0.0
 30
0.0
  0
XRECORD
  5
1406A
102
{ACAD_REACTORS
330
14055
102
}
330
14055
100
AcDbXrecord
 10
0.0
 20
0.0
 30
0.0
  0
XRECORD
  5
1406B
102
{ACAD_REACTORS
330
14055
102
}
330
14055
100
AcDbXrecord
 10
0.0
 20
0.0
 30
0.0
  0
XRECORD
  5
1406C
102
{ACAD_REACTORS
330
14055
102
}
330
14055
100
AcDbXrecord
340
0
  0
XRECORD
  5
1406D
102
{ACAD_REACTORS
330
14055
102
}
330
14055
100
AcDbXrecord
 70
     0
  0
XRECORD
  5
1406E
102
{ACAD_REACTORS
330
14055
102
}
330
14055
100
AcDbXrecord
340
0
  0
XRECORD
  5
1406F
102
{ACAD_REACTORS
330
14055
102
}
330
14055
100
AcDbXrecord
 10
0.0
 20
0.0
 30
0.0
  0
XRECORD
  5
14070
102
{ACAD_REACTORS
330
14055
102
}
330
14055
100
AcDbXrecord
 10
0.0
 20
0.0
 30
0.0
  0
XRECORD
  5
14071
102
{ACAD_REACTORS
330
14055
102
}
330
14055
100
AcDbXrecord
 10
0.0
 20
0.0
 30
0.0
  0
XRECORD
  5
14072
102
{ACAD_REACTORS
330
14055
102
}
330
14055
100
AcDbXrecord
 10
0.0
 20
0.0
 30
0.0
  0
XRECORD
  5
14073
102
{ACAD_REACTORS
330
14055
102
}
330
14055
100
AcDbXrecord
 10
0.0
 20
0.0
 30
0.0
  0
XRECORD
  5
14074
102
{ACAD_REACTORS
330
14055
102
}
330
14055
100
AcDbXrecord
 10
0.0
 20
0.0
 30
0.0
  0
ENDSEC
  0
EOF
