  0
SECTION
  2
HEADER
  9
$ACADVER
  1
AC1014
  9
$ACADMAINTVER
 70
     9
  9
$DWGCODEPAGE
  3
ANSI_932
  9
$INSBASE
 10
0.0
 20
0.0
 30
0.0
  9
$EXTMIN
 10
-1655.580311463314
 20
1478.261189569335
 30
0.0
  9
$EXTMAX
 10
-1410.0
 20
1677.57456248695
 30
0.0
  9
$LIMMIN
 10
0.0
 20
0.0
  9
$LIMMAX
 10
420.0
 20
297.0
  9
$ORTHOMODE
 70
     1
  9
$REGENMODE
 70
     1
  9
$FILLMODE
 70
     1
  9
$QTEXTMODE
 70
     0
  9
$MIRRTEXT
 70
     1
  9
$DRAGMODE
 70
     2
  9
$LTSCALE
 40
1.0
  9
$OSMODE
 70
    37
  9
$ATTMODE
 70
     1
  9
$TEXTSIZE
 40
3.0
  9
$TRACEWID
 40
1.0
  9
$TEXTSTYLE
  7
STANDARD
  9
$CLAYER
  8
CL1
  9
$CELTYPE
  6
BYLAYER
  9
$CECOLOR
 62
   256
  9
$CELTSCALE
 40
1.0
  9
$DELOBJ
 70
     1
  9
$DISPSILH
 70
     0
  9
$DIMSCALE
 40
0.0
  9
$DIMASZ
 40
3.0
  9
$DIMEXO
 40
0.5
  9
$DIMDLI
 40
0.5
  9
$DIMRND
 40
0.0
  9
$DIMDLE
 40
0.0
  9
$DIMEXE
 40
0.5
  9
$DIMTP
 40
0.0
  9
$DIMTM
 40
0.0
  9
$DIMTXT
 40
3.5
  9
$DIMCEN
 40
0.0
  9
$DIMTSZ
 40
0.0
  9
$DIMTOL
 70
     0
  9
$DIMLIM
 70
     0
  9
$DIMTIH
 70
     0
  9
$DIMTOH
 70
     0
  9
$DIMSE1
 70
     0
  9
$DIMSE2
 70
     0
  9
$DIMTAD
 70
     1
  9
$DIMZIN
 70
     8
  9
$DIMBLK
  1

  9
$DIMASO
 70
     1
  9
$DIMSHO
 70
     1
  9
$DIMPOST
  1

  9
$DIMAPOST
  1

  9
$DIMALT
 70
     0
  9
$DIMALTD
 70
     2
  9
$DIMALTF
 40
25.4
  9
$DIMLFAC
 40
1.0
  9
$DIMTOFL
 70
     1
  9
$DIMTVP
 40
0.0
  9
$DIMTIX
 70
     0
  9
$DIMSOXD
 70
     0
  9
$DIMSAH
 70
     0
  9
$DIMBLK1
  1

  9
$DIMBLK2
  1

  9
$DIMSTYLE
  2
標準スタイル
  9
$DIMCLRD
 70
     1
  9
$DIMCLRE
 70
     1
  9
$DIMCLRT
 70
     1
  9
$DIMTFAC
 40
1.0
  9
$DIMGAP
 40
1.0
  9
$DIMJUST
 70
     0
  9
$DIMSD1
 70
     0
  9
$DIMSD2
 70
     0
  9
$DIMTOLJ
 70
     1
  9
$DIMTZIN
 70
     8
  9
$DIMALTZ
 70
     0
  9
$DIMALTTZ
 70
     0
  9
$DIMFIT
 70
     3
  9
$DIMUPT
 70
     0
  9
$DIMUNIT
 70
     2
  9
$DIMDEC
 70
     2
  9
$DIMTDEC
 70
     2
  9
$DIMALTU
 70
     2
  9
$DIMALTTD
 70
     2
  9
$DIMTXSTY
  7
ゴシック体
  9
$DIMAUNIT
 70
     0
  9
$LUNITS
 70
     2
  9
$LUPREC
 70
     4
  9
$SKETCHINC
 40
1.0
  9
$FILLETRAD
 40
1.75
  9
$AUNITS
 70
     0
  9
$AUPREC
 70
     0
  9
$MENU
  1
.
  9
$ELEVATION
 40
0.0
  9
$PELEVATION
 40
0.0
  9
$THICKNESS
 40
0.0
  9
$LIMCHECK
 70
     0
  9
$BLIPMODE
 70
     0
  9
$CHAMFERA
 40
1.0
  9
$CHAMFERB
 40
1.0
  9
$CHAMFERC
 40
2.0
  9
$CHAMFERD
 40
0.7853981633974483
  9
$SKPOLY
 70
     0
  9
$TDCREATE
 40
2450495.493631365
  9
$TDUPDATE
 40
2455084.692709722
  9
$TDINDWG
 40
2.7750052431
  9
$TDUSRTIMER
 40
2.7749992940
  9
$USRTIMER
 70
     1
  9
$ANGBASE
 50
0.0
  9
$ANGDIR
 70
     0
  9
$PDMODE
 70
    99
  9
$PDSIZE
 40
0.0
  9
$PLINEWID
 40
0.0
  9
$COORDS
 70
     1
  9
$SPLFRAME
 70
     0
  9
$SPLINETYPE
 70
     6
  9
$SPLINESEGS
 70
     8
  9
$ATTDIA
 70
     0
  9
$ATTREQ
 70
     1
  9
$HANDLING
 70
 10241
  9
$HANDSEED
  5
15FB8
  9
$SURFTAB1
 70
     6
  9
$SURFTAB2
 70
     6
  9
$SURFTYPE
 70
     6
  9
$SURFU
 70
     6
  9
$SURFV
 70
     6
  9
$UCSNAME
  2

  9
$UCSORG
 10
0.0
 20
0.0
 30
0.0
  9
$UCSXDIR
 10
1.0
 20
0.0
 30
0.0
  9
$UCSYDIR
 10
0.0
 20
1.0
 30
0.0
  9
$PUCSNAME
  2

  9
$PUCSORG
 10
0.0
 20
0.0
 30
0.0
  9
$PUCSXDIR
 10
1.0
 20
0.0
 30
0.0
  9
$PUCSYDIR
 10
0.0
 20
1.0
 30
0.0
  9
$USERI1
 70
     0
  9
$USERI2
 70
     0
  9
$USERI3
 70
     0
  9
$USERI4
 70
     0
  9
$USERI5
 70
     0
  9
$USERR1
 40
0.0
  9
$USERR2
 40
0.0
  9
$USERR3
 40
0.0
  9
$USERR4
 40
0.0
  9
$USERR5
 40
0.0
  9
$WORLDVIEW
 70
     1
  9
$SHADEDGE
 70
     3
  9
$SHADEDIF
 70
    70
  9
$TILEMODE
 70
     0
  9
$MAXACTVP
 70
    16
  9
$PINSBASE
 10
0.0
 20
0.0
 30
0.0
  9
$PLIMCHECK
 70
     0
  9
$PEXTMIN
 10
29.03619555254115
 20
27.69602733303884
 30
0.0
  9
$PEXTMAX
 10
414.5361955525409
 20
287.6960273330388
 30
0.0
  9
$PLIMMIN
 10
11.81673670129764
 20
9.191203451360484
  9
$PLIMMAX
 10
431.7633919747351
 20
306.2018540861261
  9
$UNITMODE
 70
     0
  9
$VISRETAIN
 70
     0
  9
$PLINEGEN
 70
     0
  9
$PSLTSCALE
 70
     1
  9
$TREEDEPTH
 70
  3020
  9
$PICKSTYLE
 70
     1
  9
$CMLSTYLE
  2
STANDARD
  9
$CMLJUST
 70
     0
  9
$CMLSCALE
 40
1.0
  9
$PROXYGRAPHICS
 70
     1
  9
$MEASUREMENT
 70
     1
  0
ENDSEC
  0
SECTION
  2
CLASSES
  0
CLASS
  1
LWPOLYLINE
  2
AcDbPolyline
  3
AutoCAD 2000
 90
        0
280
     0
281
     1
  0
CLASS
  1
HATCH
  2
AcDbHatch
  3
AutoCAD 2000
 90
        0
280
     0
281
     1
  0
CLASS
  1
ACDBDICTIONARYWDFLT
  2
AcDbDictionaryWithDefault
  3
AutoCAD 2000
 90
        0
280
     0
281
     0
  0
CLASS
  1
ACDBPLACEHOLDER
  2
AcDbPlaceHolder
  3
AutoCAD 2000
 90
        0
280
     0
281
     0
  0
CLASS
  1
LAYOUT
  2
AcDbLayout
  3
AutoCAD 2000
 90
        0
280
     0
281
     0
  0
CLASS
  1
DICTIONARYVAR
  2
AcDbDictionaryVar
  3
AutoCAD 2000
 90
        0
280
     0
281
     0
  0
CLASS
  1
LONG_TRANSACTION
  2
AcDbLongTransaction
  3
AutoCAD 2000
 90
        0
280
     0
281
     0
  0
CLASS
  1
LWPOLYLINE
  2
AcDbPolyline
  3
AutoCAD 2000
 90
        0
280
     0
281
     1
  0
CLASS
  1
HATCH
  2
AcDbHatch
  3
AutoCAD 2000
 90
        0
280
     0
281
     1
  0
CLASS
  1
XRECORD
  2
AcDbXrecord
  3
AutoCAD 2000
 90
        0
280
     0
281
     0
  0
CLASS
  1
LONG_TRANSACTION
  2
AcDbLongTransaction
  3
AutoCAD 2000
 90
        0
280
     0
281
     0
  0
CLASS
  1
LWPOLYLINE
  2
AcDbPolyline
  3
AutoCAD 2000
 90
        0
280
     0
281
     1
  0
CLASS
  1
HATCH
  2
AcDbHatch
  3
AutoCAD 2000
 90
        0
280
     0
281
     1
  0
CLASS
  1
XRECORD
  2
AcDbXrecord
  3
AutoCAD 2000
 90
        0
280
     0
281
     0
  0
CLASS
  1
LONG_TRANSACTION
  2
AcDbLongTransaction
  3
AutoCAD 2000
 90
        0
280
     0
281
     0
  0
CLASS
  1
LWPOLYLINE
  2
AcDbPolyline
  3
AutoCAD 2000
 90
        0
280
     0
281
     1
  0
CLASS
  1
HATCH
  2
AcDbHatch
  3
AutoCAD 2000
 90
        0
280
     0
281
     1
  0
CLASS
  1
XRECORD
  2
AcDbXrecord
  3
AutoCAD 2000
 90
        0
280
     0
281
     0
  0
CLASS
  1
LONG_TRANSACTION
  2
AcDbLongTransaction
  3
AutoCAD 2000
 90
        0
280
     0
281
     0
  0
CLASS
  1
LWPOLYLINE
  2
AcDbPolyline
  3
AutoCAD 2000
 90
        0
280
     0
281
     1
  0
CLASS
  1
HATCH
  2
AcDbHatch
  3
AutoCAD 2000
 90
        0
280
     0
281
     1
  0
CLASS
  1
XRECORD
  2
AcDbXrecord
  3
AutoCAD 2000
 90
        0
280
     0
281
     0
  0
ENDSEC
  0
SECTION
  2
TABLES
  0
TABLE
  2
VPORT
  5
8
330
0
100
AcDbSymbolTable
 70
     1
  0
VPORT
  5
15F75
330
8
100
AcDbSymbolTableRecord
100
AcDbViewportTableRecord
  2
*ACTIVE
 70
     0
 10
0.0
 20
0.0
 11
1.0
 21
1.0
 12
-1532.760781819203
 22
1577.922501644168
 13
0.0
 23
0.0
 14
5.0
 24
5.0
 15
0.0
 25
0.0
 16
0.0
 26
0.0
 36
1.0
 17
0.0
 27
0.0
 37
0.0
 40
201.5430189572171
 41
1.695885509838998
 42
50.0
 43
0.0
 44
0.0
 50
0.0
 51
0.0
 71
     0
 72
   100
 73
     1
 74
     0
 75
     0
 76
     0
 77
     0
 78
     0
  0
ENDTAB
  0
TABLE
  2
LTYPE
  5
5
330
0
100
AcDbSymbolTable
 70
     3
  0
LTYPE
  5
14
330
5
100
AcDbSymbolTableRecord
100
AcDbLinetypeTableRecord
  2
BYBLOCK
 70
     0
  3

 72
    65
 73
     0
 40
0.0
  0
LTYPE
  5
15
330
5
100
AcDbSymbolTableRecord
100
AcDbLinetypeTableRecord
  2
BYLAYER
 70
     0
  3

 72
    65
 73
     0
 40
0.0
  0
LTYPE
  5
16
330
5
100
AcDbSymbolTableRecord
100
AcDbLinetypeTableRecord
  2
CONTINUOUS
 70
     0
  3
Solid line
 72
    65
 73
     0
 40
0.0
  0
LTYPE
  5
1956
330
5
100
AcDbSymbolTableRecord
100
AcDbLinetypeTableRecord
  2
CENTERX2
 70
     0
  3
________  __  ________  __  ________  __  _____
 72
    65
 73
     4
 40
4.0
 49
2.5
 74
     0
 49
-0.5
 74
     0
 49
0.5
 74
     0
 49
-0.5
 74
     0
  0
LTYPE
  5
14678
330
5
100
AcDbSymbolTableRecord
100
AcDbLinetypeTableRecord
  2
DASHEDX2
 70
     0
  3
____  ____  ____  ____  ____  ____  ____  ____ 
 72
    65
 73
     2
 40
1.5
 49
1.0
 74
     0
 49
-0.5
 74
     0
  0
ENDTAB
  0
TABLE
  2
LAYER
  5
2
330
0
100
AcDbSymbolTable
 70
     8
  0
LAYER
  5
F
330
2
100
AcDbSymbolTableRecord
100
AcDbLayerTableRecord
  2
0
 70
     0
 62
     7
  6
CONTINUOUS
  0
LAYER
  5
18F
330
2
100
AcDbSymbolTableRecord
100
AcDbLayerTableRecord
  2
ZISSEN1
 70
     0
 62
     7
  6
CONTINUOUS
  0
LAYER
  5
529
330
2
100
AcDbSymbolTableRecord
100
AcDbLayerTableRecord
  2
SUNPOU
 70
     0
 62
     1
  6
CONTINUOUS
  0
LAYER
  5
195A
330
2
100
AcDbSymbolTableRecord
100
AcDbLayerTableRecord
  2
CL1
 70
     0
 62
   210
  6
CENTERX2
  0
LAYER
  5
3A9B
330
2
100
AcDbSymbolTableRecord
100
AcDbLayerTableRecord
  2
DEFPOINTS
 70
     0
 62
     7
  6
CONTINUOUS
  0
LAYER
  5
14679
330
2
100
AcDbSymbolTableRecord
100
AcDbLayerTableRecord
  2
ZISSEN2
 70
     0
 62
   150
  6
CONTINUOUS
  0
LAYER
  5
1467A
330
2
100
AcDbSymbolTableRecord
100
AcDbLayerTableRecord
  2
ZISSEN3
 70
     0
 62
   190
  6
CONTINUOUS
  0
LAYER
  5
1467B
330
2
100
AcDbSymbolTableRecord
100
AcDbLayerTableRecord
  2
ZISSEN4
 70
     0
 62
    74
  6
CONTINUOUS
  0
ENDTAB
  0
TABLE
  2
STYLE
  5
3
330
0
100
AcDbSymbolTable
 70
     2
  0
STYLE
  5
10
330
3
100
AcDbSymbolTableRecord
100
AcDbTextStyleTableRecord
  2
STANDARD
 70
     0
 40
0.0
 41
1.0
 50
0.0
 71
     0
 42
3.0
  3
txt
  4
BigFont
  0
STYLE
  5
1960
330
3
100
AcDbSymbolTableRecord
100
AcDbTextStyleTableRecord
  2
ゴシック体
 70
     0
 40
0.0
 41
1.0
 50
0.0
 71
     0
 42
2.5
  3
MS Gothic.ttf
  4

1001
ACAD
1000
MS Gothic
1071
    32817
  0
ENDTAB
  0
TABLE
  2
VIEW
  5
6
330
0
100
AcDbSymbolTable
 70
     0
  0
ENDTAB
  0
TABLE
  2
UCS
  5
7
330
0
100
AcDbSymbolTable
 70
     0
  0
ENDTAB
  0
TABLE
  2
APPID
  5
9
330
0
100
AcDbSymbolTable
 70
     5
  0
APPID
  5
11
330
9
100
AcDbSymbolTableRecord
100
AcDbRegAppTableRecord
  2
ACAD
 70
     0
  0
APPID
  5
4005
330
9
100
AcDbSymbolTableRecord
100
AcDbRegAppTableRecord
  2
CONTENTTABDATA
 70
     0
  0
APPID
  5
4006
330
9
100
AcDbSymbolTableRecord
100
AcDbRegAppTableRecord
  2
CONTENTCURRENTTAB
 70
     0
  0
APPID
  5
477B
330
9
100
AcDbSymbolTableRecord
100
AcDbRegAppTableRecord
  2
CONTENTBLOCKDESCRIPTION
 70
     0
  0
APPID
  5
477C
330
9
100
AcDbSymbolTableRecord
100
AcDbRegAppTableRecord
  2
CONTENTBLOCKICON
 70
     0
  0
ENDTAB
  0
TABLE
  2
DIMSTYLE
  5
A
330
0
100
AcDbSymbolTable
 70
     2
  0
DIMSTYLE
105
1D
330
A
100
AcDbSymbolTableRecord
100
AcDbDimStyleTableRecord
  2
STANDARD
 70
     0
  3

  4

  5

  6

  7

 40
1.0
 41
0.18
 42
0.0625
 43
0.38
 44
0.18
 45
0.0
 46
0.0
 47
0.0
 48
0.0
140
0.18
141
0.09
142
0.0
143
25.4
144
1.0
145
0.0
146
1.0
147
0.09
 71
     0
 72
     0
 73
     1
 74
     1
 75
     0
 76
     0
 77
     0
 78
     0
170
     0
171
     2
172
     0
173
     0
174
     0
175
     0
176
     0
177
     0
178
     0
270
     2
271
     4
272
     4
273
     2
274
     2
340
10
275
     0
280
     0
281
     0
282
     0
283
     1
284
     0
285
     0
286
     0
287
     3
288
     0
  0
DIMSTYLE
105
52E
102
{ACAD_REACTORS
330
15081
330
1510A
330
15124
330
15131
330
15193
330
150C3
330
152AE
330
155CE
330
155CF
330
155ED
330
1583B
330
1585E
330
15A40
330
15D79
102
}
330
A
100
AcDbSymbolTableRecord
100
AcDbDimStyleTableRecord
  2
標準スタイル
 70
     0
  3

  4

  5

  6

  7

 40
0.0
 41
3.0
 42
0.5
 43
0.5
 44
0.5
 45
0.0
 46
0.0
 47
0.0
 48
0.0
140
3.5
141
0.0
142
0.0
143
25.4
144
1.0
145
0.0
146
1.0
147
1.0
 71
     0
 72
     0
 73
     0
 74
     0
 75
     0
 76
     0
 77
     1
 78
     8
170
     0
171
     2
172
     1
173
     0
174
     0
175
     0
176
     1
177
     1
178
     1
270
     2
271
     2
272
     2
273
     2
274
     2
340
1960
275
     0
280
     0
281
     0
282
     0
283
     1
284
     8
285
     0
286
     0
287
     3
288
     0
  0
ENDTAB
  0
TABLE
  2
BLOCK_RECORD
  5
1
330
0
100
AcDbSymbolTable
 70
    14
  0
BLOCK_RECORD
  5
1A
102
{ACAD_XDICTIONARY
360
12CF1
102
}
330
1
100
AcDbSymbolTableRecord
100
AcDbBlockTableRecord
  2
*MODEL_SPACE
  0
BLOCK_RECORD
  5
5D8E
102
{ACAD_XDICTIONARY
360
12CF3
102
}
330
1
100
AcDbSymbolTableRecord
100
AcDbBlockTableRecord
  2
*PAPER_SPACE
  0
BLOCK_RECORD
  5
15082
330
1
100
AcDbSymbolTableRecord
100
AcDbBlockTableRecord
  2
*D0
  0
BLOCK_RECORD
  5
150C4
330
1
100
AcDbSymbolTableRecord
100
AcDbBlockTableRecord
  2
*D1
  0
BLOCK_RECORD
  5
1510B
330
1
100
AcDbSymbolTableRecord
100
AcDbBlockTableRecord
  2
*D2
  0
BLOCK_RECORD
  5
15125
330
1
100
AcDbSymbolTableRecord
100
AcDbBlockTableRecord
  2
*D3
  0
BLOCK_RECORD
  5
15132
330
1
100
AcDbSymbolTableRecord
100
AcDbBlockTableRecord
  2
*D4
  0
BLOCK_RECORD
  5
15194
330
1
100
AcDbSymbolTableRecord
100
AcDbBlockTableRecord
  2
*D5
  0
BLOCK_RECORD
  5
152AF
330
1
100
AcDbSymbolTableRecord
100
AcDbBlockTableRecord
  2
*D6
  0
BLOCK_RECORD
  5
156C3
330
1
100
AcDbSymbolTableRecord
100
AcDbBlockTableRecord
  2
*D7
  0
BLOCK_RECORD
  5
156CF
330
1
100
AcDbSymbolTableRecord
100
AcDbBlockTableRecord
  2
*D8
  0
BLOCK_RECORD
  5
15703
330
1
100
AcDbSymbolTableRecord
100
AcDbBlockTableRecord
  2
*D9
  0
BLOCK_RECORD
  5
1583C
330
1
100
AcDbSymbolTableRecord
100
AcDbBlockTableRecord
  2
*D10
  0
BLOCK_RECORD
  5
1585F
330
1
100
AcDbSymbolTableRecord
100
AcDbBlockTableRecord
  2
*D11
  0
BLOCK_RECORD
  5
15B11
330
1
100
AcDbSymbolTableRecord
100
AcDbBlockTableRecord
  2
*D12
  0
BLOCK_RECORD
  5
15D7A
330
1
100
AcDbSymbolTableRecord
100
AcDbBlockTableRecord
  2
*D13
  0
ENDTAB
  0
ENDSEC
  0
SECTION
  2
BLOCKS
  0
BLOCK
  5
1B
330
1A
100
AcDbEntity
  8
0
100
AcDbBlockBegin
  2
*MODEL_SPACE
 70
     0
 10
0.0
 20
0.0
 30
0.0
  3
*MODEL_SPACE
  1

  0
ENDBLK
  5
1C
330
1A
100
AcDbEntity
  8
0
100
AcDbBlockEnd
  0
BLOCK
  5
5E60
330
5D8E
100
AcDbEntity
 67
     1
  8
0
100
AcDbBlockBegin
  2
*PAPER_SPACE
 70
     0
 10
0.0
 20
0.0
 30
0.0
  3
*PAPER_SPACE
  1

  0
ENDBLK
  5
5E61
330
5D8E
100
AcDbEntity
 67
     1
  8
0
100
AcDbBlockEnd
  0
BLOCK
  5
1508C
330
15082
100
AcDbEntity
  8
0
100
AcDbBlockBegin
  2
*D0
 70
     1
 10
0.0
 20
0.0
 30
0.0
  3
*D0
  1

  0
LINE
  5
15DED
330
15082
100
AcDbEntity
  8
SUNPOU
 62
     1
100
AcDbLine
 10
-1425.0
 20
1499.5
 30
0.0
 11
-1425.0
 21
1478.261189569335
 31
0.0
  0
LINE
  5
15DEE
330
15082
100
AcDbEntity
  8
SUNPOU
 62
     1
100
AcDbLine
 10
-1500.0
 20
1499.5
 30
0.0
 11
-1500.0
 21
1478.261189569335
 31
0.0
  0
LINE
  5
15DEF
330
15082
100
AcDbEntity
  8
SUNPOU
 62
     1
100
AcDbLine
 10
-1428.0
 20
1478.761189569335
 30
0.0
 11
-1497.0
 21
1478.761189569335
 31
0.0
  0
SOLID
  5
15DF0
330
15082
100
AcDbEntity
  8
SUNPOU
 62
     1
100
AcDbTrace
 10
-1428.0
 20
1479.261189569335
 30
0.0
 11
-1428.0
 21
1478.261189569335
 31
0.0
 12
-1425.0
 22
1478.761189569335
 32
0.0
 13
-1425.0
 23
1478.761189569335
 33
0.0
  0
SOLID
  5
15DF1
330
15082
100
AcDbEntity
  8
SUNPOU
 62
     1
100
AcDbTrace
 10
-1497.0
 20
1479.261189569335
 30
0.0
 11
-1497.0
 21
1478.261189569335
 31
0.0
 12
-1500.0
 22
1478.761189569335
 32
0.0
 13
-1500.0
 23
1478.761189569335
 33
0.0
  0
MTEXT
  5
15DF2
330
15082
100
AcDbEntity
  8
SUNPOU
 62
     1
100
AcDbMText
 10
-1462.5
 20
1481.511189569335
 30
0.0
 40
3.5
 41
0.0
 71
     5
 72
     1
  1
\A1;75
1001
ACAD
1000
MTEXTBEGIN
1070
    73
1070
     1
1070
    44
1040
1.0
1070
    74
1070
     0
1000
MTEXTEND
  0
POINT
  5
15DF3
330
15082
100
AcDbEntity
  8
DEFPOINTS
 62
     0
100
AcDbPoint
 10
-1425.0
 20
1500.0
 30
0.0
  0
POINT
  5
15DF4
330
15082
100
AcDbEntity
  8
DEFPOINTS
 62
     0
100
AcDbPoint
 10
-1500.0
 20
1500.0
 30
0.0
  0
POINT
  5
15DF5
330
15082
100
AcDbEntity
  8
DEFPOINTS
 62
     0
100
AcDbPoint
 10
-1500.0
 20
1478.761189569335
 30
0.0
  0
ENDBLK
  5
1508D
330
15082
100
AcDbEntity
  8
0
100
AcDbBlockEnd
  0
BLOCK
  5
150CE
330
150C4
100
AcDbEntity
  8
0
100
AcDbBlockBegin
  2
*D1
 70
     1
 10
0.0
 20
0.0
 30
0.0
  3
*D1
  1

  0
LINE
  5
15F9D
330
150C4
100
AcDbEntity
  8
SUNPOU
 62
     1
100
AcDbLine
 10
-1427.5
 20
1594.312361177968
 30
0.0
 11
-1427.5
 21
1491.415467586945
 31
0.0
  0
LINE
  5
15F9E
330
150C4
100
AcDbEntity
  8
SUNPOU
 62
     1
100
AcDbLine
 10
-1497.499775760168
 20
1512.675260904985
 30
0.0
 11
-1497.499775760168
 21
1491.415467586945
 31
0.0
  0
LINE
  5
15F9F
330
150C4
100
AcDbEntity
  8
SUNPOU
 62
     1
100
AcDbLine
 10
-1430.5
 20
1491.915467586945
 30
0.0
 11
-1494.499775760168
 21
1491.915467586945
 31
0.0
  0
SOLID
  5
15FA0
330
150C4
100
AcDbEntity
  8
SUNPOU
 62
     1
100
AcDbTrace
 10
-1430.5
 20
1492.415467586945
 30
0.0
 11
-1430.5
 21
1491.415467586945
 31
0.0
 12
-1427.5
 22
1491.915467586945
 32
0.0
 13
-1427.5
 23
1491.915467586945
 33
0.0
  0
SOLID
  5
15FA1
330
150C4
100
AcDbEntity
  8
SUNPOU
 62
     1
100
AcDbTrace
 10
-1494.499775760168
 20
1492.415467586945
 30
0.0
 11
-1494.499775760168
 21
1491.415467586945
 31
0.0
 12
-1497.499775760168
 22
1491.915467586945
 32
0.0
 13
-1497.499775760168
 23
1491.915467586945
 33
0.0
  0
MTEXT
  5
15FA2
330
150C4
100
AcDbEntity
  8
SUNPOU
 62
     1
100
AcDbMText
 10
-1462.499887880084
 20
1494.665467586945
 30
0.0
 40
3.5
 41
0.0
 71
     5
 72
     1
  1
\A1;70
  0
POINT
  5
15FA3
330
150C4
100
AcDbEntity
  8
DEFPOINTS
 62
     0
100
AcDbPoint
 10
-1427.5
 20
1594.812361177968
 30
0.0
  0
POINT
  5
15FA4
330
150C4
100
AcDbEntity
  8
DEFPOINTS
 62
     0
100
AcDbPoint
 10
-1497.499775760168
 20
1513.175260904985
 30
0.0
  0
POINT
  5
15FA5
330
150C4
100
AcDbEntity
  8
DEFPOINTS
 62
     0
100
AcDbPoint
 10
-1497.499775760168
 20
1491.915467586945
 30
0.0
  0
ENDBLK
  5
150CF
330
150C4
100
AcDbEntity
  8
0
100
AcDbBlockEnd
  0
BLOCK
  5
15117
330
1510B
100
AcDbEntity
  8
0
100
AcDbBlockBegin
  2
*D2
 70
     1
 10
0.0
 20
0.0
 30
0.0
  3
*D2
  1

  0
LINE
  5
15E27
330
1510B
100
AcDbEntity
  8
SUNPOU
 62
     1
100
AcDbLine
 10
-1499.5
 20
1600.0
 30
0.0
 11
-1520.90758377381
 21
1600.0
 31
0.0
  0
LINE
  5
15E28
330
1510B
100
AcDbEntity
  8
SUNPOU
 62
     1
100
AcDbLine
 10
-1428.0
 20
1594.5
 30
0.0
 11
-1520.90758377381
 21
1594.5
 31
0.0
  0
LINE
  5
15E29
330
1510B
100
AcDbEntity
  8
SUNPOU
 62
     1
100
AcDbLine
 10
-1520.40758377381
 20
1603.0
 30
0.0
 11
-1520.40758377381
 21
1606.0
 31
0.0
  0
LINE
  5
15E2A
330
1510B
100
AcDbEntity
  8
SUNPOU
 62
     1
100
AcDbLine
 10
-1520.40758377381
 20
1591.5
 30
0.0
 11
-1520.40758377381
 21
1588.499999999999
 31
0.0
  0
LINE
  5
15E2B
330
1510B
100
AcDbEntity
  8
SUNPOU
 62
     1
100
AcDbLine
 10
-1520.40758377381
 20
1600.0
 30
0.0
 11
-1520.40758377381
 21
1594.5
 31
0.0
  0
SOLID
  5
15E2C
330
1510B
100
AcDbEntity
  8
SUNPOU
 62
     1
100
AcDbTrace
 10
-1520.90758377381
 20
1603.0
 30
0.0
 11
-1519.90758377381
 21
1603.0
 31
0.0
 12
-1520.40758377381
 22
1600.0
 32
0.0
 13
-1520.40758377381
 23
1600.0
 33
0.0
  0
SOLID
  5
15E2D
330
1510B
100
AcDbEntity
  8
SUNPOU
 62
     1
100
AcDbTrace
 10
-1520.90758377381
 20
1591.5
 30
0.0
 11
-1519.90758377381
 21
1591.5
 31
0.0
 12
-1520.40758377381
 22
1594.5
 32
0.0
 13
-1520.40758377381
 23
1594.5
 33
0.0
  0
MTEXT
  5
15E2E
330
1510B
100
AcDbEntity
  8
SUNPOU
 62
     1
100
AcDbMText
 10
-1523.15758377381
 20
1597.249999999999
 30
0.0
 40
3.5
 41
0.0
 71
     5
 72
     1
  1
\A1;5.5
 11
0.0000000000000001
 21
1.0
 31
0.0
1001
ACAD
1000
MTEXTBEGIN
1070
    73
1070
     1
1070
    44
1040
1.0
1070
    74
1070
     0
1000
MTEXTEND
  0
POINT
  5
15E2F
330
1510B
100
AcDbEntity
  8
DEFPOINTS
 62
     0
100
AcDbPoint
 10
-1499.0
 20
1600.0
 30
0.0
  0
POINT
  5
15E30
330
1510B
100
AcDbEntity
  8
DEFPOINTS
 62
     0
100
AcDbPoint
 10
-1427.5
 20
1594.5
 30
0.0
  0
POINT
  5
15E31
330
1510B
100
AcDbEntity
  8
DEFPOINTS
 62
     0
100
AcDbPoint
 10
-1520.40758377381
 20
1594.5
 30
0.0
  0
ENDBLK
  5
15118
330
1510B
100
AcDbEntity
  8
0
100
AcDbBlockEnd
  0
BLOCK
  5
1512F
330
15125
100
AcDbEntity
  8
0
100
AcDbBlockBegin
  2
*D3
 70
     1
 10
0.0
 20
0.0
 30
0.0
  3
*D3
  1

  0
LINE
  5
15FA6
330
15125
100
AcDbEntity
  8
SUNPOU
 62
     1
100
AcDbLine
 10
-1428.5
 20
1594.5
 30
0.0
 11
-1520.907583773809
 21
1594.5
 31
0.0
  0
LINE
  5
15FA7
330
15125
100
AcDbEntity
  8
SUNPOU
 62
     1
100
AcDbLine
 10
-1497.499775760168
 20
1512.002884036393
 30
0.0
 11
-1520.90758377381
 21
1512.002884036393
 31
0.0
  0
LINE
  5
15FA8
330
15125
100
AcDbEntity
  8
SUNPOU
 62
     1
100
AcDbLine
 10
-1520.40758377381
 20
1591.5
 30
0.0
 11
-1520.40758377381
 21
1515.002884036393
 31
0.0
  0
MTEXT
  5
15FA9
330
15125
100
AcDbEntity
  8
SUNPOU
 62
     1
100
AcDbMText
 10
-1523.707105847212
 20
1553.251442018196
 30
0.0
 40
3.5
 41
0.0
 71
     5
 72
     1
  1
\A1;82.5
 11
0.0000000000000001
 21
1.0
 31
0.0
  0
SOLID
  5
15FAA
330
15125
100
AcDbEntity
  8
SUNPOU
 62
     1
100
AcDbTrace
 10
-1520.907583773809
 20
1591.5
 30
0.0
 11
-1519.907583773809
 21
1591.5
 31
0.0
 12
-1520.40758377381
 22
1594.5
 32
0.0
 13
-1520.40758377381
 23
1594.5
 33
0.0
  0
SOLID
  5
15FAB
330
15125
100
AcDbEntity
  8
SUNPOU
 62
     1
100
AcDbTrace
 10
-1520.90758377381
 20
1515.002884036393
 30
0.0
 11
-1519.90758377381
 21
1515.002884036393
 31
0.0
 12
-1520.40758377381
 22
1512.002884036393
 32
0.0
 13
-1520.40758377381
 23
1512.002884036393
 33
0.0
  0
POINT
  5
15FAC
330
15125
100
AcDbEntity
  8
DEFPOINTS
 62
     0
100
AcDbPoint
 10
-1428.0
 20
1594.5
 30
0.0
  0
POINT
  5
15FAD
330
15125
100
AcDbEntity
  8
DEFPOINTS
 62
     0
100
AcDbPoint
 10
-1496.999775760168
 20
1512.002884036393
 30
0.0
  0
POINT
  5
15FAE
330
15125
100
AcDbEntity
  8
DEFPOINTS
 62
     0
100
AcDbPoint
 10
-1520.40758377381
 20
1512.002884036393
 30
0.0
  0
ENDBLK
  5
15130
330
15125
100
AcDbEntity
  8
0
100
AcDbBlockEnd
  0
BLOCK
  5
1513C
330
15132
100
AcDbEntity
  8
0
100
AcDbBlockBegin
  2
*D4
 70
     1
 10
0.0
 20
0.0
 30
0.0
  3
*D4
  1

  0
LINE
  5
15FAF
330
15132
100
AcDbEntity
  8
SUNPOU
 62
     1
100
AcDbLine
 10
-1497.499775760168
 20
1512.002884036393
 30
0.0
 11
-1520.90758377381
 21
1512.002884036393
 31
0.0
  0
LINE
  5
15FB0
330
15132
100
AcDbEntity
  8
SUNPOU
 62
     1
100
AcDbLine
 10
-1499.5
 20
1500.0
 30
0.0
 11
-1520.90758377381
 21
1500.0
 31
0.0
  0
LINE
  5
15FB1
330
15132
100
AcDbEntity
  8
SUNPOU
 62
     1
100
AcDbLine
 10
-1520.40758377381
 20
1509.002884036393
 30
0.0
 11
-1520.40758377381
 21
1503.0
 31
0.0
  0
SOLID
  5
15FB2
330
15132
100
AcDbEntity
  8
SUNPOU
 62
     1
100
AcDbTrace
 10
-1520.90758377381
 20
1509.002884036393
 30
0.0
 11
-1519.90758377381
 21
1509.002884036393
 31
0.0
 12
-1520.40758377381
 22
1512.002884036393
 32
0.0
 13
-1520.40758377381
 23
1512.002884036393
 33
0.0
  0
SOLID
  5
15FB3
330
15132
100
AcDbEntity
  8
SUNPOU
 62
     1
100
AcDbTrace
 10
-1520.90758377381
 20
1503.0
 30
0.0
 11
-1519.90758377381
 21
1503.0
 31
0.0
 12
-1520.40758377381
 22
1500.0
 32
0.0
 13
-1520.40758377381
 23
1500.0
 33
0.0
  0
MTEXT
  5
15FB4
330
15132
100
AcDbEntity
  8
SUNPOU
 62
     1
100
AcDbMText
 10
-1523.15758377381
 20
1506.001442018196
 30
0.0
 40
3.5
 41
0.0
 71
     5
 72
     1
  1
\A1;12
 11
0.0000000000000001
 21
1.0
 31
0.0
  0
POINT
  5
15FB5
330
15132
100
AcDbEntity
  8
DEFPOINTS
 62
     0
100
AcDbPoint
 10
-1496.999775760168
 20
1512.002884036393
 30
0.0
  0
POINT
  5
15FB6
330
15132
100
AcDbEntity
  8
DEFPOINTS
 62
     0
100
AcDbPoint
 10
-1499.0
 20
1500.0
 30
0.0
  0
POINT
  5
15FB7
330
15132
100
AcDbEntity
  8
DEFPOINTS
 62
     0
100
AcDbPoint
 10
-1520.40758377381
 20
1500.0
 30
0.0
  0
ENDBLK
  5
1513D
330
15132
100
AcDbEntity
  8
0
100
AcDbBlockEnd
  0
BLOCK
  5
151A0
330
15194
100
AcDbEntity
  8
0
100
AcDbBlockBegin
  2
*D5
 70
     1
 10
0.0
 20
0.0
 30
0.0
  3
*D5
  1

  0
LINE
  5
15E0A
330
15194
100
AcDbEntity
  8
SUNPOU
 62
     1
100
AcDbLine
 10
-1497.499775760168
 20
1511.502884036393
 30
0.0
 11
-1497.499775760168
 21
1491.415467586945
 31
0.0
  0
LINE
  5
15E0B
330
15194
100
AcDbEntity
  8
SUNPOU
 62
     1
100
AcDbLine
 10
-1500.0
 20
1502.5
 30
0.0
 11
-1500.0
 21
1491.415467586945
 31
0.0
  0
LINE
  5
15E0C
330
15194
100
AcDbEntity
  8
SUNPOU
 62
     1
100
AcDbLine
 10
-1494.499775760168
 20
1491.915467586945
 30
0.0
 11
-1491.499775760168
 21
1491.915467586945
 31
0.0
  0
LINE
  5
15E0D
330
15194
100
AcDbEntity
  8
SUNPOU
 62
     1
100
AcDbLine
 10
-1503.0
 20
1491.915467586945
 30
0.0
 11
-1515.0
 21
1491.915467586945
 31
0.0
  0
LINE
  5
15E0E
330
15194
100
AcDbEntity
  8
SUNPOU
 62
     1
100
AcDbLine
 10
-1497.499775760168
 20
1491.915467586945
 30
0.0
 11
-1500.0
 21
1491.915467586945
 31
0.0
  0
SOLID
  5
15E0F
330
15194
100
AcDbEntity
  8
SUNPOU
 62
     1
100
AcDbTrace
 10
-1494.499775760168
 20
1492.415467586945
 30
0.0
 11
-1494.499775760168
 21
1491.415467586945
 31
0.0
 12
-1497.499775760168
 22
1491.915467586945
 32
0.0
 13
-1497.499775760168
 23
1491.915467586945
 33
0.0
  0
SOLID
  5
15E10
330
15194
100
AcDbEntity
  8
SUNPOU
 62
     1
100
AcDbTrace
 10
-1503.0
 20
1492.415467586945
 30
0.0
 11
-1503.0
 21
1491.415467586945
 31
0.0
 12
-1500.0
 22
1491.915467586945
 32
0.0
 13
-1500.0
 23
1491.915467586945
 33
0.0
  0
MTEXT
  5
15E11
330
15194
100
AcDbEntity
  8
SUNPOU
 62
     1
100
AcDbMText
 10
-1510.5
 20
1494.665467586945
 30
0.0
 40
3.5
 41
0.0
 71
     5
 72
     1
  1
\A1;2.5
1001
ACAD
1000
MTEXTBEGIN
1070
    73
1070
     1
1070
    44
1040
1.0
1070
    74
1070
     0
1000
MTEXTEND
  0
POINT
  5
15E12
330
15194
100
AcDbEntity
  8
DEFPOINTS
 62
     0
100
AcDbPoint
 10
-1497.499775760168
 20
1512.002884036393
 30
0.0
  0
POINT
  5
15E13
330
15194
100
AcDbEntity
  8
DEFPOINTS
 62
     0
100
AcDbPoint
 10
-1500.0
 20
1503.0
 30
0.0
  0
POINT
  5
15E14
330
15194
100
AcDbEntity
  8
DEFPOINTS
 62
     0
100
AcDbPoint
 10
-1500.0
 20
1491.915467586945
 30
0.0
  0
ENDBLK
  5
151A1
330
15194
100
AcDbEntity
  8
0
100
AcDbBlockEnd
  0
BLOCK
  5
152BB
330
152AF
100
AcDbEntity
  8
0
100
AcDbBlockBegin
  2
*D6
 70
     1
 10
0.0
 20
0.0
 30
0.0
  3
*D6
  1

  0
LINE
  5
15E6E
330
152AF
100
AcDbEntity
  8
SUNPOU
 62
     1
100
AcDbLine
 10
-1427.5
 20
1593.695389606253
 30
0.0
 11
-1427.5
 21
1491.415467586945
 31
0.0
  0
LINE
  5
15E6F
330
152AF
100
AcDbEntity
  8
SUNPOU
 62
     1
100
AcDbLine
 10
-1425.0
 20
1499.195389606253
 30
0.0
 11
-1425.0
 21
1491.415467586945
 31
0.0
  0
LINE
  5
15E70
330
152AF
100
AcDbEntity
  8
SUNPOU
 62
     1
100
AcDbLine
 10
-1430.5
 20
1491.915467586945
 30
0.0
 11
-1433.5
 21
1491.915467586945
 31
0.0
  0
LINE
  5
15E71
330
152AF
100
AcDbEntity
  8
SUNPOU
 62
     1
100
AcDbLine
 10
-1422.0
 20
1491.915467586945
 30
0.0
 11
-1410.0
 21
1491.915467586945
 31
0.0
  0
LINE
  5
15E72
330
152AF
100
AcDbEntity
  8
SUNPOU
 62
     1
100
AcDbLine
 10
-1427.5
 20
1491.915467586945
 30
0.0
 11
-1425.0
 21
1491.915467586945
 31
0.0
  0
SOLID
  5
15E73
330
152AF
100
AcDbEntity
  8
SUNPOU
 62
     1
100
AcDbTrace
 10
-1430.5
 20
1492.415467586945
 30
0.0
 11
-1430.5
 21
1491.415467586945
 31
0.0
 12
-1427.5
 22
1491.915467586945
 32
0.0
 13
-1427.5
 23
1491.915467586945
 33
0.0
  0
SOLID
  5
15E74
330
152AF
100
AcDbEntity
  8
SUNPOU
 62
     1
100
AcDbTrace
 10
-1422.0
 20
1492.415467586945
 30
0.0
 11
-1422.0
 21
1491.415467586945
 31
0.0
 12
-1425.0
 22
1491.915467586945
 32
0.0
 13
-1425.0
 23
1491.915467586945
 33
0.0
  0
MTEXT
  5
15E75
330
152AF
100
AcDbEntity
  8
SUNPOU
 62
     1
100
AcDbMText
 10
-1414.5
 20
1494.665467586945
 30
0.0
 40
3.5
 41
0.0
 71
     5
 72
     1
  1
\A1;2.5
1001
ACAD
1000
MTEXTBEGIN
1070
    73
1070
     1
1070
    44
1040
1.0
1070
    74
1070
     0
1000
MTEXTEND
  0
POINT
  5
15E76
330
152AF
100
AcDbEntity
  8
DEFPOINTS
 62
     0
100
AcDbPoint
 10
-1427.5
 20
1594.195389606253
 30
0.0
  0
POINT
  5
15E77
330
152AF
100
AcDbEntity
  8
DEFPOINTS
 62
     0
100
AcDbPoint
 10
-1425.0
 20
1499.695389606253
 30
0.0
  0
POINT
  5
15E78
330
152AF
100
AcDbEntity
  8
DEFPOINTS
 62
     0
100
AcDbPoint
 10
-1425.0
 20
1491.915467586945
 30
0.0
  0
ENDBLK
  5
152BC
330
152AF
100
AcDbEntity
  8
0
100
AcDbBlockEnd
  0
BLOCK
  5
156CD
330
156C3
100
AcDbEntity
  8
0
100
AcDbBlockBegin
  2
*D7
 70
     1
 10
0.0
 20
0.0
 30
0.0
  3
*D7
  1

  0
LINE
  5
15E5A
330
156C3
100
AcDbEntity
  8
SUNPOU
 62
     1
100
AcDbLine
 10
-1498.0
 20
1650.5
 30
0.0
 11
-1510.5
 21
1650.5
 31
0.0
  0
LINE
  5
15E5B
330
156C3
100
AcDbEntity
  8
SUNPOU
 62
     1
100
AcDbLine
 10
-1500.5
 20
1670.0
 30
0.0
 11
-1510.5
 21
1670.0
 31
0.0
  0
LINE
  5
15E5C
330
156C3
100
AcDbEntity
  8
SUNPOU
 62
     1
100
AcDbLine
 10
-1510.0
 20
1653.5
 30
0.0
 11
-1510.0
 21
1667.0
 31
0.0
  0
SOLID
  5
15E5D
330
156C3
100
AcDbEntity
  8
SUNPOU
 62
     1
100
AcDbTrace
 10
-1510.5
 20
1653.5
 30
0.0
 11
-1509.5
 21
1653.5
 31
0.0
 12
-1510.0
 22
1650.5
 32
0.0
 13
-1510.0
 23
1650.5
 33
0.0
  0
SOLID
  5
15E5E
330
156C3
100
AcDbEntity
  8
SUNPOU
 62
     1
100
AcDbTrace
 10
-1510.5
 20
1667.0
 30
0.0
 11
-1509.5
 21
1667.0
 31
0.0
 12
-1510.0
 22
1670.0
 32
0.0
 13
-1510.0
 23
1670.0
 33
0.0
  0
MTEXT
  5
15E5F
330
156C3
100
AcDbEntity
  8
SUNPOU
 62
     1
100
AcDbMText
 10
-1512.75
 20
1660.25
 30
0.0
 40
3.5
 41
0.0
 71
     5
 72
     1
  1
\A1;19.5
 11
0.0000000000000001
 21
1.0
 31
0.0
1001
ACAD
1000
MTEXTBEGIN
1070
    73
1070
     1
1070
    44
1040
1.0
1070
    74
1070
     0
1000
MTEXTEND
  0
POINT
  5
15E60
330
156C3
100
AcDbEntity
  8
DEFPOINTS
 62
     0
100
AcDbPoint
 10
-1497.5
 20
1650.5
 30
0.0
  0
POINT
  5
15E61
330
156C3
100
AcDbEntity
  8
DEFPOINTS
 62
     0
100
AcDbPoint
 10
-1500.0
 20
1670.0
 30
0.0
  0
POINT
  5
15E62
330
156C3
100
AcDbEntity
  8
DEFPOINTS
 62
     0
100
AcDbPoint
 10
-1510.0
 20
1670.0
 30
0.0
  0
ENDBLK
  5
156CE
330
156C3
100
AcDbEntity
  8
0
100
AcDbBlockEnd
  0
BLOCK
  5
156D9
330
156CF
100
AcDbEntity
  8
0
100
AcDbBlockBegin
  2
*D8
 70
     1
 10
0.0
 20
0.0
 30
0.0
  3
*D8
  1

  0
LINE
  5
15E51
330
156CF
100
AcDbEntity
  8
SUNPOU
 62
     1
100
AcDbLine
 10
-1499.5
 20
1631.0
 30
0.0
 11
-1510.5
 21
1631.0
 31
0.0
  0
LINE
  5
15E52
330
156CF
100
AcDbEntity
  8
SUNPOU
 62
     1
100
AcDbLine
 10
-1498.0
 20
1650.5
 30
0.0
 11
-1510.5
 21
1650.5
 31
0.0
  0
LINE
  5
15E53
330
156CF
100
AcDbEntity
  8
SUNPOU
 62
     1
100
AcDbLine
 10
-1510.0
 20
1634.0
 30
0.0
 11
-1510.0
 21
1647.5
 31
0.0
  0
SOLID
  5
15E54
330
156CF
100
AcDbEntity
  8
SUNPOU
 62
     1
100
AcDbTrace
 10
-1510.5
 20
1634.0
 30
0.0
 11
-1509.5
 21
1634.0
 31
0.0
 12
-1510.0
 22
1631.0
 32
0.0
 13
-1510.0
 23
1631.0
 33
0.0
  0
SOLID
  5
15E55
330
156CF
100
AcDbEntity
  8
SUNPOU
 62
     1
100
AcDbTrace
 10
-1510.5
 20
1647.5
 30
0.0
 11
-1509.5
 21
1647.5
 31
0.0
 12
-1510.0
 22
1650.5
 32
0.0
 13
-1510.0
 23
1650.5
 33
0.0
  0
MTEXT
  5
15E56
330
156CF
100
AcDbEntity
  8
SUNPOU
 62
     1
100
AcDbMText
 10
-1512.75
 20
1640.749999999999
 30
0.0
 40
3.5
 41
0.0
 71
     5
 72
     1
  1
\A1;19.5
 11
0.0000000000000001
 21
1.0
 31
0.0
1001
ACAD
1000
MTEXTBEGIN
1070
    73
1070
     1
1070
    44
1040
1.0
1070
    74
1070
     0
1000
MTEXTEND
  0
POINT
  5
15E57
330
156CF
100
AcDbEntity
  8
DEFPOINTS
 62
     0
100
AcDbPoint
 10
-1499.0
 20
1631.0
 30
0.0
  0
POINT
  5
15E58
330
156CF
100
AcDbEntity
  8
DEFPOINTS
 62
     0
100
AcDbPoint
 10
-1497.5
 20
1650.5
 30
0.0
  0
POINT
  5
15E59
330
156CF
100
AcDbEntity
  8
DEFPOINTS
 62
     0
100
AcDbPoint
 10
-1510.0
 20
1650.5
 30
0.0
  0
ENDBLK
  5
156DA
330
156CF
100
AcDbEntity
  8
0
100
AcDbBlockEnd
  0
BLOCK
  5
1570F
330
15703
100
AcDbEntity
  8
0
100
AcDbBlockBegin
  2
*D9
 70
     1
 10
0.0
 20
0.0
 30
0.0
  3
*D9
  1

  0
LINE
  5
15E32
330
15703
100
AcDbEntity
  8
SUNPOU
 62
     1
100
AcDbLine
 10
-1500.0
 20
1631.5
 30
0.0
 11
-1500.0
 21
1619.457850912208
 31
0.0
  0
LINE
  5
15E33
330
15703
100
AcDbEntity
  8
SUNPOU
 62
     1
100
AcDbLine
 10
-1497.5
 20
1650.0
 30
0.0
 11
-1497.5
 21
1619.457850912208
 31
0.0
  0
LINE
  5
15E34
330
15703
100
AcDbEntity
  8
SUNPOU
 62
     1
100
AcDbLine
 10
-1494.5
 20
1619.957850912208
 30
0.0
 11
-1491.5
 21
1619.957850912208
 31
0.0
  0
LINE
  5
15E35
330
15703
100
AcDbEntity
  8
SUNPOU
 62
     1
100
AcDbLine
 10
-1503.0
 20
1619.957850912208
 30
0.0
 11
-1515.0
 21
1619.957850912208
 31
0.0
  0
LINE
  5
15E36
330
15703
100
AcDbEntity
  8
SUNPOU
 62
     1
100
AcDbLine
 10
-1497.5
 20
1619.957850912208
 30
0.0
 11
-1500.0
 21
1619.957850912208
 31
0.0
  0
SOLID
  5
15E37
330
15703
100
AcDbEntity
  8
SUNPOU
 62
     1
100
AcDbTrace
 10
-1494.5
 20
1620.457850912208
 30
0.0
 11
-1494.5
 21
1619.457850912208
 31
0.0
 12
-1497.5
 22
1619.957850912208
 32
0.0
 13
-1497.5
 23
1619.957850912208
 33
0.0
  0
SOLID
  5
15E38
330
15703
100
AcDbEntity
  8
SUNPOU
 62
     1
100
AcDbTrace
 10
-1503.0
 20
1620.457850912208
 30
0.0
 11
-1503.0
 21
1619.457850912208
 31
0.0
 12
-1500.0
 22
1619.957850912208
 32
0.0
 13
-1500.0
 23
1619.957850912208
 33
0.0
  0
MTEXT
  5
15E39
330
15703
100
AcDbEntity
  8
SUNPOU
 62
     1
100
AcDbMText
 10
-1510.5
 20
1622.707850912208
 30
0.0
 40
3.5
 41
0.0
 71
     5
 72
     1
  1
\A1;2.5
1001
ACAD
1000
MTEXTBEGIN
1070
    73
1070
     1
1070
    44
1040
1.0
1070
    74
1070
     0
1000
MTEXTEND
  0
POINT
  5
15E3A
330
15703
100
AcDbEntity
  8
DEFPOINTS
 62
     0
100
AcDbPoint
 10
-1500.0
 20
1632.0
 30
0.0
  0
POINT
  5
15E3B
330
15703
100
AcDbEntity
  8
DEFPOINTS
 62
     0
100
AcDbPoint
 10
-1497.5
 20
1650.5
 30
0.0
  0
POINT
  5
15E3C
330
15703
100
AcDbEntity
  8
DEFPOINTS
 62
     0
100
AcDbPoint
 10
-1497.5
 20
1619.957850912208
 30
0.0
  0
ENDBLK
  5
15710
330
15703
100
AcDbEntity
  8
0
100
AcDbBlockEnd
  0
BLOCK
  5
15846
330
1583C
100
AcDbEntity
  8
0
100
AcDbBlockBegin
  2
*D10
 70
     1
 10
0.0
 20
0.0
 30
0.0
  3
*D10
  1

  0
LINE
  5
15E3D
330
1583C
100
AcDbEntity
  8
SUNPOU
 62
     1
100
AcDbLine
 10
-1497.5
 20
1650.0
 30
0.0
 11
-1497.5
 21
1619.457850912208
 31
0.0
  0
LINE
  5
15E3E
330
1583C
100
AcDbEntity
  8
SUNPOU
 62
     1
100
AcDbLine
 10
-1427.5
 20
1650.0
 30
0.0
 11
-1427.5
 21
1619.457850912208
 31
0.0
  0
LINE
  5
15E3F
330
1583C
100
AcDbEntity
  8
SUNPOU
 62
     1
100
AcDbLine
 10
-1494.5
 20
1619.957850912208
 30
0.0
 11
-1430.5
 21
1619.957850912208
 31
0.0
  0
SOLID
  5
15E40
330
1583C
100
AcDbEntity
  8
SUNPOU
 62
     1
100
AcDbTrace
 10
-1494.5
 20
1620.457850912208
 30
0.0
 11
-1494.5
 21
1619.457850912208
 31
0.0
 12
-1497.5
 22
1619.957850912208
 32
0.0
 13
-1497.5
 23
1619.957850912208
 33
0.0
  0
SOLID
  5
15E41
330
1583C
100
AcDbEntity
  8
SUNPOU
 62
     1
100
AcDbTrace
 10
-1430.5
 20
1620.457850912208
 30
0.0
 11
-1430.5
 21
1619.457850912208
 31
0.0
 12
-1427.5
 22
1619.957850912208
 32
0.0
 13
-1427.5
 23
1619.957850912208
 33
0.0
  0
MTEXT
  5
15E42
330
1583C
100
AcDbEntity
  8
SUNPOU
 62
     1
100
AcDbMText
 10
-1462.5
 20
1622.707850912208
 30
0.0
 40
3.5
 41
0.0
 71
     5
 72
     1
  1
\A1;70
1001
ACAD
1000
MTEXTBEGIN
1070
    73
1070
     1
1070
    44
1040
1.0
1070
    74
1070
     0
1000
MTEXTEND
  0
POINT
  5
15E43
330
1583C
100
AcDbEntity
  8
DEFPOINTS
 62
     0
100
AcDbPoint
 10
-1497.5
 20
1650.5
 30
0.0
  0
POINT
  5
15E44
330
1583C
100
AcDbEntity
  8
DEFPOINTS
 62
     0
100
AcDbPoint
 10
-1427.5
 20
1650.5
 30
0.0
  0
POINT
  5
15E45
330
1583C
100
AcDbEntity
  8
DEFPOINTS
 62
     0
100
AcDbPoint
 10
-1427.5
 20
1619.957850912208
 30
0.0
  0
ENDBLK
  5
15847
330
1583C
100
AcDbEntity
  8
0
100
AcDbBlockEnd
  0
BLOCK
  5
1586B
330
1585F
100
AcDbEntity
  8
0
100
AcDbBlockBegin
  2
*D11
 70
     1
 10
0.0
 20
0.0
 30
0.0
  3
*D11
  1

  0
LINE
  5
15E46
330
1585F
100
AcDbEntity
  8
SUNPOU
 62
     1
100
AcDbLine
 10
-1427.5
 20
1650.0
 30
0.0
 11
-1427.5
 21
1619.457850912208
 31
0.0
  0
LINE
  5
15E47
330
1585F
100
AcDbEntity
  8
SUNPOU
 62
     1
100
AcDbLine
 10
-1425.0
 20
1631.5
 30
0.0
 11
-1425.0
 21
1619.457850912208
 31
0.0
  0
LINE
  5
15E48
330
1585F
100
AcDbEntity
  8
SUNPOU
 62
     1
100
AcDbLine
 10
-1430.5
 20
1619.957850912208
 30
0.0
 11
-1433.5
 21
1619.957850912208
 31
0.0
  0
LINE
  5
15E49
330
1585F
100
AcDbEntity
  8
SUNPOU
 62
     1
100
AcDbLine
 10
-1422.0
 20
1619.957850912208
 30
0.0
 11
-1410.0
 21
1619.957850912208
 31
0.0
  0
LINE
  5
15E4A
330
1585F
100
AcDbEntity
  8
SUNPOU
 62
     1
100
AcDbLine
 10
-1427.5
 20
1619.957850912208
 30
0.0
 11
-1425.0
 21
1619.957850912208
 31
0.0
  0
SOLID
  5
15E4B
330
1585F
100
AcDbEntity
  8
SUNPOU
 62
     1
100
AcDbTrace
 10
-1430.5
 20
1620.457850912208
 30
0.0
 11
-1430.5
 21
1619.457850912208
 31
0.0
 12
-1427.5
 22
1619.957850912208
 32
0.0
 13
-1427.5
 23
1619.957850912208
 33
0.0
  0
SOLID
  5
15E4C
330
1585F
100
AcDbEntity
  8
SUNPOU
 62
     1
100
AcDbTrace
 10
-1422.0
 20
1620.457850912208
 30
0.0
 11
-1422.0
 21
1619.457850912208
 31
0.0
 12
-1425.0
 22
1619.957850912208
 32
0.0
 13
-1425.0
 23
1619.957850912208
 33
0.0
  0
MTEXT
  5
15E4D
330
1585F
100
AcDbEntity
  8
SUNPOU
 62
     1
100
AcDbMText
 10
-1414.5
 20
1622.707850912208
 30
0.0
 40
3.5
 41
0.0
 71
     5
 72
     1
  1
\A1;2.5
1001
ACAD
1000
MTEXTBEGIN
1070
    73
1070
     1
1070
    44
1040
1.0
1070
    74
1070
     0
1000
MTEXTEND
  0
POINT
  5
15E4E
330
1585F
100
AcDbEntity
  8
DEFPOINTS
 62
     0
100
AcDbPoint
 10
-1427.5
 20
1650.5
 30
0.0
  0
POINT
  5
15E4F
330
1585F
100
AcDbEntity
  8
DEFPOINTS
 62
     0
100
AcDbPoint
 10
-1425.0
 20
1632.0
 30
0.0
  0
POINT
  5
15E50
330
1585F
100
AcDbEntity
  8
DEFPOINTS
 62
     0
100
AcDbPoint
 10
-1425.0
 20
1619.957850912208
 30
0.0
  0
ENDBLK
  5
1586C
330
1585F
100
AcDbEntity
  8
0
100
AcDbBlockEnd
  0
BLOCK
  5
15B1B
330
15B11
100
AcDbEntity
  8
0
100
AcDbBlockBegin
  2
*D12
 70
     1
 10
0.0
 20
0.0
 30
0.0
  3
*D12
  1

  0
LINE
  5
15DE4
330
15B11
100
AcDbEntity
  8
ZISSEN4
 62
     1
100
AcDbLine
 10
-1561.0
 20
1499.500000131913
 30
0.0
 11
-1561.0
 21
1479.499999999999
 31
0.0
  0
LINE
  5
15DE5
330
15B11
100
AcDbEntity
  8
ZISSEN4
 62
     1
100
AcDbLine
 10
-1600.0
 20
1501.0
 30
0.0
 11
-1600.0
 21
1479.499999999999
 31
0.0
  0
LINE
  5
15DE6
330
15B11
100
AcDbEntity
  8
ZISSEN4
 62
     1
100
AcDbLine
 10
-1564.0
 20
1480.0
 30
0.0
 11
-1597.0
 21
1480.0
 31
0.0
  0
SOLID
  5
15DE7
330
15B11
100
AcDbEntity
  8
ZISSEN4
 62
     1
100
AcDbTrace
 10
-1564.0
 20
1480.5
 30
0.0
 11
-1564.0
 21
1479.499999999999
 31
0.0
 12
-1561.0
 22
1480.0
 32
0.0
 13
-1561.0
 23
1480.0
 33
0.0
  0
SOLID
  5
15DE8
330
15B11
100
AcDbEntity
  8
ZISSEN4
 62
     1
100
AcDbTrace
 10
-1597.0
 20
1480.5
 30
0.0
 11
-1597.0
 21
1479.499999999999
 31
0.0
 12
-1600.0
 22
1480.0
 32
0.0
 13
-1600.0
 23
1480.0
 33
0.0
  0
MTEXT
  5
15DE9
330
15B11
100
AcDbEntity
  8
ZISSEN4
 62
     1
100
AcDbMText
 10
-1580.499999999999
 20
1482.75
 30
0.0
 40
3.5
 41
0.0
 71
     5
 72
     1
  1
\A1;39
1001
ACAD
1000
MTEXTBEGIN
1070
    73
1070
     1
1070
    44
1040
1.0
1070
    74
1070
     0
1000
MTEXTEND
  0
POINT
  5
15DEA
330
15B11
100
AcDbEntity
  8
DEFPOINTS
 62
     0
100
AcDbPoint
 10
-1561.0
 20
1500.000000131914
 30
0.0
  0
POINT
  5
15DEB
330
15B11
100
AcDbEntity
  8
DEFPOINTS
 62
     0
100
AcDbPoint
 10
-1600.0
 20
1501.5
 30
0.0
  0
POINT
  5
15DEC
330
15B11
100
AcDbEntity
  8
DEFPOINTS
 62
     0
100
AcDbPoint
 10
-1600.0
 20
1480.0
 30
0.0
  0
ENDBLK
  5
15B1C
330
15B11
100
AcDbEntity
  8
0
100
AcDbBlockEnd
  0
BLOCK
  5
15D84
330
15D7A
100
AcDbEntity
  8
0
100
AcDbBlockBegin
  2
*D13
 70
     1
 10
0.0
 20
0.0
 30
0.0
  3
*D13
  1

  0
LINE
  5
15DDB
330
15D7A
100
AcDbEntity
  8
SUNPOU
 62
     1
100
AcDbLine
 10
-1599.0
 20
1500.0
 30
0.0
 11
-1614.619314932815
 21
1500.0
 31
0.0
  0
LINE
  5
15DDC
330
15D7A
100
AcDbEntity
  8
SUNPOU
 62
     1
100
AcDbLine
 10
-1600.5
 20
1600.0
 30
0.0
 11
-1614.619314932815
 21
1600.0
 31
0.0
  0
LINE
  5
15DDD
330
15D7A
100
AcDbEntity
  8
SUNPOU
 62
     1
100
AcDbLine
 10
-1614.119314932815
 20
1503.0
 30
0.0
 11
-1614.119314932815
 21
1597.0
 31
0.0
  0
SOLID
  5
15DDE
330
15D7A
100
AcDbEntity
  8
SUNPOU
 62
     1
100
AcDbTrace
 10
-1614.619314932815
 20
1503.0
 30
0.0
 11
-1613.619314932815
 21
1503.0
 31
0.0
 12
-1614.119314932815
 22
1500.0
 32
0.0
 13
-1614.119314932815
 23
1500.0
 33
0.0
  0
SOLID
  5
15DDF
330
15D7A
100
AcDbEntity
  8
SUNPOU
 62
     1
100
AcDbTrace
 10
-1614.619314932815
 20
1597.0
 30
0.0
 11
-1613.619314932815
 21
1597.0
 31
0.0
 12
-1614.119314932815
 22
1600.0
 32
0.0
 13
-1614.119314932815
 23
1600.0
 33
0.0
  0
MTEXT
  5
15DE0
330
15D7A
100
AcDbEntity
  8
SUNPOU
 62
     1
100
AcDbMText
 10
-1616.869314932815
 20
1549.999999999999
 30
0.0
 40
3.5
 41
0.0
 71
     5
 72
     1
  1
\A1;100
 11
0.0000000000000001
 21
1.0
 31
0.0
1001
ACAD
1000
MTEXTBEGIN
1070
    73
1070
     1
1070
    44
1040
1.0
1070
    74
1070
     0
1000
MTEXTEND
  0
POINT
  5
15DE1
330
15D7A
100
AcDbEntity
  8
DEFPOINTS
 62
     0
100
AcDbPoint
 10
-1598.5
 20
1500.0
 30
0.0
  0
POINT
  5
15DE2
330
15D7A
100
AcDbEntity
  8
DEFPOINTS
 62
     0
100
AcDbPoint
 10
-1600.0
 20
1600.0
 30
0.0
  0
POINT
  5
15DE3
330
15D7A
100
AcDbEntity
  8
DEFPOINTS
 62
     0
100
AcDbPoint
 10
-1614.119314932815
 20
1600.0
 30
0.0
  0
ENDBLK
  5
15D85
330
15D7A
100
AcDbEntity
  8
0
100
AcDbBlockEnd
  0
ENDSEC
  0
SECTION
  2
ENTITIES
  0
MTEXT
  5
5084
330
1A
100
AcDbEntity
  8
0
100
AcDbMText
 10
1985.239088685434
 20
-948.5420423450428
 30
0.0
 40
8.0
 41
0.0
 71
     7
 72
     5
  1

1001
ACAD
1000
MTEXTBEGIN
1070
    73
1070
     1
1070
    44
1040
1.0
1070
    74
1070
     0
1000
MTEXTEND
1000
MTEXTBEGIN
1070
    73
1070
     1
1070
    44
1040
1.0
1070
    74
1070
     0
1000
MTEXTEND
1000
MTEXTBEGIN
1070
    73
1070
     1
1070
    44
1040
1.0
1070
    74
1070
     0
1000
MTEXTEND
1000
MTEXTBEGIN
1070
    73
1070
     1
1070
    44
1040
1.0
1070
    74
1070
     0
1000
MTEXTEND
  0
MTEXT
  5
5085
330
1A
100
AcDbEntity
  8
0
100
AcDbMText
 10
4270.596778580329
 20
22.24825240601647
 30
0.0
 40
8.0
 41
0.0
 71
     7
 72
     5
  1

1001
ACAD
1000
MTEXTBEGIN
1070
    73
1070
     1
1070
    44
1040
1.0
1070
    74
1070
     0
1000
MTEXTEND
1000
MTEXTBEGIN
1070
    73
1070
     1
1070
    44
1040
1.0
1070
    74
1070
     0
1000
MTEXTEND
1000
MTEXTBEGIN
1070
    73
1070
     1
1070
    44
1040
1.0
1070
    74
1070
     0
1000
MTEXTEND
1000
MTEXTBEGIN
1070
    73
1070
     1
1070
    44
1040
1.0
1070
    74
1070
     0
1000
MTEXTEND
  0
MTEXT
  5
5343
330
1A
100
AcDbEntity
  8
SUNPOU
100
AcDbMText
 10
6936.493799262471
 20
9534.359644781137
 30
0.0
 40
10.5
 41
0.0
 71
     1
 72
     5
  1

1001
ACAD
1000
MTEXTBEGIN
1070
    73
1070
     1
1070
    44
1040
1.0
1070
    74
1070
     0
1000
MTEXTEND
1000
MTEXTBEGIN
1070
    73
1070
     1
1070
    44
1040
1.0
1070
    74
1070
     0
1000
MTEXTEND
1000
MTEXTBEGIN
1070
    73
1070
     1
1070
    44
1040
1.0
1070
    74
1070
     0
1000
MTEXTEND
1000
MTEXTBEGIN
1070
    73
1070
     1
1070
    44
1040
1.0
1070
    74
1070
     0
1000
MTEXTEND
  0
MTEXT
  5
544F
330
1A
100
AcDbEntity
  8
0
100
AcDbMText
 10
16317.2832773148
 20
12833.35428897674
 30
0.0
 40
8.0
 41
0.0
 71
     7
 72
     5
  1

1001
ACAD
1000
MTEXTBEGIN
1070
    73
1070
     1
1070
    44
1040
1.0
1070
    74
1070
     0
1000
MTEXTEND
1000
MTEXTBEGIN
1070
    73
1070
     1
1070
    44
1040
1.0
1070
    74
1070
     0
1000
MTEXTEND
1000
MTEXTBEGIN
1070
    73
1070
     1
1070
    44
1040
1.0
1070
    74
1070
     0
1000
MTEXTEND
1000
MTEXTBEGIN
1070
    73
1070
     1
1070
    44
1040
1.0
1070
    74
1070
     0
1000
MTEXTEND
  0
MTEXT
  5
5450
330
1A
100
AcDbEntity
  8
0
100
AcDbMText
 10
18602.64096720968
 20
13804.1445837278
 30
0.0
 40
8.0
 41
0.0
 71
     7
 72
     5
  1

1001
ACAD
1000
MTEXTBEGIN
1070
    73
1070
     1
1070
    44
1040
1.0
1070
    74
1070
     0
1000
MTEXTEND
1000
MTEXTBEGIN
1070
    73
1070
     1
1070
    44
1040
1.0
1070
    74
1070
     0
1000
MTEXTEND
1000
MTEXTBEGIN
1070
    73
1070
     1
1070
    44
1040
1.0
1070
    74
1070
     0
1000
MTEXTEND
1000
MTEXTBEGIN
1070
    73
1070
     1
1070
    44
1040
1.0
1070
    74
1070
     0
1000
MTEXTEND
  0
MTEXT
  5
5451
330
1A
100
AcDbEntity
  8
SUNPOU
100
AcDbMText
 10
21268.53798789184
 20
23316.25597610292
 30
0.0
 40
10.5
 41
0.0
 71
     1
 72
     5
  1

1001
ACAD
1000
MTEXTBEGIN
1070
    73
1070
     1
1070
    44
1040
1.0
1070
    74
1070
     0
1000
MTEXTEND
1000
MTEXTBEGIN
1070
    73
1070
     1
1070
    44
1040
1.0
1070
    74
1070
     0
1000
MTEXTEND
1000
MTEXTBEGIN
1070
    73
1070
     1
1070
    44
1040
1.0
1070
    74
1070
     0
1000
MTEXTEND
1000
MTEXTBEGIN
1070
    73
1070
     1
1070
    44
1040
1.0
1070
    74
1070
     0
1000
MTEXTEND
  0
MTEXT
  5
5452
330
1A
100
AcDbEntity
  8
SUNPOU
100
AcDbMText
 10
13337.6147919559
 20
22369.46284218996
 30
0.0
 40
10.5
 41
0.0
 71
     7
 72
     5
  1

1001
ACAD
1000
MTEXTBEGIN
1070
    73
1070
     1
1070
    44
1040
1.0
1070
    74
1070
     0
1000
MTEXTEND
1000
MTEXTBEGIN
1070
    73
1070
     1
1070
    44
1040
1.0
1070
    74
1070
     0
1000
MTEXTEND
1000
MTEXTBEGIN
1070
    73
1070
     1
1070
    44
1040
1.0
1070
    74
1070
     0
1000
MTEXTEND
1000
MTEXTBEGIN
1070
    73
1070
     1
1070
    44
1040
1.0
1070
    74
1070
     0
1000
MTEXTEND
  0
MTEXT
  5
5453
330
1A
100
AcDbEntity
  8
SUNPOU
100
AcDbMText
 10
16286.59845646867
 20
27270.13891403279
 30
0.0
 40
10.5
 41
0.0
 71
     7
 72
     5
  1

1001
ACAD
1000
MTEXTBEGIN
1070
    73
1070
     1
1070
    44
1040
1.0
1070
    74
1070
     0
1000
MTEXTEND
1000
MTEXTBEGIN
1070
    73
1070
     1
1070
    44
1040
1.0
1070
    74
1070
     0
1000
MTEXTEND
1000
MTEXTBEGIN
1070
    73
1070
     1
1070
    44
1040
1.0
1070
    74
1070
     0
1000
MTEXTEND
1000
MTEXTBEGIN
1070
    73
1070
     1
1070
    44
1040
1.0
1070
    74
1070
     0
1000
MTEXTEND
  0
MTEXT
  5
5454
330
1A
100
AcDbEntity
  8
SUNPOU
100
AcDbMText
 10
20795.67658441924
 20
29706.43966165288
 30
0.0
 40
10.5
 41
0.0
 71
     7
 72
     5
  1

1001
ACAD
1000
MTEXTBEGIN
1070
    73
1070
     1
1070
    44
1040
1.0
1070
    74
1070
     0
1000
MTEXTEND
1000
MTEXTBEGIN
1070
    73
1070
     1
1070
    44
1040
1.0
1070
    74
1070
     0
1000
MTEXTEND
1000
MTEXTBEGIN
1070
    73
1070
     1
1070
    44
1040
1.0
1070
    74
1070
     0
1000
MTEXTEND
1000
MTEXTBEGIN
1070
    73
1070
     1
1070
    44
1040
1.0
1070
    74
1070
     0
1000
MTEXTEND
  0
MTEXT
  5
5455
330
1A
100
AcDbEntity
  8
0
100
AcDbMText
 10
16611.93789220313
 20
14707.52144344448
 30
0.0
 40
8.0
 41
0.0
 71
     7
 72
     5
  1

1001
ACAD
1000
MTEXTBEGIN
1070
    73
1070
     1
1070
    44
1040
1.0
1070
    74
1070
     0
1000
MTEXTEND
1000
MTEXTBEGIN
1070
    73
1070
     1
1070
    44
1040
1.0
1070
    74
1070
     0
1000
MTEXTEND
1000
MTEXTBEGIN
1070
    73
1070
     1
1070
    44
1040
1.0
1070
    74
1070
     0
1000
MTEXTEND
1000
MTEXTBEGIN
1070
    73
1070
     1
1070
    44
1040
1.0
1070
    74
1070
     0
1000
MTEXTEND
  0
MTEXT
  5
5456
330
1A
100
AcDbEntity
  8
0
100
AcDbMText
 10
18897.29558209803
 20
15678.31173819554
 30
0.0
 40
8.0
 41
0.0
 71
     7
 72
     5
  1

1001
ACAD
1000
MTEXTBEGIN
1070
    73
1070
     1
1070
    44
1040
1.0
1070
    74
1070
     0
1000
MTEXTEND
1000
MTEXTBEGIN
1070
    73
1070
     1
1070
    44
1040
1.0
1070
    74
1070
     0
1000
MTEXTEND
1000
MTEXTBEGIN
1070
    73
1070
     1
1070
    44
1040
1.0
1070
    74
1070
     0
1000
MTEXTEND
1000
MTEXTBEGIN
1070
    73
1070
     1
1070
    44
1040
1.0
1070
    74
1070
     0
1000
MTEXTEND
  0
MTEXT
  5
5457
330
1A
100
AcDbEntity
  8
SUNPOU
100
AcDbMText
 10
21563.19260278019
 20
25190.42313057066
 30
0.0
 40
10.5
 41
0.0
 71
     1
 72
     5
  1

1001
ACAD
1000
MTEXTBEGIN
1070
    73
1070
     1
1070
    44
1040
1.0
1070
    74
1070
     0
1000
MTEXTEND
1000
MTEXTBEGIN
1070
    73
1070
     1
1070
    44
1040
1.0
1070
    74
1070
     0
1000
MTEXTEND
1000
MTEXTBEGIN
1070
    73
1070
     1
1070
    44
1040
1.0
1070
    74
1070
     0
1000
MTEXTEND
1000
MTEXTBEGIN
1070
    73
1070
     1
1070
    44
1040
1.0
1070
    74
1070
     0
1000
MTEXTEND
  0
MTEXT
  5
5458
330
1A
100
AcDbEntity
  8
SUNPOU
100
AcDbMText
 10
13632.26940684425
 20
24243.6299966577
 30
0.0
 40
10.5
 41
0.0
 71
     7
 72
     5
  1

1001
ACAD
1000
MTEXTBEGIN
1070
    73
1070
     1
1070
    44
1040
1.0
1070
    74
1070
     0
1000
MTEXTEND
1000
MTEXTBEGIN
1070
    73
1070
     1
1070
    44
1040
1.0
1070
    74
1070
     0
1000
MTEXTEND
1000
MTEXTBEGIN
1070
    73
1070
     1
1070
    44
1040
1.0
1070
    74
1070
     0
1000
MTEXTEND
1000
MTEXTBEGIN
1070
    73
1070
     1
1070
    44
1040
1.0
1070
    74
1070
     0
1000
MTEXTEND
  0
MTEXT
  5
5459
330
1A
100
AcDbEntity
  8
SUNPOU
100
AcDbMText
 10
16581.25307135702
 20
29144.30606850055
 30
0.0
 40
10.5
 41
0.0
 71
     7
 72
     5
  1

1001
ACAD
1000
MTEXTBEGIN
1070
    73
1070
     1
1070
    44
1040
1.0
1070
    74
1070
     0
1000
MTEXTEND
1000
MTEXTBEGIN
1070
    73
1070
     1
1070
    44
1040
1.0
1070
    74
1070
     0
1000
MTEXTEND
1000
MTEXTBEGIN
1070
    73
1070
     1
1070
    44
1040
1.0
1070
    74
1070
     0
1000
MTEXTEND
1000
MTEXTBEGIN
1070
    73
1070
     1
1070
    44
1040
1.0
1070
    74
1070
     0
1000
MTEXTEND
  0
MTEXT
  5
545A
330
1A
100
AcDbEntity
  8
SUNPOU
100
AcDbMText
 10
21090.33119930759
 20
31580.60681612062
 30
0.0
 40
10.5
 41
0.0
 71
     7
 72
     5
  1

1001
ACAD
1000
MTEXTBEGIN
1070
    73
1070
     1
1070
    44
1040
1.0
1070
    74
1070
     0
1000
MTEXTEND
1000
MTEXTBEGIN
1070
    73
1070
     1
1070
    44
1040
1.0
1070
    74
1070
     0
1000
MTEXTEND
1000
MTEXTBEGIN
1070
    73
1070
     1
1070
    44
1040
1.0
1070
    74
1070
     0
1000
MTEXTEND
1000
MTEXTBEGIN
1070
    73
1070
     1
1070
    44
1040
1.0
1070
    74
1070
     0
1000
MTEXTEND
  0
MTEXT
  5
545B
330
1A
100
AcDbEntity
  8
0
100
AcDbMText
 10
22871.60517627166
 20
23974.88367124799
 30
0.0
 40
8.0
 41
0.0
 71
     7
 72
     5
  1

1001
ACAD
1000
MTEXTBEGIN
1070
    73
1070
     1
1070
    44
1040
1.0
1070
    74
1070
     0
1000
MTEXTEND
1000
MTEXTBEGIN
1070
    73
1070
     1
1070
    44
1040
1.0
1070
    74
1070
     0
1000
MTEXTEND
1000
MTEXTBEGIN
1070
    73
1070
     1
1070
    44
1040
1.0
1070
    74
1070
     0
1000
MTEXTEND
1000
MTEXTBEGIN
1070
    73
1070
     1
1070
    44
1040
1.0
1070
    74
1070
     0
1000
MTEXTEND
  0
MTEXT
  5
545C
330
1A
100
AcDbEntity
  8
0
100
AcDbMText
 10
25156.96286616655
 20
24945.67396599904
 30
0.0
 40
8.0
 41
0.0
 71
     7
 72
     5
  1

1001
ACAD
1000
MTEXTBEGIN
1070
    73
1070
     1
1070
    44
1040
1.0
1070
    74
1070
     0
1000
MTEXTEND
1000
MTEXTBEGIN
1070
    73
1070
     1
1070
    44
1040
1.0
1070
    74
1070
     0
1000
MTEXTEND
1000
MTEXTBEGIN
1070
    73
1070
     1
1070
    44
1040
1.0
1070
    74
1070
     0
1000
MTEXTEND
1000
MTEXTBEGIN
1070
    73
1070
     1
1070
    44
1040
1.0
1070
    74
1070
     0
1000
MTEXTEND
  0
MTEXT
  5
545D
330
1A
100
AcDbEntity
  8
SUNPOU
100
AcDbMText
 10
27822.85988684871
 20
34457.78535837418
 30
0.0
 40
10.5
 41
0.0
 71
     1
 72
     5
  1

1001
ACAD
1000
MTEXTBEGIN
1070
    73
1070
     1
1070
    44
1040
1.0
1070
    74
1070
     0
1000
MTEXTEND
1000
MTEXTBEGIN
1070
    73
1070
     1
1070
    44
1040
1.0
1070
    74
1070
     0
1000
MTEXTEND
1000
MTEXTBEGIN
1070
    73
1070
     1
1070
    44
1040
1.0
1070
    74
1070
     0
1000
MTEXTEND
1000
MTEXTBEGIN
1070
    73
1070
     1
1070
    44
1040
1.0
1070
    74
1070
     0
1000
MTEXTEND
  0
MTEXT
  5
545E
330
1A
100
AcDbEntity
  8
SUNPOU
100
AcDbMText
 10
19891.93669091278
 20
33510.99222446122
 30
0.0
 40
10.5
 41
0.0
 71
     7
 72
     5
  1

1001
ACAD
1000
MTEXTBEGIN
1070
    73
1070
     1
1070
    44
1040
1.0
1070
    74
1070
     0
1000
MTEXTEND
1000
MTEXTBEGIN
1070
    73
1070
     1
1070
    44
1040
1.0
1070
    74
1070
     0
1000
MTEXTEND
1000
MTEXTBEGIN
1070
    73
1070
     1
1070
    44
1040
1.0
1070
    74
1070
     0
1000
MTEXTEND
1000
MTEXTBEGIN
1070
    73
1070
     1
1070
    44
1040
1.0
1070
    74
1070
     0
1000
MTEXTEND
  0
MTEXT
  5
545F
330
1A
100
AcDbEntity
  8
SUNPOU
100
AcDbMText
 10
22840.92035542555
 20
38411.66829630406
 30
0.0
 40
10.5
 41
0.0
 71
     7
 72
     5
  1

1001
ACAD
1000
MTEXTBEGIN
1070
    73
1070
     1
1070
    44
1040
1.0
1070
    74
1070
     0
1000
MTEXTEND
1000
MTEXTBEGIN
1070
    73
1070
     1
1070
    44
1040
1.0
1070
    74
1070
     0
1000
MTEXTEND
1000
MTEXTBEGIN
1070
    73
1070
     1
1070
    44
1040
1.0
1070
    74
1070
     0
1000
MTEXTEND
1000
MTEXTBEGIN
1070
    73
1070
     1
1070
    44
1040
1.0
1070
    74
1070
     0
1000
MTEXTEND
  0
MTEXT
  5
5460
330
1A
100
AcDbEntity
  8
SUNPOU
100
AcDbMText
 10
27349.99848337611
 20
40847.96904392415
 30
0.0
 40
10.5
 41
0.0
 71
     7
 72
     5
  1

1001
ACAD
1000
MTEXTBEGIN
1070
    73
1070
     1
1070
    44
1040
1.0
1070
    74
1070
     0
1000
MTEXTEND
1000
MTEXTBEGIN
1070
    73
1070
     1
1070
    44
1040
1.0
1070
    74
1070
     0
1000
MTEXTEND
1000
MTEXTBEGIN
1070
    73
1070
     1
1070
    44
1040
1.0
1070
    74
1070
     0
1000
MTEXTEND
1000
MTEXTBEGIN
1070
    73
1070
     1
1070
    44
1040
1.0
1070
    74
1070
     0
1000
MTEXTEND
  0
MTEXT
  5
55B7
330
1A
100
AcDbEntity
  8
SUNPOU
100
AcDbMText
 10
67424.23923338197
 20
64463.86602884816
 30
0.0
 40
10.5
 41
0.0
 71
     9
 72
     5
  1

1001
ACAD
1000
MTEXTBEGIN
1070
    73
1070
     1
1070
    44
1040
1.0
1070
    74
1070
     0
1000
MTEXTEND
1000
MTEXTBEGIN
1070
    73
1070
     1
1070
    44
1040
1.0
1070
    74
1070
     0
1000
MTEXTEND
1000
MTEXTBEGIN
1070
    73
1070
     1
1070
    44
1040
1.0
1070
    74
1070
     0
1000
MTEXTEND
1000
MTEXTBEGIN
1070
    73
1070
     1
1070
    44
1040
1.0
1070
    74
1070
     0
1000
MTEXTEND
  0
MTEXT
  5
55B8
330
1A
100
AcDbEntity
  8
SUNPOU
100
AcDbMText
 10
76146.40679929998
 20
71879.70056038563
 30
0.0
 40
10.5
 41
0.0
 71
     9
 72
     5
  1

1001
ACAD
1000
MTEXTBEGIN
1070
    73
1070
     1
1070
    44
1040
1.0
1070
    74
1070
     0
1000
MTEXTEND
1000
MTEXTBEGIN
1070
    73
1070
     1
1070
    44
1040
1.0
1070
    74
1070
     0
1000
MTEXTEND
1000
MTEXTBEGIN
1070
    73
1070
     1
1070
    44
1040
1.0
1070
    74
1070
     0
1000
MTEXTEND
1000
MTEXTBEGIN
1070
    73
1070
     1
1070
    44
1040
1.0
1070
    74
1070
     0
1000
MTEXTEND
  0
MTEXT
  5
55B9
330
1A
100
AcDbEntity
  8
SUNPOU
100
AcDbMText
 10
95100.16551662994
 20
89346.27661287766
 30
0.0
 40
10.5
 41
0.0
 71
     9
 72
     5
  1

1001
ACAD
1000
MTEXTBEGIN
1070
    73
1070
     1
1070
    44
1040
1.0
1070
    74
1070
     0
1000
MTEXTEND
1000
MTEXTBEGIN
1070
    73
1070
     1
1070
    44
1040
1.0
1070
    74
1070
     0
1000
MTEXTEND
1000
MTEXTBEGIN
1070
    73
1070
     1
1070
    44
1040
1.0
1070
    74
1070
     0
1000
MTEXTEND
1000
MTEXTBEGIN
1070
    73
1070
     1
1070
    44
1040
1.0
1070
    74
1070
     0
1000
MTEXTEND
  0
MTEXT
  5
55BA
330
1A
100
AcDbEntity
  8
SUNPOU
100
AcDbMText
 10
97043.57276333935
 20
87545.22753299966
 30
0.0
 40
3.5
 41
0.0
 71
     9
 72
     5
  1

1001
ACAD
1000
MTEXTBEGIN
1070
    73
1070
     1
1070
    44
1040
1.0
1070
    74
1070
     0
1000
MTEXTEND
1000
MTEXTBEGIN
1070
    73
1070
     1
1070
    44
1040
1.0
1070
    74
1070
     0
1000
MTEXTEND
1000
MTEXTBEGIN
1070
    73
1070
     1
1070
    44
1040
1.0
1070
    74
1070
     0
1000
MTEXTEND
1000
MTEXTBEGIN
1070
    73
1070
     1
1070
    44
1040
1.0
1070
    74
1070
     0
1000
MTEXTEND
  0
MTEXT
  5
55BB
330
1A
100
AcDbEntity
  8
SUNPOU
100
AcDbMText
 10
128169.7525959589
 20
130040.1732006569
 30
0.0
 40
10.5
 41
0.0
 71
     9
 72
     5
  1

1001
ACAD
1000
MTEXTBEGIN
1070
    73
1070
     1
1070
    44
1040
1.0
1070
    74
1070
     0
1000
MTEXTEND
1000
MTEXTBEGIN
1070
    73
1070
     1
1070
    44
1040
1.0
1070
    74
1070
     0
1000
MTEXTEND
1000
MTEXTBEGIN
1070
    73
1070
     1
1070
    44
1040
1.0
1070
    74
1070
     0
1000
MTEXTEND
1000
MTEXTBEGIN
1070
    73
1070
     1
1070
    44
1040
1.0
1070
    74
1070
     0
1000
MTEXTEND
  0
MTEXT
  5
55BC
330
1A
100
AcDbEntity
  8
SUNPOU
100
AcDbMText
 10
130113.1598426684
 20
128239.1241207789
 30
0.0
 40
3.5
 41
0.0
 71
     9
 72
     5
  1

1001
ACAD
1000
MTEXTBEGIN
1070
    73
1070
     1
1070
    44
1040
1.0
1070
    74
1070
     0
1000
MTEXTEND
1000
MTEXTBEGIN
1070
    73
1070
     1
1070
    44
1040
1.0
1070
    74
1070
     0
1000
MTEXTEND
1000
MTEXTBEGIN
1070
    73
1070
     1
1070
    44
1040
1.0
1070
    74
1070
     0
1000
MTEXTEND
1000
MTEXTBEGIN
1070
    73
1070
     1
1070
    44
1040
1.0
1070
    74
1070
     0
1000
MTEXTEND
  0
MTEXT
  5
55BD
330
1A
100
AcDbEntity
  8
SUNPOU
100
AcDbMText
 10
78610.02030175463
 20
75873.33835563206
 30
0.0
 40
10.5
 41
0.0
 71
     9
 72
     5
  1

1001
ACAD
1000
MTEXTBEGIN
1070
    73
1070
     1
1070
    44
1040
1.0
1070
    74
1070
     0
1000
MTEXTEND
1000
MTEXTBEGIN
1070
    73
1070
     1
1070
    44
1040
1.0
1070
    74
1070
     0
1000
MTEXTEND
1000
MTEXTBEGIN
1070
    73
1070
     1
1070
    44
1040
1.0
1070
    74
1070
     0
1000
MTEXTEND
1000
MTEXTBEGIN
1070
    73
1070
     1
1070
    44
1040
1.0
1070
    74
1070
     0
1000
MTEXTEND
  0
MTEXT
  5
55BE
330
1A
100
AcDbEntity
  8
SUNPOU
100
AcDbMText
 10
64662.02020137862
 20
56700.93921651987
 30
0.0
 40
3.5
 41
0.0
 71
     7
 72
     5
  1

1001
ACAD
1000
MTEXTBEGIN
1070
    73
1070
     1
1070
    44
1040
1.0
1070
    74
1070
     0
1000
MTEXTEND
1000
MTEXTBEGIN
1070
    73
1070
     1
1070
    44
1040
1.0
1070
    74
1070
     0
1000
MTEXTEND
1000
MTEXTBEGIN
1070
    73
1070
     1
1070
    44
1040
1.0
1070
    74
1070
     0
1000
MTEXTEND
1000
MTEXTBEGIN
1070
    73
1070
     1
1070
    44
1040
1.0
1070
    74
1070
     0
1000
MTEXTEND
  0
MTEXT
  5
55BF
330
1A
100
AcDbEntity
  8
SUNPOU
100
AcDbMText
 10
45647.18959837176
 20
44463.08794733806
 30
0.0
 40
10.5
 41
0.0
 71
     7
 72
     5
  1

1001
ACAD
1000
MTEXTBEGIN
1070
    73
1070
     1
1070
    44
1040
1.0
1070
    74
1070
     0
1000
MTEXTEND
1000
MTEXTBEGIN
1070
    73
1070
     1
1070
    44
1040
1.0
1070
    74
1070
     0
1000
MTEXTEND
1000
MTEXTBEGIN
1070
    73
1070
     1
1070
    44
1040
1.0
1070
    74
1070
     0
1000
MTEXTEND
1000
MTEXTBEGIN
1070
    73
1070
     1
1070
    44
1040
1.0
1070
    74
1070
     0
1000
MTEXTEND
  0
MTEXT
  5
55C0
330
1A
100
AcDbEntity
  8
SUNPOU
100
AcDbMText
 10
33189.96133342368
 20
28618.15636923965
 30
0.0
 40
35.0
 41
0.0
 71
     9
 72
     5
  1

1001
ACAD
1000
MTEXTBEGIN
1070
    73
1070
     1
1070
    44
1040
1.0
1070
    74
1070
     0
1000
MTEXTEND
1000
MTEXTBEGIN
1070
    73
1070
     1
1070
    44
1040
1.0
1070
    74
1070
     0
1000
MTEXTEND
1000
MTEXTBEGIN
1070
    73
1070
     1
1070
    44
1040
1.0
1070
    74
1070
     0
1000
MTEXTEND
1000
MTEXTBEGIN
1070
    73
1070
     1
1070
    44
1040
1.0
1070
    74
1070
     0
1000
MTEXTEND
  0
MTEXT
  5
55C1
330
1A
100
AcDbEntity
  8
SUNPOU
100
AcDbMText
 10
32098.44639099864
 20
29226.93177928834
 30
0.0
 40
350.0000004171781
 41
0.0
 71
     7
 72
     5
  1

1001
ACAD
1000
MTEXTBEGIN
1070
    73
1070
     1
1070
    44
1040
1.0
1070
    74
1070
     0
1000
MTEXTEND
1000
MTEXTBEGIN
1070
    73
1070
     1
1070
    44
1040
1.0
1070
    74
1070
     0
1000
MTEXTEND
1000
MTEXTBEGIN
1070
    73
1070
     1
1070
    44
1040
1.0
1070
    74
1070
     0
1000
MTEXTEND
1000
MTEXTBEGIN
1070
    73
1070
     1
1070
    44
1040
1.0
1070
    74
1070
     0
1000
MTEXTEND
  0
MTEXT
  5
55C2
330
1A
100
AcDbEntity
  8
0
100
AcDbMText
 10
38142.39714894154
 20
27206.85414142458
 30
0.0
 40
8.0
 41
0.0
 71
     7
 72
     5
  1

1001
ACAD
1000
MTEXTBEGIN
1070
    73
1070
     1
1070
    44
1040
1.0
1070
    74
1070
     0
1000
MTEXTEND
1000
MTEXTBEGIN
1070
    73
1070
     1
1070
    44
1040
1.0
1070
    74
1070
     0
1000
MTEXTEND
1000
MTEXTBEGIN
1070
    73
1070
     1
1070
    44
1040
1.0
1070
    74
1070
     0
1000
MTEXTEND
1000
MTEXTBEGIN
1070
    73
1070
     1
1070
    44
1040
1.0
1070
    74
1070
     0
1000
MTEXTEND
  0
MTEXT
  5
55C3
330
1A
100
AcDbEntity
  8
0
100
AcDbMText
 10
40427.75483883644
 20
28177.64443617564
 30
0.0
 40
8.0
 41
0.0
 71
     7
 72
     5
  1

1001
ACAD
1000
MTEXTBEGIN
1070
    73
1070
     1
1070
    44
1040
1.0
1070
    74
1070
     0
1000
MTEXTEND
1000
MTEXTBEGIN
1070
    73
1070
     1
1070
    44
1040
1.0
1070
    74
1070
     0
1000
MTEXTEND
1000
MTEXTBEGIN
1070
    73
1070
     1
1070
    44
1040
1.0
1070
    74
1070
     0
1000
MTEXTEND
1000
MTEXTBEGIN
1070
    73
1070
     1
1070
    44
1040
1.0
1070
    74
1070
     0
1000
MTEXTEND
  0
MTEXT
  5
55C4
330
1A
100
AcDbEntity
  8
SUNPOU
100
AcDbMText
 10
43093.65185951858
 20
37689.75582855077
 30
0.0
 40
10.5
 41
0.0
 71
     1
 72
     5
  1

1001
ACAD
1000
MTEXTBEGIN
1070
    73
1070
     1
1070
    44
1040
1.0
1070
    74
1070
     0
1000
MTEXTEND
1000
MTEXTBEGIN
1070
    73
1070
     1
1070
    44
1040
1.0
1070
    74
1070
     0
1000
MTEXTEND
1000
MTEXTBEGIN
1070
    73
1070
     1
1070
    44
1040
1.0
1070
    74
1070
     0
1000
MTEXTEND
1000
MTEXTBEGIN
1070
    73
1070
     1
1070
    44
1040
1.0
1070
    74
1070
     0
1000
MTEXTEND
  0
MTEXT
  5
55C5
330
1A
100
AcDbEntity
  8
SUNPOU
100
AcDbMText
 10
35162.72866358265
 20
36742.96269463781
 30
0.0
 40
10.5
 41
0.0
 71
     7
 72
     5
  1

1001
ACAD
1000
MTEXTBEGIN
1070
    73
1070
     1
1070
    44
1040
1.0
1070
    74
1070
     0
1000
MTEXTEND
1000
MTEXTBEGIN
1070
    73
1070
     1
1070
    44
1040
1.0
1070
    74
1070
     0
1000
MTEXTEND
1000
MTEXTBEGIN
1070
    73
1070
     1
1070
    44
1040
1.0
1070
    74
1070
     0
1000
MTEXTEND
1000
MTEXTBEGIN
1070
    73
1070
     1
1070
    44
1040
1.0
1070
    74
1070
     0
1000
MTEXTEND
  0
MTEXT
  5
55C6
330
1A
100
AcDbEntity
  8
SUNPOU
100
AcDbMText
 10
38111.71232809542
 20
41643.63876648065
 30
0.0
 40
10.5
 41
0.0
 71
     7
 72
     5
  1

1001
ACAD
1000
MTEXTBEGIN
1070
    73
1070
     1
1070
    44
1040
1.0
1070
    74
1070
     0
1000
MTEXTEND
1000
MTEXTBEGIN
1070
    73
1070
     1
1070
    44
1040
1.0
1070
    74
1070
     0
1000
MTEXTEND
1000
MTEXTBEGIN
1070
    73
1070
     1
1070
    44
1040
1.0
1070
    74
1070
     0
1000
MTEXTEND
1000
MTEXTBEGIN
1070
    73
1070
     1
1070
    44
1040
1.0
1070
    74
1070
     0
1000
MTEXTEND
  0
MTEXT
  5
55C7
330
1A
100
AcDbEntity
  8
SUNPOU
100
AcDbMText
 10
42620.79045604596
 20
44079.93951410074
 30
0.0
 40
10.5
 41
0.0
 71
     7
 72
     5
  1

1001
ACAD
1000
MTEXTBEGIN
1070
    73
1070
     1
1070
    44
1040
1.0
1070
    74
1070
     0
1000
MTEXTEND
1000
MTEXTBEGIN
1070
    73
1070
     1
1070
    44
1040
1.0
1070
    74
1070
     0
1000
MTEXTEND
1000
MTEXTBEGIN
1070
    73
1070
     1
1070
    44
1040
1.0
1070
    74
1070
     0
1000
MTEXTEND
1000
MTEXTBEGIN
1070
    73
1070
     1
1070
    44
1040
1.0
1070
    74
1070
     0
1000
MTEXTEND
  0
MTEXT
  5
55C8
330
1A
100
AcDbEntity
  8
SUNPOU
100
AcDbMText
 10
26221.62834281429
 20
23077.53566448964
 30
0.0
 40
10.5
 41
0.0
 71
     7
 72
     5
  1

1001
ACAD
1000
MTEXTBEGIN
1070
    73
1070
     1
1070
    44
1040
1.0
1070
    74
1070
     0
1000
MTEXTEND
1000
MTEXTBEGIN
1070
    73
1070
     1
1070
    44
1040
1.0
1070
    74
1070
     0
1000
MTEXTEND
1000
MTEXTBEGIN
1070
    73
1070
     1
1070
    44
1040
1.0
1070
    74
1070
     0
1000
MTEXTEND
1000
MTEXTBEGIN
1070
    73
1070
     1
1070
    44
1040
1.0
1070
    74
1070
     0
1000
MTEXTEND
  0
MTEXT
  5
55C9
330
1A
100
AcDbEntity
  8
SUNPOU
100
AcDbMText
 10
77413.14677671455
 20
68750.51622813789
 30
0.0
 40
10.5
 41
0.0
 71
     9
 72
     5
  1

1001
ACAD
1000
MTEXTBEGIN
1070
    73
1070
     1
1070
    44
1040
1.0
1070
    74
1070
     0
1000
MTEXTEND
1000
MTEXTBEGIN
1070
    73
1070
     1
1070
    44
1040
1.0
1070
    74
1070
     0
1000
MTEXTEND
1000
MTEXTBEGIN
1070
    73
1070
     1
1070
    44
1040
1.0
1070
    74
1070
     0
1000
MTEXTEND
1000
MTEXTBEGIN
1070
    73
1070
     1
1070
    44
1040
1.0
1070
    74
1070
     0
1000
MTEXTEND
  0
MTEXT
  5
55CA
330
1A
100
AcDbEntity
  8
SUNPOU
100
AcDbMText
 10
86135.31434263256
 20
76166.35075967536
 30
0.0
 40
10.5
 41
0.0
 71
     9
 72
     5
  1

1001
ACAD
1000
MTEXTBEGIN
1070
    73
1070
     1
1070
    44
1040
1.0
1070
    74
1070
     0
1000
MTEXTEND
1000
MTEXTBEGIN
1070
    73
1070
     1
1070
    44
1040
1.0
1070
    74
1070
     0
1000
MTEXTEND
1000
MTEXTBEGIN
1070
    73
1070
     1
1070
    44
1040
1.0
1070
    74
1070
     0
1000
MTEXTEND
1000
MTEXTBEGIN
1070
    73
1070
     1
1070
    44
1040
1.0
1070
    74
1070
     0
1000
MTEXTEND
  0
MTEXT
  5
55CB
330
1A
100
AcDbEntity
  8
SUNPOU
100
AcDbMText
 10
105089.0730599624
 20
93632.92681216739
 30
0.0
 40
10.5
 41
0.0
 71
     9
 72
     5
  1

1001
ACAD
1000
MTEXTBEGIN
1070
    73
1070
     1
1070
    44
1040
1.0
1070
    74
1070
     0
1000
MTEXTEND
1000
MTEXTBEGIN
1070
    73
1070
     1
1070
    44
1040
1.0
1070
    74
1070
     0
1000
MTEXTEND
1000
MTEXTBEGIN
1070
    73
1070
     1
1070
    44
1040
1.0
1070
    74
1070
     0
1000
MTEXTEND
1000
MTEXTBEGIN
1070
    73
1070
     1
1070
    44
1040
1.0
1070
    74
1070
     0
1000
MTEXTEND
  0
MTEXT
  5
55CC
330
1A
100
AcDbEntity
  8
SUNPOU
100
AcDbMText
 10
107032.4803066718
 20
91831.87773228937
 30
0.0
 40
3.5
 41
0.0
 71
     9
 72
     5
  1

1001
ACAD
1000
MTEXTBEGIN
1070
    73
1070
     1
1070
    44
1040
1.0
1070
    74
1070
     0
1000
MTEXTEND
1000
MTEXTBEGIN
1070
    73
1070
     1
1070
    44
1040
1.0
1070
    74
1070
     0
1000
MTEXTEND
1000
MTEXTBEGIN
1070
    73
1070
     1
1070
    44
1040
1.0
1070
    74
1070
     0
1000
MTEXTEND
1000
MTEXTBEGIN
1070
    73
1070
     1
1070
    44
1040
1.0
1070
    74
1070
     0
1000
MTEXTEND
  0
MTEXT
  5
55CD
330
1A
100
AcDbEntity
  8
SUNPOU
100
AcDbMText
 10
138158.6601392916
 20
134326.8233999467
 30
0.0
 40
10.5
 41
0.0
 71
     9
 72
     5
  1

1001
ACAD
1000
MTEXTBEGIN
1070
    73
1070
     1
1070
    44
1040
1.0
1070
    74
1070
     0
1000
MTEXTEND
1000
MTEXTBEGIN
1070
    73
1070
     1
1070
    44
1040
1.0
1070
    74
1070
     0
1000
MTEXTEND
1000
MTEXTBEGIN
1070
    73
1070
     1
1070
    44
1040
1.0
1070
    74
1070
     0
1000
MTEXTEND
1000
MTEXTBEGIN
1070
    73
1070
     1
1070
    44
1040
1.0
1070
    74
1070
     0
1000
MTEXTEND
  0
MTEXT
  5
55CE
330
1A
100
AcDbEntity
  8
SUNPOU
100
AcDbMText
 10
140102.067386001
 20
132525.7743200686
 30
0.0
 40
3.5
 41
0.0
 71
     9
 72
     5
  1

1001
ACAD
1000
MTEXTBEGIN
1070
    73
1070
     1
1070
    44
1040
1.0
1070
    74
1070
     0
1000
MTEXTEND
1000
MTEXTBEGIN
1070
    73
1070
     1
1070
    44
1040
1.0
1070
    74
1070
     0
1000
MTEXTEND
1000
MTEXTBEGIN
1070
    73
1070
     1
1070
    44
1040
1.0
1070
    74
1070
     0
1000
MTEXTEND
1000
MTEXTBEGIN
1070
    73
1070
     1
1070
    44
1040
1.0
1070
    74
1070
     0
1000
MTEXTEND
  0
MTEXT
  5
55CF
330
1A
100
AcDbEntity
  8
SUNPOU
100
AcDbMText
 10
88598.92784508721
 20
80159.98855492179
 30
0.0
 40
10.5
 41
0.0
 71
     9
 72
     5
  1

1001
ACAD
1000
MTEXTBEGIN
1070
    73
1070
     1
1070
    44
1040
1.0
1070
    74
1070
     0
1000
MTEXTEND
1000
MTEXTBEGIN
1070
    73
1070
     1
1070
    44
1040
1.0
1070
    74
1070
     0
1000
MTEXTEND
1000
MTEXTBEGIN
1070
    73
1070
     1
1070
    44
1040
1.0
1070
    74
1070
     0
1000
MTEXTEND
1000
MTEXTBEGIN
1070
    73
1070
     1
1070
    44
1040
1.0
1070
    74
1070
     0
1000
MTEXTEND
  0
MTEXT
  5
55D0
330
1A
100
AcDbEntity
  8
SUNPOU
100
AcDbMText
 10
74650.92774471121
 20
60987.58941580959
 30
0.0
 40
3.5
 41
0.0
 71
     7
 72
     5
  1

1001
ACAD
1000
MTEXTBEGIN
1070
    73
1070
     1
1070
    44
1040
1.0
1070
    74
1070
     0
1000
MTEXTEND
1000
MTEXTBEGIN
1070
    73
1070
     1
1070
    44
1040
1.0
1070
    74
1070
     0
1000
MTEXTEND
1000
MTEXTBEGIN
1070
    73
1070
     1
1070
    44
1040
1.0
1070
    74
1070
     0
1000
MTEXTEND
1000
MTEXTBEGIN
1070
    73
1070
     1
1070
    44
1040
1.0
1070
    74
1070
     0
1000
MTEXTEND
  0
MTEXT
  5
55D1
330
1A
100
AcDbEntity
  8
SUNPOU
100
AcDbMText
 10
55636.09714170436
 20
48749.73814662781
 30
0.0
 40
10.5
 41
0.0
 71
     7
 72
     5
  1

1001
ACAD
1000
MTEXTBEGIN
1070
    73
1070
     1
1070
    44
1040
1.0
1070
    74
1070
     0
1000
MTEXTEND
1000
MTEXTBEGIN
1070
    73
1070
     1
1070
    44
1040
1.0
1070
    74
1070
     0
1000
MTEXTEND
1000
MTEXTBEGIN
1070
    73
1070
     1
1070
    44
1040
1.0
1070
    74
1070
     0
1000
MTEXTEND
1000
MTEXTBEGIN
1070
    73
1070
     1
1070
    44
1040
1.0
1070
    74
1070
     0
1000
MTEXTEND
  0
MTEXT
  5
55D2
330
1A
100
AcDbEntity
  8
SUNPOU
100
AcDbMText
 10
43178.86887675626
 20
32904.80656852937
 30
0.0
 40
35.0
 41
0.0
 71
     9
 72
     5
  1

1001
ACAD
1000
MTEXTBEGIN
1070
    73
1070
     1
1070
    44
1040
1.0
1070
    74
1070
     0
1000
MTEXTEND
1000
MTEXTBEGIN
1070
    73
1070
     1
1070
    44
1040
1.0
1070
    74
1070
     0
1000
MTEXTEND
1000
MTEXTBEGIN
1070
    73
1070
     1
1070
    44
1040
1.0
1070
    74
1070
     0
1000
MTEXTEND
1000
MTEXTBEGIN
1070
    73
1070
     1
1070
    44
1040
1.0
1070
    74
1070
     0
1000
MTEXTEND
  0
MTEXT
  5
55D3
330
1A
100
AcDbEntity
  8
SUNPOU
100
AcDbMText
 10
42087.3539343312
 20
33513.58197857808
 30
0.0
 40
350.0000004171781
 41
0.0
 71
     7
 72
     5
  1

1001
ACAD
1000
MTEXTBEGIN
1070
    73
1070
     1
1070
    44
1040
1.0
1070
    74
1070
     0
1000
MTEXTEND
1000
MTEXTBEGIN
1070
    73
1070
     1
1070
    44
1040
1.0
1070
    74
1070
     0
1000
MTEXTEND
1000
MTEXTBEGIN
1070
    73
1070
     1
1070
    44
1040
1.0
1070
    74
1070
     0
1000
MTEXTEND
1000
MTEXTBEGIN
1070
    73
1070
     1
1070
    44
1040
1.0
1070
    74
1070
     0
1000
MTEXTEND
  0
MTEXT
  5
55D4
330
1A
100
AcDbEntity
  8
0
100
AcDbMText
 10
48131.30469227412
 20
31493.50434071431
 30
0.0
 40
8.0
 41
0.0
 71
     7
 72
     5
  1

1001
ACAD
1000
MTEXTBEGIN
1070
    73
1070
     1
1070
    44
1040
1.0
1070
    74
1070
     0
1000
MTEXTEND
1000
MTEXTBEGIN
1070
    73
1070
     1
1070
    44
1040
1.0
1070
    74
1070
     0
1000
MTEXTEND
1000
MTEXTBEGIN
1070
    73
1070
     1
1070
    44
1040
1.0
1070
    74
1070
     0
1000
MTEXTEND
1000
MTEXTBEGIN
1070
    73
1070
     1
1070
    44
1040
1.0
1070
    74
1070
     0
1000
MTEXTEND
  0
MTEXT
  5
55D5
330
1A
100
AcDbEntity
  8
0
100
AcDbMText
 10
50416.66238216901
 20
32464.29463546537
 30
0.0
 40
8.0
 41
0.0
 71
     7
 72
     5
  1

1001
ACAD
1000
MTEXTBEGIN
1070
    73
1070
     1
1070
    44
1040
1.0
1070
    74
1070
     0
1000
MTEXTEND
1000
MTEXTBEGIN
1070
    73
1070
     1
1070
    44
1040
1.0
1070
    74
1070
     0
1000
MTEXTEND
1000
MTEXTBEGIN
1070
    73
1070
     1
1070
    44
1040
1.0
1070
    74
1070
     0
1000
MTEXTEND
1000
MTEXTBEGIN
1070
    73
1070
     1
1070
    44
1040
1.0
1070
    74
1070
     0
1000
MTEXTEND
  0
MTEXT
  5
55D6
330
1A
100
AcDbEntity
  8
SUNPOU
100
AcDbMText
 10
53082.55940285115
 20
41976.4060278405
 30
0.0
 40
10.5
 41
0.0
 71
     1
 72
     5
  1

1001
ACAD
1000
MTEXTBEGIN
1070
    73
1070
     1
1070
    44
1040
1.0
1070
    74
1070
     0
1000
MTEXTEND
1000
MTEXTBEGIN
1070
    73
1070
     1
1070
    44
1040
1.0
1070
    74
1070
     0
1000
MTEXTEND
1000
MTEXTBEGIN
1070
    73
1070
     1
1070
    44
1040
1.0
1070
    74
1070
     0
1000
MTEXTEND
1000
MTEXTBEGIN
1070
    73
1070
     1
1070
    44
1040
1.0
1070
    74
1070
     0
1000
MTEXTEND
  0
MTEXT
  5
55D7
330
1A
100
AcDbEntity
  8
SUNPOU
100
AcDbMText
 10
45151.63620691521
 20
41029.61289392755
 30
0.0
 40
10.5
 41
0.0
 71
     7
 72
     5
  1

1001
ACAD
1000
MTEXTBEGIN
1070
    73
1070
     1
1070
    44
1040
1.0
1070
    74
1070
     0
1000
MTEXTEND
1000
MTEXTBEGIN
1070
    73
1070
     1
1070
    44
1040
1.0
1070
    74
1070
     0
1000
MTEXTEND
1000
MTEXTBEGIN
1070
    73
1070
     1
1070
    44
1040
1.0
1070
    74
1070
     0
1000
MTEXTEND
1000
MTEXTBEGIN
1070
    73
1070
     1
1070
    44
1040
1.0
1070
    74
1070
     0
1000
MTEXTEND
  0
MTEXT
  5
55D8
330
1A
100
AcDbEntity
  8
SUNPOU
100
AcDbMText
 10
48100.61987142798
 20
45930.28896577039
 30
0.0
 40
10.5
 41
0.0
 71
     7
 72
     5
  1

1001
ACAD
1000
MTEXTBEGIN
1070
    73
1070
     1
1070
    44
1040
1.0
1070
    74
1070
     0
1000
MTEXTEND
1000
MTEXTBEGIN
1070
    73
1070
     1
1070
    44
1040
1.0
1070
    74
1070
     0
1000
MTEXTEND
1000
MTEXTBEGIN
1070
    73
1070
     1
1070
    44
1040
1.0
1070
    74
1070
     0
1000
MTEXTEND
1000
MTEXTBEGIN
1070
    73
1070
     1
1070
    44
1040
1.0
1070
    74
1070
     0
1000
MTEXTEND
  0
MTEXT
  5
55D9
330
1A
100
AcDbEntity
  8
SUNPOU
100
AcDbMText
 10
52609.69799937853
 20
48366.58971339046
 30
0.0
 40
10.5
 41
0.0
 71
     7
 72
     5
  1

1001
ACAD
1000
MTEXTBEGIN
1070
    73
1070
     1
1070
    44
1040
1.0
1070
    74
1070
     0
1000
MTEXTEND
1000
MTEXTBEGIN
1070
    73
1070
     1
1070
    44
1040
1.0
1070
    74
1070
     0
1000
MTEXTEND
1000
MTEXTBEGIN
1070
    73
1070
     1
1070
    44
1040
1.0
1070
    74
1070
     0
1000
MTEXTEND
1000
MTEXTBEGIN
1070
    73
1070
     1
1070
    44
1040
1.0
1070
    74
1070
     0
1000
MTEXTEND
  0
MTEXT
  5
55DA
330
1A
100
AcDbEntity
  8
SUNPOU
100
AcDbMText
 10
36210.53588614687
 20
27364.18586377937
 30
0.0
 40
10.5
 41
0.0
 71
     7
 72
     5
  1

1001
ACAD
1000
MTEXTBEGIN
1070
    73
1070
     1
1070
    44
1040
1.0
1070
    74
1070
     0
1000
MTEXTEND
1000
MTEXTBEGIN
1070
    73
1070
     1
1070
    44
1040
1.0
1070
    74
1070
     0
1000
MTEXTEND
1000
MTEXTBEGIN
1070
    73
1070
     1
1070
    44
1040
1.0
1070
    74
1070
     0
1000
MTEXTEND
1000
MTEXTBEGIN
1070
    73
1070
     1
1070
    44
1040
1.0
1070
    74
1070
     0
1000
MTEXTEND
  0
MTEXT
  5
55DB
330
1A
100
AcDbEntity
  8
SUNPOU
100
AcDbMText
 10
38021.29879752181
 20
33691.59985125794
 30
0.0
 40
10.5
 41
0.0
 71
     9
 72
     5
  1

1001
ACAD
1000
MTEXTBEGIN
1070
    73
1070
     1
1070
    44
1040
1.0
1070
    74
1070
     0
1000
MTEXTEND
1000
MTEXTBEGIN
1070
    73
1070
     1
1070
    44
1040
1.0
1070
    74
1070
     0
1000
MTEXTEND
1000
MTEXTBEGIN
1070
    73
1070
     1
1070
    44
1040
1.0
1070
    74
1070
     0
1000
MTEXTEND
1000
MTEXTBEGIN
1070
    73
1070
     1
1070
    44
1040
1.0
1070
    74
1070
     0
1000
MTEXTEND
  0
MTEXT
  5
55DC
330
1A
100
AcDbEntity
  8
SUNPOU
100
AcDbMText
 10
46743.46636343979
 20
41107.4343827954
 30
0.0
 40
10.5
 41
0.0
 71
     9
 72
     5
  1

1001
ACAD
1000
MTEXTBEGIN
1070
    73
1070
     1
1070
    44
1040
1.0
1070
    74
1070
     0
1000
MTEXTEND
1000
MTEXTBEGIN
1070
    73
1070
     1
1070
    44
1040
1.0
1070
    74
1070
     0
1000
MTEXTEND
1000
MTEXTBEGIN
1070
    73
1070
     1
1070
    44
1040
1.0
1070
    74
1070
     0
1000
MTEXTEND
1000
MTEXTBEGIN
1070
    73
1070
     1
1070
    44
1040
1.0
1070
    74
1070
     0
1000
MTEXTEND
  0
MTEXT
  5
55DD
330
1A
100
AcDbEntity
  8
SUNPOU
100
AcDbMText
 10
65697.22508076974
 20
58574.01043528746
 30
0.0
 40
10.5
 41
0.0
 71
     9
 72
     5
  1

1001
ACAD
1000
MTEXTBEGIN
1070
    73
1070
     1
1070
    44
1040
1.0
1070
    74
1070
     0
1000
MTEXTEND
1000
MTEXTBEGIN
1070
    73
1070
     1
1070
    44
1040
1.0
1070
    74
1070
     0
1000
MTEXTEND
1000
MTEXTBEGIN
1070
    73
1070
     1
1070
    44
1040
1.0
1070
    74
1070
     0
1000
MTEXTEND
1000
MTEXTBEGIN
1070
    73
1070
     1
1070
    44
1040
1.0
1070
    74
1070
     0
1000
MTEXTEND
  0
MTEXT
  5
55DE
330
1A
100
AcDbEntity
  8
SUNPOU
100
AcDbMText
 10
67640.63232747917
 20
56772.96135540945
 30
0.0
 40
3.5
 41
0.0
 71
     9
 72
     5
  1

1001
ACAD
1000
MTEXTBEGIN
1070
    73
1070
     1
1070
    44
1040
1.0
1070
    74
1070
     0
1000
MTEXTEND
1000
MTEXTBEGIN
1070
    73
1070
     1
1070
    44
1040
1.0
1070
    74
1070
     0
1000
MTEXTEND
1000
MTEXTBEGIN
1070
    73
1070
     1
1070
    44
1040
1.0
1070
    74
1070
     0
1000
MTEXTEND
1000
MTEXTBEGIN
1070
    73
1070
     1
1070
    44
1040
1.0
1070
    74
1070
     0
1000
MTEXTEND
  0
MTEXT
  5
55DF
330
1A
100
AcDbEntity
  8
SUNPOU
100
AcDbMText
 10
98766.81216009886
 20
99267.9070230668
 30
0.0
 40
10.5
 41
0.0
 71
     9
 72
     5
  1

1001
ACAD
1000
MTEXTBEGIN
1070
    73
1070
     1
1070
    44
1040
1.0
1070
    74
1070
     0
1000
MTEXTEND
1000
MTEXTBEGIN
1070
    73
1070
     1
1070
    44
1040
1.0
1070
    74
1070
     0
1000
MTEXTEND
1000
MTEXTBEGIN
1070
    73
1070
     1
1070
    44
1040
1.0
1070
    74
1070
     0
1000
MTEXTEND
1000
MTEXTBEGIN
1070
    73
1070
     1
1070
    44
1040
1.0
1070
    74
1070
     0
1000
MTEXTEND
  0
MTEXT
  5
55E0
330
1A
100
AcDbEntity
  8
SUNPOU
100
AcDbMText
 10
100710.2194068083
 20
97466.85794318876
 30
0.0
 40
3.5
 41
0.0
 71
     9
 72
     5
  1

1001
ACAD
1000
MTEXTBEGIN
1070
    73
1070
     1
1070
    44
1040
1.0
1070
    74
1070
     0
1000
MTEXTEND
1000
MTEXTBEGIN
1070
    73
1070
     1
1070
    44
1040
1.0
1070
    74
1070
     0
1000
MTEXTEND
1000
MTEXTBEGIN
1070
    73
1070
     1
1070
    44
1040
1.0
1070
    74
1070
     0
1000
MTEXTEND
1000
MTEXTBEGIN
1070
    73
1070
     1
1070
    44
1040
1.0
1070
    74
1070
     0
1000
MTEXTEND
  0
MTEXT
  5
55E1
330
1A
100
AcDbEntity
  8
SUNPOU
100
AcDbMText
 10
49207.07986589443
 20
45101.07217804184
 30
0.0
 40
10.5
 41
0.0
 71
     9
 72
     5
  1

1001
ACAD
1000
MTEXTBEGIN
1070
    73
1070
     1
1070
    44
1040
1.0
1070
    74
1070
     0
1000
MTEXTEND
1000
MTEXTBEGIN
1070
    73
1070
     1
1070
    44
1040
1.0
1070
    74
1070
     0
1000
MTEXTEND
1000
MTEXTBEGIN
1070
    73
1070
     1
1070
    44
1040
1.0
1070
    74
1070
     0
1000
MTEXTEND
1000
MTEXTBEGIN
1070
    73
1070
     1
1070
    44
1040
1.0
1070
    74
1070
     0
1000
MTEXTEND
  0
MTEXT
  5
55E2
330
1A
100
AcDbEntity
  8
SUNPOU
100
AcDbMText
 10
35259.07976551845
 20
25928.67303892964
 30
0.0
 40
3.5
 41
0.0
 71
     7
 72
     5
  1

1001
ACAD
1000
MTEXTBEGIN
1070
    73
1070
     1
1070
    44
1040
1.0
1070
    74
1070
     0
1000
MTEXTEND
1000
MTEXTBEGIN
1070
    73
1070
     1
1070
    44
1040
1.0
1070
    74
1070
     0
1000
MTEXTEND
1000
MTEXTBEGIN
1070
    73
1070
     1
1070
    44
1040
1.0
1070
    74
1070
     0
1000
MTEXTEND
1000
MTEXTBEGIN
1070
    73
1070
     1
1070
    44
1040
1.0
1070
    74
1070
     0
1000
MTEXTEND
  0
MTEXT
  5
55E3
330
1A
100
AcDbEntity
  8
SUNPOU
100
AcDbMText
 10
48951.43044828905
 20
35287.73625995099
 30
0.0
 40
10.5
 41
0.0
 71
     9
 72
     5
  1

1001
ACAD
1000
MTEXTBEGIN
1070
    73
1070
     1
1070
    44
1040
1.0
1070
    74
1070
     0
1000
MTEXTEND
1000
MTEXTBEGIN
1070
    73
1070
     1
1070
    44
1040
1.0
1070
    74
1070
     0
1000
MTEXTEND
1000
MTEXTBEGIN
1070
    73
1070
     1
1070
    44
1040
1.0
1070
    74
1070
     0
1000
MTEXTEND
1000
MTEXTBEGIN
1070
    73
1070
     1
1070
    44
1040
1.0
1070
    74
1070
     0
1000
MTEXTEND
  0
MTEXT
  5
55E4
330
1A
100
AcDbEntity
  8
SUNPOU
100
AcDbMText
 10
57673.59801420702
 20
42703.57079148847
 30
0.0
 40
10.5
 41
0.0
 71
     9
 72
     5
  1

1001
ACAD
1000
MTEXTBEGIN
1070
    73
1070
     1
1070
    44
1040
1.0
1070
    74
1070
     0
1000
MTEXTEND
1000
MTEXTBEGIN
1070
    73
1070
     1
1070
    44
1040
1.0
1070
    74
1070
     0
1000
MTEXTEND
1000
MTEXTBEGIN
1070
    73
1070
     1
1070
    44
1040
1.0
1070
    74
1070
     0
1000
MTEXTEND
1000
MTEXTBEGIN
1070
    73
1070
     1
1070
    44
1040
1.0
1070
    74
1070
     0
1000
MTEXTEND
  0
MTEXT
  5
55E5
330
1A
100
AcDbEntity
  8
SUNPOU
100
AcDbMText
 10
76627.35673153699
 20
60170.14684398051
 30
0.0
 40
10.5
 41
0.0
 71
     9
 72
     5
  1

1001
ACAD
1000
MTEXTBEGIN
1070
    73
1070
     1
1070
    44
1040
1.0
1070
    74
1070
     0
1000
MTEXTEND
1000
MTEXTBEGIN
1070
    73
1070
     1
1070
    44
1040
1.0
1070
    74
1070
     0
1000
MTEXTEND
1000
MTEXTBEGIN
1070
    73
1070
     1
1070
    44
1040
1.0
1070
    74
1070
     0
1000
MTEXTEND
1000
MTEXTBEGIN
1070
    73
1070
     1
1070
    44
1040
1.0
1070
    74
1070
     0
1000
MTEXTEND
  0
MTEXT
  5
55E6
330
1A
100
AcDbEntity
  8
SUNPOU
100
AcDbMText
 10
78570.76397824641
 20
58369.09776410251
 30
0.0
 40
3.5
 41
0.0
 71
     9
 72
     5
  1

1001
ACAD
1000
MTEXTBEGIN
1070
    73
1070
     1
1070
    44
1040
1.0
1070
    74
1070
     0
1000
MTEXTEND
1000
MTEXTBEGIN
1070
    73
1070
     1
1070
    44
1040
1.0
1070
    74
1070
     0
1000
MTEXTEND
1000
MTEXTBEGIN
1070
    73
1070
     1
1070
    44
1040
1.0
1070
    74
1070
     0
1000
MTEXTEND
1000
MTEXTBEGIN
1070
    73
1070
     1
1070
    44
1040
1.0
1070
    74
1070
     0
1000
MTEXTEND
  0
MTEXT
  5
55E7
330
1A
100
AcDbEntity
  8
SUNPOU
100
AcDbMText
 10
109696.943810866
 20
100864.0434317598
 30
0.0
 40
10.5
 41
0.0
 71
     9
 72
     5
  1

1001
ACAD
1000
MTEXTBEGIN
1070
    73
1070
     1
1070
    44
1040
1.0
1070
    74
1070
     0
1000
MTEXTEND
1000
MTEXTBEGIN
1070
    73
1070
     1
1070
    44
1040
1.0
1070
    74
1070
     0
1000
MTEXTEND
1000
MTEXTBEGIN
1070
    73
1070
     1
1070
    44
1040
1.0
1070
    74
1070
     0
1000
MTEXTEND
1000
MTEXTBEGIN
1070
    73
1070
     1
1070
    44
1040
1.0
1070
    74
1070
     0
1000
MTEXTEND
  0
MTEXT
  5
55E8
330
1A
100
AcDbEntity
  8
SUNPOU
100
AcDbMText
 10
111640.3510575755
 20
99062.99435188183
 30
0.0
 40
3.5
 41
0.0
 71
     9
 72
     5
  1

1001
ACAD
1000
MTEXTBEGIN
1070
    73
1070
     1
1070
    44
1040
1.0
1070
    74
1070
     0
1000
MTEXTEND
1000
MTEXTBEGIN
1070
    73
1070
     1
1070
    44
1040
1.0
1070
    74
1070
     0
1000
MTEXTEND
1000
MTEXTBEGIN
1070
    73
1070
     1
1070
    44
1040
1.0
1070
    74
1070
     0
1000
MTEXTEND
1000
MTEXTBEGIN
1070
    73
1070
     1
1070
    44
1040
1.0
1070
    74
1070
     0
1000
MTEXTEND
  0
MTEXT
  5
55E9
330
1A
100
AcDbEntity
  8
SUNPOU
100
AcDbMText
 10
60137.21151666167
 20
46697.20858673491
 30
0.0
 40
10.5
 41
0.0
 71
     9
 72
     5
  1

1001
ACAD
1000
MTEXTBEGIN
1070
    73
1070
     1
1070
    44
1040
1.0
1070
    74
1070
     0
1000
MTEXTEND
1000
MTEXTBEGIN
1070
    73
1070
     1
1070
    44
1040
1.0
1070
    74
1070
     0
1000
MTEXTEND
1000
MTEXTBEGIN
1070
    73
1070
     1
1070
    44
1040
1.0
1070
    74
1070
     0
1000
MTEXTEND
1000
MTEXTBEGIN
1070
    73
1070
     1
1070
    44
1040
1.0
1070
    74
1070
     0
1000
MTEXTEND
  0
MTEXT
  5
55EA
330
1A
100
AcDbEntity
  8
SUNPOU
100
AcDbMText
 10
46189.21141628568
 20
27524.80944762269
 30
0.0
 40
3.5
 41
0.0
 71
     7
 72
     5
  1

1001
ACAD
1000
MTEXTBEGIN
1070
    73
1070
     1
1070
    44
1040
1.0
1070
    74
1070
     0
1000
MTEXTEND
1000
MTEXTBEGIN
1070
    73
1070
     1
1070
    44
1040
1.0
1070
    74
1070
     0
1000
MTEXTEND
1000
MTEXTBEGIN
1070
    73
1070
     1
1070
    44
1040
1.0
1070
    74
1070
     0
1000
MTEXTEND
1000
MTEXTBEGIN
1070
    73
1070
     1
1070
    44
1040
1.0
1070
    74
1070
     0
1000
MTEXTEND
  0
MTEXT
  5
55EB
330
1A
100
AcDbEntity
  8
SUNPOU
100
AcDbMText
 10
45007.68847015541
 20
38269.57947701873
 30
0.0
 40
10.5
 41
0.0
 71
     9
 72
     5
  1

1001
ACAD
1000
MTEXTBEGIN
1070
    73
1070
     1
1070
    44
1040
1.0
1070
    74
1070
     0
1000
MTEXTEND
1000
MTEXTBEGIN
1070
    73
1070
     1
1070
    44
1040
1.0
1070
    74
1070
     0
1000
MTEXTEND
1000
MTEXTBEGIN
1070
    73
1070
     1
1070
    44
1040
1.0
1070
    74
1070
     0
1000
MTEXTEND
1000
MTEXTBEGIN
1070
    73
1070
     1
1070
    44
1040
1.0
1070
    74
1070
     0
1000
MTEXTEND
  0
MTEXT
  5
55EC
330
1A
100
AcDbEntity
  8
SUNPOU
100
AcDbMText
 10
63961.44718748539
 20
55736.15552951081
 30
0.0
 40
10.5
 41
0.0
 71
     9
 72
     5
  1

1001
ACAD
1000
MTEXTBEGIN
1070
    73
1070
     1
1070
    44
1040
1.0
1070
    74
1070
     0
1000
MTEXTEND
1000
MTEXTBEGIN
1070
    73
1070
     1
1070
    44
1040
1.0
1070
    74
1070
     0
1000
MTEXTEND
1000
MTEXTBEGIN
1070
    73
1070
     1
1070
    44
1040
1.0
1070
    74
1070
     0
1000
MTEXTEND
1000
MTEXTBEGIN
1070
    73
1070
     1
1070
    44
1040
1.0
1070
    74
1070
     0
1000
MTEXTEND
  0
MTEXT
  5
55ED
330
1A
100
AcDbEntity
  8
SUNPOU
100
AcDbMText
 10
65904.85443419479
 20
53935.10644963278
 30
0.0
 40
3.5
 41
0.0
 71
     9
 72
     5
  1

1001
ACAD
1000
MTEXTBEGIN
1070
    73
1070
     1
1070
    44
1040
1.0
1070
    74
1070
     0
1000
MTEXTEND
1000
MTEXTBEGIN
1070
    73
1070
     1
1070
    44
1040
1.0
1070
    74
1070
     0
1000
MTEXTEND
1000
MTEXTBEGIN
1070
    73
1070
     1
1070
    44
1040
1.0
1070
    74
1070
     0
1000
MTEXTEND
1000
MTEXTBEGIN
1070
    73
1070
     1
1070
    44
1040
1.0
1070
    74
1070
     0
1000
MTEXTEND
  0
MTEXT
  5
55EE
330
1A
100
AcDbEntity
  8
SUNPOU
100
AcDbMText
 10
97031.03426681453
 20
96430.05211729015
 30
0.0
 40
10.5
 41
0.0
 71
     9
 72
     5
  1

1001
ACAD
1000
MTEXTBEGIN
1070
    73
1070
     1
1070
    44
1040
1.0
1070
    74
1070
     0
1000
MTEXTEND
1000
MTEXTBEGIN
1070
    73
1070
     1
1070
    44
1040
1.0
1070
    74
1070
     0
1000
MTEXTEND
1000
MTEXTBEGIN
1070
    73
1070
     1
1070
    44
1040
1.0
1070
    74
1070
     0
1000
MTEXTEND
1000
MTEXTBEGIN
1070
    73
1070
     1
1070
    44
1040
1.0
1070
    74
1070
     0
1000
MTEXTEND
  0
MTEXT
  5
55EF
330
1A
100
AcDbEntity
  8
SUNPOU
100
AcDbMText
 10
98974.44151352393
 20
94629.00303741212
 30
0.0
 40
3.5
 41
0.0
 71
     9
 72
     5
  1

1001
ACAD
1000
MTEXTBEGIN
1070
    73
1070
     1
1070
    44
1040
1.0
1070
    74
1070
     0
1000
MTEXTEND
1000
MTEXTBEGIN
1070
    73
1070
     1
1070
    44
1040
1.0
1070
    74
1070
     0
1000
MTEXTEND
1000
MTEXTBEGIN
1070
    73
1070
     1
1070
    44
1040
1.0
1070
    74
1070
     0
1000
MTEXTEND
1000
MTEXTBEGIN
1070
    73
1070
     1
1070
    44
1040
1.0
1070
    74
1070
     0
1000
MTEXTEND
  0
MTEXT
  5
55F0
330
1A
100
AcDbEntity
  8
SUNPOU
100
AcDbMText
 10
47471.30197261006
 20
42263.21727226519
 30
0.0
 40
10.5
 41
0.0
 71
     9
 72
     5
  1

1001
ACAD
1000
MTEXTBEGIN
1070
    73
1070
     1
1070
    44
1040
1.0
1070
    74
1070
     0
1000
MTEXTEND
1000
MTEXTBEGIN
1070
    73
1070
     1
1070
    44
1040
1.0
1070
    74
1070
     0
1000
MTEXTEND
1000
MTEXTBEGIN
1070
    73
1070
     1
1070
    44
1040
1.0
1070
    74
1070
     0
1000
MTEXTEND
1000
MTEXTBEGIN
1070
    73
1070
     1
1070
    44
1040
1.0
1070
    74
1070
     0
1000
MTEXTEND
  0
MTEXT
  5
55F1
330
1A
100
AcDbEntity
  8
SUNPOU
100
AcDbMText
 10
33523.30187223408
 20
23090.81813315298
 30
0.0
 40
3.5
 41
0.0
 71
     7
 72
     5
  1

1001
ACAD
1000
MTEXTBEGIN
1070
    73
1070
     1
1070
    44
1040
1.0
1070
    74
1070
     0
1000
MTEXTEND
1000
MTEXTBEGIN
1070
    73
1070
     1
1070
    44
1040
1.0
1070
    74
1070
     0
1000
MTEXTEND
1000
MTEXTBEGIN
1070
    73
1070
     1
1070
    44
1040
1.0
1070
    74
1070
     0
1000
MTEXTEND
1000
MTEXTBEGIN
1070
    73
1070
     1
1070
    44
1040
1.0
1070
    74
1070
     0
1000
MTEXTEND
  0
MTEXT
  5
55F2
330
1A
100
AcDbEntity
  8
SUNPOU
100
AcDbMText
 10
57959.46254102503
 20
50038.08111611014
 30
0.0
 40
10.5
 41
0.0
 71
     9
 72
     5
  1

1001
ACAD
1000
MTEXTBEGIN
1070
    73
1070
     1
1070
    44
1040
1.0
1070
    74
1070
     0
1000
MTEXTEND
1000
MTEXTBEGIN
1070
    73
1070
     1
1070
    44
1040
1.0
1070
    74
1070
     0
1000
MTEXTEND
1000
MTEXTBEGIN
1070
    73
1070
     1
1070
    44
1040
1.0
1070
    74
1070
     0
1000
MTEXTEND
1000
MTEXTBEGIN
1070
    73
1070
     1
1070
    44
1040
1.0
1070
    74
1070
     0
1000
MTEXTEND
  0
MTEXT
  5
55F3
330
1A
100
AcDbEntity
  8
SUNPOU
100
AcDbMText
 10
76913.22125835503
 20
67504.65716860222
 30
0.0
 40
10.5
 41
0.0
 71
     9
 72
     5
  1

1001
ACAD
1000
MTEXTBEGIN
1070
    73
1070
     1
1070
    44
1040
1.0
1070
    74
1070
     0
1000
MTEXTEND
1000
MTEXTBEGIN
1070
    73
1070
     1
1070
    44
1040
1.0
1070
    74
1070
     0
1000
MTEXTEND
1000
MTEXTBEGIN
1070
    73
1070
     1
1070
    44
1040
1.0
1070
    74
1070
     0
1000
MTEXTEND
1000
MTEXTBEGIN
1070
    73
1070
     1
1070
    44
1040
1.0
1070
    74
1070
     0
1000
MTEXTEND
  0
MTEXT
  5
55F4
330
1A
100
AcDbEntity
  8
SUNPOU
100
AcDbMText
 10
78856.62850506443
 20
65703.6080887242
 30
0.0
 40
3.5
 41
0.0
 71
     9
 72
     5
  1

1001
ACAD
1000
MTEXTBEGIN
1070
    73
1070
     1
1070
    44
1040
1.0
1070
    74
1070
     0
1000
MTEXTEND
1000
MTEXTBEGIN
1070
    73
1070
     1
1070
    44
1040
1.0
1070
    74
1070
     0
1000
MTEXTEND
1000
MTEXTBEGIN
1070
    73
1070
     1
1070
    44
1040
1.0
1070
    74
1070
     0
1000
MTEXTEND
1000
MTEXTBEGIN
1070
    73
1070
     1
1070
    44
1040
1.0
1070
    74
1070
     0
1000
MTEXTEND
  0
MTEXT
  5
55F5
330
1A
100
AcDbEntity
  8
SUNPOU
100
AcDbMText
 10
109982.8083376841
 20
108198.5537563815
 30
0.0
 40
10.5
 41
0.0
 71
     9
 72
     5
  1

1001
ACAD
1000
MTEXTBEGIN
1070
    73
1070
     1
1070
    44
1040
1.0
1070
    74
1070
     0
1000
MTEXTEND
1000
MTEXTBEGIN
1070
    73
1070
     1
1070
    44
1040
1.0
1070
    74
1070
     0
1000
MTEXTEND
1000
MTEXTBEGIN
1070
    73
1070
     1
1070
    44
1040
1.0
1070
    74
1070
     0
1000
MTEXTEND
1000
MTEXTBEGIN
1070
    73
1070
     1
1070
    44
1040
1.0
1070
    74
1070
     0
1000
MTEXTEND
  0
MTEXT
  5
55F6
330
1A
100
AcDbEntity
  8
SUNPOU
100
AcDbMText
 10
111926.2155843933
 20
106397.5046765035
 30
0.0
 40
3.5
 41
0.0
 71
     9
 72
     5
  1

1001
ACAD
1000
MTEXTBEGIN
1070
    73
1070
     1
1070
    44
1040
1.0
1070
    74
1070
     0
1000
MTEXTEND
1000
MTEXTBEGIN
1070
    73
1070
     1
1070
    44
1040
1.0
1070
    74
1070
     0
1000
MTEXTEND
1000
MTEXTBEGIN
1070
    73
1070
     1
1070
    44
1040
1.0
1070
    74
1070
     0
1000
MTEXTEND
1000
MTEXTBEGIN
1070
    73
1070
     1
1070
    44
1040
1.0
1070
    74
1070
     0
1000
MTEXTEND
  0
MTEXT
  5
55F7
330
1A
100
AcDbEntity
  8
SUNPOU
100
AcDbMText
 10
60423.07604347968
 20
54031.71891135658
 30
0.0
 40
10.5
 41
0.0
 71
     9
 72
     5
  1

1001
ACAD
1000
MTEXTBEGIN
1070
    73
1070
     1
1070
    44
1040
1.0
1070
    74
1070
     0
1000
MTEXTEND
1000
MTEXTBEGIN
1070
    73
1070
     1
1070
    44
1040
1.0
1070
    74
1070
     0
1000
MTEXTEND
1000
MTEXTBEGIN
1070
    73
1070
     1
1070
    44
1040
1.0
1070
    74
1070
     0
1000
MTEXTEND
1000
MTEXTBEGIN
1070
    73
1070
     1
1070
    44
1040
1.0
1070
    74
1070
     0
1000
MTEXTEND
  0
MTEXT
  5
55F8
330
1A
100
AcDbEntity
  8
SUNPOU
100
AcDbMText
 10
46475.07594310369
 20
34859.3197722444
 30
0.0
 40
3.5
 41
0.0
 71
     7
 72
     5
  1

1001
ACAD
1000
MTEXTBEGIN
1070
    73
1070
     1
1070
    44
1040
1.0
1070
    74
1070
     0
1000
MTEXTEND
1000
MTEXTBEGIN
1070
    73
1070
     1
1070
    44
1040
1.0
1070
    74
1070
     0
1000
MTEXTEND
1000
MTEXTBEGIN
1070
    73
1070
     1
1070
    44
1040
1.0
1070
    74
1070
     0
1000
MTEXTEND
1000
MTEXTBEGIN
1070
    73
1070
     1
1070
    44
1040
1.0
1070
    74
1070
     0
1000
MTEXTEND
  0
MTEXT
  5
55F9
330
1A
100
AcDbEntity
  8
SUNPOU
100
AcDbMText
 10
74027.35402123588
 20
68370.58278833383
 30
0.0
 40
10.5
 41
0.0
 71
     9
 72
     5
  1

1001
ACAD
1000
MTEXTBEGIN
1070
    73
1070
     1
1070
    44
1040
1.0
1070
    74
1070
     0
1000
MTEXTEND
1000
MTEXTBEGIN
1070
    73
1070
     1
1070
    44
1040
1.0
1070
    74
1070
     0
1000
MTEXTEND
1000
MTEXTBEGIN
1070
    73
1070
     1
1070
    44
1040
1.0
1070
    74
1070
     0
1000
MTEXTEND
1000
MTEXTBEGIN
1070
    73
1070
     1
1070
    44
1040
1.0
1070
    74
1070
     0
1000
MTEXTEND
  0
MTEXT
  5
55FA
330
1A
100
AcDbEntity
  8
SUNPOU
100
AcDbMText
 10
75970.7612679453
 20
66569.53370845583
 30
0.0
 40
3.5
 41
0.0
 71
     9
 72
     5
  1

1001
ACAD
1000
MTEXTBEGIN
1070
    73
1070
     1
1070
    44
1040
1.0
1070
    74
1070
     0
1000
MTEXTEND
1000
MTEXTBEGIN
1070
    73
1070
     1
1070
    44
1040
1.0
1070
    74
1070
     0
1000
MTEXTEND
1000
MTEXTBEGIN
1070
    73
1070
     1
1070
    44
1040
1.0
1070
    74
1070
     0
1000
MTEXTEND
1000
MTEXTBEGIN
1070
    73
1070
     1
1070
    44
1040
1.0
1070
    74
1070
     0
1000
MTEXTEND
  0
MTEXT
  5
55FB
330
1A
100
AcDbEntity
  8
SUNPOU
100
AcDbMText
 10
107096.941100565
 20
109064.4793761132
 30
0.0
 40
10.5
 41
0.0
 71
     9
 72
     5
  1

1001
ACAD
1000
MTEXTBEGIN
1070
    73
1070
     1
1070
    44
1040
1.0
1070
    74
1070
     0
1000
MTEXTEND
1000
MTEXTBEGIN
1070
    73
1070
     1
1070
    44
1040
1.0
1070
    74
1070
     0
1000
MTEXTEND
1000
MTEXTBEGIN
1070
    73
1070
     1
1070
    44
1040
1.0
1070
    74
1070
     0
1000
MTEXTEND
1000
MTEXTBEGIN
1070
    73
1070
     1
1070
    44
1040
1.0
1070
    74
1070
     0
1000
MTEXTEND
  0
MTEXT
  5
55FC
330
1A
100
AcDbEntity
  8
SUNPOU
100
AcDbMText
 10
109040.3483472744
 20
107263.430296235
 30
0.0
 40
3.5
 41
0.0
 71
     9
 72
     5
  1

1001
ACAD
1000
MTEXTBEGIN
1070
    73
1070
     1
1070
    44
1040
1.0
1070
    74
1070
     0
1000
MTEXTEND
1000
MTEXTBEGIN
1070
    73
1070
     1
1070
    44
1040
1.0
1070
    74
1070
     0
1000
MTEXTEND
1000
MTEXTBEGIN
1070
    73
1070
     1
1070
    44
1040
1.0
1070
    74
1070
     0
1000
MTEXTEND
1000
MTEXTBEGIN
1070
    73
1070
     1
1070
    44
1040
1.0
1070
    74
1070
     0
1000
MTEXTEND
  0
MTEXT
  5
55FD
330
1A
100
AcDbEntity
  8
SUNPOU
100
AcDbMText
 10
105709.1709283621
 20
108141.3777665285
 30
0.0
 40
10.5
 41
0.0
 71
     9
 72
     5
  1

1001
ACAD
1000
MTEXTBEGIN
1070
    73
1070
     1
1070
    44
1040
1.0
1070
    74
1070
     0
1000
MTEXTEND
1000
MTEXTBEGIN
1070
    73
1070
     1
1070
    44
1040
1.0
1070
    74
1070
     0
1000
MTEXTEND
1000
MTEXTBEGIN
1070
    73
1070
     1
1070
    44
1040
1.0
1070
    74
1070
     0
1000
MTEXTEND
1000
MTEXTBEGIN
1070
    73
1070
     1
1070
    44
1040
1.0
1070
    74
1070
     0
1000
MTEXTEND
  0
MTEXT
  5
55FE
330
1A
100
AcDbEntity
  8
SUNPOU
100
AcDbMText
 10
107652.5781750715
 20
106340.3286866505
 30
0.0
 40
3.5
 41
0.0
 71
     9
 72
     5
  1

1001
ACAD
1000
MTEXTBEGIN
1070
    73
1070
     1
1070
    44
1040
1.0
1070
    74
1070
     0
1000
MTEXTEND
1000
MTEXTBEGIN
1070
    73
1070
     1
1070
    44
1040
1.0
1070
    74
1070
     0
1000
MTEXTEND
1000
MTEXTBEGIN
1070
    73
1070
     1
1070
    44
1040
1.0
1070
    74
1070
     0
1000
MTEXTEND
1000
MTEXTBEGIN
1070
    73
1070
     1
1070
    44
1040
1.0
1070
    74
1070
     0
1000
MTEXTEND
  0
MTEXT
  5
55FF
330
1A
100
AcDbEntity
  8
SUNPOU
100
AcDbMText
 10
73193.09268743351
 20
66158.78082845057
 30
0.0
 40
10.5
 41
0.0
 71
     9
 72
     5
  1

1001
ACAD
1000
MTEXTBEGIN
1070
    73
1070
     1
1070
    44
1040
1.0
1070
    74
1070
     0
1000
MTEXTEND
1000
MTEXTBEGIN
1070
    73
1070
     1
1070
    44
1040
1.0
1070
    74
1070
     0
1000
MTEXTEND
1000
MTEXTBEGIN
1070
    73
1070
     1
1070
    44
1040
1.0
1070
    74
1070
     0
1000
MTEXTEND
1000
MTEXTBEGIN
1070
    73
1070
     1
1070
    44
1040
1.0
1070
    74
1070
     0
1000
MTEXTEND
  0
MTEXT
  5
5600
330
1A
100
AcDbEntity
  8
SUNPOU
100
AcDbMText
 10
75916.39889159807
 20
66563.46252003162
 30
0.0
 40
3.5
 41
0.0
 71
     9
 72
     5
  1

1001
ACAD
1000
MTEXTBEGIN
1070
    73
1070
     1
1070
    44
1040
1.0
1070
    74
1070
     0
1000
MTEXTEND
1000
MTEXTBEGIN
1070
    73
1070
     1
1070
    44
1040
1.0
1070
    74
1070
     0
1000
MTEXTEND
1000
MTEXTBEGIN
1070
    73
1070
     1
1070
    44
1040
1.0
1070
    74
1070
     0
1000
MTEXTEND
1000
MTEXTBEGIN
1070
    73
1070
     1
1070
    44
1040
1.0
1070
    74
1070
     0
1000
MTEXTEND
  0
MTEXT
  5
5601
330
1A
100
AcDbEntity
  8
SUNPOU
100
AcDbMText
 10
75124.04436649058
 20
63402.1566819768
 30
0.0
 40
10.5
 41
0.0
 71
     9
 72
     5
  1

1001
ACAD
1000
MTEXTBEGIN
1070
    73
1070
     1
1070
    44
1040
1.0
1070
    74
1070
     0
1000
MTEXTEND
1000
MTEXTBEGIN
1070
    73
1070
     1
1070
    44
1040
1.0
1070
    74
1070
     0
1000
MTEXTEND
1000
MTEXTBEGIN
1070
    73
1070
     1
1070
    44
1040
1.0
1070
    74
1070
     0
1000
MTEXTEND
1000
MTEXTBEGIN
1070
    73
1070
     1
1070
    44
1040
1.0
1070
    74
1070
     0
1000
MTEXTEND
  0
MTEXT
  5
5602
330
1A
100
AcDbEntity
  8
SUNPOU
100
AcDbMText
 10
77067.4516132
 20
61601.1076020988
 30
0.0
 40
3.5
 41
0.0
 71
     9
 72
     5
  1

1001
ACAD
1000
MTEXTBEGIN
1070
    73
1070
     1
1070
    44
1040
1.0
1070
    74
1070
     0
1000
MTEXTEND
1000
MTEXTBEGIN
1070
    73
1070
     1
1070
    44
1040
1.0
1070
    74
1070
     0
1000
MTEXTEND
1000
MTEXTBEGIN
1070
    73
1070
     1
1070
    44
1040
1.0
1070
    74
1070
     0
1000
MTEXTEND
1000
MTEXTBEGIN
1070
    73
1070
     1
1070
    44
1040
1.0
1070
    74
1070
     0
1000
MTEXTEND
  0
MTEXT
  5
5603
330
1A
100
AcDbEntity
  8
SUNPOU
100
AcDbMText
 10
77012.54710378659
 20
61488.33571981449
 30
0.0
 40
3.5
 41
0.0
 71
     9
 72
     5
  1

1001
ACAD
1000
MTEXTBEGIN
1070
    73
1070
     1
1070
    44
1040
1.0
1070
    74
1070
     0
1000
MTEXTEND
1000
MTEXTBEGIN
1070
    73
1070
     1
1070
    44
1040
1.0
1070
    74
1070
     0
1000
MTEXTEND
1000
MTEXTBEGIN
1070
    73
1070
     1
1070
    44
1040
1.0
1070
    74
1070
     0
1000
MTEXTEND
1000
MTEXTBEGIN
1070
    73
1070
     1
1070
    44
1040
1.0
1070
    74
1070
     0
1000
MTEXTEND
  0
MTEXT
  5
5604
330
1A
100
AcDbEntity
  8
SUNPOU
100
AcDbMText
 10
76376.61896736668
 20
60677.01447874798
 30
0.0
 40
3.5
 41
0.0
 71
     9
 72
     5
  1

1001
ACAD
1000
MTEXTBEGIN
1070
    73
1070
     1
1070
    44
1040
1.0
1070
    74
1070
     0
1000
MTEXTEND
1000
MTEXTBEGIN
1070
    73
1070
     1
1070
    44
1040
1.0
1070
    74
1070
     0
1000
MTEXTEND
1000
MTEXTBEGIN
1070
    73
1070
     1
1070
    44
1040
1.0
1070
    74
1070
     0
1000
MTEXTEND
1000
MTEXTBEGIN
1070
    73
1070
     1
1070
    44
1040
1.0
1070
    74
1070
     0
1000
MTEXTEND
  0
MTEXT
  5
5605
330
1A
100
AcDbEntity
  8
SUNPOU
100
AcDbMText
 10
76375.37854794595
 20
60676.76650181048
 30
0.0
 40
10.5
 41
0.0
 71
     9
 72
     5
  1

1001
ACAD
1000
MTEXTBEGIN
1070
    73
1070
     1
1070
    44
1040
1.0
1070
    74
1070
     0
1000
MTEXTEND
1000
MTEXTBEGIN
1070
    73
1070
     1
1070
    44
1040
1.0
1070
    74
1070
     0
1000
MTEXTEND
1000
MTEXTBEGIN
1070
    73
1070
     1
1070
    44
1040
1.0
1070
    74
1070
     0
1000
MTEXTEND
1000
MTEXTBEGIN
1070
    73
1070
     1
1070
    44
1040
1.0
1070
    74
1070
     0
1000
MTEXTEND
  0
MTEXT
  5
5606
330
1A
100
AcDbEntity
  8
SUNPOU
100
AcDbMText
 10
84709.93991079748
 20
78034.0328293557
 30
0.0
 40
10.5
 41
0.0
 71
     9
 72
     5
  1

1001
ACAD
1000
MTEXTBEGIN
1070
    73
1070
     1
1070
    44
1040
1.0
1070
    74
1070
     0
1000
MTEXTEND
1000
MTEXTBEGIN
1070
    73
1070
     1
1070
    44
1040
1.0
1070
    74
1070
     0
1000
MTEXTEND
1000
MTEXTBEGIN
1070
    73
1070
     1
1070
    44
1040
1.0
1070
    74
1070
     0
1000
MTEXTEND
1000
MTEXTBEGIN
1070
    73
1070
     1
1070
    44
1040
1.0
1070
    74
1070
     0
1000
MTEXTEND
  0
MTEXT
  5
5607
330
1A
100
AcDbEntity
  8
SUNPOU
100
AcDbMText
 10
93432.10747671546
 20
85449.86736089315
 30
0.0
 40
10.5
 41
0.0
 71
     9
 72
     5
  1

1001
ACAD
1000
MTEXTBEGIN
1070
    73
1070
     1
1070
    44
1040
1.0
1070
    74
1070
     0
1000
MTEXTEND
1000
MTEXTBEGIN
1070
    73
1070
     1
1070
    44
1040
1.0
1070
    74
1070
     0
1000
MTEXTEND
1000
MTEXTBEGIN
1070
    73
1070
     1
1070
    44
1040
1.0
1070
    74
1070
     0
1000
MTEXTEND
1000
MTEXTBEGIN
1070
    73
1070
     1
1070
    44
1040
1.0
1070
    74
1070
     0
1000
MTEXTEND
  0
MTEXT
  5
5608
330
1A
100
AcDbEntity
  8
SUNPOU
100
AcDbMText
 10
112385.8661940454
 20
102916.4434133851
 30
0.0
 40
10.5
 41
0.0
 71
     9
 72
     5
  1

1001
ACAD
1000
MTEXTBEGIN
1070
    73
1070
     1
1070
    44
1040
1.0
1070
    74
1070
     0
1000
MTEXTEND
1000
MTEXTBEGIN
1070
    73
1070
     1
1070
    44
1040
1.0
1070
    74
1070
     0
1000
MTEXTEND
1000
MTEXTBEGIN
1070
    73
1070
     1
1070
    44
1040
1.0
1070
    74
1070
     0
1000
MTEXTEND
1000
MTEXTBEGIN
1070
    73
1070
     1
1070
    44
1040
1.0
1070
    74
1070
     0
1000
MTEXTEND
  0
MTEXT
  5
5609
330
1A
100
AcDbEntity
  8
SUNPOU
100
AcDbMText
 10
114329.2734407548
 20
101115.3943335072
 30
0.0
 40
3.5
 41
0.0
 71
     9
 72
     5
  1

1001
ACAD
1000
MTEXTBEGIN
1070
    73
1070
     1
1070
    44
1040
1.0
1070
    74
1070
     0
1000
MTEXTEND
1000
MTEXTBEGIN
1070
    73
1070
     1
1070
    44
1040
1.0
1070
    74
1070
     0
1000
MTEXTEND
1000
MTEXTBEGIN
1070
    73
1070
     1
1070
    44
1040
1.0
1070
    74
1070
     0
1000
MTEXTEND
1000
MTEXTBEGIN
1070
    73
1070
     1
1070
    44
1040
1.0
1070
    74
1070
     0
1000
MTEXTEND
  0
MTEXT
  5
560A
330
1A
100
AcDbEntity
  8
SUNPOU
100
AcDbMText
 10
145455.4532733745
 20
143610.3400011645
 30
0.0
 40
10.5
 41
0.0
 71
     9
 72
     5
  1

1001
ACAD
1000
MTEXTBEGIN
1070
    73
1070
     1
1070
    44
1040
1.0
1070
    74
1070
     0
1000
MTEXTEND
1000
MTEXTBEGIN
1070
    73
1070
     1
1070
    44
1040
1.0
1070
    74
1070
     0
1000
MTEXTEND
1000
MTEXTBEGIN
1070
    73
1070
     1
1070
    44
1040
1.0
1070
    74
1070
     0
1000
MTEXTEND
1000
MTEXTBEGIN
1070
    73
1070
     1
1070
    44
1040
1.0
1070
    74
1070
     0
1000
MTEXTEND
  0
MTEXT
  5
560B
330
1A
100
AcDbEntity
  8
SUNPOU
100
AcDbMText
 10
147398.8605200839
 20
141809.2909212864
 30
0.0
 40
3.5
 41
0.0
 71
     9
 72
     5
  1

1001
ACAD
1000
MTEXTBEGIN
1070
    73
1070
     1
1070
    44
1040
1.0
1070
    74
1070
     0
1000
MTEXTEND
1000
MTEXTBEGIN
1070
    73
1070
     1
1070
    44
1040
1.0
1070
    74
1070
     0
1000
MTEXTEND
1000
MTEXTBEGIN
1070
    73
1070
     1
1070
    44
1040
1.0
1070
    74
1070
     0
1000
MTEXTEND
1000
MTEXTBEGIN
1070
    73
1070
     1
1070
    44
1040
1.0
1070
    74
1070
     0
1000
MTEXTEND
  0
MTEXT
  5
560C
330
1A
100
AcDbEntity
  8
SUNPOU
100
AcDbMText
 10
95895.72097917011
 20
89443.50515613962
 30
0.0
 40
10.5
 41
0.0
 71
     9
 72
     5
  1

1001
ACAD
1000
MTEXTBEGIN
1070
    73
1070
     1
1070
    44
1040
1.0
1070
    74
1070
     0
1000
MTEXTEND
1000
MTEXTBEGIN
1070
    73
1070
     1
1070
    44
1040
1.0
1070
    74
1070
     0
1000
MTEXTEND
1000
MTEXTBEGIN
1070
    73
1070
     1
1070
    44
1040
1.0
1070
    74
1070
     0
1000
MTEXTEND
1000
MTEXTBEGIN
1070
    73
1070
     1
1070
    44
1040
1.0
1070
    74
1070
     0
1000
MTEXTEND
  0
MTEXT
  5
560D
330
1A
100
AcDbEntity
  8
SUNPOU
100
AcDbMText
 10
81947.72087879414
 20
70271.1060170274
 30
0.0
 40
3.5
 41
0.0
 71
     7
 72
     5
  1

1001
ACAD
1000
MTEXTBEGIN
1070
    73
1070
     1
1070
    44
1040
1.0
1070
    74
1070
     0
1000
MTEXTEND
1000
MTEXTBEGIN
1070
    73
1070
     1
1070
    44
1040
1.0
1070
    74
1070
     0
1000
MTEXTEND
1000
MTEXTBEGIN
1070
    73
1070
     1
1070
    44
1040
1.0
1070
    74
1070
     0
1000
MTEXTEND
1000
MTEXTBEGIN
1070
    73
1070
     1
1070
    44
1040
1.0
1070
    74
1070
     0
1000
MTEXTEND
  0
MTEXT
  5
560E
330
1A
100
AcDbEntity
  8
SUNPOU
100
AcDbMText
 10
62932.89027578729
 20
58033.25474784561
 30
0.0
 40
10.5
 41
0.0
 71
     7
 72
     5
  1

1001
ACAD
1000
MTEXTBEGIN
1070
    73
1070
     1
1070
    44
1040
1.0
1070
    74
1070
     0
1000
MTEXTEND
1000
MTEXTBEGIN
1070
    73
1070
     1
1070
    44
1040
1.0
1070
    74
1070
     0
1000
MTEXTEND
1000
MTEXTBEGIN
1070
    73
1070
     1
1070
    44
1040
1.0
1070
    74
1070
     0
1000
MTEXTEND
1000
MTEXTBEGIN
1070
    73
1070
     1
1070
    44
1040
1.0
1070
    74
1070
     0
1000
MTEXTEND
  0
MTEXT
  5
560F
330
1A
100
AcDbEntity
  8
SUNPOU
100
AcDbMText
 10
50475.66201083918
 20
42188.32316974718
 30
0.0
 40
35.0
 41
0.0
 71
     9
 72
     5
  1

1001
ACAD
1000
MTEXTBEGIN
1070
    73
1070
     1
1070
    44
1040
1.0
1070
    74
1070
     0
1000
MTEXTEND
1000
MTEXTBEGIN
1070
    73
1070
     1
1070
    44
1040
1.0
1070
    74
1070
     0
1000
MTEXTEND
1000
MTEXTBEGIN
1070
    73
1070
     1
1070
    44
1040
1.0
1070
    74
1070
     0
1000
MTEXTEND
1000
MTEXTBEGIN
1070
    73
1070
     1
1070
    44
1040
1.0
1070
    74
1070
     0
1000
MTEXTEND
  0
MTEXT
  5
5610
330
1A
100
AcDbEntity
  8
SUNPOU
100
AcDbMText
 10
49384.14706841413
 20
42797.0985797959
 30
0.0
 40
350.0000004171781
 41
0.0
 71
     7
 72
     5
  1

1001
ACAD
1000
MTEXTBEGIN
1070
    73
1070
     1
1070
    44
1040
1.0
1070
    74
1070
     0
1000
MTEXTEND
1000
MTEXTBEGIN
1070
    73
1070
     1
1070
    44
1040
1.0
1070
    74
1070
     0
1000
MTEXTEND
1000
MTEXTBEGIN
1070
    73
1070
     1
1070
    44
1040
1.0
1070
    74
1070
     0
1000
MTEXTEND
1000
MTEXTBEGIN
1070
    73
1070
     1
1070
    44
1040
1.0
1070
    74
1070
     0
1000
MTEXTEND
  0
MTEXT
  5
5611
330
1A
100
AcDbEntity
  8
0
100
AcDbMText
 10
55428.09782635704
 20
40777.0209419321
 30
0.0
 40
8.0
 41
0.0
 71
     7
 72
     5
  1

1001
ACAD
1000
MTEXTBEGIN
1070
    73
1070
     1
1070
    44
1040
1.0
1070
    74
1070
     0
1000
MTEXTEND
1000
MTEXTBEGIN
1070
    73
1070
     1
1070
    44
1040
1.0
1070
    74
1070
     0
1000
MTEXTEND
1000
MTEXTBEGIN
1070
    73
1070
     1
1070
    44
1040
1.0
1070
    74
1070
     0
1000
MTEXTEND
1000
MTEXTBEGIN
1070
    73
1070
     1
1070
    44
1040
1.0
1070
    74
1070
     0
1000
MTEXTEND
  0
MTEXT
  5
5612
330
1A
100
AcDbEntity
  8
0
100
AcDbMText
 10
57713.45551625192
 20
41747.81123668316
 30
0.0
 40
8.0
 41
0.0
 71
     7
 72
     5
  1

1001
ACAD
1000
MTEXTBEGIN
1070
    73
1070
     1
1070
    44
1040
1.0
1070
    74
1070
     0
1000
MTEXTEND
1000
MTEXTBEGIN
1070
    73
1070
     1
1070
    44
1040
1.0
1070
    74
1070
     0
1000
MTEXTEND
1000
MTEXTBEGIN
1070
    73
1070
     1
1070
    44
1040
1.0
1070
    74
1070
     0
1000
MTEXTEND
1000
MTEXTBEGIN
1070
    73
1070
     1
1070
    44
1040
1.0
1070
    74
1070
     0
1000
MTEXTEND
  0
MTEXT
  5
5613
330
1A
100
AcDbEntity
  8
SUNPOU
100
AcDbMText
 10
60379.35253693407
 20
51259.9226290583
 30
0.0
 40
10.5
 41
0.0
 71
     1
 72
     5
  1

1001
ACAD
1000
MTEXTBEGIN
1070
    73
1070
     1
1070
    44
1040
1.0
1070
    74
1070
     0
1000
MTEXTEND
1000
MTEXTBEGIN
1070
    73
1070
     1
1070
    44
1040
1.0
1070
    74
1070
     0
1000
MTEXTEND
1000
MTEXTBEGIN
1070
    73
1070
     1
1070
    44
1040
1.0
1070
    74
1070
     0
1000
MTEXTEND
1000
MTEXTBEGIN
1070
    73
1070
     1
1070
    44
1040
1.0
1070
    74
1070
     0
1000
MTEXTEND
  0
MTEXT
  5
5614
330
1A
100
AcDbEntity
  8
SUNPOU
100
AcDbMText
 10
52448.42934099813
 20
50313.12949514535
 30
0.0
 40
10.5
 41
0.0
 71
     7
 72
     5
  1

1001
ACAD
1000
MTEXTBEGIN
1070
    73
1070
     1
1070
    44
1040
1.0
1070
    74
1070
     0
1000
MTEXTEND
1000
MTEXTBEGIN
1070
    73
1070
     1
1070
    44
1040
1.0
1070
    74
1070
     0
1000
MTEXTEND
1000
MTEXTBEGIN
1070
    73
1070
     1
1070
    44
1040
1.0
1070
    74
1070
     0
1000
MTEXTEND
1000
MTEXTBEGIN
1070
    73
1070
     1
1070
    44
1040
1.0
1070
    74
1070
     0
1000
MTEXTEND
  0
MTEXT
  5
5615
330
1A
100
AcDbEntity
  8
SUNPOU
100
AcDbMText
 10
55397.4130055109
 20
55213.80556698819
 30
0.0
 40
10.5
 41
0.0
 71
     7
 72
     5
  1

1001
ACAD
1000
MTEXTBEGIN
1070
    73
1070
     1
1070
    44
1040
1.0
1070
    74
1070
     0
1000
MTEXTEND
1000
MTEXTBEGIN
1070
    73
1070
     1
1070
    44
1040
1.0
1070
    74
1070
     0
1000
MTEXTEND
1000
MTEXTBEGIN
1070
    73
1070
     1
1070
    44
1040
1.0
1070
    74
1070
     0
1000
MTEXTEND
1000
MTEXTBEGIN
1070
    73
1070
     1
1070
    44
1040
1.0
1070
    74
1070
     0
1000
MTEXTEND
  0
MTEXT
  5
5616
330
1A
100
AcDbEntity
  8
SUNPOU
100
AcDbMText
 10
59906.49113346147
 20
57650.10631460826
 30
0.0
 40
10.5
 41
0.0
 71
     7
 72
     5
  1

1001
ACAD
1000
MTEXTBEGIN
1070
    73
1070
     1
1070
    44
1040
1.0
1070
    74
1070
     0
1000
MTEXTEND
1000
MTEXTBEGIN
1070
    73
1070
     1
1070
    44
1040
1.0
1070
    74
1070
     0
1000
MTEXTEND
1000
MTEXTBEGIN
1070
    73
1070
     1
1070
    44
1040
1.0
1070
    74
1070
     0
1000
MTEXTEND
1000
MTEXTBEGIN
1070
    73
1070
     1
1070
    44
1040
1.0
1070
    74
1070
     0
1000
MTEXTEND
  0
MTEXT
  5
5617
330
1A
100
AcDbEntity
  8
SUNPOU
100
AcDbMText
 10
43507.32902022977
 20
36647.70246499718
 30
0.0
 40
10.5
 41
0.0
 71
     7
 72
     5
  1

1001
ACAD
1000
MTEXTBEGIN
1070
    73
1070
     1
1070
    44
1040
1.0
1070
    74
1070
     0
1000
MTEXTEND
1000
MTEXTBEGIN
1070
    73
1070
     1
1070
    44
1040
1.0
1070
    74
1070
     0
1000
MTEXTEND
1000
MTEXTBEGIN
1070
    73
1070
     1
1070
    44
1040
1.0
1070
    74
1070
     0
1000
MTEXTEND
1000
MTEXTBEGIN
1070
    73
1070
     1
1070
    44
1040
1.0
1070
    74
1070
     0
1000
MTEXTEND
  0
MTEXT
  5
5618
330
1A
100
AcDbEntity
  8
SUNPOU
100
AcDbMText
 10
94698.84745413006
 20
82320.68302864544
 30
0.0
 40
10.5
 41
0.0
 71
     9
 72
     5
  1

1001
ACAD
1000
MTEXTBEGIN
1070
    73
1070
     1
1070
    44
1040
1.0
1070
    74
1070
     0
1000
MTEXTEND
1000
MTEXTBEGIN
1070
    73
1070
     1
1070
    44
1040
1.0
1070
    74
1070
     0
1000
MTEXTEND
1000
MTEXTBEGIN
1070
    73
1070
     1
1070
    44
1040
1.0
1070
    74
1070
     0
1000
MTEXTEND
1000
MTEXTBEGIN
1070
    73
1070
     1
1070
    44
1040
1.0
1070
    74
1070
     0
1000
MTEXTEND
  0
MTEXT
  5
5619
330
1A
100
AcDbEntity
  8
SUNPOU
100
AcDbMText
 10
103421.015020048
 20
89736.5175601829
 30
0.0
 40
10.5
 41
0.0
 71
     9
 72
     5
  1

1001
ACAD
1000
MTEXTBEGIN
1070
    73
1070
     1
1070
    44
1040
1.0
1070
    74
1070
     0
1000
MTEXTEND
1000
MTEXTBEGIN
1070
    73
1070
     1
1070
    44
1040
1.0
1070
    74
1070
     0
1000
MTEXTEND
1000
MTEXTBEGIN
1070
    73
1070
     1
1070
    44
1040
1.0
1070
    74
1070
     0
1000
MTEXTEND
1000
MTEXTBEGIN
1070
    73
1070
     1
1070
    44
1040
1.0
1070
    74
1070
     0
1000
MTEXTEND
  0
MTEXT
  5
561A
330
1A
100
AcDbEntity
  8
SUNPOU
100
AcDbMText
 10
122374.773737378
 20
107203.0936126749
 30
0.0
 40
10.5
 41
0.0
 71
     9
 72
     5
  1

1001
ACAD
1000
MTEXTBEGIN
1070
    73
1070
     1
1070
    44
1040
1.0
1070
    74
1070
     0
1000
MTEXTEND
1000
MTEXTBEGIN
1070
    73
1070
     1
1070
    44
1040
1.0
1070
    74
1070
     0
1000
MTEXTEND
1000
MTEXTBEGIN
1070
    73
1070
     1
1070
    44
1040
1.0
1070
    74
1070
     0
1000
MTEXTEND
1000
MTEXTBEGIN
1070
    73
1070
     1
1070
    44
1040
1.0
1070
    74
1070
     0
1000
MTEXTEND
  0
MTEXT
  5
561B
330
1A
100
AcDbEntity
  8
SUNPOU
100
AcDbMText
 10
124318.1809840874
 20
105402.0445327969
 30
0.0
 40
3.5
 41
0.0
 71
     9
 72
     5
  1

1001
ACAD
1000
MTEXTBEGIN
1070
    73
1070
     1
1070
    44
1040
1.0
1070
    74
1070
     0
1000
MTEXTEND
1000
MTEXTBEGIN
1070
    73
1070
     1
1070
    44
1040
1.0
1070
    74
1070
     0
1000
MTEXTEND
1000
MTEXTBEGIN
1070
    73
1070
     1
1070
    44
1040
1.0
1070
    74
1070
     0
1000
MTEXTEND
1000
MTEXTBEGIN
1070
    73
1070
     1
1070
    44
1040
1.0
1070
    74
1070
     0
1000
MTEXTEND
  0
MTEXT
  5
561C
330
1A
100
AcDbEntity
  8
SUNPOU
100
AcDbMText
 10
155444.3608167071
 20
147896.9902004542
 30
0.0
 40
10.5
 41
0.0
 71
     9
 72
     5
  1

1001
ACAD
1000
MTEXTBEGIN
1070
    73
1070
     1
1070
    44
1040
1.0
1070
    74
1070
     0
1000
MTEXTEND
1000
MTEXTBEGIN
1070
    73
1070
     1
1070
    44
1040
1.0
1070
    74
1070
     0
1000
MTEXTEND
1000
MTEXTBEGIN
1070
    73
1070
     1
1070
    44
1040
1.0
1070
    74
1070
     0
1000
MTEXTEND
1000
MTEXTBEGIN
1070
    73
1070
     1
1070
    44
1040
1.0
1070
    74
1070
     0
1000
MTEXTEND
  0
MTEXT
  5
561D
330
1A
100
AcDbEntity
  8
SUNPOU
100
AcDbMText
 10
157387.7680634165
 20
146095.9411205762
 30
0.0
 40
3.5
 41
0.0
 71
     9
 72
     5
  1

1001
ACAD
1000
MTEXTBEGIN
1070
    73
1070
     1
1070
    44
1040
1.0
1070
    74
1070
     0
1000
MTEXTEND
1000
MTEXTBEGIN
1070
    73
1070
     1
1070
    44
1040
1.0
1070
    74
1070
     0
1000
MTEXTEND
1000
MTEXTBEGIN
1070
    73
1070
     1
1070
    44
1040
1.0
1070
    74
1070
     0
1000
MTEXTEND
1000
MTEXTBEGIN
1070
    73
1070
     1
1070
    44
1040
1.0
1070
    74
1070
     0
1000
MTEXTEND
  0
MTEXT
  5
561E
330
1A
100
AcDbEntity
  8
SUNPOU
100
AcDbMText
 10
105884.6285225027
 20
93730.15535542933
 30
0.0
 40
10.5
 41
0.0
 71
     9
 72
     5
  1

1001
ACAD
1000
MTEXTBEGIN
1070
    73
1070
     1
1070
    44
1040
1.0
1070
    74
1070
     0
1000
MTEXTEND
1000
MTEXTBEGIN
1070
    73
1070
     1
1070
    44
1040
1.0
1070
    74
1070
     0
1000
MTEXTEND
1000
MTEXTBEGIN
1070
    73
1070
     1
1070
    44
1040
1.0
1070
    74
1070
     0
1000
MTEXTEND
1000
MTEXTBEGIN
1070
    73
1070
     1
1070
    44
1040
1.0
1070
    74
1070
     0
1000
MTEXTEND
  0
MTEXT
  5
561F
330
1A
100
AcDbEntity
  8
SUNPOU
100
AcDbMText
 10
91936.6284221267
 20
74557.75621631714
 30
0.0
 40
3.5
 41
0.0
 71
     7
 72
     5
  1

1001
ACAD
1000
MTEXTBEGIN
1070
    73
1070
     1
1070
    44
1040
1.0
1070
    74
1070
     0
1000
MTEXTEND
1000
MTEXTBEGIN
1070
    73
1070
     1
1070
    44
1040
1.0
1070
    74
1070
     0
1000
MTEXTEND
1000
MTEXTBEGIN
1070
    73
1070
     1
1070
    44
1040
1.0
1070
    74
1070
     0
1000
MTEXTEND
1000
MTEXTBEGIN
1070
    73
1070
     1
1070
    44
1040
1.0
1070
    74
1070
     0
1000
MTEXTEND
  0
MTEXT
  5
5620
330
1A
100
AcDbEntity
  8
SUNPOU
100
AcDbMText
 10
72921.79781911986
 20
62319.90494713532
 30
0.0
 40
10.5
 41
0.0
 71
     7
 72
     5
  1

1001
ACAD
1000
MTEXTBEGIN
1070
    73
1070
     1
1070
    44
1040
1.0
1070
    74
1070
     0
1000
MTEXTEND
1000
MTEXTBEGIN
1070
    73
1070
     1
1070
    44
1040
1.0
1070
    74
1070
     0
1000
MTEXTEND
1000
MTEXTBEGIN
1070
    73
1070
     1
1070
    44
1040
1.0
1070
    74
1070
     0
1000
MTEXTEND
1000
MTEXTBEGIN
1070
    73
1070
     1
1070
    44
1040
1.0
1070
    74
1070
     0
1000
MTEXTEND
  0
MTEXT
  5
5621
330
1A
100
AcDbEntity
  8
SUNPOU
100
AcDbMText
 10
60464.56955417175
 20
46474.97336903692
 30
0.0
 40
35.0
 41
0.0
 71
     9
 72
     5
  1

1001
ACAD
1000
MTEXTBEGIN
1070
    73
1070
     1
1070
    44
1040
1.0
1070
    74
1070
     0
1000
MTEXTEND
1000
MTEXTBEGIN
1070
    73
1070
     1
1070
    44
1040
1.0
1070
    74
1070
     0
1000
MTEXTEND
1000
MTEXTBEGIN
1070
    73
1070
     1
1070
    44
1040
1.0
1070
    74
1070
     0
1000
MTEXTEND
1000
MTEXTBEGIN
1070
    73
1070
     1
1070
    44
1040
1.0
1070
    74
1070
     0
1000
MTEXTEND
  0
MTEXT
  5
5622
330
1A
100
AcDbEntity
  8
SUNPOU
100
AcDbMText
 10
59373.05461174673
 20
47083.74877908561
 30
0.0
 40
350.0000004171781
 41
0.0
 71
     7
 72
     5
  1

1001
ACAD
1000
MTEXTBEGIN
1070
    73
1070
     1
1070
    44
1040
1.0
1070
    74
1070
     0
1000
MTEXTEND
1000
MTEXTBEGIN
1070
    73
1070
     1
1070
    44
1040
1.0
1070
    74
1070
     0
1000
MTEXTEND
1000
MTEXTBEGIN
1070
    73
1070
     1
1070
    44
1040
1.0
1070
    74
1070
     0
1000
MTEXTEND
1000
MTEXTBEGIN
1070
    73
1070
     1
1070
    44
1040
1.0
1070
    74
1070
     0
1000
MTEXTEND
  0
MTEXT
  5
5623
330
1A
100
AcDbEntity
  8
0
100
AcDbMText
 10
65417.00536968963
 20
45063.67114122186
 30
0.0
 40
8.0
 41
0.0
 71
     7
 72
     5
  1

1001
ACAD
1000
MTEXTBEGIN
1070
    73
1070
     1
1070
    44
1040
1.0
1070
    74
1070
     0
1000
MTEXTEND
1000
MTEXTBEGIN
1070
    73
1070
     1
1070
    44
1040
1.0
1070
    74
1070
     0
1000
MTEXTEND
1000
MTEXTBEGIN
1070
    73
1070
     1
1070
    44
1040
1.0
1070
    74
1070
     0
1000
MTEXTEND
1000
MTEXTBEGIN
1070
    73
1070
     1
1070
    44
1040
1.0
1070
    74
1070
     0
1000
MTEXTEND
  0
MTEXT
  5
5624
330
1A
100
AcDbEntity
  8
0
100
AcDbMText
 10
67702.36305958452
 20
46034.46143597292
 30
0.0
 40
8.0
 41
0.0
 71
     7
 72
     5
  1

1001
ACAD
1000
MTEXTBEGIN
1070
    73
1070
     1
1070
    44
1040
1.0
1070
    74
1070
     0
1000
MTEXTEND
1000
MTEXTBEGIN
1070
    73
1070
     1
1070
    44
1040
1.0
1070
    74
1070
     0
1000
MTEXTEND
1000
MTEXTBEGIN
1070
    73
1070
     1
1070
    44
1040
1.0
1070
    74
1070
     0
1000
MTEXTEND
1000
MTEXTBEGIN
1070
    73
1070
     1
1070
    44
1040
1.0
1070
    74
1070
     0
1000
MTEXTEND
  0
MTEXT
  5
5625
330
1A
100
AcDbEntity
  8
SUNPOU
100
AcDbMText
 10
70368.26008026666
 20
55546.57282834803
 30
0.0
 40
10.5
 41
0.0
 71
     1
 72
     5
  1

1001
ACAD
1000
MTEXTBEGIN
1070
    73
1070
     1
1070
    44
1040
1.0
1070
    74
1070
     0
1000
MTEXTEND
1000
MTEXTBEGIN
1070
    73
1070
     1
1070
    44
1040
1.0
1070
    74
1070
     0
1000
MTEXTEND
1000
MTEXTBEGIN
1070
    73
1070
     1
1070
    44
1040
1.0
1070
    74
1070
     0
1000
MTEXTEND
1000
MTEXTBEGIN
1070
    73
1070
     1
1070
    44
1040
1.0
1070
    74
1070
     0
1000
MTEXTEND
  0
MTEXT
  5
5626
330
1A
100
AcDbEntity
  8
SUNPOU
100
AcDbMText
 10
62437.33688433072
 20
54599.77969443507
 30
0.0
 40
10.5
 41
0.0
 71
     7
 72
     5
  1

1001
ACAD
1000
MTEXTBEGIN
1070
    73
1070
     1
1070
    44
1040
1.0
1070
    74
1070
     0
1000
MTEXTEND
1000
MTEXTBEGIN
1070
    73
1070
     1
1070
    44
1040
1.0
1070
    74
1070
     0
1000
MTEXTEND
1000
MTEXTBEGIN
1070
    73
1070
     1
1070
    44
1040
1.0
1070
    74
1070
     0
1000
MTEXTEND
1000
MTEXTBEGIN
1070
    73
1070
     1
1070
    44
1040
1.0
1070
    74
1070
     0
1000
MTEXTEND
  0
MTEXT
  5
5627
330
1A
100
AcDbEntity
  8
SUNPOU
100
AcDbMText
 10
65386.32054884347
 20
59500.45576627792
 30
0.0
 40
10.5
 41
0.0
 71
     7
 72
     5
  1

1001
ACAD
1000
MTEXTBEGIN
1070
    73
1070
     1
1070
    44
1040
1.0
1070
    74
1070
     0
1000
MTEXTEND
1000
MTEXTBEGIN
1070
    73
1070
     1
1070
    44
1040
1.0
1070
    74
1070
     0
1000
MTEXTEND
1000
MTEXTBEGIN
1070
    73
1070
     1
1070
    44
1040
1.0
1070
    74
1070
     0
1000
MTEXTEND
1000
MTEXTBEGIN
1070
    73
1070
     1
1070
    44
1040
1.0
1070
    74
1070
     0
1000
MTEXTEND
  0
MTEXT
  5
5628
330
1A
100
AcDbEntity
  8
SUNPOU
100
AcDbMText
 10
69895.39867679405
 20
61936.756513898
 30
0.0
 40
10.5
 41
0.0
 71
     7
 72
     5
  1

1001
ACAD
1000
MTEXTBEGIN
1070
    73
1070
     1
1070
    44
1040
1.0
1070
    74
1070
     0
1000
MTEXTEND
1000
MTEXTBEGIN
1070
    73
1070
     1
1070
    44
1040
1.0
1070
    74
1070
     0
1000
MTEXTEND
1000
MTEXTBEGIN
1070
    73
1070
     1
1070
    44
1040
1.0
1070
    74
1070
     0
1000
MTEXTEND
1000
MTEXTBEGIN
1070
    73
1070
     1
1070
    44
1040
1.0
1070
    74
1070
     0
1000
MTEXTEND
  0
MTEXT
  5
5629
330
1A
100
AcDbEntity
  8
SUNPOU
100
AcDbMText
 10
53496.23656356237
 20
40934.35266428691
 30
0.0
 40
10.5
 41
0.0
 71
     7
 72
     5
  1

1001
ACAD
1000
MTEXTBEGIN
1070
    73
1070
     1
1070
    44
1040
1.0
1070
    74
1070
     0
1000
MTEXTEND
1000
MTEXTBEGIN
1070
    73
1070
     1
1070
    44
1040
1.0
1070
    74
1070
     0
1000
MTEXTEND
1000
MTEXTBEGIN
1070
    73
1070
     1
1070
    44
1040
1.0
1070
    74
1070
     0
1000
MTEXTEND
1000
MTEXTBEGIN
1070
    73
1070
     1
1070
    44
1040
1.0
1070
    74
1070
     0
1000
MTEXTEND
  0
MTEXT
  5
562A
330
1A
100
AcDbEntity
  8
SUNPOU
100
AcDbMText
 10
55306.99947493731
 20
47261.76665176546
 30
0.0
 40
10.5
 41
0.0
 71
     9
 72
     5
  1

1001
ACAD
1000
MTEXTBEGIN
1070
    73
1070
     1
1070
    44
1040
1.0
1070
    74
1070
     0
1000
MTEXTEND
1000
MTEXTBEGIN
1070
    73
1070
     1
1070
    44
1040
1.0
1070
    74
1070
     0
1000
MTEXTEND
1000
MTEXTBEGIN
1070
    73
1070
     1
1070
    44
1040
1.0
1070
    74
1070
     0
1000
MTEXTEND
1000
MTEXTBEGIN
1070
    73
1070
     1
1070
    44
1040
1.0
1070
    74
1070
     0
1000
MTEXTEND
  0
MTEXT
  5
562B
330
1A
100
AcDbEntity
  8
SUNPOU
100
AcDbMText
 10
64029.16704085527
 20
54677.60118330295
 30
0.0
 40
10.5
 41
0.0
 71
     9
 72
     5
  1

1001
ACAD
1000
MTEXTBEGIN
1070
    73
1070
     1
1070
    44
1040
1.0
1070
    74
1070
     0
1000
MTEXTEND
1000
MTEXTBEGIN
1070
    73
1070
     1
1070
    44
1040
1.0
1070
    74
1070
     0
1000
MTEXTEND
1000
MTEXTBEGIN
1070
    73
1070
     1
1070
    44
1040
1.0
1070
    74
1070
     0
1000
MTEXTEND
1000
MTEXTBEGIN
1070
    73
1070
     1
1070
    44
1040
1.0
1070
    74
1070
     0
1000
MTEXTEND
  0
MTEXT
  5
562C
330
1A
100
AcDbEntity
  8
SUNPOU
100
AcDbMText
 10
82982.92575818527
 20
72144.17723579499
 30
0.0
 40
10.5
 41
0.0
 71
     9
 72
     5
  1

1001
ACAD
1000
MTEXTBEGIN
1070
    73
1070
     1
1070
    44
1040
1.0
1070
    74
1070
     0
1000
MTEXTEND
1000
MTEXTBEGIN
1070
    73
1070
     1
1070
    44
1040
1.0
1070
    74
1070
     0
1000
MTEXTEND
1000
MTEXTBEGIN
1070
    73
1070
     1
1070
    44
1040
1.0
1070
    74
1070
     0
1000
MTEXTEND
1000
MTEXTBEGIN
1070
    73
1070
     1
1070
    44
1040
1.0
1070
    74
1070
     0
1000
MTEXTEND
  0
MTEXT
  5
562D
330
1A
100
AcDbEntity
  8
SUNPOU
100
AcDbMText
 10
84926.33300489467
 20
70343.12815591697
 30
0.0
 40
3.5
 41
0.0
 71
     9
 72
     5
  1

1001
ACAD
1000
MTEXTBEGIN
1070
    73
1070
     1
1070
    44
1040
1.0
1070
    74
1070
     0
1000
MTEXTEND
1000
MTEXTBEGIN
1070
    73
1070
     1
1070
    44
1040
1.0
1070
    74
1070
     0
1000
MTEXTEND
1000
MTEXTBEGIN
1070
    73
1070
     1
1070
    44
1040
1.0
1070
    74
1070
     0
1000
MTEXTEND
1000
MTEXTBEGIN
1070
    73
1070
     1
1070
    44
1040
1.0
1070
    74
1070
     0
1000
MTEXTEND
  0
MTEXT
  5
562E
330
1A
100
AcDbEntity
  8
SUNPOU
100
AcDbMText
 10
116052.5128375142
 20
112838.0738235742
 30
0.0
 40
10.5
 41
0.0
 71
     9
 72
     5
  1

1001
ACAD
1000
MTEXTBEGIN
1070
    73
1070
     1
1070
    44
1040
1.0
1070
    74
1070
     0
1000
MTEXTEND
1000
MTEXTBEGIN
1070
    73
1070
     1
1070
    44
1040
1.0
1070
    74
1070
     0
1000
MTEXTEND
1000
MTEXTBEGIN
1070
    73
1070
     1
1070
    44
1040
1.0
1070
    74
1070
     0
1000
MTEXTEND
1000
MTEXTBEGIN
1070
    73
1070
     1
1070
    44
1040
1.0
1070
    74
1070
     0
1000
MTEXTEND
  0
MTEXT
  5
562F
330
1A
100
AcDbEntity
  8
SUNPOU
100
AcDbMText
 10
117995.9200842238
 20
111037.0247436963
 30
0.0
 40
3.5
 41
0.0
 71
     9
 72
     5
  1

1001
ACAD
1000
MTEXTBEGIN
1070
    73
1070
     1
1070
    44
1040
1.0
1070
    74
1070
     0
1000
MTEXTEND
1000
MTEXTBEGIN
1070
    73
1070
     1
1070
    44
1040
1.0
1070
    74
1070
     0
1000
MTEXTEND
1000
MTEXTBEGIN
1070
    73
1070
     1
1070
    44
1040
1.0
1070
    74
1070
     0
1000
MTEXTEND
1000
MTEXTBEGIN
1070
    73
1070
     1
1070
    44
1040
1.0
1070
    74
1070
     0
1000
MTEXTEND
  0
MTEXT
  5
5630
330
1A
100
AcDbEntity
  8
SUNPOU
100
AcDbMText
 10
66492.78054330994
 20
58671.23897854939
 30
0.0
 40
10.5
 41
0.0
 71
     9
 72
     5
  1

1001
ACAD
1000
MTEXTBEGIN
1070
    73
1070
     1
1070
    44
1040
1.0
1070
    74
1070
     0
1000
MTEXTEND
1000
MTEXTBEGIN
1070
    73
1070
     1
1070
    44
1040
1.0
1070
    74
1070
     0
1000
MTEXTEND
1000
MTEXTBEGIN
1070
    73
1070
     1
1070
    44
1040
1.0
1070
    74
1070
     0
1000
MTEXTEND
1000
MTEXTBEGIN
1070
    73
1070
     1
1070
    44
1040
1.0
1070
    74
1070
     0
1000
MTEXTEND
  0
MTEXT
  5
5631
330
1A
100
AcDbEntity
  8
SUNPOU
100
AcDbMText
 10
52544.78044293397
 20
39498.83983943717
 30
0.0
 40
3.5
 41
0.0
 71
     7
 72
     5
  1

1001
ACAD
1000
MTEXTBEGIN
1070
    73
1070
     1
1070
    44
1040
1.0
1070
    74
1070
     0
1000
MTEXTEND
1000
MTEXTBEGIN
1070
    73
1070
     1
1070
    44
1040
1.0
1070
    74
1070
     0
1000
MTEXTEND
1000
MTEXTBEGIN
1070
    73
1070
     1
1070
    44
1040
1.0
1070
    74
1070
     0
1000
MTEXTEND
1000
MTEXTBEGIN
1070
    73
1070
     1
1070
    44
1040
1.0
1070
    74
1070
     0
1000
MTEXTEND
  0
MTEXT
  5
5632
330
1A
100
AcDbEntity
  8
SUNPOU
100
AcDbMText
 10
66237.13112570454
 20
48857.90306045851
 30
0.0
 40
10.5
 41
0.0
 71
     9
 72
     5
  1

1001
ACAD
1000
MTEXTBEGIN
1070
    73
1070
     1
1070
    44
1040
1.0
1070
    74
1070
     0
1000
MTEXTEND
1000
MTEXTBEGIN
1070
    73
1070
     1
1070
    44
1040
1.0
1070
    74
1070
     0
1000
MTEXTEND
1000
MTEXTBEGIN
1070
    73
1070
     1
1070
    44
1040
1.0
1070
    74
1070
     0
1000
MTEXTEND
1000
MTEXTBEGIN
1070
    73
1070
     1
1070
    44
1040
1.0
1070
    74
1070
     0
1000
MTEXTEND
  0
MTEXT
  5
5633
330
1A
100
AcDbEntity
  8
SUNPOU
100
AcDbMText
 10
74959.29869162253
 20
56273.73759199596
 30
0.0
 40
10.5
 41
0.0
 71
     9
 72
     5
  1

1001
ACAD
1000
MTEXTBEGIN
1070
    73
1070
     1
1070
    44
1040
1.0
1070
    74
1070
     0
1000
MTEXTEND
1000
MTEXTBEGIN
1070
    73
1070
     1
1070
    44
1040
1.0
1070
    74
1070
     0
1000
MTEXTEND
1000
MTEXTBEGIN
1070
    73
1070
     1
1070
    44
1040
1.0
1070
    74
1070
     0
1000
MTEXTEND
1000
MTEXTBEGIN
1070
    73
1070
     1
1070
    44
1040
1.0
1070
    74
1070
     0
1000
MTEXTEND
  0
MTEXT
  5
5634
330
1A
100
AcDbEntity
  8
SUNPOU
100
AcDbMText
 10
93913.0574089525
 20
73740.31364448805
 30
0.0
 40
10.5
 41
0.0
 71
     9
 72
     5
  1

1001
ACAD
1000
MTEXTBEGIN
1070
    73
1070
     1
1070
    44
1040
1.0
1070
    74
1070
     0
1000
MTEXTEND
1000
MTEXTBEGIN
1070
    73
1070
     1
1070
    44
1040
1.0
1070
    74
1070
     0
1000
MTEXTEND
1000
MTEXTBEGIN
1070
    73
1070
     1
1070
    44
1040
1.0
1070
    74
1070
     0
1000
MTEXTEND
1000
MTEXTBEGIN
1070
    73
1070
     1
1070
    44
1040
1.0
1070
    74
1070
     0
1000
MTEXTEND
  0
MTEXT
  5
5635
330
1A
100
AcDbEntity
  8
SUNPOU
100
AcDbMText
 10
95856.46465566192
 20
71939.26456461004
 30
0.0
 40
3.5
 41
0.0
 71
     9
 72
     5
  1

1001
ACAD
1000
MTEXTBEGIN
1070
    73
1070
     1
1070
    44
1040
1.0
1070
    74
1070
     0
1000
MTEXTEND
1000
MTEXTBEGIN
1070
    73
1070
     1
1070
    44
1040
1.0
1070
    74
1070
     0
1000
MTEXTEND
1000
MTEXTBEGIN
1070
    73
1070
     1
1070
    44
1040
1.0
1070
    74
1070
     0
1000
MTEXTEND
1000
MTEXTBEGIN
1070
    73
1070
     1
1070
    44
1040
1.0
1070
    74
1070
     0
1000
MTEXTEND
  0
MTEXT
  5
5636
330
1A
100
AcDbEntity
  8
SUNPOU
100
AcDbMText
 10
126982.6444882816
 20
114434.2102322673
 30
0.0
 40
10.5
 41
0.0
 71
     9
 72
     5
  1

1001
ACAD
1000
MTEXTBEGIN
1070
    73
1070
     1
1070
    44
1040
1.0
1070
    74
1070
     0
1000
MTEXTEND
1000
MTEXTBEGIN
1070
    73
1070
     1
1070
    44
1040
1.0
1070
    74
1070
     0
1000
MTEXTEND
1000
MTEXTBEGIN
1070
    73
1070
     1
1070
    44
1040
1.0
1070
    74
1070
     0
1000
MTEXTEND
1000
MTEXTBEGIN
1070
    73
1070
     1
1070
    44
1040
1.0
1070
    74
1070
     0
1000
MTEXTEND
  0
MTEXT
  5
5637
330
1A
100
AcDbEntity
  8
SUNPOU
100
AcDbMText
 10
128926.051734991
 20
112633.1611523893
 30
0.0
 40
3.5
 41
0.0
 71
     9
 72
     5
  1

1001
ACAD
1000
MTEXTBEGIN
1070
    73
1070
     1
1070
    44
1040
1.0
1070
    74
1070
     0
1000
MTEXTEND
1000
MTEXTBEGIN
1070
    73
1070
     1
1070
    44
1040
1.0
1070
    74
1070
     0
1000
MTEXTEND
1000
MTEXTBEGIN
1070
    73
1070
     1
1070
    44
1040
1.0
1070
    74
1070
     0
1000
MTEXTEND
1000
MTEXTBEGIN
1070
    73
1070
     1
1070
    44
1040
1.0
1070
    74
1070
     0
1000
MTEXTEND
  0
MTEXT
  5
5638
330
1A
100
AcDbEntity
  8
SUNPOU
100
AcDbMText
 10
77422.91219407717
 20
60267.37538724244
 30
0.0
 40
10.5
 41
0.0
 71
     9
 72
     5
  1

1001
ACAD
1000
MTEXTBEGIN
1070
    73
1070
     1
1070
    44
1040
1.0
1070
    74
1070
     0
1000
MTEXTEND
1000
MTEXTBEGIN
1070
    73
1070
     1
1070
    44
1040
1.0
1070
    74
1070
     0
1000
MTEXTEND
1000
MTEXTBEGIN
1070
    73
1070
     1
1070
    44
1040
1.0
1070
    74
1070
     0
1000
MTEXTEND
1000
MTEXTBEGIN
1070
    73
1070
     1
1070
    44
1040
1.0
1070
    74
1070
     0
1000
MTEXTEND
  0
MTEXT
  5
5639
330
1A
100
AcDbEntity
  8
SUNPOU
100
AcDbMText
 10
63474.91209370119
 20
41094.97624813023
 30
0.0
 40
3.5
 41
0.0
 71
     7
 72
     5
  1

1001
ACAD
1000
MTEXTBEGIN
1070
    73
1070
     1
1070
    44
1040
1.0
1070
    74
1070
     0
1000
MTEXTEND
1000
MTEXTBEGIN
1070
    73
1070
     1
1070
    44
1040
1.0
1070
    74
1070
     0
1000
MTEXTEND
1000
MTEXTBEGIN
1070
    73
1070
     1
1070
    44
1040
1.0
1070
    74
1070
     0
1000
MTEXTEND
1000
MTEXTBEGIN
1070
    73
1070
     1
1070
    44
1040
1.0
1070
    74
1070
     0
1000
MTEXTEND
  0
MTEXT
  5
563A
330
1A
100
AcDbEntity
  8
SUNPOU
100
AcDbMText
 10
48117.65086229006
 20
40806.11043916631
 30
0.0
 40
10.5
 41
0.0
 71
     9
 72
     5
  1

1001
ACAD
1000
MTEXTBEGIN
1070
    73
1070
     1
1070
    44
1040
1.0
1070
    74
1070
     0
1000
MTEXTEND
1000
MTEXTBEGIN
1070
    73
1070
     1
1070
    44
1040
1.0
1070
    74
1070
     0
1000
MTEXTEND
1000
MTEXTBEGIN
1070
    73
1070
     1
1070
    44
1040
1.0
1070
    74
1070
     0
1000
MTEXTEND
1000
MTEXTBEGIN
1070
    73
1070
     1
1070
    44
1040
1.0
1070
    74
1070
     0
1000
MTEXTEND
  0
MTEXT
  5
563B
330
1A
100
AcDbEntity
  8
SUNPOU
100
AcDbMText
 10
67071.40957962004
 20
58272.68649165838
 30
0.0
 40
10.5
 41
0.0
 71
     9
 72
     5
  1

1001
ACAD
1000
MTEXTBEGIN
1070
    73
1070
     1
1070
    44
1040
1.0
1070
    74
1070
     0
1000
MTEXTEND
1000
MTEXTBEGIN
1070
    73
1070
     1
1070
    44
1040
1.0
1070
    74
1070
     0
1000
MTEXTEND
1000
MTEXTBEGIN
1070
    73
1070
     1
1070
    44
1040
1.0
1070
    74
1070
     0
1000
MTEXTEND
1000
MTEXTBEGIN
1070
    73
1070
     1
1070
    44
1040
1.0
1070
    74
1070
     0
1000
MTEXTEND
  0
MTEXT
  5
563C
330
1A
100
AcDbEntity
  8
SUNPOU
100
AcDbMText
 10
69014.81682632945
 20
56471.63741178035
 30
0.0
 40
3.5
 41
0.0
 71
     9
 72
     5
  1

1001
ACAD
1000
MTEXTBEGIN
1070
    73
1070
     1
1070
    44
1040
1.0
1070
    74
1070
     0
1000
MTEXTEND
1000
MTEXTBEGIN
1070
    73
1070
     1
1070
    44
1040
1.0
1070
    74
1070
     0
1000
MTEXTEND
1000
MTEXTBEGIN
1070
    73
1070
     1
1070
    44
1040
1.0
1070
    74
1070
     0
1000
MTEXTEND
1000
MTEXTBEGIN
1070
    73
1070
     1
1070
    44
1040
1.0
1070
    74
1070
     0
1000
MTEXTEND
  0
MTEXT
  5
563D
330
1A
100
AcDbEntity
  8
SUNPOU
100
AcDbMText
 10
100140.9966589491
 20
98966.58307943773
 30
0.0
 40
10.5
 41
0.0
 71
     9
 72
     5
  1

1001
ACAD
1000
MTEXTBEGIN
1070
    73
1070
     1
1070
    44
1040
1.0
1070
    74
1070
     0
1000
MTEXTEND
1000
MTEXTBEGIN
1070
    73
1070
     1
1070
    44
1040
1.0
1070
    74
1070
     0
1000
MTEXTEND
1000
MTEXTBEGIN
1070
    73
1070
     1
1070
    44
1040
1.0
1070
    74
1070
     0
1000
MTEXTEND
1000
MTEXTBEGIN
1070
    73
1070
     1
1070
    44
1040
1.0
1070
    74
1070
     0
1000
MTEXTEND
  0
MTEXT
  5
563E
330
1A
100
AcDbEntity
  8
SUNPOU
100
AcDbMText
 10
102084.4039056586
 20
97165.53399955968
 30
0.0
 40
3.5
 41
0.0
 71
     9
 72
     5
  1

1001
ACAD
1000
MTEXTBEGIN
1070
    73
1070
     1
1070
    44
1040
1.0
1070
    74
1070
     0
1000
MTEXTEND
1000
MTEXTBEGIN
1070
    73
1070
     1
1070
    44
1040
1.0
1070
    74
1070
     0
1000
MTEXTEND
1000
MTEXTBEGIN
1070
    73
1070
     1
1070
    44
1040
1.0
1070
    74
1070
     0
1000
MTEXTEND
1000
MTEXTBEGIN
1070
    73
1070
     1
1070
    44
1040
1.0
1070
    74
1070
     0
1000
MTEXTEND
  0
MTEXT
  5
563F
330
1A
100
AcDbEntity
  8
SUNPOU
100
AcDbMText
 10
50581.26436474472
 20
44799.74823441275
 30
0.0
 40
10.5
 41
0.0
 71
     9
 72
     5
  1

1001
ACAD
1000
MTEXTBEGIN
1070
    73
1070
     1
1070
    44
1040
1.0
1070
    74
1070
     0
1000
MTEXTEND
1000
MTEXTBEGIN
1070
    73
1070
     1
1070
    44
1040
1.0
1070
    74
1070
     0
1000
MTEXTEND
1000
MTEXTBEGIN
1070
    73
1070
     1
1070
    44
1040
1.0
1070
    74
1070
     0
1000
MTEXTEND
1000
MTEXTBEGIN
1070
    73
1070
     1
1070
    44
1040
1.0
1070
    74
1070
     0
1000
MTEXTEND
  0
MTEXT
  5
5640
330
1A
100
AcDbEntity
  8
SUNPOU
100
AcDbMText
 10
36633.26426436873
 20
25627.34909530054
 30
0.0
 40
3.5
 41
0.0
 71
     7
 72
     5
  1

1001
ACAD
1000
MTEXTBEGIN
1070
    73
1070
     1
1070
    44
1040
1.0
1070
    74
1070
     0
1000
MTEXTEND
1000
MTEXTBEGIN
1070
    73
1070
     1
1070
    44
1040
1.0
1070
    74
1070
     0
1000
MTEXTEND
1000
MTEXTBEGIN
1070
    73
1070
     1
1070
    44
1040
1.0
1070
    74
1070
     0
1000
MTEXTEND
1000
MTEXTBEGIN
1070
    73
1070
     1
1070
    44
1040
1.0
1070
    74
1070
     0
1000
MTEXTEND
  0
MTEXT
  5
5641
330
1A
100
AcDbEntity
  8
SUNPOU
100
AcDbMText
 10
61069.42493315968
 20
52574.61207825771
 30
0.0
 40
10.5
 41
0.0
 71
     9
 72
     5
  1

1001
ACAD
1000
MTEXTBEGIN
1070
    73
1070
     1
1070
    44
1040
1.0
1070
    74
1070
     0
1000
MTEXTEND
1000
MTEXTBEGIN
1070
    73
1070
     1
1070
    44
1040
1.0
1070
    74
1070
     0
1000
MTEXTEND
1000
MTEXTBEGIN
1070
    73
1070
     1
1070
    44
1040
1.0
1070
    74
1070
     0
1000
MTEXTEND
1000
MTEXTBEGIN
1070
    73
1070
     1
1070
    44
1040
1.0
1070
    74
1070
     0
1000
MTEXTEND
  0
MTEXT
  5
5642
330
1A
100
AcDbEntity
  8
SUNPOU
100
AcDbMText
 10
80023.18365048967
 20
70041.18813074978
 30
0.0
 40
10.5
 41
0.0
 71
     9
 72
     5
  1

1001
ACAD
1000
MTEXTBEGIN
1070
    73
1070
     1
1070
    44
1040
1.0
1070
    74
1070
     0
1000
MTEXTEND
1000
MTEXTBEGIN
1070
    73
1070
     1
1070
    44
1040
1.0
1070
    74
1070
     0
1000
MTEXTEND
1000
MTEXTBEGIN
1070
    73
1070
     1
1070
    44
1040
1.0
1070
    74
1070
     0
1000
MTEXTEND
1000
MTEXTBEGIN
1070
    73
1070
     1
1070
    44
1040
1.0
1070
    74
1070
     0
1000
MTEXTEND
  0
MTEXT
  5
5643
330
1A
100
AcDbEntity
  8
SUNPOU
100
AcDbMText
 10
81966.59089719908
 20
68240.13905087176
 30
0.0
 40
3.5
 41
0.0
 71
     9
 72
     5
  1

1001
ACAD
1000
MTEXTBEGIN
1070
    73
1070
     1
1070
    44
1040
1.0
1070
    74
1070
     0
1000
MTEXTEND
1000
MTEXTBEGIN
1070
    73
1070
     1
1070
    44
1040
1.0
1070
    74
1070
     0
1000
MTEXTEND
1000
MTEXTBEGIN
1070
    73
1070
     1
1070
    44
1040
1.0
1070
    74
1070
     0
1000
MTEXTEND
1000
MTEXTBEGIN
1070
    73
1070
     1
1070
    44
1040
1.0
1070
    74
1070
     0
1000
MTEXTEND
  0
MTEXT
  5
5644
330
1A
100
AcDbEntity
  8
SUNPOU
100
AcDbMText
 10
113092.7707298186
 20
110735.0847185291
 30
0.0
 40
10.5
 41
0.0
 71
     9
 72
     5
  1

1001
ACAD
1000
MTEXTBEGIN
1070
    73
1070
     1
1070
    44
1040
1.0
1070
    74
1070
     0
1000
MTEXTEND
1000
MTEXTBEGIN
1070
    73
1070
     1
1070
    44
1040
1.0
1070
    74
1070
     0
1000
MTEXTEND
1000
MTEXTBEGIN
1070
    73
1070
     1
1070
    44
1040
1.0
1070
    74
1070
     0
1000
MTEXTEND
1000
MTEXTBEGIN
1070
    73
1070
     1
1070
    44
1040
1.0
1070
    74
1070
     0
1000
MTEXTEND
  0
MTEXT
  5
5645
330
1A
100
AcDbEntity
  8
SUNPOU
100
AcDbMText
 10
115036.1779765282
 20
108934.0356386511
 30
0.0
 40
3.5
 41
0.0
 71
     9
 72
     5
  1

1001
ACAD
1000
MTEXTBEGIN
1070
    73
1070
     1
1070
    44
1040
1.0
1070
    74
1070
     0
1000
MTEXTEND
1000
MTEXTBEGIN
1070
    73
1070
     1
1070
    44
1040
1.0
1070
    74
1070
     0
1000
MTEXTEND
1000
MTEXTBEGIN
1070
    73
1070
     1
1070
    44
1040
1.0
1070
    74
1070
     0
1000
MTEXTEND
1000
MTEXTBEGIN
1070
    73
1070
     1
1070
    44
1040
1.0
1070
    74
1070
     0
1000
MTEXTEND
  0
MTEXT
  5
5646
330
1A
100
AcDbEntity
  8
SUNPOU
100
AcDbMText
 10
63533.03843561432
 20
56568.24987350415
 30
0.0
 40
10.5
 41
0.0
 71
     9
 72
     5
  1

1001
ACAD
1000
MTEXTBEGIN
1070
    73
1070
     1
1070
    44
1040
1.0
1070
    74
1070
     0
1000
MTEXTEND
1000
MTEXTBEGIN
1070
    73
1070
     1
1070
    44
1040
1.0
1070
    74
1070
     0
1000
MTEXTEND
1000
MTEXTBEGIN
1070
    73
1070
     1
1070
    44
1040
1.0
1070
    74
1070
     0
1000
MTEXTEND
1000
MTEXTBEGIN
1070
    73
1070
     1
1070
    44
1040
1.0
1070
    74
1070
     0
1000
MTEXTEND
  0
MTEXT
  5
5647
330
1A
100
AcDbEntity
  8
SUNPOU
100
AcDbMText
 10
49585.03833523835
 20
37395.85073439196
 30
0.0
 40
3.5
 41
0.0
 71
     7
 72
     5
  1

1001
ACAD
1000
MTEXTBEGIN
1070
    73
1070
     1
1070
    44
1040
1.0
1070
    74
1070
     0
1000
MTEXTEND
1000
MTEXTBEGIN
1070
    73
1070
     1
1070
    44
1040
1.0
1070
    74
1070
     0
1000
MTEXTEND
1000
MTEXTBEGIN
1070
    73
1070
     1
1070
    44
1040
1.0
1070
    74
1070
     0
1000
MTEXTEND
1000
MTEXTBEGIN
1070
    73
1070
     1
1070
    44
1040
1.0
1070
    74
1070
     0
1000
MTEXTEND
  0
MTEXT
  5
5648
330
1A
100
AcDbEntity
  8
SUNPOU
100
AcDbMText
 10
77137.31641337052
 20
70907.11375048141
 30
0.0
 40
10.5
 41
0.0
 71
     9
 72
     5
  1

1001
ACAD
1000
MTEXTBEGIN
1070
    73
1070
     1
1070
    44
1040
1.0
1070
    74
1070
     0
1000
MTEXTEND
1000
MTEXTBEGIN
1070
    73
1070
     1
1070
    44
1040
1.0
1070
    74
1070
     0
1000
MTEXTEND
1000
MTEXTBEGIN
1070
    73
1070
     1
1070
    44
1040
1.0
1070
    74
1070
     0
1000
MTEXTEND
1000
MTEXTBEGIN
1070
    73
1070
     1
1070
    44
1040
1.0
1070
    74
1070
     0
1000
MTEXTEND
  0
MTEXT
  5
5649
330
1A
100
AcDbEntity
  8
SUNPOU
100
AcDbMText
 10
79080.72366007995
 20
69106.06467060339
 30
0.0
 40
3.5
 41
0.0
 71
     9
 72
     5
  1

1001
ACAD
1000
MTEXTBEGIN
1070
    73
1070
     1
1070
    44
1040
1.0
1070
    74
1070
     0
1000
MTEXTEND
1000
MTEXTBEGIN
1070
    73
1070
     1
1070
    44
1040
1.0
1070
    74
1070
     0
1000
MTEXTEND
1000
MTEXTBEGIN
1070
    73
1070
     1
1070
    44
1040
1.0
1070
    74
1070
     0
1000
MTEXTEND
1000
MTEXTBEGIN
1070
    73
1070
     1
1070
    44
1040
1.0
1070
    74
1070
     0
1000
MTEXTEND
  0
MTEXT
  5
564A
330
1A
100
AcDbEntity
  8
SUNPOU
100
AcDbMText
 10
110206.9034926996
 20
111601.0103382607
 30
0.0
 40
10.5
 41
0.0
 71
     9
 72
     5
  1

1001
ACAD
1000
MTEXTBEGIN
1070
    73
1070
     1
1070
    44
1040
1.0
1070
    74
1070
     0
1000
MTEXTEND
1000
MTEXTBEGIN
1070
    73
1070
     1
1070
    44
1040
1.0
1070
    74
1070
     0
1000
MTEXTEND
1000
MTEXTBEGIN
1070
    73
1070
     1
1070
    44
1040
1.0
1070
    74
1070
     0
1000
MTEXTEND
1000
MTEXTBEGIN
1070
    73
1070
     1
1070
    44
1040
1.0
1070
    74
1070
     0
1000
MTEXTEND
  0
MTEXT
  5
564B
330
1A
100
AcDbEntity
  8
SUNPOU
100
AcDbMText
 10
112150.310739409
 20
109799.9612583826
 30
0.0
 40
3.5
 41
0.0
 71
     9
 72
     5
  1

1001
ACAD
1000
MTEXTBEGIN
1070
    73
1070
     1
1070
    44
1040
1.0
1070
    74
1070
     0
1000
MTEXTEND
1000
MTEXTBEGIN
1070
    73
1070
     1
1070
    44
1040
1.0
1070
    74
1070
     0
1000
MTEXTEND
1000
MTEXTBEGIN
1070
    73
1070
     1
1070
    44
1040
1.0
1070
    74
1070
     0
1000
MTEXTEND
1000
MTEXTBEGIN
1070
    73
1070
     1
1070
    44
1040
1.0
1070
    74
1070
     0
1000
MTEXTEND
  0
MTEXT
  5
564C
330
1A
100
AcDbEntity
  8
SUNPOU
100
AcDbMText
 10
108819.1333204967
 20
110677.9087286761
 30
0.0
 40
10.5
 41
0.0
 71
     9
 72
     5
  1

1001
ACAD
1000
MTEXTBEGIN
1070
    73
1070
     1
1070
    44
1040
1.0
1070
    74
1070
     0
1000
MTEXTEND
1000
MTEXTBEGIN
1070
    73
1070
     1
1070
    44
1040
1.0
1070
    74
1070
     0
1000
MTEXTEND
1000
MTEXTBEGIN
1070
    73
1070
     1
1070
    44
1040
1.0
1070
    74
1070
     0
1000
MTEXTEND
1000
MTEXTBEGIN
1070
    73
1070
     1
1070
    44
1040
1.0
1070
    74
1070
     0
1000
MTEXTEND
  0
MTEXT
  5
564D
330
1A
100
AcDbEntity
  8
SUNPOU
100
AcDbMText
 10
110762.5405672062
 20
108876.8596487981
 30
0.0
 40
3.5
 41
0.0
 71
     9
 72
     5
  1

1001
ACAD
1000
MTEXTBEGIN
1070
    73
1070
     1
1070
    44
1040
1.0
1070
    74
1070
     0
1000
MTEXTEND
1000
MTEXTBEGIN
1070
    73
1070
     1
1070
    44
1040
1.0
1070
    74
1070
     0
1000
MTEXTEND
1000
MTEXTBEGIN
1070
    73
1070
     1
1070
    44
1040
1.0
1070
    74
1070
     0
1000
MTEXTEND
1000
MTEXTBEGIN
1070
    73
1070
     1
1070
    44
1040
1.0
1070
    74
1070
     0
1000
MTEXTEND
  0
MTEXT
  5
564E
330
1A
100
AcDbEntity
  8
SUNPOU
100
AcDbMText
 10
76303.05507956816
 20
68695.31179059812
 30
0.0
 40
10.5
 41
0.0
 71
     9
 72
     5
  1

1001
ACAD
1000
MTEXTBEGIN
1070
    73
1070
     1
1070
    44
1040
1.0
1070
    74
1070
     0
1000
MTEXTEND
1000
MTEXTBEGIN
1070
    73
1070
     1
1070
    44
1040
1.0
1070
    74
1070
     0
1000
MTEXTEND
1000
MTEXTBEGIN
1070
    73
1070
     1
1070
    44
1040
1.0
1070
    74
1070
     0
1000
MTEXTEND
1000
MTEXTBEGIN
1070
    73
1070
     1
1070
    44
1040
1.0
1070
    74
1070
     0
1000
MTEXTEND
  0
MTEXT
  5
564F
330
1A
100
AcDbEntity
  8
SUNPOU
100
AcDbMText
 10
79026.36128373271
 20
69099.99348217918
 30
0.0
 40
3.5
 41
0.0
 71
     9
 72
     5
  1

1001
ACAD
1000
MTEXTBEGIN
1070
    73
1070
     1
1070
    44
1040
1.0
1070
    74
1070
     0
1000
MTEXTEND
1000
MTEXTBEGIN
1070
    73
1070
     1
1070
    44
1040
1.0
1070
    74
1070
     0
1000
MTEXTEND
1000
MTEXTBEGIN
1070
    73
1070
     1
1070
    44
1040
1.0
1070
    74
1070
     0
1000
MTEXTEND
1000
MTEXTBEGIN
1070
    73
1070
     1
1070
    44
1040
1.0
1070
    74
1070
     0
1000
MTEXTEND
  0
MTEXT
  5
5650
330
1A
100
AcDbEntity
  8
SUNPOU
100
AcDbMText
 10
78234.00675862522
 20
65938.68764412436
 30
0.0
 40
10.5
 41
0.0
 71
     9
 72
     5
  1

1001
ACAD
1000
MTEXTBEGIN
1070
    73
1070
     1
1070
    44
1040
1.0
1070
    74
1070
     0
1000
MTEXTEND
1000
MTEXTBEGIN
1070
    73
1070
     1
1070
    44
1040
1.0
1070
    74
1070
     0
1000
MTEXTEND
1000
MTEXTBEGIN
1070
    73
1070
     1
1070
    44
1040
1.0
1070
    74
1070
     0
1000
MTEXTEND
1000
MTEXTBEGIN
1070
    73
1070
     1
1070
    44
1040
1.0
1070
    74
1070
     0
1000
MTEXTEND
  0
MTEXT
  5
5651
330
1A
100
AcDbEntity
  8
SUNPOU
100
AcDbMText
 10
80177.41400533465
 20
64137.63856424636
 30
0.0
 40
3.5
 41
0.0
 71
     9
 72
     5
  1

1001
ACAD
1000
MTEXTBEGIN
1070
    73
1070
     1
1070
    44
1040
1.0
1070
    74
1070
     0
1000
MTEXTEND
1000
MTEXTBEGIN
1070
    73
1070
     1
1070
    44
1040
1.0
1070
    74
1070
     0
1000
MTEXTEND
1000
MTEXTBEGIN
1070
    73
1070
     1
1070
    44
1040
1.0
1070
    74
1070
     0
1000
MTEXTEND
1000
MTEXTBEGIN
1070
    73
1070
     1
1070
    44
1040
1.0
1070
    74
1070
     0
1000
MTEXTEND
  0
MTEXT
  5
5652
330
1A
100
AcDbEntity
  8
SUNPOU
100
AcDbMText
 10
80122.50949592122
 20
64024.86668196204
 30
0.0
 40
3.5
 41
0.0
 71
     9
 72
     5
  1

1001
ACAD
1000
MTEXTBEGIN
1070
    73
1070
     1
1070
    44
1040
1.0
1070
    74
1070
     0
1000
MTEXTEND
1000
MTEXTBEGIN
1070
    73
1070
     1
1070
    44
1040
1.0
1070
    74
1070
     0
1000
MTEXTEND
1000
MTEXTBEGIN
1070
    73
1070
     1
1070
    44
1040
1.0
1070
    74
1070
     0
1000
MTEXTEND
1000
MTEXTBEGIN
1070
    73
1070
     1
1070
    44
1040
1.0
1070
    74
1070
     0
1000
MTEXTEND
  0
MTEXT
  5
5653
330
1A
100
AcDbEntity
  8
SUNPOU
100
AcDbMText
 10
79486.58135950133
 20
63213.54544089553
 30
0.0
 40
3.5
 41
0.0
 71
     9
 72
     5
  1

1001
ACAD
1000
MTEXTBEGIN
1070
    73
1070
     1
1070
    44
1040
1.0
1070
    74
1070
     0
1000
MTEXTEND
1000
MTEXTBEGIN
1070
    73
1070
     1
1070
    44
1040
1.0
1070
    74
1070
     0
1000
MTEXTEND
1000
MTEXTBEGIN
1070
    73
1070
     1
1070
    44
1040
1.0
1070
    74
1070
     0
1000
MTEXTEND
1000
MTEXTBEGIN
1070
    73
1070
     1
1070
    44
1040
1.0
1070
    74
1070
     0
1000
MTEXTEND
  0
MTEXT
  5
5654
330
1A
100
AcDbEntity
  8
SUNPOU
100
AcDbMText
 10
79485.3409400806
 20
63213.29746395804
 30
0.0
 40
10.5
 41
0.0
 71
     9
 72
     5
  1

1001
ACAD
1000
MTEXTBEGIN
1070
    73
1070
     1
1070
    44
1040
1.0
1070
    74
1070
     0
1000
MTEXTEND
1000
MTEXTBEGIN
1070
    73
1070
     1
1070
    44
1040
1.0
1070
    74
1070
     0
1000
MTEXTEND
1000
MTEXTBEGIN
1070
    73
1070
     1
1070
    44
1040
1.0
1070
    74
1070
     0
1000
MTEXTEND
1000
MTEXTBEGIN
1070
    73
1070
     1
1070
    44
1040
1.0
1070
    74
1070
     0
1000
MTEXTEND
  0
MTEXT
  5
5655
330
1A
100
AcDbEntity
  8
SUNPOU
100
AcDbMText
 10
85473.63363627567
 20
80747.76348077064
 30
0.0
 40
10.5
 41
0.0
 71
     9
 72
     5
  1

1001
ACAD
1000
MTEXTBEGIN
1070
    73
1070
     1
1070
    44
1040
1.0
1070
    74
1070
     0
1000
MTEXTEND
1000
MTEXTBEGIN
1070
    73
1070
     1
1070
    44
1040
1.0
1070
    74
1070
     0
1000
MTEXTEND
1000
MTEXTBEGIN
1070
    73
1070
     1
1070
    44
1040
1.0
1070
    74
1070
     0
1000
MTEXTEND
1000
MTEXTBEGIN
1070
    73
1070
     1
1070
    44
1040
1.0
1070
    74
1070
     0
1000
MTEXTEND
  0
MTEXT
  5
5656
330
1A
100
AcDbEntity
  8
SUNPOU
100
AcDbMText
 10
94195.80120219368
 20
88163.59801230806
 30
0.0
 40
10.5
 41
0.0
 71
     9
 72
     5
  1

1001
ACAD
1000
MTEXTBEGIN
1070
    73
1070
     1
1070
    44
1040
1.0
1070
    74
1070
     0
1000
MTEXTEND
1000
MTEXTBEGIN
1070
    73
1070
     1
1070
    44
1040
1.0
1070
    74
1070
     0
1000
MTEXTEND
1000
MTEXTBEGIN
1070
    73
1070
     1
1070
    44
1040
1.0
1070
    74
1070
     0
1000
MTEXTEND
1000
MTEXTBEGIN
1070
    73
1070
     1
1070
    44
1040
1.0
1070
    74
1070
     0
1000
MTEXTEND
  0
MTEXT
  5
5657
330
1A
100
AcDbEntity
  8
SUNPOU
100
AcDbMText
 10
113149.5599195236
 20
105630.1740648001
 30
0.0
 40
10.5
 41
0.0
 71
     9
 72
     5
  1

1001
ACAD
1000
MTEXTBEGIN
1070
    73
1070
     1
1070
    44
1040
1.0
1070
    74
1070
     0
1000
MTEXTEND
1000
MTEXTBEGIN
1070
    73
1070
     1
1070
    44
1040
1.0
1070
    74
1070
     0
1000
MTEXTEND
1000
MTEXTBEGIN
1070
    73
1070
     1
1070
    44
1040
1.0
1070
    74
1070
     0
1000
MTEXTEND
1000
MTEXTBEGIN
1070
    73
1070
     1
1070
    44
1040
1.0
1070
    74
1070
     0
1000
MTEXTEND
  0
MTEXT
  5
5658
330
1A
100
AcDbEntity
  8
SUNPOU
100
AcDbMText
 10
115092.967166233
 20
103829.1249849221
 30
0.0
 40
3.5
 41
0.0
 71
     9
 72
     5
  1

1001
ACAD
1000
MTEXTBEGIN
1070
    73
1070
     1
1070
    44
1040
1.0
1070
    74
1070
     0
1000
MTEXTEND
1000
MTEXTBEGIN
1070
    73
1070
     1
1070
    44
1040
1.0
1070
    74
1070
     0
1000
MTEXTEND
1000
MTEXTBEGIN
1070
    73
1070
     1
1070
    44
1040
1.0
1070
    74
1070
     0
1000
MTEXTEND
1000
MTEXTBEGIN
1070
    73
1070
     1
1070
    44
1040
1.0
1070
    74
1070
     0
1000
MTEXTEND
  0
MTEXT
  5
5659
330
1A
100
AcDbEntity
  8
SUNPOU
100
AcDbMText
 10
146219.1469988527
 20
146324.0706525794
 30
0.0
 40
10.5
 41
0.0
 71
     9
 72
     5
  1

1001
ACAD
1000
MTEXTBEGIN
1070
    73
1070
     1
1070
    44
1040
1.0
1070
    74
1070
     0
1000
MTEXTEND
1000
MTEXTBEGIN
1070
    73
1070
     1
1070
    44
1040
1.0
1070
    74
1070
     0
1000
MTEXTEND
1000
MTEXTBEGIN
1070
    73
1070
     1
1070
    44
1040
1.0
1070
    74
1070
     0
1000
MTEXTEND
1000
MTEXTBEGIN
1070
    73
1070
     1
1070
    44
1040
1.0
1070
    74
1070
     0
1000
MTEXTEND
  0
MTEXT
  5
565A
330
1A
100
AcDbEntity
  8
SUNPOU
100
AcDbMText
 10
148162.5542455621
 20
144523.0215727014
 30
0.0
 40
3.5
 41
0.0
 71
     9
 72
     5
  1

1001
ACAD
1000
MTEXTBEGIN
1070
    73
1070
     1
1070
    44
1040
1.0
1070
    74
1070
     0
1000
MTEXTEND
1000
MTEXTBEGIN
1070
    73
1070
     1
1070
    44
1040
1.0
1070
    74
1070
     0
1000
MTEXTEND
1000
MTEXTBEGIN
1070
    73
1070
     1
1070
    44
1040
1.0
1070
    74
1070
     0
1000
MTEXTEND
1000
MTEXTBEGIN
1070
    73
1070
     1
1070
    44
1040
1.0
1070
    74
1070
     0
1000
MTEXTEND
  0
MTEXT
  5
565B
330
1A
100
AcDbEntity
  8
SUNPOU
100
AcDbMText
 10
96659.41470464833
 20
92157.23580755453
 30
0.0
 40
10.5
 41
0.0
 71
     9
 72
     5
  1

1001
ACAD
1000
MTEXTBEGIN
1070
    73
1070
     1
1070
    44
1040
1.0
1070
    74
1070
     0
1000
MTEXTEND
1000
MTEXTBEGIN
1070
    73
1070
     1
1070
    44
1040
1.0
1070
    74
1070
     0
1000
MTEXTEND
1000
MTEXTBEGIN
1070
    73
1070
     1
1070
    44
1040
1.0
1070
    74
1070
     0
1000
MTEXTEND
1000
MTEXTBEGIN
1070
    73
1070
     1
1070
    44
1040
1.0
1070
    74
1070
     0
1000
MTEXTEND
  0
MTEXT
  5
565C
330
1A
100
AcDbEntity
  8
SUNPOU
100
AcDbMText
 10
82711.41460427234
 20
72984.83666844234
 30
0.0
 40
3.5
 41
0.0
 71
     7
 72
     5
  1

1001
ACAD
1000
MTEXTBEGIN
1070
    73
1070
     1
1070
    44
1040
1.0
1070
    74
1070
     0
1000
MTEXTEND
1000
MTEXTBEGIN
1070
    73
1070
     1
1070
    44
1040
1.0
1070
    74
1070
     0
1000
MTEXTEND
1000
MTEXTBEGIN
1070
    73
1070
     1
1070
    44
1040
1.0
1070
    74
1070
     0
1000
MTEXTEND
1000
MTEXTBEGIN
1070
    73
1070
     1
1070
    44
1040
1.0
1070
    74
1070
     0
1000
MTEXTEND
  0
MTEXT
  5
565D
330
1A
100
AcDbEntity
  8
SUNPOU
100
AcDbMText
 10
63696.58400126548
 20
60746.98539926055
 30
0.0
 40
10.5
 41
0.0
 71
     7
 72
     5
  1

1001
ACAD
1000
MTEXTBEGIN
1070
    73
1070
     1
1070
    44
1040
1.0
1070
    74
1070
     0
1000
MTEXTEND
1000
MTEXTBEGIN
1070
    73
1070
     1
1070
    44
1040
1.0
1070
    74
1070
     0
1000
MTEXTEND
1000
MTEXTBEGIN
1070
    73
1070
     1
1070
    44
1040
1.0
1070
    74
1070
     0
1000
MTEXTEND
1000
MTEXTBEGIN
1070
    73
1070
     1
1070
    44
1040
1.0
1070
    74
1070
     0
1000
MTEXTEND
  0
MTEXT
  5
565E
330
1A
100
AcDbEntity
  8
SUNPOU
100
AcDbMText
 10
51239.35573631738
 20
44902.05382116213
 30
0.0
 40
35.0
 41
0.0
 71
     9
 72
     5
  1

1001
ACAD
1000
MTEXTBEGIN
1070
    73
1070
     1
1070
    44
1040
1.0
1070
    74
1070
     0
1000
MTEXTEND
1000
MTEXTBEGIN
1070
    73
1070
     1
1070
    44
1040
1.0
1070
    74
1070
     0
1000
MTEXTEND
1000
MTEXTBEGIN
1070
    73
1070
     1
1070
    44
1040
1.0
1070
    74
1070
     0
1000
MTEXTEND
1000
MTEXTBEGIN
1070
    73
1070
     1
1070
    44
1040
1.0
1070
    74
1070
     0
1000
MTEXTEND
  0
MTEXT
  5
565F
330
1A
100
AcDbEntity
  8
SUNPOU
100
AcDbMText
 10
50147.84079389233
 20
45510.82923121084
 30
0.0
 40
350.0000004171781
 41
0.0
 71
     7
 72
     5
  1

1001
ACAD
1000
MTEXTBEGIN
1070
    73
1070
     1
1070
    44
1040
1.0
1070
    74
1070
     0
1000
MTEXTEND
1000
MTEXTBEGIN
1070
    73
1070
     1
1070
    44
1040
1.0
1070
    74
1070
     0
1000
MTEXTEND
1000
MTEXTBEGIN
1070
    73
1070
     1
1070
    44
1040
1.0
1070
    74
1070
     0
1000
MTEXTEND
1000
MTEXTBEGIN
1070
    73
1070
     1
1070
    44
1040
1.0
1070
    74
1070
     0
1000
MTEXTEND
  0
MTEXT
  5
5660
330
1A
100
AcDbEntity
  8
0
100
AcDbMText
 10
56191.79155183523
 20
43490.75159334705
 30
0.0
 40
8.0
 41
0.0
 71
     7
 72
     5
  1

1001
ACAD
1000
MTEXTBEGIN
1070
    73
1070
     1
1070
    44
1040
1.0
1070
    74
1070
     0
1000
MTEXTEND
1000
MTEXTBEGIN
1070
    73
1070
     1
1070
    44
1040
1.0
1070
    74
1070
     0
1000
MTEXTEND
1000
MTEXTBEGIN
1070
    73
1070
     1
1070
    44
1040
1.0
1070
    74
1070
     0
1000
MTEXTEND
1000
MTEXTBEGIN
1070
    73
1070
     1
1070
    44
1040
1.0
1070
    74
1070
     0
1000
MTEXTEND
  0
MTEXT
  5
5661
330
1A
100
AcDbEntity
  8
0
100
AcDbMText
 10
58477.14924173012
 20
44461.54188809812
 30
0.0
 40
8.0
 41
0.0
 71
     7
 72
     5
  1

1001
ACAD
1000
MTEXTBEGIN
1070
    73
1070
     1
1070
    44
1040
1.0
1070
    74
1070
     0
1000
MTEXTEND
1000
MTEXTBEGIN
1070
    73
1070
     1
1070
    44
1040
1.0
1070
    74
1070
     0
1000
MTEXTEND
1000
MTEXTBEGIN
1070
    73
1070
     1
1070
    44
1040
1.0
1070
    74
1070
     0
1000
MTEXTEND
1000
MTEXTBEGIN
1070
    73
1070
     1
1070
    44
1040
1.0
1070
    74
1070
     0
1000
MTEXTEND
  0
MTEXT
  5
5662
330
1A
100
AcDbEntity
  8
SUNPOU
100
AcDbMText
 10
61143.04626241227
 20
53973.65328047324
 30
0.0
 40
10.5
 41
0.0
 71
     1
 72
     5
  1

1001
ACAD
1000
MTEXTBEGIN
1070
    73
1070
     1
1070
    44
1040
1.0
1070
    74
1070
     0
1000
MTEXTEND
1000
MTEXTBEGIN
1070
    73
1070
     1
1070
    44
1040
1.0
1070
    74
1070
     0
1000
MTEXTEND
1000
MTEXTBEGIN
1070
    73
1070
     1
1070
    44
1040
1.0
1070
    74
1070
     0
1000
MTEXTEND
1000
MTEXTBEGIN
1070
    73
1070
     1
1070
    44
1040
1.0
1070
    74
1070
     0
1000
MTEXTEND
  0
MTEXT
  5
5663
330
1A
100
AcDbEntity
  8
SUNPOU
100
AcDbMText
 10
53212.12306647632
 20
53026.86014656028
 30
0.0
 40
10.5
 41
0.0
 71
     7
 72
     5
  1

1001
ACAD
1000
MTEXTBEGIN
1070
    73
1070
     1
1070
    44
1040
1.0
1070
    74
1070
     0
1000
MTEXTEND
1000
MTEXTBEGIN
1070
    73
1070
     1
1070
    44
1040
1.0
1070
    74
1070
     0
1000
MTEXTEND
1000
MTEXTBEGIN
1070
    73
1070
     1
1070
    44
1040
1.0
1070
    74
1070
     0
1000
MTEXTEND
1000
MTEXTBEGIN
1070
    73
1070
     1
1070
    44
1040
1.0
1070
    74
1070
     0
1000
MTEXTEND
  0
MTEXT
  5
5664
330
1A
100
AcDbEntity
  8
SUNPOU
100
AcDbMText
 10
56161.10673098909
 20
57927.53621840312
 30
0.0
 40
10.5
 41
0.0
 71
     7
 72
     5
  1

1001
ACAD
1000
MTEXTBEGIN
1070
    73
1070
     1
1070
    44
1040
1.0
1070
    74
1070
     0
1000
MTEXTEND
1000
MTEXTBEGIN
1070
    73
1070
     1
1070
    44
1040
1.0
1070
    74
1070
     0
1000
MTEXTEND
1000
MTEXTBEGIN
1070
    73
1070
     1
1070
    44
1040
1.0
1070
    74
1070
     0
1000
MTEXTEND
1000
MTEXTBEGIN
1070
    73
1070
     1
1070
    44
1040
1.0
1070
    74
1070
     0
1000
MTEXTEND
  0
MTEXT
  5
5665
330
1A
100
AcDbEntity
  8
SUNPOU
100
AcDbMText
 10
60670.18485893966
 20
60363.8369660232
 30
0.0
 40
10.5
 41
0.0
 71
     7
 72
     5
  1

1001
ACAD
1000
MTEXTBEGIN
1070
    73
1070
     1
1070
    44
1040
1.0
1070
    74
1070
     0
1000
MTEXTEND
1000
MTEXTBEGIN
1070
    73
1070
     1
1070
    44
1040
1.0
1070
    74
1070
     0
1000
MTEXTEND
1000
MTEXTBEGIN
1070
    73
1070
     1
1070
    44
1040
1.0
1070
    74
1070
     0
1000
MTEXTEND
1000
MTEXTBEGIN
1070
    73
1070
     1
1070
    44
1040
1.0
1070
    74
1070
     0
1000
MTEXTEND
  0
MTEXT
  5
5666
330
1A
100
AcDbEntity
  8
SUNPOU
100
AcDbMText
 10
44271.02274570799
 20
39361.43311641211
 30
0.0
 40
10.5
 41
0.0
 71
     7
 72
     5
  1

1001
ACAD
1000
MTEXTBEGIN
1070
    73
1070
     1
1070
    44
1040
1.0
1070
    74
1070
     0
1000
MTEXTEND
1000
MTEXTBEGIN
1070
    73
1070
     1
1070
    44
1040
1.0
1070
    74
1070
     0
1000
MTEXTEND
1000
MTEXTBEGIN
1070
    73
1070
     1
1070
    44
1040
1.0
1070
    74
1070
     0
1000
MTEXTEND
1000
MTEXTBEGIN
1070
    73
1070
     1
1070
    44
1040
1.0
1070
    74
1070
     0
1000
MTEXTEND
  0
MTEXT
  5
5667
330
1A
100
AcDbEntity
  8
SUNPOU
100
AcDbMText
 10
95462.54117960824
 20
85034.41368006038
 30
0.0
 40
10.5
 41
0.0
 71
     9
 72
     5
  1

1001
ACAD
1000
MTEXTBEGIN
1070
    73
1070
     1
1070
    44
1040
1.0
1070
    74
1070
     0
1000
MTEXTEND
1000
MTEXTBEGIN
1070
    73
1070
     1
1070
    44
1040
1.0
1070
    74
1070
     0
1000
MTEXTEND
1000
MTEXTBEGIN
1070
    73
1070
     1
1070
    44
1040
1.0
1070
    74
1070
     0
1000
MTEXTEND
1000
MTEXTBEGIN
1070
    73
1070
     1
1070
    44
1040
1.0
1070
    74
1070
     0
1000
MTEXTEND
  0
MTEXT
  5
5668
330
1A
100
AcDbEntity
  8
SUNPOU
100
AcDbMText
 10
104184.7087455262
 20
92450.24821159784
 30
0.0
 40
10.5
 41
0.0
 71
     9
 72
     5
  1

1001
ACAD
1000
MTEXTBEGIN
1070
    73
1070
     1
1070
    44
1040
1.0
1070
    74
1070
     0
1000
MTEXTEND
1000
MTEXTBEGIN
1070
    73
1070
     1
1070
    44
1040
1.0
1070
    74
1070
     0
1000
MTEXTEND
1000
MTEXTBEGIN
1070
    73
1070
     1
1070
    44
1040
1.0
1070
    74
1070
     0
1000
MTEXTEND
1000
MTEXTBEGIN
1070
    73
1070
     1
1070
    44
1040
1.0
1070
    74
1070
     0
1000
MTEXTEND
  0
MTEXT
  5
5669
330
1A
100
AcDbEntity
  8
SUNPOU
100
AcDbMText
 10
123138.4674628562
 20
109916.8242640898
 30
0.0
 40
10.5
 41
0.0
 71
     9
 72
     5
  1

1001
ACAD
1000
MTEXTBEGIN
1070
    73
1070
     1
1070
    44
1040
1.0
1070
    74
1070
     0
1000
MTEXTEND
1000
MTEXTBEGIN
1070
    73
1070
     1
1070
    44
1040
1.0
1070
    74
1070
     0
1000
MTEXTEND
1000
MTEXTBEGIN
1070
    73
1070
     1
1070
    44
1040
1.0
1070
    74
1070
     0
1000
MTEXTEND
1000
MTEXTBEGIN
1070
    73
1070
     1
1070
    44
1040
1.0
1070
    74
1070
     0
1000
MTEXTEND
  0
MTEXT
  5
566A
330
1A
100
AcDbEntity
  8
SUNPOU
100
AcDbMText
 10
125081.8747095656
 20
108115.7751842118
 30
0.0
 40
3.5
 41
0.0
 71
     9
 72
     5
  1

1001
ACAD
1000
MTEXTBEGIN
1070
    73
1070
     1
1070
    44
1040
1.0
1070
    74
1070
     0
1000
MTEXTEND
1000
MTEXTBEGIN
1070
    73
1070
     1
1070
    44
1040
1.0
1070
    74
1070
     0
1000
MTEXTEND
1000
MTEXTBEGIN
1070
    73
1070
     1
1070
    44
1040
1.0
1070
    74
1070
     0
1000
MTEXTEND
1000
MTEXTBEGIN
1070
    73
1070
     1
1070
    44
1040
1.0
1070
    74
1070
     0
1000
MTEXTEND
  0
MTEXT
  5
566B
330
1A
100
AcDbEntity
  8
SUNPOU
100
AcDbMText
 10
156208.0545421853
 20
150610.7208518691
 30
0.0
 40
10.5
 41
0.0
 71
     9
 72
     5
  1

1001
ACAD
1000
MTEXTBEGIN
1070
    73
1070
     1
1070
    44
1040
1.0
1070
    74
1070
     0
1000
MTEXTEND
1000
MTEXTBEGIN
1070
    73
1070
     1
1070
    44
1040
1.0
1070
    74
1070
     0
1000
MTEXTEND
1000
MTEXTBEGIN
1070
    73
1070
     1
1070
    44
1040
1.0
1070
    74
1070
     0
1000
MTEXTEND
1000
MTEXTBEGIN
1070
    73
1070
     1
1070
    44
1040
1.0
1070
    74
1070
     0
1000
MTEXTEND
  0
MTEXT
  5
566C
330
1A
100
AcDbEntity
  8
SUNPOU
100
AcDbMText
 10
158151.4617888947
 20
148809.6717719911
 30
0.0
 40
3.5
 41
0.0
 71
     9
 72
     5
  1

1001
ACAD
1000
MTEXTBEGIN
1070
    73
1070
     1
1070
    44
1040
1.0
1070
    74
1070
     0
1000
MTEXTEND
1000
MTEXTBEGIN
1070
    73
1070
     1
1070
    44
1040
1.0
1070
    74
1070
     0
1000
MTEXTEND
1000
MTEXTBEGIN
1070
    73
1070
     1
1070
    44
1040
1.0
1070
    74
1070
     0
1000
MTEXTEND
1000
MTEXTBEGIN
1070
    73
1070
     1
1070
    44
1040
1.0
1070
    74
1070
     0
1000
MTEXTEND
  0
MTEXT
  5
566D
330
1A
100
AcDbEntity
  8
SUNPOU
100
AcDbMText
 10
106648.3222479809
 20
96443.88600684427
 30
0.0
 40
10.5
 41
0.0
 71
     9
 72
     5
  1

1001
ACAD
1000
MTEXTBEGIN
1070
    73
1070
     1
1070
    44
1040
1.0
1070
    74
1070
     0
1000
MTEXTEND
1000
MTEXTBEGIN
1070
    73
1070
     1
1070
    44
1040
1.0
1070
    74
1070
     0
1000
MTEXTEND
1000
MTEXTBEGIN
1070
    73
1070
     1
1070
    44
1040
1.0
1070
    74
1070
     0
1000
MTEXTEND
1000
MTEXTBEGIN
1070
    73
1070
     1
1070
    44
1040
1.0
1070
    74
1070
     0
1000
MTEXTEND
  0
MTEXT
  5
566E
330
1A
100
AcDbEntity
  8
SUNPOU
100
AcDbMText
 10
92700.3221476049
 20
77271.48686773207
 30
0.0
 40
3.5
 41
0.0
 71
     7
 72
     5
  1

1001
ACAD
1000
MTEXTBEGIN
1070
    73
1070
     1
1070
    44
1040
1.0
1070
    74
1070
     0
1000
MTEXTEND
1000
MTEXTBEGIN
1070
    73
1070
     1
1070
    44
1040
1.0
1070
    74
1070
     0
1000
MTEXTEND
1000
MTEXTBEGIN
1070
    73
1070
     1
1070
    44
1040
1.0
1070
    74
1070
     0
1000
MTEXTEND
1000
MTEXTBEGIN
1070
    73
1070
     1
1070
    44
1040
1.0
1070
    74
1070
     0
1000
MTEXTEND
  0
MTEXT
  5
566F
330
1A
100
AcDbEntity
  8
SUNPOU
100
AcDbMText
 10
73685.49154459807
 20
65033.63559855027
 30
0.0
 40
10.5
 41
0.0
 71
     7
 72
     5
  1

1001
ACAD
1000
MTEXTBEGIN
1070
    73
1070
     1
1070
    44
1040
1.0
1070
    74
1070
     0
1000
MTEXTEND
1000
MTEXTBEGIN
1070
    73
1070
     1
1070
    44
1040
1.0
1070
    74
1070
     0
1000
MTEXTEND
1000
MTEXTBEGIN
1070
    73
1070
     1
1070
    44
1040
1.0
1070
    74
1070
     0
1000
MTEXTEND
1000
MTEXTBEGIN
1070
    73
1070
     1
1070
    44
1040
1.0
1070
    74
1070
     0
1000
MTEXTEND
  0
MTEXT
  5
5670
330
1A
100
AcDbEntity
  8
SUNPOU
100
AcDbMText
 10
61228.26327964995
 20
49188.70402045183
 30
0.0
 40
35.0
 41
0.0
 71
     9
 72
     5
  1

1001
ACAD
1000
MTEXTBEGIN
1070
    73
1070
     1
1070
    44
1040
1.0
1070
    74
1070
     0
1000
MTEXTEND
1000
MTEXTBEGIN
1070
    73
1070
     1
1070
    44
1040
1.0
1070
    74
1070
     0
1000
MTEXTEND
1000
MTEXTBEGIN
1070
    73
1070
     1
1070
    44
1040
1.0
1070
    74
1070
     0
1000
MTEXTEND
1000
MTEXTBEGIN
1070
    73
1070
     1
1070
    44
1040
1.0
1070
    74
1070
     0
1000
MTEXTEND
  0
MTEXT
  5
5671
330
1A
100
AcDbEntity
  8
SUNPOU
100
AcDbMText
 10
60136.74833722491
 20
49797.47943050056
 30
0.0
 40
350.0000004171781
 41
0.0
 71
     7
 72
     5
  1

1001
ACAD
1000
MTEXTBEGIN
1070
    73
1070
     1
1070
    44
1040
1.0
1070
    74
1070
     0
1000
MTEXTEND
1000
MTEXTBEGIN
1070
    73
1070
     1
1070
    44
1040
1.0
1070
    74
1070
     0
1000
MTEXTEND
1000
MTEXTBEGIN
1070
    73
1070
     1
1070
    44
1040
1.0
1070
    74
1070
     0
1000
MTEXTEND
1000
MTEXTBEGIN
1070
    73
1070
     1
1070
    44
1040
1.0
1070
    74
1070
     0
1000
MTEXTEND
  0
MTEXT
  5
5672
330
1A
100
AcDbEntity
  8
0
100
AcDbMText
 10
66180.69909516782
 20
47777.40179263677
 30
0.0
 40
8.0
 41
0.0
 71
     7
 72
     5
  1

1001
ACAD
1000
MTEXTBEGIN
1070
    73
1070
     1
1070
    44
1040
1.0
1070
    74
1070
     0
1000
MTEXTEND
1000
MTEXTBEGIN
1070
    73
1070
     1
1070
    44
1040
1.0
1070
    74
1070
     0
1000
MTEXTEND
1000
MTEXTBEGIN
1070
    73
1070
     1
1070
    44
1040
1.0
1070
    74
1070
     0
1000
MTEXTEND
1000
MTEXTBEGIN
1070
    73
1070
     1
1070
    44
1040
1.0
1070
    74
1070
     0
1000
MTEXTEND
  0
MTEXT
  5
5673
330
1A
100
AcDbEntity
  8
0
100
AcDbMText
 10
68466.05678506271
 20
48748.19208738784
 30
0.0
 40
8.0
 41
0.0
 71
     7
 72
     5
  1

1001
ACAD
1000
MTEXTBEGIN
1070
    73
1070
     1
1070
    44
1040
1.0
1070
    74
1070
     0
1000
MTEXTEND
1000
MTEXTBEGIN
1070
    73
1070
     1
1070
    44
1040
1.0
1070
    74
1070
     0
1000
MTEXTEND
1000
MTEXTBEGIN
1070
    73
1070
     1
1070
    44
1040
1.0
1070
    74
1070
     0
1000
MTEXTEND
1000
MTEXTBEGIN
1070
    73
1070
     1
1070
    44
1040
1.0
1070
    74
1070
     0
1000
MTEXTEND
  0
MTEXT
  5
5674
330
1A
100
AcDbEntity
  8
SUNPOU
100
AcDbMText
 10
71131.95380574485
 20
58260.30347976296
 30
0.0
 40
10.5
 41
0.0
 71
     1
 72
     5
  1

1001
ACAD
1000
MTEXTBEGIN
1070
    73
1070
     1
1070
    44
1040
1.0
1070
    74
1070
     0
1000
MTEXTEND
1000
MTEXTBEGIN
1070
    73
1070
     1
1070
    44
1040
1.0
1070
    74
1070
     0
1000
MTEXTEND
1000
MTEXTBEGIN
1070
    73
1070
     1
1070
    44
1040
1.0
1070
    74
1070
     0
1000
MTEXTEND
1000
MTEXTBEGIN
1070
    73
1070
     1
1070
    44
1040
1.0
1070
    74
1070
     0
1000
MTEXTEND
  0
MTEXT
  5
5675
330
1A
100
AcDbEntity
  8
SUNPOU
100
AcDbMText
 10
63201.03060980891
 20
57313.51034585003
 30
0.0
 40
10.5
 41
0.0
 71
     7
 72
     5
  1

1001
ACAD
1000
MTEXTBEGIN
1070
    73
1070
     1
1070
    44
1040
1.0
1070
    74
1070
     0
1000
MTEXTEND
1000
MTEXTBEGIN
1070
    73
1070
     1
1070
    44
1040
1.0
1070
    74
1070
     0
1000
MTEXTEND
1000
MTEXTBEGIN
1070
    73
1070
     1
1070
    44
1040
1.0
1070
    74
1070
     0
1000
MTEXTEND
1000
MTEXTBEGIN
1070
    73
1070
     1
1070
    44
1040
1.0
1070
    74
1070
     0
1000
MTEXTEND
  0
MTEXT
  5
5676
330
1A
100
AcDbEntity
  8
SUNPOU
100
AcDbMText
 10
66150.01427432169
 20
62214.18641769286
 30
0.0
 40
10.5
 41
0.0
 71
     7
 72
     5
  1

1001
ACAD
1000
MTEXTBEGIN
1070
    73
1070
     1
1070
    44
1040
1.0
1070
    74
1070
     0
1000
MTEXTEND
1000
MTEXTBEGIN
1070
    73
1070
     1
1070
    44
1040
1.0
1070
    74
1070
     0
1000
MTEXTEND
1000
MTEXTBEGIN
1070
    73
1070
     1
1070
    44
1040
1.0
1070
    74
1070
     0
1000
MTEXTEND
1000
MTEXTBEGIN
1070
    73
1070
     1
1070
    44
1040
1.0
1070
    74
1070
     0
1000
MTEXTEND
  0
MTEXT
  5
5677
330
1A
100
AcDbEntity
  8
SUNPOU
100
AcDbMText
 10
70659.09240227225
 20
64650.48716531294
 30
0.0
 40
10.5
 41
0.0
 71
     7
 72
     5
  1

1001
ACAD
1000
MTEXTBEGIN
1070
    73
1070
     1
1070
    44
1040
1.0
1070
    74
1070
     0
1000
MTEXTEND
1000
MTEXTBEGIN
1070
    73
1070
     1
1070
    44
1040
1.0
1070
    74
1070
     0
1000
MTEXTEND
1000
MTEXTBEGIN
1070
    73
1070
     1
1070
    44
1040
1.0
1070
    74
1070
     0
1000
MTEXTEND
1000
MTEXTBEGIN
1070
    73
1070
     1
1070
    44
1040
1.0
1070
    74
1070
     0
1000
MTEXTEND
  0
MTEXT
  5
5678
330
1A
100
AcDbEntity
  8
SUNPOU
100
AcDbMText
 10
54259.93028904056
 20
43648.08331570185
 30
0.0
 40
10.5
 41
0.0
 71
     7
 72
     5
  1

1001
ACAD
1000
MTEXTBEGIN
1070
    73
1070
     1
1070
    44
1040
1.0
1070
    74
1070
     0
1000
MTEXTEND
1000
MTEXTBEGIN
1070
    73
1070
     1
1070
    44
1040
1.0
1070
    74
1070
     0
1000
MTEXTEND
1000
MTEXTBEGIN
1070
    73
1070
     1
1070
    44
1040
1.0
1070
    74
1070
     0
1000
MTEXTEND
1000
MTEXTBEGIN
1070
    73
1070
     1
1070
    44
1040
1.0
1070
    74
1070
     0
1000
MTEXTEND
  0
MTEXT
  5
5679
330
1A
100
AcDbEntity
  8
SUNPOU
100
AcDbMText
 10
56070.69320041551
 20
49975.4973031804
 30
0.0
 40
10.5
 41
0.0
 71
     9
 72
     5
  1

1001
ACAD
1000
MTEXTBEGIN
1070
    73
1070
     1
1070
    44
1040
1.0
1070
    74
1070
     0
1000
MTEXTEND
1000
MTEXTBEGIN
1070
    73
1070
     1
1070
    44
1040
1.0
1070
    74
1070
     0
1000
MTEXTEND
1000
MTEXTBEGIN
1070
    73
1070
     1
1070
    44
1040
1.0
1070
    74
1070
     0
1000
MTEXTEND
1000
MTEXTBEGIN
1070
    73
1070
     1
1070
    44
1040
1.0
1070
    74
1070
     0
1000
MTEXTEND
  0
MTEXT
  5
567A
330
1A
100
AcDbEntity
  8
SUNPOU
100
AcDbMText
 10
64792.86076633347
 20
57391.33183471787
 30
0.0
 40
10.5
 41
0.0
 71
     9
 72
     5
  1

1001
ACAD
1000
MTEXTBEGIN
1070
    73
1070
     1
1070
    44
1040
1.0
1070
    74
1070
     0
1000
MTEXTEND
1000
MTEXTBEGIN
1070
    73
1070
     1
1070
    44
1040
1.0
1070
    74
1070
     0
1000
MTEXTEND
1000
MTEXTBEGIN
1070
    73
1070
     1
1070
    44
1040
1.0
1070
    74
1070
     0
1000
MTEXTEND
1000
MTEXTBEGIN
1070
    73
1070
     1
1070
    44
1040
1.0
1070
    74
1070
     0
1000
MTEXTEND
  0
MTEXT
  5
567B
330
1A
100
AcDbEntity
  8
SUNPOU
100
AcDbMText
 10
83746.61948366345
 20
74857.90788720994
 30
0.0
 40
10.5
 41
0.0
 71
     9
 72
     5
  1

1001
ACAD
1000
MTEXTBEGIN
1070
    73
1070
     1
1070
    44
1040
1.0
1070
    74
1070
     0
1000
MTEXTEND
1000
MTEXTBEGIN
1070
    73
1070
     1
1070
    44
1040
1.0
1070
    74
1070
     0
1000
MTEXTEND
1000
MTEXTBEGIN
1070
    73
1070
     1
1070
    44
1040
1.0
1070
    74
1070
     0
1000
MTEXTEND
1000
MTEXTBEGIN
1070
    73
1070
     1
1070
    44
1040
1.0
1070
    74
1070
     0
1000
MTEXTEND
  0
MTEXT
  5
567C
330
1A
100
AcDbEntity
  8
SUNPOU
100
AcDbMText
 10
85690.02673037287
 20
73056.85880733192
 30
0.0
 40
3.5
 41
0.0
 71
     9
 72
     5
  1

1001
ACAD
1000
MTEXTBEGIN
1070
    73
1070
     1
1070
    44
1040
1.0
1070
    74
1070
     0
1000
MTEXTEND
1000
MTEXTBEGIN
1070
    73
1070
     1
1070
    44
1040
1.0
1070
    74
1070
     0
1000
MTEXTEND
1000
MTEXTBEGIN
1070
    73
1070
     1
1070
    44
1040
1.0
1070
    74
1070
     0
1000
MTEXTEND
1000
MTEXTBEGIN
1070
    73
1070
     1
1070
    44
1040
1.0
1070
    74
1070
     0
1000
MTEXTEND
  0
MTEXT
  5
567D
330
1A
100
AcDbEntity
  8
SUNPOU
100
AcDbMText
 10
116816.2065629925
 20
115551.8044749892
 30
0.0
 40
10.5
 41
0.0
 71
     9
 72
     5
  1

1001
ACAD
1000
MTEXTBEGIN
1070
    73
1070
     1
1070
    44
1040
1.0
1070
    74
1070
     0
1000
MTEXTEND
1000
MTEXTBEGIN
1070
    73
1070
     1
1070
    44
1040
1.0
1070
    74
1070
     0
1000
MTEXTEND
1000
MTEXTBEGIN
1070
    73
1070
     1
1070
    44
1040
1.0
1070
    74
1070
     0
1000
MTEXTEND
1000
MTEXTBEGIN
1070
    73
1070
     1
1070
    44
1040
1.0
1070
    74
1070
     0
1000
MTEXTEND
  0
MTEXT
  5
567E
330
1A
100
AcDbEntity
  8
SUNPOU
100
AcDbMText
 10
118759.6138097019
 20
113750.7553951111
 30
0.0
 40
3.5
 41
0.0
 71
     9
 72
     5
  1

1001
ACAD
1000
MTEXTBEGIN
1070
    73
1070
     1
1070
    44
1040
1.0
1070
    74
1070
     0
1000
MTEXTEND
1000
MTEXTBEGIN
1070
    73
1070
     1
1070
    44
1040
1.0
1070
    74
1070
     0
1000
MTEXTEND
1000
MTEXTBEGIN
1070
    73
1070
     1
1070
    44
1040
1.0
1070
    74
1070
     0
1000
MTEXTEND
1000
MTEXTBEGIN
1070
    73
1070
     1
1070
    44
1040
1.0
1070
    74
1070
     0
1000
MTEXTEND
  0
MTEXT
  5
567F
330
1A
100
AcDbEntity
  8
SUNPOU
100
AcDbMText
 10
67256.47426878814
 20
61384.96962996432
 30
0.0
 40
10.5
 41
0.0
 71
     9
 72
     5
  1

1001
ACAD
1000
MTEXTBEGIN
1070
    73
1070
     1
1070
    44
1040
1.0
1070
    74
1070
     0
1000
MTEXTEND
1000
MTEXTBEGIN
1070
    73
1070
     1
1070
    44
1040
1.0
1070
    74
1070
     0
1000
MTEXTEND
1000
MTEXTBEGIN
1070
    73
1070
     1
1070
    44
1040
1.0
1070
    74
1070
     0
1000
MTEXTEND
1000
MTEXTBEGIN
1070
    73
1070
     1
1070
    44
1040
1.0
1070
    74
1070
     0
1000
MTEXTEND
  0
MTEXT
  5
5680
330
1A
100
AcDbEntity
  8
SUNPOU
100
AcDbMText
 10
53308.47416841216
 20
42212.57049085211
 30
0.0
 40
3.5
 41
0.0
 71
     7
 72
     5
  1

1001
ACAD
1000
MTEXTBEGIN
1070
    73
1070
     1
1070
    44
1040
1.0
1070
    74
1070
     0
1000
MTEXTEND
1000
MTEXTBEGIN
1070
    73
1070
     1
1070
    44
1040
1.0
1070
    74
1070
     0
1000
MTEXTEND
1000
MTEXTBEGIN
1070
    73
1070
     1
1070
    44
1040
1.0
1070
    74
1070
     0
1000
MTEXTEND
1000
MTEXTBEGIN
1070
    73
1070
     1
1070
    44
1040
1.0
1070
    74
1070
     0
1000
MTEXTEND
  0
MTEXT
  5
5681
330
1A
100
AcDbEntity
  8
SUNPOU
100
AcDbMText
 10
67000.82485118274
 20
51571.63371187341
 30
0.0
 40
10.5
 41
0.0
 71
     9
 72
     5
  1

1001
ACAD
1000
MTEXTBEGIN
1070
    73
1070
     1
1070
    44
1040
1.0
1070
    74
1070
     0
1000
MTEXTEND
1000
MTEXTBEGIN
1070
    73
1070
     1
1070
    44
1040
1.0
1070
    74
1070
     0
1000
MTEXTEND
1000
MTEXTBEGIN
1070
    73
1070
     1
1070
    44
1040
1.0
1070
    74
1070
     0
1000
MTEXTEND
1000
MTEXTBEGIN
1070
    73
1070
     1
1070
    44
1040
1.0
1070
    74
1070
     0
1000
MTEXTEND
  0
MTEXT
  5
5682
330
1A
100
AcDbEntity
  8
SUNPOU
100
AcDbMText
 10
75722.99241710071
 20
58987.46824341094
 30
0.0
 40
10.5
 41
0.0
 71
     9
 72
     5
  1

1001
ACAD
1000
MTEXTBEGIN
1070
    73
1070
     1
1070
    44
1040
1.0
1070
    74
1070
     0
1000
MTEXTEND
1000
MTEXTBEGIN
1070
    73
1070
     1
1070
    44
1040
1.0
1070
    74
1070
     0
1000
MTEXTEND
1000
MTEXTBEGIN
1070
    73
1070
     1
1070
    44
1040
1.0
1070
    74
1070
     0
1000
MTEXTEND
1000
MTEXTBEGIN
1070
    73
1070
     1
1070
    44
1040
1.0
1070
    74
1070
     0
1000
MTEXTEND
  0
MTEXT
  5
5683
330
1A
100
AcDbEntity
  8
SUNPOU
100
AcDbMText
 10
94676.75113443068
 20
76454.04429590299
 30
0.0
 40
10.5
 41
0.0
 71
     9
 72
     5
  1

1001
ACAD
1000
MTEXTBEGIN
1070
    73
1070
     1
1070
    44
1040
1.0
1070
    74
1070
     0
1000
MTEXTEND
1000
MTEXTBEGIN
1070
    73
1070
     1
1070
    44
1040
1.0
1070
    74
1070
     0
1000
MTEXTEND
1000
MTEXTBEGIN
1070
    73
1070
     1
1070
    44
1040
1.0
1070
    74
1070
     0
1000
MTEXTEND
1000
MTEXTBEGIN
1070
    73
1070
     1
1070
    44
1040
1.0
1070
    74
1070
     0
1000
MTEXTEND
  0
MTEXT
  5
5684
330
1A
100
AcDbEntity
  8
SUNPOU
100
AcDbMText
 10
96620.1583811401
 20
74652.99521602497
 30
0.0
 40
3.5
 41
0.0
 71
     9
 72
     5
  1

1001
ACAD
1000
MTEXTBEGIN
1070
    73
1070
     1
1070
    44
1040
1.0
1070
    74
1070
     0
1000
MTEXTEND
1000
MTEXTBEGIN
1070
    73
1070
     1
1070
    44
1040
1.0
1070
    74
1070
     0
1000
MTEXTEND
1000
MTEXTBEGIN
1070
    73
1070
     1
1070
    44
1040
1.0
1070
    74
1070
     0
1000
MTEXTEND
1000
MTEXTBEGIN
1070
    73
1070
     1
1070
    44
1040
1.0
1070
    74
1070
     0
1000
MTEXTEND
  0
MTEXT
  5
5685
330
1A
100
AcDbEntity
  8
SUNPOU
100
AcDbMText
 10
127746.3382137598
 20
117147.9408836822
 30
0.0
 40
10.5
 41
0.0
 71
     9
 72
     5
  1

1001
ACAD
1000
MTEXTBEGIN
1070
    73
1070
     1
1070
    44
1040
1.0
1070
    74
1070
     0
1000
MTEXTEND
1000
MTEXTBEGIN
1070
    73
1070
     1
1070
    44
1040
1.0
1070
    74
1070
     0
1000
MTEXTEND
1000
MTEXTBEGIN
1070
    73
1070
     1
1070
    44
1040
1.0
1070
    74
1070
     0
1000
MTEXTEND
1000
MTEXTBEGIN
1070
    73
1070
     1
1070
    44
1040
1.0
1070
    74
1070
     0
1000
MTEXTEND
  0
MTEXT
  5
5686
330
1A
100
AcDbEntity
  8
SUNPOU
100
AcDbMText
 10
129689.7454604692
 20
115346.8918038041
 30
0.0
 40
3.5
 41
0.0
 71
     9
 72
     5
  1

1001
ACAD
1000
MTEXTBEGIN
1070
    73
1070
     1
1070
    44
1040
1.0
1070
    74
1070
     0
1000
MTEXTEND
1000
MTEXTBEGIN
1070
    73
1070
     1
1070
    44
1040
1.0
1070
    74
1070
     0
1000
MTEXTEND
1000
MTEXTBEGIN
1070
    73
1070
     1
1070
    44
1040
1.0
1070
    74
1070
     0
1000
MTEXTEND
1000
MTEXTBEGIN
1070
    73
1070
     1
1070
    44
1040
1.0
1070
    74
1070
     0
1000
MTEXTEND
  0
MTEXT
  5
5687
330
1A
100
AcDbEntity
  8
SUNPOU
100
AcDbMText
 10
78186.60591955537
 20
62981.10603865737
 30
0.0
 40
10.5
 41
0.0
 71
     9
 72
     5
  1

1001
ACAD
1000
MTEXTBEGIN
1070
    73
1070
     1
1070
    44
1040
1.0
1070
    74
1070
     0
1000
MTEXTEND
1000
MTEXTBEGIN
1070
    73
1070
     1
1070
    44
1040
1.0
1070
    74
1070
     0
1000
MTEXTEND
1000
MTEXTBEGIN
1070
    73
1070
     1
1070
    44
1040
1.0
1070
    74
1070
     0
1000
MTEXTEND
1000
MTEXTBEGIN
1070
    73
1070
     1
1070
    44
1040
1.0
1070
    74
1070
     0
1000
MTEXTEND
  0
MTEXT
  5
5688
330
1A
100
AcDbEntity
  8
SUNPOU
100
AcDbMText
 10
64238.60581917939
 20
43808.70689954517
 30
0.0
 40
3.5
 41
0.0
 71
     7
 72
     5
  1

1001
ACAD
1000
MTEXTBEGIN
1070
    73
1070
     1
1070
    44
1040
1.0
1070
    74
1070
     0
1000
MTEXTEND
1000
MTEXTBEGIN
1070
    73
1070
     1
1070
    44
1040
1.0
1070
    74
1070
     0
1000
MTEXTEND
1000
MTEXTBEGIN
1070
    73
1070
     1
1070
    44
1040
1.0
1070
    74
1070
     0
1000
MTEXTEND
1000
MTEXTBEGIN
1070
    73
1070
     1
1070
    44
1040
1.0
1070
    74
1070
     0
1000
MTEXTEND
  0
MTEXT
  5
5689
330
1A
100
AcDbEntity
  8
SUNPOU
100
AcDbMText
 10
33428.13481137435
 20
32770.04710035563
 30
0.0
 40
10.5
 41
0.0
 71
     9
 72
     5
  1

1001
ACAD
1000
MTEXTBEGIN
1070
    73
1070
     1
1070
    44
1040
1.0
1070
    74
1070
     0
1000
MTEXTEND
1000
MTEXTBEGIN
1070
    73
1070
     1
1070
    44
1040
1.0
1070
    74
1070
     0
1000
MTEXTEND
1000
MTEXTBEGIN
1070
    73
1070
     1
1070
    44
1040
1.0
1070
    74
1070
     0
1000
MTEXTEND
1000
MTEXTBEGIN
1070
    73
1070
     1
1070
    44
1040
1.0
1070
    74
1070
     0
1000
MTEXTEND
  0
MTEXT
  5
568A
330
1A
100
AcDbEntity
  8
SUNPOU
100
AcDbMText
 10
52381.89352870431
 20
50236.62315284768
 30
0.0
 40
10.5
 41
0.0
 71
     9
 72
     5
  1

1001
ACAD
1000
MTEXTBEGIN
1070
    73
1070
     1
1070
    44
1040
1.0
1070
    74
1070
     0
1000
MTEXTEND
1000
MTEXTBEGIN
1070
    73
1070
     1
1070
    44
1040
1.0
1070
    74
1070
     0
1000
MTEXTEND
1000
MTEXTBEGIN
1070
    73
1070
     1
1070
    44
1040
1.0
1070
    74
1070
     0
1000
MTEXTEND
1000
MTEXTBEGIN
1070
    73
1070
     1
1070
    44
1040
1.0
1070
    74
1070
     0
1000
MTEXTEND
  0
MTEXT
  5
568B
330
1A
100
AcDbEntity
  8
SUNPOU
100
AcDbMText
 10
54325.30077541374
 20
48435.57407296968
 30
0.0
 40
3.5
 41
0.0
 71
     9
 72
     5
  1

1001
ACAD
1000
MTEXTBEGIN
1070
    73
1070
     1
1070
    44
1040
1.0
1070
    74
1070
     0
1000
MTEXTEND
1000
MTEXTBEGIN
1070
    73
1070
     1
1070
    44
1040
1.0
1070
    74
1070
     0
1000
MTEXTEND
1000
MTEXTBEGIN
1070
    73
1070
     1
1070
    44
1040
1.0
1070
    74
1070
     0
1000
MTEXTEND
1000
MTEXTBEGIN
1070
    73
1070
     1
1070
    44
1040
1.0
1070
    74
1070
     0
1000
MTEXTEND
  0
MTEXT
  5
568C
330
1A
100
AcDbEntity
  8
SUNPOU
100
AcDbMText
 10
85451.48060803342
 20
90930.51974062703
 30
0.0
 40
10.5
 41
0.0
 71
     9
 72
     5
  1

1001
ACAD
1000
MTEXTBEGIN
1070
    73
1070
     1
1070
    44
1040
1.0
1070
    74
1070
     0
1000
MTEXTEND
1000
MTEXTBEGIN
1070
    73
1070
     1
1070
    44
1040
1.0
1070
    74
1070
     0
1000
MTEXTEND
1000
MTEXTBEGIN
1070
    73
1070
     1
1070
    44
1040
1.0
1070
    74
1070
     0
1000
MTEXTEND
1000
MTEXTBEGIN
1070
    73
1070
     1
1070
    44
1040
1.0
1070
    74
1070
     0
1000
MTEXTEND
  0
MTEXT
  5
568D
330
1A
100
AcDbEntity
  8
SUNPOU
100
AcDbMText
 10
87394.88785474286
 20
89129.47066074901
 30
0.0
 40
3.5
 41
0.0
 71
     9
 72
     5
  1

1001
ACAD
1000
MTEXTBEGIN
1070
    73
1070
     1
1070
    44
1040
1.0
1070
    74
1070
     0
1000
MTEXTEND
1000
MTEXTBEGIN
1070
    73
1070
     1
1070
    44
1040
1.0
1070
    74
1070
     0
1000
MTEXTEND
1000
MTEXTBEGIN
1070
    73
1070
     1
1070
    44
1040
1.0
1070
    74
1070
     0
1000
MTEXTEND
1000
MTEXTBEGIN
1070
    73
1070
     1
1070
    44
1040
1.0
1070
    74
1070
     0
1000
MTEXTEND
  0
MTEXT
  5
568E
330
1A
100
AcDbEntity
  8
SUNPOU
100
AcDbMText
 10
35891.74831382901
 20
36763.68489560208
 30
0.0
 40
10.5
 41
0.0
 71
     9
 72
     5
  1

1001
ACAD
1000
MTEXTBEGIN
1070
    73
1070
     1
1070
    44
1040
1.0
1070
    74
1070
     0
1000
MTEXTEND
1000
MTEXTBEGIN
1070
    73
1070
     1
1070
    44
1040
1.0
1070
    74
1070
     0
1000
MTEXTEND
1000
MTEXTBEGIN
1070
    73
1070
     1
1070
    44
1040
1.0
1070
    74
1070
     0
1000
MTEXTEND
1000
MTEXTBEGIN
1070
    73
1070
     1
1070
    44
1040
1.0
1070
    74
1070
     0
1000
MTEXTEND
  0
MTEXT
  5
568F
330
1A
100
AcDbEntity
  8
SUNPOU
100
AcDbMText
 10
21943.74821345303
 20
17591.28575648985
 30
0.0
 40
3.5
 41
0.0
 71
     7
 72
     5
  1

1001
ACAD
1000
MTEXTBEGIN
1070
    73
1070
     1
1070
    44
1040
1.0
1070
    74
1070
     0
1000
MTEXTEND
1000
MTEXTBEGIN
1070
    73
1070
     1
1070
    44
1040
1.0
1070
    74
1070
     0
1000
MTEXTEND
1000
MTEXTBEGIN
1070
    73
1070
     1
1070
    44
1040
1.0
1070
    74
1070
     0
1000
MTEXTEND
1000
MTEXTBEGIN
1070
    73
1070
     1
1070
    44
1040
1.0
1070
    74
1070
     0
1000
MTEXTEND
  0
MTEXT
  5
14097
330
1A
100
AcDbEntity
  8
ZISSEN1
100
AcDbMText
 10
-1655.580311463314
 20
1677.57456248695
 30
0.0
 40
5.0
 41
108.3598999999999
 71
     1
 72
     5
  1
GDB-5F60  No.SS0001f67
1001
ACAD
1000
MTEXTBEGIN
1070
    73
1070
     1
1070
    44
1040
1.0
1070
    74
1070
     0
1000
MTEXTEND
1000
MTEXTBEGIN
1070
    73
1070
     1
1070
    44
1040
1.0
1070
    74
1070
     0
1000
MTEXTEND
1000
MTEXTBEGIN
1070
    73
1070
     1
1070
    44
1040
1.0
1070
    74
1070
     0
1000
MTEXTEND
1000
MTEXTBEGIN
1070
    73
1070
     1
1070
    44
1040
1.0
1070
    74
1070
     0
1000
MTEXTEND
  0
LINE
  5
149CE
330
1A
100
AcDbEntity
  8
ZISSEN1
100
AcDbLine
 10
-1425.5
 20
1588.999999436455
 30
0.0
 11
-1425.5
 21
1505.0
 31
0.0
  0
LINE
  5
149CF
330
1A
100
AcDbEntity
  8
ZISSEN1
100
AcDbLine
 10
-1496.5
 20
1517.0
 30
0.0
 11
-1496.5
 21
1599.0
 31
0.0
  0
LINE
  5
149D5
330
1A
100
AcDbEntity
  8
ZISSEN1
100
AcDbLine
 10
-1500.0
 20
1513.75
 30
0.0
 11
-1500.0
 21
1599.0
 31
0.0
  0
LINE
  5
149E3
330
1A
100
AcDbEntity
  8
ZISSEN1
100
AcDbLine
 10
-1500.0
 20
1503.0
 30
0.0
 11
-1425.0
 21
1503.0
 31
0.0
  0
LINE
  5
149E4
330
1A
100
AcDbEntity
  8
ZISSEN1
100
AcDbLine
 10
-1500.0
 20
1500.0
 30
0.0
 11
-1425.0
 21
1500.0
 31
0.0
  0
LINE
  5
149E9
330
1A
100
AcDbEntity
  8
ZISSEN1
100
AcDbLine
 10
-1500.0
 20
1500.0
 30
0.0
 11
-1500.0
 21
1510.25
 31
0.0
  0
LINE
  5
149EA
330
1A
100
AcDbEntity
  8
ZISSEN1
100
AcDbLine
 10
-1499.0
 20
1503.0
 30
0.0
 11
-1499.0
 21
1500.0
 31
0.0
  0
LINE
  5
149EB
330
1A
100
AcDbEntity
  8
ZISSEN1
100
AcDbLine
 10
-1426.0
 20
1500.0
 30
0.0
 11
-1426.0
 21
1503.0
 31
0.0
  0
LINE
  5
149EF
330
1A
100
AcDbEntity
  8
ZISSEN1
100
AcDbLine
 10
-1426.499996913466
 20
1504.0
 30
0.0
 11
-1493.5
 21
1504.0
 31
0.0
  0
LINE
  5
149F4
330
1A
100
AcDbEntity
  8
ZISSEN1
100
AcDbLine
 10
-1493.5
 20
1504.0
 30
0.0
 11
-1493.5
 21
1517.0
 31
0.0
  0
LINE
  5
149F5
330
1A
100
AcDbEntity
  8
ZISSEN2
  6
DASHEDX2
 62
     3
100
AcDbLine
 10
-1493.5
 20
1517.0
 30
0.0
 11
-1493.5
 21
1505.5
 31
0.0
  0
LINE
  5
149F6
330
1A
100
AcDbEntity
  8
ZISSEN1
  6
DASHEDX2
100
AcDbLine
 10
-1493.5
 20
1517.0
 30
0.0
 11
-1493.5
 21
1505.5
 31
0.0
  0
LINE
  5
149F7
330
1A
100
AcDbEntity
  8
ZISSEN1
100
AcDbLine
 10
-1500.0
 20
1513.75
 30
0.0
 11
-1497.0
 21
1513.75
 31
0.0
  0
LINE
  5
149F8
330
1A
100
AcDbEntity
  8
ZISSEN1
100
AcDbLine
 10
-1500.0
 20
1510.25
 30
0.0
 11
-1497.0
 21
1510.25
 31
0.0
  0
ARC
  5
149F9
330
1A
100
AcDbEntity
  8
ZISSEN1
100
AcDbCircle
 10
-1496.999775760168
 20
1512.002884036393
 30
0.0
 40
1.75
100
AcDbArc
 50
270.0
 51
90.0
  0
LINE
  5
149FA
330
1A
100
AcDbEntity
  8
ZISSEN1
100
AcDbLine
 10
-1493.5
 20
1517.0
 30
0.0
 11
-1496.5
 21
1517.0
 31
0.0
  0
LINE
  5
149FB
330
1A
100
AcDbEntity
  8
ZISSEN2
100
AcDbLine
 10
-1494.999960494118
 20
1517.0
 30
0.0
 11
-1494.999960494118
 21
1516.999983326597
 31
0.0
  0
LINE
  5
149FC
330
1A
100
AcDbEntity
  8
ZISSEN2
  6
DASHEDX2
100
AcDbLine
 10
-1494.999960494118
 20
1516.999983326597
 30
0.0
 11
-1494.999960494118
 21
1516.999983326597
 31
0.0
  0
LINE
  5
149FD
330
1A
100
AcDbEntity
  8
ZISSEN2
  6
DASHEDX2
100
AcDbLine
 10
-1494.999974913145
 20
1517.0
 30
0.0
 11
-1494.999960494118
 21
1516.999983326597
 31
0.0
  0
LINE
  5
149FE
330
1A
100
AcDbEntity
  8
ZISSEN2
  6
DASHEDX2
 62
     3
100
AcDbLine
 10
-1494.999960494118
 20
1516.999983326597
 30
0.0
 11
-1494.999960494118
 21
1516.999983326597
 31
0.0
  0
LINE
  5
149FF
330
1A
100
AcDbEntity
  8
ZISSEN2
  6
DASHEDX2
 62
     3
100
AcDbLine
 10
-1494.999960494118
 20
1517.0
 30
0.0
 11
-1494.999960494118
 21
1516.999983326597
 31
0.0
  0
LINE
  5
14A00
330
1A
100
AcDbEntity
  8
ZISSEN2
  6
DASHEDX2
 62
     3
100
AcDbLine
 10
-1494.999960494118
 20
1517.0
 30
0.0
 11
-1494.999960494118
 21
1516.999983326597
 31
0.0
  0
LINE
  5
14A01
330
1A
100
AcDbEntity
  8
ZISSEN2
  6
DASHEDX2
 62
     3
100
AcDbLine
 10
-1493.5
 20
1517.0
 30
0.0
 11
-1494.999960494118
 21
1516.999983326597
 31
0.0
  0
LINE
  5
14A02
330
1A
100
AcDbEntity
  8
ZISSEN3
100
AcDbLine
 10
-1494.999974913145
 20
1517.0
 30
0.0
 11
-1494.999974913145
 21
1517.0
 31
0.0
  0
LINE
  5
14A03
330
1A
100
AcDbEntity
  8
ZISSEN1
  6
DASHEDX2
100
AcDbLine
 10
-1494.999974913145
 20
1517.0
 30
0.0
 11
-1493.5
 21
1517.0
 31
0.0
  0
LINE
  5
14AF9
330
1A
100
AcDbEntity
  8
ZISSEN1
100
AcDbLine
 10
-1425.0
 20
1500.0
 30
0.0
 11
-1425.0
 21
1512.5
 31
0.0
  0
LINE
  5
14AFB
330
1A
100
AcDbEntity
  8
ZISSEN1
100
AcDbLine
 10
-1425.5
 20
1512.5
 30
0.0
 11
-1425.0
 21
1512.5
 31
0.0
  0
LINE
  5
14B04
330
1A
100
AcDbEntity
  8
ZISSEN1
100
AcDbLine
 10
-1426.499989708827
 20
1589.999989489864
 30
0.0
 11
-1425.5
 21
1589.0
 31
0.0
  0
LINE
  5
14B07
330
1A
100
AcDbEntity
  8
ZISSEN1
100
AcDbLine
 10
-1425.0
 20
1596.25
 30
0.0
 11
-1428.0
 21
1596.25
 31
0.0
  0
LINE
  5
14B08
330
1A
100
AcDbEntity
  8
ZISSEN1
100
AcDbLine
 10
-1425.0
 20
1592.75
 30
0.0
 11
-1428.0
 21
1592.75
 31
0.0
  0
LINE
  5
14B09
330
1A
100
AcDbEntity
  8
ZISSEN1
100
AcDbLine
 10
-1426.0
 20
1600.0
 30
0.0
 11
-1425.0
 21
1599.0
 31
0.0
  0
LINE
  5
14B1C
330
1A
100
AcDbEntity
  8
ZISSEN1
100
AcDbLine
 10
-1431.499999999999
 20
1599.0
 30
0.0
 11
-1431.499999999999
 21
1590.0
 31
0.0
  0
LINE
  5
14B1D
330
1A
100
AcDbEntity
  8
ZISSEN1
100
AcDbLine
 10
-1466.0
 20
1588.499999999999
 30
0.0
 11
-1466.0
 21
1599.0
 31
0.0
  0
LINE
  5
14B1E
330
1A
100
AcDbEntity
  8
ZISSEN1
100
AcDbLine
 10
-1489.000025618559
 20
1599.0
 30
0.0
 11
-1489.0
 21
1588.499999999999
 31
0.0
  0
LINE
  5
14B1F
330
1A
100
AcDbEntity
  8
ZISSEN1
  6
DASHEDX2
100
AcDbLine
 10
-1431.499999999999
 20
1599.0
 30
0.0
 11
-1431.499999999999
 21
1589.999989489864
 31
0.0
  0
LINE
  5
14B20
330
1A
100
AcDbEntity
  8
ZISSEN1
  6
DASHEDX2
100
AcDbLine
 10
-1431.499999999999
 20
1589.999989489864
 30
0.0
 11
-1431.499999999999
 21
1599.0
 31
0.0
  0
LINE
  5
14B26
330
1A
100
AcDbEntity
  8
ZISSEN1
  6
DASHEDX2
100
AcDbLine
 10
-1489.0
 20
1599.0
 30
0.0
 11
-1489.0
 21
1590.5
 31
0.0
  0
LINE
  5
14B29
330
1A
100
AcDbEntity
  8
ZISSEN1
100
AcDbLine
 10
-1486.89
 20
1589.19
 30
0.0
 11
-1467.15
 21
1589.19
 31
0.0
  0
LINE
  5
14B2B
330
1A
100
AcDbEntity
  8
ZISSEN1
100
AcDbLine
 10
-1489.0
 20
1588.499999999999
 30
0.0
 11
-1466.0
 21
1588.499999999999
 31
0.0
  0
LINE
  5
14B33
330
1A
100
AcDbEntity
  8
ZISSEN1
100
AcDbLine
 10
-1492.394299798822
 20
1583.189060143586
 30
0.0
 11
-1492.394299798822
 21
1550.789060143586
 31
0.0
  0
LINE
  5
14B3E
330
1A
100
AcDbEntity
  8
ZISSEN1
100
AcDbLine
 10
-1492.394299798822
 20
1550.789060143586
 30
0.0
 11
-1485.594299798822
 21
1550.789060143586
 31
0.0
  0
LINE
  5
14B79
330
1A
100
AcDbEntity
  8
ZISSEN1
100
AcDbLine
 10
-1492.394299798822
 20
1583.189060143586
 30
0.0
 11
-1485.594299798822
 21
1583.189060143586
 31
0.0
  0
LINE
  5
14B83
330
1A
100
AcDbEntity
  8
ZISSEN1
100
AcDbLine
 10
-1485.594299798822
 20
1550.789060143586
 30
0.0
 11
-1485.594299798822
 21
1583.189060143586
 31
0.0
  0
LINE
  5
14B8A
330
1A
100
AcDbEntity
  8
ZISSEN1
100
AcDbLine
 10
-1486.89
 20
1597.69
 30
0.0
 11
-1486.89
 21
1589.19
 31
0.0
  0
LINE
  5
14C39
330
1A
100
AcDbEntity
  8
ZISSEN1
100
AcDbLine
 10
-1449.4991236934
 20
1594.6292
 30
0.0
 11
-1441.9991236934
 21
1594.6292
 31
0.0
  0
LINE
  5
14C3A
330
1A
100
AcDbEntity
  8
ZISSEN1
100
AcDbLine
 10
-1449.4991236934
 20
1588.1492
 30
0.0
 11
-1441.9991236934
 21
1588.1492
 31
0.0
  0
LINE
  5
14C42
330
1A
100
AcDbEntity
  8
ZISSEN1
100
AcDbLine
 10
-1465.522866347812
 20
1588.6143
 30
0.0
 11
-1458.022866347812
 21
1588.6143
 31
0.0
  0
LINE
  5
14C49
330
1A
100
AcDbEntity
  8
ZISSEN1
100
AcDbLine
 10
-1465.053301568998
 20
1591.307395139238
 30
0.0
 11
-1458.453301568998
 21
1591.307395139238
 31
0.0
  0
LINE
  5
14C4A
330
1A
100
AcDbEntity
  8
ZISSEN1
100
AcDbLine
 10
-1465.053301568998
 20
1596.707395139238
 30
0.0
 11
-1458.453301568998
 21
1596.707395139238
 31
0.0
  0
LINE
  5
14C4B
330
1A
100
AcDbEntity
  8
ZISSEN1
100
AcDbLine
 10
-1467.15
 20
1597.69
 30
0.0
 11
-1467.15
 21
1589.189991532272
 31
0.0
  0
LINE
  5
14C4D
330
1A
100
AcDbEntity
  8
ZISSEN1
100
AcDbLine
 10
-1465.053301568998
 20
1596.707395139238
 30
0.0
 11
-1465.053301568998
 21
1591.307395139238
 31
0.0
  0
LINE
  5
14C82
330
1A
100
AcDbEntity
  8
ZISSEN1
100
AcDbLine
 10
-1449.4991236934
 20
1594.6292
 30
0.0
 11
-1449.4991236934
 21
1588.1792
 31
0.0
  0
LINE
  5
14C83
330
1A
100
AcDbEntity
  8
ZISSEN1
100
AcDbLine
 10
-1449.98615637041
 20
1594.6418
 30
0.0
 11
-1449.98615637041
 21
1588.1918
 31
0.0
  0
LINE
  5
14C84
330
1A
100
AcDbEntity
  8
ZISSEN1
100
AcDbLine
 10
-1457.48615637041
 20
1594.6418
 30
0.0
 11
-1457.48615637041
 21
1588.1918
 31
0.0
  0
LINE
  5
14C85
330
1A
100
AcDbEntity
  8
ZISSEN1
100
AcDbLine
 10
-1457.48615637041
 20
1588.1618
 30
0.0
 11
-1449.98615637041
 21
1588.1618
 31
0.0
  0
LINE
  5
14C87
330
1A
100
AcDbEntity
  8
ZISSEN1
100
AcDbLine
 10
-1457.48615637041
 20
1594.6418
 30
0.0
 11
-1449.98615637041
 21
1594.6418
 31
0.0
  0
LINE
  5
14C89
330
1A
100
AcDbEntity
  8
ZISSEN1
100
AcDbLine
 10
-1458.453301568998
 20
1596.707395139238
 30
0.0
 11
-1458.453301568998
 21
1591.307395139238
 31
0.0
  0
LINE
  5
14C91
330
1A
100
AcDbEntity
  8
ZISSEN1
100
AcDbLine
 10
-1440.43
 20
1595.7
 30
0.0
 11
-1432.57
 21
1595.7
 31
0.0
  0
LINE
  5
14C94
330
1A
100
AcDbEntity
  8
ZISSEN1
100
AcDbLine
 10
-1440.429489090944
 20
1587.199363909696
 30
0.0
 11
-1432.569489090944
 21
1587.199363909696
 31
0.0
  0
LINE
  5
14C95
330
1A
100
AcDbEntity
  8
ZISSEN1
100
AcDbLine
 10
-1440.43
 20
1595.7
 30
0.0
 11
-1440.43
 21
1587.2
 31
0.0
  0
LINE
  5
14C97
330
1A
100
AcDbEntity
  8
ZISSEN1
100
AcDbLine
 10
-1441.9991236934
 20
1594.6292
 30
0.0
 11
-1441.9991236934
 21
1588.1792
 31
0.0
  0
LINE
  5
14CA7
330
1A
100
AcDbEntity
  8
ZISSEN1
100
AcDbLine
 10
-1432.57
 20
1595.7
 30
0.0
 11
-1432.57
 21
1587.2
 31
0.0
  0
LINE
  5
14CAA
330
1A
100
AcDbEntity
  8
ZISSEN1
100
AcDbLine
 10
-1431.499999999999
 20
1590.0
 30
0.0
 11
-1426.5
 21
1590.0
 31
0.0
  0
LINE
  5
14CAB
330
1A
100
AcDbEntity
  8
ZISSEN1
  6
DASHEDX2
100
AcDbLine
 10
-1431.499999999999
 20
1589.999989489864
 30
0.0
 11
-1426.499989708827
 21
1589.999989489864
 31
0.0
  0
LINE
  5
14CAC
330
1A
100
AcDbEntity
  8
ZISSEN1
  6
DASHEDX2
100
AcDbLine
 10
-1426.499989708827
 20
1589.999989489864
 30
0.0
 11
-1431.499999999999
 21
1589.999989489864
 31
0.0
  0
ARC
  5
14CCE
330
1A
100
AcDbEntity
  8
ZISSEN1
100
AcDbCircle
 10
-1428.0
 20
1594.5
 30
0.0
 40
1.75
100
AcDbArc
 50
90.0
 51
270.0
  0
LINE
  5
14CD0
330
1A
100
AcDbEntity
  8
ZISSEN1
100
AcDbLine
 10
-1486.89
 20
1597.69
 30
0.0
 11
-1467.15
 21
1597.69
 31
0.0
  0
LINE
  5
14CD2
330
1A
100
AcDbEntity
  8
ZISSEN1
100
AcDbLine
 10
-1494.0
 20
1600.0
 30
0.0
 11
-1432.5
 21
1600.0
 31
0.0
  0
LINE
  5
14CD6
330
1A
100
AcDbEntity
  8
ZISSEN1
100
AcDbLine
 10
-1491.749966840958
 20
1600.00002198929
 30
0.0
 11
-1492.749966840958
 21
1600.00002198929
 31
0.0
  0
LINE
  5
14CD7
330
1A
100
AcDbEntity
  8
ZISSEN1
100
AcDbLine
 10
-1495.5
 20
1600.0
 30
0.0
 11
-1490.0
 21
1600.0
 31
0.0
  0
LINE
  5
14CD8
330
1A
100
AcDbEntity
  8
ZISSEN1
  6
DASHEDX2
100
AcDbLine
 10
-1494.0
 20
1600.0
 30
0.0
 11
-1488.0
 21
1600.0
 31
0.0
  0
LINE
  5
14CD9
330
1A
100
AcDbEntity
  8
ZISSEN1
100
AcDbLine
 10
-1499.0
 20
1600.0
 30
0.0
 11
-1490.0
 21
1600.0
 31
0.0
  0
LINE
  5
14CDA
330
1A
100
AcDbEntity
  8
ZISSEN1
100
AcDbLine
 10
-1500.0
 20
1599.0
 30
0.0
 11
-1499.0
 21
1600.0
 31
0.0
  0
LINE
  5
14CE5
330
1A
100
AcDbEntity
  8
ZISSEN1
  6
DASHEDX2
100
AcDbLine
 10
-1490.0
 20
1600.0
 30
0.0
 11
-1489.0
 21
1599.0
 31
0.0
  0
LINE
  5
14CE7
330
1A
100
AcDbEntity
  8
ZISSEN1
100
AcDbLine
 10
-1464.0
 20
1600.0
 30
0.0
 11
-1432.5
 21
1600.0
 31
0.0
  0
LINE
  5
14CE8
330
1A
100
AcDbEntity
  8
ZISSEN1
  6
DASHEDX2
100
AcDbLine
 10
-1466.0
 20
1600.0
 30
0.0
 11
-1432.5
 21
1600.0
 31
0.0
  0
LINE
  5
14CE9
330
1A
100
AcDbEntity
  8
ZISSEN1
100
AcDbLine
 10
-1464.0
 20
1600.0
 30
0.0
 11
-1426.0
 21
1600.0
 31
0.0
  0
LINE
  5
14CEA
330
1A
100
AcDbEntity
  8
ZISSEN1
100
AcDbLine
 10
-1465.000025618593
 20
1600.0
 30
0.0
 11
-1464.0
 21
1600.0
 31
0.0
  0
ARC
  5
14CEC
330
1A
100
AcDbEntity
  8
ZISSEN1
100
AcDbCircle
 10
-1466.000025618559
 20
1600.000008230839
 30
0.0
 40
1.0
100
AcDbArc
 50
270.0
 51
0.0
  0
LINE
  5
14CEF
330
1A
100
AcDbEntity
  8
ZISSEN1
100
AcDbLine
 10
-1431.499999999999
 20
1599.0
 30
0.0
 11
-1432.5
 21
1600.0
 31
0.0
  0
LINE
  5
14CF0
330
1A
100
AcDbEntity
  8
ZISSEN1
100
AcDbLine
 10
-1425.0
 20
1599.0
 30
0.0
 11
-1425.0
 21
1596.25
 31
0.0
  0
LINE
  5
14CF2
330
1A
100
AcDbEntity
  8
ZISSEN1
100
AcDbLine
 10
-1425.0
 20
1592.75
 30
0.0
 11
-1425.0
 21
1580.0
 31
0.0
  0
LINE
  5
14CF3
330
1A
100
AcDbEntity
  8
ZISSEN1
100
AcDbLine
 10
-1425.0
 20
1580.0
 30
0.0
 11
-1425.5
 21
1579.5
 31
0.0
  0
LINE
  5
15080
330
1A
100
AcDbEntity
  8
ZISSEN1
100
AcDbLine
 10
-1426.499996913466
 20
1504.0
 30
0.0
 11
-1425.5
 21
1505.0
 31
0.0
  0
DIMENSION
  5
15081
330
1A
100
AcDbEntity
  8
SUNPOU
100
AcDbDimension
  2
*D0
 10
-1500.0
 20
1478.761189569335
 30
0.0
 11
-1462.5
 21
1481.511189569335
 31
0.0
 70
    32
  3
標準スタイル
100
AcDbAlignedDimension
 13
-1425.0
 23
1500.0
 33
0.0
 14
-1500.0
 24
1500.0
 34
0.0
100
AcDbRotatedDimension
1001
ACAD
1000
DSTYLE
1002
{
1070
   340
1005
10
1070
    40
1040
1.0
1002
}
  0
DIMENSION
  5
150C3
330
1A
100
AcDbEntity
  8
SUNPOU
100
AcDbDimension
  2
*D1
 10
-1497.499775760168
 20
1491.915467586945
 30
0.0
 11
-1462.499887880084
 21
1494.665467586945
 31
0.0
 70
    32
  3
標準スタイル
100
AcDbAlignedDimension
 13
-1427.5
 23
1594.812361177968
 33
0.0
 14
-1497.499775760168
 24
1513.175260904985
 34
0.0
100
AcDbRotatedDimension
1001
ACAD
1000
DSTYLE
1002
{
1070
   287
1070
     4
1070
   340
1005
10
1070
    40
1040
1.0
1070
   279
1070
     1
1002
}
  0
DIMENSION
  5
1510A
330
1A
100
AcDbEntity
  8
SUNPOU
100
AcDbDimension
  2
*D2
 10
-1520.40758377381
 20
1594.5
 30
0.0
 11
-1520.40758377381
 21
1597.249999999999
 31
0.0
 70
   160
  3
標準スタイル
100
AcDbAlignedDimension
 13
-1499.0
 23
1600.0
 33
0.0
 14
-1427.5
 24
1594.5
 34
0.0
 50
90.0
100
AcDbRotatedDimension
1001
ACAD
1000
DSTYLE
1002
{
1070
   340
1005
10
1070
    40
1040
1.0
1002
}
  0
DIMENSION
  5
15124
330
1A
100
AcDbEntity
  8
SUNPOU
100
AcDbDimension
  2
*D3
 10
-1520.40758377381
 20
1512.002884036393
 30
0.0
 11
-1520.957105847212
 21
1553.251442018196
 31
0.0
 70
   160
  3
標準スタイル
100
AcDbAlignedDimension
 13
-1428.0
 23
1594.5
 33
0.0
 14
-1496.999775760168
 24
1512.002884036393
 34
0.0
 50
90.0
100
AcDbRotatedDimension
1001
ACAD
1000
DSTYLE
1002
{
1070
   287
1070
     4
1070
   340
1005
10
1070
    40
1040
1.0
1070
   279
1070
     1
1002
}
  0
DIMENSION
  5
15131
330
1A
100
AcDbEntity
  8
SUNPOU
100
AcDbDimension
  2
*D4
 10
-1520.40758377381
 20
1500.0
 30
0.0
 11
-1523.15758377381
 21
1506.001442018196
 31
0.0
 70
    32
  3
標準スタイル
100
AcDbAlignedDimension
 13
-1496.999775760168
 23
1512.002884036393
 33
0.0
 14
-1499.0
 24
1500.0
 34
0.0
 50
90.0
100
AcDbRotatedDimension
1001
ACAD
1000
DSTYLE
1002
{
1070
   287
1070
     4
1070
   340
1005
10
1070
    40
1040
1.0
1070
   279
1070
     1
1002
}
  0
LINE
  5
15187
330
1A
100
AcDbEntity
  8
ZISSEN1
100
AcDbLine
 10
-1496.5
 20
1599.0
 30
0.0
 11
-1495.5
 21
1600.0
 31
0.0
  0
DIMENSION
  5
15193
330
1A
100
AcDbEntity
  8
SUNPOU
100
AcDbDimension
  2
*D5
 10
-1500.0
 20
1491.915467586945
 30
0.0
 11
-1510.5
 21
1494.665467586945
 31
0.0
 70
    32
  3
標準スタイル
100
AcDbAlignedDimension
 13
-1497.499775760168
 23
1512.002884036393
 33
0.0
 14
-1500.0
 24
1503.0
 34
0.0
100
AcDbRotatedDimension
1001
ACAD
1000
DSTYLE
1002
{
1070
   340
1005
10
1070
    40
1040
1.0
1002
}
  0
DIMENSION
  5
152AE
330
1A
100
AcDbEntity
  8
SUNPOU
100
AcDbDimension
  2
*D6
 10
-1425.0
 20
1491.915467586945
 30
0.0
 11
-1414.5
 21
1494.665467586945
 31
0.0
 70
    32
  3
標準スタイル
100
AcDbAlignedDimension
 13
-1427.5
 23
1594.195389606253
 33
0.0
 14
-1425.0
 24
1499.695389606253
 34
0.0
100
AcDbRotatedDimension
1001
ACAD
1000
DSTYLE
1002
{
1070
   340
1005
10
1070
    40
1040
1.0
1002
}
  0
LINE
  5
15301
330
1A
100
AcDbEntity
  8
ZISSEN1
100
AcDbLine
 10
-1465.522866347812
 20
1588.6143
 30
0.0
 11
-1458.022866347812
 21
1588.6143
 31
0.0
  0
LINE
  5
15302
330
1A
100
AcDbEntity
  8
ZISSEN1
100
AcDbLine
 10
-1458.022866347812
 20
1588.6143
 30
0.0
 11
-1458.022866347812
 21
1582.1643
 31
0.0
  0
LINE
  5
15303
330
1A
100
AcDbEntity
  8
ZISSEN1
100
AcDbLine
 10
-1465.522866347812
 20
1582.1343
 30
0.0
 11
-1458.022866347812
 21
1582.1343
 31
0.0
  0
LINE
  5
15304
330
1A
100
AcDbEntity
  8
ZISSEN1
100
AcDbLine
 10
-1465.522866347812
 20
1588.6143
 30
0.0
 11
-1465.522866347812
 21
1582.1643
 31
0.0
  0
DIMENSION
  5
155CE
330
1A
100
AcDbEntity
  8
SUNPOU
100
AcDbDimension
  2
*D7
 10
-1510.0
 20
1670.0
 30
0.0
 11
-1512.75
 21
1660.25
 31
0.0
 70
    32
  3
標準スタイル
100
AcDbAlignedDimension
 13
-1497.5
 23
1650.5
 33
0.0
 14
-1500.0
 24
1670.0
 34
0.0
 50
90.0
100
AcDbRotatedDimension
1001
ACAD
1000
DSTYLE
1002
{
1070
   340
1005
10
1070
    40
1040
1.0
1002
}
  0
DIMENSION
  5
155CF
330
1A
100
AcDbEntity
  8
SUNPOU
100
AcDbDimension
  2
*D8
 10
-1510.0
 20
1650.5
 30
0.0
 11
-1512.75
 21
1640.749999999999
 31
0.0
 70
    32
  3
標準スタイル
100
AcDbAlignedDimension
 13
-1499.0
 23
1631.0
 33
0.0
 14
-1497.5
 24
1650.5
 34
0.0
 50
90.0
100
AcDbRotatedDimension
1001
ACAD
1000
DSTYLE
1002
{
1070
   340
1005
10
1070
    40
1040
1.0
1002
}
  0
LINE
  5
155D4
330
1A
100
AcDbEntity
  8
ZISSEN1
100
AcDbLine
 10
-1440.43
 20
1655.499999999999
 30
0.0
 11
-1440.43
 21
1639.0
 31
0.0
  0
LINE
  5
155D5
330
1A
100
AcDbEntity
  8
ZISSEN1
100
AcDbLine
 10
-1432.57
 20
1655.499999999999
 30
0.0
 11
-1432.57
 21
1639.0
 31
0.0
  0
LINE
  5
155D6
330
1A
100
AcDbEntity
  8
ZISSEN1
 62
     0
100
AcDbLine
 10
-1425.0
 20
1632.0
 30
0.0
 11
-1425.0
 21
1648.75
 31
0.0
  0
LINE
  5
155D7
330
1A
100
AcDbEntity
  8
ZISSEN1
 62
     0
100
AcDbLine
 10
-1500.0
 20
1632.0
 30
0.0
 11
-1500.0
 21
1648.75
 31
0.0
  0
LINE
  5
155D8
330
1A
100
AcDbEntity
  8
ZISSEN1
 62
     0
100
AcDbLine
 10
-1426.0
 20
1631.0
 30
0.0
 11
-1425.0
 21
1632.0
 31
0.0
  0
LINE
  5
155D9
330
1A
100
AcDbEntity
  8
ZISSEN1
 62
     0
100
AcDbLine
 10
-1499.0
 20
1631.0
 30
0.0
 11
-1426.0
 21
1631.0
 31
0.0
  0
LINE
  5
155DA
330
1A
100
AcDbEntity
  8
ZISSEN1
 62
     0
100
AcDbLine
 10
-1500.0
 20
1632.0
 30
0.0
 11
-1500.0
 21
1632.0
 31
0.0
  0
LINE
  5
155DB
330
1A
100
AcDbEntity
  8
ZISSEN1
 62
     0
100
AcDbLine
 10
-1499.0
 20
1631.0
 30
0.0
 11
-1500.0
 21
1632.0
 31
0.0
  0
LINE
  5
155DF
330
1A
100
AcDbEntity
  8
ZISSEN1
100
AcDbLine
 10
-1440.43
 20
1639.0
 30
0.0
 11
-1432.57
 21
1639.0
 31
0.0
  0
LINE
  5
155E2
330
1A
100
AcDbEntity
  8
ZISSEN1
100
AcDbLine
 10
-1467.13
 20
1657.099999999999
 30
0.0
 11
-1425.49999987271
 21
1657.099999999999
 31
0.0
  0
LINE
  5
155E3
330
1A
100
AcDbEntity
  8
ZISSEN1
100
AcDbLine
 10
-1496.5
 20
1655.499999999999
 30
0.0
 11
-1486.87
 21
1655.499999999999
 31
0.0
  0
LINE
  5
155E4
330
1A
100
AcDbEntity
  8
ZISSEN1
100
AcDbLine
 10
-1495.000000361365
 20
1666.70000016754
 30
0.0
 11
-1425.500000361365
 21
1666.70000016754
 31
0.0
  0
LINE
  5
155E5
330
1A
100
AcDbEntity
  8
ZISSEN1
100
AcDbLine
 10
-1495.0
 20
1665.099999999999
 30
0.0
 11
-1425.5
 21
1665.099999999999
 31
0.0
  0
LINE
  5
155E6
330
1A
100
AcDbEntity
  8
ZISSEN1
100
AcDbLine
 10
-1495.0
 20
1666.999999651162
 30
0.0
 11
-1425.5
 21
1666.999999651162
 31
0.0
  0
LINE
  5
155E7
330
1A
100
AcDbEntity
  8
ZISSEN1
100
AcDbLine
 10
-1495.0
 20
1666.7
 30
0.0
 11
-1425.5
 21
1666.7
 31
0.0
  0
LINE
  5
155E8
330
1A
100
AcDbEntity
  8
ZISSEN1
100
AcDbLine
 10
-1500.0
 20
1666.999999936076
 30
0.0
 11
-1425.0
 21
1666.999999936076
 31
0.0
  0
LINE
  5
155E9
330
1A
100
AcDbEntity
  8
ZISSEN1
 62
     0
100
AcDbLine
 10
-1500.0
 20
1670.0
 30
0.0
 11
-1425.0
 21
1670.0
 31
0.0
  0
LINE
  5
155EA
330
1A
100
AcDbEntity
  8
ZISSEN1
 62
     0
100
AcDbLine
 10
-1425.0
 20
1652.25
 30
0.0
 11
-1428.0
 21
1652.25
 31
0.0
  0
LINE
  5
155EB
330
1A
100
AcDbEntity
  8
ZISSEN1
 62
     0
100
AcDbLine
 10
-1425.0
 20
1648.75
 30
0.0
 11
-1428.0
 21
1648.75
 31
0.0
  0
DIMENSION
  5
155ED
330
1A
100
AcDbEntity
  8
SUNPOU
100
AcDbDimension
  2
*D9
 10
-1497.5
 20
1619.957850912208
 30
0.0
 11
-1510.5
 21
1619.957850912208
 31
0.0
 70
   160
  3
標準スタイル
100
AcDbAlignedDimension
 13
-1500.0
 23
1632.0
 33
0.0
 14
-1497.5
 24
1650.5
 34
0.0
100
AcDbRotatedDimension
1001
ACAD
1000
DSTYLE
1002
{
1070
   340
1005
10
1070
    40
1040
1.0
1002
}
  0
LINE
  5
155EF
330
1A
100
AcDbEntity
  8
ZISSEN1
 62
     0
100
AcDbLine
 10
-1486.89
 20
1648.6
 30
0.0
 11
-1467.15
 21
1648.6
 31
0.0
  0
LINE
  5
155FD
330
1A
100
AcDbEntity
  8
ZISSEN1
 62
     0
100
AcDbLine
 10
-1500.0
 20
1652.25
 30
0.0
 11
-1500.0
 21
1670.0
 31
0.0
  0
LINE
  5
15603
330
1A
100
AcDbEntity
  8
ZISSEN1
100
AcDbLine
 10
-1486.869999999999
 20
1657.099999999999
 30
0.0
 11
-1496.49999987271
 21
1657.099999999999
 31
0.0
  0
ARC
  5
15606
330
1A
100
AcDbEntity
  8
ZISSEN1
 62
     0
100
AcDbCircle
 10
-1497.0
 20
1650.5
 30
0.0
 40
1.75
100
AcDbArc
 50
270.0
 51
90.0
  0
LINE
  5
15607
330
1A
100
AcDbEntity
  8
ZISSEN1
 62
     0
100
AcDbLine
 10
-1500.0
 20
1648.75
 30
0.0
 11
-1497.0
 21
1648.75
 31
0.0
  0
LINE
  5
1560A
330
1A
100
AcDbEntity
  8
ZISSEN1
 62
     0
100
AcDbLine
 10
-1500.0
 20
1652.25
 30
0.0
 11
-1497.0
 21
1652.25
 31
0.0
  0
LINE
  5
1560D
330
1A
100
AcDbEntity
  8
ZISSEN1
100
AcDbLine
 10
-1495.49999987271
 20
1655.499999999999
 30
0.0
 11
-1495.49999974542
 21
1657.099999999999
 31
0.0
  0
LINE
  5
1560E
330
1A
100
AcDbEntity
  8
ZISSEN1
100
AcDbLine
 10
-1496.5
 20
1655.499999999999
 30
0.0
 11
-1496.49999987271
 21
1657.099999999999
 31
0.0
  0
LINE
  5
1560F
330
1A
100
AcDbEntity
  8
ZISSEN1
100
AcDbLine
 10
-1492.4
 20
1644.0
 30
0.0
 11
-1492.399999999999
 21
1655.499999999999
 31
0.0
  0
LINE
  5
15610
330
1A
100
AcDbEntity
  8
ZISSEN1
100
AcDbLine
 10
-1485.6
 20
1648.6
 30
0.0
 11
-1485.6
 21
1644.0
 31
0.0
  0
LINE
  5
15611
330
1A
100
AcDbEntity
  8
ZISSEN1
100
AcDbLine
 10
-1486.89
 20
1665.099999999999
 30
0.0
 11
-1486.89
 21
1648.6
 31
0.0
  0
LINE
  5
15616
330
1A
100
AcDbEntity
  8
ZISSEN1
100
AcDbLine
 10
-1492.4
 20
1644.0
 30
0.0
 11
-1485.6
 21
1644.0
 31
0.0
  0
LINE
  5
15621
330
1A
100
AcDbEntity
  8
ZISSEN1
100
AcDbLine
 10
-1489.99999987271
 20
1655.499999999999
 30
0.0
 11
-1489.99999974542
 21
1657.099999999999
 31
0.0
  0
LINE
  5
15622
330
1A
100
AcDbEntity
  8
ZISSEN1
100
AcDbLine
 10
-1488.99999987271
 20
1655.499999999999
 30
0.0
 11
-1488.99999974542
 21
1657.099999999999
 31
0.0
  0
LINE
  5
15645
330
1A
100
AcDbEntity
  8
ZISSEN1
 62
     0
100
AcDbLine
 10
-1499.0
 20
1670.0
 30
0.0
 11
-1499.0
 21
1667.0
 31
0.0
  0
LINE
  5
15646
330
1A
100
AcDbEntity
  8
ZISSEN1
100
AcDbLine
 10
-1494.5
 20
1665.099999999999
 30
0.0
 11
-1494.5
 21
1657.099999999999
 31
0.0
  0
LINE
  5
15647
330
1A
100
AcDbEntity
  8
ZISSEN1
100
AcDbLine
 10
-1494.000000361365
 20
1665.099999999999
 30
0.0
 11
-1494.000000361365
 21
1666.7
 31
0.0
  0
LINE
  5
15648
330
1A
100
AcDbEntity
  8
ZISSEN1
100
AcDbLine
 10
-1495.0
 20
1665.099999999999
 30
0.0
 11
-1495.0
 21
1666.7
 31
0.0
  0
LINE
  5
1564A
330
1A
100
AcDbEntity
  8
ZISSEN1
100
AcDbLine
 10
-1495.0
 20
1666.7
 30
0.0
 11
-1495.0
 21
1666.999999651162
 31
0.0
  0
LINE
  5
1564E
330
1A
100
AcDbEntity
  8
ZISSEN1
100
AcDbLine
 10
-1490.000000426175
 20
1670.0
 30
0.0
 11
-1490.000000426175
 21
1667.0
 31
0.0
  0
LINE
  5
1564F
330
1A
100
AcDbEntity
  8
ZISSEN1
100
AcDbLine
 10
-1489.000000426175
 20
1670.0
 30
0.0
 11
-1489.000000426175
 21
1667.0
 31
0.0
  0
LINE
  5
15650
330
1A
100
AcDbEntity
  8
ZISSEN1
100
AcDbLine
 10
-1489.499999840305
 20
1665.099999999999
 30
0.0
 11
-1489.5
 21
1657.099999999999
 31
0.0
  0
LINE
  5
1565A
330
1A
100
AcDbEntity
  8
ZISSEN1
100
AcDbLine
 10
-1442.0
 20
1648.0
 30
0.0
 11
-1449.5
 21
1648.0
 31
0.0
  0
LINE
  5
1565C
330
1A
100
AcDbEntity
  8
ZISSEN1
100
AcDbLine
 10
-1465.5
 20
1655.499999999999
 30
0.0
 11
-1465.5
 21
1648.0
 31
0.0
  0
LINE
  5
1565D
330
1A
100
AcDbEntity
  8
ZISSEN1
100
AcDbLine
 10
-1458.0
 20
1655.499999999999
 30
0.0
 11
-1458.0
 21
1648.0
 31
0.0
  0
LINE
  5
1565F
330
1A
100
AcDbEntity
  8
ZISSEN1
100
AcDbLine
 10
-1457.5
 20
1655.499999999999
 30
0.0
 11
-1457.5
 21
1648.0
 31
0.0
  0
LINE
  5
15660
330
1A
100
AcDbEntity
  8
ZISSEN1
100
AcDbLine
 10
-1450.0
 20
1655.499999999999
 30
0.0
 11
-1450.0
 21
1648.0
 31
0.0
  0
LINE
  5
15661
330
1A
100
AcDbEntity
  8
ZISSEN1
100
AcDbLine
 10
-1449.5
 20
1655.499999999999
 30
0.0
 11
-1449.5
 21
1648.0
 31
0.0
  0
LINE
  5
15662
330
1A
100
AcDbEntity
  8
ZISSEN1
100
AcDbLine
 10
-1467.149999999999
 20
1665.099999999999
 30
0.0
 11
-1467.15
 21
1648.6
 31
0.0
  0
LINE
  5
15665
330
1A
100
AcDbEntity
  8
ZISSEN1
100
AcDbLine
 10
-1458.0
 20
1648.0
 30
0.0
 11
-1465.5
 21
1648.0
 31
0.0
  0
LINE
  5
15668
330
1A
100
AcDbEntity
  8
ZISSEN1
100
AcDbLine
 10
-1450.0
 20
1648.0
 30
0.0
 11
-1457.5
 21
1648.0
 31
0.0
  0
LINE
  5
15671
330
1A
100
AcDbEntity
  8
ZISSEN1
100
AcDbLine
 10
-1464.99999987271
 20
1655.499999999999
 30
0.0
 11
-1464.99999974542
 21
1657.099999999999
 31
0.0
  0
LINE
  5
15672
330
1A
100
AcDbEntity
  8
ZISSEN1
100
AcDbLine
 10
-1465.99999987271
 20
1655.499999999999
 30
0.0
 11
-1465.99999974542
 21
1657.099999999999
 31
0.0
  0
LINE
  5
15676
330
1A
100
AcDbEntity
  8
ZISSEN1
100
AcDbLine
 10
-1442.0
 20
1655.499999999999
 30
0.0
 11
-1442.0
 21
1648.0
 31
0.0
  0
ARC
  5
1567D
330
1A
100
AcDbEntity
  8
ZISSEN1
 62
     0
100
AcDbCircle
 10
-1428.0
 20
1650.5
 30
0.0
 40
1.75
100
AcDbArc
 50
90.0
 51
270.0
  0
LINE
  5
15697
330
1A
100
AcDbEntity
  8
ZISSEN1
100
AcDbLine
 10
-1432.49999987271
 20
1655.499999999999
 30
0.0
 11
-1432.49999974542
 21
1657.099999999999
 31
0.0
  0
LINE
  5
15698
330
1A
100
AcDbEntity
  8
ZISSEN1
100
AcDbLine
 10
-1431.49999987271
 20
1655.499999999999
 30
0.0
 11
-1431.49999974542
 21
1657.099999999999
 31
0.0
  0
LINE
  5
1569F
330
1A
100
AcDbEntity
  8
ZISSEN1
100
AcDbLine
 10
-1426.49999987271
 20
1655.499999999999
 30
0.0
 11
-1426.49999974542
 21
1657.099999999999
 31
0.0
  0
LINE
  5
156A6
330
1A
100
AcDbEntity
  8
ZISSEN1
100
AcDbLine
 10
-1464.000000426175
 20
1670.0
 30
0.0
 11
-1464.000000426175
 21
1667.0
 31
0.0
  0
LINE
  5
156A7
330
1A
100
AcDbEntity
  8
ZISSEN1
100
AcDbLine
 10
-1465.0
 20
1670.0
 30
0.0
 11
-1465.0
 21
1667.0
 31
0.0
  0
LINE
  5
156B0
330
1A
100
AcDbEntity
  8
ZISSEN1
100
AcDbLine
 10
-1426.000000426175
 20
1670.0
 30
0.0
 11
-1426.000000426175
 21
1667.0
 31
0.0
  0
LINE
  5
156B2
330
1A
100
AcDbEntity
  8
ZISSEN1
100
AcDbLine
 10
-1431.500000361365
 20
1665.099999999999
 30
0.0
 11
-1431.500000361365
 21
1666.7
 31
0.0
  0
LINE
  5
156B3
330
1A
100
AcDbEntity
  8
ZISSEN1
100
AcDbLine
 10
-1432.500000361365
 20
1665.099999999999
 30
0.0
 11
-1432.500000361365
 21
1666.7
 31
0.0
  0
LINE
  5
156B9
330
1A
100
AcDbEntity
  8
ZISSEN1
100
AcDbLine
 10
-1431.0
 20
1665.099999999999
 30
0.0
 11
-1431.0
 21
1657.099999999999
 31
0.0
  0
LINE
  5
156BA
330
1A
100
AcDbEntity
  8
ZISSEN1
100
AcDbLine
 10
-1426.0
 20
1665.099999999999
 30
0.0
 11
-1426.0
 21
1657.099999999999
 31
0.0
  0
LINE
  5
156BB
330
1A
100
AcDbEntity
  8
ZISSEN1
100
AcDbLine
 10
-1426.500000361365
 20
1665.099999999999
 30
0.0
 11
-1426.500000361365
 21
1666.7
 31
0.0
  0
LINE
  5
156BF
330
1A
100
AcDbEntity
  8
ZISSEN1
100
AcDbLine
 10
-1425.0
 20
1652.25
 30
0.0
 11
-1425.0
 21
1670.0
 31
0.0
  0
LINE
  5
156C0
330
1A
100
AcDbEntity
  8
ZISSEN1
100
AcDbLine
 10
-1425.49999987271
 20
1655.499999854814
 30
0.0
 11
-1425.49999974542
 21
1657.099999854814
 31
0.0
  0
LINE
  5
156C1
330
1A
100
AcDbEntity
  8
ZISSEN1
100
AcDbLine
 10
-1425.500000361365
 20
1665.099999999999
 30
0.0
 11
-1425.500000361365
 21
1666.7
 31
0.0
  0
LINE
  5
156C2
330
1A
100
AcDbEntity
  8
ZISSEN1
100
AcDbLine
 10
-1425.500000345163
 20
1667.0
 30
0.0
 11
-1425.500000345163
 21
1666.7
 31
0.0
  0
LINE
  5
15796
330
1A
100
AcDbEntity
  8
ZISSEN1
100
AcDbLine
 10
-1467.13
 20
1655.499999999999
 30
0.0
 11
-1425.5
 21
1655.499999999999
 31
0.0
  0
DIMENSION
  5
1583B
330
1A
100
AcDbEntity
  8
SUNPOU
100
AcDbDimension
  2
*D10
 10
-1427.5
 20
1619.957850912208
 30
0.0
 11
-1462.5
 21
1622.707850912208
 31
0.0
 70
    32
  3
標準スタイル
100
AcDbAlignedDimension
 13
-1497.5
 23
1650.5
 33
0.0
 14
-1427.5
 24
1650.5
 34
0.0
100
AcDbRotatedDimension
1001
ACAD
1000
DSTYLE
1002
{
1070
   340
1005
10
1070
    40
1040
1.0
1002
}
  0
DIMENSION
  5
1585E
330
1A
100
AcDbEntity
  8
SUNPOU
100
AcDbDimension
  2
*D11
 10
-1425.0
 20
1619.957850912208
 30
0.0
 11
-1414.5
 21
1622.707850912208
 31
0.0
 70
    32
  3
標準スタイル
100
AcDbAlignedDimension
 13
-1427.5
 23
1650.5
 33
0.0
 14
-1425.0
 24
1632.0
 34
0.0
100
AcDbRotatedDimension
1001
ACAD
1000
DSTYLE
1002
{
1070
   340
1005
10
1070
    40
1040
1.0
1002
}
  0
LINE
  5
158C2
330
1A
100
AcDbEntity
  8
CL1
100
AcDbLine
 10
-1430.780342608483
 20
1650.5
 30
0.0
 11
-1422.964344217513
 21
1650.5
 31
0.0
  0
LINE
  5
158C3
330
1A
100
AcDbEntity
  8
CL1
100
AcDbLine
 10
-1427.5
 20
1652.25
 30
0.0
 11
-1427.5
 21
1648.75
 31
0.0
  0
LINE
  5
158C4
330
1A
100
AcDbEntity
  8
CL1
100
AcDbLine
 10
-1494.131744525789
 20
1650.5
 30
0.0
 11
-1500.0
 21
1650.5
 31
0.0
  0
LINE
  5
158C5
330
1A
100
AcDbEntity
  8
CL1
100
AcDbLine
 10
-1497.5
 20
1653.852691001748
 30
0.0
 11
-1497.5
 21
1648.25
 31
0.0
  0
LINE
  5
15A37
330
1A
100
AcDbEntity
  8
ZISSEN1
100
AcDbLine
 10
-1585.5
 20
1600.0
 30
0.0
 11
-1585.5
 21
1504.0
 31
0.0
  0
LINE
  5
15A38
330
1A
100
AcDbEntity
  8
ZISSEN1
100
AcDbLine
 10
-1587.1
 20
1600.0
 30
0.0
 11
-1587.1
 21
1504.0
 31
0.0
  0
LINE
  5
15A39
330
1A
100
AcDbEntity
  8
ZISSEN2
 62
     3
100
AcDbLine
 10
-1596.7
 20
1505.500000203026
 30
0.0
 11
-1596.7
 21
1600.000000203027
 31
0.0
  0
LINE
  5
15A3A
330
1A
100
AcDbEntity
  8
ZISSEN1
100
AcDbLine
 10
-1595.1
 20
1505.5
 30
0.0
 11
-1595.1
 21
1600.0
 31
0.0
  0
LINE
  5
15A3B
330
1A
100
AcDbEntity
  8
ZISSEN1
 62
     6
100
AcDbLine
 10
-1597.0
 20
1600.0
 30
0.0
 11
-1597.0
 21
1505.5
 31
0.0
  0
LINE
  5
15A3C
330
1A
100
AcDbEntity
  8
ZISSEN1
100
AcDbLine
 10
-1596.7
 20
1600.0
 30
0.0
 11
-1596.7
 21
1505.5
 31
0.0
  0
LINE
  5
15A3D
330
1A
100
AcDbEntity
  8
ZISSEN1
100
AcDbLine
 10
-1600.0
 20
1501.5
 30
0.0
 11
-1600.0
 21
1600.0
 31
0.0
  0
LINE
  5
15A3E
330
1A
100
AcDbEntity
  8
ZISSEN1
100
AcDbLine
 10
-1597.0
 20
1503.000000131913
 30
0.0
 11
-1597.0
 21
1600.0
 31
0.0
  0
DIMENSION
  5
15A40
330
1A
100
AcDbEntity
  8
ZISSEN4
 62
     0
100
AcDbDimension
  2
*D12
 10
-1600.0
 20
1480.0
 30
0.0
 11
-1580.499999999999
 21
1482.75
 31
0.0
 70
    32
  3
標準スタイル
100
AcDbAlignedDimension
 13
-1561.0
 23
1500.000000131914
 33
0.0
 14
-1600.0
 24
1501.5
 34
0.0
100
AcDbRotatedDimension
1001
ACAD
1000
DSTYLE
1002
{
1070
   340
1005
10
1070
    40
1040
1.0
1002
}
  0
LINE
  5
15A41
330
1A
100
AcDbEntity
  8
ZISSEN1
100
AcDbLine
 10
-1561.0
 20
1503.000000131913
 30
0.0
 11
-1597.0
 21
1503.000000131913
 31
0.0
  0
LINE
  5
15A42
330
1A
100
AcDbEntity
  8
ZISSEN1
100
AcDbLine
 10
-1561.0
 20
1500.0
 30
0.0
 11
-1598.5
 21
1500.0
 31
0.0
  0
ARC
  5
15A43
330
1A
100
AcDbEntity
  8
ZISSEN1
100
AcDbCircle
 10
-1598.5
 20
1501.5
 30
0.0
 40
1.5
100
AcDbArc
 50
180.0
 51
270.0
  0
LINE
  5
15A44
330
1A
100
AcDbEntity
  8
ZISSEN1
100
AcDbLine
 10
-1592.0
 20
1500.0
 30
0.0
 11
-1592.0
 21
1500.0
 31
0.0
  0
LINE
  5
15A45
330
1A
100
AcDbEntity
  8
ZISSEN1
100
AcDbLine
 10
-1582.25
 20
1503.0
 30
0.0
 11
-1582.25
 21
1500.0
 31
0.0
  0
LINE
  5
15A46
330
1A
100
AcDbEntity
  8
ZISSEN1
100
AcDbLine
 10
-1578.75
 20
1503.0
 30
0.0
 11
-1578.75
 21
1500.0
 31
0.0
  0
LINE
  5
15A47
330
1A
100
AcDbEntity
  8
ZISSEN1
100
AcDbLine
 10
-1561.0
 20
1503.0
 30
0.0
 11
-1561.0
 21
1500.0
 31
0.0
  0
LINE
  5
15A48
330
1A
100
AcDbEntity
  8
ZISSEN1
100
AcDbLine
 10
-1562.0
 20
1503.0
 30
0.0
 11
-1562.0
 21
1500.0
 31
0.0
  0
LINE
  5
15A50
330
1A
100
AcDbEntity
  8
ZISSEN1
100
AcDbLine
 10
-1587.1
 20
1517.0
 30
0.0
 11
-1585.5
 21
1517.0
 31
0.0
  0
LINE
  5
15A51
330
1A
100
AcDbEntity
  8
ZISSEN1
100
AcDbLine
 10
-1587.1
 20
1504.0
 30
0.0
 11
-1585.5
 21
1504.0
 31
0.0
  0
LINE
  5
15A59
330
1A
100
AcDbEntity
  8
ZISSEN1
100
AcDbLine
 10
-1600.0
 20
1513.75
 30
0.0
 11
-1597.0
 21
1513.75
 31
0.0
  0
LINE
  5
15A66
330
1A
100
AcDbEntity
  8
ZISSEN1
100
AcDbLine
 10
-1587.1
 20
1507.0
 30
0.0
 11
-1595.1
 21
1507.0
 31
0.0
  0
LINE
  5
15A68
330
1A
100
AcDbEntity
  8
ZISSEN1
100
AcDbLine
 10
-1595.1
 20
1505.5
 30
0.0
 11
-1597.0
 21
1505.5
 31
0.0
  0
LINE
  5
15A6C
330
1A
100
AcDbEntity
  8
ZISSEN1
100
AcDbLine
 10
-1595.1
 20
1512.0
 30
0.0
 11
-1587.1
 21
1512.0
 31
0.0
  0
LINE
  5
15A70
330
1A
100
AcDbEntity
  8
ZISSEN1
100
AcDbLine
 10
-1596.7
 20
1517.000000006901
 30
0.0
 11
-1595.1
 21
1517.000000006901
 31
0.0
  0
LINE
  5
15A9D
330
1A
100
AcDbEntity
  8
ZISSEN1
100
AcDbLine
 10
-1574.0
 20
1583.199999999999
 30
0.0
 11
-1574.0
 21
1550.799999999999
 31
0.0
  0
LINE
  5
15AD3
330
1A
100
AcDbEntity
  8
ZISSEN1
100
AcDbLine
 10
-1595.1
 20
1589.199999999999
 30
0.0
 11
-1587.099999999999
 21
1589.199999999999
 31
0.0
  0
LINE
  5
15AD4
330
1A
100
AcDbEntity
  8
ZISSEN1
100
AcDbLine
 10
-1595.1
 20
1594.5
 30
0.0
 11
-1587.1
 21
1594.5
 31
0.0
  0
LINE
  5
15ADC
330
1A
100
AcDbEntity
  8
ZISSEN1
100
AcDbLine
 10
-1585.5
 20
1583.199999999999
 30
0.0
 11
-1574.0
 21
1583.199999999999
 31
0.0
  0
LINE
  5
15AEE
330
1A
100
AcDbEntity
  8
ZISSEN1
100
AcDbLine
 10
-1587.1
 20
1599.0
 30
0.0
 11
-1585.5
 21
1599.0
 31
0.0
  0
LINE
  5
15AEF
330
1A
100
AcDbEntity
  8
ZISSEN1
100
AcDbLine
 10
-1587.1
 20
1600.0
 30
0.0
 11
-1585.5
 21
1600.0
 31
0.0
  0
LINE
  5
15AF3
330
1A
100
AcDbEntity
  8
ZISSEN1
100
AcDbLine
 10
-1600.0
 20
1599.0
 30
0.0
 11
-1597.0
 21
1599.0
 31
0.0
  0
LINE
  5
15AF4
330
1A
100
AcDbEntity
  8
ZISSEN1
100
AcDbLine
 10
-1600.0
 20
1600.0
 30
0.0
 11
-1597.0
 21
1600.0
 31
0.0
  0
LINE
  5
15AF8
330
1A
100
AcDbEntity
  8
ZISSEN1
100
AcDbLine
 10
-1595.1
 20
1599.5
 30
0.0
 11
-1587.1
 21
1599.5
 31
0.0
  0
LINE
  5
15AFB
330
1A
100
AcDbEntity
  8
ZISSEN1
100
AcDbLine
 10
-1596.7
 20
1599.0
 30
0.0
 11
-1595.1
 21
1599.0
 31
0.0
  0
LINE
  5
15AFC
330
1A
100
AcDbEntity
  8
ZISSEN1
100
AcDbLine
 10
-1595.1
 20
1600.000000006901
 30
0.0
 11
-1597.0
 21
1600.0
 31
0.0
  0
LINE
  5
15B52
330
1A
100
AcDbEntity
  8
ZISSEN1
100
AcDbLine
 10
-1585.5
 20
1550.799999859937
 30
0.0
 11
-1574.0
 21
1550.799999999999
 31
0.0
  0
LINE
  5
15D17
330
1A
100
AcDbEntity
  8
ZISSEN1
100
AcDbLine
 10
-1465.05330190892
 20
1652.999999892238
 30
0.0
 11
-1458.45330190892
 21
1652.999999892238
 31
0.0
  0
LINE
  5
15D18
330
1A
100
AcDbEntity
  8
ZISSEN1
100
AcDbLine
 10
-1465.05330190892
 20
1655.499999999999
 30
0.0
 11
-1465.05330190892
 21
1652.999999892238
 31
0.0
  0
LINE
  5
15D19
330
1A
100
AcDbEntity
  8
ZISSEN1
100
AcDbLine
 10
-1458.45330190892
 20
1655.499999999999
 30
0.0
 11
-1458.45330190892
 21
1652.999999892238
 31
0.0
  0
LINE
  5
15D68
330
1A
100
AcDbEntity
  8
ZISSEN1
100
AcDbLine
 10
-1578.6
 20
1589.199999999999
 30
0.0
 11
-1578.6
 21
1597.69
 31
0.0
  0
LINE
  5
15D69
330
1A
100
AcDbEntity
  8
ZISSEN1
100
AcDbLine
 10
-1578.6
 20
1597.69
 30
0.0
 11
-1585.5
 21
1597.69
 31
0.0
  0
LINE
  5
15D6A
330
1A
100
AcDbEntity
  8
ZISSEN1
100
AcDbLine
 10
-1585.5
 20
1589.199999999999
 30
0.0
 11
-1578.6
 21
1589.199999999999
 31
0.0
  0
LINE
  5
15D6D
330
1A
100
AcDbEntity
  8
ZISSEN1
100
AcDbLine
 10
-1600.0
 20
1513.75
 30
0.0
 11
-1597.0
 21
1513.752884036393
 31
0.0
  0
LINE
  5
15D6E
330
1A
100
AcDbEntity
  8
ZISSEN1
100
AcDbLine
 10
-1600.0
 20
1510.25
 30
0.0
 11
-1597.0
 21
1510.25
 31
0.0
  0
DIMENSION
  5
15D79
330
1A
100
AcDbEntity
  8
SUNPOU
100
AcDbDimension
  2
*D13
 10
-1614.119314932815
 20
1600.0
 30
0.0
 11
-1616.869314932815
 21
1549.999999999999
 31
0.0
 70
    32
  3
標準スタイル
100
AcDbAlignedDimension
 13
-1598.5
 23
1500.0
 33
0.0
 14
-1600.0
 24
1600.0
 34
0.0
 50
90.0
100
AcDbRotatedDimension
1001
ACAD
1000
DSTYLE
1002
{
1070
   340
1005
10
1070
    40
1040
1.0
1002
}
  0
LINE
  5
15DA3
330
1A
100
AcDbEntity
  8
CL1
100
AcDbLine
 10
-1500.0
 20
1512.002884036393
 30
0.0
 11
-1494.280718189622
 21
1512.002884036393
 31
0.0
  0
LINE
  5
15DA4
330
1A
100
AcDbEntity
  8
CL1
100
AcDbLine
 10
-1602.0
 20
1512.003480854872
 30
0.0
 11
-1595.9
 21
1512.003480854872
 31
0.0
  0
LINE
  5
15DA5
330
1A
100
AcDbEntity
  8
CL1
100
AcDbLine
 10
-1497.499775760168
 20
1510.25
 30
0.0
 11
-1497.499775760168
 21
1515.5
 31
0.0
  0
LINE
  5
15DA6
330
1A
100
AcDbEntity
  8
CL1
100
AcDbLine
 10
-1429.75
 20
1594.5
 30
0.0
 11
-1423.980066244244
 21
1594.5
 31
0.0
  0
LINE
  5
15DA8
330
1A
100
AcDbEntity
  8
CL1
100
AcDbLine
 10
-1427.5
 20
1592.75
 30
0.0
 11
-1427.5
 21
1597.464218609221
 31
0.0
  0
LINE
  5
15DBF
330
1A
100
AcDbEntity
  8
ZISSEN1
100
AcDbLine
 10
-1577.999999999999
 20
1583.2
 30
0.0
 11
-1578.0
 21
1594.6418
 31
0.0
  0
LINE
  5
15DC0
330
1A
100
AcDbEntity
  8
ZISSEN1
100
AcDbLine
 10
-1578.0
 20
1594.6418
 30
0.0
 11
-1578.6
 21
1594.6418
 31
0.0
  0
LINE
  5
15DC3
330
1A
100
AcDbEntity
  8
ZISSEN1
100
AcDbLine
 10
-1585.5
 20
1588.6143
 30
0.0
 11
-1578.0
 21
1588.6143
 31
0.0
  0
LINE
  5
15DC8
330
1A
100
AcDbEntity
  8
ZISSEN1
100
AcDbLine
 10
-1569.0
 20
1595.7
 30
0.0
 11
-1578.6
 21
1595.7
 31
0.0
  0
LINE
  5
15DC9
330
1A
100
AcDbEntity
  8
ZISSEN1
100
AcDbLine
 10
-1569.0
 20
1595.7
 30
0.0
 11
-1569.0
 21
1587.199363909696
 31
0.0
  0
LINE
  5
15DCA
330
1A
100
AcDbEntity
  8
ZISSEN1
100
AcDbLine
 10
-1569.0
 20
1587.199363909696
 30
0.0
 11
-1577.999999999999
 21
1587.199363909696
 31
0.0
  0
LINE
  5
15F0F
330
1A
100
AcDbEntity
  8
CL1
100
AcDbLine
 10
-1580.504095074682
 20
1497.097954098205
 30
0.0
 11
-1580.504095074682
 21
1506.479654570678
 31
0.0
  0
LINE
  5
15F71
330
1A
100
AcDbEntity
  8
CL1
100
AcDbLine
 10
-1580.504095074682
 20
1506.479654570678
 30
0.0
 11
-1580.504095074682
 21
1497.097954098205
 31
0.0
  0
VIEWPORT
  5
5D8F
330
5D8E
100
AcDbEntity
 67
     1
  8
0
100
AcDbViewport
 10
309.7437797567918
 20
158.5036145721322
 30
0.0
 40
678.941034465341
 41
309.6567392721166
 68
     1
 69
     1
1001
ACAD
1000
MVIEW
1002
{
1070
    16
1010
0.0
1020
0.0
1030
0.0
1010
0.0
1020
0.0
1030
1.0
1040
0.0
1040
309.6567392721166
1040
309.7437797567918
1040
158.5036145721322
1040
50.0
1040
0.0
1040
0.0
1070
     0
1070
   100
1070
     1
1070
     0
1070
     0
1070
     0
1070
     0
1070
     0
1040
0.0
1040
0.0
1040
0.0
1040
1.0
1040
1.0
1040
10.0
1040
10.0
1070
     0
1002
{
1002
}
1002
}
  0
VIEWPORT
  5
6001
330
5D8E
100
AcDbEntity
 67
     1
  8
ZISSEN1
100
AcDbViewport
 10
221.786195552541
 20
157.6960273330388
 30
0.0
 40
385.4999999999997
 41
259.9999999999999
 68
     2
 69
     2
1001
ACAD
1000
MVIEW
1002
{
1070
    16
1010
0.0
1020
0.0
1030
0.0
1010
0.0
1020
0.0
1030
1.0
1040
0.0
1040
260.0000020560114
1040
-1515.561675239606
1040
1578.677558741789
1040
50.0
1040
0.0
1040
0.0
1070
     0
1070
   100
1070
     1
1070
     0
1070
     0
1070
     0
1070
     0
1070
     0
1040
0.0
1040
0.0
1040
0.0
1040
1.0
1040
1.0
1040
10.0
1040
10.0
1070
     0
1002
{
1002
}
1002
}
  0
TEXT
  5
12C0E
330
5D8E
100
AcDbEntity
 67
     1
  8
SUNPOU
 62
     0
100
AcDbText
 10
346.4091659277273
 20
49.2302696460965
 30
0.0
 40
3.5
  1
縮尺 1/1
  7
ゴシック体
100
AcDbText
  0
ENDSEC
  0
SECTION
  2
OBJECTS
  0
DICTIONARY
  5
C
330
0
100
AcDbDictionary
  3
ACAD_GROUP
350
D
  3
ACAD_LAYOUT
350
5C7D
  3
ACAD_MLINESTYLE
350
E
  3
ACAD_PLOTSETTINGS
350
5C7E
  3
ACAD_PLOTSTYLENAME
350
5C7B
  3
ACDBVARIABLEDICTIONARY
350
12CBC
  3
DWGPROPS
350
14441
  3
ACDBHEADERROUNDTRIPXREC
350
15F7B
  0
DICTIONARY
  5
12CF1
330
1A
100
AcDbDictionary
280
     1
  3
ACAD_LAYOUTSELFREF
360
15F9B
  0
DICTIONARY
  5
12CF3
330
5D8E
100
AcDbDictionary
280
     1
  3
ACAD_LAYOUTSELFREF
360
15F9C
  0
DICTIONARY
  5
D
102
{ACAD_REACTORS
330
C
102
}
330
C
100
AcDbDictionary
  3
*A1
350
477D
  3
*A2
350
4C14
  3
*A3
350
4C15
  3
*A4
350
4C16
  3
*A5
350
4C17
  3
*A6
350
477E
  3
*A7
350
477F
  3
*A8
350
4780
  3
*A9
350
4781
  3
*A10
350
4C0E
  3
*A11
350
4C0F
  3
*A12
350
4C10
  3
*A13
350
4C11
  3
*A14
350
4C12
  3
*A15
350
4C13
  0
DICTIONARY
  5
5C7D
102
{ACAD_REACTORS
330
C
102
}
330
C
100
AcDbDictionary
  0
DICTIONARY
  5
E
102
{ACAD_REACTORS
330
C
102
}
330
C
100
AcDbDictionary
  3
STANDARD
350
13
  0
DICTIONARY
  5
5C7E
102
{ACAD_REACTORS
330
C
102
}
330
C
100
AcDbDictionary
  0
ACDBDICTIONARYWDFLT
  5
5C7B
102
{ACAD_REACTORS
330
C
102
}
330
C
100
AcDbDictionary
281
     1
  3
Normal
350
5C7C
100
AcDbDictionaryWithDefault
340
5C7C
  0
DICTIONARY
  5
12CBC
102
{ACAD_REACTORS
330
C
102
}
330
C
100
AcDbDictionary
  3
INDEXCTL
350
12CBD
  0
XRECORD
  5
14441
102
{ACAD_REACTORS
330
C
102
}
330
C
100
AcDbXrecord
  1
DWGPROPS COOKIE
  2

  3

  4

  6

  7

  8

  9

300
=
301
=
302
=
303
=
304
=
305
=
306
=
307
=
308
=
309
=
 40
2.494755081018518
 41
2450495.493631364
 42
2454488.636185428
  1

 90
        0
  0
DICTIONARY
  5
15F7B
102
{ACAD_REACTORS
330
C
102
}
330
C
100
AcDbDictionary
  3
TSTACKALIGN
350
15F7C
  3
TSTACKSIZE
350
15F7D
  3
HYPERLINKBASE
350
15F7E
  3
STYLESHEET
350
15F7F
  3
LAYOUTDICT
350
15F80
  3
PLOTSETDICT
350
15F81
  3
PLOTSTYLNAMDICT
350
15F82
  3
LWETCUNION
350
15F83
  3
INSUNITS
350
15F84
  3
CEPSNTYPE
350
15F85
  3
FINGERPRINTGUID
350
15F86
  3
VERSIONGUID
350
15F87
  3
PSVPSCALE
350
15F88
  3
PUCSORTHOREF
350
15F89
  3
PUCSORTHOVIEW
350
15F8A
  3
PUCSBASE
350
15F8B
  3
PUCSORGTOP
350
15F8C
  3
PUCSORGBOTTOM
350
15F8D
  3
PUCSORGLEFT
350
15F8E
  3
PUCSORGRIGHT
350
15F8F
  3
PUCSORGFRONT
350
15F90
  3
PUCSORGBACK
350
15F91
  3
UCSORTHOREF
350
15F92
  3
UCSORTHOVIEW
350
15F93
  3
UCSBASE
350
15F94
  3
UCSORGTOP
350
15F95
  3
UCSORGBOTTOM
350
15F96
  3
UCSORGLEFT
350
15F97
  3
UCSORGRIGHT
350
15F98
  3
UCSORGFRONT
350
15F99
  3
UCSORGBACK
350
15F9A
  0
XRECORD
  5
15F9B
102
{ACAD_REACTORS
330
12CF1
102
}
330
12CF1
100
AcDbXrecord
340
1A
  0
XRECORD
  5
15F9C
102
{ACAD_REACTORS
330
12CF3
102
}
330
12CF3
100
AcDbXrecord
340
5D8E
  0
GROUP
  5
477D
102
{ACAD_REACTORS
330
D
102
}
330
D
100
AcDbGroup
300

 70
     1
 71
     1
  0
GROUP
  5
4C14
102
{ACAD_REACTORS
330
D
102
}
330
D
100
AcDbGroup
300

 70
     1
 71
     1
  0
GROUP
  5
4C15
102
{ACAD_REACTORS
330
D
102
}
330
D
100
AcDbGroup
300

 70
     1
 71
     1
  0
GROUP
  5
4C16
102
{ACAD_REACTORS
330
D
102
}
330
D
100
AcDbGroup
300

 70
     1
 71
     1
  0
GROUP
  5
4C17
102
{ACAD_REACTORS
330
D
102
}
330
D
100
AcDbGroup
300

 70
     1
 71
     1
  0
GROUP
  5
477E
102
{ACAD_REACTORS
330
D
102
}
330
D
100
AcDbGroup
300

 70
     1
 71
     1
  0
GROUP
  5
477F
102
{ACAD_REACTORS
330
D
102
}
330
D
100
AcDbGroup
300

 70
     1
 71
     1
  0
GROUP
  5
4780
102
{ACAD_REACTORS
330
D
102
}
330
D
100
AcDbGroup
300

 70
     1
 71
     1
  0
GROUP
  5
4781
102
{ACAD_REACTORS
330
D
102
}
330
D
100
AcDbGroup
300

 70
     1
 71
     1
  0
GROUP
  5
4C0E
102
{ACAD_REACTORS
330
D
102
}
330
D
100
AcDbGroup
300

 70
     1
 71
     1
  0
GROUP
  5
4C0F
102
{ACAD_REACTORS
330
D
102
}
330
D
100
AcDbGroup
300

 70
     1
 71
     1
  0
GROUP
  5
4C10
102
{ACAD_REACTORS
330
D
102
}
330
D
100
AcDbGroup
300

 70
     1
 71
     1
  0
GROUP
  5
4C11
102
{ACAD_REACTORS
330
D
102
}
330
D
100
AcDbGroup
300

 70
     1
 71
     1
  0
GROUP
  5
4C12
102
{ACAD_REACTORS
330
D
102
}
330
D
100
AcDbGroup
300

 70
     1
 71
     1
  0
GROUP
  5
4C13
102
{ACAD_REACTORS
330
D
102
}
330
D
100
AcDbGroup
300

 70
     1
 71
     1
  0
MLINESTYLE
  5
13
102
{ACAD_REACTORS
330
E
102
}
330
E
100
AcDbMlineStyle
  2
STANDARD
 70
     0
  3

 62
     0
 51
90.0
 52
90.0
 71
     2
 49
0.5
 62
   256
  6
BYLAYER
 49
-0.5
 62
   256
  6
BYLAYER
  0
ACDBPLACEHOLDER
  5
5C7C
102
{ACAD_REACTORS
330
5C7B
102
}
330
5C7B
100
AcDbPlaceHolder
280
     0
  0
DICTIONARYVAR
  5
12CBD
102
{ACAD_REACTORS
330
12CBC
102
}
330
12CBC
100
DictionaryVariables
280
     0
  1
-1
  0
XRECORD
  5
15F7C
102
{ACAD_REACTORS
330
15F7B
102
}
330
15F7B
100
AcDbXrecord
 90
        1
  0
XRECORD
  5
15F7D
102
{ACAD_REACTORS
330
15F7B
102
}
330
15F7B
100
AcDbXrecord
 90
       70
  0
XRECORD
  5
15F7E
102
{ACAD_REACTORS
330
15F7B
102
}
330
15F7B
100
AcDbXrecord
  1

  0
XRECORD
  5
15F7F
102
{ACAD_REACTORS
330
15F7B
102
}
330
15F7B
100
AcDbXrecord
  1

  0
XRECORD
  5
15F80
102
{ACAD_REACTORS
330
15F7B
102
}
330
15F7B
100
AcDbXrecord
340
5C7D
  0
XRECORD
  5
15F81
102
{ACAD_REACTORS
330
15F7B
102
}
330
15F7B
100
AcDbXrecord
340
5C7E
  0
XRECORD
  5
15F82
102
{ACAD_REACTORS
330
15F7B
102
}
330
15F7B
100
AcDbXrecord
340
5C7B
  0
XRECORD
  5
15F83
102
{ACAD_REACTORS
330
15F7B
102
}
330
15F7B
100
AcDbXrecord
 90
    10781
  0
XRECORD
  5
15F84
102
{ACAD_REACTORS
330
15F7B
102
}
330
15F7B
100
AcDbXrecord
 90
        0
  0
XRECORD
  5
15F85
102
{ACAD_REACTORS
330
15F7B
102
}
330
15F7B
100
AcDbXrecord
 90
        0
  0
XRECORD
  5
15F86
102
{ACAD_REACTORS
330
15F7B
102
}
330
15F7B
100
AcDbXrecord
  1
{225A7F0D-DA29-11D8-946A-0000E2416295}
  0
XRECORD
  5
15F87
102
{ACAD_REACTORS
330
15F7B
102
}
330
15F7B
100
AcDbXrecord
  1
{CE588FE4-8D99-4437-89C6-2D15FBC5A26B}
  0
XRECORD
  5
15F88
102
{ACAD_REACTORS
330
15F7B
102
}
330
15F7B
100
AcDbXrecord
 40
0.0
  0
XRECORD
  5
15F89
102
{ACAD_REACTORS
330
15F7B
102
}
330
15F7B
100
AcDbXrecord
340
0
  0
XRECORD
  5
15F8A
102
{ACAD_REACTORS
330
15F7B
102
}
330
15F7B
100
AcDbXrecord
 70
     0
  0
XRECORD
  5
15F8B
102
{ACAD_REACTORS
330
15F7B
102
}
330
15F7B
100
AcDbXrecord
340
0
  0
XRECORD
  5
15F8C
102
{ACAD_REACTORS
330
15F7B
102
}
330
15F7B
100
AcDbXrecord
 10
0.0
 20
0.0
 30
0.0
  0
XRECORD
  5
15F8D
102
{ACAD_REACTORS
330
15F7B
102
}
330
15F7B
100
AcDbXrecord
 10
0.0
 20
0.0
 30
0.0
  0
XRECORD
  5
15F8E
102
{ACAD_REACTORS
330
15F7B
102
}
330
15F7B
100
AcDbXrecord
 10
0.0
 20
0.0
 30
0.0
  0
XRECORD
  5
15F8F
102
{ACAD_REACTORS
330
15F7B
102
}
330
15F7B
100
AcDbXrecord
 10
0.0
 20
0.0
 30
0.0
  0
XRECORD
  5
15F90
102
{ACAD_REACTORS
330
15F7B
102
}
330
15F7B
100
AcDbXrecord
 10
0.0
 20
0.0
 30
0.0
  0
XRECORD
  5
15F91
102
{ACAD_REACTORS
330
15F7B
102
}
330
15F7B
100
AcDbXrecord
 10
0.0
 20
0.0
 30
0.0
  0
XRECORD
  5
15F92
102
{ACAD_REACTORS
330
15F7B
102
}
330
15F7B
100
AcDbXrecord
340
0
  0
XRECORD
  5
15F93
102
{ACAD_REACTORS
330
15F7B
102
}
330
15F7B
100
AcDbXrecord
 70
     0
  0
XRECORD
  5
15F94
102
{ACAD_REACTORS
330
15F7B
102
}
330
15F7B
100
AcDbXrecord
340
0
  0
XRECORD
  5
15F95
102
{ACAD_REACTORS
330
15F7B
102
}
330
15F7B
100
AcDbXrecord
 10
0.0
 20
0.0
 30
0.0
  0
XRECORD
  5
15F96
102
{ACAD_REACTORS
330
15F7B
102
}
330
15F7B
100
AcDbXrecord
 10
0.0
 20
0.0
 30
0.0
  0
XRECORD
  5
15F97
102
{ACAD_REACTORS
330
15F7B
102
}
330
15F7B
100
AcDbXrecord
 10
0.0
 20
0.0
 30
0.0
  0
XRECORD
  5
15F98
102
{ACAD_REACTORS
330
15F7B
102
}
330
15F7B
100
AcDbXrecord
 10
0.0
 20
0.0
 30
0.0
  0
XRECORD
  5
15F99
102
{ACAD_REACTORS
330
15F7B
102
}
330
15F7B
100
AcDbXrecord
 10
0.0
 20
0.0
 30
0.0
  0
XRECORD
  5
15F9A
102
{ACAD_REACTORS
330
15F7B
102
}
330
15F7B
100
AcDbXrecord
 10
0.0
 20
0.0
 30
0.0
  0
ENDSEC
  0
EOF
