  0
SECTION
  2
HEADER
  9
$ACADVER
  1
AC1014
  9
$ACADMAINTVER
 70
     9
  9
$DWGCODEPAGE
  3
ANSI_932
  9
$INSBASE
 10
0.0
 20
0.0
 30
0.0
  9
$EXTMIN
 10
-1720.476739558065
 20
1654.606599097105
 30
0.0
  9
$EXTMAX
 10
-1539.00001
 20
1848.618490209118
 30
0.0
  9
$LIMMIN
 10
0.0
 20
0.0
  9
$LIMMAX
 10
420.0
 20
297.0
  9
$ORTHOMODE
 70
     0
  9
$REGENMODE
 70
     1
  9
$FILLMODE
 70
     1
  9
$QTEXTMODE
 70
     0
  9
$MIRRTEXT
 70
     1
  9
$DRAGMODE
 70
     2
  9
$LTSCALE
 40
1.0
  9
$OSMODE
 70
    37
  9
$ATTMODE
 70
     1
  9
$TEXTSIZE
 40
2.5
  9
$TRACEWID
 40
1.0
  9
$TEXTSTYLE
  7
ゴシック体
  9
$CLAYER
  8
ZISSEN1
  9
$CELTYPE
  6
BYLAYER
  9
$CECOLOR
 62
   256
  9
$CELTSCALE
 40
1.0
  9
$DELOBJ
 70
     1
  9
$DISPSILH
 70
     0
  9
$DIMSCALE
 40
0.0
  9
$DIMASZ
 40
3.0
  9
$DIMEXO
 40
0.5
  9
$DIMDLI
 40
0.5
  9
$DIMRND
 40
0.0
  9
$DIMDLE
 40
0.0
  9
$DIMEXE
 40
0.5
  9
$DIMTP
 40
0.0
  9
$DIMTM
 40
0.0
  9
$DIMTXT
 40
3.5
  9
$DIMCEN
 40
0.0
  9
$DIMTSZ
 40
0.0
  9
$DIMTOL
 70
     0
  9
$DIMLIM
 70
     0
  9
$DIMTIH
 70
     0
  9
$DIMTOH
 70
     0
  9
$DIMSE1
 70
     0
  9
$DIMSE2
 70
     0
  9
$DIMTAD
 70
     1
  9
$DIMZIN
 70
     8
  9
$DIMBLK
  1

  9
$DIMASO
 70
     1
  9
$DIMSHO
 70
     1
  9
$DIMPOST
  1

  9
$DIMAPOST
  1

  9
$DIMALT
 70
     0
  9
$DIMALTD
 70
     2
  9
$DIMALTF
 40
25.4
  9
$DIMLFAC
 40
1.0
  9
$DIMTOFL
 70
     1
  9
$DIMTVP
 40
0.0
  9
$DIMTIX
 70
     0
  9
$DIMSOXD
 70
     0
  9
$DIMSAH
 70
     0
  9
$DIMBLK1
  1

  9
$DIMBLK2
  1

  9
$DIMSTYLE
  2
標準スタイル
  9
$DIMCLRD
 70
     1
  9
$DIMCLRE
 70
     1
  9
$DIMCLRT
 70
     1
  9
$DIMTFAC
 40
1.0
  9
$DIMGAP
 40
1.0
  9
$DIMJUST
 70
     0
  9
$DIMSD1
 70
     0
  9
$DIMSD2
 70
     0
  9
$DIMTOLJ
 70
     1
  9
$DIMTZIN
 70
     8
  9
$DIMALTZ
 70
     0
  9
$DIMALTTZ
 70
     0
  9
$DIMFIT
 70
     3
  9
$DIMUPT
 70
     0
  9
$DIMUNIT
 70
     2
  9
$DIMDEC
 70
     2
  9
$DIMTDEC
 70
     2
  9
$DIMALTU
 70
     2
  9
$DIMALTTD
 70
     2
  9
$DIMTXSTY
  7
ゴシック体
  9
$DIMAUNIT
 70
     0
  9
$LUNITS
 70
     2
  9
$LUPREC
 70
     4
  9
$SKETCHINC
 40
1.0
  9
$FILLETRAD
 40
1.75
  9
$AUNITS
 70
     0
  9
$AUPREC
 70
     0
  9
$MENU
  1
.
  9
$ELEVATION
 40
0.0
  9
$PELEVATION
 40
0.0
  9
$THICKNESS
 40
0.0
  9
$LIMCHECK
 70
     0
  9
$BLIPMODE
 70
     0
  9
$CHAMFERA
 40
1.0
  9
$CHAMFERB
 40
1.0
  9
$CHAMFERC
 40
2.0
  9
$CHAMFERD
 40
0.7853981633974483
  9
$SKPOLY
 70
     0
  9
$TDCREATE
 40
2450495.493631365
  9
$TDUPDATE
 40
2454572.445863020
  9
$TDINDWG
 40
1.5681988194
  9
$TDUSRTIMER
 40
1.5681985880
  9
$USRTIMER
 70
     1
  9
$ANGBASE
 50
0.0
  9
$ANGDIR
 70
     0
  9
$PDMODE
 70
    99
  9
$PDSIZE
 40
0.0
  9
$PLINEWID
 40
0.0
  9
$COORDS
 70
     1
  9
$SPLFRAME
 70
     0
  9
$SPLINETYPE
 70
     6
  9
$SPLINESEGS
 70
     8
  9
$ATTDIA
 70
     0
  9
$ATTREQ
 70
     1
  9
$HANDLING
 70
 10241
  9
$HANDSEED
  5
1178F
  9
$SURFTAB1
 70
     6
  9
$SURFTAB2
 70
     6
  9
$SURFTYPE
 70
     6
  9
$SURFU
 70
     6
  9
$SURFV
 70
     6
  9
$UCSNAME
  2

  9
$UCSORG
 10
0.0
 20
0.0
 30
0.0
  9
$UCSXDIR
 10
1.0
 20
0.0
 30
0.0
  9
$UCSYDIR
 10
0.0
 20
1.0
 30
0.0
  9
$PUCSNAME
  2

  9
$PUCSORG
 10
0.0
 20
0.0
 30
0.0
  9
$PUCSXDIR
 10
1.0
 20
0.0
 30
0.0
  9
$PUCSYDIR
 10
0.0
 20
1.0
 30
0.0
  9
$USERI1
 70
     0
  9
$USERI2
 70
     0
  9
$USERI3
 70
     0
  9
$USERI4
 70
     0
  9
$USERI5
 70
     0
  9
$USERR1
 40
0.0
  9
$USERR2
 40
0.0
  9
$USERR3
 40
0.0
  9
$USERR4
 40
0.0
  9
$USERR5
 40
0.0
  9
$WORLDVIEW
 70
     1
  9
$SHADEDGE
 70
     3
  9
$SHADEDIF
 70
    70
  9
$TILEMODE
 70
     0
  9
$MAXACTVP
 70
    16
  9
$PINSBASE
 10
0.0
 20
0.0
 30
0.0
  9
$PLIMCHECK
 70
     0
  9
$PEXTMIN
 10
29.03619555254121
 20
27.69602733303884
 30
0.0
  9
$PEXTMAX
 10
414.5361955525409
 20
287.6960273330388
 30
0.0
  9
$PLIMMIN
 10
11.82274578877245
 20
9.194395876242088
  9
$PLIMMAX
 10
431.76940106221
 20
306.2050465110077
  9
$UNITMODE
 70
     0
  9
$VISRETAIN
 70
     0
  9
$PLINEGEN
 70
     0
  9
$PSLTSCALE
 70
     1
  9
$TREEDEPTH
 70
  3020
  9
$PICKSTYLE
 70
     1
  9
$CMLSTYLE
  2
STANDARD
  9
$CMLJUST
 70
     0
  9
$CMLSCALE
 40
1.0
  9
$PROXYGRAPHICS
 70
     1
  9
$MEASUREMENT
 70
     1
  0
ENDSEC
  0
SECTION
  2
CLASSES
  0
CLASS
  1
LWPOLYLINE
  2
AcDbPolyline
  3
AutoCAD 2000
 90
        0
280
     0
281
     1
  0
CLASS
  1
HATCH
  2
AcDbHatch
  3
AutoCAD 2000
 90
        0
280
     0
281
     1
  0
CLASS
  1
ACDBDICTIONARYWDFLT
  2
AcDbDictionaryWithDefault
  3
AutoCAD 2000
 90
        0
280
     0
281
     0
  0
CLASS
  1
ACDBPLACEHOLDER
  2
AcDbPlaceHolder
  3
AutoCAD 2000
 90
        0
280
     0
281
     0
  0
CLASS
  1
LAYOUT
  2
AcDbLayout
  3
AutoCAD 2000
 90
        0
280
     0
281
     0
  0
CLASS
  1
DICTIONARYVAR
  2
AcDbDictionaryVar
  3
AutoCAD 2000
 90
        0
280
     0
281
     0
  0
CLASS
  1
LONG_TRANSACTION
  2
AcDbLongTransaction
  3
AutoCAD 2000
 90
        0
280
     0
281
     0
  0
CLASS
  1
LWPOLYLINE
  2
AcDbPolyline
  3
AutoCAD 2000
 90
        0
280
     0
281
     1
  0
CLASS
  1
HATCH
  2
AcDbHatch
  3
AutoCAD 2000
 90
        0
280
     0
281
     1
  0
CLASS
  1
XRECORD
  2
AcDbXrecord
  3
AutoCAD 2000
 90
        0
280
     0
281
     0
  0
CLASS
  1
LONG_TRANSACTION
  2
AcDbLongTransaction
  3
AutoCAD 2000
 90
        0
280
     0
281
     0
  0
CLASS
  1
LWPOLYLINE
  2
AcDbPolyline
  3
AutoCAD 2000
 90
        0
280
     0
281
     1
  0
CLASS
  1
HATCH
  2
AcDbHatch
  3
AutoCAD 2000
 90
        0
280
     0
281
     1
  0
CLASS
  1
XRECORD
  2
AcDbXrecord
  3
AutoCAD 2000
 90
        0
280
     0
281
     0
  0
ENDSEC
  0
SECTION
  2
TABLES
  0
TABLE
  2
VPORT
  5
8
330
0
100
AcDbSymbolTable
 70
     2
  0
VPORT
  5
1176C
330
8
100
AcDbSymbolTableRecord
100
AcDbViewportTableRecord
  2
*ACTIVE
 70
     0
 10
0.0
 20
0.0
 11
1.0
 21
1.0
 12
-1576.720012422644
 22
1756.45676252641
 13
0.0
 23
0.0
 14
5.0
 24
5.0
 15
0.0
 25
0.0
 16
0.0
 26
0.0
 36
1.0
 17
0.0
 27
0.0
 37
0.0
 40
233.3325135087725
 41
2.173535791757049
 42
50.0
 43
0.0
 44
0.0
 50
0.0
 51
0.0
 71
     0
 72
   100
 73
     1
 74
     0
 75
     0
 76
     0
 77
     0
 78
     0
  0
ENDTAB
  0
TABLE
  2
LTYPE
  5
5
330
0
100
AcDbSymbolTable
 70
     2
  0
LTYPE
  5
14
330
5
100
AcDbSymbolTableRecord
100
AcDbLinetypeTableRecord
  2
BYBLOCK
 70
     0
  3

 72
    65
 73
     0
 40
0.0
  0
LTYPE
  5
15
330
5
100
AcDbSymbolTableRecord
100
AcDbLinetypeTableRecord
  2
BYLAYER
 70
     0
  3

 72
    65
 73
     0
 40
0.0
  0
LTYPE
  5
16
330
5
100
AcDbSymbolTableRecord
100
AcDbLinetypeTableRecord
  2
CONTINUOUS
 70
     0
  3
Solid line
 72
    65
 73
     0
 40
0.0
  0
LTYPE
  5
1956
330
5
100
AcDbSymbolTableRecord
100
AcDbLinetypeTableRecord
  2
CENTERX2
 70
     0
  3
________  __  ________  __  ________  __  _____
 72
    65
 73
     4
 40
4.0
 49
2.5
 74
     0
 49
-0.5
 74
     0
 49
0.5
 74
     0
 49
-0.5
 74
     0
  0
ENDTAB
  0
TABLE
  2
LAYER
  5
2
330
0
100
AcDbSymbolTable
 70
     5
  0
LAYER
  5
F
330
2
100
AcDbSymbolTableRecord
100
AcDbLayerTableRecord
  2
0
 70
     0
 62
     7
  6
CONTINUOUS
  0
LAYER
  5
18F
330
2
100
AcDbSymbolTableRecord
100
AcDbLayerTableRecord
  2
ZISSEN1
 70
     0
 62
     7
  6
CONTINUOUS
  0
LAYER
  5
529
330
2
100
AcDbSymbolTableRecord
100
AcDbLayerTableRecord
  2
SUNPOU
 70
     0
 62
     1
  6
CONTINUOUS
  0
LAYER
  5
195A
330
2
100
AcDbSymbolTableRecord
100
AcDbLayerTableRecord
  2
CL1
 70
     0
 62
   210
  6
CENTERX2
  0
LAYER
  5
3A9B
330
2
100
AcDbSymbolTableRecord
100
AcDbLayerTableRecord
  2
DEFPOINTS
 70
     0
 62
     7
  6
CONTINUOUS
  0
ENDTAB
  0
TABLE
  2
STYLE
  5
3
330
0
100
AcDbSymbolTable
 70
     2
  0
STYLE
  5
10
330
3
100
AcDbSymbolTableRecord
100
AcDbTextStyleTableRecord
  2
STANDARD
 70
     0
 40
0.0
 41
1.0
 50
0.0
 71
     0
 42
3.0
  3
txt
  4
BigFont
  0
STYLE
  5
1960
330
3
100
AcDbSymbolTableRecord
100
AcDbTextStyleTableRecord
  2
ゴシック体
 70
     0
 40
0.0
 41
1.0
 50
0.0
 71
     0
 42
2.5
  3
MS Gothic.ttf
  4

1001
ACAD
1000
MS Gothic
1071
    32817
  0
ENDTAB
  0
TABLE
  2
VIEW
  5
6
330
0
100
AcDbSymbolTable
 70
     0
  0
ENDTAB
  0
TABLE
  2
UCS
  5
7
330
0
100
AcDbSymbolTable
 70
     0
  0
ENDTAB
  0
TABLE
  2
APPID
  5
9
330
0
100
AcDbSymbolTable
 70
     5
  0
APPID
  5
11
330
9
100
AcDbSymbolTableRecord
100
AcDbRegAppTableRecord
  2
ACAD
 70
     0
  0
APPID
  5
4005
330
9
100
AcDbSymbolTableRecord
100
AcDbRegAppTableRecord
  2
CONTENTTABDATA
 70
     0
  0
APPID
  5
4006
330
9
100
AcDbSymbolTableRecord
100
AcDbRegAppTableRecord
  2
CONTENTCURRENTTAB
 70
     0
  0
APPID
  5
477B
330
9
100
AcDbSymbolTableRecord
100
AcDbRegAppTableRecord
  2
CONTENTBLOCKDESCRIPTION
 70
     0
  0
APPID
  5
477C
330
9
100
AcDbSymbolTableRecord
100
AcDbRegAppTableRecord
  2
CONTENTBLOCKICON
 70
     0
  0
ENDTAB
  0
TABLE
  2
DIMSTYLE
  5
A
330
0
100
AcDbSymbolTable
 70
     2
  0
DIMSTYLE
105
1D
330
A
100
AcDbSymbolTableRecord
100
AcDbDimStyleTableRecord
  2
STANDARD
 70
     0
  3

  4

  5

  6

  7

 40
1.0
 41
0.18
 42
0.0625
 43
0.38
 44
0.18
 45
0.0
 46
0.0
 47
0.0
 48
0.0
140
0.18
141
0.09
142
0.0
143
25.4
144
1.0
145
0.0
146
1.0
147
0.09
 71
     0
 72
     0
 73
     1
 74
     1
 75
     0
 76
     0
 77
     0
 78
     0
170
     0
171
     2
172
     0
173
     0
174
     0
175
     0
176
     0
177
     0
178
     0
270
     2
271
     4
272
     4
273
     2
274
     2
340
10
275
     0
280
     0
281
     0
282
     0
283
     1
284
     0
285
     0
286
     0
287
     3
288
     0
  0
DIMSTYLE
105
52E
102
{ACAD_REACTORS
330
11384
330
1139E
330
113AD
330
113C7
330
113EF
330
113FE
330
11418
330
11425
330
11434
330
11457
330
11391
330
113BA
102
}
330
A
100
AcDbSymbolTableRecord
100
AcDbDimStyleTableRecord
  2
標準スタイル
 70
     0
  3

  4

  5

  6

  7

 40
0.0
 41
3.0
 42
0.5
 43
0.5
 44
0.5
 45
0.0
 46
0.0
 47
0.0
 48
0.0
140
3.5
141
0.0
142
0.0
143
25.4
144
1.0
145
0.0
146
1.0
147
1.0
 71
     0
 72
     0
 73
     0
 74
     0
 75
     0
 76
     0
 77
     1
 78
     8
170
     0
171
     2
172
     1
173
     0
174
     0
175
     0
176
     1
177
     1
178
     1
270
     2
271
     2
272
     2
273
     2
274
     2
340
1960
275
     0
280
     0
281
     0
282
     0
283
     1
284
     8
285
     0
286
     0
287
     3
288
     0
  0
ENDTAB
  0
TABLE
  2
BLOCK_RECORD
  5
1
330
0
100
AcDbSymbolTable
 70
    12
  0
BLOCK_RECORD
  5
1A
102
{ACAD_XDICTIONARY
360
114A3
102
}
330
1
100
AcDbSymbolTableRecord
100
AcDbBlockTableRecord
  2
*MODEL_SPACE
  0
BLOCK_RECORD
  5
5D8E
102
{ACAD_XDICTIONARY
360
114A5
102
}
330
1
100
AcDbSymbolTableRecord
100
AcDbBlockTableRecord
  2
*PAPER_SPACE
  0
BLOCK_RECORD
  5
11385
330
1
100
AcDbSymbolTableRecord
100
AcDbBlockTableRecord
  2
*D0
  0
BLOCK_RECORD
  5
11392
330
1
100
AcDbSymbolTableRecord
100
AcDbBlockTableRecord
  2
*D1
  0
BLOCK_RECORD
  5
1139F
330
1
100
AcDbSymbolTableRecord
100
AcDbBlockTableRecord
  2
*D2
  0
BLOCK_RECORD
  5
113AE
330
1
100
AcDbSymbolTableRecord
100
AcDbBlockTableRecord
  2
*D3
  0
BLOCK_RECORD
  5
113BB
330
1
100
AcDbSymbolTableRecord
100
AcDbBlockTableRecord
  2
*D4
  0
BLOCK_RECORD
  5
113C8
330
1
100
AcDbSymbolTableRecord
100
AcDbBlockTableRecord
  2
*D5
  0
BLOCK_RECORD
  5
113F0
330
1
100
AcDbSymbolTableRecord
100
AcDbBlockTableRecord
  2
*D6
  0
BLOCK_RECORD
  5
113FF
330
1
100
AcDbSymbolTableRecord
100
AcDbBlockTableRecord
  2
*D7
  0
BLOCK_RECORD
  5
11419
330
1
100
AcDbSymbolTableRecord
100
AcDbBlockTableRecord
  2
*D8
  0
BLOCK_RECORD
  5
11426
330
1
100
AcDbSymbolTableRecord
100
AcDbBlockTableRecord
  2
*D9
  0
BLOCK_RECORD
  5
11435
330
1
100
AcDbSymbolTableRecord
100
AcDbBlockTableRecord
  2
*D10
  0
BLOCK_RECORD
  5
11458
330
1
100
AcDbSymbolTableRecord
100
AcDbBlockTableRecord
  2
*D11
  0
ENDTAB
  0
ENDSEC
  0
SECTION
  2
BLOCKS
  0
BLOCK
  5
1B
330
1A
100
AcDbEntity
  8
0
100
AcDbBlockBegin
  2
*MODEL_SPACE
 70
     0
 10
0.0
 20
0.0
 30
0.0
  3
*MODEL_SPACE
  1

  0
ENDBLK
  5
1C
330
1A
100
AcDbEntity
  8
0
100
AcDbBlockEnd
  0
BLOCK
  5
5E60
330
5D8E
100
AcDbEntity
 67
     1
  8
0
100
AcDbBlockBegin
  2
*PAPER_SPACE
 70
     0
 10
0.0
 20
0.0
 30
0.0
  3
*PAPER_SPACE
  1

  0
ENDBLK
  5
5E61
330
5D8E
100
AcDbEntity
 67
     1
  8
0
100
AcDbBlockEnd
  0
BLOCK
  5
1138F
330
11385
100
AcDbEntity
  8
0
100
AcDbBlockBegin
  2
*D0
 70
     1
 10
0.0
 20
0.0
 30
0.0
  3
*D0
  1

  0
LINE
  5
116C7
330
11385
100
AcDbEntity
  8
SUNPOU
 62
     1
100
AcDbLine
 10
-1703.5
 20
1831.0
 30
0.0
 11
-1716.476739558065
 21
1831.0
 31
0.0
  0
LINE
  5
116C8
330
11385
100
AcDbEntity
  8
SUNPOU
 62
     1
100
AcDbLine
 10
-1703.5
 20
1750.0
 30
0.0
 11
-1716.476739558065
 21
1750.0
 31
0.0
  0
LINE
  5
116C9
330
11385
100
AcDbEntity
  8
SUNPOU
 62
     1
100
AcDbLine
 10
-1715.976739558065
 20
1828.0
 30
0.0
 11
-1715.976739558065
 21
1753.0
 31
0.0
  0
SOLID
  5
116CA
330
11385
100
AcDbEntity
  8
SUNPOU
 62
     1
100
AcDbTrace
 10
-1716.476739558065
 20
1828.0
 30
0.0
 11
-1715.476739558065
 21
1828.0
 31
0.0
 12
-1715.976739558065
 22
1831.0
 32
0.0
 13
-1715.976739558065
 23
1831.0
 33
0.0
  0
SOLID
  5
116CB
330
11385
100
AcDbEntity
  8
SUNPOU
 62
     1
100
AcDbTrace
 10
-1716.476739558065
 20
1753.0
 30
0.0
 11
-1715.476739558065
 21
1753.0
 31
0.0
 12
-1715.976739558065
 22
1750.0
 32
0.0
 13
-1715.976739558065
 23
1750.0
 33
0.0
  0
MTEXT
  5
116CC
330
11385
100
AcDbEntity
  8
SUNPOU
 62
     1
100
AcDbMText
 10
-1718.726739558065
 20
1790.499999999999
 30
0.0
 40
3.5
 41
0.0
 71
     5
 72
     1
  1
\A1;81
 11
0.0000000000000001
 21
1.0
 31
0.0
1001
ACAD
1000
MTEXTBEGIN
1070
    73
1070
     1
1070
    44
1040
1.0
1070
    74
1070
     0
1000
MTEXTEND
  0
POINT
  5
116CD
330
11385
100
AcDbEntity
  8
DEFPOINTS
 62
     0
100
AcDbPoint
 10
-1703.0
 20
1831.0
 30
0.0
  0
POINT
  5
116CE
330
11385
100
AcDbEntity
  8
DEFPOINTS
 62
     0
100
AcDbPoint
 10
-1703.0
 20
1750.0
 30
0.0
  0
POINT
  5
116CF
330
11385
100
AcDbEntity
  8
DEFPOINTS
 62
     0
100
AcDbPoint
 10
-1715.976739558065
 20
1750.0
 30
0.0
  0
ENDBLK
  5
11390
330
11385
100
AcDbEntity
  8
0
100
AcDbBlockEnd
  0
BLOCK
  5
1139C
330
11392
100
AcDbEntity
  8
0
100
AcDbBlockBegin
  2
*D1
 70
     1
 10
0.0
 20
0.0
 30
0.0
  3
*D1
  1

  0
LINE
  5
116D0
330
11392
100
AcDbEntity
  8
SUNPOU
 62
     1
100
AcDbLine
 10
-1637.5
 20
1824.5
 30
0.0
 11
-1623.373658491046
 21
1824.5
 31
0.0
  0
LINE
  5
116D1
330
11392
100
AcDbEntity
  8
SUNPOU
 62
     1
100
AcDbLine
 10
-1637.499999685059
 20
1756.500793650543
 30
0.0
 11
-1623.373658491046
 21
1756.500793650543
 31
0.0
  0
LINE
  5
116D2
330
11392
100
AcDbEntity
  8
SUNPOU
 62
     1
100
AcDbLine
 10
-1623.873658491046
 20
1821.5
 30
0.0
 11
-1623.873658491046
 21
1759.500793650544
 31
0.0
  0
SOLID
  5
116D3
330
11392
100
AcDbEntity
  8
SUNPOU
 62
     1
100
AcDbTrace
 10
-1624.373658491046
 20
1821.5
 30
0.0
 11
-1623.373658491046
 21
1821.5
 31
0.0
 12
-1623.873658491046
 22
1824.5
 32
0.0
 13
-1623.873658491046
 23
1824.5
 33
0.0
  0
SOLID
  5
116D4
330
11392
100
AcDbEntity
  8
SUNPOU
 62
     1
100
AcDbTrace
 10
-1624.373658491046
 20
1759.500793650544
 30
0.0
 11
-1623.373658491046
 21
1759.500793650544
 31
0.0
 12
-1623.873658491046
 22
1756.500793650543
 32
0.0
 13
-1623.873658491046
 23
1756.500793650543
 33
0.0
  0
MTEXT
  5
116D5
330
11392
100
AcDbEntity
  8
SUNPOU
 62
     1
100
AcDbMText
 10
-1626.623658491046
 20
1790.500396825271
 30
0.0
 40
3.5
 41
0.0
 71
     5
 72
     1
  1
\A1;68
 11
0.0000000000000001
 21
1.0
 31
0.0
1001
ACAD
1000
MTEXTBEGIN
1070
    73
1070
     1
1070
    44
1040
1.0
1070
    74
1070
     0
1000
MTEXTEND
  0
POINT
  5
116D6
330
11392
100
AcDbEntity
  8
DEFPOINTS
 62
     0
100
AcDbPoint
 10
-1638.0
 20
1824.5
 30
0.0
  0
POINT
  5
116D7
330
11392
100
AcDbEntity
  8
DEFPOINTS
 62
     0
100
AcDbPoint
 10
-1637.999999685059
 20
1756.500793650543
 30
0.0
  0
POINT
  5
116D8
330
11392
100
AcDbEntity
  8
DEFPOINTS
 62
     0
100
AcDbPoint
 10
-1623.873658491046
 20
1756.500793650543
 30
0.0
  0
ENDBLK
  5
1139D
330
11392
100
AcDbEntity
  8
0
100
AcDbBlockEnd
  0
BLOCK
  5
113AB
330
1139F
100
AcDbEntity
  8
0
100
AcDbBlockBegin
  2
*D2
 70
     1
 10
0.0
 20
0.0
 30
0.0
  3
*D2
  1

  0
LINE
  5
116BC
330
1139F
100
AcDbEntity
  8
SUNPOU
 62
     1
100
AcDbLine
 10
-1703.0
 20
1700.499999999999
 30
0.0
 11
-1703.0
 21
1711.981688165393
 31
0.0
  0
LINE
  5
116BD
330
1139F
100
AcDbEntity
  8
SUNPOU
 62
     1
100
AcDbLine
 10
-1699.999999999999
 20
1700.499999999999
 30
0.0
 11
-1699.999999999999
 21
1711.981688165393
 31
0.0
  0
LINE
  5
116BE
330
1139F
100
AcDbEntity
  8
SUNPOU
 62
     1
100
AcDbLine
 10
-1706.0
 20
1711.481688165393
 30
0.0
 11
-1709.0
 21
1711.481688165393
 31
0.0
  0
LINE
  5
116BF
330
1139F
100
AcDbEntity
  8
SUNPOU
 62
     1
100
AcDbLine
 10
-1696.999999999999
 20
1711.481688165393
 30
0.0
 11
-1689.666666666665
 21
1711.481688165393
 31
0.0
  0
LINE
  5
116C0
330
1139F
100
AcDbEntity
  8
SUNPOU
 62
     1
100
AcDbLine
 10
-1703.0
 20
1711.481688165393
 30
0.0
 11
-1699.999999999999
 21
1711.481688165393
 31
0.0
  0
SOLID
  5
116C1
330
1139F
100
AcDbEntity
  8
SUNPOU
 62
     1
100
AcDbTrace
 10
-1706.0
 20
1711.981688165393
 30
0.0
 11
-1706.0
 21
1710.981688165393
 31
0.0
 12
-1703.0
 22
1711.481688165393
 32
0.0
 13
-1703.0
 23
1711.481688165393
 33
0.0
  0
SOLID
  5
116C2
330
1139F
100
AcDbEntity
  8
SUNPOU
 62
     1
100
AcDbTrace
 10
-1696.999999999999
 20
1711.981688165393
 30
0.0
 11
-1696.999999999999
 21
1710.981688165393
 31
0.0
 12
-1699.999999999999
 22
1711.481688165393
 32
0.0
 13
-1699.999999999999
 23
1711.481688165393
 33
0.0
  0
MTEXT
  5
116C3
330
1139F
100
AcDbEntity
  8
SUNPOU
 62
     1
100
AcDbMText
 10
-1691.833333333332
 20
1714.231688165392
 30
0.0
 40
3.5
 41
0.0
 71
     5
 72
     1
  1
\A1;3
1001
ACAD
1000
MTEXTBEGIN
1070
    73
1070
     1
1070
    44
1040
1.0
1070
    74
1070
     0
1000
MTEXTEND
  0
POINT
  5
116C4
330
1139F
100
AcDbEntity
  8
DEFPOINTS
 62
     0
100
AcDbPoint
 10
-1703.0
 20
1700.0
 30
0.0
  0
POINT
  5
116C5
330
1139F
100
AcDbEntity
  8
DEFPOINTS
 62
     0
100
AcDbPoint
 10
-1699.999999999999
 20
1700.0
 30
0.0
  0
POINT
  5
116C6
330
1139F
100
AcDbEntity
  8
DEFPOINTS
 62
     0
100
AcDbPoint
 10
-1699.999999999999
 20
1711.481688165393
 30
0.0
  0
ENDBLK
  5
113AC
330
1139F
100
AcDbEntity
  8
0
100
AcDbBlockEnd
  0
BLOCK
  5
113B8
330
113AE
100
AcDbEntity
  8
0
100
AcDbBlockBegin
  2
*D3
 70
     1
 10
0.0
 20
0.0
 30
0.0
  3
*D3
  1

  0
LINE
  5
11717
330
113AE
100
AcDbEntity
  8
SUNPOU
 62
     1
100
AcDbLine
 10
-1703.0
 20
1666.25
 30
0.0
 11
-1703.0
 21
1654.606599097105
 31
0.0
  0
LINE
  5
11718
330
113AE
100
AcDbEntity
  8
SUNPOU
 62
     1
100
AcDbLine
 10
-1637.0
 20
1664.5
 30
0.0
 11
-1637.0
 21
1654.606599097105
 31
0.0
  0
LINE
  5
11719
330
113AE
100
AcDbEntity
  8
SUNPOU
 62
     1
100
AcDbLine
 10
-1700.0
 20
1655.106599097105
 30
0.0
 11
-1640.0
 21
1655.106599097105
 31
0.0
  0
SOLID
  5
1171A
330
113AE
100
AcDbEntity
  8
SUNPOU
 62
     1
100
AcDbTrace
 10
-1700.0
 20
1655.606599097105
 30
0.0
 11
-1700.0
 21
1654.606599097105
 31
0.0
 12
-1703.0
 22
1655.106599097105
 32
0.0
 13
-1703.0
 23
1655.106599097105
 33
0.0
  0
SOLID
  5
1171B
330
113AE
100
AcDbEntity
  8
SUNPOU
 62
     1
100
AcDbTrace
 10
-1640.0
 20
1655.606599097105
 30
0.0
 11
-1640.0
 21
1654.606599097105
 31
0.0
 12
-1637.0
 22
1655.106599097105
 32
0.0
 13
-1637.0
 23
1655.106599097105
 33
0.0
  0
MTEXT
  5
1171C
330
113AE
100
AcDbEntity
  8
SUNPOU
 62
     1
100
AcDbMText
 10
-1670.0
 20
1657.856599097105
 30
0.0
 40
3.5
 41
0.0
 71
     5
 72
     1
  1
\A1;66
1001
ACAD
1000
MTEXTBEGIN
1070
    73
1070
     1
1070
    44
1040
1.0
1070
    74
1070
     0
1000
MTEXTEND
  0
POINT
  5
1171D
330
113AE
100
AcDbEntity
  8
DEFPOINTS
 62
     0
100
AcDbPoint
 10
-1703.0
 20
1666.75
 30
0.0
  0
POINT
  5
1171E
330
113AE
100
AcDbEntity
  8
DEFPOINTS
 62
     0
100
AcDbPoint
 10
-1637.0
 20
1665.0
 30
0.0
  0
POINT
  5
1171F
330
113AE
100
AcDbEntity
  8
DEFPOINTS
 62
     0
100
AcDbPoint
 10
-1637.0
 20
1655.106599097105
 30
0.0
  0
ENDBLK
  5
113B9
330
113AE
100
AcDbEntity
  8
0
100
AcDbBlockEnd
  0
BLOCK
  5
113C5
330
113BB
100
AcDbEntity
  8
0
100
AcDbBlockBegin
  2
*D4
 70
     1
 10
0.0
 20
0.0
 30
0.0
  3
*D4
  1

  0
LINE
  5
116A1
330
113BB
100
AcDbEntity
  8
SUNPOU
 62
     1
100
AcDbLine
 10
-1636.499959999999
 20
1689.10001
 30
0.0
 11
-1611.017890201426
 21
1689.10001
 31
0.0
  0
LINE
  5
116A2
330
113BB
100
AcDbEntity
  8
SUNPOU
 62
     1
100
AcDbLine
 10
-1636.5
 20
1665.0
 30
0.0
 11
-1611.017890201426
 21
1665.0
 31
0.0
  0
LINE
  5
116A3
330
113BB
100
AcDbEntity
  8
SUNPOU
 62
     1
100
AcDbLine
 10
-1611.517890201426
 20
1686.10001
 30
0.0
 11
-1611.517890201426
 21
1668.0
 31
0.0
  0
SOLID
  5
116A4
330
113BB
100
AcDbEntity
  8
SUNPOU
 62
     1
100
AcDbTrace
 10
-1612.017890201426
 20
1686.10001
 30
0.0
 11
-1611.017890201426
 21
1686.10001
 31
0.0
 12
-1611.517890201426
 22
1689.10001
 32
0.0
 13
-1611.517890201426
 23
1689.10001
 33
0.0
  0
SOLID
  5
116A5
330
113BB
100
AcDbEntity
  8
SUNPOU
 62
     1
100
AcDbTrace
 10
-1612.017890201426
 20
1668.0
 30
0.0
 11
-1611.017890201426
 21
1668.0
 31
0.0
 12
-1611.517890201426
 22
1665.0
 32
0.0
 13
-1611.517890201426
 23
1665.0
 33
0.0
  0
MTEXT
  5
116A6
330
113BB
100
AcDbEntity
  8
SUNPOU
 62
     1
100
AcDbMText
 10
-1614.267890201427
 20
1677.008412381432
 30
0.0
 40
3.5
 41
0.0
 71
     5
 72
     1
  1
\A1;(24.1)
 11
0.0000000000000001
 21
1.0
 31
0.0
1001
ACAD
1000
MTEXTBEGIN
1070
    73
1070
     1
1070
    44
1040
1.0
1070
    74
1070
     0
1000
MTEXTEND
  0
POINT
  5
116A7
330
113BB
100
AcDbEntity
  8
DEFPOINTS
 62
     0
100
AcDbPoint
 10
-1636.999959999999
 20
1689.10001
 30
0.0
  0
POINT
  5
116A8
330
113BB
100
AcDbEntity
  8
DEFPOINTS
 62
     0
100
AcDbPoint
 10
-1637.0
 20
1665.0
 30
0.0
  0
POINT
  5
116A9
330
113BB
100
AcDbEntity
  8
DEFPOINTS
 62
     0
100
AcDbPoint
 10
-1611.517890201426
 20
1665.0
 30
0.0
  0
ENDBLK
  5
113C6
330
113BB
100
AcDbEntity
  8
0
100
AcDbBlockEnd
  0
BLOCK
  5
113D2
330
113C8
100
AcDbEntity
  8
0
100
AcDbBlockBegin
  2
*D5
 70
     1
 10
0.0
 20
0.0
 30
0.0
  3
*D5
  1

  0
LINE
  5
11720
330
113C8
100
AcDbEntity
  8
SUNPOU
 62
     1
100
AcDbLine
 10
-1654.999969999999
 20
1684.099999999999
 30
0.0
 11
-1622.873658491046
 21
1684.099999999999
 31
0.0
  0
LINE
  5
11721
330
113C8
100
AcDbEntity
  8
SUNPOU
 62
     1
100
AcDbLine
 10
-1636.5
 20
1665.0
 30
0.0
 11
-1622.873658491046
 21
1665.0
 31
0.0
  0
LINE
  5
11722
330
113C8
100
AcDbEntity
  8
SUNPOU
 62
     1
100
AcDbLine
 10
-1623.373658491046
 20
1681.099999999998
 30
0.0
 11
-1623.373658491046
 21
1668.0
 31
0.0
  0
SOLID
  5
11723
330
113C8
100
AcDbEntity
  8
SUNPOU
 62
     1
100
AcDbTrace
 10
-1623.873658491046
 20
1681.099999999998
 30
0.0
 11
-1622.873658491046
 21
1681.099999999998
 31
0.0
 12
-1623.373658491046
 22
1684.099999999999
 32
0.0
 13
-1623.373658491046
 23
1684.099999999999
 33
0.0
  0
SOLID
  5
11724
330
113C8
100
AcDbEntity
  8
SUNPOU
 62
     1
100
AcDbTrace
 10
-1623.873658491046
 20
1668.0
 30
0.0
 11
-1622.873658491046
 21
1668.0
 31
0.0
 12
-1623.373658491046
 22
1665.0
 32
0.0
 13
-1623.373658491046
 23
1665.0
 33
0.0
  0
MTEXT
  5
11725
330
113C8
100
AcDbEntity
  8
SUNPOU
 62
     1
100
AcDbMText
 10
-1626.123658491046
 20
1674.549999999999
 30
0.0
 40
3.5
 41
0.0
 71
     5
 72
     1
  1
\A1;(19.1)
 11
0.0000000000000001
 21
1.0
 31
0.0
1001
ACAD
1000
MTEXTBEGIN
1070
    73
1070
     1
1070
    44
1040
1.0
1070
    74
1070
     0
1000
MTEXTEND
  0
POINT
  5
11726
330
113C8
100
AcDbEntity
  8
DEFPOINTS
 62
     0
100
AcDbPoint
 10
-1655.499969999999
 20
1684.099999999999
 30
0.0
  0
POINT
  5
11727
330
113C8
100
AcDbEntity
  8
DEFPOINTS
 62
     0
100
AcDbPoint
 10
-1637.0
 20
1665.0
 30
0.0
  0
POINT
  5
11728
330
113C8
100
AcDbEntity
  8
DEFPOINTS
 62
     0
100
AcDbPoint
 10
-1623.373658491046
 20
1665.0
 30
0.0
  0
ENDBLK
  5
113D3
330
113C8
100
AcDbEntity
  8
0
100
AcDbBlockEnd
  0
BLOCK
  5
113FC
330
113F0
100
AcDbEntity
  8
0
100
AcDbBlockBegin
  2
*D6
 70
     1
 10
0.0
 20
0.0
 30
0.0
  3
*D6
  1

  0
LINE
  5
116ED
330
113F0
100
AcDbEntity
  8
SUNPOU
 62
     1
100
AcDbLine
 10
-1564.25001
 20
1831.5
 30
0.0
 11
-1564.25001
 21
1834.009398588475
 31
0.0
  0
LINE
  5
116EE
330
113F0
100
AcDbEntity
  8
SUNPOU
 62
     1
100
AcDbLine
 10
-1560.750019999999
 20
1831.5
 30
0.0
 11
-1560.750019999999
 21
1834.009398588475
 31
0.0
  0
LINE
  5
116EF
330
113F0
100
AcDbEntity
  8
SUNPOU
 62
     1
100
AcDbLine
 10
-1567.25001
 20
1833.509398588475
 30
0.0
 11
-1570.25001
 21
1833.509398588475
 31
0.0
  0
LINE
  5
116F0
330
113F0
100
AcDbEntity
  8
SUNPOU
 62
     1
100
AcDbLine
 10
-1557.750019999999
 20
1833.509398588475
 30
0.0
 11
-1545.750019999999
 21
1833.509398588475
 31
0.0
  0
LINE
  5
116F1
330
113F0
100
AcDbEntity
  8
SUNPOU
 62
     1
100
AcDbLine
 10
-1564.25001
 20
1833.509398588475
 30
0.0
 11
-1560.750019999999
 21
1833.509398588475
 31
0.0
  0
SOLID
  5
116F2
330
113F0
100
AcDbEntity
  8
SUNPOU
 62
     1
100
AcDbTrace
 10
-1567.25001
 20
1834.009398588475
 30
0.0
 11
-1567.25001
 21
1833.009398588475
 31
0.0
 12
-1564.25001
 22
1833.509398588475
 32
0.0
 13
-1564.25001
 23
1833.509398588475
 33
0.0
  0
SOLID
  5
116F3
330
113F0
100
AcDbEntity
  8
SUNPOU
 62
     1
100
AcDbTrace
 10
-1557.750019999999
 20
1834.009398588475
 30
0.0
 11
-1557.750019999999
 21
1833.009398588475
 31
0.0
 12
-1560.750019999999
 22
1833.509398588475
 32
0.0
 13
-1560.750019999999
 23
1833.509398588475
 33
0.0
  0
MTEXT
  5
116F4
330
113F0
100
AcDbEntity
  8
SUNPOU
 62
     1
100
AcDbMText
 10
-1550.250019999999
 20
1836.259398588475
 30
0.0
 40
3.5
 41
0.0
 71
     5
 72
     1
  1
\A1;3.5
1001
ACAD
1000
MTEXTBEGIN
1070
    73
1070
     1
1070
    44
1040
1.0
1070
    74
1070
     0
1000
MTEXTEND
  0
POINT
  5
116F5
330
113F0
100
AcDbEntity
  8
DEFPOINTS
 62
     0
100
AcDbPoint
 10
-1564.25001
 20
1831.0
 30
0.0
  0
POINT
  5
116F6
330
113F0
100
AcDbEntity
  8
DEFPOINTS
 62
     0
100
AcDbPoint
 10
-1560.750019999999
 20
1831.0
 30
0.0
  0
POINT
  5
116F7
330
113F0
100
AcDbEntity
  8
DEFPOINTS
 62
     0
100
AcDbPoint
 10
-1560.750019999999
 20
1833.509398588475
 30
0.0
  0
ENDBLK
  5
113FD
330
113F0
100
AcDbEntity
  8
0
100
AcDbBlockEnd
  0
BLOCK
  5
1140B
330
113FF
100
AcDbEntity
  8
0
100
AcDbBlockBegin
  2
*D7
 70
     1
 10
0.0
 20
0.0
 30
0.0
  3
*D7
  1

  0
LINE
  5
116E2
330
113FF
100
AcDbEntity
  8
SUNPOU
 62
     1
100
AcDbLine
 10
-1579.792889999999
 20
1831.0
 30
0.0
 11
-1589.889853881081
 21
1831.0
 31
0.0
  0
LINE
  5
116E3
330
113FF
100
AcDbEntity
  8
SUNPOU
 62
     1
100
AcDbLine
 10
-1568.00001
 20
1828.0
 30
0.0
 11
-1589.889853881081
 21
1828.0
 31
0.0
  0
LINE
  5
116E4
330
113FF
100
AcDbEntity
  8
SUNPOU
 62
     1
100
AcDbLine
 10
-1589.389853881082
 20
1834.0
 30
0.0
 11
-1589.389853881082
 21
1837.0
 31
0.0
  0
LINE
  5
116E5
330
113FF
100
AcDbEntity
  8
SUNPOU
 62
     1
100
AcDbLine
 10
-1589.389853881082
 20
1825.0
 30
0.0
 11
-1589.389853881082
 21
1822.0
 31
0.0
  0
LINE
  5
116E6
330
113FF
100
AcDbEntity
  8
SUNPOU
 62
     1
100
AcDbLine
 10
-1589.389853881082
 20
1831.0
 30
0.0
 11
-1589.389853881082
 21
1828.0
 31
0.0
  0
SOLID
  5
116E7
330
113FF
100
AcDbEntity
  8
SUNPOU
 62
     1
100
AcDbTrace
 10
-1589.889853881081
 20
1834.0
 30
0.0
 11
-1588.889853881081
 21
1834.0
 31
0.0
 12
-1589.389853881082
 22
1831.0
 32
0.0
 13
-1589.389853881082
 23
1831.0
 33
0.0
  0
SOLID
  5
116E8
330
113FF
100
AcDbEntity
  8
SUNPOU
 62
     1
100
AcDbTrace
 10
-1589.889853881081
 20
1825.0
 30
0.0
 11
-1588.889853881081
 21
1825.0
 31
0.0
 12
-1589.389853881082
 22
1828.0
 32
0.0
 13
-1589.389853881082
 23
1828.0
 33
0.0
  0
MTEXT
  5
116E9
330
113FF
100
AcDbEntity
  8
SUNPOU
 62
     1
100
AcDbMText
 10
-1592.139853881082
 20
1829.499999999999
 30
0.0
 40
3.5
 41
0.0
 71
     5
 72
     1
  1
\A1;3
 11
0.0000000000000001
 21
1.0
 31
0.0
1001
ACAD
1000
MTEXTBEGIN
1070
    73
1070
     1
1070
    44
1040
1.0
1070
    74
1070
     0
1000
MTEXTEND
  0
POINT
  5
116EA
330
113FF
100
AcDbEntity
  8
DEFPOINTS
 62
     0
100
AcDbPoint
 10
-1579.292889999999
 20
1831.0
 30
0.0
  0
POINT
  5
116EB
330
113FF
100
AcDbEntity
  8
DEFPOINTS
 62
     0
100
AcDbPoint
 10
-1567.50001
 20
1828.0
 30
0.0
  0
POINT
  5
116EC
330
113FF
100
AcDbEntity
  8
DEFPOINTS
 62
     0
100
AcDbPoint
 10
-1589.389853881082
 20
1828.0
 30
0.0
  0
ENDBLK
  5
1140C
330
113FF
100
AcDbEntity
  8
0
100
AcDbBlockEnd
  0
BLOCK
  5
11423
330
11419
100
AcDbEntity
  8
0
100
AcDbBlockBegin
  2
*D8
 70
     1
 10
0.0
 20
0.0
 30
0.0
  3
*D8
  1

  0
LINE
  5
11742
330
11419
100
AcDbEntity
  8
SUNPOU
 62
     1
100
AcDbLine
 10
-1568.50001
 20
1828.0
 30
0.0
 11
-1589.889853881081
 21
1828.0
 31
0.0
  0
LINE
  5
11743
330
11419
100
AcDbEntity
  8
SUNPOU
 62
     1
100
AcDbLine
 10
-1568.00001
 20
1753.0
 30
0.0
 11
-1589.889853881081
 21
1753.0
 31
0.0
  0
LINE
  5
11744
330
11419
100
AcDbEntity
  8
SUNPOU
 62
     1
100
AcDbLine
 10
-1589.389853881081
 20
1825.0
 30
0.0
 11
-1589.389853881081
 21
1756.0
 31
0.0
  0
SOLID
  5
11745
330
11419
100
AcDbEntity
  8
SUNPOU
 62
     1
100
AcDbTrace
 10
-1589.889853881081
 20
1825.0
 30
0.0
 11
-1588.889853881081
 21
1825.0
 31
0.0
 12
-1589.389853881081
 22
1828.0
 32
0.0
 13
-1589.389853881081
 23
1828.0
 33
0.0
  0
SOLID
  5
11746
330
11419
100
AcDbEntity
  8
SUNPOU
 62
     1
100
AcDbTrace
 10
-1589.889853881081
 20
1756.0
 30
0.0
 11
-1588.889853881081
 21
1756.0
 31
0.0
 12
-1589.389853881081
 22
1753.0
 32
0.0
 13
-1589.389853881081
 23
1753.0
 33
0.0
  0
MTEXT
  5
11747
330
11419
100
AcDbEntity
  8
SUNPOU
 62
     1
100
AcDbMText
 10
-1592.139853881081
 20
1790.499999999999
 30
0.0
 40
3.5
 41
0.0
 71
     5
 72
     1
  1
\A1;75
 11
0.0000000000000001
 21
1.0
 31
0.0
1001
ACAD
1000
MTEXTBEGIN
1070
    73
1070
     1
1070
    44
1040
1.0
1070
    74
1070
     0
1000
MTEXTEND
  0
POINT
  5
11748
330
11419
100
AcDbEntity
  8
DEFPOINTS
 62
     0
100
AcDbPoint
 10
-1568.00001
 20
1828.0
 30
0.0
  0
POINT
  5
11749
330
11419
100
AcDbEntity
  8
DEFPOINTS
 62
     0
100
AcDbPoint
 10
-1567.50001
 20
1753.0
 30
0.0
  0
POINT
  5
1174A
330
11419
100
AcDbEntity
  8
DEFPOINTS
 62
     0
100
AcDbPoint
 10
-1589.389853881081
 20
1753.0
 30
0.0
  0
ENDBLK
  5
11424
330
11419
100
AcDbEntity
  8
0
100
AcDbBlockEnd
  0
BLOCK
  5
11432
330
11426
100
AcDbEntity
  8
0
100
AcDbBlockBegin
  2
*D9
 70
     1
 10
0.0
 20
0.0
 30
0.0
  3
*D9
  1

  0
LINE
  5
116F8
330
11426
100
AcDbEntity
  8
SUNPOU
 62
     1
100
AcDbLine
 10
-1568.500009999999
 20
1753.0
 30
0.0
 11
-1589.889853881081
 21
1753.0
 31
0.0
  0
LINE
  5
116F9
330
11426
100
AcDbEntity
  8
SUNPOU
 62
     1
100
AcDbLine
 10
-1579.792889999999
 20
1750.0
 30
0.0
 11
-1589.889853881081
 21
1750.0
 31
0.0
  0
LINE
  5
116FA
330
11426
100
AcDbEntity
  8
SUNPOU
 62
     1
100
AcDbLine
 10
-1589.389853881081
 20
1756.0
 30
0.0
 11
-1589.389853881081
 21
1759.0
 31
0.0
  0
LINE
  5
116FB
330
11426
100
AcDbEntity
  8
SUNPOU
 62
     1
100
AcDbLine
 10
-1589.389853881081
 20
1747.0
 30
0.0
 11
-1589.389853881081
 21
1739.666666666666
 31
0.0
  0
LINE
  5
116FC
330
11426
100
AcDbEntity
  8
SUNPOU
 62
     1
100
AcDbLine
 10
-1589.389853881081
 20
1753.0
 30
0.0
 11
-1589.389853881081
 21
1750.0
 31
0.0
  0
SOLID
  5
116FD
330
11426
100
AcDbEntity
  8
SUNPOU
 62
     1
100
AcDbTrace
 10
-1589.889853881081
 20
1756.0
 30
0.0
 11
-1588.889853881081
 21
1756.0
 31
0.0
 12
-1589.389853881081
 22
1753.0
 32
0.0
 13
-1589.389853881081
 23
1753.0
 33
0.0
  0
SOLID
  5
116FE
330
11426
100
AcDbEntity
  8
SUNPOU
 62
     1
100
AcDbTrace
 10
-1589.889853881081
 20
1747.0
 30
0.0
 11
-1588.889853881081
 21
1747.0
 31
0.0
 12
-1589.389853881081
 22
1750.0
 32
0.0
 13
-1589.389853881081
 23
1750.0
 33
0.0
  0
MTEXT
  5
116FF
330
11426
100
AcDbEntity
  8
SUNPOU
 62
     1
100
AcDbMText
 10
-1592.139853881081
 20
1741.833333333333
 30
0.0
 40
3.5
 41
0.0
 71
     5
 72
     1
  1
\A1;3
 11
0.0000000000000001
 21
1.0
 31
0.0
1001
ACAD
1000
MTEXTBEGIN
1070
    73
1070
     1
1070
    44
1040
1.0
1070
    74
1070
     0
1000
MTEXTEND
  0
POINT
  5
11700
330
11426
100
AcDbEntity
  8
DEFPOINTS
 62
     0
100
AcDbPoint
 10
-1568.000009999999
 20
1753.0
 30
0.0
  0
POINT
  5
11701
330
11426
100
AcDbEntity
  8
DEFPOINTS
 62
     0
100
AcDbPoint
 10
-1579.292889999999
 20
1750.0
 30
0.0
  0
POINT
  5
11702
330
11426
100
AcDbEntity
  8
DEFPOINTS
 62
     0
100
AcDbPoint
 10
-1589.389853881081
 20
1750.0
 30
0.0
  0
ENDBLK
  5
11433
330
11426
100
AcDbEntity
  8
0
100
AcDbBlockEnd
  0
BLOCK
  5
1143F
330
11435
100
AcDbEntity
  8
0
100
AcDbBlockBegin
  2
*D10
 70
     1
 10
0.0
 20
0.0
 30
0.0
  3
*D10
  1

  0
LINE
  5
11703
330
11435
100
AcDbEntity
  8
SUNPOU
 62
     1
100
AcDbLine
 10
-1562.50002
 20
1748.500000000001
 30
0.0
 11
-1562.50002
 21
1737.834013470257
 31
0.0
  0
LINE
  5
11704
330
11435
100
AcDbEntity
  8
SUNPOU
 62
     1
100
AcDbLine
 10
-1545.00001
 20
1754.0
 30
0.0
 11
-1545.00001
 21
1737.834013470257
 31
0.0
  0
LINE
  5
11705
330
11435
100
AcDbEntity
  8
SUNPOU
 62
     1
100
AcDbLine
 10
-1565.500019999999
 20
1738.334013470257
 30
0.0
 11
-1568.50002
 21
1738.334013470257
 31
0.0
  0
LINE
  5
11706
330
11435
100
AcDbEntity
  8
SUNPOU
 62
     1
100
AcDbLine
 10
-1542.000009999999
 20
1738.334013470257
 30
0.0
 11
-1539.00001
 21
1738.334013470257
 31
0.0
  0
LINE
  5
11707
330
11435
100
AcDbEntity
  8
SUNPOU
 62
     1
100
AcDbLine
 10
-1562.50002
 20
1738.334013470257
 30
0.0
 11
-1545.00001
 21
1738.334013470257
 31
0.0
  0
SOLID
  5
11708
330
11435
100
AcDbEntity
  8
SUNPOU
 62
     1
100
AcDbTrace
 10
-1565.500019999999
 20
1738.834013470257
 30
0.0
 11
-1565.500019999999
 21
1737.834013470257
 31
0.0
 12
-1562.50002
 22
1738.334013470257
 32
0.0
 13
-1562.50002
 23
1738.334013470257
 33
0.0
  0
SOLID
  5
11709
330
11435
100
AcDbEntity
  8
SUNPOU
 62
     1
100
AcDbTrace
 10
-1542.000009999999
 20
1738.834013470257
 30
0.0
 11
-1542.000009999999
 21
1737.834013470257
 31
0.0
 12
-1545.00001
 22
1738.334013470257
 32
0.0
 13
-1545.00001
 23
1738.334013470257
 33
0.0
  0
MTEXT
  5
1170A
330
11435
100
AcDbEntity
  8
SUNPOU
 62
     1
100
AcDbMText
 10
-1552.60437252684
 20
1741.084013470257
 30
0.0
 40
3.5
 41
0.0
 71
     5
 72
     1
  1
\A1;17.5
1001
ACAD
1000
MTEXTBEGIN
1070
    73
1070
     1
1070
    44
1040
1.0
1070
    74
1070
     0
1000
MTEXTEND
  0
POINT
  5
1170B
330
11435
100
AcDbEntity
  8
DEFPOINTS
 62
     0
100
AcDbPoint
 10
-1562.50002
 20
1749.0
 30
0.0
  0
POINT
  5
1170C
330
11435
100
AcDbEntity
  8
DEFPOINTS
 62
     0
100
AcDbPoint
 10
-1545.00001
 20
1754.5
 30
0.0
  0
POINT
  5
1170D
330
11435
100
AcDbEntity
  8
DEFPOINTS
 62
     0
100
AcDbPoint
 10
-1545.00001
 20
1738.334013470257
 30
0.0
  0
ENDBLK
  5
11440
330
11435
100
AcDbEntity
  8
0
100
AcDbBlockEnd
  0
BLOCK
  5
11462
330
11458
100
AcDbEntity
  8
0
100
AcDbBlockBegin
  2
*D11
 70
     1
 10
0.0
 20
0.0
 30
0.0
  3
*D11
  1

  0
LINE
  5
11729
330
11458
100
AcDbEntity
  8
SUNPOU
 62
     1
100
AcDbLine
 10
-1580.0
 20
1750.20711
 30
0.0
 11
-1580.0
 21
1725.823244239702
 31
0.0
  0
LINE
  5
1172A
330
11458
100
AcDbEntity
  8
SUNPOU
 62
     1
100
AcDbLine
 10
-1545.00001
 20
1756.0
 30
0.0
 11
-1545.00001
 21
1725.823244239702
 31
0.0
  0
LINE
  5
1172B
330
11458
100
AcDbEntity
  8
SUNPOU
 62
     1
100
AcDbLine
 10
-1577.0
 20
1726.323244239702
 30
0.0
 11
-1548.000009999999
 21
1726.323244239702
 31
0.0
  0
SOLID
  5
1172C
330
11458
100
AcDbEntity
  8
SUNPOU
 62
     1
100
AcDbTrace
 10
-1577.0
 20
1726.823244239702
 30
0.0
 11
-1577.0
 21
1725.823244239702
 31
0.0
 12
-1580.0
 22
1726.323244239702
 32
0.0
 13
-1580.0
 23
1726.323244239702
 33
0.0
  0
SOLID
  5
1172D
330
11458
100
AcDbEntity
  8
SUNPOU
 62
     1
100
AcDbTrace
 10
-1548.000009999999
 20
1726.823244239702
 30
0.0
 11
-1548.000009999999
 21
1725.823244239702
 31
0.0
 12
-1545.00001
 22
1726.323244239702
 32
0.0
 13
-1545.00001
 23
1726.323244239702
 33
0.0
  0
MTEXT
  5
1172E
330
11458
100
AcDbEntity
  8
SUNPOU
 62
     1
100
AcDbMText
 10
-1562.500004999999
 20
1729.073244239702
 30
0.0
 40
3.5
 41
0.0
 71
     5
 72
     1
  1
\A1;35
1001
ACAD
1000
MTEXTBEGIN
1070
    73
1070
     1
1070
    44
1040
1.0
1070
    74
1070
     0
1000
MTEXTEND
  0
POINT
  5
1172F
330
11458
100
AcDbEntity
  8
DEFPOINTS
 62
     0
100
AcDbPoint
 10
-1580.0
 20
1750.707110000001
 30
0.0
  0
POINT
  5
11730
330
11458
100
AcDbEntity
  8
DEFPOINTS
 62
     0
100
AcDbPoint
 10
-1545.00001
 20
1756.5
 30
0.0
  0
POINT
  5
11731
330
11458
100
AcDbEntity
  8
DEFPOINTS
 62
     0
100
AcDbPoint
 10
-1545.00001
 20
1726.323244239702
 30
0.0
  0
ENDBLK
  5
11463
330
11458
100
AcDbEntity
  8
0
100
AcDbBlockEnd
  0
ENDSEC
  0
SECTION
  2
ENTITIES
  0
MTEXT
  5
5084
330
1A
100
AcDbEntity
  8
0
100
AcDbMText
 10
1985.239088685434
 20
-948.5420423450428
 30
0.0
 40
8.0
 41
0.0
 71
     7
 72
     5
  1

1001
ACAD
1000
MTEXTBEGIN
1070
    73
1070
     1
1070
    44
1040
1.0
1070
    74
1070
     0
1000
MTEXTEND
1000
MTEXTBEGIN
1070
    73
1070
     1
1070
    44
1040
1.0
1070
    74
1070
     0
1000
MTEXTEND
  0
MTEXT
  5
5085
330
1A
100
AcDbEntity
  8
0
100
AcDbMText
 10
4270.596778580329
 20
22.24825240601647
 30
0.0
 40
8.0
 41
0.0
 71
     7
 72
     5
  1

1001
ACAD
1000
MTEXTBEGIN
1070
    73
1070
     1
1070
    44
1040
1.0
1070
    74
1070
     0
1000
MTEXTEND
1000
MTEXTBEGIN
1070
    73
1070
     1
1070
    44
1040
1.0
1070
    74
1070
     0
1000
MTEXTEND
  0
MTEXT
  5
5343
330
1A
100
AcDbEntity
  8
SUNPOU
100
AcDbMText
 10
6936.493799262471
 20
9534.359644781137
 30
0.0
 40
10.5
 41
0.0
 71
     1
 72
     5
  1

1001
ACAD
1000
MTEXTBEGIN
1070
    73
1070
     1
1070
    44
1040
1.0
1070
    74
1070
     0
1000
MTEXTEND
1000
MTEXTBEGIN
1070
    73
1070
     1
1070
    44
1040
1.0
1070
    74
1070
     0
1000
MTEXTEND
  0
MTEXT
  5
544F
330
1A
100
AcDbEntity
  8
0
100
AcDbMText
 10
16317.2832773148
 20
12833.35428897674
 30
0.0
 40
8.0
 41
0.0
 71
     7
 72
     5
  1

1001
ACAD
1000
MTEXTBEGIN
1070
    73
1070
     1
1070
    44
1040
1.0
1070
    74
1070
     0
1000
MTEXTEND
1000
MTEXTBEGIN
1070
    73
1070
     1
1070
    44
1040
1.0
1070
    74
1070
     0
1000
MTEXTEND
  0
MTEXT
  5
5450
330
1A
100
AcDbEntity
  8
0
100
AcDbMText
 10
18602.64096720968
 20
13804.1445837278
 30
0.0
 40
8.0
 41
0.0
 71
     7
 72
     5
  1

1001
ACAD
1000
MTEXTBEGIN
1070
    73
1070
     1
1070
    44
1040
1.0
1070
    74
1070
     0
1000
MTEXTEND
1000
MTEXTBEGIN
1070
    73
1070
     1
1070
    44
1040
1.0
1070
    74
1070
     0
1000
MTEXTEND
  0
MTEXT
  5
5451
330
1A
100
AcDbEntity
  8
SUNPOU
100
AcDbMText
 10
21268.53798789184
 20
23316.25597610292
 30
0.0
 40
10.5
 41
0.0
 71
     1
 72
     5
  1

1001
ACAD
1000
MTEXTBEGIN
1070
    73
1070
     1
1070
    44
1040
1.0
1070
    74
1070
     0
1000
MTEXTEND
1000
MTEXTBEGIN
1070
    73
1070
     1
1070
    44
1040
1.0
1070
    74
1070
     0
1000
MTEXTEND
  0
MTEXT
  5
5452
330
1A
100
AcDbEntity
  8
SUNPOU
100
AcDbMText
 10
13337.6147919559
 20
22369.46284218996
 30
0.0
 40
10.5
 41
0.0
 71
     7
 72
     5
  1

1001
ACAD
1000
MTEXTBEGIN
1070
    73
1070
     1
1070
    44
1040
1.0
1070
    74
1070
     0
1000
MTEXTEND
1000
MTEXTBEGIN
1070
    73
1070
     1
1070
    44
1040
1.0
1070
    74
1070
     0
1000
MTEXTEND
  0
MTEXT
  5
5453
330
1A
100
AcDbEntity
  8
SUNPOU
100
AcDbMText
 10
16286.59845646867
 20
27270.13891403279
 30
0.0
 40
10.5
 41
0.0
 71
     7
 72
     5
  1

1001
ACAD
1000
MTEXTBEGIN
1070
    73
1070
     1
1070
    44
1040
1.0
1070
    74
1070
     0
1000
MTEXTEND
1000
MTEXTBEGIN
1070
    73
1070
     1
1070
    44
1040
1.0
1070
    74
1070
     0
1000
MTEXTEND
  0
MTEXT
  5
5454
330
1A
100
AcDbEntity
  8
SUNPOU
100
AcDbMText
 10
20795.67658441924
 20
29706.43966165288
 30
0.0
 40
10.5
 41
0.0
 71
     7
 72
     5
  1

1001
ACAD
1000
MTEXTBEGIN
1070
    73
1070
     1
1070
    44
1040
1.0
1070
    74
1070
     0
1000
MTEXTEND
1000
MTEXTBEGIN
1070
    73
1070
     1
1070
    44
1040
1.0
1070
    74
1070
     0
1000
MTEXTEND
  0
MTEXT
  5
5455
330
1A
100
AcDbEntity
  8
0
100
AcDbMText
 10
16611.93789220313
 20
14707.52144344448
 30
0.0
 40
8.0
 41
0.0
 71
     7
 72
     5
  1

1001
ACAD
1000
MTEXTBEGIN
1070
    73
1070
     1
1070
    44
1040
1.0
1070
    74
1070
     0
1000
MTEXTEND
1000
MTEXTBEGIN
1070
    73
1070
     1
1070
    44
1040
1.0
1070
    74
1070
     0
1000
MTEXTEND
  0
MTEXT
  5
5456
330
1A
100
AcDbEntity
  8
0
100
AcDbMText
 10
18897.29558209803
 20
15678.31173819554
 30
0.0
 40
8.0
 41
0.0
 71
     7
 72
     5
  1

1001
ACAD
1000
MTEXTBEGIN
1070
    73
1070
     1
1070
    44
1040
1.0
1070
    74
1070
     0
1000
MTEXTEND
1000
MTEXTBEGIN
1070
    73
1070
     1
1070
    44
1040
1.0
1070
    74
1070
     0
1000
MTEXTEND
  0
MTEXT
  5
5457
330
1A
100
AcDbEntity
  8
SUNPOU
100
AcDbMText
 10
21563.19260278019
 20
25190.42313057066
 30
0.0
 40
10.5
 41
0.0
 71
     1
 72
     5
  1

1001
ACAD
1000
MTEXTBEGIN
1070
    73
1070
     1
1070
    44
1040
1.0
1070
    74
1070
     0
1000
MTEXTEND
1000
MTEXTBEGIN
1070
    73
1070
     1
1070
    44
1040
1.0
1070
    74
1070
     0
1000
MTEXTEND
  0
MTEXT
  5
5458
330
1A
100
AcDbEntity
  8
SUNPOU
100
AcDbMText
 10
13632.26940684425
 20
24243.6299966577
 30
0.0
 40
10.5
 41
0.0
 71
     7
 72
     5
  1

1001
ACAD
1000
MTEXTBEGIN
1070
    73
1070
     1
1070
    44
1040
1.0
1070
    74
1070
     0
1000
MTEXTEND
1000
MTEXTBEGIN
1070
    73
1070
     1
1070
    44
1040
1.0
1070
    74
1070
     0
1000
MTEXTEND
  0
MTEXT
  5
5459
330
1A
100
AcDbEntity
  8
SUNPOU
100
AcDbMText
 10
16581.25307135702
 20
29144.30606850055
 30
0.0
 40
10.5
 41
0.0
 71
     7
 72
     5
  1

1001
ACAD
1000
MTEXTBEGIN
1070
    73
1070
     1
1070
    44
1040
1.0
1070
    74
1070
     0
1000
MTEXTEND
1000
MTEXTBEGIN
1070
    73
1070
     1
1070
    44
1040
1.0
1070
    74
1070
     0
1000
MTEXTEND
  0
MTEXT
  5
545A
330
1A
100
AcDbEntity
  8
SUNPOU
100
AcDbMText
 10
21090.33119930759
 20
31580.60681612062
 30
0.0
 40
10.5
 41
0.0
 71
     7
 72
     5
  1

1001
ACAD
1000
MTEXTBEGIN
1070
    73
1070
     1
1070
    44
1040
1.0
1070
    74
1070
     0
1000
MTEXTEND
1000
MTEXTBEGIN
1070
    73
1070
     1
1070
    44
1040
1.0
1070
    74
1070
     0
1000
MTEXTEND
  0
MTEXT
  5
545B
330
1A
100
AcDbEntity
  8
0
100
AcDbMText
 10
22871.60517627166
 20
23974.88367124799
 30
0.0
 40
8.0
 41
0.0
 71
     7
 72
     5
  1

1001
ACAD
1000
MTEXTBEGIN
1070
    73
1070
     1
1070
    44
1040
1.0
1070
    74
1070
     0
1000
MTEXTEND
1000
MTEXTBEGIN
1070
    73
1070
     1
1070
    44
1040
1.0
1070
    74
1070
     0
1000
MTEXTEND
  0
MTEXT
  5
545C
330
1A
100
AcDbEntity
  8
0
100
AcDbMText
 10
25156.96286616655
 20
24945.67396599904
 30
0.0
 40
8.0
 41
0.0
 71
     7
 72
     5
  1

1001
ACAD
1000
MTEXTBEGIN
1070
    73
1070
     1
1070
    44
1040
1.0
1070
    74
1070
     0
1000
MTEXTEND
1000
MTEXTBEGIN
1070
    73
1070
     1
1070
    44
1040
1.0
1070
    74
1070
     0
1000
MTEXTEND
  0
MTEXT
  5
545D
330
1A
100
AcDbEntity
  8
SUNPOU
100
AcDbMText
 10
27822.85988684871
 20
34457.78535837418
 30
0.0
 40
10.5
 41
0.0
 71
     1
 72
     5
  1

1001
ACAD
1000
MTEXTBEGIN
1070
    73
1070
     1
1070
    44
1040
1.0
1070
    74
1070
     0
1000
MTEXTEND
1000
MTEXTBEGIN
1070
    73
1070
     1
1070
    44
1040
1.0
1070
    74
1070
     0
1000
MTEXTEND
  0
MTEXT
  5
545E
330
1A
100
AcDbEntity
  8
SUNPOU
100
AcDbMText
 10
19891.93669091278
 20
33510.99222446122
 30
0.0
 40
10.5
 41
0.0
 71
     7
 72
     5
  1

1001
ACAD
1000
MTEXTBEGIN
1070
    73
1070
     1
1070
    44
1040
1.0
1070
    74
1070
     0
1000
MTEXTEND
1000
MTEXTBEGIN
1070
    73
1070
     1
1070
    44
1040
1.0
1070
    74
1070
     0
1000
MTEXTEND
  0
MTEXT
  5
545F
330
1A
100
AcDbEntity
  8
SUNPOU
100
AcDbMText
 10
22840.92035542555
 20
38411.66829630406
 30
0.0
 40
10.5
 41
0.0
 71
     7
 72
     5
  1

1001
ACAD
1000
MTEXTBEGIN
1070
    73
1070
     1
1070
    44
1040
1.0
1070
    74
1070
     0
1000
MTEXTEND
1000
MTEXTBEGIN
1070
    73
1070
     1
1070
    44
1040
1.0
1070
    74
1070
     0
1000
MTEXTEND
  0
MTEXT
  5
5460
330
1A
100
AcDbEntity
  8
SUNPOU
100
AcDbMText
 10
27349.99848337611
 20
40847.96904392415
 30
0.0
 40
10.5
 41
0.0
 71
     7
 72
     5
  1

1001
ACAD
1000
MTEXTBEGIN
1070
    73
1070
     1
1070
    44
1040
1.0
1070
    74
1070
     0
1000
MTEXTEND
1000
MTEXTBEGIN
1070
    73
1070
     1
1070
    44
1040
1.0
1070
    74
1070
     0
1000
MTEXTEND
  0
MTEXT
  5
55B7
330
1A
100
AcDbEntity
  8
SUNPOU
100
AcDbMText
 10
67424.23923338197
 20
64463.86602884816
 30
0.0
 40
10.5
 41
0.0
 71
     9
 72
     5
  1

1001
ACAD
1000
MTEXTBEGIN
1070
    73
1070
     1
1070
    44
1040
1.0
1070
    74
1070
     0
1000
MTEXTEND
1000
MTEXTBEGIN
1070
    73
1070
     1
1070
    44
1040
1.0
1070
    74
1070
     0
1000
MTEXTEND
  0
MTEXT
  5
55B8
330
1A
100
AcDbEntity
  8
SUNPOU
100
AcDbMText
 10
76146.40679929998
 20
71879.70056038563
 30
0.0
 40
10.5
 41
0.0
 71
     9
 72
     5
  1

1001
ACAD
1000
MTEXTBEGIN
1070
    73
1070
     1
1070
    44
1040
1.0
1070
    74
1070
     0
1000
MTEXTEND
1000
MTEXTBEGIN
1070
    73
1070
     1
1070
    44
1040
1.0
1070
    74
1070
     0
1000
MTEXTEND
  0
MTEXT
  5
55B9
330
1A
100
AcDbEntity
  8
SUNPOU
100
AcDbMText
 10
95100.16551662994
 20
89346.27661287766
 30
0.0
 40
10.5
 41
0.0
 71
     9
 72
     5
  1

1001
ACAD
1000
MTEXTBEGIN
1070
    73
1070
     1
1070
    44
1040
1.0
1070
    74
1070
     0
1000
MTEXTEND
1000
MTEXTBEGIN
1070
    73
1070
     1
1070
    44
1040
1.0
1070
    74
1070
     0
1000
MTEXTEND
  0
MTEXT
  5
55BA
330
1A
100
AcDbEntity
  8
SUNPOU
100
AcDbMText
 10
97043.57276333935
 20
87545.22753299966
 30
0.0
 40
3.5
 41
0.0
 71
     9
 72
     5
  1

1001
ACAD
1000
MTEXTBEGIN
1070
    73
1070
     1
1070
    44
1040
1.0
1070
    74
1070
     0
1000
MTEXTEND
1000
MTEXTBEGIN
1070
    73
1070
     1
1070
    44
1040
1.0
1070
    74
1070
     0
1000
MTEXTEND
  0
MTEXT
  5
55BB
330
1A
100
AcDbEntity
  8
SUNPOU
100
AcDbMText
 10
128169.7525959589
 20
130040.1732006569
 30
0.0
 40
10.5
 41
0.0
 71
     9
 72
     5
  1

1001
ACAD
1000
MTEXTBEGIN
1070
    73
1070
     1
1070
    44
1040
1.0
1070
    74
1070
     0
1000
MTEXTEND
1000
MTEXTBEGIN
1070
    73
1070
     1
1070
    44
1040
1.0
1070
    74
1070
     0
1000
MTEXTEND
  0
MTEXT
  5
55BC
330
1A
100
AcDbEntity
  8
SUNPOU
100
AcDbMText
 10
130113.1598426684
 20
128239.1241207789
 30
0.0
 40
3.5
 41
0.0
 71
     9
 72
     5
  1

1001
ACAD
1000
MTEXTBEGIN
1070
    73
1070
     1
1070
    44
1040
1.0
1070
    74
1070
     0
1000
MTEXTEND
1000
MTEXTBEGIN
1070
    73
1070
     1
1070
    44
1040
1.0
1070
    74
1070
     0
1000
MTEXTEND
  0
MTEXT
  5
55BD
330
1A
100
AcDbEntity
  8
SUNPOU
100
AcDbMText
 10
78610.02030175463
 20
75873.33835563206
 30
0.0
 40
10.5
 41
0.0
 71
     9
 72
     5
  1

1001
ACAD
1000
MTEXTBEGIN
1070
    73
1070
     1
1070
    44
1040
1.0
1070
    74
1070
     0
1000
MTEXTEND
1000
MTEXTBEGIN
1070
    73
1070
     1
1070
    44
1040
1.0
1070
    74
1070
     0
1000
MTEXTEND
  0
MTEXT
  5
55BE
330
1A
100
AcDbEntity
  8
SUNPOU
100
AcDbMText
 10
64662.02020137862
 20
56700.93921651987
 30
0.0
 40
3.5
 41
0.0
 71
     7
 72
     5
  1

1001
ACAD
1000
MTEXTBEGIN
1070
    73
1070
     1
1070
    44
1040
1.0
1070
    74
1070
     0
1000
MTEXTEND
1000
MTEXTBEGIN
1070
    73
1070
     1
1070
    44
1040
1.0
1070
    74
1070
     0
1000
MTEXTEND
  0
MTEXT
  5
55BF
330
1A
100
AcDbEntity
  8
SUNPOU
100
AcDbMText
 10
45647.18959837176
 20
44463.08794733806
 30
0.0
 40
10.5
 41
0.0
 71
     7
 72
     5
  1

1001
ACAD
1000
MTEXTBEGIN
1070
    73
1070
     1
1070
    44
1040
1.0
1070
    74
1070
     0
1000
MTEXTEND
1000
MTEXTBEGIN
1070
    73
1070
     1
1070
    44
1040
1.0
1070
    74
1070
     0
1000
MTEXTEND
  0
MTEXT
  5
55C0
330
1A
100
AcDbEntity
  8
SUNPOU
100
AcDbMText
 10
33189.96133342368
 20
28618.15636923965
 30
0.0
 40
35.0
 41
0.0
 71
     9
 72
     5
  1

1001
ACAD
1000
MTEXTBEGIN
1070
    73
1070
     1
1070
    44
1040
1.0
1070
    74
1070
     0
1000
MTEXTEND
1000
MTEXTBEGIN
1070
    73
1070
     1
1070
    44
1040
1.0
1070
    74
1070
     0
1000
MTEXTEND
  0
MTEXT
  5
55C1
330
1A
100
AcDbEntity
  8
SUNPOU
100
AcDbMText
 10
32098.44639099864
 20
29226.93177928834
 30
0.0
 40
350.0000004171781
 41
0.0
 71
     7
 72
     5
  1

1001
ACAD
1000
MTEXTBEGIN
1070
    73
1070
     1
1070
    44
1040
1.0
1070
    74
1070
     0
1000
MTEXTEND
1000
MTEXTBEGIN
1070
    73
1070
     1
1070
    44
1040
1.0
1070
    74
1070
     0
1000
MTEXTEND
  0
MTEXT
  5
55C2
330
1A
100
AcDbEntity
  8
0
100
AcDbMText
 10
38142.39714894154
 20
27206.85414142458
 30
0.0
 40
8.0
 41
0.0
 71
     7
 72
     5
  1

1001
ACAD
1000
MTEXTBEGIN
1070
    73
1070
     1
1070
    44
1040
1.0
1070
    74
1070
     0
1000
MTEXTEND
1000
MTEXTBEGIN
1070
    73
1070
     1
1070
    44
1040
1.0
1070
    74
1070
     0
1000
MTEXTEND
  0
MTEXT
  5
55C3
330
1A
100
AcDbEntity
  8
0
100
AcDbMText
 10
40427.75483883644
 20
28177.64443617564
 30
0.0
 40
8.0
 41
0.0
 71
     7
 72
     5
  1

1001
ACAD
1000
MTEXTBEGIN
1070
    73
1070
     1
1070
    44
1040
1.0
1070
    74
1070
     0
1000
MTEXTEND
1000
MTEXTBEGIN
1070
    73
1070
     1
1070
    44
1040
1.0
1070
    74
1070
     0
1000
MTEXTEND
  0
MTEXT
  5
55C4
330
1A
100
AcDbEntity
  8
SUNPOU
100
AcDbMText
 10
43093.65185951858
 20
37689.75582855077
 30
0.0
 40
10.5
 41
0.0
 71
     1
 72
     5
  1

1001
ACAD
1000
MTEXTBEGIN
1070
    73
1070
     1
1070
    44
1040
1.0
1070
    74
1070
     0
1000
MTEXTEND
1000
MTEXTBEGIN
1070
    73
1070
     1
1070
    44
1040
1.0
1070
    74
1070
     0
1000
MTEXTEND
  0
MTEXT
  5
55C5
330
1A
100
AcDbEntity
  8
SUNPOU
100
AcDbMText
 10
35162.72866358265
 20
36742.96269463781
 30
0.0
 40
10.5
 41
0.0
 71
     7
 72
     5
  1

1001
ACAD
1000
MTEXTBEGIN
1070
    73
1070
     1
1070
    44
1040
1.0
1070
    74
1070
     0
1000
MTEXTEND
1000
MTEXTBEGIN
1070
    73
1070
     1
1070
    44
1040
1.0
1070
    74
1070
     0
1000
MTEXTEND
  0
MTEXT
  5
55C6
330
1A
100
AcDbEntity
  8
SUNPOU
100
AcDbMText
 10
38111.71232809542
 20
41643.63876648065
 30
0.0
 40
10.5
 41
0.0
 71
     7
 72
     5
  1

1001
ACAD
1000
MTEXTBEGIN
1070
    73
1070
     1
1070
    44
1040
1.0
1070
    74
1070
     0
1000
MTEXTEND
1000
MTEXTBEGIN
1070
    73
1070
     1
1070
    44
1040
1.0
1070
    74
1070
     0
1000
MTEXTEND
  0
MTEXT
  5
55C7
330
1A
100
AcDbEntity
  8
SUNPOU
100
AcDbMText
 10
42620.79045604596
 20
44079.93951410074
 30
0.0
 40
10.5
 41
0.0
 71
     7
 72
     5
  1

1001
ACAD
1000
MTEXTBEGIN
1070
    73
1070
     1
1070
    44
1040
1.0
1070
    74
1070
     0
1000
MTEXTEND
1000
MTEXTBEGIN
1070
    73
1070
     1
1070
    44
1040
1.0
1070
    74
1070
     0
1000
MTEXTEND
  0
MTEXT
  5
55C8
330
1A
100
AcDbEntity
  8
SUNPOU
100
AcDbMText
 10
26221.62834281429
 20
23077.53566448964
 30
0.0
 40
10.5
 41
0.0
 71
     7
 72
     5
  1

1001
ACAD
1000
MTEXTBEGIN
1070
    73
1070
     1
1070
    44
1040
1.0
1070
    74
1070
     0
1000
MTEXTEND
1000
MTEXTBEGIN
1070
    73
1070
     1
1070
    44
1040
1.0
1070
    74
1070
     0
1000
MTEXTEND
  0
MTEXT
  5
55C9
330
1A
100
AcDbEntity
  8
SUNPOU
100
AcDbMText
 10
77413.14677671455
 20
68750.51622813789
 30
0.0
 40
10.5
 41
0.0
 71
     9
 72
     5
  1

1001
ACAD
1000
MTEXTBEGIN
1070
    73
1070
     1
1070
    44
1040
1.0
1070
    74
1070
     0
1000
MTEXTEND
1000
MTEXTBEGIN
1070
    73
1070
     1
1070
    44
1040
1.0
1070
    74
1070
     0
1000
MTEXTEND
  0
MTEXT
  5
55CA
330
1A
100
AcDbEntity
  8
SUNPOU
100
AcDbMText
 10
86135.31434263256
 20
76166.35075967536
 30
0.0
 40
10.5
 41
0.0
 71
     9
 72
     5
  1

1001
ACAD
1000
MTEXTBEGIN
1070
    73
1070
     1
1070
    44
1040
1.0
1070
    74
1070
     0
1000
MTEXTEND
1000
MTEXTBEGIN
1070
    73
1070
     1
1070
    44
1040
1.0
1070
    74
1070
     0
1000
MTEXTEND
  0
MTEXT
  5
55CB
330
1A
100
AcDbEntity
  8
SUNPOU
100
AcDbMText
 10
105089.0730599624
 20
93632.92681216739
 30
0.0
 40
10.5
 41
0.0
 71
     9
 72
     5
  1

1001
ACAD
1000
MTEXTBEGIN
1070
    73
1070
     1
1070
    44
1040
1.0
1070
    74
1070
     0
1000
MTEXTEND
1000
MTEXTBEGIN
1070
    73
1070
     1
1070
    44
1040
1.0
1070
    74
1070
     0
1000
MTEXTEND
  0
MTEXT
  5
55CC
330
1A
100
AcDbEntity
  8
SUNPOU
100
AcDbMText
 10
107032.4803066718
 20
91831.87773228937
 30
0.0
 40
3.5
 41
0.0
 71
     9
 72
     5
  1

1001
ACAD
1000
MTEXTBEGIN
1070
    73
1070
     1
1070
    44
1040
1.0
1070
    74
1070
     0
1000
MTEXTEND
1000
MTEXTBEGIN
1070
    73
1070
     1
1070
    44
1040
1.0
1070
    74
1070
     0
1000
MTEXTEND
  0
MTEXT
  5
55CD
330
1A
100
AcDbEntity
  8
SUNPOU
100
AcDbMText
 10
138158.6601392916
 20
134326.8233999467
 30
0.0
 40
10.5
 41
0.0
 71
     9
 72
     5
  1

1001
ACAD
1000
MTEXTBEGIN
1070
    73
1070
     1
1070
    44
1040
1.0
1070
    74
1070
     0
1000
MTEXTEND
1000
MTEXTBEGIN
1070
    73
1070
     1
1070
    44
1040
1.0
1070
    74
1070
     0
1000
MTEXTEND
  0
MTEXT
  5
55CE
330
1A
100
AcDbEntity
  8
SUNPOU
100
AcDbMText
 10
140102.067386001
 20
132525.7743200686
 30
0.0
 40
3.5
 41
0.0
 71
     9
 72
     5
  1

1001
ACAD
1000
MTEXTBEGIN
1070
    73
1070
     1
1070
    44
1040
1.0
1070
    74
1070
     0
1000
MTEXTEND
1000
MTEXTBEGIN
1070
    73
1070
     1
1070
    44
1040
1.0
1070
    74
1070
     0
1000
MTEXTEND
  0
MTEXT
  5
55CF
330
1A
100
AcDbEntity
  8
SUNPOU
100
AcDbMText
 10
88598.92784508721
 20
80159.98855492179
 30
0.0
 40
10.5
 41
0.0
 71
     9
 72
     5
  1

1001
ACAD
1000
MTEXTBEGIN
1070
    73
1070
     1
1070
    44
1040
1.0
1070
    74
1070
     0
1000
MTEXTEND
1000
MTEXTBEGIN
1070
    73
1070
     1
1070
    44
1040
1.0
1070
    74
1070
     0
1000
MTEXTEND
  0
MTEXT
  5
55D0
330
1A
100
AcDbEntity
  8
SUNPOU
100
AcDbMText
 10
74650.92774471121
 20
60987.58941580959
 30
0.0
 40
3.5
 41
0.0
 71
     7
 72
     5
  1

1001
ACAD
1000
MTEXTBEGIN
1070
    73
1070
     1
1070
    44
1040
1.0
1070
    74
1070
     0
1000
MTEXTEND
1000
MTEXTBEGIN
1070
    73
1070
     1
1070
    44
1040
1.0
1070
    74
1070
     0
1000
MTEXTEND
  0
MTEXT
  5
55D1
330
1A
100
AcDbEntity
  8
SUNPOU
100
AcDbMText
 10
55636.09714170436
 20
48749.73814662781
 30
0.0
 40
10.5
 41
0.0
 71
     7
 72
     5
  1

1001
ACAD
1000
MTEXTBEGIN
1070
    73
1070
     1
1070
    44
1040
1.0
1070
    74
1070
     0
1000
MTEXTEND
1000
MTEXTBEGIN
1070
    73
1070
     1
1070
    44
1040
1.0
1070
    74
1070
     0
1000
MTEXTEND
  0
MTEXT
  5
55D2
330
1A
100
AcDbEntity
  8
SUNPOU
100
AcDbMText
 10
43178.86887675626
 20
32904.80656852937
 30
0.0
 40
35.0
 41
0.0
 71
     9
 72
     5
  1

1001
ACAD
1000
MTEXTBEGIN
1070
    73
1070
     1
1070
    44
1040
1.0
1070
    74
1070
     0
1000
MTEXTEND
1000
MTEXTBEGIN
1070
    73
1070
     1
1070
    44
1040
1.0
1070
    74
1070
     0
1000
MTEXTEND
  0
MTEXT
  5
55D3
330
1A
100
AcDbEntity
  8
SUNPOU
100
AcDbMText
 10
42087.3539343312
 20
33513.58197857808
 30
0.0
 40
350.0000004171781
 41
0.0
 71
     7
 72
     5
  1

1001
ACAD
1000
MTEXTBEGIN
1070
    73
1070
     1
1070
    44
1040
1.0
1070
    74
1070
     0
1000
MTEXTEND
1000
MTEXTBEGIN
1070
    73
1070
     1
1070
    44
1040
1.0
1070
    74
1070
     0
1000
MTEXTEND
  0
MTEXT
  5
55D4
330
1A
100
AcDbEntity
  8
0
100
AcDbMText
 10
48131.30469227412
 20
31493.50434071431
 30
0.0
 40
8.0
 41
0.0
 71
     7
 72
     5
  1

1001
ACAD
1000
MTEXTBEGIN
1070
    73
1070
     1
1070
    44
1040
1.0
1070
    74
1070
     0
1000
MTEXTEND
1000
MTEXTBEGIN
1070
    73
1070
     1
1070
    44
1040
1.0
1070
    74
1070
     0
1000
MTEXTEND
  0
MTEXT
  5
55D5
330
1A
100
AcDbEntity
  8
0
100
AcDbMText
 10
50416.66238216901
 20
32464.29463546537
 30
0.0
 40
8.0
 41
0.0
 71
     7
 72
     5
  1

1001
ACAD
1000
MTEXTBEGIN
1070
    73
1070
     1
1070
    44
1040
1.0
1070
    74
1070
     0
1000
MTEXTEND
1000
MTEXTBEGIN
1070
    73
1070
     1
1070
    44
1040
1.0
1070
    74
1070
     0
1000
MTEXTEND
  0
MTEXT
  5
55D6
330
1A
100
AcDbEntity
  8
SUNPOU
100
AcDbMText
 10
53082.55940285115
 20
41976.4060278405
 30
0.0
 40
10.5
 41
0.0
 71
     1
 72
     5
  1

1001
ACAD
1000
MTEXTBEGIN
1070
    73
1070
     1
1070
    44
1040
1.0
1070
    74
1070
     0
1000
MTEXTEND
1000
MTEXTBEGIN
1070
    73
1070
     1
1070
    44
1040
1.0
1070
    74
1070
     0
1000
MTEXTEND
  0
MTEXT
  5
55D7
330
1A
100
AcDbEntity
  8
SUNPOU
100
AcDbMText
 10
45151.63620691521
 20
41029.61289392755
 30
0.0
 40
10.5
 41
0.0
 71
     7
 72
     5
  1

1001
ACAD
1000
MTEXTBEGIN
1070
    73
1070
     1
1070
    44
1040
1.0
1070
    74
1070
     0
1000
MTEXTEND
1000
MTEXTBEGIN
1070
    73
1070
     1
1070
    44
1040
1.0
1070
    74
1070
     0
1000
MTEXTEND
  0
MTEXT
  5
55D8
330
1A
100
AcDbEntity
  8
SUNPOU
100
AcDbMText
 10
48100.61987142798
 20
45930.28896577039
 30
0.0
 40
10.5
 41
0.0
 71
     7
 72
     5
  1

1001
ACAD
1000
MTEXTBEGIN
1070
    73
1070
     1
1070
    44
1040
1.0
1070
    74
1070
     0
1000
MTEXTEND
1000
MTEXTBEGIN
1070
    73
1070
     1
1070
    44
1040
1.0
1070
    74
1070
     0
1000
MTEXTEND
  0
MTEXT
  5
55D9
330
1A
100
AcDbEntity
  8
SUNPOU
100
AcDbMText
 10
52609.69799937853
 20
48366.58971339046
 30
0.0
 40
10.5
 41
0.0
 71
     7
 72
     5
  1

1001
ACAD
1000
MTEXTBEGIN
1070
    73
1070
     1
1070
    44
1040
1.0
1070
    74
1070
     0
1000
MTEXTEND
1000
MTEXTBEGIN
1070
    73
1070
     1
1070
    44
1040
1.0
1070
    74
1070
     0
1000
MTEXTEND
  0
MTEXT
  5
55DA
330
1A
100
AcDbEntity
  8
SUNPOU
100
AcDbMText
 10
36210.53588614687
 20
27364.18586377937
 30
0.0
 40
10.5
 41
0.0
 71
     7
 72
     5
  1

1001
ACAD
1000
MTEXTBEGIN
1070
    73
1070
     1
1070
    44
1040
1.0
1070
    74
1070
     0
1000
MTEXTEND
1000
MTEXTBEGIN
1070
    73
1070
     1
1070
    44
1040
1.0
1070
    74
1070
     0
1000
MTEXTEND
  0
MTEXT
  5
55DB
330
1A
100
AcDbEntity
  8
SUNPOU
100
AcDbMText
 10
38021.29879752181
 20
33691.59985125794
 30
0.0
 40
10.5
 41
0.0
 71
     9
 72
     5
  1

1001
ACAD
1000
MTEXTBEGIN
1070
    73
1070
     1
1070
    44
1040
1.0
1070
    74
1070
     0
1000
MTEXTEND
1000
MTEXTBEGIN
1070
    73
1070
     1
1070
    44
1040
1.0
1070
    74
1070
     0
1000
MTEXTEND
  0
MTEXT
  5
55DC
330
1A
100
AcDbEntity
  8
SUNPOU
100
AcDbMText
 10
46743.46636343979
 20
41107.4343827954
 30
0.0
 40
10.5
 41
0.0
 71
     9
 72
     5
  1

1001
ACAD
1000
MTEXTBEGIN
1070
    73
1070
     1
1070
    44
1040
1.0
1070
    74
1070
     0
1000
MTEXTEND
1000
MTEXTBEGIN
1070
    73
1070
     1
1070
    44
1040
1.0
1070
    74
1070
     0
1000
MTEXTEND
  0
MTEXT
  5
55DD
330
1A
100
AcDbEntity
  8
SUNPOU
100
AcDbMText
 10
65697.22508076974
 20
58574.01043528746
 30
0.0
 40
10.5
 41
0.0
 71
     9
 72
     5
  1

1001
ACAD
1000
MTEXTBEGIN
1070
    73
1070
     1
1070
    44
1040
1.0
1070
    74
1070
     0
1000
MTEXTEND
1000
MTEXTBEGIN
1070
    73
1070
     1
1070
    44
1040
1.0
1070
    74
1070
     0
1000
MTEXTEND
  0
MTEXT
  5
55DE
330
1A
100
AcDbEntity
  8
SUNPOU
100
AcDbMText
 10
67640.63232747917
 20
56772.96135540945
 30
0.0
 40
3.5
 41
0.0
 71
     9
 72
     5
  1

1001
ACAD
1000
MTEXTBEGIN
1070
    73
1070
     1
1070
    44
1040
1.0
1070
    74
1070
     0
1000
MTEXTEND
1000
MTEXTBEGIN
1070
    73
1070
     1
1070
    44
1040
1.0
1070
    74
1070
     0
1000
MTEXTEND
  0
MTEXT
  5
55DF
330
1A
100
AcDbEntity
  8
SUNPOU
100
AcDbMText
 10
98766.81216009886
 20
99267.9070230668
 30
0.0
 40
10.5
 41
0.0
 71
     9
 72
     5
  1

1001
ACAD
1000
MTEXTBEGIN
1070
    73
1070
     1
1070
    44
1040
1.0
1070
    74
1070
     0
1000
MTEXTEND
1000
MTEXTBEGIN
1070
    73
1070
     1
1070
    44
1040
1.0
1070
    74
1070
     0
1000
MTEXTEND
  0
MTEXT
  5
55E0
330
1A
100
AcDbEntity
  8
SUNPOU
100
AcDbMText
 10
100710.2194068083
 20
97466.85794318876
 30
0.0
 40
3.5
 41
0.0
 71
     9
 72
     5
  1

1001
ACAD
1000
MTEXTBEGIN
1070
    73
1070
     1
1070
    44
1040
1.0
1070
    74
1070
     0
1000
MTEXTEND
1000
MTEXTBEGIN
1070
    73
1070
     1
1070
    44
1040
1.0
1070
    74
1070
     0
1000
MTEXTEND
  0
MTEXT
  5
55E1
330
1A
100
AcDbEntity
  8
SUNPOU
100
AcDbMText
 10
49207.07986589443
 20
45101.07217804184
 30
0.0
 40
10.5
 41
0.0
 71
     9
 72
     5
  1

1001
ACAD
1000
MTEXTBEGIN
1070
    73
1070
     1
1070
    44
1040
1.0
1070
    74
1070
     0
1000
MTEXTEND
1000
MTEXTBEGIN
1070
    73
1070
     1
1070
    44
1040
1.0
1070
    74
1070
     0
1000
MTEXTEND
  0
MTEXT
  5
55E2
330
1A
100
AcDbEntity
  8
SUNPOU
100
AcDbMText
 10
35259.07976551845
 20
25928.67303892964
 30
0.0
 40
3.5
 41
0.0
 71
     7
 72
     5
  1

1001
ACAD
1000
MTEXTBEGIN
1070
    73
1070
     1
1070
    44
1040
1.0
1070
    74
1070
     0
1000
MTEXTEND
1000
MTEXTBEGIN
1070
    73
1070
     1
1070
    44
1040
1.0
1070
    74
1070
     0
1000
MTEXTEND
  0
MTEXT
  5
55E3
330
1A
100
AcDbEntity
  8
SUNPOU
100
AcDbMText
 10
48951.43044828905
 20
35287.73625995099
 30
0.0
 40
10.5
 41
0.0
 71
     9
 72
     5
  1

1001
ACAD
1000
MTEXTBEGIN
1070
    73
1070
     1
1070
    44
1040
1.0
1070
    74
1070
     0
1000
MTEXTEND
1000
MTEXTBEGIN
1070
    73
1070
     1
1070
    44
1040
1.0
1070
    74
1070
     0
1000
MTEXTEND
  0
MTEXT
  5
55E4
330
1A
100
AcDbEntity
  8
SUNPOU
100
AcDbMText
 10
57673.59801420702
 20
42703.57079148847
 30
0.0
 40
10.5
 41
0.0
 71
     9
 72
     5
  1

1001
ACAD
1000
MTEXTBEGIN
1070
    73
1070
     1
1070
    44
1040
1.0
1070
    74
1070
     0
1000
MTEXTEND
1000
MTEXTBEGIN
1070
    73
1070
     1
1070
    44
1040
1.0
1070
    74
1070
     0
1000
MTEXTEND
  0
MTEXT
  5
55E5
330
1A
100
AcDbEntity
  8
SUNPOU
100
AcDbMText
 10
76627.35673153699
 20
60170.14684398051
 30
0.0
 40
10.5
 41
0.0
 71
     9
 72
     5
  1

1001
ACAD
1000
MTEXTBEGIN
1070
    73
1070
     1
1070
    44
1040
1.0
1070
    74
1070
     0
1000
MTEXTEND
1000
MTEXTBEGIN
1070
    73
1070
     1
1070
    44
1040
1.0
1070
    74
1070
     0
1000
MTEXTEND
  0
MTEXT
  5
55E6
330
1A
100
AcDbEntity
  8
SUNPOU
100
AcDbMText
 10
78570.76397824641
 20
58369.09776410251
 30
0.0
 40
3.5
 41
0.0
 71
     9
 72
     5
  1

1001
ACAD
1000
MTEXTBEGIN
1070
    73
1070
     1
1070
    44
1040
1.0
1070
    74
1070
     0
1000
MTEXTEND
1000
MTEXTBEGIN
1070
    73
1070
     1
1070
    44
1040
1.0
1070
    74
1070
     0
1000
MTEXTEND
  0
MTEXT
  5
55E7
330
1A
100
AcDbEntity
  8
SUNPOU
100
AcDbMText
 10
109696.943810866
 20
100864.0434317598
 30
0.0
 40
10.5
 41
0.0
 71
     9
 72
     5
  1

1001
ACAD
1000
MTEXTBEGIN
1070
    73
1070
     1
1070
    44
1040
1.0
1070
    74
1070
     0
1000
MTEXTEND
1000
MTEXTBEGIN
1070
    73
1070
     1
1070
    44
1040
1.0
1070
    74
1070
     0
1000
MTEXTEND
  0
MTEXT
  5
55E8
330
1A
100
AcDbEntity
  8
SUNPOU
100
AcDbMText
 10
111640.3510575755
 20
99062.99435188183
 30
0.0
 40
3.5
 41
0.0
 71
     9
 72
     5
  1

1001
ACAD
1000
MTEXTBEGIN
1070
    73
1070
     1
1070
    44
1040
1.0
1070
    74
1070
     0
1000
MTEXTEND
1000
MTEXTBEGIN
1070
    73
1070
     1
1070
    44
1040
1.0
1070
    74
1070
     0
1000
MTEXTEND
  0
MTEXT
  5
55E9
330
1A
100
AcDbEntity
  8
SUNPOU
100
AcDbMText
 10
60137.21151666167
 20
46697.20858673491
 30
0.0
 40
10.5
 41
0.0
 71
     9
 72
     5
  1

1001
ACAD
1000
MTEXTBEGIN
1070
    73
1070
     1
1070
    44
1040
1.0
1070
    74
1070
     0
1000
MTEXTEND
1000
MTEXTBEGIN
1070
    73
1070
     1
1070
    44
1040
1.0
1070
    74
1070
     0
1000
MTEXTEND
  0
MTEXT
  5
55EA
330
1A
100
AcDbEntity
  8
SUNPOU
100
AcDbMText
 10
46189.21141628568
 20
27524.80944762269
 30
0.0
 40
3.5
 41
0.0
 71
     7
 72
     5
  1

1001
ACAD
1000
MTEXTBEGIN
1070
    73
1070
     1
1070
    44
1040
1.0
1070
    74
1070
     0
1000
MTEXTEND
1000
MTEXTBEGIN
1070
    73
1070
     1
1070
    44
1040
1.0
1070
    74
1070
     0
1000
MTEXTEND
  0
MTEXT
  5
55EB
330
1A
100
AcDbEntity
  8
SUNPOU
100
AcDbMText
 10
45007.68847015541
 20
38269.57947701873
 30
0.0
 40
10.5
 41
0.0
 71
     9
 72
     5
  1

1001
ACAD
1000
MTEXTBEGIN
1070
    73
1070
     1
1070
    44
1040
1.0
1070
    74
1070
     0
1000
MTEXTEND
1000
MTEXTBEGIN
1070
    73
1070
     1
1070
    44
1040
1.0
1070
    74
1070
     0
1000
MTEXTEND
  0
MTEXT
  5
55EC
330
1A
100
AcDbEntity
  8
SUNPOU
100
AcDbMText
 10
63961.44718748539
 20
55736.15552951081
 30
0.0
 40
10.5
 41
0.0
 71
     9
 72
     5
  1

1001
ACAD
1000
MTEXTBEGIN
1070
    73
1070
     1
1070
    44
1040
1.0
1070
    74
1070
     0
1000
MTEXTEND
1000
MTEXTBEGIN
1070
    73
1070
     1
1070
    44
1040
1.0
1070
    74
1070
     0
1000
MTEXTEND
  0
MTEXT
  5
55ED
330
1A
100
AcDbEntity
  8
SUNPOU
100
AcDbMText
 10
65904.85443419479
 20
53935.10644963278
 30
0.0
 40
3.5
 41
0.0
 71
     9
 72
     5
  1

1001
ACAD
1000
MTEXTBEGIN
1070
    73
1070
     1
1070
    44
1040
1.0
1070
    74
1070
     0
1000
MTEXTEND
1000
MTEXTBEGIN
1070
    73
1070
     1
1070
    44
1040
1.0
1070
    74
1070
     0
1000
MTEXTEND
  0
MTEXT
  5
55EE
330
1A
100
AcDbEntity
  8
SUNPOU
100
AcDbMText
 10
97031.03426681453
 20
96430.05211729015
 30
0.0
 40
10.5
 41
0.0
 71
     9
 72
     5
  1

1001
ACAD
1000
MTEXTBEGIN
1070
    73
1070
     1
1070
    44
1040
1.0
1070
    74
1070
     0
1000
MTEXTEND
1000
MTEXTBEGIN
1070
    73
1070
     1
1070
    44
1040
1.0
1070
    74
1070
     0
1000
MTEXTEND
  0
MTEXT
  5
55EF
330
1A
100
AcDbEntity
  8
SUNPOU
100
AcDbMText
 10
98974.44151352393
 20
94629.00303741212
 30
0.0
 40
3.5
 41
0.0
 71
     9
 72
     5
  1

1001
ACAD
1000
MTEXTBEGIN
1070
    73
1070
     1
1070
    44
1040
1.0
1070
    74
1070
     0
1000
MTEXTEND
1000
MTEXTBEGIN
1070
    73
1070
     1
1070
    44
1040
1.0
1070
    74
1070
     0
1000
MTEXTEND
  0
MTEXT
  5
55F0
330
1A
100
AcDbEntity
  8
SUNPOU
100
AcDbMText
 10
47471.30197261006
 20
42263.21727226519
 30
0.0
 40
10.5
 41
0.0
 71
     9
 72
     5
  1

1001
ACAD
1000
MTEXTBEGIN
1070
    73
1070
     1
1070
    44
1040
1.0
1070
    74
1070
     0
1000
MTEXTEND
1000
MTEXTBEGIN
1070
    73
1070
     1
1070
    44
1040
1.0
1070
    74
1070
     0
1000
MTEXTEND
  0
MTEXT
  5
55F1
330
1A
100
AcDbEntity
  8
SUNPOU
100
AcDbMText
 10
33523.30187223408
 20
23090.81813315298
 30
0.0
 40
3.5
 41
0.0
 71
     7
 72
     5
  1

1001
ACAD
1000
MTEXTBEGIN
1070
    73
1070
     1
1070
    44
1040
1.0
1070
    74
1070
     0
1000
MTEXTEND
1000
MTEXTBEGIN
1070
    73
1070
     1
1070
    44
1040
1.0
1070
    74
1070
     0
1000
MTEXTEND
  0
MTEXT
  5
55F2
330
1A
100
AcDbEntity
  8
SUNPOU
100
AcDbMText
 10
57959.46254102503
 20
50038.08111611014
 30
0.0
 40
10.5
 41
0.0
 71
     9
 72
     5
  1

1001
ACAD
1000
MTEXTBEGIN
1070
    73
1070
     1
1070
    44
1040
1.0
1070
    74
1070
     0
1000
MTEXTEND
1000
MTEXTBEGIN
1070
    73
1070
     1
1070
    44
1040
1.0
1070
    74
1070
     0
1000
MTEXTEND
  0
MTEXT
  5
55F3
330
1A
100
AcDbEntity
  8
SUNPOU
100
AcDbMText
 10
76913.22125835503
 20
67504.65716860222
 30
0.0
 40
10.5
 41
0.0
 71
     9
 72
     5
  1

1001
ACAD
1000
MTEXTBEGIN
1070
    73
1070
     1
1070
    44
1040
1.0
1070
    74
1070
     0
1000
MTEXTEND
1000
MTEXTBEGIN
1070
    73
1070
     1
1070
    44
1040
1.0
1070
    74
1070
     0
1000
MTEXTEND
  0
MTEXT
  5
55F4
330
1A
100
AcDbEntity
  8
SUNPOU
100
AcDbMText
 10
78856.62850506443
 20
65703.6080887242
 30
0.0
 40
3.5
 41
0.0
 71
     9
 72
     5
  1

1001
ACAD
1000
MTEXTBEGIN
1070
    73
1070
     1
1070
    44
1040
1.0
1070
    74
1070
     0
1000
MTEXTEND
1000
MTEXTBEGIN
1070
    73
1070
     1
1070
    44
1040
1.0
1070
    74
1070
     0
1000
MTEXTEND
  0
MTEXT
  5
55F5
330
1A
100
AcDbEntity
  8
SUNPOU
100
AcDbMText
 10
109982.8083376841
 20
108198.5537563815
 30
0.0
 40
10.5
 41
0.0
 71
     9
 72
     5
  1

1001
ACAD
1000
MTEXTBEGIN
1070
    73
1070
     1
1070
    44
1040
1.0
1070
    74
1070
     0
1000
MTEXTEND
1000
MTEXTBEGIN
1070
    73
1070
     1
1070
    44
1040
1.0
1070
    74
1070
     0
1000
MTEXTEND
  0
MTEXT
  5
55F6
330
1A
100
AcDbEntity
  8
SUNPOU
100
AcDbMText
 10
111926.2155843933
 20
106397.5046765035
 30
0.0
 40
3.5
 41
0.0
 71
     9
 72
     5
  1

1001
ACAD
1000
MTEXTBEGIN
1070
    73
1070
     1
1070
    44
1040
1.0
1070
    74
1070
     0
1000
MTEXTEND
1000
MTEXTBEGIN
1070
    73
1070
     1
1070
    44
1040
1.0
1070
    74
1070
     0
1000
MTEXTEND
  0
MTEXT
  5
55F7
330
1A
100
AcDbEntity
  8
SUNPOU
100
AcDbMText
 10
60423.07604347968
 20
54031.71891135658
 30
0.0
 40
10.5
 41
0.0
 71
     9
 72
     5
  1

1001
ACAD
1000
MTEXTBEGIN
1070
    73
1070
     1
1070
    44
1040
1.0
1070
    74
1070
     0
1000
MTEXTEND
1000
MTEXTBEGIN
1070
    73
1070
     1
1070
    44
1040
1.0
1070
    74
1070
     0
1000
MTEXTEND
  0
MTEXT
  5
55F8
330
1A
100
AcDbEntity
  8
SUNPOU
100
AcDbMText
 10
46475.07594310369
 20
34859.3197722444
 30
0.0
 40
3.5
 41
0.0
 71
     7
 72
     5
  1

1001
ACAD
1000
MTEXTBEGIN
1070
    73
1070
     1
1070
    44
1040
1.0
1070
    74
1070
     0
1000
MTEXTEND
1000
MTEXTBEGIN
1070
    73
1070
     1
1070
    44
1040
1.0
1070
    74
1070
     0
1000
MTEXTEND
  0
MTEXT
  5
55F9
330
1A
100
AcDbEntity
  8
SUNPOU
100
AcDbMText
 10
74027.35402123588
 20
68370.58278833383
 30
0.0
 40
10.5
 41
0.0
 71
     9
 72
     5
  1

1001
ACAD
1000
MTEXTBEGIN
1070
    73
1070
     1
1070
    44
1040
1.0
1070
    74
1070
     0
1000
MTEXTEND
1000
MTEXTBEGIN
1070
    73
1070
     1
1070
    44
1040
1.0
1070
    74
1070
     0
1000
MTEXTEND
  0
MTEXT
  5
55FA
330
1A
100
AcDbEntity
  8
SUNPOU
100
AcDbMText
 10
75970.7612679453
 20
66569.53370845583
 30
0.0
 40
3.5
 41
0.0
 71
     9
 72
     5
  1

1001
ACAD
1000
MTEXTBEGIN
1070
    73
1070
     1
1070
    44
1040
1.0
1070
    74
1070
     0
1000
MTEXTEND
1000
MTEXTBEGIN
1070
    73
1070
     1
1070
    44
1040
1.0
1070
    74
1070
     0
1000
MTEXTEND
  0
MTEXT
  5
55FB
330
1A
100
AcDbEntity
  8
SUNPOU
100
AcDbMText
 10
107096.941100565
 20
109064.4793761132
 30
0.0
 40
10.5
 41
0.0
 71
     9
 72
     5
  1

1001
ACAD
1000
MTEXTBEGIN
1070
    73
1070
     1
1070
    44
1040
1.0
1070
    74
1070
     0
1000
MTEXTEND
1000
MTEXTBEGIN
1070
    73
1070
     1
1070
    44
1040
1.0
1070
    74
1070
     0
1000
MTEXTEND
  0
MTEXT
  5
55FC
330
1A
100
AcDbEntity
  8
SUNPOU
100
AcDbMText
 10
109040.3483472744
 20
107263.430296235
 30
0.0
 40
3.5
 41
0.0
 71
     9
 72
     5
  1

1001
ACAD
1000
MTEXTBEGIN
1070
    73
1070
     1
1070
    44
1040
1.0
1070
    74
1070
     0
1000
MTEXTEND
1000
MTEXTBEGIN
1070
    73
1070
     1
1070
    44
1040
1.0
1070
    74
1070
     0
1000
MTEXTEND
  0
MTEXT
  5
55FD
330
1A
100
AcDbEntity
  8
SUNPOU
100
AcDbMText
 10
105709.1709283621
 20
108141.3777665285
 30
0.0
 40
10.5
 41
0.0
 71
     9
 72
     5
  1

1001
ACAD
1000
MTEXTBEGIN
1070
    73
1070
     1
1070
    44
1040
1.0
1070
    74
1070
     0
1000
MTEXTEND
1000
MTEXTBEGIN
1070
    73
1070
     1
1070
    44
1040
1.0
1070
    74
1070
     0
1000
MTEXTEND
  0
MTEXT
  5
55FE
330
1A
100
AcDbEntity
  8
SUNPOU
100
AcDbMText
 10
107652.5781750715
 20
106340.3286866505
 30
0.0
 40
3.5
 41
0.0
 71
     9
 72
     5
  1

1001
ACAD
1000
MTEXTBEGIN
1070
    73
1070
     1
1070
    44
1040
1.0
1070
    74
1070
     0
1000
MTEXTEND
1000
MTEXTBEGIN
1070
    73
1070
     1
1070
    44
1040
1.0
1070
    74
1070
     0
1000
MTEXTEND
  0
MTEXT
  5
55FF
330
1A
100
AcDbEntity
  8
SUNPOU
100
AcDbMText
 10
73193.09268743351
 20
66158.78082845057
 30
0.0
 40
10.5
 41
0.0
 71
     9
 72
     5
  1

1001
ACAD
1000
MTEXTBEGIN
1070
    73
1070
     1
1070
    44
1040
1.0
1070
    74
1070
     0
1000
MTEXTEND
1000
MTEXTBEGIN
1070
    73
1070
     1
1070
    44
1040
1.0
1070
    74
1070
     0
1000
MTEXTEND
  0
MTEXT
  5
5600
330
1A
100
AcDbEntity
  8
SUNPOU
100
AcDbMText
 10
75916.39889159807
 20
66563.46252003162
 30
0.0
 40
3.5
 41
0.0
 71
     9
 72
     5
  1

1001
ACAD
1000
MTEXTBEGIN
1070
    73
1070
     1
1070
    44
1040
1.0
1070
    74
1070
     0
1000
MTEXTEND
1000
MTEXTBEGIN
1070
    73
1070
     1
1070
    44
1040
1.0
1070
    74
1070
     0
1000
MTEXTEND
  0
MTEXT
  5
5601
330
1A
100
AcDbEntity
  8
SUNPOU
100
AcDbMText
 10
75124.04436649058
 20
63402.1566819768
 30
0.0
 40
10.5
 41
0.0
 71
     9
 72
     5
  1

1001
ACAD
1000
MTEXTBEGIN
1070
    73
1070
     1
1070
    44
1040
1.0
1070
    74
1070
     0
1000
MTEXTEND
1000
MTEXTBEGIN
1070
    73
1070
     1
1070
    44
1040
1.0
1070
    74
1070
     0
1000
MTEXTEND
  0
MTEXT
  5
5602
330
1A
100
AcDbEntity
  8
SUNPOU
100
AcDbMText
 10
77067.4516132
 20
61601.1076020988
 30
0.0
 40
3.5
 41
0.0
 71
     9
 72
     5
  1

1001
ACAD
1000
MTEXTBEGIN
1070
    73
1070
     1
1070
    44
1040
1.0
1070
    74
1070
     0
1000
MTEXTEND
1000
MTEXTBEGIN
1070
    73
1070
     1
1070
    44
1040
1.0
1070
    74
1070
     0
1000
MTEXTEND
  0
MTEXT
  5
5603
330
1A
100
AcDbEntity
  8
SUNPOU
100
AcDbMText
 10
77012.54710378659
 20
61488.33571981449
 30
0.0
 40
3.5
 41
0.0
 71
     9
 72
     5
  1

1001
ACAD
1000
MTEXTBEGIN
1070
    73
1070
     1
1070
    44
1040
1.0
1070
    74
1070
     0
1000
MTEXTEND
1000
MTEXTBEGIN
1070
    73
1070
     1
1070
    44
1040
1.0
1070
    74
1070
     0
1000
MTEXTEND
  0
MTEXT
  5
5604
330
1A
100
AcDbEntity
  8
SUNPOU
100
AcDbMText
 10
76376.61896736668
 20
60677.01447874798
 30
0.0
 40
3.5
 41
0.0
 71
     9
 72
     5
  1

1001
ACAD
1000
MTEXTBEGIN
1070
    73
1070
     1
1070
    44
1040
1.0
1070
    74
1070
     0
1000
MTEXTEND
1000
MTEXTBEGIN
1070
    73
1070
     1
1070
    44
1040
1.0
1070
    74
1070
     0
1000
MTEXTEND
  0
MTEXT
  5
5605
330
1A
100
AcDbEntity
  8
SUNPOU
100
AcDbMText
 10
76375.37854794595
 20
60676.76650181048
 30
0.0
 40
10.5
 41
0.0
 71
     9
 72
     5
  1

1001
ACAD
1000
MTEXTBEGIN
1070
    73
1070
     1
1070
    44
1040
1.0
1070
    74
1070
     0
1000
MTEXTEND
1000
MTEXTBEGIN
1070
    73
1070
     1
1070
    44
1040
1.0
1070
    74
1070
     0
1000
MTEXTEND
  0
MTEXT
  5
5606
330
1A
100
AcDbEntity
  8
SUNPOU
100
AcDbMText
 10
84709.93991079748
 20
78034.0328293557
 30
0.0
 40
10.5
 41
0.0
 71
     9
 72
     5
  1

1001
ACAD
1000
MTEXTBEGIN
1070
    73
1070
     1
1070
    44
1040
1.0
1070
    74
1070
     0
1000
MTEXTEND
1000
MTEXTBEGIN
1070
    73
1070
     1
1070
    44
1040
1.0
1070
    74
1070
     0
1000
MTEXTEND
  0
MTEXT
  5
5607
330
1A
100
AcDbEntity
  8
SUNPOU
100
AcDbMText
 10
93432.10747671546
 20
85449.86736089315
 30
0.0
 40
10.5
 41
0.0
 71
     9
 72
     5
  1

1001
ACAD
1000
MTEXTBEGIN
1070
    73
1070
     1
1070
    44
1040
1.0
1070
    74
1070
     0
1000
MTEXTEND
1000
MTEXTBEGIN
1070
    73
1070
     1
1070
    44
1040
1.0
1070
    74
1070
     0
1000
MTEXTEND
  0
MTEXT
  5
5608
330
1A
100
AcDbEntity
  8
SUNPOU
100
AcDbMText
 10
112385.8661940454
 20
102916.4434133851
 30
0.0
 40
10.5
 41
0.0
 71
     9
 72
     5
  1

1001
ACAD
1000
MTEXTBEGIN
1070
    73
1070
     1
1070
    44
1040
1.0
1070
    74
1070
     0
1000
MTEXTEND
1000
MTEXTBEGIN
1070
    73
1070
     1
1070
    44
1040
1.0
1070
    74
1070
     0
1000
MTEXTEND
  0
MTEXT
  5
5609
330
1A
100
AcDbEntity
  8
SUNPOU
100
AcDbMText
 10
114329.2734407548
 20
101115.3943335072
 30
0.0
 40
3.5
 41
0.0
 71
     9
 72
     5
  1

1001
ACAD
1000
MTEXTBEGIN
1070
    73
1070
     1
1070
    44
1040
1.0
1070
    74
1070
     0
1000
MTEXTEND
1000
MTEXTBEGIN
1070
    73
1070
     1
1070
    44
1040
1.0
1070
    74
1070
     0
1000
MTEXTEND
  0
MTEXT
  5
560A
330
1A
100
AcDbEntity
  8
SUNPOU
100
AcDbMText
 10
145455.4532733745
 20
143610.3400011645
 30
0.0
 40
10.5
 41
0.0
 71
     9
 72
     5
  1

1001
ACAD
1000
MTEXTBEGIN
1070
    73
1070
     1
1070
    44
1040
1.0
1070
    74
1070
     0
1000
MTEXTEND
1000
MTEXTBEGIN
1070
    73
1070
     1
1070
    44
1040
1.0
1070
    74
1070
     0
1000
MTEXTEND
  0
MTEXT
  5
560B
330
1A
100
AcDbEntity
  8
SUNPOU
100
AcDbMText
 10
147398.8605200839
 20
141809.2909212864
 30
0.0
 40
3.5
 41
0.0
 71
     9
 72
     5
  1

1001
ACAD
1000
MTEXTBEGIN
1070
    73
1070
     1
1070
    44
1040
1.0
1070
    74
1070
     0
1000
MTEXTEND
1000
MTEXTBEGIN
1070
    73
1070
     1
1070
    44
1040
1.0
1070
    74
1070
     0
1000
MTEXTEND
  0
MTEXT
  5
560C
330
1A
100
AcDbEntity
  8
SUNPOU
100
AcDbMText
 10
95895.72097917011
 20
89443.50515613962
 30
0.0
 40
10.5
 41
0.0
 71
     9
 72
     5
  1

1001
ACAD
1000
MTEXTBEGIN
1070
    73
1070
     1
1070
    44
1040
1.0
1070
    74
1070
     0
1000
MTEXTEND
1000
MTEXTBEGIN
1070
    73
1070
     1
1070
    44
1040
1.0
1070
    74
1070
     0
1000
MTEXTEND
  0
MTEXT
  5
560D
330
1A
100
AcDbEntity
  8
SUNPOU
100
AcDbMText
 10
81947.72087879414
 20
70271.1060170274
 30
0.0
 40
3.5
 41
0.0
 71
     7
 72
     5
  1

1001
ACAD
1000
MTEXTBEGIN
1070
    73
1070
     1
1070
    44
1040
1.0
1070
    74
1070
     0
1000
MTEXTEND
1000
MTEXTBEGIN
1070
    73
1070
     1
1070
    44
1040
1.0
1070
    74
1070
     0
1000
MTEXTEND
  0
MTEXT
  5
560E
330
1A
100
AcDbEntity
  8
SUNPOU
100
AcDbMText
 10
62932.89027578729
 20
58033.25474784561
 30
0.0
 40
10.5
 41
0.0
 71
     7
 72
     5
  1

1001
ACAD
1000
MTEXTBEGIN
1070
    73
1070
     1
1070
    44
1040
1.0
1070
    74
1070
     0
1000
MTEXTEND
1000
MTEXTBEGIN
1070
    73
1070
     1
1070
    44
1040
1.0
1070
    74
1070
     0
1000
MTEXTEND
  0
MTEXT
  5
560F
330
1A
100
AcDbEntity
  8
SUNPOU
100
AcDbMText
 10
50475.66201083918
 20
42188.32316974718
 30
0.0
 40
35.0
 41
0.0
 71
     9
 72
     5
  1

1001
ACAD
1000
MTEXTBEGIN
1070
    73
1070
     1
1070
    44
1040
1.0
1070
    74
1070
     0
1000
MTEXTEND
1000
MTEXTBEGIN
1070
    73
1070
     1
1070
    44
1040
1.0
1070
    74
1070
     0
1000
MTEXTEND
  0
MTEXT
  5
5610
330
1A
100
AcDbEntity
  8
SUNPOU
100
AcDbMText
 10
49384.14706841413
 20
42797.0985797959
 30
0.0
 40
350.0000004171781
 41
0.0
 71
     7
 72
     5
  1

1001
ACAD
1000
MTEXTBEGIN
1070
    73
1070
     1
1070
    44
1040
1.0
1070
    74
1070
     0
1000
MTEXTEND
1000
MTEXTBEGIN
1070
    73
1070
     1
1070
    44
1040
1.0
1070
    74
1070
     0
1000
MTEXTEND
  0
MTEXT
  5
5611
330
1A
100
AcDbEntity
  8
0
100
AcDbMText
 10
55428.09782635704
 20
40777.0209419321
 30
0.0
 40
8.0
 41
0.0
 71
     7
 72
     5
  1

1001
ACAD
1000
MTEXTBEGIN
1070
    73
1070
     1
1070
    44
1040
1.0
1070
    74
1070
     0
1000
MTEXTEND
1000
MTEXTBEGIN
1070
    73
1070
     1
1070
    44
1040
1.0
1070
    74
1070
     0
1000
MTEXTEND
  0
MTEXT
  5
5612
330
1A
100
AcDbEntity
  8
0
100
AcDbMText
 10
57713.45551625192
 20
41747.81123668316
 30
0.0
 40
8.0
 41
0.0
 71
     7
 72
     5
  1

1001
ACAD
1000
MTEXTBEGIN
1070
    73
1070
     1
1070
    44
1040
1.0
1070
    74
1070
     0
1000
MTEXTEND
1000
MTEXTBEGIN
1070
    73
1070
     1
1070
    44
1040
1.0
1070
    74
1070
     0
1000
MTEXTEND
  0
MTEXT
  5
5613
330
1A
100
AcDbEntity
  8
SUNPOU
100
AcDbMText
 10
60379.35253693407
 20
51259.9226290583
 30
0.0
 40
10.5
 41
0.0
 71
     1
 72
     5
  1

1001
ACAD
1000
MTEXTBEGIN
1070
    73
1070
     1
1070
    44
1040
1.0
1070
    74
1070
     0
1000
MTEXTEND
1000
MTEXTBEGIN
1070
    73
1070
     1
1070
    44
1040
1.0
1070
    74
1070
     0
1000
MTEXTEND
  0
MTEXT
  5
5614
330
1A
100
AcDbEntity
  8
SUNPOU
100
AcDbMText
 10
52448.42934099813
 20
50313.12949514535
 30
0.0
 40
10.5
 41
0.0
 71
     7
 72
     5
  1

1001
ACAD
1000
MTEXTBEGIN
1070
    73
1070
     1
1070
    44
1040
1.0
1070
    74
1070
     0
1000
MTEXTEND
1000
MTEXTBEGIN
1070
    73
1070
     1
1070
    44
1040
1.0
1070
    74
1070
     0
1000
MTEXTEND
  0
MTEXT
  5
5615
330
1A
100
AcDbEntity
  8
SUNPOU
100
AcDbMText
 10
55397.4130055109
 20
55213.80556698819
 30
0.0
 40
10.5
 41
0.0
 71
     7
 72
     5
  1

1001
ACAD
1000
MTEXTBEGIN
1070
    73
1070
     1
1070
    44
1040
1.0
1070
    74
1070
     0
1000
MTEXTEND
1000
MTEXTBEGIN
1070
    73
1070
     1
1070
    44
1040
1.0
1070
    74
1070
     0
1000
MTEXTEND
  0
MTEXT
  5
5616
330
1A
100
AcDbEntity
  8
SUNPOU
100
AcDbMText
 10
59906.49113346147
 20
57650.10631460826
 30
0.0
 40
10.5
 41
0.0
 71
     7
 72
     5
  1

1001
ACAD
1000
MTEXTBEGIN
1070
    73
1070
     1
1070
    44
1040
1.0
1070
    74
1070
     0
1000
MTEXTEND
1000
MTEXTBEGIN
1070
    73
1070
     1
1070
    44
1040
1.0
1070
    74
1070
     0
1000
MTEXTEND
  0
MTEXT
  5
5617
330
1A
100
AcDbEntity
  8
SUNPOU
100
AcDbMText
 10
43507.32902022977
 20
36647.70246499718
 30
0.0
 40
10.5
 41
0.0
 71
     7
 72
     5
  1

1001
ACAD
1000
MTEXTBEGIN
1070
    73
1070
     1
1070
    44
1040
1.0
1070
    74
1070
     0
1000
MTEXTEND
1000
MTEXTBEGIN
1070
    73
1070
     1
1070
    44
1040
1.0
1070
    74
1070
     0
1000
MTEXTEND
  0
MTEXT
  5
5618
330
1A
100
AcDbEntity
  8
SUNPOU
100
AcDbMText
 10
94698.84745413006
 20
82320.68302864544
 30
0.0
 40
10.5
 41
0.0
 71
     9
 72
     5
  1

1001
ACAD
1000
MTEXTBEGIN
1070
    73
1070
     1
1070
    44
1040
1.0
1070
    74
1070
     0
1000
MTEXTEND
1000
MTEXTBEGIN
1070
    73
1070
     1
1070
    44
1040
1.0
1070
    74
1070
     0
1000
MTEXTEND
  0
MTEXT
  5
5619
330
1A
100
AcDbEntity
  8
SUNPOU
100
AcDbMText
 10
103421.015020048
 20
89736.5175601829
 30
0.0
 40
10.5
 41
0.0
 71
     9
 72
     5
  1

1001
ACAD
1000
MTEXTBEGIN
1070
    73
1070
     1
1070
    44
1040
1.0
1070
    74
1070
     0
1000
MTEXTEND
1000
MTEXTBEGIN
1070
    73
1070
     1
1070
    44
1040
1.0
1070
    74
1070
     0
1000
MTEXTEND
  0
MTEXT
  5
561A
330
1A
100
AcDbEntity
  8
SUNPOU
100
AcDbMText
 10
122374.773737378
 20
107203.0936126749
 30
0.0
 40
10.5
 41
0.0
 71
     9
 72
     5
  1

1001
ACAD
1000
MTEXTBEGIN
1070
    73
1070
     1
1070
    44
1040
1.0
1070
    74
1070
     0
1000
MTEXTEND
1000
MTEXTBEGIN
1070
    73
1070
     1
1070
    44
1040
1.0
1070
    74
1070
     0
1000
MTEXTEND
  0
MTEXT
  5
561B
330
1A
100
AcDbEntity
  8
SUNPOU
100
AcDbMText
 10
124318.1809840874
 20
105402.0445327969
 30
0.0
 40
3.5
 41
0.0
 71
     9
 72
     5
  1

1001
ACAD
1000
MTEXTBEGIN
1070
    73
1070
     1
1070
    44
1040
1.0
1070
    74
1070
     0
1000
MTEXTEND
1000
MTEXTBEGIN
1070
    73
1070
     1
1070
    44
1040
1.0
1070
    74
1070
     0
1000
MTEXTEND
  0
MTEXT
  5
561C
330
1A
100
AcDbEntity
  8
SUNPOU
100
AcDbMText
 10
155444.3608167071
 20
147896.9902004542
 30
0.0
 40
10.5
 41
0.0
 71
     9
 72
     5
  1

1001
ACAD
1000
MTEXTBEGIN
1070
    73
1070
     1
1070
    44
1040
1.0
1070
    74
1070
     0
1000
MTEXTEND
1000
MTEXTBEGIN
1070
    73
1070
     1
1070
    44
1040
1.0
1070
    74
1070
     0
1000
MTEXTEND
  0
MTEXT
  5
561D
330
1A
100
AcDbEntity
  8
SUNPOU
100
AcDbMText
 10
157387.7680634165
 20
146095.9411205762
 30
0.0
 40
3.5
 41
0.0
 71
     9
 72
     5
  1

1001
ACAD
1000
MTEXTBEGIN
1070
    73
1070
     1
1070
    44
1040
1.0
1070
    74
1070
     0
1000
MTEXTEND
1000
MTEXTBEGIN
1070
    73
1070
     1
1070
    44
1040
1.0
1070
    74
1070
     0
1000
MTEXTEND
  0
MTEXT
  5
561E
330
1A
100
AcDbEntity
  8
SUNPOU
100
AcDbMText
 10
105884.6285225027
 20
93730.15535542933
 30
0.0
 40
10.5
 41
0.0
 71
     9
 72
     5
  1

1001
ACAD
1000
MTEXTBEGIN
1070
    73
1070
     1
1070
    44
1040
1.0
1070
    74
1070
     0
1000
MTEXTEND
1000
MTEXTBEGIN
1070
    73
1070
     1
1070
    44
1040
1.0
1070
    74
1070
     0
1000
MTEXTEND
  0
MTEXT
  5
561F
330
1A
100
AcDbEntity
  8
SUNPOU
100
AcDbMText
 10
91936.6284221267
 20
74557.75621631714
 30
0.0
 40
3.5
 41
0.0
 71
     7
 72
     5
  1

1001
ACAD
1000
MTEXTBEGIN
1070
    73
1070
     1
1070
    44
1040
1.0
1070
    74
1070
     0
1000
MTEXTEND
1000
MTEXTBEGIN
1070
    73
1070
     1
1070
    44
1040
1.0
1070
    74
1070
     0
1000
MTEXTEND
  0
MTEXT
  5
5620
330
1A
100
AcDbEntity
  8
SUNPOU
100
AcDbMText
 10
72921.79781911986
 20
62319.90494713532
 30
0.0
 40
10.5
 41
0.0
 71
     7
 72
     5
  1

1001
ACAD
1000
MTEXTBEGIN
1070
    73
1070
     1
1070
    44
1040
1.0
1070
    74
1070
     0
1000
MTEXTEND
1000
MTEXTBEGIN
1070
    73
1070
     1
1070
    44
1040
1.0
1070
    74
1070
     0
1000
MTEXTEND
  0
MTEXT
  5
5621
330
1A
100
AcDbEntity
  8
SUNPOU
100
AcDbMText
 10
60464.56955417175
 20
46474.97336903692
 30
0.0
 40
35.0
 41
0.0
 71
     9
 72
     5
  1

1001
ACAD
1000
MTEXTBEGIN
1070
    73
1070
     1
1070
    44
1040
1.0
1070
    74
1070
     0
1000
MTEXTEND
1000
MTEXTBEGIN
1070
    73
1070
     1
1070
    44
1040
1.0
1070
    74
1070
     0
1000
MTEXTEND
  0
MTEXT
  5
5622
330
1A
100
AcDbEntity
  8
SUNPOU
100
AcDbMText
 10
59373.05461174673
 20
47083.74877908561
 30
0.0
 40
350.0000004171781
 41
0.0
 71
     7
 72
     5
  1

1001
ACAD
1000
MTEXTBEGIN
1070
    73
1070
     1
1070
    44
1040
1.0
1070
    74
1070
     0
1000
MTEXTEND
1000
MTEXTBEGIN
1070
    73
1070
     1
1070
    44
1040
1.0
1070
    74
1070
     0
1000
MTEXTEND
  0
MTEXT
  5
5623
330
1A
100
AcDbEntity
  8
0
100
AcDbMText
 10
65417.00536968963
 20
45063.67114122186
 30
0.0
 40
8.0
 41
0.0
 71
     7
 72
     5
  1

1001
ACAD
1000
MTEXTBEGIN
1070
    73
1070
     1
1070
    44
1040
1.0
1070
    74
1070
     0
1000
MTEXTEND
1000
MTEXTBEGIN
1070
    73
1070
     1
1070
    44
1040
1.0
1070
    74
1070
     0
1000
MTEXTEND
  0
MTEXT
  5
5624
330
1A
100
AcDbEntity
  8
0
100
AcDbMText
 10
67702.36305958452
 20
46034.46143597292
 30
0.0
 40
8.0
 41
0.0
 71
     7
 72
     5
  1

1001
ACAD
1000
MTEXTBEGIN
1070
    73
1070
     1
1070
    44
1040
1.0
1070
    74
1070
     0
1000
MTEXTEND
1000
MTEXTBEGIN
1070
    73
1070
     1
1070
    44
1040
1.0
1070
    74
1070
     0
1000
MTEXTEND
  0
MTEXT
  5
5625
330
1A
100
AcDbEntity
  8
SUNPOU
100
AcDbMText
 10
70368.26008026666
 20
55546.57282834803
 30
0.0
 40
10.5
 41
0.0
 71
     1
 72
     5
  1

1001
ACAD
1000
MTEXTBEGIN
1070
    73
1070
     1
1070
    44
1040
1.0
1070
    74
1070
     0
1000
MTEXTEND
1000
MTEXTBEGIN
1070
    73
1070
     1
1070
    44
1040
1.0
1070
    74
1070
     0
1000
MTEXTEND
  0
MTEXT
  5
5626
330
1A
100
AcDbEntity
  8
SUNPOU
100
AcDbMText
 10
62437.33688433072
 20
54599.77969443507
 30
0.0
 40
10.5
 41
0.0
 71
     7
 72
     5
  1

1001
ACAD
1000
MTEXTBEGIN
1070
    73
1070
     1
1070
    44
1040
1.0
1070
    74
1070
     0
1000
MTEXTEND
1000
MTEXTBEGIN
1070
    73
1070
     1
1070
    44
1040
1.0
1070
    74
1070
     0
1000
MTEXTEND
  0
MTEXT
  5
5627
330
1A
100
AcDbEntity
  8
SUNPOU
100
AcDbMText
 10
65386.32054884347
 20
59500.45576627792
 30
0.0
 40
10.5
 41
0.0
 71
     7
 72
     5
  1

1001
ACAD
1000
MTEXTBEGIN
1070
    73
1070
     1
1070
    44
1040
1.0
1070
    74
1070
     0
1000
MTEXTEND
1000
MTEXTBEGIN
1070
    73
1070
     1
1070
    44
1040
1.0
1070
    74
1070
     0
1000
MTEXTEND
  0
MTEXT
  5
5628
330
1A
100
AcDbEntity
  8
SUNPOU
100
AcDbMText
 10
69895.39867679405
 20
61936.756513898
 30
0.0
 40
10.5
 41
0.0
 71
     7
 72
     5
  1

1001
ACAD
1000
MTEXTBEGIN
1070
    73
1070
     1
1070
    44
1040
1.0
1070
    74
1070
     0
1000
MTEXTEND
1000
MTEXTBEGIN
1070
    73
1070
     1
1070
    44
1040
1.0
1070
    74
1070
     0
1000
MTEXTEND
  0
MTEXT
  5
5629
330
1A
100
AcDbEntity
  8
SUNPOU
100
AcDbMText
 10
53496.23656356237
 20
40934.35266428691
 30
0.0
 40
10.5
 41
0.0
 71
     7
 72
     5
  1

1001
ACAD
1000
MTEXTBEGIN
1070
    73
1070
     1
1070
    44
1040
1.0
1070
    74
1070
     0
1000
MTEXTEND
1000
MTEXTBEGIN
1070
    73
1070
     1
1070
    44
1040
1.0
1070
    74
1070
     0
1000
MTEXTEND
  0
MTEXT
  5
562A
330
1A
100
AcDbEntity
  8
SUNPOU
100
AcDbMText
 10
55306.99947493731
 20
47261.76665176546
 30
0.0
 40
10.5
 41
0.0
 71
     9
 72
     5
  1

1001
ACAD
1000
MTEXTBEGIN
1070
    73
1070
     1
1070
    44
1040
1.0
1070
    74
1070
     0
1000
MTEXTEND
1000
MTEXTBEGIN
1070
    73
1070
     1
1070
    44
1040
1.0
1070
    74
1070
     0
1000
MTEXTEND
  0
MTEXT
  5
562B
330
1A
100
AcDbEntity
  8
SUNPOU
100
AcDbMText
 10
64029.16704085527
 20
54677.60118330295
 30
0.0
 40
10.5
 41
0.0
 71
     9
 72
     5
  1

1001
ACAD
1000
MTEXTBEGIN
1070
    73
1070
     1
1070
    44
1040
1.0
1070
    74
1070
     0
1000
MTEXTEND
1000
MTEXTBEGIN
1070
    73
1070
     1
1070
    44
1040
1.0
1070
    74
1070
     0
1000
MTEXTEND
  0
MTEXT
  5
562C
330
1A
100
AcDbEntity
  8
SUNPOU
100
AcDbMText
 10
82982.92575818527
 20
72144.17723579499
 30
0.0
 40
10.5
 41
0.0
 71
     9
 72
     5
  1

1001
ACAD
1000
MTEXTBEGIN
1070
    73
1070
     1
1070
    44
1040
1.0
1070
    74
1070
     0
1000
MTEXTEND
1000
MTEXTBEGIN
1070
    73
1070
     1
1070
    44
1040
1.0
1070
    74
1070
     0
1000
MTEXTEND
  0
MTEXT
  5
562D
330
1A
100
AcDbEntity
  8
SUNPOU
100
AcDbMText
 10
84926.33300489467
 20
70343.12815591697
 30
0.0
 40
3.5
 41
0.0
 71
     9
 72
     5
  1

1001
ACAD
1000
MTEXTBEGIN
1070
    73
1070
     1
1070
    44
1040
1.0
1070
    74
1070
     0
1000
MTEXTEND
1000
MTEXTBEGIN
1070
    73
1070
     1
1070
    44
1040
1.0
1070
    74
1070
     0
1000
MTEXTEND
  0
MTEXT
  5
562E
330
1A
100
AcDbEntity
  8
SUNPOU
100
AcDbMText
 10
116052.5128375142
 20
112838.0738235742
 30
0.0
 40
10.5
 41
0.0
 71
     9
 72
     5
  1

1001
ACAD
1000
MTEXTBEGIN
1070
    73
1070
     1
1070
    44
1040
1.0
1070
    74
1070
     0
1000
MTEXTEND
1000
MTEXTBEGIN
1070
    73
1070
     1
1070
    44
1040
1.0
1070
    74
1070
     0
1000
MTEXTEND
  0
MTEXT
  5
562F
330
1A
100
AcDbEntity
  8
SUNPOU
100
AcDbMText
 10
117995.9200842238
 20
111037.0247436963
 30
0.0
 40
3.5
 41
0.0
 71
     9
 72
     5
  1

1001
ACAD
1000
MTEXTBEGIN
1070
    73
1070
     1
1070
    44
1040
1.0
1070
    74
1070
     0
1000
MTEXTEND
1000
MTEXTBEGIN
1070
    73
1070
     1
1070
    44
1040
1.0
1070
    74
1070
     0
1000
MTEXTEND
  0
MTEXT
  5
5630
330
1A
100
AcDbEntity
  8
SUNPOU
100
AcDbMText
 10
66492.78054330994
 20
58671.23897854939
 30
0.0
 40
10.5
 41
0.0
 71
     9
 72
     5
  1

1001
ACAD
1000
MTEXTBEGIN
1070
    73
1070
     1
1070
    44
1040
1.0
1070
    74
1070
     0
1000
MTEXTEND
1000
MTEXTBEGIN
1070
    73
1070
     1
1070
    44
1040
1.0
1070
    74
1070
     0
1000
MTEXTEND
  0
MTEXT
  5
5631
330
1A
100
AcDbEntity
  8
SUNPOU
100
AcDbMText
 10
52544.78044293397
 20
39498.83983943717
 30
0.0
 40
3.5
 41
0.0
 71
     7
 72
     5
  1

1001
ACAD
1000
MTEXTBEGIN
1070
    73
1070
     1
1070
    44
1040
1.0
1070
    74
1070
     0
1000
MTEXTEND
1000
MTEXTBEGIN
1070
    73
1070
     1
1070
    44
1040
1.0
1070
    74
1070
     0
1000
MTEXTEND
  0
MTEXT
  5
5632
330
1A
100
AcDbEntity
  8
SUNPOU
100
AcDbMText
 10
66237.13112570454
 20
48857.90306045851
 30
0.0
 40
10.5
 41
0.0
 71
     9
 72
     5
  1

1001
ACAD
1000
MTEXTBEGIN
1070
    73
1070
     1
1070
    44
1040
1.0
1070
    74
1070
     0
1000
MTEXTEND
1000
MTEXTBEGIN
1070
    73
1070
     1
1070
    44
1040
1.0
1070
    74
1070
     0
1000
MTEXTEND
  0
MTEXT
  5
5633
330
1A
100
AcDbEntity
  8
SUNPOU
100
AcDbMText
 10
74959.29869162253
 20
56273.73759199598
 30
0.0
 40
10.5
 41
0.0
 71
     9
 72
     5
  1

1001
ACAD
1000
MTEXTBEGIN
1070
    73
1070
     1
1070
    44
1040
1.0
1070
    74
1070
     0
1000
MTEXTEND
1000
MTEXTBEGIN
1070
    73
1070
     1
1070
    44
1040
1.0
1070
    74
1070
     0
1000
MTEXTEND
  0
MTEXT
  5
5634
330
1A
100
AcDbEntity
  8
SUNPOU
100
AcDbMText
 10
93913.0574089525
 20
73740.31364448805
 30
0.0
 40
10.5
 41
0.0
 71
     9
 72
     5
  1

1001
ACAD
1000
MTEXTBEGIN
1070
    73
1070
     1
1070
    44
1040
1.0
1070
    74
1070
     0
1000
MTEXTEND
1000
MTEXTBEGIN
1070
    73
1070
     1
1070
    44
1040
1.0
1070
    74
1070
     0
1000
MTEXTEND
  0
MTEXT
  5
5635
330
1A
100
AcDbEntity
  8
SUNPOU
100
AcDbMText
 10
95856.46465566192
 20
71939.26456461004
 30
0.0
 40
3.5
 41
0.0
 71
     9
 72
     5
  1

1001
ACAD
1000
MTEXTBEGIN
1070
    73
1070
     1
1070
    44
1040
1.0
1070
    74
1070
     0
1000
MTEXTEND
1000
MTEXTBEGIN
1070
    73
1070
     1
1070
    44
1040
1.0
1070
    74
1070
     0
1000
MTEXTEND
  0
MTEXT
  5
5636
330
1A
100
AcDbEntity
  8
SUNPOU
100
AcDbMText
 10
126982.6444882816
 20
114434.2102322673
 30
0.0
 40
10.5
 41
0.0
 71
     9
 72
     5
  1

1001
ACAD
1000
MTEXTBEGIN
1070
    73
1070
     1
1070
    44
1040
1.0
1070
    74
1070
     0
1000
MTEXTEND
1000
MTEXTBEGIN
1070
    73
1070
     1
1070
    44
1040
1.0
1070
    74
1070
     0
1000
MTEXTEND
  0
MTEXT
  5
5637
330
1A
100
AcDbEntity
  8
SUNPOU
100
AcDbMText
 10
128926.051734991
 20
112633.1611523893
 30
0.0
 40
3.5
 41
0.0
 71
     9
 72
     5
  1

1001
ACAD
1000
MTEXTBEGIN
1070
    73
1070
     1
1070
    44
1040
1.0
1070
    74
1070
     0
1000
MTEXTEND
1000
MTEXTBEGIN
1070
    73
1070
     1
1070
    44
1040
1.0
1070
    74
1070
     0
1000
MTEXTEND
  0
MTEXT
  5
5638
330
1A
100
AcDbEntity
  8
SUNPOU
100
AcDbMText
 10
77422.91219407717
 20
60267.37538724244
 30
0.0
 40
10.5
 41
0.0
 71
     9
 72
     5
  1

1001
ACAD
1000
MTEXTBEGIN
1070
    73
1070
     1
1070
    44
1040
1.0
1070
    74
1070
     0
1000
MTEXTEND
1000
MTEXTBEGIN
1070
    73
1070
     1
1070
    44
1040
1.0
1070
    74
1070
     0
1000
MTEXTEND
  0
MTEXT
  5
5639
330
1A
100
AcDbEntity
  8
SUNPOU
100
AcDbMText
 10
63474.91209370119
 20
41094.97624813023
 30
0.0
 40
3.5
 41
0.0
 71
     7
 72
     5
  1

1001
ACAD
1000
MTEXTBEGIN
1070
    73
1070
     1
1070
    44
1040
1.0
1070
    74
1070
     0
1000
MTEXTEND
1000
MTEXTBEGIN
1070
    73
1070
     1
1070
    44
1040
1.0
1070
    74
1070
     0
1000
MTEXTEND
  0
MTEXT
  5
563A
330
1A
100
AcDbEntity
  8
SUNPOU
100
AcDbMText
 10
48117.65086229006
 20
40806.11043916631
 30
0.0
 40
10.5
 41
0.0
 71
     9
 72
     5
  1

1001
ACAD
1000
MTEXTBEGIN
1070
    73
1070
     1
1070
    44
1040
1.0
1070
    74
1070
     0
1000
MTEXTEND
1000
MTEXTBEGIN
1070
    73
1070
     1
1070
    44
1040
1.0
1070
    74
1070
     0
1000
MTEXTEND
  0
MTEXT
  5
563B
330
1A
100
AcDbEntity
  8
SUNPOU
100
AcDbMText
 10
67071.40957962004
 20
58272.68649165838
 30
0.0
 40
10.5
 41
0.0
 71
     9
 72
     5
  1

1001
ACAD
1000
MTEXTBEGIN
1070
    73
1070
     1
1070
    44
1040
1.0
1070
    74
1070
     0
1000
MTEXTEND
1000
MTEXTBEGIN
1070
    73
1070
     1
1070
    44
1040
1.0
1070
    74
1070
     0
1000
MTEXTEND
  0
MTEXT
  5
563C
330
1A
100
AcDbEntity
  8
SUNPOU
100
AcDbMText
 10
69014.81682632945
 20
56471.63741178035
 30
0.0
 40
3.5
 41
0.0
 71
     9
 72
     5
  1

1001
ACAD
1000
MTEXTBEGIN
1070
    73
1070
     1
1070
    44
1040
1.0
1070
    74
1070
     0
1000
MTEXTEND
1000
MTEXTBEGIN
1070
    73
1070
     1
1070
    44
1040
1.0
1070
    74
1070
     0
1000
MTEXTEND
  0
MTEXT
  5
563D
330
1A
100
AcDbEntity
  8
SUNPOU
100
AcDbMText
 10
100140.9966589491
 20
98966.58307943773
 30
0.0
 40
10.5
 41
0.0
 71
     9
 72
     5
  1

1001
ACAD
1000
MTEXTBEGIN
1070
    73
1070
     1
1070
    44
1040
1.0
1070
    74
1070
     0
1000
MTEXTEND
1000
MTEXTBEGIN
1070
    73
1070
     1
1070
    44
1040
1.0
1070
    74
1070
     0
1000
MTEXTEND
  0
MTEXT
  5
563E
330
1A
100
AcDbEntity
  8
SUNPOU
100
AcDbMText
 10
102084.4039056586
 20
97165.53399955968
 30
0.0
 40
3.5
 41
0.0
 71
     9
 72
     5
  1

1001
ACAD
1000
MTEXTBEGIN
1070
    73
1070
     1
1070
    44
1040
1.0
1070
    74
1070
     0
1000
MTEXTEND
1000
MTEXTBEGIN
1070
    73
1070
     1
1070
    44
1040
1.0
1070
    74
1070
     0
1000
MTEXTEND
  0
MTEXT
  5
563F
330
1A
100
AcDbEntity
  8
SUNPOU
100
AcDbMText
 10
50581.26436474472
 20
44799.74823441275
 30
0.0
 40
10.5
 41
0.0
 71
     9
 72
     5
  1

1001
ACAD
1000
MTEXTBEGIN
1070
    73
1070
     1
1070
    44
1040
1.0
1070
    74
1070
     0
1000
MTEXTEND
1000
MTEXTBEGIN
1070
    73
1070
     1
1070
    44
1040
1.0
1070
    74
1070
     0
1000
MTEXTEND
  0
MTEXT
  5
5640
330
1A
100
AcDbEntity
  8
SUNPOU
100
AcDbMText
 10
36633.26426436873
 20
25627.34909530054
 30
0.0
 40
3.5
 41
0.0
 71
     7
 72
     5
  1

1001
ACAD
1000
MTEXTBEGIN
1070
    73
1070
     1
1070
    44
1040
1.0
1070
    74
1070
     0
1000
MTEXTEND
1000
MTEXTBEGIN
1070
    73
1070
     1
1070
    44
1040
1.0
1070
    74
1070
     0
1000
MTEXTEND
  0
MTEXT
  5
5641
330
1A
100
AcDbEntity
  8
SUNPOU
100
AcDbMText
 10
61069.42493315968
 20
52574.61207825771
 30
0.0
 40
10.5
 41
0.0
 71
     9
 72
     5
  1

1001
ACAD
1000
MTEXTBEGIN
1070
    73
1070
     1
1070
    44
1040
1.0
1070
    74
1070
     0
1000
MTEXTEND
1000
MTEXTBEGIN
1070
    73
1070
     1
1070
    44
1040
1.0
1070
    74
1070
     0
1000
MTEXTEND
  0
MTEXT
  5
5642
330
1A
100
AcDbEntity
  8
SUNPOU
100
AcDbMText
 10
80023.18365048967
 20
70041.18813074978
 30
0.0
 40
10.5
 41
0.0
 71
     9
 72
     5
  1

1001
ACAD
1000
MTEXTBEGIN
1070
    73
1070
     1
1070
    44
1040
1.0
1070
    74
1070
     0
1000
MTEXTEND
1000
MTEXTBEGIN
1070
    73
1070
     1
1070
    44
1040
1.0
1070
    74
1070
     0
1000
MTEXTEND
  0
MTEXT
  5
5643
330
1A
100
AcDbEntity
  8
SUNPOU
100
AcDbMText
 10
81966.59089719908
 20
68240.13905087176
 30
0.0
 40
3.5
 41
0.0
 71
     9
 72
     5
  1

1001
ACAD
1000
MTEXTBEGIN
1070
    73
1070
     1
1070
    44
1040
1.0
1070
    74
1070
     0
1000
MTEXTEND
1000
MTEXTBEGIN
1070
    73
1070
     1
1070
    44
1040
1.0
1070
    74
1070
     0
1000
MTEXTEND
  0
MTEXT
  5
5644
330
1A
100
AcDbEntity
  8
SUNPOU
100
AcDbMText
 10
113092.7707298186
 20
110735.0847185291
 30
0.0
 40
10.5
 41
0.0
 71
     9
 72
     5
  1

1001
ACAD
1000
MTEXTBEGIN
1070
    73
1070
     1
1070
    44
1040
1.0
1070
    74
1070
     0
1000
MTEXTEND
1000
MTEXTBEGIN
1070
    73
1070
     1
1070
    44
1040
1.0
1070
    74
1070
     0
1000
MTEXTEND
  0
MTEXT
  5
5645
330
1A
100
AcDbEntity
  8
SUNPOU
100
AcDbMText
 10
115036.1779765282
 20
108934.0356386511
 30
0.0
 40
3.5
 41
0.0
 71
     9
 72
     5
  1

1001
ACAD
1000
MTEXTBEGIN
1070
    73
1070
     1
1070
    44
1040
1.0
1070
    74
1070
     0
1000
MTEXTEND
1000
MTEXTBEGIN
1070
    73
1070
     1
1070
    44
1040
1.0
1070
    74
1070
     0
1000
MTEXTEND
  0
MTEXT
  5
5646
330
1A
100
AcDbEntity
  8
SUNPOU
100
AcDbMText
 10
63533.03843561432
 20
56568.24987350415
 30
0.0
 40
10.5
 41
0.0
 71
     9
 72
     5
  1

1001
ACAD
1000
MTEXTBEGIN
1070
    73
1070
     1
1070
    44
1040
1.0
1070
    74
1070
     0
1000
MTEXTEND
1000
MTEXTBEGIN
1070
    73
1070
     1
1070
    44
1040
1.0
1070
    74
1070
     0
1000
MTEXTEND
  0
MTEXT
  5
5647
330
1A
100
AcDbEntity
  8
SUNPOU
100
AcDbMText
 10
49585.03833523835
 20
37395.85073439196
 30
0.0
 40
3.5
 41
0.0
 71
     7
 72
     5
  1

1001
ACAD
1000
MTEXTBEGIN
1070
    73
1070
     1
1070
    44
1040
1.0
1070
    74
1070
     0
1000
MTEXTEND
1000
MTEXTBEGIN
1070
    73
1070
     1
1070
    44
1040
1.0
1070
    74
1070
     0
1000
MTEXTEND
  0
MTEXT
  5
5648
330
1A
100
AcDbEntity
  8
SUNPOU
100
AcDbMText
 10
77137.31641337052
 20
70907.11375048141
 30
0.0
 40
10.5
 41
0.0
 71
     9
 72
     5
  1

1001
ACAD
1000
MTEXTBEGIN
1070
    73
1070
     1
1070
    44
1040
1.0
1070
    74
1070
     0
1000
MTEXTEND
1000
MTEXTBEGIN
1070
    73
1070
     1
1070
    44
1040
1.0
1070
    74
1070
     0
1000
MTEXTEND
  0
MTEXT
  5
5649
330
1A
100
AcDbEntity
  8
SUNPOU
100
AcDbMText
 10
79080.72366007995
 20
69106.06467060339
 30
0.0
 40
3.5
 41
0.0
 71
     9
 72
     5
  1

1001
ACAD
1000
MTEXTBEGIN
1070
    73
1070
     1
1070
    44
1040
1.0
1070
    74
1070
     0
1000
MTEXTEND
1000
MTEXTBEGIN
1070
    73
1070
     1
1070
    44
1040
1.0
1070
    74
1070
     0
1000
MTEXTEND
  0
MTEXT
  5
564A
330
1A
100
AcDbEntity
  8
SUNPOU
100
AcDbMText
 10
110206.9034926996
 20
111601.0103382607
 30
0.0
 40
10.5
 41
0.0
 71
     9
 72
     5
  1

1001
ACAD
1000
MTEXTBEGIN
1070
    73
1070
     1
1070
    44
1040
1.0
1070
    74
1070
     0
1000
MTEXTEND
1000
MTEXTBEGIN
1070
    73
1070
     1
1070
    44
1040
1.0
1070
    74
1070
     0
1000
MTEXTEND
  0
MTEXT
  5
564B
330
1A
100
AcDbEntity
  8
SUNPOU
100
AcDbMText
 10
112150.310739409
 20
109799.9612583826
 30
0.0
 40
3.5
 41
0.0
 71
     9
 72
     5
  1

1001
ACAD
1000
MTEXTBEGIN
1070
    73
1070
     1
1070
    44
1040
1.0
1070
    74
1070
     0
1000
MTEXTEND
1000
MTEXTBEGIN
1070
    73
1070
     1
1070
    44
1040
1.0
1070
    74
1070
     0
1000
MTEXTEND
  0
MTEXT
  5
564C
330
1A
100
AcDbEntity
  8
SUNPOU
100
AcDbMText
 10
108819.1333204967
 20
110677.9087286761
 30
0.0
 40
10.5
 41
0.0
 71
     9
 72
     5
  1

1001
ACAD
1000
MTEXTBEGIN
1070
    73
1070
     1
1070
    44
1040
1.0
1070
    74
1070
     0
1000
MTEXTEND
1000
MTEXTBEGIN
1070
    73
1070
     1
1070
    44
1040
1.0
1070
    74
1070
     0
1000
MTEXTEND
  0
MTEXT
  5
564D
330
1A
100
AcDbEntity
  8
SUNPOU
100
AcDbMText
 10
110762.5405672062
 20
108876.8596487981
 30
0.0
 40
3.5
 41
0.0
 71
     9
 72
     5
  1

1001
ACAD
1000
MTEXTBEGIN
1070
    73
1070
     1
1070
    44
1040
1.0
1070
    74
1070
     0
1000
MTEXTEND
1000
MTEXTBEGIN
1070
    73
1070
     1
1070
    44
1040
1.0
1070
    74
1070
     0
1000
MTEXTEND
  0
MTEXT
  5
564E
330
1A
100
AcDbEntity
  8
SUNPOU
100
AcDbMText
 10
76303.05507956816
 20
68695.31179059812
 30
0.0
 40
10.5
 41
0.0
 71
     9
 72
     5
  1

1001
ACAD
1000
MTEXTBEGIN
1070
    73
1070
     1
1070
    44
1040
1.0
1070
    74
1070
     0
1000
MTEXTEND
1000
MTEXTBEGIN
1070
    73
1070
     1
1070
    44
1040
1.0
1070
    74
1070
     0
1000
MTEXTEND
  0
MTEXT
  5
564F
330
1A
100
AcDbEntity
  8
SUNPOU
100
AcDbMText
 10
79026.36128373271
 20
69099.99348217918
 30
0.0
 40
3.5
 41
0.0
 71
     9
 72
     5
  1

1001
ACAD
1000
MTEXTBEGIN
1070
    73
1070
     1
1070
    44
1040
1.0
1070
    74
1070
     0
1000
MTEXTEND
1000
MTEXTBEGIN
1070
    73
1070
     1
1070
    44
1040
1.0
1070
    74
1070
     0
1000
MTEXTEND
  0
MTEXT
  5
5650
330
1A
100
AcDbEntity
  8
SUNPOU
100
AcDbMText
 10
78234.00675862522
 20
65938.68764412436
 30
0.0
 40
10.5
 41
0.0
 71
     9
 72
     5
  1

1001
ACAD
1000
MTEXTBEGIN
1070
    73
1070
     1
1070
    44
1040
1.0
1070
    74
1070
     0
1000
MTEXTEND
1000
MTEXTBEGIN
1070
    73
1070
     1
1070
    44
1040
1.0
1070
    74
1070
     0
1000
MTEXTEND
  0
MTEXT
  5
5651
330
1A
100
AcDbEntity
  8
SUNPOU
100
AcDbMText
 10
80177.41400533465
 20
64137.63856424636
 30
0.0
 40
3.5
 41
0.0
 71
     9
 72
     5
  1

1001
ACAD
1000
MTEXTBEGIN
1070
    73
1070
     1
1070
    44
1040
1.0
1070
    74
1070
     0
1000
MTEXTEND
1000
MTEXTBEGIN
1070
    73
1070
     1
1070
    44
1040
1.0
1070
    74
1070
     0
1000
MTEXTEND
  0
MTEXT
  5
5652
330
1A
100
AcDbEntity
  8
SUNPOU
100
AcDbMText
 10
80122.50949592122
 20
64024.86668196204
 30
0.0
 40
3.5
 41
0.0
 71
     9
 72
     5
  1

1001
ACAD
1000
MTEXTBEGIN
1070
    73
1070
     1
1070
    44
1040
1.0
1070
    74
1070
     0
1000
MTEXTEND
1000
MTEXTBEGIN
1070
    73
1070
     1
1070
    44
1040
1.0
1070
    74
1070
     0
1000
MTEXTEND
  0
MTEXT
  5
5653
330
1A
100
AcDbEntity
  8
SUNPOU
100
AcDbMText
 10
79486.58135950133
 20
63213.54544089553
 30
0.0
 40
3.5
 41
0.0
 71
     9
 72
     5
  1

1001
ACAD
1000
MTEXTBEGIN
1070
    73
1070
     1
1070
    44
1040
1.0
1070
    74
1070
     0
1000
MTEXTEND
1000
MTEXTBEGIN
1070
    73
1070
     1
1070
    44
1040
1.0
1070
    74
1070
     0
1000
MTEXTEND
  0
MTEXT
  5
5654
330
1A
100
AcDbEntity
  8
SUNPOU
100
AcDbMText
 10
79485.3409400806
 20
63213.29746395804
 30
0.0
 40
10.5
 41
0.0
 71
     9
 72
     5
  1

1001
ACAD
1000
MTEXTBEGIN
1070
    73
1070
     1
1070
    44
1040
1.0
1070
    74
1070
     0
1000
MTEXTEND
1000
MTEXTBEGIN
1070
    73
1070
     1
1070
    44
1040
1.0
1070
    74
1070
     0
1000
MTEXTEND
  0
MTEXT
  5
5655
330
1A
100
AcDbEntity
  8
SUNPOU
100
AcDbMText
 10
85473.63363627567
 20
80747.76348077064
 30
0.0
 40
10.5
 41
0.0
 71
     9
 72
     5
  1

1001
ACAD
1000
MTEXTBEGIN
1070
    73
1070
     1
1070
    44
1040
1.0
1070
    74
1070
     0
1000
MTEXTEND
1000
MTEXTBEGIN
1070
    73
1070
     1
1070
    44
1040
1.0
1070
    74
1070
     0
1000
MTEXTEND
  0
MTEXT
  5
5656
330
1A
100
AcDbEntity
  8
SUNPOU
100
AcDbMText
 10
94195.80120219368
 20
88163.59801230806
 30
0.0
 40
10.5
 41
0.0
 71
     9
 72
     5
  1

1001
ACAD
1000
MTEXTBEGIN
1070
    73
1070
     1
1070
    44
1040
1.0
1070
    74
1070
     0
1000
MTEXTEND
1000
MTEXTBEGIN
1070
    73
1070
     1
1070
    44
1040
1.0
1070
    74
1070
     0
1000
MTEXTEND
  0
MTEXT
  5
5657
330
1A
100
AcDbEntity
  8
SUNPOU
100
AcDbMText
 10
113149.5599195236
 20
105630.1740648001
 30
0.0
 40
10.5
 41
0.0
 71
     9
 72
     5
  1

1001
ACAD
1000
MTEXTBEGIN
1070
    73
1070
     1
1070
    44
1040
1.0
1070
    74
1070
     0
1000
MTEXTEND
1000
MTEXTBEGIN
1070
    73
1070
     1
1070
    44
1040
1.0
1070
    74
1070
     0
1000
MTEXTEND
  0
MTEXT
  5
5658
330
1A
100
AcDbEntity
  8
SUNPOU
100
AcDbMText
 10
115092.967166233
 20
103829.1249849221
 30
0.0
 40
3.5
 41
0.0
 71
     9
 72
     5
  1

1001
ACAD
1000
MTEXTBEGIN
1070
    73
1070
     1
1070
    44
1040
1.0
1070
    74
1070
     0
1000
MTEXTEND
1000
MTEXTBEGIN
1070
    73
1070
     1
1070
    44
1040
1.0
1070
    74
1070
     0
1000
MTEXTEND
  0
MTEXT
  5
5659
330
1A
100
AcDbEntity
  8
SUNPOU
100
AcDbMText
 10
146219.1469988527
 20
146324.0706525794
 30
0.0
 40
10.5
 41
0.0
 71
     9
 72
     5
  1

1001
ACAD
1000
MTEXTBEGIN
1070
    73
1070
     1
1070
    44
1040
1.0
1070
    74
1070
     0
1000
MTEXTEND
1000
MTEXTBEGIN
1070
    73
1070
     1
1070
    44
1040
1.0
1070
    74
1070
     0
1000
MTEXTEND
  0
MTEXT
  5
565A
330
1A
100
AcDbEntity
  8
SUNPOU
100
AcDbMText
 10
148162.5542455621
 20
144523.0215727014
 30
0.0
 40
3.5
 41
0.0
 71
     9
 72
     5
  1

1001
ACAD
1000
MTEXTBEGIN
1070
    73
1070
     1
1070
    44
1040
1.0
1070
    74
1070
     0
1000
MTEXTEND
1000
MTEXTBEGIN
1070
    73
1070
     1
1070
    44
1040
1.0
1070
    74
1070
     0
1000
MTEXTEND
  0
MTEXT
  5
565B
330
1A
100
AcDbEntity
  8
SUNPOU
100
AcDbMText
 10
96659.41470464833
 20
92157.23580755453
 30
0.0
 40
10.5
 41
0.0
 71
     9
 72
     5
  1

1001
ACAD
1000
MTEXTBEGIN
1070
    73
1070
     1
1070
    44
1040
1.0
1070
    74
1070
     0
1000
MTEXTEND
1000
MTEXTBEGIN
1070
    73
1070
     1
1070
    44
1040
1.0
1070
    74
1070
     0
1000
MTEXTEND
  0
MTEXT
  5
565C
330
1A
100
AcDbEntity
  8
SUNPOU
100
AcDbMText
 10
82711.41460427234
 20
72984.83666844234
 30
0.0
 40
3.5
 41
0.0
 71
     7
 72
     5
  1

1001
ACAD
1000
MTEXTBEGIN
1070
    73
1070
     1
1070
    44
1040
1.0
1070
    74
1070
     0
1000
MTEXTEND
1000
MTEXTBEGIN
1070
    73
1070
     1
1070
    44
1040
1.0
1070
    74
1070
     0
1000
MTEXTEND
  0
MTEXT
  5
565D
330
1A
100
AcDbEntity
  8
SUNPOU
100
AcDbMText
 10
63696.58400126548
 20
60746.98539926055
 30
0.0
 40
10.5
 41
0.0
 71
     7
 72
     5
  1

1001
ACAD
1000
MTEXTBEGIN
1070
    73
1070
     1
1070
    44
1040
1.0
1070
    74
1070
     0
1000
MTEXTEND
1000
MTEXTBEGIN
1070
    73
1070
     1
1070
    44
1040
1.0
1070
    74
1070
     0
1000
MTEXTEND
  0
MTEXT
  5
565E
330
1A
100
AcDbEntity
  8
SUNPOU
100
AcDbMText
 10
51239.35573631738
 20
44902.05382116213
 30
0.0
 40
35.0
 41
0.0
 71
     9
 72
     5
  1

1001
ACAD
1000
MTEXTBEGIN
1070
    73
1070
     1
1070
    44
1040
1.0
1070
    74
1070
     0
1000
MTEXTEND
1000
MTEXTBEGIN
1070
    73
1070
     1
1070
    44
1040
1.0
1070
    74
1070
     0
1000
MTEXTEND
  0
MTEXT
  5
565F
330
1A
100
AcDbEntity
  8
SUNPOU
100
AcDbMText
 10
50147.84079389233
 20
45510.82923121084
 30
0.0
 40
350.0000004171781
 41
0.0
 71
     7
 72
     5
  1

1001
ACAD
1000
MTEXTBEGIN
1070
    73
1070
     1
1070
    44
1040
1.0
1070
    74
1070
     0
1000
MTEXTEND
1000
MTEXTBEGIN
1070
    73
1070
     1
1070
    44
1040
1.0
1070
    74
1070
     0
1000
MTEXTEND
  0
MTEXT
  5
5660
330
1A
100
AcDbEntity
  8
0
100
AcDbMText
 10
56191.79155183523
 20
43490.75159334705
 30
0.0
 40
8.0
 41
0.0
 71
     7
 72
     5
  1

1001
ACAD
1000
MTEXTBEGIN
1070
    73
1070
     1
1070
    44
1040
1.0
1070
    74
1070
     0
1000
MTEXTEND
1000
MTEXTBEGIN
1070
    73
1070
     1
1070
    44
1040
1.0
1070
    74
1070
     0
1000
MTEXTEND
  0
MTEXT
  5
5661
330
1A
100
AcDbEntity
  8
0
100
AcDbMText
 10
58477.14924173012
 20
44461.54188809812
 30
0.0
 40
8.0
 41
0.0
 71
     7
 72
     5
  1

1001
ACAD
1000
MTEXTBEGIN
1070
    73
1070
     1
1070
    44
1040
1.0
1070
    74
1070
     0
1000
MTEXTEND
1000
MTEXTBEGIN
1070
    73
1070
     1
1070
    44
1040
1.0
1070
    74
1070
     0
1000
MTEXTEND
  0
MTEXT
  5
5662
330
1A
100
AcDbEntity
  8
SUNPOU
100
AcDbMText
 10
61143.04626241227
 20
53973.65328047324
 30
0.0
 40
10.5
 41
0.0
 71
     1
 72
     5
  1

1001
ACAD
1000
MTEXTBEGIN
1070
    73
1070
     1
1070
    44
1040
1.0
1070
    74
1070
     0
1000
MTEXTEND
1000
MTEXTBEGIN
1070
    73
1070
     1
1070
    44
1040
1.0
1070
    74
1070
     0
1000
MTEXTEND
  0
MTEXT
  5
5663
330
1A
100
AcDbEntity
  8
SUNPOU
100
AcDbMText
 10
53212.12306647632
 20
53026.86014656028
 30
0.0
 40
10.5
 41
0.0
 71
     7
 72
     5
  1

1001
ACAD
1000
MTEXTBEGIN
1070
    73
1070
     1
1070
    44
1040
1.0
1070
    74
1070
     0
1000
MTEXTEND
1000
MTEXTBEGIN
1070
    73
1070
     1
1070
    44
1040
1.0
1070
    74
1070
     0
1000
MTEXTEND
  0
MTEXT
  5
5664
330
1A
100
AcDbEntity
  8
SUNPOU
100
AcDbMText
 10
56161.10673098909
 20
57927.53621840312
 30
0.0
 40
10.5
 41
0.0
 71
     7
 72
     5
  1

1001
ACAD
1000
MTEXTBEGIN
1070
    73
1070
     1
1070
    44
1040
1.0
1070
    74
1070
     0
1000
MTEXTEND
1000
MTEXTBEGIN
1070
    73
1070
     1
1070
    44
1040
1.0
1070
    74
1070
     0
1000
MTEXTEND
  0
MTEXT
  5
5665
330
1A
100
AcDbEntity
  8
SUNPOU
100
AcDbMText
 10
60670.18485893966
 20
60363.8369660232
 30
0.0
 40
10.5
 41
0.0
 71
     7
 72
     5
  1

1001
ACAD
1000
MTEXTBEGIN
1070
    73
1070
     1
1070
    44
1040
1.0
1070
    74
1070
     0
1000
MTEXTEND
1000
MTEXTBEGIN
1070
    73
1070
     1
1070
    44
1040
1.0
1070
    74
1070
     0
1000
MTEXTEND
  0
MTEXT
  5
5666
330
1A
100
AcDbEntity
  8
SUNPOU
100
AcDbMText
 10
44271.02274570799
 20
39361.43311641211
 30
0.0
 40
10.5
 41
0.0
 71
     7
 72
     5
  1

1001
ACAD
1000
MTEXTBEGIN
1070
    73
1070
     1
1070
    44
1040
1.0
1070
    74
1070
     0
1000
MTEXTEND
1000
MTEXTBEGIN
1070
    73
1070
     1
1070
    44
1040
1.0
1070
    74
1070
     0
1000
MTEXTEND
  0
MTEXT
  5
5667
330
1A
100
AcDbEntity
  8
SUNPOU
100
AcDbMText
 10
95462.54117960824
 20
85034.41368006038
 30
0.0
 40
10.5
 41
0.0
 71
     9
 72
     5
  1

1001
ACAD
1000
MTEXTBEGIN
1070
    73
1070
     1
1070
    44
1040
1.0
1070
    74
1070
     0
1000
MTEXTEND
1000
MTEXTBEGIN
1070
    73
1070
     1
1070
    44
1040
1.0
1070
    74
1070
     0
1000
MTEXTEND
  0
MTEXT
  5
5668
330
1A
100
AcDbEntity
  8
SUNPOU
100
AcDbMText
 10
104184.7087455262
 20
92450.24821159784
 30
0.0
 40
10.5
 41
0.0
 71
     9
 72
     5
  1

1001
ACAD
1000
MTEXTBEGIN
1070
    73
1070
     1
1070
    44
1040
1.0
1070
    74
1070
     0
1000
MTEXTEND
1000
MTEXTBEGIN
1070
    73
1070
     1
1070
    44
1040
1.0
1070
    74
1070
     0
1000
MTEXTEND
  0
MTEXT
  5
5669
330
1A
100
AcDbEntity
  8
SUNPOU
100
AcDbMText
 10
123138.4674628562
 20
109916.8242640898
 30
0.0
 40
10.5
 41
0.0
 71
     9
 72
     5
  1

1001
ACAD
1000
MTEXTBEGIN
1070
    73
1070
     1
1070
    44
1040
1.0
1070
    74
1070
     0
1000
MTEXTEND
1000
MTEXTBEGIN
1070
    73
1070
     1
1070
    44
1040
1.0
1070
    74
1070
     0
1000
MTEXTEND
  0
MTEXT
  5
566A
330
1A
100
AcDbEntity
  8
SUNPOU
100
AcDbMText
 10
125081.8747095656
 20
108115.7751842118
 30
0.0
 40
3.5
 41
0.0
 71
     9
 72
     5
  1

1001
ACAD
1000
MTEXTBEGIN
1070
    73
1070
     1
1070
    44
1040
1.0
1070
    74
1070
     0
1000
MTEXTEND
1000
MTEXTBEGIN
1070
    73
1070
     1
1070
    44
1040
1.0
1070
    74
1070
     0
1000
MTEXTEND
  0
MTEXT
  5
566B
330
1A
100
AcDbEntity
  8
SUNPOU
100
AcDbMText
 10
156208.0545421853
 20
150610.7208518691
 30
0.0
 40
10.5
 41
0.0
 71
     9
 72
     5
  1

1001
ACAD
1000
MTEXTBEGIN
1070
    73
1070
     1
1070
    44
1040
1.0
1070
    74
1070
     0
1000
MTEXTEND
1000
MTEXTBEGIN
1070
    73
1070
     1
1070
    44
1040
1.0
1070
    74
1070
     0
1000
MTEXTEND
  0
MTEXT
  5
566C
330
1A
100
AcDbEntity
  8
SUNPOU
100
AcDbMText
 10
158151.4617888947
 20
148809.6717719911
 30
0.0
 40
3.5
 41
0.0
 71
     9
 72
     5
  1

1001
ACAD
1000
MTEXTBEGIN
1070
    73
1070
     1
1070
    44
1040
1.0
1070
    74
1070
     0
1000
MTEXTEND
1000
MTEXTBEGIN
1070
    73
1070
     1
1070
    44
1040
1.0
1070
    74
1070
     0
1000
MTEXTEND
  0
MTEXT
  5
566D
330
1A
100
AcDbEntity
  8
SUNPOU
100
AcDbMText
 10
106648.3222479809
 20
96443.88600684427
 30
0.0
 40
10.5
 41
0.0
 71
     9
 72
     5
  1

1001
ACAD
1000
MTEXTBEGIN
1070
    73
1070
     1
1070
    44
1040
1.0
1070
    74
1070
     0
1000
MTEXTEND
1000
MTEXTBEGIN
1070
    73
1070
     1
1070
    44
1040
1.0
1070
    74
1070
     0
1000
MTEXTEND
  0
MTEXT
  5
566E
330
1A
100
AcDbEntity
  8
SUNPOU
100
AcDbMText
 10
92700.3221476049
 20
77271.48686773207
 30
0.0
 40
3.5
 41
0.0
 71
     7
 72
     5
  1

1001
ACAD
1000
MTEXTBEGIN
1070
    73
1070
     1
1070
    44
1040
1.0
1070
    74
1070
     0
1000
MTEXTEND
1000
MTEXTBEGIN
1070
    73
1070
     1
1070
    44
1040
1.0
1070
    74
1070
     0
1000
MTEXTEND
  0
MTEXT
  5
566F
330
1A
100
AcDbEntity
  8
SUNPOU
100
AcDbMText
 10
73685.49154459807
 20
65033.63559855027
 30
0.0
 40
10.5
 41
0.0
 71
     7
 72
     5
  1

1001
ACAD
1000
MTEXTBEGIN
1070
    73
1070
     1
1070
    44
1040
1.0
1070
    74
1070
     0
1000
MTEXTEND
1000
MTEXTBEGIN
1070
    73
1070
     1
1070
    44
1040
1.0
1070
    74
1070
     0
1000
MTEXTEND
  0
MTEXT
  5
5670
330
1A
100
AcDbEntity
  8
SUNPOU
100
AcDbMText
 10
61228.26327964995
 20
49188.70402045183
 30
0.0
 40
35.0
 41
0.0
 71
     9
 72
     5
  1

1001
ACAD
1000
MTEXTBEGIN
1070
    73
1070
     1
1070
    44
1040
1.0
1070
    74
1070
     0
1000
MTEXTEND
1000
MTEXTBEGIN
1070
    73
1070
     1
1070
    44
1040
1.0
1070
    74
1070
     0
1000
MTEXTEND
  0
MTEXT
  5
5671
330
1A
100
AcDbEntity
  8
SUNPOU
100
AcDbMText
 10
60136.74833722491
 20
49797.47943050056
 30
0.0
 40
350.0000004171781
 41
0.0
 71
     7
 72
     5
  1

1001
ACAD
1000
MTEXTBEGIN
1070
    73
1070
     1
1070
    44
1040
1.0
1070
    74
1070
     0
1000
MTEXTEND
1000
MTEXTBEGIN
1070
    73
1070
     1
1070
    44
1040
1.0
1070
    74
1070
     0
1000
MTEXTEND
  0
MTEXT
  5
5672
330
1A
100
AcDbEntity
  8
0
100
AcDbMText
 10
66180.69909516782
 20
47777.40179263677
 30
0.0
 40
8.0
 41
0.0
 71
     7
 72
     5
  1

1001
ACAD
1000
MTEXTBEGIN
1070
    73
1070
     1
1070
    44
1040
1.0
1070
    74
1070
     0
1000
MTEXTEND
1000
MTEXTBEGIN
1070
    73
1070
     1
1070
    44
1040
1.0
1070
    74
1070
     0
1000
MTEXTEND
  0
MTEXT
  5
5673
330
1A
100
AcDbEntity
  8
0
100
AcDbMText
 10
68466.05678506271
 20
48748.19208738784
 30
0.0
 40
8.0
 41
0.0
 71
     7
 72
     5
  1

1001
ACAD
1000
MTEXTBEGIN
1070
    73
1070
     1
1070
    44
1040
1.0
1070
    74
1070
     0
1000
MTEXTEND
1000
MTEXTBEGIN
1070
    73
1070
     1
1070
    44
1040
1.0
1070
    74
1070
     0
1000
MTEXTEND
  0
MTEXT
  5
5674
330
1A
100
AcDbEntity
  8
SUNPOU
100
AcDbMText
 10
71131.95380574485
 20
58260.30347976296
 30
0.0
 40
10.5
 41
0.0
 71
     1
 72
     5
  1

1001
ACAD
1000
MTEXTBEGIN
1070
    73
1070
     1
1070
    44
1040
1.0
1070
    74
1070
     0
1000
MTEXTEND
1000
MTEXTBEGIN
1070
    73
1070
     1
1070
    44
1040
1.0
1070
    74
1070
     0
1000
MTEXTEND
  0
MTEXT
  5
5675
330
1A
100
AcDbEntity
  8
SUNPOU
100
AcDbMText
 10
63201.03060980891
 20
57313.51034585003
 30
0.0
 40
10.5
 41
0.0
 71
     7
 72
     5
  1

1001
ACAD
1000
MTEXTBEGIN
1070
    73
1070
     1
1070
    44
1040
1.0
1070
    74
1070
     0
1000
MTEXTEND
1000
MTEXTBEGIN
1070
    73
1070
     1
1070
    44
1040
1.0
1070
    74
1070
     0
1000
MTEXTEND
  0
MTEXT
  5
5676
330
1A
100
AcDbEntity
  8
SUNPOU
100
AcDbMText
 10
66150.01427432169
 20
62214.18641769286
 30
0.0
 40
10.5
 41
0.0
 71
     7
 72
     5
  1

1001
ACAD
1000
MTEXTBEGIN
1070
    73
1070
     1
1070
    44
1040
1.0
1070
    74
1070
     0
1000
MTEXTEND
1000
MTEXTBEGIN
1070
    73
1070
     1
1070
    44
1040
1.0
1070
    74
1070
     0
1000
MTEXTEND
  0
MTEXT
  5
5677
330
1A
100
AcDbEntity
  8
SUNPOU
100
AcDbMText
 10
70659.09240227225
 20
64650.48716531294
 30
0.0
 40
10.5
 41
0.0
 71
     7
 72
     5
  1

1001
ACAD
1000
MTEXTBEGIN
1070
    73
1070
     1
1070
    44
1040
1.0
1070
    74
1070
     0
1000
MTEXTEND
1000
MTEXTBEGIN
1070
    73
1070
     1
1070
    44
1040
1.0
1070
    74
1070
     0
1000
MTEXTEND
  0
MTEXT
  5
5678
330
1A
100
AcDbEntity
  8
SUNPOU
100
AcDbMText
 10
54259.93028904056
 20
43648.08331570185
 30
0.0
 40
10.5
 41
0.0
 71
     7
 72
     5
  1

1001
ACAD
1000
MTEXTBEGIN
1070
    73
1070
     1
1070
    44
1040
1.0
1070
    74
1070
     0
1000
MTEXTEND
1000
MTEXTBEGIN
1070
    73
1070
     1
1070
    44
1040
1.0
1070
    74
1070
     0
1000
MTEXTEND
  0
MTEXT
  5
5679
330
1A
100
AcDbEntity
  8
SUNPOU
100
AcDbMText
 10
56070.69320041551
 20
49975.4973031804
 30
0.0
 40
10.5
 41
0.0
 71
     9
 72
     5
  1

1001
ACAD
1000
MTEXTBEGIN
1070
    73
1070
     1
1070
    44
1040
1.0
1070
    74
1070
     0
1000
MTEXTEND
1000
MTEXTBEGIN
1070
    73
1070
     1
1070
    44
1040
1.0
1070
    74
1070
     0
1000
MTEXTEND
  0
MTEXT
  5
567A
330
1A
100
AcDbEntity
  8
SUNPOU
100
AcDbMText
 10
64792.86076633347
 20
57391.33183471787
 30
0.0
 40
10.5
 41
0.0
 71
     9
 72
     5
  1

1001
ACAD
1000
MTEXTBEGIN
1070
    73
1070
     1
1070
    44
1040
1.0
1070
    74
1070
     0
1000
MTEXTEND
1000
MTEXTBEGIN
1070
    73
1070
     1
1070
    44
1040
1.0
1070
    74
1070
     0
1000
MTEXTEND
  0
MTEXT
  5
567B
330
1A
100
AcDbEntity
  8
SUNPOU
100
AcDbMText
 10
83746.61948366345
 20
74857.90788720994
 30
0.0
 40
10.5
 41
0.0
 71
     9
 72
     5
  1

1001
ACAD
1000
MTEXTBEGIN
1070
    73
1070
     1
1070
    44
1040
1.0
1070
    74
1070
     0
1000
MTEXTEND
1000
MTEXTBEGIN
1070
    73
1070
     1
1070
    44
1040
1.0
1070
    74
1070
     0
1000
MTEXTEND
  0
MTEXT
  5
567C
330
1A
100
AcDbEntity
  8
SUNPOU
100
AcDbMText
 10
85690.02673037287
 20
73056.85880733192
 30
0.0
 40
3.5
 41
0.0
 71
     9
 72
     5
  1

1001
ACAD
1000
MTEXTBEGIN
1070
    73
1070
     1
1070
    44
1040
1.0
1070
    74
1070
     0
1000
MTEXTEND
1000
MTEXTBEGIN
1070
    73
1070
     1
1070
    44
1040
1.0
1070
    74
1070
     0
1000
MTEXTEND
  0
MTEXT
  5
567D
330
1A
100
AcDbEntity
  8
SUNPOU
100
AcDbMText
 10
116816.2065629925
 20
115551.8044749892
 30
0.0
 40
10.5
 41
0.0
 71
     9
 72
     5
  1

1001
ACAD
1000
MTEXTBEGIN
1070
    73
1070
     1
1070
    44
1040
1.0
1070
    74
1070
     0
1000
MTEXTEND
1000
MTEXTBEGIN
1070
    73
1070
     1
1070
    44
1040
1.0
1070
    74
1070
     0
1000
MTEXTEND
  0
MTEXT
  5
567E
330
1A
100
AcDbEntity
  8
SUNPOU
100
AcDbMText
 10
118759.6138097019
 20
113750.7553951111
 30
0.0
 40
3.5
 41
0.0
 71
     9
 72
     5
  1

1001
ACAD
1000
MTEXTBEGIN
1070
    73
1070
     1
1070
    44
1040
1.0
1070
    74
1070
     0
1000
MTEXTEND
1000
MTEXTBEGIN
1070
    73
1070
     1
1070
    44
1040
1.0
1070
    74
1070
     0
1000
MTEXTEND
  0
MTEXT
  5
567F
330
1A
100
AcDbEntity
  8
SUNPOU
100
AcDbMText
 10
67256.47426878814
 20
61384.96962996432
 30
0.0
 40
10.5
 41
0.0
 71
     9
 72
     5
  1

1001
ACAD
1000
MTEXTBEGIN
1070
    73
1070
     1
1070
    44
1040
1.0
1070
    74
1070
     0
1000
MTEXTEND
1000
MTEXTBEGIN
1070
    73
1070
     1
1070
    44
1040
1.0
1070
    74
1070
     0
1000
MTEXTEND
  0
MTEXT
  5
5680
330
1A
100
AcDbEntity
  8
SUNPOU
100
AcDbMText
 10
53308.47416841216
 20
42212.57049085211
 30
0.0
 40
3.5
 41
0.0
 71
     7
 72
     5
  1

1001
ACAD
1000
MTEXTBEGIN
1070
    73
1070
     1
1070
    44
1040
1.0
1070
    74
1070
     0
1000
MTEXTEND
1000
MTEXTBEGIN
1070
    73
1070
     1
1070
    44
1040
1.0
1070
    74
1070
     0
1000
MTEXTEND
  0
MTEXT
  5
5681
330
1A
100
AcDbEntity
  8
SUNPOU
100
AcDbMText
 10
67000.82485118274
 20
51571.63371187343
 30
0.0
 40
10.5
 41
0.0
 71
     9
 72
     5
  1

1001
ACAD
1000
MTEXTBEGIN
1070
    73
1070
     1
1070
    44
1040
1.0
1070
    74
1070
     0
1000
MTEXTEND
1000
MTEXTBEGIN
1070
    73
1070
     1
1070
    44
1040
1.0
1070
    74
1070
     0
1000
MTEXTEND
  0
MTEXT
  5
5682
330
1A
100
AcDbEntity
  8
SUNPOU
100
AcDbMText
 10
75722.99241710071
 20
58987.46824341094
 30
0.0
 40
10.5
 41
0.0
 71
     9
 72
     5
  1

1001
ACAD
1000
MTEXTBEGIN
1070
    73
1070
     1
1070
    44
1040
1.0
1070
    74
1070
     0
1000
MTEXTEND
1000
MTEXTBEGIN
1070
    73
1070
     1
1070
    44
1040
1.0
1070
    74
1070
     0
1000
MTEXTEND
  0
MTEXT
  5
5683
330
1A
100
AcDbEntity
  8
SUNPOU
100
AcDbMText
 10
94676.75113443068
 20
76454.04429590299
 30
0.0
 40
10.5
 41
0.0
 71
     9
 72
     5
  1

1001
ACAD
1000
MTEXTBEGIN
1070
    73
1070
     1
1070
    44
1040
1.0
1070
    74
1070
     0
1000
MTEXTEND
1000
MTEXTBEGIN
1070
    73
1070
     1
1070
    44
1040
1.0
1070
    74
1070
     0
1000
MTEXTEND
  0
MTEXT
  5
5684
330
1A
100
AcDbEntity
  8
SUNPOU
100
AcDbMText
 10
96620.1583811401
 20
74652.99521602497
 30
0.0
 40
3.5
 41
0.0
 71
     9
 72
     5
  1

1001
ACAD
1000
MTEXTBEGIN
1070
    73
1070
     1
1070
    44
1040
1.0
1070
    74
1070
     0
1000
MTEXTEND
1000
MTEXTBEGIN
1070
    73
1070
     1
1070
    44
1040
1.0
1070
    74
1070
     0
1000
MTEXTEND
  0
MTEXT
  5
5685
330
1A
100
AcDbEntity
  8
SUNPOU
100
AcDbMText
 10
127746.3382137598
 20
117147.9408836822
 30
0.0
 40
10.5
 41
0.0
 71
     9
 72
     5
  1

1001
ACAD
1000
MTEXTBEGIN
1070
    73
1070
     1
1070
    44
1040
1.0
1070
    74
1070
     0
1000
MTEXTEND
1000
MTEXTBEGIN
1070
    73
1070
     1
1070
    44
1040
1.0
1070
    74
1070
     0
1000
MTEXTEND
  0
MTEXT
  5
5686
330
1A
100
AcDbEntity
  8
SUNPOU
100
AcDbMText
 10
129689.7454604692
 20
115346.8918038041
 30
0.0
 40
3.5
 41
0.0
 71
     9
 72
     5
  1

1001
ACAD
1000
MTEXTBEGIN
1070
    73
1070
     1
1070
    44
1040
1.0
1070
    74
1070
     0
1000
MTEXTEND
1000
MTEXTBEGIN
1070
    73
1070
     1
1070
    44
1040
1.0
1070
    74
1070
     0
1000
MTEXTEND
  0
MTEXT
  5
5687
330
1A
100
AcDbEntity
  8
SUNPOU
100
AcDbMText
 10
78186.60591955537
 20
62981.10603865737
 30
0.0
 40
10.5
 41
0.0
 71
     9
 72
     5
  1

1001
ACAD
1000
MTEXTBEGIN
1070
    73
1070
     1
1070
    44
1040
1.0
1070
    74
1070
     0
1000
MTEXTEND
1000
MTEXTBEGIN
1070
    73
1070
     1
1070
    44
1040
1.0
1070
    74
1070
     0
1000
MTEXTEND
  0
MTEXT
  5
5688
330
1A
100
AcDbEntity
  8
SUNPOU
100
AcDbMText
 10
64238.60581917939
 20
43808.70689954517
 30
0.0
 40
3.5
 41
0.0
 71
     7
 72
     5
  1

1001
ACAD
1000
MTEXTBEGIN
1070
    73
1070
     1
1070
    44
1040
1.0
1070
    74
1070
     0
1000
MTEXTEND
1000
MTEXTBEGIN
1070
    73
1070
     1
1070
    44
1040
1.0
1070
    74
1070
     0
1000
MTEXTEND
  0
MTEXT
  5
5689
330
1A
100
AcDbEntity
  8
SUNPOU
100
AcDbMText
 10
33428.13481137435
 20
32770.04710035563
 30
0.0
 40
10.5
 41
0.0
 71
     9
 72
     5
  1

1001
ACAD
1000
MTEXTBEGIN
1070
    73
1070
     1
1070
    44
1040
1.0
1070
    74
1070
     0
1000
MTEXTEND
1000
MTEXTBEGIN
1070
    73
1070
     1
1070
    44
1040
1.0
1070
    74
1070
     0
1000
MTEXTEND
  0
MTEXT
  5
568A
330
1A
100
AcDbEntity
  8
SUNPOU
100
AcDbMText
 10
52381.89352870431
 20
50236.62315284768
 30
0.0
 40
10.5
 41
0.0
 71
     9
 72
     5
  1

1001
ACAD
1000
MTEXTBEGIN
1070
    73
1070
     1
1070
    44
1040
1.0
1070
    74
1070
     0
1000
MTEXTEND
1000
MTEXTBEGIN
1070
    73
1070
     1
1070
    44
1040
1.0
1070
    74
1070
     0
1000
MTEXTEND
  0
MTEXT
  5
568B
330
1A
100
AcDbEntity
  8
SUNPOU
100
AcDbMText
 10
54325.30077541374
 20
48435.57407296968
 30
0.0
 40
3.5
 41
0.0
 71
     9
 72
     5
  1

1001
ACAD
1000
MTEXTBEGIN
1070
    73
1070
     1
1070
    44
1040
1.0
1070
    74
1070
     0
1000
MTEXTEND
1000
MTEXTBEGIN
1070
    73
1070
     1
1070
    44
1040
1.0
1070
    74
1070
     0
1000
MTEXTEND
  0
MTEXT
  5
568C
330
1A
100
AcDbEntity
  8
SUNPOU
100
AcDbMText
 10
85451.48060803342
 20
90930.51974062703
 30
0.0
 40
10.5
 41
0.0
 71
     9
 72
     5
  1

1001
ACAD
1000
MTEXTBEGIN
1070
    73
1070
     1
1070
    44
1040
1.0
1070
    74
1070
     0
1000
MTEXTEND
1000
MTEXTBEGIN
1070
    73
1070
     1
1070
    44
1040
1.0
1070
    74
1070
     0
1000
MTEXTEND
  0
MTEXT
  5
568D
330
1A
100
AcDbEntity
  8
SUNPOU
100
AcDbMText
 10
87394.88785474286
 20
89129.47066074901
 30
0.0
 40
3.5
 41
0.0
 71
     9
 72
     5
  1

1001
ACAD
1000
MTEXTBEGIN
1070
    73
1070
     1
1070
    44
1040
1.0
1070
    74
1070
     0
1000
MTEXTEND
1000
MTEXTBEGIN
1070
    73
1070
     1
1070
    44
1040
1.0
1070
    74
1070
     0
1000
MTEXTEND
  0
MTEXT
  5
568E
330
1A
100
AcDbEntity
  8
SUNPOU
100
AcDbMText
 10
35891.74831382901
 20
36763.68489560208
 30
0.0
 40
10.5
 41
0.0
 71
     9
 72
     5
  1

1001
ACAD
1000
MTEXTBEGIN
1070
    73
1070
     1
1070
    44
1040
1.0
1070
    74
1070
     0
1000
MTEXTEND
1000
MTEXTBEGIN
1070
    73
1070
     1
1070
    44
1040
1.0
1070
    74
1070
     0
1000
MTEXTEND
  0
MTEXT
  5
568F
330
1A
100
AcDbEntity
  8
SUNPOU
100
AcDbMText
 10
21943.74821345303
 20
17591.28575648985
 30
0.0
 40
3.5
 41
0.0
 71
     7
 72
     5
  1

1001
ACAD
1000
MTEXTBEGIN
1070
    73
1070
     1
1070
    44
1040
1.0
1070
    74
1070
     0
1000
MTEXTEND
1000
MTEXTBEGIN
1070
    73
1070
     1
1070
    44
1040
1.0
1070
    74
1070
     0
1000
MTEXTEND
  0
LINE
  5
112B0
330
1A
100
AcDbEntity
  8
ZISSEN1
100
AcDbLine
 10
-1677.4
 20
1684.099999999999
 30
0.0
 11
-1654.999969999999
 21
1684.099999999999
 31
0.0
  0
LINE
  5
112B1
330
1A
100
AcDbEntity
  8
ZISSEN1
100
AcDbLine
 10
-1699.999999999999
 20
1672.599989999999
 30
0.0
 11
-1637.0
 21
1672.599989999999
 31
0.0
  0
LINE
  5
112B2
330
1A
100
AcDbEntity
  8
ZISSEN1
100
AcDbLine
 10
-1699.999999999999
 20
1671.0
 30
0.0
 11
-1637.0
 21
1671.0
 31
0.0
  0
LINE
  5
112B3
330
1A
100
AcDbEntity
  8
ZISSEN1
100
AcDbLine
 10
-1701.249999999999
 20
1665.0
 30
0.0
 11
-1637.0
 21
1665.0
 31
0.0
  0
LINE
  5
112B4
330
1A
100
AcDbEntity
  8
ZISSEN1
100
AcDbLine
 10
-1699.999999999999
 20
1667.999999999999
 30
0.0
 11
-1637.0
 21
1667.999999999999
 31
0.0
  0
LINE
  5
112B5
330
1A
100
AcDbEntity
  8
CL1
100
AcDbLine
 10
-1696.999999999999
 20
1682.499999999999
 30
0.0
 11
-1706.0
 21
1682.499999999999
 31
0.0
  0
LINE
  5
112B7
330
1A
100
AcDbEntity
  8
ZISSEN1
100
AcDbLine
 10
-1691.5
 20
1699.500009999999
 30
0.0
 11
-1699.999999999999
 21
1699.500009999999
 31
0.0
  0
LINE
  5
112B9
330
1A
100
AcDbEntity
  8
ZISSEN1
100
AcDbLine
 10
-1691.5
 20
1674.0
 30
0.0
 11
-1699.999999999999
 21
1674.0
 31
0.0
  0
LINE
  5
112BA
330
1A
100
AcDbEntity
  8
ZISSEN1
100
AcDbLine
 10
-1699.999999999999
 20
1674.0
 30
0.0
 11
-1699.999999999999
 21
1699.500009999999
 31
0.0
  0
LINE
  5
112BB
330
1A
100
AcDbEntity
  8
ZISSEN1
100
AcDbLine
 10
-1703.0
 20
1700.000009999999
 30
0.0
 11
-1703.0
 21
1666.75
 31
0.0
  0
LINE
  5
112BC
330
1A
100
AcDbEntity
  8
ZISSEN1
100
AcDbLine
 10
-1699.999999999999
 20
1700.000009999999
 30
0.0
 11
-1699.999999999999
 21
1667.999999999999
 31
0.0
  0
LINE
  5
112BD
330
1A
100
AcDbEntity
  8
ZISSEN1
100
AcDbLine
 10
-1699.999999999999
 20
1699.292889999999
 30
0.0
 11
-1703.0
 21
1699.292889999999
 31
0.0
  0
LINE
  5
112BE
330
1A
100
AcDbEntity
  8
ZISSEN1
100
AcDbLine
 10
-1703.0
 20
1700.0
 30
0.0
 11
-1699.999999999999
 21
1700.0
 31
0.0
  0
LINE
  5
112BF
330
1A
100
AcDbEntity
  8
ZISSEN1
100
AcDbLine
 10
-1677.4
 20
1684.099999999999
 30
0.0
 11
-1677.4
 21
1672.599989999999
 31
0.0
  0
LINE
  5
112C0
330
1A
100
AcDbEntity
  8
ZISSEN1
100
AcDbLine
 10
-1691.5
 20
1674.0
 30
0.0
 11
-1691.5
 21
1699.500009999999
 31
0.0
  0
LINE
  5
112C1
330
1A
100
AcDbEntity
  8
ZISSEN1
100
AcDbLine
 10
-1649.14999
 20
1680.8
 30
0.0
 11
-1649.14999
 21
1672.599989999999
 31
0.0
  0
LINE
  5
112C2
330
1A
100
AcDbEntity
  8
ZISSEN1
100
AcDbLine
 10
-1654.25
 20
1680.8
 30
0.0
 11
-1654.25
 21
1672.6
 31
0.0
  0
LINE
  5
112C3
330
1A
100
AcDbEntity
  8
ZISSEN1
100
AcDbLine
 10
-1636.999959999999
 20
1689.10001
 30
0.0
 11
-1636.999959999999
 21
1672.6
 31
0.0
  0
LINE
  5
112C4
330
1A
100
AcDbEntity
  8
ZISSEN1
100
AcDbLine
 10
-1646.4
 20
1689.10001
 30
0.0
 11
-1646.4
 21
1672.6
 31
0.0
  0
LINE
  5
112C5
330
1A
100
AcDbEntity
  8
ZISSEN1
100
AcDbLine
 10
-1655.0
 20
1684.099999999999
 30
0.0
 11
-1655.0
 21
1672.599989999999
 31
0.0
  0
LINE
  5
112C6
330
1A
100
AcDbEntity
  8
ZISSEN1
100
AcDbLine
 10
-1643.6
 20
1671.0
 30
0.0
 11
-1643.6
 21
1667.999999999999
 31
0.0
  0
LINE
  5
112C7
330
1A
100
AcDbEntity
  8
ZISSEN1
100
AcDbLine
 10
-1638.400009999999
 20
1671.0
 30
0.0
 11
-1638.400009999999
 21
1667.999999999999
 31
0.0
  0
LINE
  5
112C8
330
1A
100
AcDbEntity
  8
ZISSEN1
100
AcDbLine
 10
-1637.707109999999
 20
1667.999999999999
 30
0.0
 11
-1637.707109999999
 21
1665.0
 31
0.0
  0
LINE
  5
112C9
330
1A
100
AcDbEntity
  8
ZISSEN1
100
AcDbLine
 10
-1637.0
 20
1667.999999999999
 30
0.0
 11
-1637.0
 21
1665.0
 31
0.0
  0
LINE
  5
112CA
330
1A
100
AcDbEntity
  8
ZISSEN1
100
AcDbLine
 10
-1639.30001
 20
1672.599989999999
 30
0.0
 11
-1647.29998
 21
1672.599989999999
 31
0.0
  0
LINE
  5
112CB
330
1A
100
AcDbEntity
  8
ZISSEN1
100
AcDbLine
 10
-1646.95002
 20
1674.900009999999
 30
0.0
 11
-1647.40002
 21
1672.800010000001
 31
0.0
  0
LINE
  5
112CC
330
1A
100
AcDbEntity
  8
ZISSEN1
100
AcDbLine
 10
-1646.4
 20
1672.80001
 30
0.0
 11
-1647.8
 21
1672.800010000001
 31
0.0
  0
LINE
  5
112CD
330
1A
100
AcDbEntity
  8
ZISSEN1
100
AcDbLine
 10
-1647.40002
 20
1672.800010000001
 30
0.0
 11
-1647.40002
 21
1672.6
 31
0.0
  0
LINE
  5
112CE
330
1A
100
AcDbEntity
  8
ZISSEN1
100
AcDbLine
 10
-1647.8
 20
1672.800010000001
 30
0.0
 11
-1647.8
 21
1672.6
 31
0.0
  0
LINE
  5
112CF
330
1A
100
AcDbEntity
  8
ZISSEN1
100
AcDbLine
 10
-1646.4
 20
1674.900009999999
 30
0.0
 11
-1646.95002
 21
1674.900009999999
 31
0.0
  0
LINE
  5
112D1
330
1A
100
AcDbEntity
  8
ZISSEN1
100
AcDbLine
 10
-1637.707109999999
 20
1672.599989999999
 30
0.0
 11
-1637.707109999999
 21
1671.0
 31
0.0
  0
LINE
  5
112D2
330
1A
100
AcDbEntity
  8
ZISSEN1
100
AcDbLine
 10
-1637.0
 20
1671.0
 30
0.0
 11
-1637.0
 21
1672.599989999999
 31
0.0
  0
LINE
  5
112D3
330
1A
100
AcDbEntity
  8
ZISSEN1
100
AcDbLine
 10
-1654.25
 20
1680.8
 30
0.0
 11
-1649.14999
 21
1680.8
 31
0.0
  0
LINE
  5
112D4
330
1A
100
AcDbEntity
  8
ZISSEN1
100
AcDbLine
 10
-1646.4
 20
1689.10001
 30
0.0
 11
-1636.999959999999
 21
1689.10001
 31
0.0
  0
LINE
  5
112D6
330
1A
100
AcDbEntity
  8
ZISSEN1
100
AcDbLine
 10
-1646.4
 20
1788.38001
 30
0.0
 11
-1646.4
 21
1797.48
 31
0.0
  0
LINE
  5
112D7
330
1A
100
AcDbEntity
  8
ZISSEN1
100
AcDbLine
 10
-1637.000009999999
 20
1797.48
 30
0.0
 11
-1637.000009999999
 21
1788.38001
 31
0.0
  0
LINE
  5
112D8
330
1A
100
AcDbEntity
  8
ZISSEN1
100
AcDbLine
 10
-1637.0
 20
1823.5
 30
0.0
 11
-1637.0
 21
1757.5
 31
0.0
  0
LINE
  5
112D9
330
1A
100
AcDbEntity
  8
ZISSEN1
100
AcDbLine
 10
-1691.5
 20
1824.0
 30
0.0
 11
-1691.5
 21
1757.0
 31
0.0
  0
LINE
  5
112DA
330
1A
100
AcDbEntity
  8
ZISSEN1
100
AcDbLine
 10
-1699.999999999999
 20
1808.8
 30
0.0
 11
-1699.999999999999
 21
1762.20001
 31
0.0
  0
LINE
  5
112DB
330
1A
100
AcDbEntity
  8
ZISSEN1
100
AcDbLine
 10
-1699.999999999999
 20
1831.0
 30
0.0
 11
-1699.999999999999
 21
1750.0
 31
0.0
  0
LINE
  5
112DC
330
1A
100
AcDbEntity
  8
ZISSEN1
100
AcDbLine
 10
-1703.0
 20
1831.0
 30
0.0
 11
-1703.0
 21
1750.0
 31
0.0
  0
LINE
  5
112DD
330
1A
100
AcDbEntity
  8
ZISSEN1
100
AcDbLine
 10
-1637.999999685059
 20
1756.500793650543
 30
0.0
 11
-1699.999999999999
 21
1756.55
 31
0.0
  0
LINE
  5
112DF
330
1A
100
AcDbEntity
  8
CL1
100
AcDbLine
 10
-1696.999999999999
 20
1753.0
 30
0.0
 11
-1706.0
 21
1753.0
 31
0.0
  0
LINE
  5
112E2
330
1A
100
AcDbEntity
  8
ZISSEN1
100
AcDbLine
 10
-1699.999999999999
 20
1750.707110000001
 30
0.0
 11
-1703.0
 21
1750.707110000001
 31
0.0
  0
LINE
  5
112E3
330
1A
100
AcDbEntity
  8
ZISSEN1
100
AcDbLine
 10
-1703.0
 20
1750.0
 30
0.0
 11
-1699.999999999999
 21
1750.0
 31
0.0
  0
LINE
  5
112E4
330
1A
100
AcDbEntity
  8
ZISSEN1
100
AcDbLine
 10
-1646.4
 20
1764.28001
 30
0.0
 11
-1646.4
 21
1787.38
 31
0.0
  0
LINE
  5
112E5
330
1A
100
AcDbEntity
  8
ZISSEN1
100
AcDbLine
 10
-1636.999959999999
 20
1787.38
 30
0.0
 11
-1636.999959999999
 21
1764.28001
 31
0.0
  0
LINE
  5
112E7
330
1A
100
AcDbEntity
  8
ZISSEN1
100
AcDbLine
 10
-1636.999959999999
 20
1764.28001
 30
0.0
 11
-1646.4
 21
1764.28001
 31
0.0
  0
LINE
  5
112EC
330
1A
100
AcDbEntity
  8
ZISSEN1
100
AcDbLine
 10
-1646.4
 20
1787.38
 30
0.0
 11
-1636.999959999999
 21
1787.38
 31
0.0
  0
LINE
  5
112ED
330
1A
100
AcDbEntity
  8
ZISSEN1
100
AcDbLine
 10
-1637.000009999999
 20
1788.38001
 30
0.0
 11
-1646.4
 21
1788.38001
 31
0.0
  0
LINE
  5
112EE
330
1A
100
AcDbEntity
  8
ZISSEN1
100
AcDbLine
 10
-1677.4
 20
1824.5
 30
0.0
 11
-1654.99997
 21
1824.5
 31
0.0
  0
LINE
  5
112EF
330
1A
100
AcDbEntity
  8
ZISSEN1
100
AcDbLine
 10
-1677.4
 20
1816.90001
 30
0.0
 11
-1654.99997
 21
1816.90001
 31
0.0
  0
LINE
  5
112F1
330
1A
100
AcDbEntity
  8
ZISSEN1
100
AcDbLine
 10
-1638.0
 20
1824.5
 30
0.0
 11
-1699.999999999999
 21
1824.5
 31
0.0
  0
LINE
  5
112F2
330
1A
100
AcDbEntity
  8
CL1
100
AcDbLine
 10
-1696.999999999999
 20
1828.000020000001
 30
0.0
 11
-1706.0
 21
1828.000020000001
 31
0.0
  0
LINE
  5
112F5
330
1A
100
AcDbEntity
  8
ZISSEN1
100
AcDbLine
 10
-1699.999999999999
 20
1830.29289
 30
0.0
 11
-1703.0
 21
1830.29289
 31
0.0
  0
LINE
  5
112F6
330
1A
100
AcDbEntity
  8
ZISSEN1
100
AcDbLine
 10
-1703.0
 20
1831.0
 30
0.0
 11
-1699.999999999999
 21
1831.0
 31
0.0
  0
LINE
  5
112F7
330
1A
100
AcDbEntity
  8
ZISSEN1
100
AcDbLine
 10
-1677.4
 20
1816.90001
 30
0.0
 11
-1677.4
 21
1824.5
 31
0.0
  0
LINE
  5
112F8
330
1A
100
AcDbEntity
  8
ZISSEN1
100
AcDbLine
 10
-1646.225
 20
1809.25
 30
0.0
 11
-1646.225
 21
1816.75
 31
0.0
  0
LINE
  5
112F9
330
1A
100
AcDbEntity
  8
ZISSEN1
100
AcDbLine
 10
-1639.775010000001
 20
1809.25
 30
0.0
 11
-1639.775010000001
 21
1816.75
 31
0.0
  0
LINE
  5
112FA
330
1A
100
AcDbEntity
  8
ZISSEN1
100
AcDbLine
 10
-1654.99997
 20
1816.90001
 30
0.0
 11
-1654.99997
 21
1824.5
 31
0.0
  0
LINE
  5
112FC
330
1A
100
AcDbEntity
  8
ZISSEN1
100
AcDbLine
 10
-1649.495
 20
1801.60001
 30
0.0
 11
-1649.495
 21
1808.399999999999
 31
0.0
  0
LINE
  5
112FD
330
1A
100
AcDbEntity
  8
ZISSEN1
100
AcDbLine
 10
-1654.595009999999
 20
1801.60001
 30
0.0
 11
-1654.595009999999
 21
1808.399999999999
 31
0.0
  0
LINE
  5
112FE
330
1A
100
AcDbEntity
  8
ZISSEN1
100
AcDbLine
 10
-1654.595009999999
 20
1801.60001
 30
0.0
 11
-1649.495
 21
1801.60001
 31
0.0
  0
LINE
  5
112FF
330
1A
100
AcDbEntity
  8
ZISSEN1
100
AcDbLine
 10
-1654.595009999999
 20
1808.399999999999
 30
0.0
 11
-1649.495
 21
1808.399999999999
 31
0.0
  0
LINE
  5
11300
330
1A
100
AcDbEntity
  8
ZISSEN1
100
AcDbLine
 10
-1646.4
 20
1797.48
 30
0.0
 11
-1637.000009999999
 21
1797.48
 31
0.0
  0
LINE
  5
11301
330
1A
100
AcDbEntity
  8
ZISSEN1
100
AcDbLine
 10
-1644.27371
 20
1799.1
 30
0.0
 11
-1645.873710000001
 21
1799.1
 31
0.0
  0
LINE
  5
11302
330
1A
100
AcDbEntity
  8
ZISSEN1
100
AcDbLine
 10
-1645.873710000001
 20
1799.90002
 30
0.0
 11
-1644.27371
 21
1799.90002
 31
0.0
  0
LINE
  5
11303
330
1A
100
AcDbEntity
  8
ZISSEN1
100
AcDbLine
 10
-1645.873710000001
 20
1799.1
 30
0.0
 11
-1645.873710000001
 21
1799.90002
 31
0.0
  0
LINE
  5
11304
330
1A
100
AcDbEntity
  8
ZISSEN1
100
AcDbLine
 10
-1644.27371
 20
1799.90002
 30
0.0
 11
-1644.27371
 21
1799.1
 31
0.0
  0
LINE
  5
11305
330
1A
100
AcDbEntity
  8
ZISSEN1
100
AcDbLine
 10
-1641.0
 20
1799.1
 30
0.0
 11
-1642.59999
 21
1799.1
 31
0.0
  0
LINE
  5
11306
330
1A
100
AcDbEntity
  8
ZISSEN1
100
AcDbLine
 10
-1641.0
 20
1799.90002
 30
0.0
 11
-1641.0
 21
1799.1
 31
0.0
  0
LINE
  5
11307
330
1A
100
AcDbEntity
  8
ZISSEN1
100
AcDbLine
 10
-1642.59999
 20
1799.90002
 30
0.0
 11
-1641.0
 21
1799.90002
 31
0.0
  0
LINE
  5
11308
330
1A
100
AcDbEntity
  8
ZISSEN1
100
AcDbLine
 10
-1642.59999
 20
1799.1
 30
0.0
 11
-1642.59999
 21
1799.90002
 31
0.0
  0
LINE
  5
11309
330
1A
100
AcDbEntity
  8
ZISSEN1
100
AcDbLine
 10
-1647.8
 20
1801.545
 30
0.0
 11
-1639.800029999999
 21
1801.545
 31
0.0
  0
LINE
  5
1130A
330
1A
100
AcDbEntity
  8
ZISSEN1
100
AcDbLine
 10
-1647.8
 20
1808.455
 30
0.0
 11
-1639.800029999999
 21
1808.455
 31
0.0
  0
LINE
  5
1130B
330
1A
100
AcDbEntity
  8
ZISSEN1
100
AcDbLine
 10
-1639.775010000001
 20
1809.25
 30
0.0
 11
-1646.225
 21
1809.25
 31
0.0
  0
LINE
  5
1130C
330
1A
100
AcDbEntity
  8
ZISSEN1
100
AcDbLine
 10
-1646.95002
 20
1801.545
 30
0.0
 11
-1646.95002
 21
1808.455
 31
0.0
  0
LINE
  5
1130D
330
1A
100
AcDbEntity
  8
ZISSEN1
100
AcDbLine
 10
-1640.65001
 20
1801.545
 30
0.0
 11
-1640.65001
 21
1808.455
 31
0.0
  0
LINE
  5
1130E
330
1A
100
AcDbEntity
  8
ZISSEN1
100
AcDbLine
 10
-1647.39999
 20
1801.545
 30
0.0
 11
-1647.39999
 21
1808.455
 31
0.0
  0
LINE
  5
1130F
330
1A
100
AcDbEntity
  8
ZISSEN1
100
AcDbLine
 10
-1647.8
 20
1801.545
 30
0.0
 11
-1647.8
 21
1808.455
 31
0.0
  0
LINE
  5
11310
330
1A
100
AcDbEntity
  8
ZISSEN1
100
AcDbLine
 10
-1640.200039999999
 20
1801.545
 30
0.0
 11
-1640.200039999999
 21
1808.455
 31
0.0
  0
LINE
  5
11311
330
1A
100
AcDbEntity
  8
ZISSEN1
100
AcDbLine
 10
-1639.800029999999
 20
1801.545
 30
0.0
 11
-1639.800029999999
 21
1808.455
 31
0.0
  0
LINE
  5
11313
330
1A
100
AcDbEntity
  8
ZISSEN1
100
AcDbLine
 10
-1639.775010000001
 20
1816.75
 30
0.0
 11
-1646.225
 21
1816.75
 31
0.0
  0
LINE
  5
11317
330
1A
100
AcDbEntity
  8
ZISSEN1
100
AcDbLine
 10
-1569.100009999999
 20
1797.48
 30
0.0
 11
-1569.100009999999
 21
1788.38001
 31
0.0
  0
LINE
  5
11318
330
1A
100
AcDbEntity
  8
ZISSEN1
100
AcDbLine
 10
-1579.5
 20
1824.0
 30
0.0
 11
-1579.5
 21
1757.0
 31
0.0
  0
LINE
  5
11319
330
1A
100
AcDbEntity
  8
ZISSEN1
100
AcDbLine
 10
-1548.000019999999
 20
1750.707110000001
 30
0.0
 11
-1548.000019999999
 21
1830.0
 31
0.0
  0
LINE
  5
1131A
330
1A
100
AcDbEntity
  8
ZISSEN1
100
AcDbLine
 10
-1580.0
 20
1750.0
 30
0.0
 11
-1580.0
 21
1830.0
 31
0.0
  0
LINE
  5
1131B
330
1A
100
AcDbEntity
  8
ZISSEN1
100
AcDbLine
 10
-1551.00003
 20
1824.5
 30
0.0
 11
-1551.00003
 21
1756.5
 31
0.0
  0
LINE
  5
1131C
330
1A
100
AcDbEntity
  8
ZISSEN1
100
AcDbLine
 10
-1552.60002
 20
1824.5
 30
0.0
 11
-1552.60002
 21
1756.5
 31
0.0
  0
LINE
  5
1131D
330
1A
100
AcDbEntity
  8
ZISSEN1
100
AcDbLine
 10
-1545.00001
 20
1824.5
 30
0.0
 11
-1545.00001
 21
1756.5
 31
0.0
  0
ARC
  5
1131E
330
1A
100
AcDbEntity
  8
ZISSEN1
100
AcDbCircle
 10
-1562.50002
 20
1754.0
 30
0.0
 40
1.749999899999999
100
AcDbArc
 50
0.0
 51
180.0
  0
LINE
  5
1131F
330
1A
100
AcDbEntity
  8
CL1
100
AcDbLine
 10
-1567.50001
 20
1753.0
 30
0.0
 11
-1557.500019999999
 21
1753.0
 31
0.0
  0
LINE
  5
11320
330
1A
100
AcDbEntity
  8
ZISSEN1
100
AcDbLine
 10
-1569.100009999999
 20
1764.28
 30
0.0
 11
-1552.599999999999
 21
1764.28
 31
0.0
  0
LINE
  5
11321
330
1A
100
AcDbEntity
  8
ZISSEN1
100
AcDbLine
 10
-1569.100009999999
 20
1787.38
 30
0.0
 11
-1552.599999999999
 21
1787.38
 31
0.0
  0
LINE
  5
11322
330
1A
100
AcDbEntity
  8
ZISSEN1
100
AcDbLine
 10
-1569.100009999999
 20
1788.38001
 30
0.0
 11
-1552.599999999999
 21
1788.38001
 31
0.0
  0
LINE
  5
11324
330
1A
100
AcDbEntity
  8
ZISSEN1
100
AcDbLine
 10
-1569.100009999999
 20
1787.38
 30
0.0
 11
-1569.100009999999
 21
1764.28001
 31
0.0
  0
LINE
  5
11326
330
1A
100
AcDbEntity
  8
ZISSEN1
100
AcDbLine
 10
-1580.0
 20
1750.0
 30
0.0
 11
-1564.25001
 21
1750.0
 31
0.0
  0
LINE
  5
11328
330
1A
100
AcDbEntity
  8
CL1
100
AcDbLine
 10
-1562.50002
 20
1758.999990000001
 30
0.0
 11
-1562.50002
 21
1749.0
 31
0.0
  0
LINE
  5
11329
330
1A
100
AcDbEntity
  8
ZISSEN1
100
AcDbLine
 10
-1564.25001
 20
1754.0
 30
0.0
 11
-1564.25001
 21
1750.0
 31
0.0
  0
LINE
  5
1132A
330
1A
100
AcDbEntity
  8
ZISSEN1
100
AcDbLine
 10
-1569.49999
 20
1757.0
 30
0.0
 11
-1579.5
 21
1757.0
 31
0.0
  0
LINE
  5
1132B
330
1A
100
AcDbEntity
  8
ZISSEN1
100
AcDbLine
 10
-1569.49999
 20
1757.0
 30
0.0
 11
-1555.739014390242
 21
1764.28
 31
0.0
  0
LINE
  5
1132C
330
1A
100
AcDbEntity
  8
ZISSEN1
100
AcDbLine
 10
-1560.750019999999
 20
1754.0
 30
0.0
 11
-1560.750019999999
 21
1750.0
 31
0.0
  0
LINE
  5
1132D
330
1A
100
AcDbEntity
  8
ZISSEN1
100
AcDbLine
 10
-1548.707129999999
 20
1750.0
 30
0.0
 11
-1560.750019999999
 21
1750.0
 31
0.0
  0
LINE
  5
1132E
330
1A
100
AcDbEntity
  8
ZISSEN1
100
AcDbLine
 10
-1548.707129999999
 20
1750.0
 30
0.0
 11
-1548.000019999999
 21
1750.707110000001
 31
0.0
  0
LINE
  5
1132F
330
1A
100
AcDbEntity
  8
ZISSEN1
100
AcDbLine
 10
-1551.00003
 20
1757.0
 30
0.0
 11
-1548.000019999999
 21
1757.0
 31
0.0
  0
LINE
  5
11330
330
1A
100
AcDbEntity
  8
ZISSEN1
100
AcDbLine
 10
-1552.60002
 20
1757.5
 30
0.0
 11
-1551.00003
 21
1757.5
 31
0.0
  0
LINE
  5
11331
330
1A
100
AcDbEntity
  8
ZISSEN1
100
AcDbLine
 10
-1552.60002
 20
1756.5
 30
0.0
 11
-1551.00003
 21
1756.5
 31
0.0
  0
LINE
  5
11332
330
1A
100
AcDbEntity
  8
ZISSEN1
100
AcDbLine
 10
-1548.000019999999
 20
1757.5
 30
0.0
 11
-1545.00001
 21
1757.5
 31
0.0
  0
LINE
  5
11333
330
1A
100
AcDbEntity
  8
ZISSEN1
100
AcDbLine
 10
-1548.000019999999
 20
1756.5
 30
0.0
 11
-1545.00001
 21
1756.5
 31
0.0
  0
LINE
  5
11334
330
1A
100
AcDbEntity
  8
ZISSEN1
100
AcDbLine
 10
-1551.00003
 20
1762.199999999999
 30
0.0
 11
-1548.000019999999
 21
1762.199999999999
 31
0.0
  0
LINE
  5
11335
330
1A
100
AcDbEntity
  8
ZISSEN1
100
AcDbLine
 10
-1553.99997
 20
1788.38001
 30
0.0
 11
-1553.99997
 21
1787.38
 31
0.0
  0
ARC
  5
11336
330
1A
100
AcDbEntity
  8
ZISSEN1
100
AcDbCircle
 10
-1562.50002
 20
1826.916590943947
 30
0.0
 40
1.749999899999999
100
AcDbArc
 50
180.0
 51
0.0
  0
LINE
  5
11337
330
1A
100
AcDbEntity
  8
CL1
100
AcDbLine
 10
-1567.50001
 20
1828.0
 30
0.0
 11
-1557.500019999999
 21
1828.0
 31
0.0
  0
LINE
  5
11338
330
1A
100
AcDbEntity
  8
ZISSEN1
100
AcDbLine
 10
-1579.5
 20
1824.0
 30
0.0
 11
-1569.5
 21
1824.0
 31
0.0
  0
LINE
  5
11339
330
1A
100
AcDbEntity
  8
ZISSEN1
100
AcDbLine
 10
-1569.100009999999
 20
1797.48
 30
0.0
 11
-1552.599999999999
 21
1797.48
 31
0.0
  0
LINE
  5
1133D
330
1A
100
AcDbEntity
  8
ZISSEN1
100
AcDbLine
 10
-1579.292889999999
 20
1831.0
 30
0.0
 11
-1564.25001
 21
1831.0
 31
0.0
  0
LINE
  5
1133E
330
1A
100
AcDbEntity
  8
ZISSEN1
100
AcDbLine
 10
-1580.0
 20
1830.0
 30
0.0
 11
-1579.292889999999
 21
1831.0
 31
0.0
  0
LINE
  5
1133F
330
1A
100
AcDbEntity
  8
CL1
100
AcDbLine
 10
-1562.50002
 20
1831.916580943946
 30
0.0
 11
-1562.50002
 21
1821.916600943947
 31
0.0
  0
LINE
  5
11340
330
1A
100
AcDbEntity
  8
ZISSEN1
100
AcDbLine
 10
-1564.25001
 20
1826.916590943947
 30
0.0
 11
-1564.25001
 21
1830.916580943947
 31
0.0
  0
LINE
  5
11341
330
1A
100
AcDbEntity
  8
ZISSEN1
100
AcDbLine
 10
-1560.1
 20
1816.75
 30
0.0
 11
-1560.1
 21
1809.25
 31
0.0
  0
LINE
  5
11342
330
1A
100
AcDbEntity
  8
ZISSEN1
100
AcDbLine
 10
-1553.999990000001
 20
1809.249999999999
 30
0.0
 11
-1553.999990000001
 21
1808.399999999998
 31
0.0
  0
LINE
  5
11343
330
1A
100
AcDbEntity
  8
ZISSEN1
100
AcDbLine
 10
-1553.199999999999
 20
1799.90002
 30
0.0
 11
-1552.599999999999
 21
1799.90002
 31
0.0
  0
LINE
  5
11344
330
1A
100
AcDbEntity
  8
ZISSEN1
100
AcDbLine
 10
-1553.199999999999
 20
1799.1
 30
0.0
 11
-1552.599999999999
 21
1799.1
 31
0.0
  0
LINE
  5
11345
330
1A
100
AcDbEntity
  8
ZISSEN1
100
AcDbLine
 10
-1553.199999999999
 20
1799.90002
 30
0.0
 11
-1553.199999999999
 21
1799.1
 31
0.0
  0
LINE
  5
11346
330
1A
100
AcDbEntity
  8
ZISSEN1
100
AcDbLine
 10
-1560.80001
 20
1808.399999999999
 30
0.0
 11
-1552.599999999999
 21
1808.399999999999
 31
0.0
  0
LINE
  5
11347
330
1A
100
AcDbEntity
  8
ZISSEN1
100
AcDbLine
 10
-1554.900009999998
 20
1801.545
 30
0.0
 11
-1552.599999999999
 21
1801.545
 31
0.0
  0
LINE
  5
11348
330
1A
100
AcDbEntity
  8
ZISSEN1
100
AcDbLine
 10
-1554.900009999998
 20
1808.455
 30
0.0
 11
-1552.599999999999
 21
1808.455
 31
0.0
  0
LINE
  5
11349
330
1A
100
AcDbEntity
  8
ZISSEN1
100
AcDbLine
 10
-1560.1
 20
1809.25
 30
0.0
 11
-1552.599999999999
 21
1809.25
 31
0.0
  0
LINE
  5
1134A
330
1A
100
AcDbEntity
  8
ZISSEN1
100
AcDbLine
 10
-1560.80001
 20
1808.399999999999
 30
0.0
 11
-1560.80001
 21
1801.60001
 31
0.0
  0
LINE
  5
1134B
330
1A
100
AcDbEntity
  8
ZISSEN1
100
AcDbLine
 10
-1552.80001
 20
1801.545
 30
0.0
 11
-1552.80001
 21
1808.455
 31
0.0
  0
LINE
  5
1134C
330
1A
100
AcDbEntity
  8
ZISSEN1
100
AcDbLine
 10
-1554.900009999998
 20
1801.545
 30
0.0
 11
-1554.900009999998
 21
1808.455
 31
0.0
  0
LINE
  5
1134D
330
1A
100
AcDbEntity
  8
ZISSEN1
100
AcDbLine
 10
-1560.80001
 20
1801.60001
 30
0.0
 11
-1554.900009999998
 21
1801.60001
 31
0.0
  0
LINE
  5
1134E
330
1A
100
AcDbEntity
  8
ZISSEN1
100
AcDbLine
 10
-1552.599999999999
 20
1801.545
 30
0.0
 11
-1552.599999999999
 21
1808.455
 31
0.0
  0
LINE
  5
1134F
330
1A
100
AcDbEntity
  8
ZISSEN1
100
AcDbLine
 10
-1551.0
 20
1818.799999999999
 30
0.0
 11
-1547.999989999999
 21
1818.799999999999
 31
0.0
  0
LINE
  5
11350
330
1A
100
AcDbEntity
  8
ZISSEN1
100
AcDbLine
 10
-1560.1
 20
1816.75
 30
0.0
 11
-1552.599999999999
 21
1816.75
 31
0.0
  0
LINE
  5
11351
330
1A
100
AcDbEntity
  8
ZISSEN1
100
AcDbLine
 10
-1549.00002
 20
1831.0
 30
0.0
 11
-1560.750019999999
 21
1831.0
 31
0.0
  0
LINE
  5
11352
330
1A
100
AcDbEntity
  8
ZISSEN1
100
AcDbLine
 10
-1560.750019999999
 20
1826.916590943947
 30
0.0
 11
-1560.750019999999
 21
1830.916580943947
 31
0.0
  0
LINE
  5
11353
330
1A
100
AcDbEntity
  8
ZISSEN1
100
AcDbLine
 10
-1551.0
 20
1824.0
 30
0.0
 11
-1547.999989999999
 21
1824.0
 31
0.0
  0
LINE
  5
11354
330
1A
100
AcDbEntity
  8
ZISSEN1
100
AcDbLine
 10
-1552.60002
 20
1823.5
 30
0.0
 11
-1551.00003
 21
1823.5
 31
0.0
  0
LINE
  5
11355
330
1A
100
AcDbEntity
  8
ZISSEN1
100
AcDbLine
 10
-1552.60002
 20
1824.5
 30
0.0
 11
-1551.00003
 21
1824.5
 31
0.0
  0
LINE
  5
11356
330
1A
100
AcDbEntity
  8
ZISSEN1
100
AcDbLine
 10
-1548.000019999999
 20
1823.5
 30
0.0
 11
-1545.00001
 21
1823.5
 31
0.0
  0
LINE
  5
11358
330
1A
100
AcDbEntity
  8
ZISSEN1
100
AcDbLine
 10
-1548.000019999999
 20
1824.5
 30
0.0
 11
-1545.00001
 21
1824.5
 31
0.0
  0
MTEXT
  5
1135F
330
1A
100
AcDbEntity
  8
ZISSEN1
100
AcDbMText
 10
-1665.208234141764
 20
1848.618490209118
 30
0.0
 40
5.0
 41
116.8547
 71
     1
 72
     5
  1
DB-2640{\H0.6x;V1}/U16　No.SS0001f63
1001
ACAD
1000
MTEXTBEGIN
1070
    73
1070
     1
1070
    44
1040
1.0
1070
    74
1070
     0
1000
MTEXTEND
1000
MTEXTBEGIN
1070
    73
1070
     1
1070
    44
1040
1.0
1070
    74
1070
     0
1000
MTEXTEND
  0
DIMENSION
  5
11384
330
1A
100
AcDbEntity
  8
SUNPOU
100
AcDbDimension
  2
*D0
 10
-1715.976739558065
 20
1750.0
 30
0.0
 11
-1718.726739558065
 21
1790.499999999999
 31
0.0
 70
    32
  3
標準スタイル
100
AcDbAlignedDimension
 13
-1703.0
 23
1831.0
 33
0.0
 14
-1703.0
 24
1750.0
 34
0.0
 50
90.0
100
AcDbRotatedDimension
1001
ACAD
1000
DSTYLE
1002
{
1070
   340
1005
10
1070
    40
1040
1.0
1002
}
  0
DIMENSION
  5
11391
330
1A
100
AcDbEntity
  8
SUNPOU
100
AcDbDimension
  2
*D1
 10
-1623.873658491046
 20
1756.500793650543
 30
0.0
 11
-1626.623658491046
 21
1790.500396825271
 31
0.0
 70
    32
  3
標準スタイル
100
AcDbAlignedDimension
 13
-1638.0
 23
1824.5
 33
0.0
 14
-1637.999999685059
 24
1756.500793650543
 34
0.0
 50
90.0
100
AcDbRotatedDimension
1001
ACAD
1000
DSTYLE
1002
{
1070
   340
1005
10
1070
    40
1040
1.0
1002
}
  0
DIMENSION
  5
1139E
330
1A
100
AcDbEntity
  8
SUNPOU
100
AcDbDimension
  2
*D2
 10
-1699.999999999999
 20
1711.481688165393
 30
0.0
 11
-1691.833333333332
 21
1714.231688165392
 31
0.0
 70
    32
  3
標準スタイル
100
AcDbAlignedDimension
 13
-1703.0
 23
1700.0
 33
0.0
 14
-1699.999999999999
 24
1700.0
 34
0.0
100
AcDbRotatedDimension
1001
ACAD
1000
DSTYLE
1002
{
1070
   340
1005
10
1070
    40
1040
1.0
1002
}
  0
DIMENSION
  5
113AD
330
1A
100
AcDbEntity
  8
SUNPOU
100
AcDbDimension
  2
*D3
 10
-1637.0
 20
1655.106599097105
 30
0.0
 11
-1670.0
 21
1657.856599097105
 31
0.0
 70
    32
  3
標準スタイル
100
AcDbAlignedDimension
 13
-1703.0
 23
1666.75
 33
0.0
 14
-1637.0
 24
1665.0
 34
0.0
100
AcDbRotatedDimension
1001
ACAD
1000
DSTYLE
1002
{
1070
   340
1005
10
1070
    40
1040
1.0
1002
}
  0
DIMENSION
  5
113BA
330
1A
100
AcDbEntity
  8
SUNPOU
100
AcDbDimension
  2
*D4
 10
-1611.517890201426
 20
1665.0
 30
0.0
 11
-1611.517890201427
 21
1677.008412381432
 31
0.0
 70
   160
  1
(24.1)
  3
標準スタイル
100
AcDbAlignedDimension
 13
-1636.999959999999
 23
1689.10001
 33
0.0
 14
-1637.0
 24
1665.0
 34
0.0
 50
90.0
100
AcDbRotatedDimension
1001
ACAD
1000
DSTYLE
1002
{
1070
   340
1005
10
1070
    40
1040
1.0
1002
}
  0
DIMENSION
  5
113C7
330
1A
100
AcDbEntity
  8
SUNPOU
100
AcDbDimension
  2
*D5
 10
-1623.373658491046
 20
1665.0
 30
0.0
 11
-1626.123658491046
 21
1674.549999999999
 31
0.0
 70
    32
  1
(19.1)
  3
標準スタイル
100
AcDbAlignedDimension
 13
-1655.499969999999
 23
1684.099999999999
 33
0.0
 14
-1637.0
 24
1665.0
 34
0.0
 50
90.0
100
AcDbRotatedDimension
1001
ACAD
1000
DSTYLE
1002
{
1070
   340
1005
10
1070
    40
1040
1.0
1002
}
  0
DIMENSION
  5
113EF
330
1A
100
AcDbEntity
  8
SUNPOU
100
AcDbDimension
  2
*D6
 10
-1560.750019999999
 20
1833.509398588475
 30
0.0
 11
-1550.250019999999
 21
1833.509398588475
 31
0.0
 70
   160
  3
標準スタイル
100
AcDbAlignedDimension
 13
-1564.25001
 23
1831.0
 33
0.0
 14
-1560.750019999999
 24
1831.0
 34
0.0
100
AcDbRotatedDimension
1001
ACAD
1000
DSTYLE
1002
{
1070
   340
1005
10
1070
    40
1040
1.0
1002
}
  0
DIMENSION
  5
113FE
330
1A
100
AcDbEntity
  8
SUNPOU
100
AcDbDimension
  2
*D7
 10
-1589.389853881082
 20
1828.0
 30
0.0
 11
-1589.389853881082
 21
1829.499999999999
 31
0.0
 70
   160
  3
標準スタイル
100
AcDbAlignedDimension
 13
-1579.292889999999
 23
1831.0
 33
0.0
 14
-1567.50001
 24
1828.0
 34
0.0
 50
90.0
100
AcDbRotatedDimension
1001
ACAD
1000
DSTYLE
1002
{
1070
   340
1005
10
1070
    40
1040
1.0
1002
}
  0
DIMENSION
  5
11418
330
1A
100
AcDbEntity
  8
SUNPOU
100
AcDbDimension
  2
*D8
 10
-1589.389853881081
 20
1753.0
 30
0.0
 11
-1592.139853881081
 21
1790.499999999999
 31
0.0
 70
    32
  3
標準スタイル
100
AcDbAlignedDimension
 13
-1568.00001
 23
1828.0
 33
0.0
 14
-1567.50001
 24
1753.0
 34
0.0
 50
90.0
100
AcDbRotatedDimension
1001
ACAD
1000
DSTYLE
1002
{
1070
   340
1005
10
1070
    40
1040
1.0
1002
}
  0
DIMENSION
  5
11425
330
1A
100
AcDbEntity
  8
SUNPOU
100
AcDbDimension
  2
*D9
 10
-1589.389853881081
 20
1750.0
 30
0.0
 11
-1592.139853881081
 21
1741.833333333333
 31
0.0
 70
    32
  3
標準スタイル
100
AcDbAlignedDimension
 13
-1568.000009999999
 23
1753.0
 33
0.0
 14
-1579.292889999999
 24
1750.0
 34
0.0
 50
90.0
100
AcDbRotatedDimension
1001
ACAD
1000
DSTYLE
1002
{
1070
   340
1005
10
1070
    40
1040
1.0
1002
}
  0
DIMENSION
  5
11434
330
1A
100
AcDbEntity
  8
SUNPOU
100
AcDbDimension
  2
*D10
 10
-1545.00001
 20
1738.334013470257
 30
0.0
 11
-1552.60437252684
 21
1738.334013470257
 31
0.0
 70
   160
  3
標準スタイル
100
AcDbAlignedDimension
 13
-1562.50002
 23
1749.0
 33
0.0
 14
-1545.00001
 24
1754.5
 34
0.0
100
AcDbRotatedDimension
1001
ACAD
1000
DSTYLE
1002
{
1070
   340
1005
10
1070
    40
1040
1.0
1002
}
  0
DIMENSION
  5
11457
330
1A
100
AcDbEntity
  8
SUNPOU
100
AcDbDimension
  2
*D11
 10
-1545.00001
 20
1726.323244239702
 30
0.0
 11
-1562.500004999999
 21
1729.073244239702
 31
0.0
 70
    32
  3
標準スタイル
100
AcDbAlignedDimension
 13
-1580.0
 23
1750.707110000001
 33
0.0
 14
-1545.00001
 24
1756.5
 34
0.0
100
AcDbRotatedDimension
1001
ACAD
1000
DSTYLE
1002
{
1070
   340
1005
10
1070
    40
1040
1.0
1002
}
  0
LINE
  5
11544
330
1A
100
AcDbEntity
  8
ZISSEN1
 62
     0
100
AcDbLine
 10
-1691.5
 20
1757.0
 30
0.0
 11
-1699.999999999999
 21
1757.0
 31
0.0
  0
LINE
  5
1154B
330
1A
100
AcDbEntity
  8
ZISSEN1
 62
     0
100
AcDbLine
 10
-1691.499999385541
 20
1824.000000181245
 30
0.0
 11
-1699.99999938554
 21
1824.000000181245
 31
0.0
  0
LINE
  5
11556
330
1A
100
AcDbEntity
  8
ZISSEN1
100
AcDbLine
 10
-1638.0
 20
1824.5
 30
0.0
 11
-1637.0
 21
1823.5
 31
0.0
  0
LINE
  5
11557
330
1A
100
AcDbEntity
  8
ZISSEN1
100
AcDbLine
 10
-1637.0
 20
1757.5
 30
0.0
 11
-1637.999999685059
 21
1756.500793650543
 31
0.0
  0
LINE
  5
1161F
330
1A
100
AcDbEntity
  8
ZISSEN1
100
AcDbLine
 10
-1564.10000051618
 20
1824.100000472826
 30
0.0
 11
-1552.60002
 21
1824.100000472826
 31
0.0
  0
LINE
  5
11620
330
1A
100
AcDbEntity
  8
ZISSEN1
100
AcDbLine
 10
-1564.10000051618
 20
1824.100000472826
 30
0.0
 11
-1564.10000051618
 21
1816.600000472826
 31
0.0
  0
LINE
  5
11621
330
1A
100
AcDbEntity
  8
ZISSEN1
100
AcDbLine
 10
-1564.10000051618
 20
1816.600000472826
 30
0.0
 11
-1560.1
 21
1816.600000472826
 31
0.0
  0
LINE
  5
11622
330
1A
100
AcDbEntity
  8
ZISSEN1
100
AcDbLine
 10
-1569.5
 20
1824.0
 30
0.0
 11
-1564.10000051618
 21
1821.143227922606
 31
0.0
  0
LINE
  5
11623
330
1A
100
AcDbEntity
  8
ZISSEN1
100
AcDbLine
 10
-1553.99999
 20
1801.544999999999
 30
0.0
 11
-1553.99999
 21
1797.48
 31
0.0
  0
LINE
  5
11624
330
1A
100
AcDbEntity
  8
ZISSEN1
100
AcDbLine
 10
-1553.99999
 20
1788.38001
 30
0.0
 11
-1553.99999
 21
1787.38
 31
0.0
  0
LINE
  5
11625
330
1A
100
AcDbEntity
  8
ZISSEN1
100
AcDbLine
 10
-1549.00002
 20
1831.0
 30
0.0
 11
-1548.000019999999
 21
1830.0
 31
0.0
  0
ARC
  5
1166F
330
1A
100
AcDbEntity
  8
ZISSEN1
100
AcDbCircle
 10
-1701.249999999999
 20
1666.75
 30
0.0
 40
1.75
100
AcDbArc
 50
180.0
 51
270.0
  0
LINE
  5
1167E
330
1A
100
AcDbEntity
  8
ZISSEN1
100
AcDbLine
 10
-1702.999999826202
 20
1668.707110223728
 30
0.0
 11
-1699.999999826202
 21
1668.707110223728
 31
0.0
  0
LINE
  5
1167F
330
1A
100
AcDbEntity
  8
ZISSEN1
100
AcDbLine
 10
-1699.999999826202
 20
1668.000000223727
 30
0.0
 11
-1702.999999826202
 21
1668.000000223727
 31
0.0
  0
LINE
  5
11691
330
1A
100
AcDbEntity
  8
ZISSEN1
100
AcDbLine
 10
-1699.999999826202
 20
1684.249999837283
 30
0.0
 11
-1702.999999826202
 21
1684.249999837283
 31
0.0
  0
LINE
  5
11697
330
1A
100
AcDbEntity
  8
ZISSEN1
100
AcDbLine
 10
-1699.999999826202
 20
1680.749999837283
 30
0.0
 11
-1702.999999826202
 21
1680.749999837283
 31
0.0
  0
VIEWPORT
  5
5D8F
330
5D8E
100
AcDbEntity
 67
     1
  8
0
100
AcDbViewport
 10
286.5694238838882
 20
157.6997211936248
 30
0.0
 40
683.0059499095991
 41
314.237268371582
 68
     1
 69
     1
1001
ACAD
1000
MVIEW
1002
{
1070
    16
1010
0.0
1020
0.0
1030
0.0
1010
0.0
1020
0.0
1030
1.0
1040
0.0
1040
314.237268371582
1040
286.5694238838882
1040
157.6997211936248
1040
50.0
1040
0.0
1040
0.0
1070
     0
1070
   100
1070
     1
1070
     0
1070
     0
1070
     0
1070
     0
1070
     0
1040
0.0
1040
0.0
1040
0.0
1040
1.0
1040
1.0
1040
10.0
1040
10.0
1070
     0
1002
{
1002
}
1002
}
  0
VIEWPORT
  5
6001
330
5D8E
100
AcDbEntity
 67
     1
  8
ZISSEN1
100
AcDbViewport
 10
221.786195552541
 20
157.6960273330388
 30
0.0
 40
385.4999999999997
 41
259.9999999999999
 68
     2
 69
     2
1001
ACAD
1000
MVIEW
1002
{
1070
    16
1010
0.0
1020
0.0
1030
0.0
1010
0.0
1020
0.0
1030
1.0
1040
0.0
1040
259.9999999687373
1040
-1621.265424978597
1040
1750.426860738653
1040
50.0
1040
0.0
1040
0.0
1070
     0
1070
   100
1070
     1
1070
     0
1070
     0
1070
     0
1070
     0
1070
     0
1040
0.0
1040
0.0
1040
0.0
1040
1.0
1040
1.0
1040
10.0
1040
10.0
1070
     0
1002
{
1002
}
1002
}
  0
TEXT
  5
716F
330
5D8E
100
AcDbEntity
 67
     1
  8
SUNPOU
 62
     0
100
AcDbText
 10
374.1863124306942
 20
60.86794705907585
 30
0.0
 40
3.5
  1
縮尺 1/1
  7
ゴシック体
100
AcDbText
  0
ENDSEC
  0
SECTION
  2
OBJECTS
  0
DICTIONARY
  5
C
330
0
100
AcDbDictionary
  3
ACAD_GROUP
350
D
  3
ACAD_LAYOUT
350
5C7D
  3
ACAD_MLINESTYLE
350
E
  3
ACAD_PLOTSETTINGS
350
5C7E
  3
ACAD_PLOTSTYLENAME
350
5C7B
  3
ACDBVARIABLEDICTIONARY
350
11478
  3
DWGPROPS
350
5E8E
  3
ACDBHEADERROUNDTRIPXREC
350
1176D
  0
DICTIONARY
  5
114A3
330
1A
100
AcDbDictionary
280
     1
  3
ACAD_LAYOUTSELFREF
360
1178D
  0
DICTIONARY
  5
114A5
330
5D8E
100
AcDbDictionary
280
     1
  3
ACAD_LAYOUTSELFREF
360
1178E
  0
DICTIONARY
  5
D
102
{ACAD_REACTORS
330
C
102
}
330
C
100
AcDbDictionary
  3
*A1
350
477D
  3
*A2
350
4C16
  3
*A3
350
4C17
  3
*A4
350
477E
  3
*A5
350
477F
  3
*A6
350
4780
  3
*A7
350
4781
  3
*A8
350
4C0E
  3
*A9
350
4C0F
  3
*A10
350
4C10
  3
*A11
350
4C11
  3
*A12
350
4C12
  3
*A13
350
4C13
  3
*A14
350
4C14
  3
*A15
350
4C15
  0
DICTIONARY
  5
5C7D
102
{ACAD_REACTORS
330
C
102
}
330
C
100
AcDbDictionary
  0
DICTIONARY
  5
E
102
{ACAD_REACTORS
330
C
102
}
330
C
100
AcDbDictionary
  3
STANDARD
350
13
  0
DICTIONARY
  5
5C7E
102
{ACAD_REACTORS
330
C
102
}
330
C
100
AcDbDictionary
  0
ACDBDICTIONARYWDFLT
  5
5C7B
102
{ACAD_REACTORS
330
C
102
}
330
C
100
AcDbDictionary
281
     1
  3
Normal
350
5C7C
100
AcDbDictionaryWithDefault
340
5C7C
  0
DICTIONARY
  5
11478
102
{ACAD_REACTORS
330
C
102
}
330
C
100
AcDbDictionary
  3
INDEXCTL
350
11479
  0
XRECORD
  5
5E8E
102
{ACAD_REACTORS
330
C
102
}
330
C
100
AcDbXrecord
  1
DWGPROPS COOKIE
  2

  3

  4

  6

  7

  8

  9

300
=
301
=
302
=
303
=
304
=
305
=
306
=
307
=
308
=
309
=
 40
0.586753587962963
 41
2450495.493631364
 42
2453208.662277431
  1

 90
        0
  0
DICTIONARY
  5
1176D
102
{ACAD_REACTORS
330
C
102
}
330
C
100
AcDbDictionary
  3
TSTACKALIGN
350
1176E
  3
TSTACKSIZE
350
1176F
  3
HYPERLINKBASE
350
11770
  3
STYLESHEET
350
11771
  3
LAYOUTDICT
350
11772
  3
PLOTSETDICT
350
11773
  3
PLOTSTYLNAMDICT
350
11774
  3
LWETCUNION
350
11775
  3
INSUNITS
350
11776
  3
CEPSNTYPE
350
11777
  3
FINGERPRINTGUID
350
11778
  3
VERSIONGUID
350
11779
  3
PSVPSCALE
350
1177A
  3
PUCSORTHOREF
350
1177B
  3
PUCSORTHOVIEW
350
1177C
  3
PUCSBASE
350
1177D
  3
PUCSORGTOP
350
1177E
  3
PUCSORGBOTTOM
350
1177F
  3
PUCSORGLEFT
350
11780
  3
PUCSORGRIGHT
350
11781
  3
PUCSORGFRONT
350
11782
  3
PUCSORGBACK
350
11783
  3
UCSORTHOREF
350
11784
  3
UCSORTHOVIEW
350
11785
  3
UCSBASE
350
11786
  3
UCSORGTOP
350
11787
  3
UCSORGBOTTOM
350
11788
  3
UCSORGLEFT
350
11789
  3
UCSORGRIGHT
350
1178A
  3
UCSORGFRONT
350
1178B
  3
UCSORGBACK
350
1178C
  0
XRECORD
  5
1178D
102
{ACAD_REACTORS
330
114A3
102
}
330
114A3
100
AcDbXrecord
340
1A
  0
XRECORD
  5
1178E
102
{ACAD_REACTORS
330
114A5
102
}
330
114A5
100
AcDbXrecord
340
5D8E
  0
GROUP
  5
477D
102
{ACAD_REACTORS
330
D
102
}
330
D
100
AcDbGroup
300

 70
     1
 71
     1
  0
GROUP
  5
4C16
102
{ACAD_REACTORS
330
D
102
}
330
D
100
AcDbGroup
300

 70
     1
 71
     1
  0
GROUP
  5
4C17
102
{ACAD_REACTORS
330
D
102
}
330
D
100
AcDbGroup
300

 70
     1
 71
     1
  0
GROUP
  5
477E
102
{ACAD_REACTORS
330
D
102
}
330
D
100
AcDbGroup
300

 70
     1
 71
     1
  0
GROUP
  5
477F
102
{ACAD_REACTORS
330
D
102
}
330
D
100
AcDbGroup
300

 70
     1
 71
     1
  0
GROUP
  5
4780
102
{ACAD_REACTORS
330
D
102
}
330
D
100
AcDbGroup
300

 70
     1
 71
     1
  0
GROUP
  5
4781
102
{ACAD_REACTORS
330
D
102
}
330
D
100
AcDbGroup
300

 70
     1
 71
     1
  0
GROUP
  5
4C0E
102
{ACAD_REACTORS
330
D
102
}
330
D
100
AcDbGroup
300

 70
     1
 71
     1
  0
GROUP
  5
4C0F
102
{ACAD_REACTORS
330
D
102
}
330
D
100
AcDbGroup
300

 70
     1
 71
     1
  0
GROUP
  5
4C10
102
{ACAD_REACTORS
330
D
102
}
330
D
100
AcDbGroup
300

 70
     1
 71
     1
  0
GROUP
  5
4C11
102
{ACAD_REACTORS
330
D
102
}
330
D
100
AcDbGroup
300

 70
     1
 71
     1
  0
GROUP
  5
4C12
102
{ACAD_REACTORS
330
D
102
}
330
D
100
AcDbGroup
300

 70
     1
 71
     1
  0
GROUP
  5
4C13
102
{ACAD_REACTORS
330
D
102
}
330
D
100
AcDbGroup
300

 70
     1
 71
     1
  0
GROUP
  5
4C14
102
{ACAD_REACTORS
330
D
102
}
330
D
100
AcDbGroup
300

 70
     1
 71
     1
  0
GROUP
  5
4C15
102
{ACAD_REACTORS
330
D
102
}
330
D
100
AcDbGroup
300

 70
     1
 71
     1
  0
MLINESTYLE
  5
13
102
{ACAD_REACTORS
330
E
102
}
330
E
100
AcDbMlineStyle
  2
STANDARD
 70
     0
  3

 62
     0
 51
90.0
 52
90.0
 71
     2
 49
0.5
 62
   256
  6
BYLAYER
 49
-0.5
 62
   256
  6
BYLAYER
  0
ACDBPLACEHOLDER
  5
5C7C
102
{ACAD_REACTORS
330
5C7B
102
}
330
5C7B
100
AcDbPlaceHolder
280
     0
  0
DICTIONARYVAR
  5
11479
102
{ACAD_REACTORS
330
11478
102
}
330
11478
100
DictionaryVariables
280
     0
  1
-1
  0
XRECORD
  5
1176E
102
{ACAD_REACTORS
330
1176D
102
}
330
1176D
100
AcDbXrecord
 90
        1
  0
XRECORD
  5
1176F
102
{ACAD_REACTORS
330
1176D
102
}
330
1176D
100
AcDbXrecord
 90
       70
  0
XRECORD
  5
11770
102
{ACAD_REACTORS
330
1176D
102
}
330
1176D
100
AcDbXrecord
  1

  0
XRECORD
  5
11771
102
{ACAD_REACTORS
330
1176D
102
}
330
1176D
100
AcDbXrecord
  1

  0
XRECORD
  5
11772
102
{ACAD_REACTORS
330
1176D
102
}
330
1176D
100
AcDbXrecord
340
5C7D
  0
XRECORD
  5
11773
102
{ACAD_REACTORS
330
1176D
102
}
330
1176D
100
AcDbXrecord
340
5C7E
  0
XRECORD
  5
11774
102
{ACAD_REACTORS
330
1176D
102
}
330
1176D
100
AcDbXrecord
340
5C7B
  0
XRECORD
  5
11775
102
{ACAD_REACTORS
330
1176D
102
}
330
1176D
100
AcDbXrecord
 90
    10781
  0
XRECORD
  5
11776
102
{ACAD_REACTORS
330
1176D
102
}
330
1176D
100
AcDbXrecord
 90
        0
  0
XRECORD
  5
11777
102
{ACAD_REACTORS
330
1176D
102
}
330
1176D
100
AcDbXrecord
 90
        0
  0
XRECORD
  5
11778
102
{ACAD_REACTORS
330
1176D
102
}
330
1176D
100
AcDbXrecord
  1
{225A7F0D-DA29-11D8-946A-0000E2416295}
  0
XRECORD
  5
11779
102
{ACAD_REACTORS
330
1176D
102
}
330
1176D
100
AcDbXrecord
  1
{B8BEEE45-3440-4A2F-ADE4-BCD9D87820CE}
  0
XRECORD
  5
1177A
102
{ACAD_REACTORS
330
1176D
102
}
330
1176D
100
AcDbXrecord
 40
0.0
  0
XRECORD
  5
1177B
102
{ACAD_REACTORS
330
1176D
102
}
330
1176D
100
AcDbXrecord
340
0
  0
XRECORD
  5
1177C
102
{ACAD_REACTORS
330
1176D
102
}
330
1176D
100
AcDbXrecord
 70
     0
  0
XRECORD
  5
1177D
102
{ACAD_REACTORS
330
1176D
102
}
330
1176D
100
AcDbXrecord
340
0
  0
XRECORD
  5
1177E
102
{ACAD_REACTORS
330
1176D
102
}
330
1176D
100
AcDbXrecord
 10
0.0
 20
0.0
 30
0.0
  0
XRECORD
  5
1177F
102
{ACAD_REACTORS
330
1176D
102
}
330
1176D
100
AcDbXrecord
 10
0.0
 20
0.0
 30
0.0
  0
XRECORD
  5
11780
102
{ACAD_REACTORS
330
1176D
102
}
330
1176D
100
AcDbXrecord
 10
0.0
 20
0.0
 30
0.0
  0
XRECORD
  5
11781
102
{ACAD_REACTORS
330
1176D
102
}
330
1176D
100
AcDbXrecord
 10
0.0
 20
0.0
 30
0.0
  0
XRECORD
  5
11782
102
{ACAD_REACTORS
330
1176D
102
}
330
1176D
100
AcDbXrecord
 10
0.0
 20
0.0
 30
0.0
  0
XRECORD
  5
11783
102
{ACAD_REACTORS
330
1176D
102
}
330
1176D
100
AcDbXrecord
 10
0.0
 20
0.0
 30
0.0
  0
XRECORD
  5
11784
102
{ACAD_REACTORS
330
1176D
102
}
330
1176D
100
AcDbXrecord
340
0
  0
XRECORD
  5
11785
102
{ACAD_REACTORS
330
1176D
102
}
330
1176D
100
AcDbXrecord
 70
     0
  0
XRECORD
  5
11786
102
{ACAD_REACTORS
330
1176D
102
}
330
1176D
100
AcDbXrecord
340
0
  0
XRECORD
  5
11787
102
{ACAD_REACTORS
330
1176D
102
}
330
1176D
100
AcDbXrecord
 10
0.0
 20
0.0
 30
0.0
  0
XRECORD
  5
11788
102
{ACAD_REACTORS
330
1176D
102
}
330
1176D
100
AcDbXrecord
 10
0.0
 20
0.0
 30
0.0
  0
XRECORD
  5
11789
102
{ACAD_REACTORS
330
1176D
102
}
330
1176D
100
AcDbXrecord
 10
0.0
 20
0.0
 30
0.0
  0
XRECORD
  5
1178A
102
{ACAD_REACTORS
330
1176D
102
}
330
1176D
100
AcDbXrecord
 10
0.0
 20
0.0
 30
0.0
  0
XRECORD
  5
1178B
102
{ACAD_REACTORS
330
1176D
102
}
330
1176D
100
AcDbXrecord
 10
0.0
 20
0.0
 30
0.0
  0
XRECORD
  5
1178C
102
{ACAD_REACTORS
330
1176D
102
}
330
1176D
100
AcDbXrecord
 10
0.0
 20
0.0
 30
0.0
  0
ENDSEC
  0
EOF
