  0
SECTION
  2
HEADER
  9
$ACADVER
  1
AC1014
  9
$ACADMAINTVER
 70
     9
  9
$DWGCODEPAGE
  3
ANSI_932
  9
$INSBASE
 10
0.0
 20
0.0
 30
0.0
  9
$EXTMIN
 10
-1827.09926319843
 20
1584.999999
 30
0.0
  9
$EXTMAX
 10
-1508.32176907205
 20
1830.014526728316
 30
0.0
  9
$LIMMIN
 10
0.0
 20
0.0
  9
$LIMMAX
 10
420.0
 20
297.0
  9
$ORTHOMODE
 70
     1
  9
$REGENMODE
 70
     1
  9
$FILLMODE
 70
     1
  9
$QTEXTMODE
 70
     0
  9
$MIRRTEXT
 70
     1
  9
$DRAGMODE
 70
     2
  9
$LTSCALE
 40
1.0
  9
$OSMODE
 70
    37
  9
$ATTMODE
 70
     1
  9
$TEXTSIZE
 40
2.5
  9
$TRACEWID
 40
1.0
  9
$TEXTSTYLE
  7
ゴシック体
  9
$CLAYER
  8
0
  9
$CELTYPE
  6
BYLAYER
  9
$CECOLOR
 62
   256
  9
$CELTSCALE
 40
1.0
  9
$DELOBJ
 70
     1
  9
$DISPSILH
 70
     0
  9
$DIMSCALE
 40
0.0
  9
$DIMASZ
 40
3.0
  9
$DIMEXO
 40
0.5
  9
$DIMDLI
 40
0.5
  9
$DIMRND
 40
0.0
  9
$DIMDLE
 40
0.0
  9
$DIMEXE
 40
0.5
  9
$DIMTP
 40
0.0
  9
$DIMTM
 40
0.0
  9
$DIMTXT
 40
3.5
  9
$DIMCEN
 40
0.0
  9
$DIMTSZ
 40
0.0
  9
$DIMTOL
 70
     0
  9
$DIMLIM
 70
     0
  9
$DIMTIH
 70
     0
  9
$DIMTOH
 70
     0
  9
$DIMSE1
 70
     0
  9
$DIMSE2
 70
     0
  9
$DIMTAD
 70
     1
  9
$DIMZIN
 70
     8
  9
$DIMBLK
  1

  9
$DIMASO
 70
     1
  9
$DIMSHO
 70
     1
  9
$DIMPOST
  1

  9
$DIMAPOST
  1

  9
$DIMALT
 70
     0
  9
$DIMALTD
 70
     2
  9
$DIMALTF
 40
25.4
  9
$DIMLFAC
 40
1.0
  9
$DIMTOFL
 70
     1
  9
$DIMTVP
 40
0.0
  9
$DIMTIX
 70
     0
  9
$DIMSOXD
 70
     0
  9
$DIMSAH
 70
     0
  9
$DIMBLK1
  1

  9
$DIMBLK2
  1

  9
$DIMSTYLE
  2
標準スタイル
  9
$DIMCLRD
 70
     1
  9
$DIMCLRE
 70
     1
  9
$DIMCLRT
 70
     1
  9
$DIMTFAC
 40
1.0
  9
$DIMGAP
 40
1.0
  9
$DIMJUST
 70
     0
  9
$DIMSD1
 70
     0
  9
$DIMSD2
 70
     0
  9
$DIMTOLJ
 70
     1
  9
$DIMTZIN
 70
     8
  9
$DIMALTZ
 70
     0
  9
$DIMALTTZ
 70
     0
  9
$DIMFIT
 70
     3
  9
$DIMUPT
 70
     0
  9
$DIMUNIT
 70
     2
  9
$DIMDEC
 70
     2
  9
$DIMTDEC
 70
     2
  9
$DIMALTU
 70
     2
  9
$DIMALTTD
 70
     2
  9
$DIMTXSTY
  7
ゴシック体
  9
$DIMAUNIT
 70
     0
  9
$LUNITS
 70
     2
  9
$LUPREC
 70
     4
  9
$SKETCHINC
 40
1.0
  9
$FILLETRAD
 40
0.0
  9
$AUNITS
 70
     0
  9
$AUPREC
 70
     0
  9
$MENU
  1
.
  9
$ELEVATION
 40
0.0
  9
$PELEVATION
 40
0.0
  9
$THICKNESS
 40
0.0
  9
$LIMCHECK
 70
     0
  9
$BLIPMODE
 70
     0
  9
$CHAMFERA
 40
10.0
  9
$CHAMFERB
 40
10.0
  9
$CHAMFERC
 40
2.0
  9
$CHAMFERD
 40
0.7853981633974483
  9
$SKPOLY
 70
     0
  9
$TDCREATE
 40
2450495.493631365
  9
$TDUPDATE
 40
2454770.583212731
  9
$TDINDWG
 40
1.8690532407
  9
$TDUSRTIMER
 40
1.8690532407
  9
$USRTIMER
 70
     1
  9
$ANGBASE
 50
0.0
  9
$ANGDIR
 70
     0
  9
$PDMODE
 70
    99
  9
$PDSIZE
 40
0.0
  9
$PLINEWID
 40
0.0
  9
$COORDS
 70
     1
  9
$SPLFRAME
 70
     0
  9
$SPLINETYPE
 70
     6
  9
$SPLINESEGS
 70
     8
  9
$ATTDIA
 70
     0
  9
$ATTREQ
 70
     1
  9
$HANDLING
 70
 10241
  9
$HANDSEED
  5
136B1
  9
$SURFTAB1
 70
     6
  9
$SURFTAB2
 70
     6
  9
$SURFTYPE
 70
     6
  9
$SURFU
 70
     6
  9
$SURFV
 70
     6
  9
$UCSNAME
  2

  9
$UCSORG
 10
0.0
 20
0.0
 30
0.0
  9
$UCSXDIR
 10
1.0
 20
0.0
 30
0.0
  9
$UCSYDIR
 10
0.0
 20
1.0
 30
0.0
  9
$PUCSNAME
  2

  9
$PUCSORG
 10
0.0
 20
0.0
 30
0.0
  9
$PUCSXDIR
 10
1.0
 20
0.0
 30
0.0
  9
$PUCSYDIR
 10
0.0
 20
1.0
 30
0.0
  9
$USERI1
 70
     0
  9
$USERI2
 70
     0
  9
$USERI3
 70
     0
  9
$USERI4
 70
     0
  9
$USERI5
 70
     0
  9
$USERR1
 40
0.0
  9
$USERR2
 40
0.0
  9
$USERR3
 40
0.0
  9
$USERR4
 40
0.0
  9
$USERR5
 40
0.0
  9
$WORLDVIEW
 70
     1
  9
$SHADEDGE
 70
     3
  9
$SHADEDIF
 70
    70
  9
$TILEMODE
 70
     0
  9
$MAXACTVP
 70
    16
  9
$PINSBASE
 10
0.0
 20
0.0
 30
0.0
  9
$PLIMCHECK
 70
     0
  9
$PEXTMIN
 10
29.03619555254135
 20
27.69602733303884
 30
0.0
  9
$PEXTMAX
 10
414.5361955525411
 20
287.6960273330388
 30
0.0
  9
$PLIMMIN
 10
11.81292516792682
 20
9.198315512921345
  9
$PLIMMAX
 10
431.7595804413643
 20
306.2089661476869
  9
$UNITMODE
 70
     0
  9
$VISRETAIN
 70
     0
  9
$PLINEGEN
 70
     0
  9
$PSLTSCALE
 70
     1
  9
$TREEDEPTH
 70
  3020
  9
$PICKSTYLE
 70
     1
  9
$CMLSTYLE
  2
STANDARD
  9
$CMLJUST
 70
     0
  9
$CMLSCALE
 40
1.0
  9
$PROXYGRAPHICS
 70
     1
  9
$MEASUREMENT
 70
     0
  0
ENDSEC
  0
SECTION
  2
CLASSES
  0
CLASS
  1
LWPOLYLINE
  2
AcDbPolyline
  3
AutoCAD 2000
 90
        0
280
     0
281
     1
  0
CLASS
  1
HATCH
  2
AcDbHatch
  3
AutoCAD 2000
 90
        0
280
     0
281
     1
  0
CLASS
  1
ACDBDICTIONARYWDFLT
  2
AcDbDictionaryWithDefault
  3
AutoCAD 2000
 90
        0
280
     0
281
     0
  0
CLASS
  1
ACDBPLACEHOLDER
  2
AcDbPlaceHolder
  3
AutoCAD 2000
 90
        0
280
     0
281
     0
  0
CLASS
  1
LAYOUT
  2
AcDbLayout
  3
AutoCAD 2000
 90
        0
280
     0
281
     0
  0
CLASS
  1
DICTIONARYVAR
  2
AcDbDictionaryVar
  3
AutoCAD 2000
 90
        0
280
     0
281
     0
  0
CLASS
  1
LONG_TRANSACTION
  2
AcDbLongTransaction
  3
AutoCAD 2000
 90
        0
280
     0
281
     0
  0
CLASS
  1
LWPOLYLINE
  2
AcDbPolyline
  3
AutoCAD 2000
 90
        0
280
     0
281
     1
  0
CLASS
  1
HATCH
  2
AcDbHatch
  3
AutoCAD 2000
 90
        0
280
     0
281
     1
  0
CLASS
  1
XRECORD
  2
AcDbXrecord
  3
AutoCAD 2000
 90
        0
280
     0
281
     0
  0
ENDSEC
  0
SECTION
  2
TABLES
  0
TABLE
  2
VPORT
  5
8
330
0
100
AcDbSymbolTable
 70
     1
  0
VPORT
  5
1367A
330
8
100
AcDbSymbolTableRecord
100
AcDbViewportTableRecord
  2
*ACTIVE
 70
     0
 10
0.0
 20
0.0
 11
1.0
 21
1.0
 12
-1667.728571598921
 22
1707.484872742955
 13
0.0
 23
0.0
 14
5.0
 24
5.0
 15
0.0
 25
0.0
 16
0.0
 26
0.0
 36
1.0
 17
0.0
 27
0.0
 37
0.0
 40
248.1248793261229
 41
1.853118712273641
 42
50.0
 43
0.0
 44
0.0
 50
0.0
 51
0.0
 71
     0
 72
   100
 73
     1
 74
     0
 75
     0
 76
     0
 77
     0
 78
     0
  0
ENDTAB
  0
TABLE
  2
LTYPE
  5
5
330
0
100
AcDbSymbolTable
 70
     5
  0
LTYPE
  5
14
330
5
100
AcDbSymbolTableRecord
100
AcDbLinetypeTableRecord
  2
BYBLOCK
 70
     0
  3

 72
    65
 73
     0
 40
0.0
  0
LTYPE
  5
15
330
5
100
AcDbSymbolTableRecord
100
AcDbLinetypeTableRecord
  2
BYLAYER
 70
     0
  3

 72
    65
 73
     0
 40
0.0
  0
LTYPE
  5
16
330
5
100
AcDbSymbolTableRecord
100
AcDbLinetypeTableRecord
  2
CONTINUOUS
 70
     0
  3
Solid line
 72
    65
 73
     0
 40
0.0
  0
LTYPE
  5
329
330
5
100
AcDbSymbolTableRecord
100
AcDbLinetypeTableRecord
  2
DASHEDX2
 70
     0
  3
____  ____  ____  ____  ____  ____  ____  ____ 
 72
    65
 73
     2
 40
1.5
 49
1.0
 74
     0
 49
-0.5
 74
     0
  0
LTYPE
  5
1956
330
5
100
AcDbSymbolTableRecord
100
AcDbLinetypeTableRecord
  2
CENTERX2
 70
     0
  3
________  __  ________  __  ________  __  _____
 72
    65
 73
     4
 40
4.0
 49
2.5
 74
     0
 49
-0.5
 74
     0
 49
0.5
 74
     0
 49
-0.5
 74
     0
  0
LTYPE
  5
1958
330
5
100
AcDbSymbolTableRecord
100
AcDbLinetypeTableRecord
  2
PHANTOMX2
 70
     0
  3
____________    ____    ____    ____________   
 72
    65
 73
     6
 40
5.0
 49
2.5
 74
     0
 49
-0.5
 74
     0
 49
0.5
 74
     0
 49
-0.5
 74
     0
 49
0.5
 74
     0
 49
-0.5
 74
     0
  0
LTYPE
  5
7743
330
5
100
AcDbSymbolTableRecord
100
AcDbLinetypeTableRecord
  2
HIDDEN
 70
     0
  3
__ __ __ __ __ __ __ __ __ __ __ __ __ __ __ __
 72
    65
 73
     2
 40
0.375
 49
0.25
 74
     0
 49
-0.125
 74
     0
  0
ENDTAB
  0
TABLE
  2
LAYER
  5
2
330
0
100
AcDbSymbolTable
 70
     8
  0
LAYER
  5
F
330
2
100
AcDbSymbolTableRecord
100
AcDbLayerTableRecord
  2
0
 70
     0
 62
     7
  6
CONTINUOUS
  0
LAYER
  5
18F
330
2
100
AcDbSymbolTableRecord
100
AcDbLayerTableRecord
  2
ZISSEN1
 70
     0
 62
     7
  6
CONTINUOUS
  0
LAYER
  5
191
330
2
100
AcDbSymbolTableRecord
100
AcDbLayerTableRecord
  2
SAISEN
 70
     1
 62
     1
  6
CONTINUOUS
  0
LAYER
  5
529
330
2
100
AcDbSymbolTableRecord
100
AcDbLayerTableRecord
  2
SUNPOU
 70
     0
 62
     1
  6
CONTINUOUS
  0
LAYER
  5
1959
330
2
100
AcDbSymbolTableRecord
100
AcDbLayerTableRecord
  2
KAKURESEN1
 70
     0
 62
     3
  6
DASHEDX2
  0
LAYER
  5
195A
330
2
100
AcDbSymbolTableRecord
100
AcDbLayerTableRecord
  2
CL1
 70
     0
 62
   210
  6
CENTERX2
  0
LAYER
  5
195C
330
2
100
AcDbSymbolTableRecord
100
AcDbLayerTableRecord
  2
SOUZOUSEN
 70
     0
 62
     5
  6
PHANTOMX2
  0
LAYER
  5
3A9B
330
2
100
AcDbSymbolTableRecord
100
AcDbLayerTableRecord
  2
DEFPOINTS
 70
     0
 62
     7
  6
CONTINUOUS
  0
ENDTAB
  0
TABLE
  2
STYLE
  5
3
330
0
100
AcDbSymbolTable
 70
     2
  0
STYLE
  5
10
330
3
100
AcDbSymbolTableRecord
100
AcDbTextStyleTableRecord
  2
STANDARD
 70
     0
 40
0.0
 41
1.0
 50
0.0
 71
     0
 42
3.0
  3
txt
  4
BigFont
  0
STYLE
  5
1960
330
3
100
AcDbSymbolTableRecord
100
AcDbTextStyleTableRecord
  2
ゴシック体
 70
     0
 40
0.0
 41
1.0
 50
0.0
 71
     0
 42
2.5
  3
MS Gothic.ttf
  4

1001
ACAD
1000
MS Gothic
1071
    32817
  0
ENDTAB
  0
TABLE
  2
VIEW
  5
6
330
0
100
AcDbSymbolTable
 70
     0
  0
ENDTAB
  0
TABLE
  2
UCS
  5
7
330
0
100
AcDbSymbolTable
 70
     0
  0
ENDTAB
  0
TABLE
  2
APPID
  5
9
330
0
100
AcDbSymbolTable
 70
     5
  0
APPID
  5
11
330
9
100
AcDbSymbolTableRecord
100
AcDbRegAppTableRecord
  2
ACAD
 70
     0
  0
APPID
  5
4005
330
9
100
AcDbSymbolTableRecord
100
AcDbRegAppTableRecord
  2
CONTENTTABDATA
 70
     0
  0
APPID
  5
4006
330
9
100
AcDbSymbolTableRecord
100
AcDbRegAppTableRecord
  2
CONTENTCURRENTTAB
 70
     0
  0
APPID
  5
477B
330
9
100
AcDbSymbolTableRecord
100
AcDbRegAppTableRecord
  2
CONTENTBLOCKDESCRIPTION
 70
     0
  0
APPID
  5
477C
330
9
100
AcDbSymbolTableRecord
100
AcDbRegAppTableRecord
  2
CONTENTBLOCKICON
 70
     0
  0
ENDTAB
  0
TABLE
  2
DIMSTYLE
  5
A
330
0
100
AcDbSymbolTable
 70
     2
  0
DIMSTYLE
105
1D
330
A
100
AcDbSymbolTableRecord
100
AcDbDimStyleTableRecord
  2
STANDARD
 70
     0
  3

  4

  5

  6

  7

 40
1.0
 41
0.18
 42
0.0625
 43
0.38
 44
0.18
 45
0.0
 46
0.0
 47
0.0
 48
0.0
140
0.18
141
0.09
142
0.0
143
25.4
144
1.0
145
0.0
146
1.0
147
0.09
 71
     0
 72
     0
 73
     1
 74
     1
 75
     0
 76
     0
 77
     0
 78
     0
170
     0
171
     2
172
     0
173
     0
174
     0
175
     0
176
     0
177
     0
178
     0
270
     2
271
     4
272
     4
273
     2
274
     2
340
10
275
     0
280
     0
281
     0
282
     0
283
     1
284
     0
285
     0
286
     0
287
     3
288
     0
  0
DIMSTYLE
105
52E
102
{ACAD_REACTORS
330
1264E
330
1265B
330
12AAD
330
12ACA
330
12AEF
330
12AFC
330
12B65
330
12F24
330
12F25
330
1329C
330
132A9
330
132B6
102
}
330
A
100
AcDbSymbolTableRecord
100
AcDbDimStyleTableRecord
  2
標準スタイル
 70
     0
  3

  4

  5

  6

  7

 40
0.0
 41
3.0
 42
0.5
 43
0.5
 44
0.5
 45
0.0
 46
0.0
 47
0.0
 48
0.0
140
3.5
141
0.0
142
0.0
143
25.4
144
1.0
145
0.0
146
1.0
147
1.0
 71
     0
 72
     0
 73
     0
 74
     0
 75
     0
 76
     0
 77
     1
 78
     8
170
     0
171
     2
172
     1
173
     0
174
     0
175
     0
176
     1
177
     1
178
     1
270
     2
271
     2
272
     2
273
     2
274
     2
340
1960
275
     0
280
     0
281
     0
282
     0
283
     1
284
     8
285
     0
286
     0
287
     3
288
     0
  0
ENDTAB
  0
TABLE
  2
BLOCK_RECORD
  5
1
330
0
100
AcDbSymbolTable
 70
    12
  0
BLOCK_RECORD
  5
1A
102
{ACAD_XDICTIONARY
360
136A2
102
}
330
1
100
AcDbSymbolTableRecord
100
AcDbBlockTableRecord
  2
*MODEL_SPACE
  0
BLOCK_RECORD
  5
5D8E
102
{ACAD_XDICTIONARY
360
136A4
102
}
330
1
100
AcDbSymbolTableRecord
100
AcDbBlockTableRecord
  2
*PAPER_SPACE
  0
BLOCK_RECORD
  5
1264F
330
1
100
AcDbSymbolTableRecord
100
AcDbBlockTableRecord
  2
*D0
  0
BLOCK_RECORD
  5
1265C
330
1
100
AcDbSymbolTableRecord
100
AcDbBlockTableRecord
  2
*D1
  0
BLOCK_RECORD
  5
12AAE
330
1
100
AcDbSymbolTableRecord
100
AcDbBlockTableRecord
  2
*D2
  0
BLOCK_RECORD
  5
12ACB
330
1
100
AcDbSymbolTableRecord
100
AcDbBlockTableRecord
  2
*D3
  0
BLOCK_RECORD
  5
12AF0
330
1
100
AcDbSymbolTableRecord
100
AcDbBlockTableRecord
  2
*D4
  0
BLOCK_RECORD
  5
12AFD
330
1
100
AcDbSymbolTableRecord
100
AcDbBlockTableRecord
  2
*D5
  0
BLOCK_RECORD
  5
12B66
330
1
100
AcDbSymbolTableRecord
100
AcDbBlockTableRecord
  2
*D6
  0
BLOCK_RECORD
  5
12F63
330
1
100
AcDbSymbolTableRecord
100
AcDbBlockTableRecord
  2
*D7
  0
BLOCK_RECORD
  5
12F6F
330
1
100
AcDbSymbolTableRecord
100
AcDbBlockTableRecord
  2
*D8
  0
BLOCK_RECORD
  5
1329D
330
1
100
AcDbSymbolTableRecord
100
AcDbBlockTableRecord
  2
*D9
  0
BLOCK_RECORD
  5
132AA
330
1
100
AcDbSymbolTableRecord
100
AcDbBlockTableRecord
  2
*D10
  0
BLOCK_RECORD
  5
132B7
330
1
100
AcDbSymbolTableRecord
100
AcDbBlockTableRecord
  2
*D11
  0
ENDTAB
  0
ENDSEC
  0
SECTION
  2
BLOCKS
  0
BLOCK
  5
1B
330
1A
100
AcDbEntity
  8
0
100
AcDbBlockBegin
  2
*MODEL_SPACE
 70
     0
 10
0.0
 20
0.0
 30
0.0
  3
*MODEL_SPACE
  1

  0
ENDBLK
  5
1C
330
1A
100
AcDbEntity
  8
0
100
AcDbBlockEnd
  0
BLOCK
  5
5E60
330
5D8E
100
AcDbEntity
 67
     1
  8
0
100
AcDbBlockBegin
  2
*PAPER_SPACE
 70
     0
 10
0.0
 20
0.0
 30
0.0
  3
*PAPER_SPACE
  1

  0
ENDBLK
  5
5E61
330
5D8E
100
AcDbEntity
 67
     1
  8
0
100
AcDbBlockEnd
  0
BLOCK
  5
12659
330
1264F
100
AcDbEntity
  8
0
100
AcDbBlockBegin
  2
*D0
 70
     1
 10
0.0
 20
0.0
 30
0.0
  3
*D0
  1

  0
LINE
  5
135D4
330
1264F
100
AcDbEntity
  8
SUNPOU
 62
     1
100
AcDbLine
 10
-1777.999978282874
 20
1806.50002
 30
0.0
 11
-1811.603832788583
 21
1806.50002
 31
0.0
  0
LINE
  5
135D5
330
1264F
100
AcDbEntity
  8
SUNPOU
 62
     1
100
AcDbLine
 10
-1777.999978282874
 20
1706.5
 30
0.0
 11
-1811.603832788583
 21
1706.5
 31
0.0
  0
LINE
  5
135D6
330
1264F
100
AcDbEntity
  8
SUNPOU
 62
     1
100
AcDbLine
 10
-1811.103832788583
 20
1803.500019999999
 30
0.0
 11
-1811.103832788583
 21
1709.5
 31
0.0
  0
SOLID
  5
135D7
330
1264F
100
AcDbEntity
  8
SUNPOU
 62
     1
100
AcDbTrace
 10
-1811.603832788583
 20
1803.500019999999
 30
0.0
 11
-1810.603832788583
 21
1803.500019999999
 31
0.0
 12
-1811.103832788583
 22
1806.50002
 32
0.0
 13
-1811.103832788583
 23
1806.50002
 33
0.0
  0
SOLID
  5
135D8
330
1264F
100
AcDbEntity
  8
SUNPOU
 62
     1
100
AcDbTrace
 10
-1811.603832788583
 20
1709.5
 30
0.0
 11
-1810.603832788583
 21
1709.5
 31
0.0
 12
-1811.103832788583
 22
1706.5
 32
0.0
 13
-1811.103832788583
 23
1706.5
 33
0.0
  0
MTEXT
  5
135D9
330
1264F
100
AcDbEntity
  8
SUNPOU
 62
     1
100
AcDbMText
 10
-1813.853832788583
 20
1756.500009999999
 30
0.0
 40
3.5
 41
0.0
 71
     5
 72
     1
  1
\A1;100
 11
0.0000000000000001
 21
1.0
 31
0.0
1001
ACAD
1000
MTEXTBEGIN
1070
    73
1070
     1
1070
    44
1040
1.0
1070
    74
1070
     0
1000
MTEXTEND
  0
POINT
  5
135DA
330
1264F
100
AcDbEntity
  8
DEFPOINTS
 62
     0
100
AcDbPoint
 10
-1777.499978282874
 20
1806.50002
 30
0.0
  0
POINT
  5
135DB
330
1264F
100
AcDbEntity
  8
DEFPOINTS
 62
     0
100
AcDbPoint
 10
-1777.499978282874
 20
1706.5
 30
0.0
  0
POINT
  5
135DC
330
1264F
100
AcDbEntity
  8
DEFPOINTS
 62
     0
100
AcDbPoint
 10
-1811.103832788583
 20
1706.5
 30
0.0
  0
ENDBLK
  5
1265A
330
1264F
100
AcDbEntity
  8
0
100
AcDbBlockEnd
  0
BLOCK
  5
12668
330
1265C
100
AcDbEntity
  8
0
100
AcDbBlockBegin
  2
*D1
 70
     1
 10
0.0
 20
0.0
 30
0.0
  3
*D1
  1

  0
LINE
  5
135DD
330
1265C
100
AcDbEntity
  8
SUNPOU
 62
     1
100
AcDbLine
 10
-1775.749978282874
 20
1700.20711
 30
0.0
 11
-1775.749978282874
 21
1689.485070131418
 31
0.0
  0
LINE
  5
135DE
330
1265C
100
AcDbEntity
  8
SUNPOU
 62
     1
100
AcDbLine
 10
-1772.249968282874
 20
1700.20711
 30
0.0
 11
-1772.249968282874
 21
1689.485070131418
 31
0.0
  0
LINE
  5
135DF
330
1265C
100
AcDbEntity
  8
SUNPOU
 62
     1
100
AcDbLine
 10
-1778.749978282874
 20
1689.985070131418
 30
0.0
 11
-1781.749978282874
 21
1689.985070131418
 31
0.0
  0
LINE
  5
135E0
330
1265C
100
AcDbEntity
  8
SUNPOU
 62
     1
100
AcDbLine
 10
-1769.249968282874
 20
1689.985070131418
 30
0.0
 11
-1757.249968282874
 21
1689.985070131418
 31
0.0
  0
LINE
  5
135E1
330
1265C
100
AcDbEntity
  8
SUNPOU
 62
     1
100
AcDbLine
 10
-1775.749978282874
 20
1689.985070131418
 30
0.0
 11
-1772.249968282874
 21
1689.985070131418
 31
0.0
  0
SOLID
  5
135E2
330
1265C
100
AcDbEntity
  8
SUNPOU
 62
     1
100
AcDbTrace
 10
-1778.749978282874
 20
1690.485070131418
 30
0.0
 11
-1778.749978282874
 21
1689.485070131418
 31
0.0
 12
-1775.749978282874
 22
1689.985070131418
 32
0.0
 13
-1775.749978282874
 23
1689.985070131418
 33
0.0
  0
SOLID
  5
135E3
330
1265C
100
AcDbEntity
  8
SUNPOU
 62
     1
100
AcDbTrace
 10
-1769.249968282874
 20
1690.485070131418
 30
0.0
 11
-1769.249968282874
 21
1689.485070131418
 31
0.0
 12
-1772.249968282874
 22
1689.985070131418
 32
0.0
 13
-1772.249968282874
 23
1689.985070131418
 33
0.0
  0
MTEXT
  5
135E4
330
1265C
100
AcDbEntity
  8
SUNPOU
 62
     1
100
AcDbMText
 10
-1761.749968282874
 20
1692.735070131418
 30
0.0
 40
3.5
 41
0.0
 71
     5
 72
     1
  1
\A1;3.5
1001
ACAD
1000
MTEXTBEGIN
1070
    73
1070
     1
1070
    44
1040
1.0
1070
    74
1070
     0
1000
MTEXTEND
  0
POINT
  5
135E5
330
1265C
100
AcDbEntity
  8
DEFPOINTS
 62
     0
100
AcDbPoint
 10
-1775.749978282874
 20
1700.70711
 30
0.0
  0
POINT
  5
135E6
330
1265C
100
AcDbEntity
  8
DEFPOINTS
 62
     0
100
AcDbPoint
 10
-1772.249968282874
 20
1700.70711
 30
0.0
  0
POINT
  5
135E7
330
1265C
100
AcDbEntity
  8
DEFPOINTS
 62
     0
100
AcDbPoint
 10
-1772.249968282874
 20
1689.985070131418
 30
0.0
  0
ENDBLK
  5
12669
330
1265C
100
AcDbEntity
  8
0
100
AcDbBlockEnd
  0
BLOCK
  5
12ABA
330
12AAE
100
AcDbEntity
  8
0
100
AcDbBlockBegin
  2
*D2
 70
     1
 10
0.0
 20
0.0
 30
0.0
  3
*D2
  1

  0
LINE
  5
1365E
330
12AAE
100
AcDbEntity
  8
SUNPOU
 62
     1
100
AcDbLine
 10
-1747.481403606343
 20
1598.999994
 30
0.0
 11
-1737.601990675213
 21
1598.999994
 31
0.0
  0
LINE
  5
1365F
330
12AAE
100
AcDbEntity
  8
SUNPOU
 62
     1
100
AcDbLine
 10
-1746.981403606343
 20
1592.999999
 30
0.0
 11
-1737.601990675213
 21
1592.999999
 31
0.0
  0
LINE
  5
13660
330
12AAE
100
AcDbEntity
  8
SUNPOU
 62
     1
100
AcDbLine
 10
-1738.101990675213
 20
1601.999994
 30
0.0
 11
-1738.101990675213
 21
1604.999994
 31
0.0
  0
LINE
  5
13661
330
12AAE
100
AcDbEntity
  8
SUNPOU
 62
     1
100
AcDbLine
 10
-1738.101990675213
 20
1589.999999
 30
0.0
 11
-1738.101990675213
 21
1586.999999
 31
0.0
  0
LINE
  5
13662
330
12AAE
100
AcDbEntity
  8
SUNPOU
 62
     1
100
AcDbLine
 10
-1738.101990675213
 20
1598.999994
 30
0.0
 11
-1738.101990675213
 21
1592.999999
 31
0.0
  0
SOLID
  5
13663
330
12AAE
100
AcDbEntity
  8
SUNPOU
 62
     1
100
AcDbTrace
 10
-1738.601990675213
 20
1601.999994
 30
0.0
 11
-1737.601990675213
 21
1601.999994
 31
0.0
 12
-1738.101990675213
 22
1598.999994
 32
0.0
 13
-1738.101990675213
 23
1598.999994
 33
0.0
  0
SOLID
  5
13664
330
12AAE
100
AcDbEntity
  8
SUNPOU
 62
     1
100
AcDbTrace
 10
-1738.601990675213
 20
1589.999999
 30
0.0
 11
-1737.601990675213
 21
1589.999999
 31
0.0
 12
-1738.101990675213
 22
1592.999999
 32
0.0
 13
-1738.101990675213
 23
1592.999999
 33
0.0
  0
MTEXT
  5
13665
330
12AAE
100
AcDbEntity
  8
SUNPOU
 62
     1
100
AcDbMText
 10
-1740.851990675213
 20
1595.999996499999
 30
0.0
 40
3.5
 41
0.0
 71
     5
 72
     1
  1
\A1;6
 11
0.0000000000000001
 21
1.0
 31
0.0
1001
ACAD
1000
MTEXTBEGIN
1070
    73
1070
     1
1070
    44
1040
1.0
1070
    74
1070
     0
1000
MTEXTEND
  0
POINT
  5
13666
330
12AAE
100
AcDbEntity
  8
DEFPOINTS
 62
     0
100
AcDbPoint
 10
-1747.981403606343
 20
1598.999994
 30
0.0
  0
POINT
  5
13667
330
12AAE
100
AcDbEntity
  8
DEFPOINTS
 62
     0
100
AcDbPoint
 10
-1747.481403606343
 20
1592.999999
 30
0.0
  0
POINT
  5
13668
330
12AAE
100
AcDbEntity
  8
DEFPOINTS
 62
     0
100
AcDbPoint
 10
-1738.101990675213
 20
1592.999999
 30
0.0
  0
ENDBLK
  5
12ABB
330
12AAE
100
AcDbEntity
  8
0
100
AcDbBlockEnd
  0
BLOCK
  5
12AD7
330
12ACB
100
AcDbEntity
  8
0
100
AcDbBlockBegin
  2
*D3
 70
     1
 10
0.0
 20
0.0
 30
0.0
  3
*D3
  1

  0
LINE
  5
136A6
330
12ACB
100
AcDbEntity
  8
SUNPOU
 62
     1
100
AcDbLine
 10
-1747.481403606343
 20
1590.999999
 30
0.0
 11
-1743.605195084204
 21
1590.999999
 31
0.0
  0
LINE
  5
136A7
330
12ACB
100
AcDbEntity
  8
SUNPOU
 62
     1
100
AcDbLine
 10
-1747.481403606343
 20
1592.999999
 30
0.0
 11
-1743.605195084204
 21
1592.999999
 31
0.0
  0
LINE
  5
136A8
330
12ACB
100
AcDbEntity
  8
SUNPOU
 62
     1
100
AcDbLine
 10
-1744.105195084204
 20
1587.999999
 30
0.0
 11
-1744.105195084204
 21
1584.999999
 31
0.0
  0
LINE
  5
136A9
330
12ACB
100
AcDbEntity
  8
SUNPOU
 62
     1
100
AcDbLine
 10
-1744.105195084204
 20
1595.999999
 30
0.0
 11
-1744.105195084204
 21
1598.999999
 31
0.0
  0
MTEXT
  5
136AA
330
12ACB
100
AcDbEntity
  8
SUNPOU
 62
     1
100
AcDbMText
 10
-1747.063943638564
 20
1587.64819199409
 30
0.0
 40
3.5
 41
0.0
 71
     5
 72
     1
  1
\A1;2
 11
0.0000000000000001
 21
1.0
 31
0.0
  0
LINE
  5
136AB
330
12ACB
100
AcDbEntity
  8
SUNPOU
 62
     1
100
AcDbLine
 10
-1744.105195084204
 20
1590.999999
 30
0.0
 11
-1744.105195084204
 21
1592.999999
 31
0.0
  0
SOLID
  5
136AC
330
12ACB
100
AcDbEntity
  8
SUNPOU
 62
     1
100
AcDbTrace
 10
-1744.605195084204
 20
1587.999999
 30
0.0
 11
-1743.605195084204
 21
1587.999999
 31
0.0
 12
-1744.105195084204
 22
1590.999999
 32
0.0
 13
-1744.105195084204
 23
1590.999999
 33
0.0
  0
SOLID
  5
136AD
330
12ACB
100
AcDbEntity
  8
SUNPOU
 62
     1
100
AcDbTrace
 10
-1744.605195084204
 20
1595.999999
 30
0.0
 11
-1743.605195084204
 21
1595.999999
 31
0.0
 12
-1744.105195084204
 22
1592.999999
 32
0.0
 13
-1744.105195084204
 23
1592.999999
 33
0.0
  0
POINT
  5
136AE
330
12ACB
100
AcDbEntity
  8
DEFPOINTS
 62
     0
100
AcDbPoint
 10
-1747.981403606343
 20
1590.999999
 30
0.0
  0
POINT
  5
136AF
330
12ACB
100
AcDbEntity
  8
DEFPOINTS
 62
     0
100
AcDbPoint
 10
-1747.981403606343
 20
1592.999999
 30
0.0
  0
POINT
  5
136B0
330
12ACB
100
AcDbEntity
  8
DEFPOINTS
 62
     0
100
AcDbPoint
 10
-1744.105195084204
 20
1592.999999
 30
0.0
  0
ENDBLK
  5
12AD8
330
12ACB
100
AcDbEntity
  8
0
100
AcDbBlockEnd
  0
BLOCK
  5
12AFA
330
12AF0
100
AcDbEntity
  8
0
100
AcDbBlockBegin
  2
*D4
 70
     1
 10
0.0
 20
0.0
 30
0.0
  3
*D4
  1

  0
LINE
  5
13655
330
12AF0
100
AcDbEntity
  8
SUNPOU
 62
     1
100
AcDbLine
 10
-1747.481403606343
 20
1590.999999
 30
0.0
 11
-1727.744225624981
 21
1590.999999
 31
0.0
  0
LINE
  5
13656
330
12AF0
100
AcDbEntity
  8
SUNPOU
 62
     1
100
AcDbLine
 10
-1760.631393606343
 20
1616.999985
 30
0.0
 11
-1727.744225624981
 21
1616.999985
 31
0.0
  0
LINE
  5
13657
330
12AF0
100
AcDbEntity
  8
SUNPOU
 62
     1
100
AcDbLine
 10
-1728.244225624981
 20
1593.999999
 30
0.0
 11
-1728.244225624981
 21
1613.999985
 31
0.0
  0
SOLID
  5
13658
330
12AF0
100
AcDbEntity
  8
SUNPOU
 62
     1
100
AcDbTrace
 10
-1728.74422562498
 20
1593.999999
 30
0.0
 11
-1727.744225624981
 21
1593.999999
 31
0.0
 12
-1728.244225624981
 22
1590.999999
 32
0.0
 13
-1728.244225624981
 23
1590.999999
 33
0.0
  0
SOLID
  5
13659
330
12AF0
100
AcDbEntity
  8
SUNPOU
 62
     1
100
AcDbTrace
 10
-1728.74422562498
 20
1613.999985
 30
0.0
 11
-1727.744225624981
 21
1613.999985
 31
0.0
 12
-1728.244225624981
 22
1616.999985
 32
0.0
 13
-1728.244225624981
 23
1616.999985
 33
0.0
  0
MTEXT
  5
1365A
330
12AF0
100
AcDbEntity
  8
SUNPOU
 62
     1
100
AcDbMText
 10
-1730.994225624981
 20
1603.999992
 30
0.0
 40
3.5
 41
0.0
 71
     5
 72
     1
  1
\A1;26
 11
0.0000000000000001
 21
1.0
 31
0.0
1001
ACAD
1000
MTEXTBEGIN
1070
    73
1070
     1
1070
    44
1040
1.0
1070
    74
1070
     0
1000
MTEXTEND
  0
POINT
  5
1365B
330
12AF0
100
AcDbEntity
  8
DEFPOINTS
 62
     0
100
AcDbPoint
 10
-1747.981403606343
 20
1590.999999
 30
0.0
  0
POINT
  5
1365C
330
12AF0
100
AcDbEntity
  8
DEFPOINTS
 62
     0
100
AcDbPoint
 10
-1761.131393606343
 20
1616.999985
 30
0.0
  0
POINT
  5
1365D
330
12AF0
100
AcDbEntity
  8
DEFPOINTS
 62
     0
100
AcDbPoint
 10
-1728.244225624981
 20
1616.999985
 30
0.0
  0
ENDBLK
  5
12AFB
330
12AF0
100
AcDbEntity
  8
0
100
AcDbBlockEnd
  0
BLOCK
  5
12B07
330
12AFD
100
AcDbEntity
  8
0
100
AcDbBlockBegin
  2
*D5
 70
     1
 10
0.0
 20
0.0
 30
0.0
  3
*D5
  1

  0
LINE
  5
1364C
330
12AFD
100
AcDbEntity
  8
SUNPOU
 62
     1
100
AcDbLine
 10
-1727.24422562498
 20
1590.999999
 30
0.0
 11
-1713.676962933567
 21
1590.999999
 31
0.0
  0
LINE
  5
1364D
330
12AFD
100
AcDbEntity
  8
SUNPOU
 62
     1
100
AcDbLine
 10
-1756.454363606343
 20
1680.999991
 30
0.0
 11
-1713.676962933567
 21
1680.999991
 31
0.0
  0
LINE
  5
1364E
330
12AFD
100
AcDbEntity
  8
SUNPOU
 62
     1
100
AcDbLine
 10
-1714.176962933568
 20
1593.999999
 30
0.0
 11
-1714.176962933568
 21
1677.999991
 31
0.0
  0
SOLID
  5
1364F
330
12AFD
100
AcDbEntity
  8
SUNPOU
 62
     1
100
AcDbTrace
 10
-1714.676962933568
 20
1593.999999
 30
0.0
 11
-1713.676962933567
 21
1593.999999
 31
0.0
 12
-1714.176962933568
 22
1590.999999
 32
0.0
 13
-1714.176962933568
 23
1590.999999
 33
0.0
  0
SOLID
  5
13650
330
12AFD
100
AcDbEntity
  8
SUNPOU
 62
     1
100
AcDbTrace
 10
-1714.676962933568
 20
1677.999991
 30
0.0
 11
-1713.676962933567
 21
1677.999991
 31
0.0
 12
-1714.176962933568
 22
1680.999991
 32
0.0
 13
-1714.176962933568
 23
1680.999991
 33
0.0
  0
MTEXT
  5
13651
330
12AFD
100
AcDbEntity
  8
SUNPOU
 62
     1
100
AcDbMText
 10
-1716.926962933568
 20
1635.999994999999
 30
0.0
 40
3.5
 41
0.0
 71
     5
 72
     1
  1
\A1;CE-26等装着時 約90
 11
0.0000000000000001
 21
1.0
 31
0.0
1001
ACAD
1000
MTEXTBEGIN
1070
    73
1070
     1
1070
    44
1040
1.0
1070
    74
1070
     0
1000
MTEXTEND
  0
POINT
  5
13652
330
12AFD
100
AcDbEntity
  8
DEFPOINTS
 62
     0
100
AcDbPoint
 10
-1727.744225624981
 20
1590.999999
 30
0.0
  0
POINT
  5
13653
330
12AFD
100
AcDbEntity
  8
DEFPOINTS
 62
     0
100
AcDbPoint
 10
-1756.954363606343
 20
1680.999991
 30
0.0
  0
POINT
  5
13654
330
12AFD
100
AcDbEntity
  8
DEFPOINTS
 62
     0
100
AcDbPoint
 10
-1714.176962933568
 20
1680.999991
 30
0.0
  0
ENDBLK
  5
12B08
330
12AFD
100
AcDbEntity
  8
0
100
AcDbBlockEnd
  0
BLOCK
  5
12B70
330
12B66
100
AcDbEntity
  8
0
100
AcDbBlockBegin
  2
*D6
 70
     1
 10
0.0
 20
0.0
 30
0.0
  3
*D6
  1

  0
LINE
  5
13610
330
12B66
100
AcDbEntity
  8
SUNPOU
 62
     1
100
AcDbLine
 10
-1756.207088282874
 20
1809.00002
 30
0.0
 11
-1823.099263198429
 21
1809.00002
 31
0.0
  0
LINE
  5
13611
330
12B66
100
AcDbEntity
  8
SUNPOU
 62
     1
100
AcDbLine
 10
-1798.247088182874
 20
1704.00002
 30
0.0
 11
-1823.099263198429
 21
1704.00002
 31
0.0
  0
LINE
  5
13612
330
12B66
100
AcDbEntity
  8
SUNPOU
 62
     1
100
AcDbLine
 10
-1822.599263198429
 20
1806.00002
 30
0.0
 11
-1822.599263198429
 21
1707.000019999999
 31
0.0
  0
SOLID
  5
13613
330
12B66
100
AcDbEntity
  8
SUNPOU
 62
     1
100
AcDbTrace
 10
-1823.099263198429
 20
1806.00002
 30
0.0
 11
-1822.099263198429
 21
1806.00002
 31
0.0
 12
-1822.599263198429
 22
1809.00002
 32
0.0
 13
-1822.599263198429
 23
1809.00002
 33
0.0
  0
SOLID
  5
13614
330
12B66
100
AcDbEntity
  8
SUNPOU
 62
     1
100
AcDbTrace
 10
-1823.099263198429
 20
1707.000019999999
 30
0.0
 11
-1822.099263198429
 21
1707.000019999999
 31
0.0
 12
-1822.599263198429
 22
1704.00002
 32
0.0
 13
-1822.599263198429
 23
1704.00002
 33
0.0
  0
MTEXT
  5
13615
330
12B66
100
AcDbEntity
  8
SUNPOU
 62
     1
100
AcDbMText
 10
-1825.34926319843
 20
1756.500019999999
 30
0.0
 40
3.5
 41
0.0
 71
     5
 72
     1
  1
\A1;105
 11
0.0000000000000001
 21
1.0
 31
0.0
1001
ACAD
1000
MTEXTBEGIN
1070
    73
1070
     1
1070
    44
1040
1.0
1070
    74
1070
     0
1000
MTEXTEND
  0
POINT
  5
13616
330
12B66
100
AcDbEntity
  8
DEFPOINTS
 62
     0
100
AcDbPoint
 10
-1755.707088282874
 20
1809.00002
 30
0.0
  0
POINT
  5
13617
330
12B66
100
AcDbEntity
  8
DEFPOINTS
 62
     0
100
AcDbPoint
 10
-1797.747088182874
 20
1704.00002
 30
0.0
  0
POINT
  5
13618
330
12B66
100
AcDbEntity
  8
DEFPOINTS
 62
     0
100
AcDbPoint
 10
-1822.599263198429
 20
1704.00002
 30
0.0
  0
ENDBLK
  5
12B71
330
12B66
100
AcDbEntity
  8
0
100
AcDbBlockEnd
  0
BLOCK
  5
12F6D
330
12F63
100
AcDbEntity
  8
0
100
AcDbBlockBegin
  2
*D7
 70
     1
 10
0.0
 20
0.0
 30
0.0
  3
*D7
  1

  0
LINE
  5
13619
330
12F63
100
AcDbEntity
  8
SUNPOU
 62
     1
100
AcDbLine
 10
-1541.500002906729
 20
1786.500000924
 30
0.0
 11
-1508.32176907205
 21
1786.500000923999
 31
0.0
  0
LINE
  5
1361A
330
12F63
100
AcDbEntity
  8
SUNPOU
 62
     1
100
AcDbLine
 10
-1541.500002906729
 20
1726.500000924
 30
0.0
 11
-1508.32176907205
 21
1726.500000924
 31
0.0
  0
LINE
  5
1361B
330
12F63
100
AcDbEntity
  8
SUNPOU
 62
     1
100
AcDbLine
 10
-1508.82176907205
 20
1783.500000924
 30
0.0
 11
-1508.82176907205
 21
1729.500000924
 31
0.0
  0
SOLID
  5
1361C
330
12F63
100
AcDbEntity
  8
SUNPOU
 62
     1
100
AcDbTrace
 10
-1509.32176907205
 20
1783.500000924
 30
0.0
 11
-1508.32176907205
 21
1783.500000924
 31
0.0
 12
-1508.82176907205
 22
1786.500000923999
 32
0.0
 13
-1508.82176907205
 23
1786.500000923999
 33
0.0
  0
SOLID
  5
1361D
330
12F63
100
AcDbEntity
  8
SUNPOU
 62
     1
100
AcDbTrace
 10
-1509.32176907205
 20
1729.500000924
 30
0.0
 11
-1508.32176907205
 21
1729.500000924
 31
0.0
 12
-1508.82176907205
 22
1726.500000924
 32
0.0
 13
-1508.82176907205
 23
1726.500000924
 33
0.0
  0
MTEXT
  5
1361E
330
12F63
100
AcDbEntity
  8
SUNPOU
 62
     1
100
AcDbMText
 10
-1511.57176907205
 20
1756.500000923999
 30
0.0
 40
3.5
 41
0.0
 71
     5
 72
     1
  1
\A1;60
 11
0.0000000000000001
 21
1.0
 31
0.0
1001
ACAD
1000
MTEXTBEGIN
1070
    73
1070
     1
1070
    44
1040
1.0
1070
    74
1070
     0
1000
MTEXTEND
  0
POINT
  5
1361F
330
12F63
100
AcDbEntity
  8
DEFPOINTS
 62
     0
100
AcDbPoint
 10
-1542.000002906729
 20
1786.500000924
 30
0.0
  0
POINT
  5
13620
330
12F63
100
AcDbEntity
  8
DEFPOINTS
 62
     0
100
AcDbPoint
 10
-1542.000002906729
 20
1726.500000924
 30
0.0
  0
POINT
  5
13621
330
12F63
100
AcDbEntity
  8
DEFPOINTS
 62
     0
100
AcDbPoint
 10
-1508.82176907205
 20
1726.500000924
 30
0.0
  0
ENDBLK
  5
12F6E
330
12F63
100
AcDbEntity
  8
0
100
AcDbBlockEnd
  0
BLOCK
  5
12F79
330
12F6F
100
AcDbEntity
  8
0
100
AcDbBlockBegin
  2
*D8
 70
     1
 10
0.0
 20
0.0
 30
0.0
  3
*D8
  1

  0
LINE
  5
13622
330
12F6F
100
AcDbEntity
  8
SUNPOU
 62
     1
100
AcDbLine
 10
-1559.000002906729
 20
1754.000000924
 30
0.0
 11
-1559.000002906729
 21
1689.69841877881
 31
0.0
  0
LINE
  5
13623
330
12F6F
100
AcDbEntity
  8
SUNPOU
 62
     1
100
AcDbLine
 10
-1529.000002906729
 20
1753.945578352156
 30
0.0
 11
-1529.000002906729
 21
1689.69841877881
 31
0.0
  0
LINE
  5
13624
330
12F6F
100
AcDbEntity
  8
SUNPOU
 62
     1
100
AcDbLine
 10
-1556.000002906729
 20
1690.19841877881
 30
0.0
 11
-1532.000002906729
 21
1690.19841877881
 31
0.0
  0
SOLID
  5
13625
330
12F6F
100
AcDbEntity
  8
SUNPOU
 62
     1
100
AcDbTrace
 10
-1556.000002906729
 20
1690.69841877881
 30
0.0
 11
-1556.000002906729
 21
1689.69841877881
 31
0.0
 12
-1559.000002906729
 22
1690.19841877881
 32
0.0
 13
-1559.000002906729
 23
1690.19841877881
 33
0.0
  0
SOLID
  5
13626
330
12F6F
100
AcDbEntity
  8
SUNPOU
 62
     1
100
AcDbTrace
 10
-1532.000002906729
 20
1690.69841877881
 30
0.0
 11
-1532.000002906729
 21
1689.69841877881
 31
0.0
 12
-1529.000002906729
 22
1690.19841877881
 32
0.0
 13
-1529.000002906729
 23
1690.19841877881
 33
0.0
  0
MTEXT
  5
13627
330
12F6F
100
AcDbEntity
  8
SUNPOU
 62
     1
100
AcDbMText
 10
-1544.000002906729
 20
1692.94841877881
 30
0.0
 40
3.5
 41
0.0
 71
     5
 72
     1
  1
\A1;30
1001
ACAD
1000
MTEXTBEGIN
1070
    73
1070
     1
1070
    44
1040
1.0
1070
    74
1070
     0
1000
MTEXTEND
  0
POINT
  5
13628
330
12F6F
100
AcDbEntity
  8
DEFPOINTS
 62
     0
100
AcDbPoint
 10
-1559.000002906729
 20
1754.500000924
 30
0.0
  0
POINT
  5
13629
330
12F6F
100
AcDbEntity
  8
DEFPOINTS
 62
     0
100
AcDbPoint
 10
-1529.000002906729
 20
1754.445578352156
 30
0.0
  0
POINT
  5
1362A
330
12F6F
100
AcDbEntity
  8
DEFPOINTS
 62
     0
100
AcDbPoint
 10
-1529.000002906729
 20
1690.19841877881
 30
0.0
  0
ENDBLK
  5
12F7A
330
12F6F
100
AcDbEntity
  8
0
100
AcDbBlockEnd
  0
BLOCK
  5
132A7
330
1329D
100
AcDbEntity
  8
0
100
AcDbBlockBegin
  2
*D9
 70
     1
 10
0.0
 20
0.0
 30
0.0
  3
*D9
  1

  0
LINE
  5
1362B
330
1329D
100
AcDbEntity
  8
SUNPOU
 62
     1
100
AcDbLine
 10
-1795.997088282874
 20
1709.52001
 30
0.0
 11
-1795.997088282874
 21
1819.608998423555
 31
0.0
  0
LINE
  5
1362C
330
1329D
100
AcDbEntity
  8
SUNPOU
 62
     1
100
AcDbLine
 10
-1751.997088282874
 20
1815.00002
 30
0.0
 11
-1751.997088282874
 21
1819.608998423555
 31
0.0
  0
LINE
  5
1362D
330
1329D
100
AcDbEntity
  8
SUNPOU
 62
     1
100
AcDbLine
 10
-1792.997088282874
 20
1819.108998423555
 30
0.0
 11
-1754.997088282874
 21
1819.108998423555
 31
0.0
  0
SOLID
  5
1362E
330
1329D
100
AcDbEntity
  8
SUNPOU
 62
     1
100
AcDbTrace
 10
-1792.997088282874
 20
1819.608998423555
 30
0.0
 11
-1792.997088282874
 21
1818.608998423555
 31
0.0
 12
-1795.997088282874
 22
1819.108998423555
 32
0.0
 13
-1795.997088282874
 23
1819.108998423555
 33
0.0
  0
SOLID
  5
1362F
330
1329D
100
AcDbEntity
  8
SUNPOU
 62
     1
100
AcDbTrace
 10
-1754.997088282874
 20
1819.608998423555
 30
0.0
 11
-1754.997088282874
 21
1818.608998423555
 31
0.0
 12
-1751.997088282874
 22
1819.108998423555
 32
0.0
 13
-1751.997088282874
 23
1819.108998423555
 33
0.0
  0
MTEXT
  5
13630
330
1329D
100
AcDbEntity
  8
SUNPOU
 62
     1
100
AcDbMText
 10
-1773.997088282874
 20
1821.858998423555
 30
0.0
 40
3.5
 41
0.0
 71
     5
 72
     1
  1
\A1;44
1001
ACAD
1000
MTEXTBEGIN
1070
    73
1070
     1
1070
    44
1040
1.0
1070
    74
1070
     0
1000
MTEXTEND
  0
POINT
  5
13631
330
1329D
100
AcDbEntity
  8
DEFPOINTS
 62
     0
100
AcDbPoint
 10
-1795.997088282874
 20
1709.02001
 30
0.0
  0
POINT
  5
13632
330
1329D
100
AcDbEntity
  8
DEFPOINTS
 62
     0
100
AcDbPoint
 10
-1751.997088282874
 20
1814.500019999999
 30
0.0
  0
POINT
  5
13633
330
1329D
100
AcDbEntity
  8
DEFPOINTS
 62
     0
100
AcDbPoint
 10
-1751.997088282874
 20
1819.108998423555
 30
0.0
  0
ENDBLK
  5
132A8
330
1329D
100
AcDbEntity
  8
0
100
AcDbBlockEnd
  0
BLOCK
  5
132B4
330
132AA
100
AcDbEntity
  8
0
100
AcDbBlockBegin
  2
*D10
 70
     1
 10
0.0
 20
0.0
 30
0.0
  3
*D10
  1

  0
LINE
  5
13634
330
132AA
100
AcDbEntity
  8
SUNPOU
 62
     1
100
AcDbLine
 10
-1799.999969282874
 20
1812.792909999999
 30
0.0
 11
-1799.999969282874
 21
1826.014526728316
 31
0.0
  0
LINE
  5
13635
330
132AA
100
AcDbEntity
  8
SUNPOU
 62
     1
100
AcDbLine
 10
-1747.999978282874
 20
1812.792909999999
 30
0.0
 11
-1747.999978282874
 21
1826.014526728316
 31
0.0
  0
LINE
  5
13636
330
132AA
100
AcDbEntity
  8
SUNPOU
 62
     1
100
AcDbLine
 10
-1796.999969282874
 20
1825.514526728316
 30
0.0
 11
-1750.999978282874
 21
1825.514526728316
 31
0.0
  0
SOLID
  5
13637
330
132AA
100
AcDbEntity
  8
SUNPOU
 62
     1
100
AcDbTrace
 10
-1796.999969282874
 20
1826.014526728316
 30
0.0
 11
-1796.999969282874
 21
1825.014526728315
 31
0.0
 12
-1799.999969282874
 22
1825.514526728316
 32
0.0
 13
-1799.999969282874
 23
1825.514526728316
 33
0.0
  0
SOLID
  5
13638
330
132AA
100
AcDbEntity
  8
SUNPOU
 62
     1
100
AcDbTrace
 10
-1750.999978282874
 20
1826.014526728316
 30
0.0
 11
-1750.999978282874
 21
1825.014526728315
 31
0.0
 12
-1747.999978282874
 22
1825.514526728316
 32
0.0
 13
-1747.999978282874
 23
1825.514526728316
 33
0.0
  0
MTEXT
  5
13639
330
132AA
100
AcDbEntity
  8
SUNPOU
 62
     1
100
AcDbMText
 10
-1773.999973782874
 20
1828.264526728316
 30
0.0
 40
3.5
 41
0.0
 71
     5
 72
     1
  1
\A1;52
1001
ACAD
1000
MTEXTBEGIN
1070
    73
1070
     1
1070
    44
1040
1.0
1070
    74
1070
     0
1000
MTEXTEND
  0
POINT
  5
1363A
330
132AA
100
AcDbEntity
  8
DEFPOINTS
 62
     0
100
AcDbPoint
 10
-1799.999969282874
 20
1812.29291
 30
0.0
  0
POINT
  5
1363B
330
132AA
100
AcDbEntity
  8
DEFPOINTS
 62
     0
100
AcDbPoint
 10
-1747.999978282874
 20
1812.29291
 30
0.0
  0
POINT
  5
1363C
330
132AA
100
AcDbEntity
  8
DEFPOINTS
 62
     0
100
AcDbPoint
 10
-1747.999978282874
 20
1825.514526728316
 30
0.0
  0
ENDBLK
  5
132B5
330
132AA
100
AcDbEntity
  8
0
100
AcDbBlockEnd
  0
BLOCK
  5
132C1
330
132B7
100
AcDbEntity
  8
0
100
AcDbBlockBegin
  2
*D11
 70
     1
 10
0.0
 20
0.0
 30
0.0
  3
*D11
  1

  0
LINE
  5
1363D
330
132B7
100
AcDbEntity
  8
SUNPOU
 62
     1
100
AcDbLine
 10
-1748.207088282874
 20
1813.00002
 30
0.0
 11
-1734.692476826326
 21
1813.00002
 31
0.0
  0
LINE
  5
1363E
330
132B7
100
AcDbEntity
  8
SUNPOU
 62
     1
100
AcDbLine
 10
-1748.207088282874
 20
1700.0
 30
0.0
 11
-1734.692476826326
 21
1700.0
 31
0.0
  0
LINE
  5
1363F
330
132B7
100
AcDbEntity
  8
SUNPOU
 62
     1
100
AcDbLine
 10
-1735.192476826326
 20
1810.00002
 30
0.0
 11
-1735.192476826326
 21
1703.0
 31
0.0
  0
SOLID
  5
13640
330
132B7
100
AcDbEntity
  8
SUNPOU
 62
     1
100
AcDbTrace
 10
-1735.692476826326
 20
1810.00002
 30
0.0
 11
-1734.692476826326
 21
1810.00002
 31
0.0
 12
-1735.192476826326
 22
1813.00002
 32
0.0
 13
-1735.192476826326
 23
1813.00002
 33
0.0
  0
SOLID
  5
13641
330
132B7
100
AcDbEntity
  8
SUNPOU
 62
     1
100
AcDbTrace
 10
-1735.692476826326
 20
1703.0
 30
0.0
 11
-1734.692476826326
 21
1703.0
 31
0.0
 12
-1735.192476826326
 22
1700.0
 32
0.0
 13
-1735.192476826326
 23
1700.0
 33
0.0
  0
MTEXT
  5
13642
330
132B7
100
AcDbEntity
  8
SUNPOU
 62
     1
100
AcDbMText
 10
-1737.942476826326
 20
1756.500009999999
 30
0.0
 40
3.5
 41
0.0
 71
     5
 72
     1
  1
\A1;113
 11
0.0000000000000001
 21
1.0
 31
0.0
1001
ACAD
1000
MTEXTBEGIN
1070
    73
1070
     1
1070
    44
1040
1.0
1070
    74
1070
     0
1000
MTEXTEND
  0
POINT
  5
13643
330
132B7
100
AcDbEntity
  8
DEFPOINTS
 62
     0
100
AcDbPoint
 10
-1748.707088282874
 20
1813.00002
 30
0.0
  0
POINT
  5
13644
330
132B7
100
AcDbEntity
  8
DEFPOINTS
 62
     0
100
AcDbPoint
 10
-1748.707088282874
 20
1700.0
 30
0.0
  0
POINT
  5
13645
330
132B7
100
AcDbEntity
  8
DEFPOINTS
 62
     0
100
AcDbPoint
 10
-1735.192476826326
 20
1700.0
 30
0.0
  0
ENDBLK
  5
132C2
330
132B7
100
AcDbEntity
  8
0
100
AcDbBlockEnd
  0
ENDSEC
  0
SECTION
  2
ENTITIES
  0
MTEXT
  5
5084
330
1A
100
AcDbEntity
  8
0
100
AcDbMText
 10
1985.239088685435
 20
-948.5420423450428
 30
0.0
 40
8.0
 41
0.0
 71
     7
 72
     5
  1

1001
ACAD
1000
MTEXTBEGIN
1070
    73
1070
     1
1070
    44
1040
1.0
1070
    74
1070
     0
1000
MTEXTEND
  0
MTEXT
  5
5085
330
1A
100
AcDbEntity
  8
0
100
AcDbMText
 10
4270.596778580329
 20
22.24825240601649
 30
0.0
 40
8.0
 41
0.0
 71
     7
 72
     5
  1

1001
ACAD
1000
MTEXTBEGIN
1070
    73
1070
     1
1070
    44
1040
1.0
1070
    74
1070
     0
1000
MTEXTEND
  0
MTEXT
  5
5343
330
1A
100
AcDbEntity
  8
SUNPOU
100
AcDbMText
 10
6936.493799262471
 20
9534.359644781135
 30
0.0
 40
10.5
 41
0.0
 71
     1
 72
     5
  1

1001
ACAD
1000
MTEXTBEGIN
1070
    73
1070
     1
1070
    44
1040
1.0
1070
    74
1070
     0
1000
MTEXTEND
  0
MTEXT
  5
544F
330
1A
100
AcDbEntity
  8
0
100
AcDbMText
 10
16317.2832773148
 20
12833.35428897674
 30
0.0
 40
8.0
 41
0.0
 71
     7
 72
     5
  1

1001
ACAD
1000
MTEXTBEGIN
1070
    73
1070
     1
1070
    44
1040
1.0
1070
    74
1070
     0
1000
MTEXTEND
  0
MTEXT
  5
5450
330
1A
100
AcDbEntity
  8
0
100
AcDbMText
 10
18602.64096720969
 20
13804.1445837278
 30
0.0
 40
8.0
 41
0.0
 71
     7
 72
     5
  1

1001
ACAD
1000
MTEXTBEGIN
1070
    73
1070
     1
1070
    44
1040
1.0
1070
    74
1070
     0
1000
MTEXTEND
  0
MTEXT
  5
5451
330
1A
100
AcDbEntity
  8
SUNPOU
100
AcDbMText
 10
21268.53798789184
 20
23316.25597610292
 30
0.0
 40
10.5
 41
0.0
 71
     1
 72
     5
  1

1001
ACAD
1000
MTEXTBEGIN
1070
    73
1070
     1
1070
    44
1040
1.0
1070
    74
1070
     0
1000
MTEXTEND
  0
MTEXT
  5
5452
330
1A
100
AcDbEntity
  8
SUNPOU
100
AcDbMText
 10
13337.6147919559
 20
22369.46284218996
 30
0.0
 40
10.5
 41
0.0
 71
     7
 72
     5
  1

1001
ACAD
1000
MTEXTBEGIN
1070
    73
1070
     1
1070
    44
1040
1.0
1070
    74
1070
     0
1000
MTEXTEND
  0
MTEXT
  5
5453
330
1A
100
AcDbEntity
  8
SUNPOU
100
AcDbMText
 10
16286.59845646867
 20
27270.13891403281
 30
0.0
 40
10.5
 41
0.0
 71
     7
 72
     5
  1

1001
ACAD
1000
MTEXTBEGIN
1070
    73
1070
     1
1070
    44
1040
1.0
1070
    74
1070
     0
1000
MTEXTEND
  0
MTEXT
  5
5454
330
1A
100
AcDbEntity
  8
SUNPOU
100
AcDbMText
 10
20795.67658441924
 20
29706.43966165288
 30
0.0
 40
10.5
 41
0.0
 71
     7
 72
     5
  1

1001
ACAD
1000
MTEXTBEGIN
1070
    73
1070
     1
1070
    44
1040
1.0
1070
    74
1070
     0
1000
MTEXTEND
  0
MTEXT
  5
5455
330
1A
100
AcDbEntity
  8
0
100
AcDbMText
 10
16611.93789220314
 20
14707.52144344448
 30
0.0
 40
8.0
 41
0.0
 71
     7
 72
     5
  1

1001
ACAD
1000
MTEXTBEGIN
1070
    73
1070
     1
1070
    44
1040
1.0
1070
    74
1070
     0
1000
MTEXTEND
  0
MTEXT
  5
5456
330
1A
100
AcDbEntity
  8
0
100
AcDbMText
 10
18897.29558209804
 20
15678.31173819554
 30
0.0
 40
8.0
 41
0.0
 71
     7
 72
     5
  1

1001
ACAD
1000
MTEXTBEGIN
1070
    73
1070
     1
1070
    44
1040
1.0
1070
    74
1070
     0
1000
MTEXTEND
  0
MTEXT
  5
5457
330
1A
100
AcDbEntity
  8
SUNPOU
100
AcDbMText
 10
21563.19260278019
 20
25190.42313057066
 30
0.0
 40
10.5
 41
0.0
 71
     1
 72
     5
  1

1001
ACAD
1000
MTEXTBEGIN
1070
    73
1070
     1
1070
    44
1040
1.0
1070
    74
1070
     0
1000
MTEXTEND
  0
MTEXT
  5
5458
330
1A
100
AcDbEntity
  8
SUNPOU
100
AcDbMText
 10
13632.26940684426
 20
24243.6299966577
 30
0.0
 40
10.5
 41
0.0
 71
     7
 72
     5
  1

1001
ACAD
1000
MTEXTBEGIN
1070
    73
1070
     1
1070
    44
1040
1.0
1070
    74
1070
     0
1000
MTEXTEND
  0
MTEXT
  5
5459
330
1A
100
AcDbEntity
  8
SUNPOU
100
AcDbMText
 10
16581.25307135702
 20
29144.30606850055
 30
0.0
 40
10.5
 41
0.0
 71
     7
 72
     5
  1

1001
ACAD
1000
MTEXTBEGIN
1070
    73
1070
     1
1070
    44
1040
1.0
1070
    74
1070
     0
1000
MTEXTEND
  0
MTEXT
  5
545A
330
1A
100
AcDbEntity
  8
SUNPOU
100
AcDbMText
 10
21090.33119930759
 20
31580.60681612062
 30
0.0
 40
10.5
 41
0.0
 71
     7
 72
     5
  1

1001
ACAD
1000
MTEXTBEGIN
1070
    73
1070
     1
1070
    44
1040
1.0
1070
    74
1070
     0
1000
MTEXTEND
  0
MTEXT
  5
545B
330
1A
100
AcDbEntity
  8
0
100
AcDbMText
 10
22871.60517627167
 20
23974.88367124799
 30
0.0
 40
8.0
 41
0.0
 71
     7
 72
     5
  1

1001
ACAD
1000
MTEXTBEGIN
1070
    73
1070
     1
1070
    44
1040
1.0
1070
    74
1070
     0
1000
MTEXTEND
  0
MTEXT
  5
545C
330
1A
100
AcDbEntity
  8
0
100
AcDbMText
 10
25156.96286616657
 20
24945.67396599906
 30
0.0
 40
8.0
 41
0.0
 71
     7
 72
     5
  1

1001
ACAD
1000
MTEXTBEGIN
1070
    73
1070
     1
1070
    44
1040
1.0
1070
    74
1070
     0
1000
MTEXTEND
  0
MTEXT
  5
545D
330
1A
100
AcDbEntity
  8
SUNPOU
100
AcDbMText
 10
27822.85988684871
 20
34457.78535837418
 30
0.0
 40
10.5
 41
0.0
 71
     1
 72
     5
  1

1001
ACAD
1000
MTEXTBEGIN
1070
    73
1070
     1
1070
    44
1040
1.0
1070
    74
1070
     0
1000
MTEXTEND
  0
MTEXT
  5
545E
330
1A
100
AcDbEntity
  8
SUNPOU
100
AcDbMText
 10
19891.93669091278
 20
33510.99222446122
 30
0.0
 40
10.5
 41
0.0
 71
     7
 72
     5
  1

1001
ACAD
1000
MTEXTBEGIN
1070
    73
1070
     1
1070
    44
1040
1.0
1070
    74
1070
     0
1000
MTEXTEND
  0
MTEXT
  5
545F
330
1A
100
AcDbEntity
  8
SUNPOU
100
AcDbMText
 10
22840.92035542555
 20
38411.66829630407
 30
0.0
 40
10.5
 41
0.0
 71
     7
 72
     5
  1

1001
ACAD
1000
MTEXTBEGIN
1070
    73
1070
     1
1070
    44
1040
1.0
1070
    74
1070
     0
1000
MTEXTEND
  0
MTEXT
  5
5460
330
1A
100
AcDbEntity
  8
SUNPOU
100
AcDbMText
 10
27349.99848337611
 20
40847.96904392415
 30
0.0
 40
10.5
 41
0.0
 71
     7
 72
     5
  1

1001
ACAD
1000
MTEXTBEGIN
1070
    73
1070
     1
1070
    44
1040
1.0
1070
    74
1070
     0
1000
MTEXTEND
  0
MTEXT
  5
55B7
330
1A
100
AcDbEntity
  8
SUNPOU
100
AcDbMText
 10
67424.23923338197
 20
64463.86602884816
 30
0.0
 40
10.5
 41
0.0
 71
     9
 72
     5
  1

1001
ACAD
1000
MTEXTBEGIN
1070
    73
1070
     1
1070
    44
1040
1.0
1070
    74
1070
     0
1000
MTEXTEND
  0
MTEXT
  5
55B8
330
1A
100
AcDbEntity
  8
SUNPOU
100
AcDbMText
 10
76146.40679929998
 20
71879.70056038563
 30
0.0
 40
10.5
 41
0.0
 71
     9
 72
     5
  1

1001
ACAD
1000
MTEXTBEGIN
1070
    73
1070
     1
1070
    44
1040
1.0
1070
    74
1070
     0
1000
MTEXTEND
  0
MTEXT
  5
55B9
330
1A
100
AcDbEntity
  8
SUNPOU
100
AcDbMText
 10
95100.16551662994
 20
89346.27661287766
 30
0.0
 40
10.5
 41
0.0
 71
     9
 72
     5
  1

1001
ACAD
1000
MTEXTBEGIN
1070
    73
1070
     1
1070
    44
1040
1.0
1070
    74
1070
     0
1000
MTEXTEND
  0
MTEXT
  5
55BA
330
1A
100
AcDbEntity
  8
SUNPOU
100
AcDbMText
 10
97043.57276333936
 20
87545.22753299966
 30
0.0
 40
3.5
 41
0.0
 71
     9
 72
     5
  1

1001
ACAD
1000
MTEXTBEGIN
1070
    73
1070
     1
1070
    44
1040
1.0
1070
    74
1070
     0
1000
MTEXTEND
  0
MTEXT
  5
55BB
330
1A
100
AcDbEntity
  8
SUNPOU
100
AcDbMText
 10
128169.752595959
 20
130040.1732006569
 30
0.0
 40
10.5
 41
0.0
 71
     9
 72
     5
  1

1001
ACAD
1000
MTEXTBEGIN
1070
    73
1070
     1
1070
    44
1040
1.0
1070
    74
1070
     0
1000
MTEXTEND
  0
MTEXT
  5
55BC
330
1A
100
AcDbEntity
  8
SUNPOU
100
AcDbMText
 10
130113.1598426684
 20
128239.1241207789
 30
0.0
 40
3.5
 41
0.0
 71
     9
 72
     5
  1

1001
ACAD
1000
MTEXTBEGIN
1070
    73
1070
     1
1070
    44
1040
1.0
1070
    74
1070
     0
1000
MTEXTEND
  0
MTEXT
  5
55BD
330
1A
100
AcDbEntity
  8
SUNPOU
100
AcDbMText
 10
78610.02030175463
 20
75873.33835563206
 30
0.0
 40
10.5
 41
0.0
 71
     9
 72
     5
  1

1001
ACAD
1000
MTEXTBEGIN
1070
    73
1070
     1
1070
    44
1040
1.0
1070
    74
1070
     0
1000
MTEXTEND
  0
MTEXT
  5
55BE
330
1A
100
AcDbEntity
  8
SUNPOU
100
AcDbMText
 10
64662.02020137863
 20
56700.93921651987
 30
0.0
 40
3.5
 41
0.0
 71
     7
 72
     5
  1

1001
ACAD
1000
MTEXTBEGIN
1070
    73
1070
     1
1070
    44
1040
1.0
1070
    74
1070
     0
1000
MTEXTEND
  0
MTEXT
  5
55BF
330
1A
100
AcDbEntity
  8
SUNPOU
100
AcDbMText
 10
45647.18959837178
 20
44463.08794733807
 30
0.0
 40
10.5
 41
0.0
 71
     7
 72
     5
  1

1001
ACAD
1000
MTEXTBEGIN
1070
    73
1070
     1
1070
    44
1040
1.0
1070
    74
1070
     0
1000
MTEXTEND
  0
MTEXT
  5
55C0
330
1A
100
AcDbEntity
  8
SUNPOU
100
AcDbMText
 10
33189.96133342368
 20
28618.15636923965
 30
0.0
 40
35.0
 41
0.0
 71
     9
 72
     5
  1

1001
ACAD
1000
MTEXTBEGIN
1070
    73
1070
     1
1070
    44
1040
1.0
1070
    74
1070
     0
1000
MTEXTEND
  0
MTEXT
  5
55C1
330
1A
100
AcDbEntity
  8
SUNPOU
100
AcDbMText
 10
32098.44639099864
 20
29226.93177928835
 30
0.0
 40
350.0000004171781
 41
0.0
 71
     7
 72
     5
  1

1001
ACAD
1000
MTEXTBEGIN
1070
    73
1070
     1
1070
    44
1040
1.0
1070
    74
1070
     0
1000
MTEXTEND
  0
MTEXT
  5
55C2
330
1A
100
AcDbEntity
  8
0
100
AcDbMText
 10
38142.39714894154
 20
27206.85414142458
 30
0.0
 40
8.0
 41
0.0
 71
     7
 72
     5
  1

1001
ACAD
1000
MTEXTBEGIN
1070
    73
1070
     1
1070
    44
1040
1.0
1070
    74
1070
     0
1000
MTEXTEND
  0
MTEXT
  5
55C3
330
1A
100
AcDbEntity
  8
0
100
AcDbMText
 10
40427.75483883644
 20
28177.64443617564
 30
0.0
 40
8.0
 41
0.0
 71
     7
 72
     5
  1

1001
ACAD
1000
MTEXTBEGIN
1070
    73
1070
     1
1070
    44
1040
1.0
1070
    74
1070
     0
1000
MTEXTEND
  0
MTEXT
  5
55C4
330
1A
100
AcDbEntity
  8
SUNPOU
100
AcDbMText
 10
43093.65185951858
 20
37689.75582855077
 30
0.0
 40
10.5
 41
0.0
 71
     1
 72
     5
  1

1001
ACAD
1000
MTEXTBEGIN
1070
    73
1070
     1
1070
    44
1040
1.0
1070
    74
1070
     0
1000
MTEXTEND
  0
MTEXT
  5
55C5
330
1A
100
AcDbEntity
  8
SUNPOU
100
AcDbMText
 10
35162.72866358265
 20
36742.96269463781
 30
0.0
 40
10.5
 41
0.0
 71
     7
 72
     5
  1

1001
ACAD
1000
MTEXTBEGIN
1070
    73
1070
     1
1070
    44
1040
1.0
1070
    74
1070
     0
1000
MTEXTEND
  0
MTEXT
  5
55C6
330
1A
100
AcDbEntity
  8
SUNPOU
100
AcDbMText
 10
38111.71232809542
 20
41643.63876648066
 30
0.0
 40
10.5
 41
0.0
 71
     7
 72
     5
  1

1001
ACAD
1000
MTEXTBEGIN
1070
    73
1070
     1
1070
    44
1040
1.0
1070
    74
1070
     0
1000
MTEXTEND
  0
MTEXT
  5
55C7
330
1A
100
AcDbEntity
  8
SUNPOU
100
AcDbMText
 10
42620.79045604597
 20
44079.93951410074
 30
0.0
 40
10.5
 41
0.0
 71
     7
 72
     5
  1

1001
ACAD
1000
MTEXTBEGIN
1070
    73
1070
     1
1070
    44
1040
1.0
1070
    74
1070
     0
1000
MTEXTEND
  0
MTEXT
  5
55C8
330
1A
100
AcDbEntity
  8
SUNPOU
100
AcDbMText
 10
26221.62834281429
 20
23077.53566448964
 30
0.0
 40
10.5
 41
0.0
 71
     7
 72
     5
  1

1001
ACAD
1000
MTEXTBEGIN
1070
    73
1070
     1
1070
    44
1040
1.0
1070
    74
1070
     0
1000
MTEXTEND
  0
MTEXT
  5
55C9
330
1A
100
AcDbEntity
  8
SUNPOU
100
AcDbMText
 10
77413.14677671455
 20
68750.51622813789
 30
0.0
 40
10.5
 41
0.0
 71
     9
 72
     5
  1

1001
ACAD
1000
MTEXTBEGIN
1070
    73
1070
     1
1070
    44
1040
1.0
1070
    74
1070
     0
1000
MTEXTEND
  0
MTEXT
  5
55CA
330
1A
100
AcDbEntity
  8
SUNPOU
100
AcDbMText
 10
86135.31434263256
 20
76166.35075967536
 30
0.0
 40
10.5
 41
0.0
 71
     9
 72
     5
  1

1001
ACAD
1000
MTEXTBEGIN
1070
    73
1070
     1
1070
    44
1040
1.0
1070
    74
1070
     0
1000
MTEXTEND
  0
MTEXT
  5
55CB
330
1A
100
AcDbEntity
  8
SUNPOU
100
AcDbMText
 10
105089.0730599625
 20
93632.92681216739
 30
0.0
 40
10.5
 41
0.0
 71
     9
 72
     5
  1

1001
ACAD
1000
MTEXTBEGIN
1070
    73
1070
     1
1070
    44
1040
1.0
1070
    74
1070
     0
1000
MTEXTEND
  0
MTEXT
  5
55CC
330
1A
100
AcDbEntity
  8
SUNPOU
100
AcDbMText
 10
107032.4803066719
 20
91831.8777322894
 30
0.0
 40
3.5
 41
0.0
 71
     9
 72
     5
  1

1001
ACAD
1000
MTEXTBEGIN
1070
    73
1070
     1
1070
    44
1040
1.0
1070
    74
1070
     0
1000
MTEXTEND
  0
MTEXT
  5
55CD
330
1A
100
AcDbEntity
  8
SUNPOU
100
AcDbMText
 10
138158.6601392916
 20
134326.8233999467
 30
0.0
 40
10.5
 41
0.0
 71
     9
 72
     5
  1

1001
ACAD
1000
MTEXTBEGIN
1070
    73
1070
     1
1070
    44
1040
1.0
1070
    74
1070
     0
1000
MTEXTEND
  0
MTEXT
  5
55CE
330
1A
100
AcDbEntity
  8
SUNPOU
100
AcDbMText
 10
140102.067386001
 20
132525.7743200686
 30
0.0
 40
3.5
 41
0.0
 71
     9
 72
     5
  1

1001
ACAD
1000
MTEXTBEGIN
1070
    73
1070
     1
1070
    44
1040
1.0
1070
    74
1070
     0
1000
MTEXTEND
  0
MTEXT
  5
55CF
330
1A
100
AcDbEntity
  8
SUNPOU
100
AcDbMText
 10
88598.92784508721
 20
80159.98855492179
 30
0.0
 40
10.5
 41
0.0
 71
     9
 72
     5
  1

1001
ACAD
1000
MTEXTBEGIN
1070
    73
1070
     1
1070
    44
1040
1.0
1070
    74
1070
     0
1000
MTEXTEND
  0
MTEXT
  5
55D0
330
1A
100
AcDbEntity
  8
SUNPOU
100
AcDbMText
 10
74650.92774471121
 20
60987.5894158096
 30
0.0
 40
3.5
 41
0.0
 71
     7
 72
     5
  1

1001
ACAD
1000
MTEXTBEGIN
1070
    73
1070
     1
1070
    44
1040
1.0
1070
    74
1070
     0
1000
MTEXTEND
  0
MTEXT
  5
55D1
330
1A
100
AcDbEntity
  8
SUNPOU
100
AcDbMText
 10
55636.09714170436
 20
48749.73814662781
 30
0.0
 40
10.5
 41
0.0
 71
     7
 72
     5
  1

1001
ACAD
1000
MTEXTBEGIN
1070
    73
1070
     1
1070
    44
1040
1.0
1070
    74
1070
     0
1000
MTEXTEND
  0
MTEXT
  5
55D2
330
1A
100
AcDbEntity
  8
SUNPOU
100
AcDbMText
 10
43178.86887675626
 20
32904.80656852938
 30
0.0
 40
35.0
 41
0.0
 71
     9
 72
     5
  1

1001
ACAD
1000
MTEXTBEGIN
1070
    73
1070
     1
1070
    44
1040
1.0
1070
    74
1070
     0
1000
MTEXTEND
  0
MTEXT
  5
55D3
330
1A
100
AcDbEntity
  8
SUNPOU
100
AcDbMText
 10
42087.35393433121
 20
33513.58197857809
 30
0.0
 40
350.0000004171781
 41
0.0
 71
     7
 72
     5
  1

1001
ACAD
1000
MTEXTBEGIN
1070
    73
1070
     1
1070
    44
1040
1.0
1070
    74
1070
     0
1000
MTEXTEND
  0
MTEXT
  5
55D4
330
1A
100
AcDbEntity
  8
0
100
AcDbMText
 10
48131.30469227412
 20
31493.50434071431
 30
0.0
 40
8.0
 41
0.0
 71
     7
 72
     5
  1

1001
ACAD
1000
MTEXTBEGIN
1070
    73
1070
     1
1070
    44
1040
1.0
1070
    74
1070
     0
1000
MTEXTEND
  0
MTEXT
  5
55D5
330
1A
100
AcDbEntity
  8
0
100
AcDbMText
 10
50416.66238216901
 20
32464.29463546537
 30
0.0
 40
8.0
 41
0.0
 71
     7
 72
     5
  1

1001
ACAD
1000
MTEXTBEGIN
1070
    73
1070
     1
1070
    44
1040
1.0
1070
    74
1070
     0
1000
MTEXTEND
  0
MTEXT
  5
55D6
330
1A
100
AcDbEntity
  8
SUNPOU
100
AcDbMText
 10
53082.55940285115
 20
41976.4060278405
 30
0.0
 40
10.5
 41
0.0
 71
     1
 72
     5
  1

1001
ACAD
1000
MTEXTBEGIN
1070
    73
1070
     1
1070
    44
1040
1.0
1070
    74
1070
     0
1000
MTEXTEND
  0
MTEXT
  5
55D7
330
1A
100
AcDbEntity
  8
SUNPOU
100
AcDbMText
 10
45151.63620691522
 20
41029.61289392755
 30
0.0
 40
10.5
 41
0.0
 71
     7
 72
     5
  1

1001
ACAD
1000
MTEXTBEGIN
1070
    73
1070
     1
1070
    44
1040
1.0
1070
    74
1070
     0
1000
MTEXTEND
  0
MTEXT
  5
55D8
330
1A
100
AcDbEntity
  8
SUNPOU
100
AcDbMText
 10
48100.61987142798
 20
45930.28896577039
 30
0.0
 40
10.5
 41
0.0
 71
     7
 72
     5
  1

1001
ACAD
1000
MTEXTBEGIN
1070
    73
1070
     1
1070
    44
1040
1.0
1070
    74
1070
     0
1000
MTEXTEND
  0
MTEXT
  5
55D9
330
1A
100
AcDbEntity
  8
SUNPOU
100
AcDbMText
 10
52609.69799937854
 20
48366.58971339046
 30
0.0
 40
10.5
 41
0.0
 71
     7
 72
     5
  1

1001
ACAD
1000
MTEXTBEGIN
1070
    73
1070
     1
1070
    44
1040
1.0
1070
    74
1070
     0
1000
MTEXTEND
  0
MTEXT
  5
55DA
330
1A
100
AcDbEntity
  8
SUNPOU
100
AcDbMText
 10
36210.53588614687
 20
27364.18586377937
 30
0.0
 40
10.5
 41
0.0
 71
     7
 72
     5
  1

1001
ACAD
1000
MTEXTBEGIN
1070
    73
1070
     1
1070
    44
1040
1.0
1070
    74
1070
     0
1000
MTEXTEND
  0
MTEXT
  5
55DB
330
1A
100
AcDbEntity
  8
SUNPOU
100
AcDbMText
 10
38021.29879752181
 20
33691.59985125794
 30
0.0
 40
10.5
 41
0.0
 71
     9
 72
     5
  1

1001
ACAD
1000
MTEXTBEGIN
1070
    73
1070
     1
1070
    44
1040
1.0
1070
    74
1070
     0
1000
MTEXTEND
  0
MTEXT
  5
55DC
330
1A
100
AcDbEntity
  8
SUNPOU
100
AcDbMText
 10
46743.46636343979
 20
41107.43438279541
 30
0.0
 40
10.5
 41
0.0
 71
     9
 72
     5
  1

1001
ACAD
1000
MTEXTBEGIN
1070
    73
1070
     1
1070
    44
1040
1.0
1070
    74
1070
     0
1000
MTEXTEND
  0
MTEXT
  5
55DD
330
1A
100
AcDbEntity
  8
SUNPOU
100
AcDbMText
 10
65697.22508076975
 20
58574.01043528746
 30
0.0
 40
10.5
 41
0.0
 71
     9
 72
     5
  1

1001
ACAD
1000
MTEXTBEGIN
1070
    73
1070
     1
1070
    44
1040
1.0
1070
    74
1070
     0
1000
MTEXTEND
  0
MTEXT
  5
55DE
330
1A
100
AcDbEntity
  8
SUNPOU
100
AcDbMText
 10
67640.63232747917
 20
56772.96135540945
 30
0.0
 40
3.5
 41
0.0
 71
     9
 72
     5
  1

1001
ACAD
1000
MTEXTBEGIN
1070
    73
1070
     1
1070
    44
1040
1.0
1070
    74
1070
     0
1000
MTEXTEND
  0
MTEXT
  5
55DF
330
1A
100
AcDbEntity
  8
SUNPOU
100
AcDbMText
 10
98766.81216009888
 20
99267.9070230668
 30
0.0
 40
10.5
 41
0.0
 71
     9
 72
     5
  1

1001
ACAD
1000
MTEXTBEGIN
1070
    73
1070
     1
1070
    44
1040
1.0
1070
    74
1070
     0
1000
MTEXTEND
  0
MTEXT
  5
55E0
330
1A
100
AcDbEntity
  8
SUNPOU
100
AcDbMText
 10
100710.2194068083
 20
97466.85794318878
 30
0.0
 40
3.5
 41
0.0
 71
     9
 72
     5
  1

1001
ACAD
1000
MTEXTBEGIN
1070
    73
1070
     1
1070
    44
1040
1.0
1070
    74
1070
     0
1000
MTEXTEND
  0
MTEXT
  5
55E1
330
1A
100
AcDbEntity
  8
SUNPOU
100
AcDbMText
 10
49207.07986589444
 20
45101.07217804185
 30
0.0
 40
10.5
 41
0.0
 71
     9
 72
     5
  1

1001
ACAD
1000
MTEXTBEGIN
1070
    73
1070
     1
1070
    44
1040
1.0
1070
    74
1070
     0
1000
MTEXTEND
  0
MTEXT
  5
55E2
330
1A
100
AcDbEntity
  8
SUNPOU
100
AcDbMText
 10
35259.07976551845
 20
25928.67303892964
 30
0.0
 40
3.5
 41
0.0
 71
     7
 72
     5
  1

1001
ACAD
1000
MTEXTBEGIN
1070
    73
1070
     1
1070
    44
1040
1.0
1070
    74
1070
     0
1000
MTEXTEND
  0
MTEXT
  5
55E3
330
1A
100
AcDbEntity
  8
SUNPOU
100
AcDbMText
 10
48951.43044828905
 20
35287.73625995099
 30
0.0
 40
10.5
 41
0.0
 71
     9
 72
     5
  1

1001
ACAD
1000
MTEXTBEGIN
1070
    73
1070
     1
1070
    44
1040
1.0
1070
    74
1070
     0
1000
MTEXTEND
  0
MTEXT
  5
55E4
330
1A
100
AcDbEntity
  8
SUNPOU
100
AcDbMText
 10
57673.59801420702
 20
42703.57079148847
 30
0.0
 40
10.5
 41
0.0
 71
     9
 72
     5
  1

1001
ACAD
1000
MTEXTBEGIN
1070
    73
1070
     1
1070
    44
1040
1.0
1070
    74
1070
     0
1000
MTEXTEND
  0
MTEXT
  5
55E5
330
1A
100
AcDbEntity
  8
SUNPOU
100
AcDbMText
 10
76627.35673153699
 20
60170.14684398051
 30
0.0
 40
10.5
 41
0.0
 71
     9
 72
     5
  1

1001
ACAD
1000
MTEXTBEGIN
1070
    73
1070
     1
1070
    44
1040
1.0
1070
    74
1070
     0
1000
MTEXTEND
  0
MTEXT
  5
55E6
330
1A
100
AcDbEntity
  8
SUNPOU
100
AcDbMText
 10
78570.76397824641
 20
58369.09776410251
 30
0.0
 40
3.5
 41
0.0
 71
     9
 72
     5
  1

1001
ACAD
1000
MTEXTBEGIN
1070
    73
1070
     1
1070
    44
1040
1.0
1070
    74
1070
     0
1000
MTEXTEND
  0
MTEXT
  5
55E7
330
1A
100
AcDbEntity
  8
SUNPOU
100
AcDbMText
 10
109696.9438108661
 20
100864.0434317598
 30
0.0
 40
10.5
 41
0.0
 71
     9
 72
     5
  1

1001
ACAD
1000
MTEXTBEGIN
1070
    73
1070
     1
1070
    44
1040
1.0
1070
    74
1070
     0
1000
MTEXTEND
  0
MTEXT
  5
55E8
330
1A
100
AcDbEntity
  8
SUNPOU
100
AcDbMText
 10
111640.3510575755
 20
99062.99435188183
 30
0.0
 40
3.5
 41
0.0
 71
     9
 72
     5
  1

1001
ACAD
1000
MTEXTBEGIN
1070
    73
1070
     1
1070
    44
1040
1.0
1070
    74
1070
     0
1000
MTEXTEND
  0
MTEXT
  5
55E9
330
1A
100
AcDbEntity
  8
SUNPOU
100
AcDbMText
 10
60137.21151666167
 20
46697.20858673491
 30
0.0
 40
10.5
 41
0.0
 71
     9
 72
     5
  1

1001
ACAD
1000
MTEXTBEGIN
1070
    73
1070
     1
1070
    44
1040
1.0
1070
    74
1070
     0
1000
MTEXTEND
  0
MTEXT
  5
55EA
330
1A
100
AcDbEntity
  8
SUNPOU
100
AcDbMText
 10
46189.21141628568
 20
27524.80944762269
 30
0.0
 40
3.5
 41
0.0
 71
     7
 72
     5
  1

1001
ACAD
1000
MTEXTBEGIN
1070
    73
1070
     1
1070
    44
1040
1.0
1070
    74
1070
     0
1000
MTEXTEND
  0
MTEXT
  5
55EB
330
1A
100
AcDbEntity
  8
SUNPOU
100
AcDbMText
 10
45007.68847015541
 20
38269.57947701874
 30
0.0
 40
10.5
 41
0.0
 71
     9
 72
     5
  1

1001
ACAD
1000
MTEXTBEGIN
1070
    73
1070
     1
1070
    44
1040
1.0
1070
    74
1070
     0
1000
MTEXTEND
  0
MTEXT
  5
55EC
330
1A
100
AcDbEntity
  8
SUNPOU
100
AcDbMText
 10
63961.44718748539
 20
55736.15552951081
 30
0.0
 40
10.5
 41
0.0
 71
     9
 72
     5
  1

1001
ACAD
1000
MTEXTBEGIN
1070
    73
1070
     1
1070
    44
1040
1.0
1070
    74
1070
     0
1000
MTEXTEND
  0
MTEXT
  5
55ED
330
1A
100
AcDbEntity
  8
SUNPOU
100
AcDbMText
 10
65904.85443419479
 20
53935.10644963279
 30
0.0
 40
3.5
 41
0.0
 71
     9
 72
     5
  1

1001
ACAD
1000
MTEXTBEGIN
1070
    73
1070
     1
1070
    44
1040
1.0
1070
    74
1070
     0
1000
MTEXTEND
  0
MTEXT
  5
55EE
330
1A
100
AcDbEntity
  8
SUNPOU
100
AcDbMText
 10
97031.03426681451
 20
96430.05211729015
 30
0.0
 40
10.5
 41
0.0
 71
     9
 72
     5
  1

1001
ACAD
1000
MTEXTBEGIN
1070
    73
1070
     1
1070
    44
1040
1.0
1070
    74
1070
     0
1000
MTEXTEND
  0
MTEXT
  5
55EF
330
1A
100
AcDbEntity
  8
SUNPOU
100
AcDbMText
 10
98974.44151352393
 20
94629.00303741212
 30
0.0
 40
3.5
 41
0.0
 71
     9
 72
     5
  1

1001
ACAD
1000
MTEXTBEGIN
1070
    73
1070
     1
1070
    44
1040
1.0
1070
    74
1070
     0
1000
MTEXTEND
  0
MTEXT
  5
55F0
330
1A
100
AcDbEntity
  8
SUNPOU
100
AcDbMText
 10
47471.30197261006
 20
42263.21727226519
 30
0.0
 40
10.5
 41
0.0
 71
     9
 72
     5
  1

1001
ACAD
1000
MTEXTBEGIN
1070
    73
1070
     1
1070
    44
1040
1.0
1070
    74
1070
     0
1000
MTEXTEND
  0
MTEXT
  5
55F1
330
1A
100
AcDbEntity
  8
SUNPOU
100
AcDbMText
 10
33523.30187223408
 20
23090.81813315298
 30
0.0
 40
3.5
 41
0.0
 71
     7
 72
     5
  1

1001
ACAD
1000
MTEXTBEGIN
1070
    73
1070
     1
1070
    44
1040
1.0
1070
    74
1070
     0
1000
MTEXTEND
  0
MTEXT
  5
55F2
330
1A
100
AcDbEntity
  8
SUNPOU
100
AcDbMText
 10
57959.46254102503
 20
50038.08111611015
 30
0.0
 40
10.5
 41
0.0
 71
     9
 72
     5
  1

1001
ACAD
1000
MTEXTBEGIN
1070
    73
1070
     1
1070
    44
1040
1.0
1070
    74
1070
     0
1000
MTEXTEND
  0
MTEXT
  5
55F3
330
1A
100
AcDbEntity
  8
SUNPOU
100
AcDbMText
 10
76913.22125835503
 20
67504.65716860222
 30
0.0
 40
10.5
 41
0.0
 71
     9
 72
     5
  1

1001
ACAD
1000
MTEXTBEGIN
1070
    73
1070
     1
1070
    44
1040
1.0
1070
    74
1070
     0
1000
MTEXTEND
  0
MTEXT
  5
55F4
330
1A
100
AcDbEntity
  8
SUNPOU
100
AcDbMText
 10
78856.62850506443
 20
65703.6080887242
 30
0.0
 40
3.5
 41
0.0
 71
     9
 72
     5
  1

1001
ACAD
1000
MTEXTBEGIN
1070
    73
1070
     1
1070
    44
1040
1.0
1070
    74
1070
     0
1000
MTEXTEND
  0
MTEXT
  5
55F5
330
1A
100
AcDbEntity
  8
SUNPOU
100
AcDbMText
 10
109982.8083376841
 20
108198.5537563815
 30
0.0
 40
10.5
 41
0.0
 71
     9
 72
     5
  1

1001
ACAD
1000
MTEXTBEGIN
1070
    73
1070
     1
1070
    44
1040
1.0
1070
    74
1070
     0
1000
MTEXTEND
  0
MTEXT
  5
55F6
330
1A
100
AcDbEntity
  8
SUNPOU
100
AcDbMText
 10
111926.2155843935
 20
106397.5046765035
 30
0.0
 40
3.5
 41
0.0
 71
     9
 72
     5
  1

1001
ACAD
1000
MTEXTBEGIN
1070
    73
1070
     1
1070
    44
1040
1.0
1070
    74
1070
     0
1000
MTEXTEND
  0
MTEXT
  5
55F7
330
1A
100
AcDbEntity
  8
SUNPOU
100
AcDbMText
 10
60423.07604347968
 20
54031.71891135659
 30
0.0
 40
10.5
 41
0.0
 71
     9
 72
     5
  1

1001
ACAD
1000
MTEXTBEGIN
1070
    73
1070
     1
1070
    44
1040
1.0
1070
    74
1070
     0
1000
MTEXTEND
  0
MTEXT
  5
55F8
330
1A
100
AcDbEntity
  8
SUNPOU
100
AcDbMText
 10
46475.07594310369
 20
34859.3197722444
 30
0.0
 40
3.5
 41
0.0
 71
     7
 72
     5
  1

1001
ACAD
1000
MTEXTBEGIN
1070
    73
1070
     1
1070
    44
1040
1.0
1070
    74
1070
     0
1000
MTEXTEND
  0
MTEXT
  5
55F9
330
1A
100
AcDbEntity
  8
SUNPOU
100
AcDbMText
 10
74027.35402123588
 20
68370.58278833383
 30
0.0
 40
10.5
 41
0.0
 71
     9
 72
     5
  1

1001
ACAD
1000
MTEXTBEGIN
1070
    73
1070
     1
1070
    44
1040
1.0
1070
    74
1070
     0
1000
MTEXTEND
  0
MTEXT
  5
55FA
330
1A
100
AcDbEntity
  8
SUNPOU
100
AcDbMText
 10
75970.7612679453
 20
66569.53370845583
 30
0.0
 40
3.5
 41
0.0
 71
     9
 72
     5
  1

1001
ACAD
1000
MTEXTBEGIN
1070
    73
1070
     1
1070
    44
1040
1.0
1070
    74
1070
     0
1000
MTEXTEND
  0
MTEXT
  5
55FB
330
1A
100
AcDbEntity
  8
SUNPOU
100
AcDbMText
 10
107096.941100565
 20
109064.4793761132
 30
0.0
 40
10.5
 41
0.0
 71
     9
 72
     5
  1

1001
ACAD
1000
MTEXTBEGIN
1070
    73
1070
     1
1070
    44
1040
1.0
1070
    74
1070
     0
1000
MTEXTEND
  0
MTEXT
  5
55FC
330
1A
100
AcDbEntity
  8
SUNPOU
100
AcDbMText
 10
109040.3483472744
 20
107263.4302962351
 30
0.0
 40
3.5
 41
0.0
 71
     9
 72
     5
  1

1001
ACAD
1000
MTEXTBEGIN
1070
    73
1070
     1
1070
    44
1040
1.0
1070
    74
1070
     0
1000
MTEXTEND
  0
MTEXT
  5
55FD
330
1A
100
AcDbEntity
  8
SUNPOU
100
AcDbMText
 10
105709.1709283621
 20
108141.3777665285
 30
0.0
 40
10.5
 41
0.0
 71
     9
 72
     5
  1

1001
ACAD
1000
MTEXTBEGIN
1070
    73
1070
     1
1070
    44
1040
1.0
1070
    74
1070
     0
1000
MTEXTEND
  0
MTEXT
  5
55FE
330
1A
100
AcDbEntity
  8
SUNPOU
100
AcDbMText
 10
107652.5781750715
 20
106340.3286866505
 30
0.0
 40
3.5
 41
0.0
 71
     9
 72
     5
  1

1001
ACAD
1000
MTEXTBEGIN
1070
    73
1070
     1
1070
    44
1040
1.0
1070
    74
1070
     0
1000
MTEXTEND
  0
MTEXT
  5
55FF
330
1A
100
AcDbEntity
  8
SUNPOU
100
AcDbMText
 10
73193.09268743351
 20
66158.78082845056
 30
0.0
 40
10.5
 41
0.0
 71
     9
 72
     5
  1

1001
ACAD
1000
MTEXTBEGIN
1070
    73
1070
     1
1070
    44
1040
1.0
1070
    74
1070
     0
1000
MTEXTEND
  0
MTEXT
  5
5600
330
1A
100
AcDbEntity
  8
SUNPOU
100
AcDbMText
 10
75916.39889159806
 20
66563.46252003162
 30
0.0
 40
3.5
 41
0.0
 71
     9
 72
     5
  1

1001
ACAD
1000
MTEXTBEGIN
1070
    73
1070
     1
1070
    44
1040
1.0
1070
    74
1070
     0
1000
MTEXTEND
  0
MTEXT
  5
5601
330
1A
100
AcDbEntity
  8
SUNPOU
100
AcDbMText
 10
75124.04436649058
 20
63402.1566819768
 30
0.0
 40
10.5
 41
0.0
 71
     9
 72
     5
  1

1001
ACAD
1000
MTEXTBEGIN
1070
    73
1070
     1
1070
    44
1040
1.0
1070
    74
1070
     0
1000
MTEXTEND
  0
MTEXT
  5
5602
330
1A
100
AcDbEntity
  8
SUNPOU
100
AcDbMText
 10
77067.4516132
 20
61601.1076020988
 30
0.0
 40
3.5
 41
0.0
 71
     9
 72
     5
  1

1001
ACAD
1000
MTEXTBEGIN
1070
    73
1070
     1
1070
    44
1040
1.0
1070
    74
1070
     0
1000
MTEXTEND
  0
MTEXT
  5
5603
330
1A
100
AcDbEntity
  8
SUNPOU
100
AcDbMText
 10
77012.54710378659
 20
61488.33571981449
 30
0.0
 40
3.5
 41
0.0
 71
     9
 72
     5
  1

1001
ACAD
1000
MTEXTBEGIN
1070
    73
1070
     1
1070
    44
1040
1.0
1070
    74
1070
     0
1000
MTEXTEND
  0
MTEXT
  5
5604
330
1A
100
AcDbEntity
  8
SUNPOU
100
AcDbMText
 10
76376.61896736668
 20
60677.01447874797
 30
0.0
 40
3.5
 41
0.0
 71
     9
 72
     5
  1

1001
ACAD
1000
MTEXTBEGIN
1070
    73
1070
     1
1070
    44
1040
1.0
1070
    74
1070
     0
1000
MTEXTEND
  0
MTEXT
  5
5605
330
1A
100
AcDbEntity
  8
SUNPOU
100
AcDbMText
 10
76375.37854794595
 20
60676.76650181047
 30
0.0
 40
10.5
 41
0.0
 71
     9
 72
     5
  1

1001
ACAD
1000
MTEXTBEGIN
1070
    73
1070
     1
1070
    44
1040
1.0
1070
    74
1070
     0
1000
MTEXTEND
  0
MTEXT
  5
5606
330
1A
100
AcDbEntity
  8
SUNPOU
100
AcDbMText
 10
84709.93991079748
 20
78034.0328293557
 30
0.0
 40
10.5
 41
0.0
 71
     9
 72
     5
  1

1001
ACAD
1000
MTEXTBEGIN
1070
    73
1070
     1
1070
    44
1040
1.0
1070
    74
1070
     0
1000
MTEXTEND
  0
MTEXT
  5
5607
330
1A
100
AcDbEntity
  8
SUNPOU
100
AcDbMText
 10
93432.10747671548
 20
85449.86736089315
 30
0.0
 40
10.5
 41
0.0
 71
     9
 72
     5
  1

1001
ACAD
1000
MTEXTBEGIN
1070
    73
1070
     1
1070
    44
1040
1.0
1070
    74
1070
     0
1000
MTEXTEND
  0
MTEXT
  5
5608
330
1A
100
AcDbEntity
  8
SUNPOU
100
AcDbMText
 10
112385.8661940454
 20
102916.4434133851
 30
0.0
 40
10.5
 41
0.0
 71
     9
 72
     5
  1

1001
ACAD
1000
MTEXTBEGIN
1070
    73
1070
     1
1070
    44
1040
1.0
1070
    74
1070
     0
1000
MTEXTEND
  0
MTEXT
  5
5609
330
1A
100
AcDbEntity
  8
SUNPOU
100
AcDbMText
 10
114329.2734407548
 20
101115.3943335072
 30
0.0
 40
3.5
 41
0.0
 71
     9
 72
     5
  1

1001
ACAD
1000
MTEXTBEGIN
1070
    73
1070
     1
1070
    44
1040
1.0
1070
    74
1070
     0
1000
MTEXTEND
  0
MTEXT
  5
560A
330
1A
100
AcDbEntity
  8
SUNPOU
100
AcDbMText
 10
145455.4532733745
 20
143610.3400011645
 30
0.0
 40
10.5
 41
0.0
 71
     9
 72
     5
  1

1001
ACAD
1000
MTEXTBEGIN
1070
    73
1070
     1
1070
    44
1040
1.0
1070
    74
1070
     0
1000
MTEXTEND
  0
MTEXT
  5
560B
330
1A
100
AcDbEntity
  8
SUNPOU
100
AcDbMText
 10
147398.8605200839
 20
141809.2909212864
 30
0.0
 40
3.5
 41
0.0
 71
     9
 72
     5
  1

1001
ACAD
1000
MTEXTBEGIN
1070
    73
1070
     1
1070
    44
1040
1.0
1070
    74
1070
     0
1000
MTEXTEND
  0
MTEXT
  5
560C
330
1A
100
AcDbEntity
  8
SUNPOU
100
AcDbMText
 10
95895.72097917013
 20
89443.5051561396
 30
0.0
 40
10.5
 41
0.0
 71
     9
 72
     5
  1

1001
ACAD
1000
MTEXTBEGIN
1070
    73
1070
     1
1070
    44
1040
1.0
1070
    74
1070
     0
1000
MTEXTEND
  0
MTEXT
  5
560D
330
1A
100
AcDbEntity
  8
SUNPOU
100
AcDbMText
 10
81947.72087879414
 20
70271.1060170274
 30
0.0
 40
3.5
 41
0.0
 71
     7
 72
     5
  1

1001
ACAD
1000
MTEXTBEGIN
1070
    73
1070
     1
1070
    44
1040
1.0
1070
    74
1070
     0
1000
MTEXTEND
  0
MTEXT
  5
560E
330
1A
100
AcDbEntity
  8
SUNPOU
100
AcDbMText
 10
62932.89027578729
 20
58033.25474784561
 30
0.0
 40
10.5
 41
0.0
 71
     7
 72
     5
  1

1001
ACAD
1000
MTEXTBEGIN
1070
    73
1070
     1
1070
    44
1040
1.0
1070
    74
1070
     0
1000
MTEXTEND
  0
MTEXT
  5
560F
330
1A
100
AcDbEntity
  8
SUNPOU
100
AcDbMText
 10
50475.66201083918
 20
42188.32316974719
 30
0.0
 40
35.0
 41
0.0
 71
     9
 72
     5
  1

1001
ACAD
1000
MTEXTBEGIN
1070
    73
1070
     1
1070
    44
1040
1.0
1070
    74
1070
     0
1000
MTEXTEND
  0
MTEXT
  5
5610
330
1A
100
AcDbEntity
  8
SUNPOU
100
AcDbMText
 10
49384.14706841413
 20
42797.0985797959
 30
0.0
 40
350.0000004171781
 41
0.0
 71
     7
 72
     5
  1

1001
ACAD
1000
MTEXTBEGIN
1070
    73
1070
     1
1070
    44
1040
1.0
1070
    74
1070
     0
1000
MTEXTEND
  0
MTEXT
  5
5611
330
1A
100
AcDbEntity
  8
0
100
AcDbMText
 10
55428.09782635704
 20
40777.02094193211
 30
0.0
 40
8.0
 41
0.0
 71
     7
 72
     5
  1

1001
ACAD
1000
MTEXTBEGIN
1070
    73
1070
     1
1070
    44
1040
1.0
1070
    74
1070
     0
1000
MTEXTEND
  0
MTEXT
  5
5612
330
1A
100
AcDbEntity
  8
0
100
AcDbMText
 10
57713.45551625194
 20
41747.81123668317
 30
0.0
 40
8.0
 41
0.0
 71
     7
 72
     5
  1

1001
ACAD
1000
MTEXTBEGIN
1070
    73
1070
     1
1070
    44
1040
1.0
1070
    74
1070
     0
1000
MTEXTEND
  0
MTEXT
  5
5613
330
1A
100
AcDbEntity
  8
SUNPOU
100
AcDbMText
 10
60379.35253693408
 20
51259.9226290583
 30
0.0
 40
10.5
 41
0.0
 71
     1
 72
     5
  1

1001
ACAD
1000
MTEXTBEGIN
1070
    73
1070
     1
1070
    44
1040
1.0
1070
    74
1070
     0
1000
MTEXTEND
  0
MTEXT
  5
5614
330
1A
100
AcDbEntity
  8
SUNPOU
100
AcDbMText
 10
52448.42934099814
 20
50313.12949514535
 30
0.0
 40
10.5
 41
0.0
 71
     7
 72
     5
  1

1001
ACAD
1000
MTEXTBEGIN
1070
    73
1070
     1
1070
    44
1040
1.0
1070
    74
1070
     0
1000
MTEXTEND
  0
MTEXT
  5
5615
330
1A
100
AcDbEntity
  8
SUNPOU
100
AcDbMText
 10
55397.41300551091
 20
55213.80556698819
 30
0.0
 40
10.5
 41
0.0
 71
     7
 72
     5
  1

1001
ACAD
1000
MTEXTBEGIN
1070
    73
1070
     1
1070
    44
1040
1.0
1070
    74
1070
     0
1000
MTEXTEND
  0
MTEXT
  5
5616
330
1A
100
AcDbEntity
  8
SUNPOU
100
AcDbMText
 10
59906.49113346147
 20
57650.10631460826
 30
0.0
 40
10.5
 41
0.0
 71
     7
 72
     5
  1

1001
ACAD
1000
MTEXTBEGIN
1070
    73
1070
     1
1070
    44
1040
1.0
1070
    74
1070
     0
1000
MTEXTEND
  0
MTEXT
  5
5617
330
1A
100
AcDbEntity
  8
SUNPOU
100
AcDbMText
 10
43507.32902022979
 20
36647.70246499718
 30
0.0
 40
10.5
 41
0.0
 71
     7
 72
     5
  1

1001
ACAD
1000
MTEXTBEGIN
1070
    73
1070
     1
1070
    44
1040
1.0
1070
    74
1070
     0
1000
MTEXTEND
  0
MTEXT
  5
5618
330
1A
100
AcDbEntity
  8
SUNPOU
100
AcDbMText
 10
94698.84745413006
 20
82320.68302864542
 30
0.0
 40
10.5
 41
0.0
 71
     9
 72
     5
  1

1001
ACAD
1000
MTEXTBEGIN
1070
    73
1070
     1
1070
    44
1040
1.0
1070
    74
1070
     0
1000
MTEXTEND
  0
MTEXT
  5
5619
330
1A
100
AcDbEntity
  8
SUNPOU
100
AcDbMText
 10
103421.015020048
 20
89736.5175601829
 30
0.0
 40
10.5
 41
0.0
 71
     9
 72
     5
  1

1001
ACAD
1000
MTEXTBEGIN
1070
    73
1070
     1
1070
    44
1040
1.0
1070
    74
1070
     0
1000
MTEXTEND
  0
MTEXT
  5
561A
330
1A
100
AcDbEntity
  8
SUNPOU
100
AcDbMText
 10
122374.773737378
 20
107203.0936126749
 30
0.0
 40
10.5
 41
0.0
 71
     9
 72
     5
  1

1001
ACAD
1000
MTEXTBEGIN
1070
    73
1070
     1
1070
    44
1040
1.0
1070
    74
1070
     0
1000
MTEXTEND
  0
MTEXT
  5
561B
330
1A
100
AcDbEntity
  8
SUNPOU
100
AcDbMText
 10
124318.1809840874
 20
105402.0445327969
 30
0.0
 40
3.5
 41
0.0
 71
     9
 72
     5
  1

1001
ACAD
1000
MTEXTBEGIN
1070
    73
1070
     1
1070
    44
1040
1.0
1070
    74
1070
     0
1000
MTEXTEND
  0
MTEXT
  5
561C
330
1A
100
AcDbEntity
  8
SUNPOU
100
AcDbMText
 10
155444.3608167071
 20
147896.9902004542
 30
0.0
 40
10.5
 41
0.0
 71
     9
 72
     5
  1

1001
ACAD
1000
MTEXTBEGIN
1070
    73
1070
     1
1070
    44
1040
1.0
1070
    74
1070
     0
1000
MTEXTEND
  0
MTEXT
  5
561D
330
1A
100
AcDbEntity
  8
SUNPOU
100
AcDbMText
 10
157387.7680634165
 20
146095.9411205762
 30
0.0
 40
3.5
 41
0.0
 71
     9
 72
     5
  1

1001
ACAD
1000
MTEXTBEGIN
1070
    73
1070
     1
1070
    44
1040
1.0
1070
    74
1070
     0
1000
MTEXTEND
  0
MTEXT
  5
561E
330
1A
100
AcDbEntity
  8
SUNPOU
100
AcDbMText
 10
105884.6285225027
 20
93730.15535542933
 30
0.0
 40
10.5
 41
0.0
 71
     9
 72
     5
  1

1001
ACAD
1000
MTEXTBEGIN
1070
    73
1070
     1
1070
    44
1040
1.0
1070
    74
1070
     0
1000
MTEXTEND
  0
MTEXT
  5
561F
330
1A
100
AcDbEntity
  8
SUNPOU
100
AcDbMText
 10
91936.6284221267
 20
74557.75621631714
 30
0.0
 40
3.5
 41
0.0
 71
     7
 72
     5
  1

1001
ACAD
1000
MTEXTBEGIN
1070
    73
1070
     1
1070
    44
1040
1.0
1070
    74
1070
     0
1000
MTEXTEND
  0
MTEXT
  5
5620
330
1A
100
AcDbEntity
  8
SUNPOU
100
AcDbMText
 10
72921.79781911986
 20
62319.90494713533
 30
0.0
 40
10.5
 41
0.0
 71
     7
 72
     5
  1

1001
ACAD
1000
MTEXTBEGIN
1070
    73
1070
     1
1070
    44
1040
1.0
1070
    74
1070
     0
1000
MTEXTEND
  0
MTEXT
  5
5621
330
1A
100
AcDbEntity
  8
SUNPOU
100
AcDbMText
 10
60464.56955417175
 20
46474.97336903692
 30
0.0
 40
35.0
 41
0.0
 71
     9
 72
     5
  1

1001
ACAD
1000
MTEXTBEGIN
1070
    73
1070
     1
1070
    44
1040
1.0
1070
    74
1070
     0
1000
MTEXTEND
  0
MTEXT
  5
5622
330
1A
100
AcDbEntity
  8
SUNPOU
100
AcDbMText
 10
59373.05461174672
 20
47083.74877908562
 30
0.0
 40
350.0000004171781
 41
0.0
 71
     7
 72
     5
  1

1001
ACAD
1000
MTEXTBEGIN
1070
    73
1070
     1
1070
    44
1040
1.0
1070
    74
1070
     0
1000
MTEXTEND
  0
MTEXT
  5
5623
330
1A
100
AcDbEntity
  8
0
100
AcDbMText
 10
65417.00536968962
 20
45063.67114122186
 30
0.0
 40
8.0
 41
0.0
 71
     7
 72
     5
  1

1001
ACAD
1000
MTEXTBEGIN
1070
    73
1070
     1
1070
    44
1040
1.0
1070
    74
1070
     0
1000
MTEXTEND
  0
MTEXT
  5
5624
330
1A
100
AcDbEntity
  8
0
100
AcDbMText
 10
67702.36305958452
 20
46034.46143597292
 30
0.0
 40
8.0
 41
0.0
 71
     7
 72
     5
  1

1001
ACAD
1000
MTEXTBEGIN
1070
    73
1070
     1
1070
    44
1040
1.0
1070
    74
1070
     0
1000
MTEXTEND
  0
MTEXT
  5
5625
330
1A
100
AcDbEntity
  8
SUNPOU
100
AcDbMText
 10
70368.26008026666
 20
55546.57282834803
 30
0.0
 40
10.5
 41
0.0
 71
     1
 72
     5
  1

1001
ACAD
1000
MTEXTBEGIN
1070
    73
1070
     1
1070
    44
1040
1.0
1070
    74
1070
     0
1000
MTEXTEND
  0
MTEXT
  5
5626
330
1A
100
AcDbEntity
  8
SUNPOU
100
AcDbMText
 10
62437.33688433072
 20
54599.77969443508
 30
0.0
 40
10.5
 41
0.0
 71
     7
 72
     5
  1

1001
ACAD
1000
MTEXTBEGIN
1070
    73
1070
     1
1070
    44
1040
1.0
1070
    74
1070
     0
1000
MTEXTEND
  0
MTEXT
  5
5627
330
1A
100
AcDbEntity
  8
SUNPOU
100
AcDbMText
 10
65386.32054884349
 20
59500.45576627792
 30
0.0
 40
10.5
 41
0.0
 71
     7
 72
     5
  1

1001
ACAD
1000
MTEXTBEGIN
1070
    73
1070
     1
1070
    44
1040
1.0
1070
    74
1070
     0
1000
MTEXTEND
  0
MTEXT
  5
5628
330
1A
100
AcDbEntity
  8
SUNPOU
100
AcDbMText
 10
69895.39867679405
 20
61936.756513898
 30
0.0
 40
10.5
 41
0.0
 71
     7
 72
     5
  1

1001
ACAD
1000
MTEXTBEGIN
1070
    73
1070
     1
1070
    44
1040
1.0
1070
    74
1070
     0
1000
MTEXTEND
  0
MTEXT
  5
5629
330
1A
100
AcDbEntity
  8
SUNPOU
100
AcDbMText
 10
53496.23656356237
 20
40934.35266428691
 30
0.0
 40
10.5
 41
0.0
 71
     7
 72
     5
  1

1001
ACAD
1000
MTEXTBEGIN
1070
    73
1070
     1
1070
    44
1040
1.0
1070
    74
1070
     0
1000
MTEXTEND
  0
MTEXT
  5
562A
330
1A
100
AcDbEntity
  8
SUNPOU
100
AcDbMText
 10
55306.99947493731
 20
47261.76665176547
 30
0.0
 40
10.5
 41
0.0
 71
     9
 72
     5
  1

1001
ACAD
1000
MTEXTBEGIN
1070
    73
1070
     1
1070
    44
1040
1.0
1070
    74
1070
     0
1000
MTEXTEND
  0
MTEXT
  5
562B
330
1A
100
AcDbEntity
  8
SUNPOU
100
AcDbMText
 10
64029.16704085528
 20
54677.60118330295
 30
0.0
 40
10.5
 41
0.0
 71
     9
 72
     5
  1

1001
ACAD
1000
MTEXTBEGIN
1070
    73
1070
     1
1070
    44
1040
1.0
1070
    74
1070
     0
1000
MTEXTEND
  0
MTEXT
  5
562C
330
1A
100
AcDbEntity
  8
SUNPOU
100
AcDbMText
 10
82982.92575818527
 20
72144.17723579499
 30
0.0
 40
10.5
 41
0.0
 71
     9
 72
     5
  1

1001
ACAD
1000
MTEXTBEGIN
1070
    73
1070
     1
1070
    44
1040
1.0
1070
    74
1070
     0
1000
MTEXTEND
  0
MTEXT
  5
562D
330
1A
100
AcDbEntity
  8
SUNPOU
100
AcDbMText
 10
84926.33300489467
 20
70343.12815591698
 30
0.0
 40
3.5
 41
0.0
 71
     9
 72
     5
  1

1001
ACAD
1000
MTEXTBEGIN
1070
    73
1070
     1
1070
    44
1040
1.0
1070
    74
1070
     0
1000
MTEXTEND
  0
MTEXT
  5
562E
330
1A
100
AcDbEntity
  8
SUNPOU
100
AcDbMText
 10
116052.5128375143
 20
112838.0738235743
 30
0.0
 40
10.5
 41
0.0
 71
     9
 72
     5
  1

1001
ACAD
1000
MTEXTBEGIN
1070
    73
1070
     1
1070
    44
1040
1.0
1070
    74
1070
     0
1000
MTEXTEND
  0
MTEXT
  5
562F
330
1A
100
AcDbEntity
  8
SUNPOU
100
AcDbMText
 10
117995.9200842238
 20
111037.0247436963
 30
0.0
 40
3.5
 41
0.0
 71
     9
 72
     5
  1

1001
ACAD
1000
MTEXTBEGIN
1070
    73
1070
     1
1070
    44
1040
1.0
1070
    74
1070
     0
1000
MTEXTEND
  0
MTEXT
  5
5630
330
1A
100
AcDbEntity
  8
SUNPOU
100
AcDbMText
 10
66492.78054330994
 20
58671.23897854939
 30
0.0
 40
10.5
 41
0.0
 71
     9
 72
     5
  1

1001
ACAD
1000
MTEXTBEGIN
1070
    73
1070
     1
1070
    44
1040
1.0
1070
    74
1070
     0
1000
MTEXTEND
  0
MTEXT
  5
5631
330
1A
100
AcDbEntity
  8
SUNPOU
100
AcDbMText
 10
52544.78044293396
 20
39498.83983943717
 30
0.0
 40
3.5
 41
0.0
 71
     7
 72
     5
  1

1001
ACAD
1000
MTEXTBEGIN
1070
    73
1070
     1
1070
    44
1040
1.0
1070
    74
1070
     0
1000
MTEXTEND
  0
MTEXT
  5
5632
330
1A
100
AcDbEntity
  8
SUNPOU
100
AcDbMText
 10
66237.13112570454
 20
48857.90306045851
 30
0.0
 40
10.5
 41
0.0
 71
     9
 72
     5
  1

1001
ACAD
1000
MTEXTBEGIN
1070
    73
1070
     1
1070
    44
1040
1.0
1070
    74
1070
     0
1000
MTEXTEND
  0
MTEXT
  5
5633
330
1A
100
AcDbEntity
  8
SUNPOU
100
AcDbMText
 10
74959.29869162252
 20
56273.737591996
 30
0.0
 40
10.5
 41
0.0
 71
     9
 72
     5
  1

1001
ACAD
1000
MTEXTBEGIN
1070
    73
1070
     1
1070
    44
1040
1.0
1070
    74
1070
     0
1000
MTEXTEND
  0
MTEXT
  5
5634
330
1A
100
AcDbEntity
  8
SUNPOU
100
AcDbMText
 10
93913.0574089525
 20
73740.31364448805
 30
0.0
 40
10.5
 41
0.0
 71
     9
 72
     5
  1

1001
ACAD
1000
MTEXTBEGIN
1070
    73
1070
     1
1070
    44
1040
1.0
1070
    74
1070
     0
1000
MTEXTEND
  0
MTEXT
  5
5635
330
1A
100
AcDbEntity
  8
SUNPOU
100
AcDbMText
 10
95856.46465566192
 20
71939.26456461004
 30
0.0
 40
3.5
 41
0.0
 71
     9
 72
     5
  1

1001
ACAD
1000
MTEXTBEGIN
1070
    73
1070
     1
1070
    44
1040
1.0
1070
    74
1070
     0
1000
MTEXTEND
  0
MTEXT
  5
5636
330
1A
100
AcDbEntity
  8
SUNPOU
100
AcDbMText
 10
126982.6444882816
 20
114434.2102322673
 30
0.0
 40
10.5
 41
0.0
 71
     9
 72
     5
  1

1001
ACAD
1000
MTEXTBEGIN
1070
    73
1070
     1
1070
    44
1040
1.0
1070
    74
1070
     0
1000
MTEXTEND
  0
MTEXT
  5
5637
330
1A
100
AcDbEntity
  8
SUNPOU
100
AcDbMText
 10
128926.051734991
 20
112633.1611523893
 30
0.0
 40
3.5
 41
0.0
 71
     9
 72
     5
  1

1001
ACAD
1000
MTEXTBEGIN
1070
    73
1070
     1
1070
    44
1040
1.0
1070
    74
1070
     0
1000
MTEXTEND
  0
MTEXT
  5
5638
330
1A
100
AcDbEntity
  8
SUNPOU
100
AcDbMText
 10
77422.91219407717
 20
60267.37538724244
 30
0.0
 40
10.5
 41
0.0
 71
     9
 72
     5
  1

1001
ACAD
1000
MTEXTBEGIN
1070
    73
1070
     1
1070
    44
1040
1.0
1070
    74
1070
     0
1000
MTEXTEND
  0
MTEXT
  5
5639
330
1A
100
AcDbEntity
  8
SUNPOU
100
AcDbMText
 10
63474.91209370119
 20
41094.97624813023
 30
0.0
 40
3.5
 41
0.0
 71
     7
 72
     5
  1

1001
ACAD
1000
MTEXTBEGIN
1070
    73
1070
     1
1070
    44
1040
1.0
1070
    74
1070
     0
1000
MTEXTEND
  0
MTEXT
  5
563A
330
1A
100
AcDbEntity
  8
SUNPOU
100
AcDbMText
 10
48117.65086229006
 20
40806.11043916631
 30
0.0
 40
10.5
 41
0.0
 71
     9
 72
     5
  1

1001
ACAD
1000
MTEXTBEGIN
1070
    73
1070
     1
1070
    44
1040
1.0
1070
    74
1070
     0
1000
MTEXTEND
  0
MTEXT
  5
563B
330
1A
100
AcDbEntity
  8
SUNPOU
100
AcDbMText
 10
67071.40957962004
 20
58272.68649165837
 30
0.0
 40
10.5
 41
0.0
 71
     9
 72
     5
  1

1001
ACAD
1000
MTEXTBEGIN
1070
    73
1070
     1
1070
    44
1040
1.0
1070
    74
1070
     0
1000
MTEXTEND
  0
MTEXT
  5
563C
330
1A
100
AcDbEntity
  8
SUNPOU
100
AcDbMText
 10
69014.81682632945
 20
56471.63741178035
 30
0.0
 40
3.5
 41
0.0
 71
     9
 72
     5
  1

1001
ACAD
1000
MTEXTBEGIN
1070
    73
1070
     1
1070
    44
1040
1.0
1070
    74
1070
     0
1000
MTEXTEND
  0
MTEXT
  5
563D
330
1A
100
AcDbEntity
  8
SUNPOU
100
AcDbMText
 10
100140.9966589491
 20
98966.58307943772
 30
0.0
 40
10.5
 41
0.0
 71
     9
 72
     5
  1

1001
ACAD
1000
MTEXTBEGIN
1070
    73
1070
     1
1070
    44
1040
1.0
1070
    74
1070
     0
1000
MTEXTEND
  0
MTEXT
  5
563E
330
1A
100
AcDbEntity
  8
SUNPOU
100
AcDbMText
 10
102084.4039056586
 20
97165.53399955969
 30
0.0
 40
3.5
 41
0.0
 71
     9
 72
     5
  1

1001
ACAD
1000
MTEXTBEGIN
1070
    73
1070
     1
1070
    44
1040
1.0
1070
    74
1070
     0
1000
MTEXTEND
  0
MTEXT
  5
563F
330
1A
100
AcDbEntity
  8
SUNPOU
100
AcDbMText
 10
50581.26436474472
 20
44799.74823441275
 30
0.0
 40
10.5
 41
0.0
 71
     9
 72
     5
  1

1001
ACAD
1000
MTEXTBEGIN
1070
    73
1070
     1
1070
    44
1040
1.0
1070
    74
1070
     0
1000
MTEXTEND
  0
MTEXT
  5
5640
330
1A
100
AcDbEntity
  8
SUNPOU
100
AcDbMText
 10
36633.26426436873
 20
25627.34909530054
 30
0.0
 40
3.5
 41
0.0
 71
     7
 72
     5
  1

1001
ACAD
1000
MTEXTBEGIN
1070
    73
1070
     1
1070
    44
1040
1.0
1070
    74
1070
     0
1000
MTEXTEND
  0
MTEXT
  5
5641
330
1A
100
AcDbEntity
  8
SUNPOU
100
AcDbMText
 10
61069.42493315968
 20
52574.61207825771
 30
0.0
 40
10.5
 41
0.0
 71
     9
 72
     5
  1

1001
ACAD
1000
MTEXTBEGIN
1070
    73
1070
     1
1070
    44
1040
1.0
1070
    74
1070
     0
1000
MTEXTEND
  0
MTEXT
  5
5642
330
1A
100
AcDbEntity
  8
SUNPOU
100
AcDbMText
 10
80023.18365048967
 20
70041.18813074978
 30
0.0
 40
10.5
 41
0.0
 71
     9
 72
     5
  1

1001
ACAD
1000
MTEXTBEGIN
1070
    73
1070
     1
1070
    44
1040
1.0
1070
    74
1070
     0
1000
MTEXTEND
  0
MTEXT
  5
5643
330
1A
100
AcDbEntity
  8
SUNPOU
100
AcDbMText
 10
81966.59089719908
 20
68240.13905087176
 30
0.0
 40
3.5
 41
0.0
 71
     9
 72
     5
  1

1001
ACAD
1000
MTEXTBEGIN
1070
    73
1070
     1
1070
    44
1040
1.0
1070
    74
1070
     0
1000
MTEXTEND
  0
MTEXT
  5
5644
330
1A
100
AcDbEntity
  8
SUNPOU
100
AcDbMText
 10
113092.7707298187
 20
110735.0847185291
 30
0.0
 40
10.5
 41
0.0
 71
     9
 72
     5
  1

1001
ACAD
1000
MTEXTBEGIN
1070
    73
1070
     1
1070
    44
1040
1.0
1070
    74
1070
     0
1000
MTEXTEND
  0
MTEXT
  5
5645
330
1A
100
AcDbEntity
  8
SUNPOU
100
AcDbMText
 10
115036.1779765282
 20
108934.0356386511
 30
0.0
 40
3.5
 41
0.0
 71
     9
 72
     5
  1

1001
ACAD
1000
MTEXTBEGIN
1070
    73
1070
     1
1070
    44
1040
1.0
1070
    74
1070
     0
1000
MTEXTEND
  0
MTEXT
  5
5646
330
1A
100
AcDbEntity
  8
SUNPOU
100
AcDbMText
 10
63533.03843561433
 20
56568.24987350415
 30
0.0
 40
10.5
 41
0.0
 71
     9
 72
     5
  1

1001
ACAD
1000
MTEXTBEGIN
1070
    73
1070
     1
1070
    44
1040
1.0
1070
    74
1070
     0
1000
MTEXTEND
  0
MTEXT
  5
5647
330
1A
100
AcDbEntity
  8
SUNPOU
100
AcDbMText
 10
49585.03833523835
 20
37395.85073439196
 30
0.0
 40
3.5
 41
0.0
 71
     7
 72
     5
  1

1001
ACAD
1000
MTEXTBEGIN
1070
    73
1070
     1
1070
    44
1040
1.0
1070
    74
1070
     0
1000
MTEXTEND
  0
MTEXT
  5
5648
330
1A
100
AcDbEntity
  8
SUNPOU
100
AcDbMText
 10
77137.31641337052
 20
70907.11375048141
 30
0.0
 40
10.5
 41
0.0
 71
     9
 72
     5
  1

1001
ACAD
1000
MTEXTBEGIN
1070
    73
1070
     1
1070
    44
1040
1.0
1070
    74
1070
     0
1000
MTEXTEND
  0
MTEXT
  5
5649
330
1A
100
AcDbEntity
  8
SUNPOU
100
AcDbMText
 10
79080.72366007995
 20
69106.06467060339
 30
0.0
 40
3.5
 41
0.0
 71
     9
 72
     5
  1

1001
ACAD
1000
MTEXTBEGIN
1070
    73
1070
     1
1070
    44
1040
1.0
1070
    74
1070
     0
1000
MTEXTEND
  0
MTEXT
  5
564A
330
1A
100
AcDbEntity
  8
SUNPOU
100
AcDbMText
 10
110206.9034926996
 20
111601.0103382607
 30
0.0
 40
10.5
 41
0.0
 71
     9
 72
     5
  1

1001
ACAD
1000
MTEXTBEGIN
1070
    73
1070
     1
1070
    44
1040
1.0
1070
    74
1070
     0
1000
MTEXTEND
  0
MTEXT
  5
564B
330
1A
100
AcDbEntity
  8
SUNPOU
100
AcDbMText
 10
112150.310739409
 20
109799.9612583827
 30
0.0
 40
3.5
 41
0.0
 71
     9
 72
     5
  1

1001
ACAD
1000
MTEXTBEGIN
1070
    73
1070
     1
1070
    44
1040
1.0
1070
    74
1070
     0
1000
MTEXTEND
  0
MTEXT
  5
564C
330
1A
100
AcDbEntity
  8
SUNPOU
100
AcDbMText
 10
108819.1333204968
 20
110677.9087286761
 30
0.0
 40
10.5
 41
0.0
 71
     9
 72
     5
  1

1001
ACAD
1000
MTEXTBEGIN
1070
    73
1070
     1
1070
    44
1040
1.0
1070
    74
1070
     0
1000
MTEXTEND
  0
MTEXT
  5
564D
330
1A
100
AcDbEntity
  8
SUNPOU
100
AcDbMText
 10
110762.5405672062
 20
108876.8596487981
 30
0.0
 40
3.5
 41
0.0
 71
     9
 72
     5
  1

1001
ACAD
1000
MTEXTBEGIN
1070
    73
1070
     1
1070
    44
1040
1.0
1070
    74
1070
     0
1000
MTEXTEND
  0
MTEXT
  5
564E
330
1A
100
AcDbEntity
  8
SUNPOU
100
AcDbMText
 10
76303.05507956816
 20
68695.31179059812
 30
0.0
 40
10.5
 41
0.0
 71
     9
 72
     5
  1

1001
ACAD
1000
MTEXTBEGIN
1070
    73
1070
     1
1070
    44
1040
1.0
1070
    74
1070
     0
1000
MTEXTEND
  0
MTEXT
  5
564F
330
1A
100
AcDbEntity
  8
SUNPOU
100
AcDbMText
 10
79026.36128373271
 20
69099.99348217918
 30
0.0
 40
3.5
 41
0.0
 71
     9
 72
     5
  1

1001
ACAD
1000
MTEXTBEGIN
1070
    73
1070
     1
1070
    44
1040
1.0
1070
    74
1070
     0
1000
MTEXTEND
  0
MTEXT
  5
5650
330
1A
100
AcDbEntity
  8
SUNPOU
100
AcDbMText
 10
78234.00675862522
 20
65938.68764412436
 30
0.0
 40
10.5
 41
0.0
 71
     9
 72
     5
  1

1001
ACAD
1000
MTEXTBEGIN
1070
    73
1070
     1
1070
    44
1040
1.0
1070
    74
1070
     0
1000
MTEXTEND
  0
MTEXT
  5
5651
330
1A
100
AcDbEntity
  8
SUNPOU
100
AcDbMText
 10
80177.41400533465
 20
64137.63856424636
 30
0.0
 40
3.5
 41
0.0
 71
     9
 72
     5
  1

1001
ACAD
1000
MTEXTBEGIN
1070
    73
1070
     1
1070
    44
1040
1.0
1070
    74
1070
     0
1000
MTEXTEND
  0
MTEXT
  5
5652
330
1A
100
AcDbEntity
  8
SUNPOU
100
AcDbMText
 10
80122.50949592123
 20
64024.86668196205
 30
0.0
 40
3.5
 41
0.0
 71
     9
 72
     5
  1

1001
ACAD
1000
MTEXTBEGIN
1070
    73
1070
     1
1070
    44
1040
1.0
1070
    74
1070
     0
1000
MTEXTEND
  0
MTEXT
  5
5653
330
1A
100
AcDbEntity
  8
SUNPOU
100
AcDbMText
 10
79486.58135950133
 20
63213.54544089553
 30
0.0
 40
3.5
 41
0.0
 71
     9
 72
     5
  1

1001
ACAD
1000
MTEXTBEGIN
1070
    73
1070
     1
1070
    44
1040
1.0
1070
    74
1070
     0
1000
MTEXTEND
  0
MTEXT
  5
5654
330
1A
100
AcDbEntity
  8
SUNPOU
100
AcDbMText
 10
79485.3409400806
 20
63213.29746395804
 30
0.0
 40
10.5
 41
0.0
 71
     9
 72
     5
  1

1001
ACAD
1000
MTEXTBEGIN
1070
    73
1070
     1
1070
    44
1040
1.0
1070
    74
1070
     0
1000
MTEXTEND
  0
MTEXT
  5
5655
330
1A
100
AcDbEntity
  8
SUNPOU
100
AcDbMText
 10
85473.63363627567
 20
80747.76348077064
 30
0.0
 40
10.5
 41
0.0
 71
     9
 72
     5
  1

1001
ACAD
1000
MTEXTBEGIN
1070
    73
1070
     1
1070
    44
1040
1.0
1070
    74
1070
     0
1000
MTEXTEND
  0
MTEXT
  5
5656
330
1A
100
AcDbEntity
  8
SUNPOU
100
AcDbMText
 10
94195.80120219368
 20
88163.59801230809
 30
0.0
 40
10.5
 41
0.0
 71
     9
 72
     5
  1

1001
ACAD
1000
MTEXTBEGIN
1070
    73
1070
     1
1070
    44
1040
1.0
1070
    74
1070
     0
1000
MTEXTEND
  0
MTEXT
  5
5657
330
1A
100
AcDbEntity
  8
SUNPOU
100
AcDbMText
 10
113149.5599195236
 20
105630.1740648001
 30
0.0
 40
10.5
 41
0.0
 71
     9
 72
     5
  1

1001
ACAD
1000
MTEXTBEGIN
1070
    73
1070
     1
1070
    44
1040
1.0
1070
    74
1070
     0
1000
MTEXTEND
  0
MTEXT
  5
5658
330
1A
100
AcDbEntity
  8
SUNPOU
100
AcDbMText
 10
115092.967166233
 20
103829.1249849221
 30
0.0
 40
3.5
 41
0.0
 71
     9
 72
     5
  1

1001
ACAD
1000
MTEXTBEGIN
1070
    73
1070
     1
1070
    44
1040
1.0
1070
    74
1070
     0
1000
MTEXTEND
  0
MTEXT
  5
5659
330
1A
100
AcDbEntity
  8
SUNPOU
100
AcDbMText
 10
146219.1469988527
 20
146324.0706525794
 30
0.0
 40
10.5
 41
0.0
 71
     9
 72
     5
  1

1001
ACAD
1000
MTEXTBEGIN
1070
    73
1070
     1
1070
    44
1040
1.0
1070
    74
1070
     0
1000
MTEXTEND
  0
MTEXT
  5
565A
330
1A
100
AcDbEntity
  8
SUNPOU
100
AcDbMText
 10
148162.5542455621
 20
144523.0215727014
 30
0.0
 40
3.5
 41
0.0
 71
     9
 72
     5
  1

1001
ACAD
1000
MTEXTBEGIN
1070
    73
1070
     1
1070
    44
1040
1.0
1070
    74
1070
     0
1000
MTEXTEND
  0
MTEXT
  5
565B
330
1A
100
AcDbEntity
  8
SUNPOU
100
AcDbMText
 10
96659.41470464833
 20
92157.23580755453
 30
0.0
 40
10.5
 41
0.0
 71
     9
 72
     5
  1

1001
ACAD
1000
MTEXTBEGIN
1070
    73
1070
     1
1070
    44
1040
1.0
1070
    74
1070
     0
1000
MTEXTEND
  0
MTEXT
  5
565C
330
1A
100
AcDbEntity
  8
SUNPOU
100
AcDbMText
 10
82711.41460427234
 20
72984.83666844234
 30
0.0
 40
3.5
 41
0.0
 71
     7
 72
     5
  1

1001
ACAD
1000
MTEXTBEGIN
1070
    73
1070
     1
1070
    44
1040
1.0
1070
    74
1070
     0
1000
MTEXTEND
  0
MTEXT
  5
565D
330
1A
100
AcDbEntity
  8
SUNPOU
100
AcDbMText
 10
63696.58400126548
 20
60746.98539926055
 30
0.0
 40
10.5
 41
0.0
 71
     7
 72
     5
  1

1001
ACAD
1000
MTEXTBEGIN
1070
    73
1070
     1
1070
    44
1040
1.0
1070
    74
1070
     0
1000
MTEXTEND
  0
MTEXT
  5
565E
330
1A
100
AcDbEntity
  8
SUNPOU
100
AcDbMText
 10
51239.35573631738
 20
44902.05382116213
 30
0.0
 40
35.0
 41
0.0
 71
     9
 72
     5
  1

1001
ACAD
1000
MTEXTBEGIN
1070
    73
1070
     1
1070
    44
1040
1.0
1070
    74
1070
     0
1000
MTEXTEND
  0
MTEXT
  5
565F
330
1A
100
AcDbEntity
  8
SUNPOU
100
AcDbMText
 10
50147.84079389233
 20
45510.82923121084
 30
0.0
 40
350.0000004171781
 41
0.0
 71
     7
 72
     5
  1

1001
ACAD
1000
MTEXTBEGIN
1070
    73
1070
     1
1070
    44
1040
1.0
1070
    74
1070
     0
1000
MTEXTEND
  0
MTEXT
  5
5660
330
1A
100
AcDbEntity
  8
0
100
AcDbMText
 10
56191.79155183523
 20
43490.75159334705
 30
0.0
 40
8.0
 41
0.0
 71
     7
 72
     5
  1

1001
ACAD
1000
MTEXTBEGIN
1070
    73
1070
     1
1070
    44
1040
1.0
1070
    74
1070
     0
1000
MTEXTEND
  0
MTEXT
  5
5661
330
1A
100
AcDbEntity
  8
0
100
AcDbMText
 10
58477.14924173013
 20
44461.54188809812
 30
0.0
 40
8.0
 41
0.0
 71
     7
 72
     5
  1

1001
ACAD
1000
MTEXTBEGIN
1070
    73
1070
     1
1070
    44
1040
1.0
1070
    74
1070
     0
1000
MTEXTEND
  0
MTEXT
  5
5662
330
1A
100
AcDbEntity
  8
SUNPOU
100
AcDbMText
 10
61143.04626241227
 20
53973.65328047324
 30
0.0
 40
10.5
 41
0.0
 71
     1
 72
     5
  1

1001
ACAD
1000
MTEXTBEGIN
1070
    73
1070
     1
1070
    44
1040
1.0
1070
    74
1070
     0
1000
MTEXTEND
  0
MTEXT
  5
5663
330
1A
100
AcDbEntity
  8
SUNPOU
100
AcDbMText
 10
53212.12306647634
 20
53026.86014656028
 30
0.0
 40
10.5
 41
0.0
 71
     7
 72
     5
  1

1001
ACAD
1000
MTEXTBEGIN
1070
    73
1070
     1
1070
    44
1040
1.0
1070
    74
1070
     0
1000
MTEXTEND
  0
MTEXT
  5
5664
330
1A
100
AcDbEntity
  8
SUNPOU
100
AcDbMText
 10
56161.1067309891
 20
57927.53621840312
 30
0.0
 40
10.5
 41
0.0
 71
     7
 72
     5
  1

1001
ACAD
1000
MTEXTBEGIN
1070
    73
1070
     1
1070
    44
1040
1.0
1070
    74
1070
     0
1000
MTEXTEND
  0
MTEXT
  5
5665
330
1A
100
AcDbEntity
  8
SUNPOU
100
AcDbMText
 10
60670.18485893966
 20
60363.8369660232
 30
0.0
 40
10.5
 41
0.0
 71
     7
 72
     5
  1

1001
ACAD
1000
MTEXTBEGIN
1070
    73
1070
     1
1070
    44
1040
1.0
1070
    74
1070
     0
1000
MTEXTEND
  0
MTEXT
  5
5666
330
1A
100
AcDbEntity
  8
SUNPOU
100
AcDbMText
 10
44271.02274570799
 20
39361.43311641212
 30
0.0
 40
10.5
 41
0.0
 71
     7
 72
     5
  1

1001
ACAD
1000
MTEXTBEGIN
1070
    73
1070
     1
1070
    44
1040
1.0
1070
    74
1070
     0
1000
MTEXTEND
  0
MTEXT
  5
5667
330
1A
100
AcDbEntity
  8
SUNPOU
100
AcDbMText
 10
95462.54117960824
 20
85034.41368006038
 30
0.0
 40
10.5
 41
0.0
 71
     9
 72
     5
  1

1001
ACAD
1000
MTEXTBEGIN
1070
    73
1070
     1
1070
    44
1040
1.0
1070
    74
1070
     0
1000
MTEXTEND
  0
MTEXT
  5
5668
330
1A
100
AcDbEntity
  8
SUNPOU
100
AcDbMText
 10
104184.7087455262
 20
92450.24821159784
 30
0.0
 40
10.5
 41
0.0
 71
     9
 72
     5
  1

1001
ACAD
1000
MTEXTBEGIN
1070
    73
1070
     1
1070
    44
1040
1.0
1070
    74
1070
     0
1000
MTEXTEND
  0
MTEXT
  5
5669
330
1A
100
AcDbEntity
  8
SUNPOU
100
AcDbMText
 10
123138.4674628562
 20
109916.8242640898
 30
0.0
 40
10.5
 41
0.0
 71
     9
 72
     5
  1

1001
ACAD
1000
MTEXTBEGIN
1070
    73
1070
     1
1070
    44
1040
1.0
1070
    74
1070
     0
1000
MTEXTEND
  0
MTEXT
  5
566A
330
1A
100
AcDbEntity
  8
SUNPOU
100
AcDbMText
 10
125081.8747095656
 20
108115.7751842118
 30
0.0
 40
3.5
 41
0.0
 71
     9
 72
     5
  1

1001
ACAD
1000
MTEXTBEGIN
1070
    73
1070
     1
1070
    44
1040
1.0
1070
    74
1070
     0
1000
MTEXTEND
  0
MTEXT
  5
566B
330
1A
100
AcDbEntity
  8
SUNPOU
100
AcDbMText
 10
156208.0545421853
 20
150610.7208518691
 30
0.0
 40
10.5
 41
0.0
 71
     9
 72
     5
  1

1001
ACAD
1000
MTEXTBEGIN
1070
    73
1070
     1
1070
    44
1040
1.0
1070
    74
1070
     0
1000
MTEXTEND
  0
MTEXT
  5
566C
330
1A
100
AcDbEntity
  8
SUNPOU
100
AcDbMText
 10
158151.4617888947
 20
148809.6717719911
 30
0.0
 40
3.5
 41
0.0
 71
     9
 72
     5
  1

1001
ACAD
1000
MTEXTBEGIN
1070
    73
1070
     1
1070
    44
1040
1.0
1070
    74
1070
     0
1000
MTEXTEND
  0
MTEXT
  5
566D
330
1A
100
AcDbEntity
  8
SUNPOU
100
AcDbMText
 10
106648.3222479809
 20
96443.88600684427
 30
0.0
 40
10.5
 41
0.0
 71
     9
 72
     5
  1

1001
ACAD
1000
MTEXTBEGIN
1070
    73
1070
     1
1070
    44
1040
1.0
1070
    74
1070
     0
1000
MTEXTEND
  0
MTEXT
  5
566E
330
1A
100
AcDbEntity
  8
SUNPOU
100
AcDbMText
 10
92700.3221476049
 20
77271.48686773207
 30
0.0
 40
3.5
 41
0.0
 71
     7
 72
     5
  1

1001
ACAD
1000
MTEXTBEGIN
1070
    73
1070
     1
1070
    44
1040
1.0
1070
    74
1070
     0
1000
MTEXTEND
  0
MTEXT
  5
566F
330
1A
100
AcDbEntity
  8
SUNPOU
100
AcDbMText
 10
73685.49154459806
 20
65033.63559855027
 30
0.0
 40
10.5
 41
0.0
 71
     7
 72
     5
  1

1001
ACAD
1000
MTEXTBEGIN
1070
    73
1070
     1
1070
    44
1040
1.0
1070
    74
1070
     0
1000
MTEXTEND
  0
MTEXT
  5
5670
330
1A
100
AcDbEntity
  8
SUNPOU
100
AcDbMText
 10
61228.26327964995
 20
49188.70402045185
 30
0.0
 40
35.0
 41
0.0
 71
     9
 72
     5
  1

1001
ACAD
1000
MTEXTBEGIN
1070
    73
1070
     1
1070
    44
1040
1.0
1070
    74
1070
     0
1000
MTEXTEND
  0
MTEXT
  5
5671
330
1A
100
AcDbEntity
  8
SUNPOU
100
AcDbMText
 10
60136.74833722491
 20
49797.47943050056
 30
0.0
 40
350.0000004171781
 41
0.0
 71
     7
 72
     5
  1

1001
ACAD
1000
MTEXTBEGIN
1070
    73
1070
     1
1070
    44
1040
1.0
1070
    74
1070
     0
1000
MTEXTEND
  0
MTEXT
  5
5672
330
1A
100
AcDbEntity
  8
0
100
AcDbMText
 10
66180.69909516782
 20
47777.40179263678
 30
0.0
 40
8.0
 41
0.0
 71
     7
 72
     5
  1

1001
ACAD
1000
MTEXTBEGIN
1070
    73
1070
     1
1070
    44
1040
1.0
1070
    74
1070
     0
1000
MTEXTEND
  0
MTEXT
  5
5673
330
1A
100
AcDbEntity
  8
0
100
AcDbMText
 10
68466.05678506271
 20
48748.19208738784
 30
0.0
 40
8.0
 41
0.0
 71
     7
 72
     5
  1

1001
ACAD
1000
MTEXTBEGIN
1070
    73
1070
     1
1070
    44
1040
1.0
1070
    74
1070
     0
1000
MTEXTEND
  0
MTEXT
  5
5674
330
1A
100
AcDbEntity
  8
SUNPOU
100
AcDbMText
 10
71131.95380574485
 20
58260.30347976296
 30
0.0
 40
10.5
 41
0.0
 71
     1
 72
     5
  1

1001
ACAD
1000
MTEXTBEGIN
1070
    73
1070
     1
1070
    44
1040
1.0
1070
    74
1070
     0
1000
MTEXTEND
  0
MTEXT
  5
5675
330
1A
100
AcDbEntity
  8
SUNPOU
100
AcDbMText
 10
63201.03060980891
 20
57313.51034585002
 30
0.0
 40
10.5
 41
0.0
 71
     7
 72
     5
  1

1001
ACAD
1000
MTEXTBEGIN
1070
    73
1070
     1
1070
    44
1040
1.0
1070
    74
1070
     0
1000
MTEXTEND
  0
MTEXT
  5
5676
330
1A
100
AcDbEntity
  8
SUNPOU
100
AcDbMText
 10
66150.01427432169
 20
62214.18641769286
 30
0.0
 40
10.5
 41
0.0
 71
     7
 72
     5
  1

1001
ACAD
1000
MTEXTBEGIN
1070
    73
1070
     1
1070
    44
1040
1.0
1070
    74
1070
     0
1000
MTEXTEND
  0
MTEXT
  5
5677
330
1A
100
AcDbEntity
  8
SUNPOU
100
AcDbMText
 10
70659.09240227225
 20
64650.48716531294
 30
0.0
 40
10.5
 41
0.0
 71
     7
 72
     5
  1

1001
ACAD
1000
MTEXTBEGIN
1070
    73
1070
     1
1070
    44
1040
1.0
1070
    74
1070
     0
1000
MTEXTEND
  0
MTEXT
  5
5678
330
1A
100
AcDbEntity
  8
SUNPOU
100
AcDbMText
 10
54259.93028904056
 20
43648.08331570185
 30
0.0
 40
10.5
 41
0.0
 71
     7
 72
     5
  1

1001
ACAD
1000
MTEXTBEGIN
1070
    73
1070
     1
1070
    44
1040
1.0
1070
    74
1070
     0
1000
MTEXTEND
  0
MTEXT
  5
5679
330
1A
100
AcDbEntity
  8
SUNPOU
100
AcDbMText
 10
56070.69320041551
 20
49975.4973031804
 30
0.0
 40
10.5
 41
0.0
 71
     9
 72
     5
  1

1001
ACAD
1000
MTEXTBEGIN
1070
    73
1070
     1
1070
    44
1040
1.0
1070
    74
1070
     0
1000
MTEXTEND
  0
MTEXT
  5
567A
330
1A
100
AcDbEntity
  8
SUNPOU
100
AcDbMText
 10
64792.86076633348
 20
57391.33183471788
 30
0.0
 40
10.5
 41
0.0
 71
     9
 72
     5
  1

1001
ACAD
1000
MTEXTBEGIN
1070
    73
1070
     1
1070
    44
1040
1.0
1070
    74
1070
     0
1000
MTEXTEND
  0
MTEXT
  5
567B
330
1A
100
AcDbEntity
  8
SUNPOU
100
AcDbMText
 10
83746.61948366345
 20
74857.90788720994
 30
0.0
 40
10.5
 41
0.0
 71
     9
 72
     5
  1

1001
ACAD
1000
MTEXTBEGIN
1070
    73
1070
     1
1070
    44
1040
1.0
1070
    74
1070
     0
1000
MTEXTEND
  0
MTEXT
  5
567C
330
1A
100
AcDbEntity
  8
SUNPOU
100
AcDbMText
 10
85690.02673037287
 20
73056.85880733192
 30
0.0
 40
3.5
 41
0.0
 71
     9
 72
     5
  1

1001
ACAD
1000
MTEXTBEGIN
1070
    73
1070
     1
1070
    44
1040
1.0
1070
    74
1070
     0
1000
MTEXTEND
  0
MTEXT
  5
567D
330
1A
100
AcDbEntity
  8
SUNPOU
100
AcDbMText
 10
116816.2065629925
 20
115551.8044749892
 30
0.0
 40
10.5
 41
0.0
 71
     9
 72
     5
  1

1001
ACAD
1000
MTEXTBEGIN
1070
    73
1070
     1
1070
    44
1040
1.0
1070
    74
1070
     0
1000
MTEXTEND
  0
MTEXT
  5
567E
330
1A
100
AcDbEntity
  8
SUNPOU
100
AcDbMText
 10
118759.613809702
 20
113750.7553951112
 30
0.0
 40
3.5
 41
0.0
 71
     9
 72
     5
  1

1001
ACAD
1000
MTEXTBEGIN
1070
    73
1070
     1
1070
    44
1040
1.0
1070
    74
1070
     0
1000
MTEXTEND
  0
MTEXT
  5
567F
330
1A
100
AcDbEntity
  8
SUNPOU
100
AcDbMText
 10
67256.47426878814
 20
61384.96962996432
 30
0.0
 40
10.5
 41
0.0
 71
     9
 72
     5
  1

1001
ACAD
1000
MTEXTBEGIN
1070
    73
1070
     1
1070
    44
1040
1.0
1070
    74
1070
     0
1000
MTEXTEND
  0
MTEXT
  5
5680
330
1A
100
AcDbEntity
  8
SUNPOU
100
AcDbMText
 10
53308.47416841216
 20
42212.57049085211
 30
0.0
 40
3.5
 41
0.0
 71
     7
 72
     5
  1

1001
ACAD
1000
MTEXTBEGIN
1070
    73
1070
     1
1070
    44
1040
1.0
1070
    74
1070
     0
1000
MTEXTEND
  0
MTEXT
  5
5681
330
1A
100
AcDbEntity
  8
SUNPOU
100
AcDbMText
 10
67000.82485118274
 20
51571.63371187345
 30
0.0
 40
10.5
 41
0.0
 71
     9
 72
     5
  1

1001
ACAD
1000
MTEXTBEGIN
1070
    73
1070
     1
1070
    44
1040
1.0
1070
    74
1070
     0
1000
MTEXTEND
  0
MTEXT
  5
5682
330
1A
100
AcDbEntity
  8
SUNPOU
100
AcDbMText
 10
75722.99241710071
 20
58987.46824341094
 30
0.0
 40
10.5
 41
0.0
 71
     9
 72
     5
  1

1001
ACAD
1000
MTEXTBEGIN
1070
    73
1070
     1
1070
    44
1040
1.0
1070
    74
1070
     0
1000
MTEXTEND
  0
MTEXT
  5
5683
330
1A
100
AcDbEntity
  8
SUNPOU
100
AcDbMText
 10
94676.75113443068
 20
76454.04429590299
 30
0.0
 40
10.5
 41
0.0
 71
     9
 72
     5
  1

1001
ACAD
1000
MTEXTBEGIN
1070
    73
1070
     1
1070
    44
1040
1.0
1070
    74
1070
     0
1000
MTEXTEND
  0
MTEXT
  5
5684
330
1A
100
AcDbEntity
  8
SUNPOU
100
AcDbMText
 10
96620.1583811401
 20
74652.99521602498
 30
0.0
 40
3.5
 41
0.0
 71
     9
 72
     5
  1

1001
ACAD
1000
MTEXTBEGIN
1070
    73
1070
     1
1070
    44
1040
1.0
1070
    74
1070
     0
1000
MTEXTEND
  0
MTEXT
  5
5685
330
1A
100
AcDbEntity
  8
SUNPOU
100
AcDbMText
 10
127746.3382137598
 20
117147.9408836823
 30
0.0
 40
10.5
 41
0.0
 71
     9
 72
     5
  1

1001
ACAD
1000
MTEXTBEGIN
1070
    73
1070
     1
1070
    44
1040
1.0
1070
    74
1070
     0
1000
MTEXTEND
  0
MTEXT
  5
5686
330
1A
100
AcDbEntity
  8
SUNPOU
100
AcDbMText
 10
129689.7454604692
 20
115346.8918038043
 30
0.0
 40
3.5
 41
0.0
 71
     9
 72
     5
  1

1001
ACAD
1000
MTEXTBEGIN
1070
    73
1070
     1
1070
    44
1040
1.0
1070
    74
1070
     0
1000
MTEXTEND
  0
MTEXT
  5
5687
330
1A
100
AcDbEntity
  8
SUNPOU
100
AcDbMText
 10
78186.60591955537
 20
62981.10603865738
 30
0.0
 40
10.5
 41
0.0
 71
     9
 72
     5
  1

1001
ACAD
1000
MTEXTBEGIN
1070
    73
1070
     1
1070
    44
1040
1.0
1070
    74
1070
     0
1000
MTEXTEND
  0
MTEXT
  5
5688
330
1A
100
AcDbEntity
  8
SUNPOU
100
AcDbMText
 10
64238.60581917939
 20
43808.70689954517
 30
0.0
 40
3.5
 41
0.0
 71
     7
 72
     5
  1

1001
ACAD
1000
MTEXTBEGIN
1070
    73
1070
     1
1070
    44
1040
1.0
1070
    74
1070
     0
1000
MTEXTEND
  0
MTEXT
  5
5689
330
1A
100
AcDbEntity
  8
SUNPOU
100
AcDbMText
 10
33428.13481137435
 20
32770.04710035564
 30
0.0
 40
10.5
 41
0.0
 71
     9
 72
     5
  1

1001
ACAD
1000
MTEXTBEGIN
1070
    73
1070
     1
1070
    44
1040
1.0
1070
    74
1070
     0
1000
MTEXTEND
  0
MTEXT
  5
568A
330
1A
100
AcDbEntity
  8
SUNPOU
100
AcDbMText
 10
52381.89352870432
 20
50236.62315284769
 30
0.0
 40
10.5
 41
0.0
 71
     9
 72
     5
  1

1001
ACAD
1000
MTEXTBEGIN
1070
    73
1070
     1
1070
    44
1040
1.0
1070
    74
1070
     0
1000
MTEXTEND
  0
MTEXT
  5
568B
330
1A
100
AcDbEntity
  8
SUNPOU
100
AcDbMText
 10
54325.30077541374
 20
48435.57407296968
 30
0.0
 40
3.5
 41
0.0
 71
     9
 72
     5
  1

1001
ACAD
1000
MTEXTBEGIN
1070
    73
1070
     1
1070
    44
1040
1.0
1070
    74
1070
     0
1000
MTEXTEND
  0
MTEXT
  5
568C
330
1A
100
AcDbEntity
  8
SUNPOU
100
AcDbMText
 10
85451.48060803343
 20
90930.51974062703
 30
0.0
 40
10.5
 41
0.0
 71
     9
 72
     5
  1

1001
ACAD
1000
MTEXTBEGIN
1070
    73
1070
     1
1070
    44
1040
1.0
1070
    74
1070
     0
1000
MTEXTEND
  0
MTEXT
  5
568D
330
1A
100
AcDbEntity
  8
SUNPOU
100
AcDbMText
 10
87394.88785474286
 20
89129.47066074901
 30
0.0
 40
3.5
 41
0.0
 71
     9
 72
     5
  1

1001
ACAD
1000
MTEXTBEGIN
1070
    73
1070
     1
1070
    44
1040
1.0
1070
    74
1070
     0
1000
MTEXTEND
  0
MTEXT
  5
568E
330
1A
100
AcDbEntity
  8
SUNPOU
100
AcDbMText
 10
35891.74831382901
 20
36763.68489560208
 30
0.0
 40
10.5
 41
0.0
 71
     9
 72
     5
  1

1001
ACAD
1000
MTEXTBEGIN
1070
    73
1070
     1
1070
    44
1040
1.0
1070
    74
1070
     0
1000
MTEXTEND
  0
MTEXT
  5
568F
330
1A
100
AcDbEntity
  8
SUNPOU
100
AcDbMText
 10
21943.74821345303
 20
17591.28575648986
 30
0.0
 40
3.5
 41
0.0
 71
     7
 72
     5
  1

1001
ACAD
1000
MTEXTBEGIN
1070
    73
1070
     1
1070
    44
1040
1.0
1070
    74
1070
     0
1000
MTEXTEND
  0
MTEXT
  5
11D07
330
1A
100
AcDbEntity
  8
ZISSEN1
100
AcDbMText
 10
-1676.300388957527
 20
1667.630134923145
 30
0.0
 40
5.0
 41
76.28379999999999
 71
     1
 72
     5
  1
CB-06{\H0.7x;V2}/T　No.SS0001f61
1001
ACAD
1000
MTEXTBEGIN
1070
    73
1070
     1
1070
    44
1040
1.0
1070
    74
1070
     0
1000
MTEXTEND
  0
LINE
  5
12552
330
1A
100
AcDbEntity
  8
ZISSEN1
100
AcDbLine
 10
-1796.999972282874
 20
1728.26004
 30
0.0
 11
-1796.999972282874
 21
1709.02001
 31
0.0
  0
LINE
  5
12553
330
1A
100
AcDbEntity
  8
ZISSEN1
100
AcDbLine
 10
-1788.849978282874
 20
1730.02003
 30
0.0
 11
-1788.849978282874
 21
1709.02001
 31
0.0
  0
LINE
  5
12554
330
1A
100
AcDbEntity
  8
ZISSEN1
100
AcDbLine
 10
-1780.699978282874
 20
1730.02003
 30
0.0
 11
-1780.699978282874
 21
1710.78
 31
0.0
  0
LINE
  5
12555
330
1A
100
AcDbEntity
  8
ZISSEN1
100
AcDbLine
 10
-1780.699978282874
 20
1714.000039999999
 30
0.0
 11
-1780.699978282874
 21
1798.999969999999
 31
0.0
  0
LINE
  5
12556
330
1A
100
AcDbEntity
  8
ZISSEN1
100
AcDbLine
 10
-1767.299968282874
 20
1725.855049999999
 30
0.0
 11
-1767.299968282874
 21
1706.61502
 31
0.0
  0
LINE
  5
12557
330
1A
100
AcDbEntity
  8
ZISSEN1
100
AcDbLine
 10
-1759.149968282874
 20
1727.615039999999
 30
0.0
 11
-1759.149968282874
 21
1706.61502
 31
0.0
  0
LINE
  5
12558
330
1A
100
AcDbEntity
  8
ZISSEN1
100
AcDbLine
 10
-1750.999978282874
 20
1727.615039999999
 30
0.0
 11
-1750.999978282874
 21
1708.37501
 31
0.0
  0
LINE
  5
12559
330
1A
100
AcDbEntity
  8
ZISSEN1
100
AcDbLine
 10
-1768.249968282874
 20
1714.000039999999
 30
0.0
 11
-1768.249968282874
 21
1798.999969999999
 31
0.0
  0
LINE
  5
1255A
330
1A
100
AcDbEntity
  8
ZISSEN1
100
AcDbLine
 10
-1779.749978282874
 20
1714.000039999999
 30
0.0
 11
-1779.749978282874
 21
1798.999969999999
 31
0.0
  0
LINE
  5
1255C
330
1A
100
AcDbEntity
  8
ZISSEN1
100
AcDbLine
 10
-1747.999978282874
 20
1812.29291
 30
0.0
 11
-1747.999978282874
 21
1700.70711
 31
0.0
  0
LINE
  5
1255D
330
1A
100
AcDbEntity
  8
ZISSEN1
100
AcDbLine
 10
-1799.999969282874
 20
1700.70711
 30
0.0
 11
-1799.999969282874
 21
1812.29291
 31
0.0
  0
LINE
  5
1258E
330
1A
100
AcDbEntity
  8
ZISSEN1
100
AcDbLine
 10
-1769.792868282874
 20
1700.0
 30
0.0
 11
-1748.707088282874
 21
1700.0
 31
0.0
  0
LINE
  5
12598
330
1A
100
AcDbEntity
  8
ZISSEN1
100
AcDbLine
 10
-1780.699978282874
 20
1710.78
 30
0.0
 11
-1788.849978282874
 21
1710.78
 31
0.0
  0
LINE
  5
12599
330
1A
100
AcDbEntity
  8
ZISSEN1
100
AcDbLine
 10
-1778.207078282874
 20
1700.0
 30
0.0
 11
-1799.292860282874
 21
1700.0
 31
0.0
  0
LINE
  5
1259A
330
1A
100
AcDbEntity
  8
ZISSEN1
100
AcDbLine
 10
-1799.999969282874
 20
1700.70711
 30
0.0
 11
-1799.292860282874
 21
1700.0
 31
0.0
  0
LINE
  5
1259C
330
1A
100
AcDbEntity
  8
ZISSEN1
100
AcDbLine
 10
-1788.849978282874
 20
1709.02001
 30
0.0
 11
-1796.999972282874
 21
1709.02001
 31
0.0
  0
LINE
  5
1259D
330
1A
100
AcDbEntity
  8
ZISSEN1
100
AcDbLine
 10
-1759.149968282874
 20
1706.61502
 30
0.0
 11
-1767.299968282874
 21
1706.61502
 31
0.0
  0
LINE
  5
1259E
330
1A
100
AcDbEntity
  8
ZISSEN1
100
AcDbLine
 10
-1770.499978282874
 20
1700.70711
 30
0.0
 11
-1770.499978282874
 21
1707.0
 31
0.0
  0
LINE
  5
1259F
330
1A
100
AcDbEntity
  8
ZISSEN1
100
AcDbLine
 10
-1777.499978282874
 20
1700.70711
 30
0.0
 11
-1777.499978282874
 21
1707.0
 31
0.0
  0
LINE
  5
125A0
330
1A
100
AcDbEntity
  8
ZISSEN1
100
AcDbLine
 10
-1775.749978282874
 20
1700.70711
 30
0.0
 11
-1775.749978282874
 21
1707.0
 31
0.0
  0
LINE
  5
125A1
330
1A
100
AcDbEntity
  8
ZISSEN1
100
AcDbLine
 10
-1772.249968282874
 20
1700.70711
 30
0.0
 11
-1772.249968282874
 21
1707.0
 31
0.0
  0
LINE
  5
125A2
330
1A
100
AcDbEntity
  8
ZISSEN1
100
AcDbLine
 10
-1776.457088282874
 20
1700.0
 30
0.0
 11
-1778.207078282874
 21
1700.0
 31
0.0
  0
LINE
  5
125A3
330
1A
100
AcDbEntity
  8
ZISSEN1
100
AcDbLine
 10
-1777.499978282874
 20
1700.70711
 30
0.0
 11
-1778.207078282874
 21
1700.0
 31
0.0
  0
LINE
  5
125A4
330
1A
100
AcDbEntity
  8
ZISSEN1
100
AcDbLine
 10
-1775.749978282874
 20
1700.70711
 30
0.0
 11
-1776.457088282874
 21
1700.0
 31
0.0
  0
LINE
  5
125A5
330
1A
100
AcDbEntity
  8
ZISSEN1
100
AcDbLine
 10
-1769.792868282874
 20
1700.0
 30
0.0
 11
-1771.542858282874
 21
1700.0
 31
0.0
  0
LINE
  5
125A6
330
1A
100
AcDbEntity
  8
ZISSEN1
100
AcDbLine
 10
-1770.499978282874
 20
1700.70711
 30
0.0
 11
-1769.792868282874
 21
1700.0
 31
0.0
  0
LINE
  5
125A7
330
1A
100
AcDbEntity
  8
ZISSEN1
100
AcDbLine
 10
-1771.542858282874
 20
1700.0
 30
0.0
 11
-1772.249968282874
 21
1700.70711
 31
0.0
  0
ARC
  5
125A8
330
1A
100
AcDbEntity
  8
ZISSEN1
100
AcDbCircle
 10
-1773.999978282874
 20
1707.0
 30
0.0
 40
3.499999899999999
100
AcDbArc
 50
0.0
 51
180.0
  0
ARC
  5
125A9
330
1A
100
AcDbEntity
  8
ZISSEN1
100
AcDbCircle
 10
-1773.999978282874
 20
1707.0
 30
0.0
 40
1.749999899999999
100
AcDbArc
 50
0.0
 51
187.7448700000042
  0
LINE
  5
125AA
330
1A
100
AcDbEntity
  8
ZISSEN1
100
AcDbLine
 10
-1779.749978282874
 20
1714.000039999999
 30
0.0
 11
-1776.10717357482
 21
1714.000039999999
 31
0.0
  0
LINE
  5
125AB
330
1A
100
AcDbEntity
  8
CL1
100
AcDbLine
 10
-1770.999978282874
 20
1706.5
 30
0.0
 11
-1776.999968282874
 21
1706.5
 31
0.0
  0
LINE
  5
125AC
330
1A
100
AcDbEntity
  8
CL1
100
AcDbLine
 10
-1773.999978282874
 20
1704.0
 30
0.0
 11
-1773.999978282874
 21
1709.5
 31
0.0
  0
LINE
  5
125AE
330
1A
100
AcDbEntity
  8
ZISSEN1
100
AcDbLine
 10
-1750.999978282874
 20
1708.37501
 30
0.0
 11
-1759.149968282874
 21
1708.37501
 31
0.0
  0
LINE
  5
125AF
330
1A
100
AcDbEntity
  8
ZISSEN1
100
AcDbLine
 10
-1748.707088282874
 20
1700.0
 30
0.0
 11
-1747.999978282874
 21
1700.70711
 31
0.0
  0
LINE
  5
125B2
330
1A
100
AcDbEntity
  8
ZISSEN1
100
AcDbLine
 10
-1770.499978282874
 20
1812.29291
 30
0.0
 11
-1770.499978282874
 21
1806.00002
 31
0.0
  0
LINE
  5
125B3
330
1A
100
AcDbEntity
  8
ZISSEN1
100
AcDbLine
 10
-1777.499978282874
 20
1812.29291
 30
0.0
 11
-1777.499978282874
 21
1806.00002
 31
0.0
  0
LINE
  5
125B4
330
1A
100
AcDbEntity
  8
ZISSEN1
100
AcDbLine
 10
-1772.249968282874
 20
1812.29291
 30
0.0
 11
-1772.249968282874
 21
1806.00002
 31
0.0
  0
LINE
  5
125B5
330
1A
100
AcDbEntity
  8
ZISSEN1
100
AcDbLine
 10
-1775.749978282874
 20
1812.29291
 30
0.0
 11
-1775.749978282874
 21
1806.00002
 31
0.0
  0
LINE
  5
125B6
330
1A
100
AcDbEntity
  8
CL1
100
AcDbLine
 10
-1773.999978282874
 20
1803.50001
 30
0.0
 11
-1773.999978282874
 21
1809.500029999999
 31
0.0
  0
LINE
  5
125B7
330
1A
100
AcDbEntity
  8
ZISSEN1
100
AcDbLine
 10
-1796.999972282874
 20
1766.7401
 30
0.0
 11
-1796.999972282874
 21
1747.50007
 31
0.0
  0
LINE
  5
125B8
330
1A
100
AcDbEntity
  8
ZISSEN1
100
AcDbLine
 10
-1788.849978282874
 20
1768.50009
 30
0.0
 11
-1788.849978282874
 21
1747.50007
 31
0.0
  0
LINE
  5
125B9
330
1A
100
AcDbEntity
  8
ZISSEN1
100
AcDbLine
 10
-1780.699978282874
 20
1768.50009
 30
0.0
 11
-1780.699978282874
 21
1749.26006
 31
0.0
  0
LINE
  5
125BA
330
1A
100
AcDbEntity
  8
ZISSEN1
100
AcDbLine
 10
-1767.299968282874
 20
1764.33511
 30
0.0
 11
-1767.299968282874
 21
1745.09508
 31
0.0
  0
LINE
  5
125BB
330
1A
100
AcDbEntity
  8
ZISSEN1
100
AcDbLine
 10
-1759.149968282874
 20
1766.0951
 30
0.0
 11
-1759.149968282874
 21
1745.09508
 31
0.0
  0
LINE
  5
125BC
330
1A
100
AcDbEntity
  8
ZISSEN1
100
AcDbLine
 10
-1750.999978282874
 20
1766.0951
 30
0.0
 11
-1750.999978282874
 21
1746.855069999999
 31
0.0
  0
LINE
  5
125BD
330
1A
100
AcDbEntity
  8
ZISSEN1
100
AcDbLine
 10
-1780.699978282874
 20
1749.26006
 30
0.0
 11
-1788.849978282874
 21
1749.26006
 31
0.0
  0
LINE
  5
125BE
330
1A
100
AcDbEntity
  8
ZISSEN1
100
AcDbLine
 10
-1780.699978282874
 20
1749.26006
 30
0.0
 11
-1788.849978282874
 21
1749.26006
 31
0.0
  0
LINE
  5
125BF
330
1A
100
AcDbEntity
  8
ZISSEN1
100
AcDbLine
 10
-1780.699978282874
 20
1730.02003
 30
0.0
 11
-1788.849978282874
 21
1730.02003
 31
0.0
  0
LINE
  5
125C0
330
1A
100
AcDbEntity
  8
ZISSEN1
100
AcDbLine
 10
-1780.699978282874
 20
1730.02003
 30
0.0
 11
-1788.849978282874
 21
1730.02003
 31
0.0
  0
LINE
  5
125C1
330
1A
100
AcDbEntity
  8
ZISSEN1
100
AcDbLine
 10
-1796.999972282874
 20
1747.50007
 30
0.0
 11
-1796.999972282874
 21
1728.26004
 31
0.0
  0
LINE
  5
125C2
330
1A
100
AcDbEntity
  8
ZISSEN1
100
AcDbLine
 10
-1788.849978282874
 20
1749.26006
 30
0.0
 11
-1788.849978282874
 21
1728.26004
 31
0.0
  0
LINE
  5
125C3
330
1A
100
AcDbEntity
  8
ZISSEN1
100
AcDbLine
 10
-1788.849978282874
 20
1728.26004
 30
0.0
 11
-1796.999972282874
 21
1728.26004
 31
0.0
  0
LINE
  5
125C4
330
1A
100
AcDbEntity
  8
ZISSEN1
100
AcDbLine
 10
-1788.849978282874
 20
1728.26004
 30
0.0
 11
-1796.999972282874
 21
1728.26004
 31
0.0
  0
LINE
  5
125C5
330
1A
100
AcDbEntity
  8
ZISSEN1
100
AcDbLine
 10
-1788.849978282874
 20
1747.50007
 30
0.0
 11
-1796.999972282874
 21
1747.50007
 31
0.0
  0
LINE
  5
125C6
330
1A
100
AcDbEntity
  8
ZISSEN1
100
AcDbLine
 10
-1788.849978282874
 20
1747.50007
 30
0.0
 11
-1796.999972282874
 21
1747.50007
 31
0.0
  0
LINE
  5
125C7
330
1A
100
AcDbEntity
  8
ZISSEN1
100
AcDbLine
 10
-1780.699978282874
 20
1749.26006
 30
0.0
 11
-1780.699978282874
 21
1730.02003
 31
0.0
  0
LINE
  5
125C8
330
1A
100
AcDbEntity
  8
ZISSEN1
100
AcDbLine
 10
-1767.299968282874
 20
1745.09508
 30
0.0
 11
-1767.299968282874
 21
1725.855049999999
 31
0.0
  0
LINE
  5
125C9
330
1A
100
AcDbEntity
  8
ZISSEN1
100
AcDbLine
 10
-1759.149968282874
 20
1746.855069999999
 30
0.0
 11
-1759.149968282874
 21
1725.855049999999
 31
0.0
  0
LINE
  5
125CA
330
1A
100
AcDbEntity
  8
ZISSEN1
100
AcDbLine
 10
-1750.999978282874
 20
1746.855069999999
 30
0.0
 11
-1750.999978282874
 21
1727.615039999999
 31
0.0
  0
LINE
  5
125CB
330
1A
100
AcDbEntity
  8
ZISSEN1
100
AcDbLine
 10
-1759.149968282874
 20
1725.855049999999
 30
0.0
 11
-1767.299968282874
 21
1725.855049999999
 31
0.0
  0
LINE
  5
125CC
330
1A
100
AcDbEntity
  8
ZISSEN1
100
AcDbLine
 10
-1759.149968282874
 20
1725.855049999999
 30
0.0
 11
-1767.299968282874
 21
1725.855049999999
 31
0.0
  0
LINE
  5
125CD
330
1A
100
AcDbEntity
  8
ZISSEN1
100
AcDbLine
 10
-1768.249968282874
 20
1726.5
 30
0.0
 11
-1779.749978282874
 21
1726.5
 31
0.0
  0
LINE
  5
125CE
330
1A
100
AcDbEntity
  8
ZISSEN1
100
AcDbLine
 10
-1750.999978282874
 20
1727.615039999999
 30
0.0
 11
-1759.149968282874
 21
1727.615039999999
 31
0.0
  0
LINE
  5
125CF
330
1A
100
AcDbEntity
  8
ZISSEN1
100
AcDbLine
 10
-1750.999978282874
 20
1727.615039999999
 30
0.0
 11
-1759.149968282874
 21
1727.615039999999
 31
0.0
  0
LINE
  5
125D0
330
1A
100
AcDbEntity
  8
ZISSEN1
100
AcDbLine
 10
-1759.149968282874
 20
1745.09508
 30
0.0
 11
-1767.299968282874
 21
1745.09508
 31
0.0
  0
LINE
  5
125D1
330
1A
100
AcDbEntity
  8
ZISSEN1
100
AcDbLine
 10
-1750.999978282874
 20
1746.855069999999
 30
0.0
 11
-1759.149968282874
 21
1746.855069999999
 31
0.0
  0
LINE
  5
125D2
330
1A
100
AcDbEntity
  8
ZISSEN1
100
AcDbLine
 10
-1750.999978282874
 20
1746.855069999999
 30
0.0
 11
-1759.149968282874
 21
1746.855069999999
 31
0.0
  0
LINE
  5
125D3
330
1A
100
AcDbEntity
  8
ZISSEN1
100
AcDbLine
 10
-1780.699978282874
 20
1806.98015
 30
0.0
 11
-1788.849978282874
 21
1806.98015
 31
0.0
  0
LINE
  5
125D4
330
1A
100
AcDbEntity
  8
ZISSEN1
100
AcDbLine
 10
-1780.699978282874
 20
1787.74012
 30
0.0
 11
-1788.849978282874
 21
1787.74012
 31
0.0
  0
LINE
  5
125D5
330
1A
100
AcDbEntity
  8
ZISSEN1
100
AcDbLine
 10
-1780.699978282874
 20
1787.74012
 30
0.0
 11
-1788.849978282874
 21
1787.74012
 31
0.0
  0
LINE
  5
125D6
330
1A
100
AcDbEntity
  8
ZISSEN1
100
AcDbLine
 10
-1780.699978282874
 20
1768.50009
 30
0.0
 11
-1788.849978282874
 21
1768.50009
 31
0.0
  0
LINE
  5
125D7
330
1A
100
AcDbEntity
  8
ZISSEN1
100
AcDbLine
 10
-1780.699978282874
 20
1768.50009
 30
0.0
 11
-1788.849978282874
 21
1768.50009
 31
0.0
  0
LINE
  5
125D8
330
1A
100
AcDbEntity
  8
ZISSEN1
100
AcDbLine
 10
-1796.999972282874
 20
1785.98013
 30
0.0
 11
-1796.999972282874
 21
1766.7401
 31
0.0
  0
LINE
  5
125D9
330
1A
100
AcDbEntity
  8
ZISSEN1
100
AcDbLine
 10
-1788.849978282874
 20
1787.74012
 30
0.0
 11
-1788.849978282874
 21
1766.7401
 31
0.0
  0
LINE
  5
125DA
330
1A
100
AcDbEntity
  8
ZISSEN1
100
AcDbLine
 10
-1788.849978282874
 20
1766.7401
 30
0.0
 11
-1796.999972282874
 21
1766.7401
 31
0.0
  0
LINE
  5
125DB
330
1A
100
AcDbEntity
  8
ZISSEN1
100
AcDbLine
 10
-1788.849978282874
 20
1766.7401
 30
0.0
 11
-1796.999972282874
 21
1766.7401
 31
0.0
  0
LINE
  5
125DC
330
1A
100
AcDbEntity
  8
ZISSEN1
100
AcDbLine
 10
-1796.999972282874
 20
1805.22016
 30
0.0
 11
-1796.999972282874
 21
1785.98013
 31
0.0
  0
LINE
  5
125DD
330
1A
100
AcDbEntity
  8
ZISSEN1
100
AcDbLine
 10
-1788.849978282874
 20
1806.98015
 30
0.0
 11
-1788.849978282874
 21
1785.98013
 31
0.0
  0
LINE
  5
125DE
330
1A
100
AcDbEntity
  8
ZISSEN1
100
AcDbLine
 10
-1788.849978282874
 20
1785.98013
 30
0.0
 11
-1796.999972282874
 21
1785.98013
 31
0.0
  0
LINE
  5
125DF
330
1A
100
AcDbEntity
  8
ZISSEN1
100
AcDbLine
 10
-1788.849978282874
 20
1785.98013
 30
0.0
 11
-1796.999972282874
 21
1785.98013
 31
0.0
  0
LINE
  5
125E0
330
1A
100
AcDbEntity
  8
ZISSEN1
100
AcDbLine
 10
-1788.849978282874
 20
1805.22016
 30
0.0
 11
-1796.999972282874
 21
1805.22016
 31
0.0
  0
LINE
  5
125E1
330
1A
100
AcDbEntity
  8
ZISSEN1
100
AcDbLine
 10
-1780.699978282874
 20
1787.74012
 30
0.0
 11
-1780.699978282874
 21
1768.50009
 31
0.0
  0
LINE
  5
125E2
330
1A
100
AcDbEntity
  8
ZISSEN1
100
AcDbLine
 10
-1767.299968282874
 20
1802.815169999999
 30
0.0
 11
-1767.299968282874
 21
1783.575139999999
 31
0.0
  0
LINE
  5
125E3
330
1A
100
AcDbEntity
  8
ZISSEN1
100
AcDbLine
 10
-1759.149968282874
 20
1804.575159999999
 30
0.0
 11
-1759.149968282874
 21
1783.575139999999
 31
0.0
  0
LINE
  5
125E4
330
1A
100
AcDbEntity
  8
ZISSEN1
100
AcDbLine
 10
-1759.149968282874
 20
1785.335129999999
 30
0.0
 11
-1759.149968282874
 21
1764.33511
 31
0.0
  0
LINE
  5
125E5
330
1A
100
AcDbEntity
  8
ZISSEN1
100
AcDbLine
 10
-1750.999978282874
 20
1785.335129999999
 30
0.0
 11
-1750.999978282874
 21
1766.0951
 31
0.0
  0
LINE
  5
125E6
330
1A
100
AcDbEntity
  8
ZISSEN1
100
AcDbLine
 10
-1759.149968282874
 20
1783.575139999999
 30
0.0
 11
-1767.299968282874
 21
1783.575139999999
 31
0.0
  0
LINE
  5
125E7
330
1A
100
AcDbEntity
  8
ZISSEN1
100
AcDbLine
 10
-1759.149968282874
 20
1783.575139999999
 30
0.0
 11
-1767.299968282874
 21
1783.575139999999
 31
0.0
  0
LINE
  5
125E8
330
1A
100
AcDbEntity
  8
ZISSEN1
100
AcDbLine
 10
-1759.149968282874
 20
1764.33511
 30
0.0
 11
-1767.299968282874
 21
1764.33511
 31
0.0
  0
LINE
  5
125E9
330
1A
100
AcDbEntity
  8
ZISSEN1
100
AcDbLine
 10
-1759.149968282874
 20
1764.33511
 30
0.0
 11
-1767.299968282874
 21
1764.33511
 31
0.0
  0
LINE
  5
125EA
330
1A
100
AcDbEntity
  8
ZISSEN1
100
AcDbLine
 10
-1767.299968282874
 20
1783.575139999999
 30
0.0
 11
-1767.299968282874
 21
1764.33511
 31
0.0
  0
LINE
  5
125EB
330
1A
100
AcDbEntity
  8
ZISSEN1
100
AcDbLine
 10
-1750.999978282874
 20
1766.0951
 30
0.0
 11
-1759.149968282874
 21
1766.0951
 31
0.0
  0
LINE
  5
125EC
330
1A
100
AcDbEntity
  8
ZISSEN1
100
AcDbLine
 10
-1750.999978282874
 20
1766.0951
 30
0.0
 11
-1759.149968282874
 21
1766.0951
 31
0.0
  0
LINE
  5
125ED
330
1A
100
AcDbEntity
  8
ZISSEN1
100
AcDbLine
 10
-1759.149968282874
 20
1802.815169999999
 30
0.0
 11
-1767.299968282874
 21
1802.815169999999
 31
0.0
  0
LINE
  5
125EF
330
1A
100
AcDbEntity
  8
ZISSEN1
100
AcDbLine
 10
-1780.699978282874
 20
1806.98015
 30
0.0
 11
-1780.699978282874
 21
1787.74012
 31
0.0
  0
LINE
  5
125F0
330
1A
100
AcDbEntity
  8
ZISSEN1
100
AcDbLine
 10
-1768.249968282874
 20
1786.5
 30
0.0
 11
-1779.749978282874
 21
1786.5
 31
0.0
  0
ARC
  5
125F1
330
1A
100
AcDbEntity
  8
ZISSEN1
100
AcDbCircle
 10
-1773.999978282874
 20
1806.00002
 30
0.0
 40
3.499999899999999
100
AcDbArc
 50
180.0
 51
0.0
  0
ARC
  5
125F2
330
1A
100
AcDbEntity
  8
ZISSEN1
100
AcDbCircle
 10
-1773.999978282874
 20
1806.00002
 30
0.0
 40
1.749999899999999
100
AcDbArc
 50
180.0
 51
0.0
  0
LINE
  5
125F3
330
1A
100
AcDbEntity
  8
ZISSEN1
100
AcDbLine
 10
-1779.749978282874
 20
1798.999969999999
 30
0.0
 11
-1776.107157439733
 21
1798.999969999999
 31
0.0
  0
LINE
  5
125F4
330
1A
100
AcDbEntity
  8
CL1
100
AcDbLine
 10
-1776.999968282874
 20
1806.50002
 30
0.0
 11
-1770.999978282874
 21
1806.50002
 31
0.0
  0
LINE
  5
125F5
330
1A
100
AcDbEntity
  8
ZISSEN1
100
AcDbLine
 10
-1750.999978282874
 20
1804.575159999999
 30
0.0
 11
-1750.999978282874
 21
1785.335129999999
 31
0.0
  0
LINE
  5
125F6
330
1A
100
AcDbEntity
  8
ZISSEN1
100
AcDbLine
 10
-1750.999978282874
 20
1785.335129999999
 30
0.0
 11
-1759.149968282874
 21
1785.335129999999
 31
0.0
  0
LINE
  5
125F7
330
1A
100
AcDbEntity
  8
ZISSEN1
100
AcDbLine
 10
-1750.999978282874
 20
1785.335129999999
 30
0.0
 11
-1759.149968282874
 21
1785.335129999999
 31
0.0
  0
LINE
  5
125F8
330
1A
100
AcDbEntity
  8
ZISSEN1
100
AcDbLine
 10
-1750.999978282874
 20
1804.575159999999
 30
0.0
 11
-1759.149968282874
 21
1804.575159999999
 31
0.0
  0
LINE
  5
125FB
330
1A
100
AcDbEntity
  8
ZISSEN1
100
AcDbLine
 10
-1769.792868282874
 20
1813.00002
 30
0.0
 11
-1748.707088282874
 21
1813.00002
 31
0.0
  0
LINE
  5
125FC
330
1A
100
AcDbEntity
  8
ZISSEN1
100
AcDbLine
 10
-1778.207078282874
 20
1813.00002
 30
0.0
 11
-1799.292860282874
 21
1813.00002
 31
0.0
  0
LINE
  5
125FD
330
1A
100
AcDbEntity
  8
ZISSEN1
100
AcDbLine
 10
-1799.999969282874
 20
1812.29291
 30
0.0
 11
-1799.292860282874
 21
1813.00002
 31
0.0
  0
LINE
  5
125FE
330
1A
100
AcDbEntity
  8
ZISSEN1
100
AcDbLine
 10
-1778.207078282874
 20
1813.00002
 30
0.0
 11
-1776.457088282874
 21
1813.00002
 31
0.0
  0
LINE
  5
125FF
330
1A
100
AcDbEntity
  8
ZISSEN1
100
AcDbLine
 10
-1778.207078282874
 20
1813.00002
 30
0.0
 11
-1777.499978282874
 21
1812.29291
 31
0.0
  0
LINE
  5
12600
330
1A
100
AcDbEntity
  8
ZISSEN1
100
AcDbLine
 10
-1776.457088282874
 20
1813.00002
 30
0.0
 11
-1775.749978282874
 21
1812.29291
 31
0.0
  0
LINE
  5
12601
330
1A
100
AcDbEntity
  8
ZISSEN1
100
AcDbLine
 10
-1771.542858282874
 20
1813.00002
 30
0.0
 11
-1769.792868282874
 21
1813.00002
 31
0.0
  0
LINE
  5
12602
330
1A
100
AcDbEntity
  8
ZISSEN1
100
AcDbLine
 10
-1770.499978282874
 20
1812.29291
 30
0.0
 11
-1769.792868282874
 21
1813.00002
 31
0.0
  0
LINE
  5
12603
330
1A
100
AcDbEntity
  8
ZISSEN1
100
AcDbLine
 10
-1772.249968282874
 20
1812.29291
 30
0.0
 11
-1771.542858282874
 21
1813.00002
 31
0.0
  0
LINE
  5
12604
330
1A
100
AcDbEntity
  8
ZISSEN1
100
AcDbLine
 10
-1747.999978282874
 20
1812.29291
 30
0.0
 11
-1748.707088282874
 21
1813.00002
 31
0.0
  0
LINE
  5
12605
330
1A
100
AcDbEntity
  8
ZISSEN1
100
AcDbLine
 10
-1645.95136
 20
1706.77027
 30
0.0
 11
-1645.95136
 21
1803.315169999999
 31
0.0
  0
LINE
  5
12606
330
1A
100
AcDbEntity
  8
ZISSEN1
100
AcDbLine
 10
-1638.1
 20
1805.075159999999
 30
0.0
 11
-1638.1
 21
1708.875009999999
 31
0.0
  0
LINE
  5
12607
330
1A
100
AcDbEntity
  8
ZISSEN1
100
AcDbLine
 10
-1629.6
 20
1714.000039999999
 30
0.0
 11
-1629.6
 21
1798.999969999999
 31
0.0
  0
LINE
  5
1260A
330
1A
100
AcDbEntity
  8
ZISSEN1
100
AcDbLine
 10
-1620.0
 20
1813.00002
 30
0.0
 11
-1620.0
 21
1700.0
 31
0.0
  0
LINE
  5
1260B
330
1A
100
AcDbEntity
  8
ZISSEN1
100
AcDbLine
 10
-1622.00001
 20
1813.00002
 30
0.0
 11
-1622.00001
 21
1700.0
 31
0.0
  0
LINE
  5
1260C
330
1A
100
AcDbEntity
  8
ZISSEN1
100
AcDbLine
 10
-1628.0
 20
1813.00002
 30
0.0
 11
-1628.0
 21
1700.0
 31
0.0
  0
LINE
  5
1260D
330
1A
100
AcDbEntity
  8
ZISSEN1
100
AcDbLine
 10
-1629.6
 20
1813.00002
 30
0.0
 11
-1629.6
 21
1700.0
 31
0.0
  0
LINE
  5
1260E
330
1A
100
AcDbEntity
  8
ZISSEN1
100
AcDbLine
 10
-1645.95136
 20
1706.77027
 30
0.0
 11
-1629.6
 21
1706.77027
 31
0.0
  0
LINE
  5
12612
330
1A
100
AcDbEntity
  8
ZISSEN1
100
AcDbLine
 10
-1622.00001
 20
1700.70711
 30
0.0
 11
-1620.0
 21
1700.70711
 31
0.0
  0
LINE
  5
12613
330
1A
100
AcDbEntity
  8
CL1
100
AcDbLine
 10
-1626.60001
 20
1706.5
 30
0.0
 11
-1618.59998
 21
1706.5
 31
0.0
  0
LINE
  5
12614
330
1A
100
AcDbEntity
  8
ZISSEN1
100
AcDbLine
 10
-1622.00001
 20
1700.0
 30
0.0
 11
-1620.0
 21
1700.0
 31
0.0
  0
LINE
  5
12615
330
1A
100
AcDbEntity
  8
ZISSEN1
100
AcDbLine
 10
-1628.0
 20
1701.50001
 30
0.0
 11
-1622.00001
 21
1701.50001
 31
0.0
  0
LINE
  5
12616
330
1A
100
AcDbEntity
  8
ZISSEN1
100
AcDbLine
 10
-1629.6
 20
1700.70711
 30
0.0
 11
-1628.0
 21
1700.70711
 31
0.0
  0
LINE
  5
12617
330
1A
100
AcDbEntity
  8
ZISSEN1
100
AcDbLine
 10
-1629.6
 20
1700.0
 30
0.0
 11
-1628.0
 21
1700.0
 31
0.0
  0
LINE
  5
12618
330
1A
100
AcDbEntity
  8
ZISSEN1
100
AcDbLine
 10
-1638.1
 20
1708.875009999999
 30
0.0
 11
-1629.6
 21
1708.875009999999
 31
0.0
  0
LINE
  5
12619
330
1A
100
AcDbEntity
  8
ZISSEN1
100
AcDbLine
 10
-1628.0
 20
1706.5
 30
0.0
 11
-1622.00001
 21
1706.5
 31
0.0
  0
LINE
  5
1261A
330
1A
100
AcDbEntity
  8
ZISSEN1
100
AcDbLine
 10
-1638.1
 20
1726.35505
 30
0.0
 11
-1645.95136
 21
1726.35505
 31
0.0
  0
LINE
  5
1261B
330
1A
100
AcDbEntity
  8
ZISSEN1
100
AcDbLine
 10
-1638.1
 20
1745.59508
 30
0.0
 11
-1645.95136
 21
1745.59508
 31
0.0
  0
LINE
  5
1261D
330
1A
100
AcDbEntity
  8
ZISSEN1
100
AcDbLine
 10
-1638.1
 20
1728.115039999999
 30
0.0
 11
-1629.6
 21
1728.115039999999
 31
0.0
  0
LINE
  5
1261E
330
1A
100
AcDbEntity
  8
ZISSEN1
100
AcDbLine
 10
-1638.1
 20
1747.35507
 30
0.0
 11
-1629.6
 21
1747.35507
 31
0.0
  0
LINE
  5
1261F
330
1A
100
AcDbEntity
  8
ZISSEN1
100
AcDbLine
 10
-1638.1
 20
1764.835109999999
 30
0.0
 11
-1645.95136
 21
1764.835109999999
 31
0.0
  0
LINE
  5
12620
330
1A
100
AcDbEntity
  8
ZISSEN1
100
AcDbLine
 10
-1638.1
 20
1784.075139999999
 30
0.0
 11
-1645.95136
 21
1784.075139999999
 31
0.0
  0
LINE
  5
12621
330
1A
100
AcDbEntity
  8
ZISSEN1
100
AcDbLine
 10
-1646.00001
 20
1806.98015
 30
0.0
 11
-1629.6
 21
1806.98015
 31
0.0
  0
LINE
  5
12628
330
1A
100
AcDbEntity
  8
ZISSEN1
100
AcDbLine
 10
-1646.00001
 20
1803.315169999999
 30
0.0
 11
-1638.45136
 21
1803.315169999999
 31
0.0
  0
LINE
  5
12629
330
1A
100
AcDbEntity
  8
ZISSEN1
100
AcDbLine
 10
-1646.00001
 20
1803.315169999999
 30
0.0
 11
-1646.00001
 21
1806.98015
 31
0.0
  0
LINE
  5
1262A
330
1A
100
AcDbEntity
  8
ZISSEN1
100
AcDbLine
 10
-1638.1
 20
1766.595099999999
 30
0.0
 11
-1629.6
 21
1766.595099999999
 31
0.0
  0
LINE
  5
1262B
330
1A
100
AcDbEntity
  8
CL1
100
AcDbLine
 10
-1626.60001
 20
1806.50002
 30
0.0
 11
-1618.59998
 21
1806.50002
 31
0.0
  0
LINE
  5
1262C
330
1A
100
AcDbEntity
  8
ZISSEN1
100
AcDbLine
 10
-1638.1
 20
1785.835129999999
 30
0.0
 11
-1629.6
 21
1785.835129999999
 31
0.0
  0
LINE
  5
1262D
330
1A
100
AcDbEntity
  8
ZISSEN1
100
AcDbLine
 10
-1638.1
 20
1805.075159999999
 30
0.0
 11
-1629.6
 21
1805.075159999999
 31
0.0
  0
LINE
  5
1262E
330
1A
100
AcDbEntity
  8
ZISSEN1
100
AcDbLine
 10
-1628.0
 20
1806.50002
 30
0.0
 11
-1622.00001
 21
1806.50002
 31
0.0
  0
LINE
  5
1262F
330
1A
100
AcDbEntity
  8
ZISSEN1
100
AcDbLine
 10
-1622.00001
 20
1812.292929999999
 30
0.0
 11
-1620.0
 21
1812.292929999999
 31
0.0
  0
LINE
  5
12630
330
1A
100
AcDbEntity
  8
ZISSEN1
100
AcDbLine
 10
-1622.00001
 20
1813.00002
 30
0.0
 11
-1620.0
 21
1813.00002
 31
0.0
  0
LINE
  5
12631
330
1A
100
AcDbEntity
  8
ZISSEN1
100
AcDbLine
 10
-1628.0
 20
1811.50004
 30
0.0
 11
-1622.00001
 21
1811.50004
 31
0.0
  0
LINE
  5
12632
330
1A
100
AcDbEntity
  8
ZISSEN1
100
AcDbLine
 10
-1629.6
 20
1812.29291
 30
0.0
 11
-1628.0
 21
1812.29291
 31
0.0
  0
LINE
  5
12633
330
1A
100
AcDbEntity
  8
ZISSEN1
100
AcDbLine
 10
-1629.6
 20
1813.00002
 30
0.0
 11
-1628.0
 21
1813.00002
 31
0.0
  0
DIMENSION
  5
1264E
330
1A
100
AcDbEntity
  8
SUNPOU
100
AcDbDimension
  2
*D0
 10
-1811.103832788583
 20
1706.5
 30
0.0
 11
-1813.853832788583
 21
1756.500009999999
 31
0.0
 70
    32
  3
標準スタイル
100
AcDbAlignedDimension
 13
-1777.499978282874
 23
1806.50002
 33
0.0
 14
-1777.499978282874
 24
1706.5
 34
0.0
 50
90.0
100
AcDbRotatedDimension
1001
ACAD
1000
DSTYLE
1002
{
1070
   340
1005
10
1070
    40
1040
1.0
1002
}
  0
DIMENSION
  5
1265B
330
1A
100
AcDbEntity
  8
SUNPOU
100
AcDbDimension
  2
*D1
 10
-1772.249968282874
 20
1689.985070131418
 30
0.0
 11
-1761.749968282874
 21
1692.735070131418
 31
0.0
 70
    32
  3
標準スタイル
100
AcDbAlignedDimension
 13
-1775.749978282874
 23
1700.70711
 33
0.0
 14
-1772.249968282874
 24
1700.70711
 34
0.0
100
AcDbRotatedDimension
1001
ACAD
1000
DSTYLE
1002
{
1070
   340
1005
10
1070
    40
1040
1.0
1002
}
  0
LINE
  5
12A72
330
1A
100
AcDbEntity
  8
ZISSEN1
  6
CONTINUOUS
 62
     7
100
AcDbLine
 10
-1768.231383606343
 20
1628.599985
 30
0.0
 11
-1779.731393606343
 21
1628.599985
 31
0.0
  0
LINE
  5
12A73
330
1A
100
AcDbEntity
  8
ZISSEN1
  6
CONTINUOUS
 62
     7
100
AcDbLine
 10
-1768.231383606343
 20
1606.699987
 30
0.0
 11
-1779.731393606343
 21
1606.699987
 31
0.0
  0
LINE
  5
12A74
330
1A
100
AcDbEntity
  8
ZISSEN1
  6
CONTINUOUS
 62
     7
100
AcDbLine
 10
-1768.231383606343
 20
1600.600002
 30
0.0
 11
-1779.731393606343
 21
1600.600002
 31
0.0
  0
LINE
  5
12A75
330
1A
100
AcDbEntity
  8
ZISSEN1
  6
CONTINUOUS
 62
     7
100
AcDbLine
 10
-1799.981390606343
 20
1600.600002
 30
0.0
 11
-1747.981403606343
 21
1600.600002
 31
0.0
  0
LINE
  5
12A76
330
1A
100
AcDbEntity
  8
ZISSEN1
  6
CONTINUOUS
 62
     7
100
AcDbLine
 10
-1799.981390606343
 20
1599.0
 30
0.0
 11
-1747.981403606343
 21
1599.0
 31
0.0
  0
LINE
  5
12A77
330
1A
100
AcDbEntity
  8
ZISSEN1
  6
CONTINUOUS
 62
     7
100
AcDbLine
 10
-1799.981390606343
 20
1592.999999
 30
0.0
 11
-1747.981403606343
 21
1592.999999
 31
0.0
  0
LINE
  5
12A78
330
1A
100
AcDbEntity
  8
ZISSEN1
  6
CONTINUOUS
 62
     7
100
AcDbLine
 10
-1799.981390606343
 20
1590.999999
 30
0.0
 11
-1747.981403606343
 21
1590.999999
 31
0.0
  0
LINE
  5
12A79
330
1A
100
AcDbEntity
  8
ZISSEN1
  6
CONTINUOUS
 62
     7
100
AcDbLine
 10
-1790.981403606343
 20
1592.999999
 30
0.0
 11
-1790.981403606343
 21
1599.0
 31
0.0
  0
LINE
  5
12A7A
330
1A
100
AcDbEntity
  8
ZISSEN1
  6
CONTINUOUS
 62
     7
100
AcDbLine
 10
-1796.981381606343
 20
1592.999999
 30
0.0
 11
-1796.981381606343
 21
1599.0
 31
0.0
  0
LINE
  5
12A7B
330
1A
100
AcDbEntity
  8
ZISSEN1
  6
CONTINUOUS
 62
     7
100
AcDbLine
 10
-1799.981390606343
 20
1592.999999
 30
0.0
 11
-1799.981390606343
 21
1590.999999
 31
0.0
  0
LINE
  5
12A7C
330
1A
100
AcDbEntity
  8
ZISSEN1
  6
CONTINUOUS
 62
     7
100
AcDbLine
 10
-1799.274269606343
 20
1592.999999
 30
0.0
 11
-1799.274269606343
 21
1590.999999
 31
0.0
  0
LINE
  5
12A7D
330
1A
100
AcDbEntity
  8
ZISSEN1
  6
CONTINUOUS
 62
     7
100
AcDbLine
 10
-1779.727613229354
 20
1649.595168548417
 30
0.0
 11
-1779.731393606343
 21
1606.699987
 31
0.0
  0
LINE
  5
12A7E
330
1A
100
AcDbEntity
  8
ZISSEN1
  6
CONTINUOUS
 62
     7
100
AcDbLine
 10
-1799.981390606343
 20
1600.600005
 30
0.0
 11
-1799.981390606343
 21
1599.0
 31
0.0
  0
LINE
  5
12A7F
330
1A
100
AcDbEntity
  8
ZISSEN1
  6
CONTINUOUS
 62
     7
100
AcDbLine
 10
-1786.831383606343
 20
1616.999985
 30
0.0
 11
-1780.681393606343
 21
1616.999985
 31
0.0
  0
LINE
  5
12A80
330
1A
100
AcDbEntity
  8
ZISSEN1
  6
CONTINUOUS
 62
     7
100
AcDbLine
 10
-1788.831403606343
 20
1614.800004
 30
0.0
 11
-1786.831383606343
 21
1616.999985
 31
0.0
  0
LINE
  5
12A81
330
1A
100
AcDbEntity
  8
ZISSEN1
  6
CONTINUOUS
 62
     7
100
AcDbLine
 10
-1794.981380606343
 20
1609.100002
 30
0.0
 11
-1788.831403606343
 21
1609.100002
 31
0.0
  0
LINE
  5
12A82
330
1A
100
AcDbEntity
  8
ZISSEN1
  6
CONTINUOUS
 62
     7
100
AcDbLine
 10
-1788.831403606343
 20
1614.800004
 30
0.0
 11
-1788.831403606343
 21
1600.600002
 31
0.0
  0
LINE
  5
12A83
330
1A
100
AcDbEntity
  8
ZISSEN1
  6
CONTINUOUS
 62
     7
100
AcDbLine
 10
-1780.681393606343
 20
1616.999985
 30
0.0
 11
-1780.670593606343
 21
1616.999985
 31
0.0
  0
LINE
  5
12A84
330
1A
100
AcDbEntity
  8
ZISSEN1
  6
CONTINUOUS
 62
     7
100
AcDbLine
 10
-1778.188493606343
 20
1600.600002
 30
0.0
 11
-1778.188493606343
 21
1599.0
 31
0.0
  0
LINE
  5
12A85
330
1A
100
AcDbEntity
  8
ZISSEN1
  6
CONTINUOUS
 62
     7
100
AcDbLine
 10
-1779.731393606343
 20
1606.699987
 30
0.0
 11
-1779.731393606343
 21
1600.600002
 31
0.0
  0
LINE
  5
12A86
330
1A
100
AcDbEntity
  8
ZISSEN1
  6
CONTINUOUS
 62
     7
100
AcDbLine
 10
-1780.670593606343
 20
1600.532432
 30
0.0
 11
-1780.670593606343
 21
1616.999985
 31
0.0
  0
LINE
  5
12A87
330
1A
100
AcDbEntity
  8
ZISSEN1
  6
CONTINUOUS
 62
     7
100
AcDbLine
 10
-1796.981387606343
 20
1607.099998
 30
0.0
 11
-1796.981387606343
 21
1600.600002
 31
0.0
  0
LINE
  5
12A88
330
1A
100
AcDbEntity
  8
ZISSEN1
  6
CONTINUOUS
 62
     7
100
AcDbLine
 10
-1799.274269606343
 20
1600.600002
 30
0.0
 11
-1799.274269606343
 21
1599.0
 31
0.0
  0
LINE
  5
12A89
330
1A
100
AcDbEntity
  8
ZISSEN1
  6
CONTINUOUS
 62
     7
100
AcDbLine
 10
-1796.981387606343
 20
1600.600002
 30
0.0
 11
-1780.681393606343
 21
1600.600002
 31
0.0
  0
LINE
  5
12A8A
330
1A
100
AcDbEntity
  8
ZISSEN1
  6
CONTINUOUS
 62
     7
100
AcDbLine
 10
-1796.981387606343
 20
1607.099998
 30
0.0
 11
-1794.981380606343
 21
1609.100002
 31
0.0
  0
LINE
  5
12A8E
330
1A
100
AcDbEntity
  8
ZISSEN1
  6
CONTINUOUS
 62
     7
100
AcDbLine
 10
-1750.981403606343
 20
1592.999999
 30
0.0
 11
-1750.981403606343
 21
1599.0
 31
0.0
  0
LINE
  5
12A8F
330
1A
100
AcDbEntity
  8
ZISSEN1
  6
CONTINUOUS
 62
     7
100
AcDbLine
 10
-1756.981383606343
 20
1592.999999
 30
0.0
 11
-1756.981383606343
 21
1599.0
 31
0.0
  0
LINE
  5
12A90
330
1A
100
AcDbEntity
  8
ZISSEN1
  6
CONTINUOUS
 62
     7
100
AcDbLine
 10
-1771.524273606343
 20
1592.999999
 30
0.0
 11
-1771.524273606343
 21
1590.999999
 31
0.0
  0
LINE
  5
12A91
330
1A
100
AcDbEntity
  8
ZISSEN1
  6
CONTINUOUS
 62
     7
100
AcDbLine
 10
-1772.231383606343
 20
1592.999999
 30
0.0
 11
-1772.231383606343
 21
1591.000005
 31
0.0
  0
LINE
  5
12A92
330
1A
100
AcDbEntity
  8
ZISSEN1
  6
CONTINUOUS
 62
     7
100
AcDbLine
 10
-1775.731393606343
 20
1592.999993
 30
0.0
 11
-1775.731393606343
 21
1591.000005
 31
0.0
  0
LINE
  5
12A93
330
1A
100
AcDbEntity
  8
ZISSEN1
  6
CONTINUOUS
 62
     7
100
AcDbLine
 10
-1776.438503606343
 20
1592.999993
 30
0.0
 11
-1776.438503606343
 21
1591.000005
 31
0.0
  0
LINE
  5
12A94
330
1A
100
AcDbEntity
  8
ZISSEN1
  6
CONTINUOUS
 62
     7
100
AcDbLine
 10
-1747.981403606343
 20
1592.999999
 30
0.0
 11
-1747.981403606343
 21
1590.999999
 31
0.0
  0
LINE
  5
12A95
330
1A
100
AcDbEntity
  8
ZISSEN1
  6
CONTINUOUS
 62
     7
100
AcDbLine
 10
-1748.688513606343
 20
1592.999999
 30
0.0
 11
-1748.688513606343
 21
1590.999999
 31
0.0
  0
LINE
  5
12A96
330
1A
100
AcDbEntity
  8
ZISSEN1
100
AcDbLine
 10
-1770.981383606343
 20
1638.595169548417
 30
0.0
 11
-1770.981383606343
 21
1628.599985
 31
0.0
  0
LINE
  5
12A97
330
1A
100
AcDbEntity
  8
ZISSEN1
  6
CONTINUOUS
 62
     7
100
AcDbLine
 10
-1776.981413606343
 20
1638.595169548417
 30
0.0
 11
-1776.981413606343
 21
1628.599985
 31
0.0
  0
LINE
  5
12A98
330
1A
100
AcDbEntity
  8
ZISSEN1
  6
CONTINUOUS
 62
     7
100
AcDbLine
 10
-1768.227603229354
 20
1649.595168548417
 30
0.0
 11
-1768.231383606343
 21
1606.699987
 31
0.0
  0
LINE
  5
12A99
330
1A
100
AcDbEntity
  8
ZISSEN1
  6
CONTINUOUS
 62
     7
100
AcDbLine
 10
-1752.981393606343
 20
1609.100002
 30
0.0
 11
-1759.131383606343
 21
1609.100002
 31
0.0
  0
LINE
  5
12A9A
330
1A
100
AcDbEntity
  8
ZISSEN1
  6
CONTINUOUS
 62
     7
100
AcDbLine
 10
-1750.981403606343
 20
1600.600002
 30
0.0
 11
-1767.281383606343
 21
1600.600002
 31
0.0
  0
LINE
  5
12A9B
330
1A
100
AcDbEntity
  8
ZISSEN1
  6
CONTINUOUS
 62
     7
100
AcDbLine
 10
-1759.131383606343
 20
1614.800004
 30
0.0
 11
-1761.131393606343
 21
1616.999985
 31
0.0
  0
LINE
  5
12A9C
330
1A
100
AcDbEntity
  8
ZISSEN1
  6
CONTINUOUS
 62
     7
100
AcDbLine
 10
-1769.774283606343
 20
1600.600002
 30
0.0
 11
-1769.774283606343
 21
1599.0
 31
0.0
  0
LINE
  5
12A9D
330
1A
100
AcDbEntity
  8
ZISSEN1
  6
CONTINUOUS
 62
     7
100
AcDbLine
 10
-1770.481403606343
 20
1600.600005
 30
0.0
 11
-1770.481403606343
 21
1599.0
 31
0.0
  0
LINE
  5
12A9E
330
1A
100
AcDbEntity
  8
ZISSEN1
  6
CONTINUOUS
 62
     7
100
AcDbLine
 10
-1768.231383606343
 20
1606.699987
 30
0.0
 11
-1768.231383606343
 21
1600.600002
 31
0.0
  0
LINE
  5
12A9F
330
1A
100
AcDbEntity
  8
ZISSEN1
  6
CONTINUOUS
 62
     7
100
AcDbLine
 10
-1767.292203606343
 20
1600.600002
 30
0.0
 11
-1767.292203606343
 21
1616.999985
 31
0.0
  0
LINE
  5
12AA0
330
1A
100
AcDbEntity
  8
ZISSEN1
  6
CONTINUOUS
 62
     7
100
AcDbLine
 10
-1767.292203606343
 20
1616.999985
 30
0.0
 11
-1761.131393606343
 21
1616.999985
 31
0.0
  0
LINE
  5
12AA1
330
1A
100
AcDbEntity
  8
ZISSEN1
  6
CONTINUOUS
 62
     7
100
AcDbLine
 10
-1759.131383606343
 20
1614.800004
 30
0.0
 11
-1759.131383606343
 21
1600.600002
 31
0.0
  0
LINE
  5
12AA2
330
1A
100
AcDbEntity
  8
ZISSEN1
  6
CONTINUOUS
 62
     7
100
AcDbLine
 10
-1777.481403606343
 20
1600.600002
 30
0.0
 11
-1777.481403606343
 21
1599.0
 31
0.0
  0
LINE
  5
12AA3
330
1A
100
AcDbEntity
  8
ZISSEN1
  6
CONTINUOUS
 62
     7
100
AcDbLine
 10
-1747.981403606343
 20
1600.600002
 30
0.0
 11
-1747.981403606343
 21
1598.999994
 31
0.0
  0
LINE
  5
12AA4
330
1A
100
AcDbEntity
  8
ZISSEN1
  6
CONTINUOUS
 62
     7
100
AcDbLine
 10
-1748.688513606343
 20
1600.600002
 30
0.0
 11
-1748.688513606343
 21
1599.0
 31
0.0
  0
LINE
  5
12AA5
330
1A
100
AcDbEntity
  8
ZISSEN1
  6
CONTINUOUS
 62
     7
100
AcDbLine
 10
-1750.981403606343
 20
1607.099998
 30
0.0
 11
-1750.981403606343
 21
1600.600002
 31
0.0
  0
LINE
  5
12AA6
330
1A
100
AcDbEntity
  8
ZISSEN1
  6
CONTINUOUS
 62
     7
100
AcDbLine
 10
-1750.981403606343
 20
1607.099998
 30
0.0
 11
-1752.981393606343
 21
1609.100002
 31
0.0
  0
LINE
  5
12AAB
330
1A
100
AcDbEntity
  8
SOUZOUSEN
100
AcDbLine
 10
-1773.977613429354
 20
1680.999992210348
 30
0.0
 11
-1756.954363606343
 21
1680.999991
 31
0.0
  0
DIMENSION
  5
12AAD
330
1A
100
AcDbEntity
  8
SUNPOU
100
AcDbDimension
  2
*D2
 10
-1738.101990675213
 20
1592.999999
 30
0.0
 11
-1740.851990675213
 21
1595.999996499999
 31
0.0
 70
    32
  3
標準スタイル
100
AcDbAlignedDimension
 13
-1747.981403606343
 23
1598.999994
 33
0.0
 14
-1747.481403606343
 24
1592.999999
 34
0.0
 50
90.0
100
AcDbRotatedDimension
1001
ACAD
1000
DSTYLE
1002
{
1070
   340
1005
10
1070
    40
1040
1.0
1002
}
  0
DIMENSION
  5
12ACA
330
1A
100
AcDbEntity
  8
SUNPOU
100
AcDbDimension
  2
*D3
 10
-1744.105195084204
 20
1592.999999
 30
0.0
 11
-1747.063943638564
 21
1587.64819199409
 31
0.0
 70
   160
  3
標準スタイル
100
AcDbAlignedDimension
 13
-1747.981403606343
 23
1590.999999
 33
0.0
 14
-1747.981403606343
 24
1592.999999
 34
0.0
 50
90.0
100
AcDbRotatedDimension
1001
ACAD
1000
DSTYLE
1002
{
1070
   287
1070
     5
1070
   340
1005
10
1070
    40
1040
1.0
1070
   279
1070
     2
1002
}
  0
DIMENSION
  5
12AEF
330
1A
100
AcDbEntity
  8
SUNPOU
100
AcDbDimension
  2
*D4
 10
-1728.244225624981
 20
1616.999985
 30
0.0
 11
-1730.994225624981
 21
1603.999992
 31
0.0
 70
    32
  3
標準スタイル
100
AcDbAlignedDimension
 13
-1747.981403606343
 23
1590.999999
 33
0.0
 14
-1761.131393606343
 24
1616.999985
 34
0.0
 50
90.0
100
AcDbRotatedDimension
1001
ACAD
1000
DSTYLE
1002
{
1070
   340
1005
10
1070
    40
1040
1.0
1002
}
  0
DIMENSION
  5
12AFC
330
1A
100
AcDbEntity
  8
SUNPOU
100
AcDbDimension
  2
*D5
 10
-1714.176962933568
 20
1680.999991
 30
0.0
 11
-1716.926962933568
 21
1635.999994999999
 31
0.0
 70
    32
  1
CE-26等装着時 約90
  3
標準スタイル
100
AcDbAlignedDimension
 13
-1727.744225624981
 23
1590.999999
 33
0.0
 14
-1756.954363606343
 24
1680.999991
 34
0.0
 50
90.0
100
AcDbRotatedDimension
1001
ACAD
1000
DSTYLE
1002
{
1070
   340
1005
10
1070
    40
1040
1.0
1002
}
  0
LINE
  5
12B51
330
1A
100
AcDbEntity
  8
ZISSEN1
100
AcDbLine
 10
-1755.707088282874
 20
1812.500019999999
 30
0.0
 11
-1755.707088282874
 21
1805.000019999999
 31
0.0
  0
LINE
  5
12B52
330
1A
100
AcDbEntity
  8
ZISSEN1
100
AcDbLine
 10
-1755.707088282874
 20
1805.000019999999
 30
0.0
 11
-1748.707088282874
 21
1805.000019999999
 31
0.0
  0
CIRCLE
  5
12B53
330
1A
100
AcDbEntity
  8
ZISSEN1
100
AcDbCircle
 10
-1751.997088282874
 20
1809.00002
 30
0.0
 40
1.749999899999999
  0
LINE
  5
12B55
330
1A
100
AcDbEntity
  8
ZISSEN1
100
AcDbLine
 10
-1791.707087898006
 20
1708.000020015208
 30
0.0
 11
-1791.707087898006
 21
1700.50002
 31
0.0
  0
LINE
  5
12B56
330
1A
100
AcDbEntity
  8
ZISSEN1
100
AcDbLine
 10
-1799.207088282874
 20
1708.00001996434
 30
0.0
 11
-1791.707087898006
 21
1708.00001996434
 31
0.0
  0
CIRCLE
  5
12B57
330
1A
100
AcDbEntity
  8
ZISSEN1
100
AcDbCircle
 10
-1795.997088282874
 20
1704.00002
 30
0.0
 40
1.749999899999999
  0
LINE
  5
12B58
330
1A
100
AcDbEntity
  8
CL1
100
AcDbLine
 10
-1790.707088282874
 20
1704.00002
 30
0.0
 11
-1800.707088282874
 21
1704.00002
 31
0.0
  0
LINE
  5
12B59
330
1A
100
AcDbEntity
  8
CL1
100
AcDbLine
 10
-1795.997088282874
 20
1709.00002
 30
0.0
 11
-1795.997088282874
 21
1699.00002
 31
0.0
  0
LINE
  5
12B5B
330
1A
100
AcDbEntity
  8
CL1
100
AcDbLine
 10
-1751.997088282874
 20
1814.000019999999
 30
0.0
 11
-1751.997088282874
 21
1804.00002
 31
0.0
  0
LINE
  5
12B5C
330
1A
100
AcDbEntity
  8
CL1
100
AcDbLine
 10
-1746.707088282874
 20
1809.00002
 30
0.0
 11
-1756.707088282874
 21
1809.00002
 31
0.0
  0
LINE
  5
12B5D
330
1A
100
AcDbEntity
  8
ZISSEN1
100
AcDbLine
 10
-1748.707088282874
 20
1813.00002
 30
0.0
 11
-1747.999978282874
 21
1812.29291
 31
0.0
  0
LINE
  5
12B5E
330
1A
100
AcDbEntity
  8
ZISSEN1
100
AcDbLine
 10
-1756.207088282874
 20
1813.00002
 30
0.0
 11
-1755.707088282874
 21
1812.500019999999
 31
0.0
  0
LINE
  5
12B63
330
1A
100
AcDbEntity
  8
ZISSEN1
100
AcDbLine
 10
-1799.207088282874
 20
1708.00001996434
 30
0.0
 11
-1799.707088282874
 21
1708.50001996434
 31
0.0
  0
LINE
  5
12B64
330
1A
100
AcDbEntity
  8
ZISSEN1
100
AcDbLine
 10
-1791.707087898006
 20
1700.50002
 30
0.0
 11
-1791.207087898006
 21
1700.00002
 31
0.0
  0
DIMENSION
  5
12B65
330
1A
100
AcDbEntity
  8
SUNPOU
100
AcDbDimension
  2
*D6
 10
-1822.599263198429
 20
1704.00002
 30
0.0
 11
-1825.34926319843
 21
1756.500019999999
 31
0.0
 70
    32
  3
標準スタイル
100
AcDbAlignedDimension
 13
-1755.707088282874
 23
1809.00002
 33
0.0
 14
-1797.747088182874
 24
1704.00002
 34
0.0
 50
90.0
100
AcDbRotatedDimension
1001
ACAD
1000
DSTYLE
1002
{
1070
   340
1005
10
1070
    40
1040
1.0
1002
}
  0
LINE
  5
12C0E
330
1A
100
AcDbEntity
  8
ZISSEN1
100
AcDbLine
 10
-1629.6
 20
1813.00002
 30
0.0
 11
-1629.6
 21
1710.00002
 31
0.0
  0
LINE
  5
12C10
330
1A
100
AcDbEntity
  8
ZISSEN1
100
AcDbLine
 10
-1678.599999999999
 20
1726.500050000001
 30
0.0
 11
-1678.599999999999
 21
1786.50005
 31
0.0
  0
LINE
  5
12C11
330
1A
100
AcDbEntity
  8
ZISSEN1
100
AcDbLine
 10
-1657.600020000002
 20
1799.00002
 30
0.0
 11
-1646.00001
 21
1799.000019999999
 31
0.0
  0
LINE
  5
12C12
330
1A
100
AcDbEntity
  8
ZISSEN1
100
AcDbLine
 10
-1681.599999999999
 20
1799.600009999998
 30
0.0
 11
-1667.6
 21
1799.600009999998
 31
0.0
  0
LINE
  5
12C13
330
1A
100
AcDbEntity
  8
ZISSEN1
100
AcDbLine
 10
-1681.599999999999
 20
1791.600019999999
 30
0.0
 11
-1667.6
 21
1791.600019999999
 31
0.0
  0
LINE
  5
12C14
330
1A
100
AcDbEntity
  8
ZISSEN1
100
AcDbLine
 10
-1678.599999999999
 20
1786.50005
 30
0.0
 11
-1657.6
 21
1786.50005
 31
0.0
  0
LINE
  5
12C15
330
1A
100
AcDbEntity
  8
ZISSEN1
100
AcDbLine
 10
-1681.599999999999
 20
1791.600019999999
 30
0.0
 11
-1681.599999999999
 21
1799.600009999998
 31
0.0
  0
LINE
  5
12C18
330
1A
100
AcDbEntity
  8
ZISSEN1
100
AcDbLine
 10
-1667.6
 20
1798.60006
 30
0.0
 11
-1657.6
 21
1798.60006
 31
0.0
  0
LINE
  5
12C19
330
1A
100
AcDbEntity
  8
ZISSEN1
100
AcDbLine
 10
-1667.6
 20
1792.600039999999
 30
0.0
 11
-1657.6
 21
1792.600039999999
 31
0.0
  0
LINE
  5
12C1A
330
1A
100
AcDbEntity
  8
ZISSEN1
100
AcDbLine
 10
-1667.6
 20
1791.60008
 30
0.0
 11
-1667.6
 21
1799.600009999998
 31
0.0
  0
LINE
  5
12C1B
330
1A
100
AcDbEntity
  8
ZISSEN1
100
AcDbLine
 10
-1657.6
 20
1786.50005
 30
0.0
 11
-1657.6
 21
1799.00002
 31
0.0
  0
LINE
  5
12C1E
330
1A
100
AcDbEntity
  8
ZISSEN1
100
AcDbLine
 10
-1657.600020000002
 20
1714.00002
 30
0.0
 11
-1645.95136
 21
1714.00002
 31
0.0
  0
LINE
  5
12C1F
330
1A
100
AcDbEntity
  8
ZISSEN1
100
AcDbLine
 10
-1681.599999999999
 20
1713.400019999999
 30
0.0
 11
-1667.6
 21
1713.400019999999
 31
0.0
  0
LINE
  5
12C20
330
1A
100
AcDbEntity
  8
ZISSEN1
100
AcDbLine
 10
-1681.599999999999
 20
1721.40002
 30
0.0
 11
-1667.6
 21
1721.40002
 31
0.0
  0
LINE
  5
12C21
330
1A
100
AcDbEntity
  8
ZISSEN1
100
AcDbLine
 10
-1678.599999999999
 20
1726.500050000001
 30
0.0
 11
-1657.600020000002
 21
1726.500050000001
 31
0.0
  0
LINE
  5
12C23
330
1A
100
AcDbEntity
  8
ZISSEN1
100
AcDbLine
 10
-1681.599999999999
 20
1713.400019999999
 30
0.0
 11
-1681.599999999999
 21
1721.40002
 31
0.0
  0
LINE
  5
12C24
330
1A
100
AcDbEntity
  8
ZISSEN1
100
AcDbLine
 10
-1667.6
 20
1720.40002
 30
0.0
 11
-1657.6
 21
1720.40002
 31
0.0
  0
LINE
  5
12C25
330
1A
100
AcDbEntity
  8
ZISSEN1
100
AcDbLine
 10
-1667.6
 20
1714.40005
 30
0.0
 11
-1657.6
 21
1714.40005
 31
0.0
  0
LINE
  5
12C26
330
1A
100
AcDbEntity
  8
ZISSEN1
100
AcDbLine
 10
-1667.6
 20
1713.400019999999
 30
0.0
 11
-1667.6
 21
1721.40002
 31
0.0
  0
LINE
  5
12C27
330
1A
100
AcDbEntity
  8
ZISSEN1
100
AcDbLine
 10
-1657.6
 20
1714.00002
 30
0.0
 11
-1657.6
 21
1726.500050000001
 31
0.0
  0
LINE
  5
12DA0
330
1A
100
AcDbEntity
  8
ZISSEN1
100
AcDbLine
 10
-1608.0
 20
1723.500019999999
 30
0.0
 11
-1608.0
 21
1729.50002
 31
0.0
  0
LINE
  5
12DA1
330
1A
100
AcDbEntity
  8
KAKURESEN1
100
AcDbLine
 10
-1615.0
 20
1723.500019999999
 30
0.0
 11
-1615.0
 21
1729.50002
 31
0.0
  0
LINE
  5
12DA3
330
1A
100
AcDbEntity
  8
ZISSEN1
100
AcDbLine
 10
-1608.0
 20
1723.500019999999
 30
0.0
 11
-1620.0
 21
1723.500019999999
 31
0.0
  0
LINE
  5
12DA4
330
1A
100
AcDbEntity
  8
ZISSEN1
100
AcDbLine
 10
-1608.0
 20
1729.50002
 30
0.0
 11
-1620.0
 21
1729.50002
 31
0.0
  0
LINE
  5
12DA5
330
1A
100
AcDbEntity
  8
ZISSEN1
100
AcDbLine
 10
-1608.0
 20
1789.50002
 30
0.0
 11
-1620.0
 21
1789.50002
 31
0.0
  0
LINE
  5
12DA6
330
1A
100
AcDbEntity
  8
ZISSEN1
100
AcDbLine
 10
-1608.0
 20
1783.500019999999
 30
0.0
 11
-1620.0
 21
1783.500019999999
 31
0.0
  0
LINE
  5
12DA7
330
1A
100
AcDbEntity
  8
ZISSEN1
100
AcDbLine
 10
-1608.0
 20
1783.500019999999
 30
0.0
 11
-1608.0
 21
1789.50002
 31
0.0
  0
LINE
  5
12DA8
330
1A
100
AcDbEntity
  8
KAKURESEN1
100
AcDbLine
 10
-1615.0
 20
1789.50002
 30
0.0
 11
-1615.0
 21
1783.500019999999
 31
0.0
  0
ARC
  5
12E0A
330
1A
100
AcDbEntity
  8
SOUZOUSEN
100
AcDbCircle
 10
-1620.936665398689
 20
1740.788299754653
 30
0.0
 40
1.5611496
100
AcDbArc
 50
0.0
 51
53.1301869999975
  0
LINE
  5
12E0B
330
1A
100
AcDbEntity
  8
SOUZOUSEN
100
AcDbLine
 10
-1615.000015398689
 20
1740.254279754652
 30
0.0
 11
-1615.000015398689
 21
1754.422339754651
 31
0.0
  0
LINE
  5
12E0C
330
1A
100
AcDbEntity
  8
ZISSEN1
100
AcDbLine
 10
-1620.000015398689
 20
1782.499999999999
 30
0.0
 11
-1620.000015398689
 21
1730.5
 31
0.0
  0
ARC
  5
12E0D
330
1A
100
AcDbEntity
  8
SOUZOUSEN
100
AcDbCircle
 10
-1613.235005398689
 20
1735.064079754653
 30
0.0
 40
0.6244598000000003
100
AcDbArc
 50
179.9999799999979
 51
279.9999500000018
  0
LINE
  5
12E0E
330
1A
100
AcDbEntity
  8
SOUZOUSEN
100
AcDbLine
 10
-1615.417995398689
 20
1736.937469754652
 30
0.0
 11
-1610.667665398689
 21
1736.937469754652
 31
0.0
  0
LINE
  5
12E0F
330
1A
100
AcDbEntity
  8
SOUZOUSEN
100
AcDbLine
 10
-1613.963545398689
 20
1738.498619754651
 30
0.0
 11
-1613.796545398689
 21
1739.121819754652
 31
0.0
  0
ARC
  5
12E10
330
1A
100
AcDbEntity
  8
SOUZOUSEN
100
AcDbCircle
 10
-1617.294005398689
 20
1739.595099754651
 30
0.0
 40
2.081532899999999
100
AcDbArc
 50
180.0
 51
255.0000000000055
  0
LINE
  5
12E11
330
1A
100
AcDbEntity
  8
SOUZOUSEN
100
AcDbLine
 10
-1619.375525398689
 20
1740.788299754653
 30
0.0
 11
-1619.375525398689
 21
1739.595099754651
 31
0.0
  0
LINE
  5
12E12
330
1A
100
AcDbEntity
  8
SOUZOUSEN
100
AcDbLine
 10
-1615.212475398688
 20
1738.498619754651
 30
0.0
 11
-1613.963545398689
 21
1738.498619754651
 31
0.0
  0
ARC
  5
12E13
330
1A
100
AcDbEntity
  8
SOUZOUSEN
100
AcDbCircle
 10
-1617.189935398689
 20
1739.567209754651
 30
0.0
 40
0.5203829000000001
100
AcDbArc
 50
75.00000000000555
 51
254.9999800000044
  0
ARC
  5
12E14
330
1A
100
AcDbEntity
  8
SOUZOUSEN
100
AcDbCircle
 10
-1615.813093140713
 20
1740.657612034447
 30
0.0
 40
0.9076190514201122
100
AcDbArc
 50
266.5601747232117
 51
333.6160029145803
  0
LINE
  5
12E15
330
1A
100
AcDbEntity
  8
SOUZOUSEN
100
AcDbLine
 10
-1615.867515398689
 20
1739.751629754651
 30
0.0
 11
-1617.055225398689
 21
1740.069859754652
 31
0.0
  0
LINE
  5
12E16
330
1A
100
AcDbEntity
  8
SOUZOUSEN
100
AcDbLine
 10
-1615.417995398689
 20
1736.937469754652
 30
0.0
 11
-1617.832735398689
 21
1737.584479754651
 31
0.0
  0
LINE
  5
12E17
330
1A
100
AcDbEntity
  8
SOUZOUSEN
100
AcDbLine
 10
-1615.212475398688
 20
1738.498619754651
 30
0.0
 11
-1617.324615398689
 21
1739.064559754653
 31
0.0
  0
ARC
  5
12E18
330
1A
100
AcDbEntity
  8
SOUZOUSEN
100
AcDbCircle
 10
-1610.529005398689
 20
1736.492349754651
 30
0.0
 40
1.5611496
100
AcDbArc
 50
280.0000000000061
 51
0.0
  0
LINE
  5
12E19
330
1A
100
AcDbEntity
  8
SOUZOUSEN
100
AcDbLine
 10
-1613.859495398688
 20
1735.064079754653
 30
0.0
 11
-1613.859495398688
 21
1736.937469754652
 31
0.0
  0
LINE
  5
12E1A
330
1A
100
AcDbEntity
  8
SOUZOUSEN
100
AcDbLine
 10
-1610.257935398688
 20
1734.954929754652
 30
0.0
 11
-1613.126575398689
 21
1734.449119754651
 31
0.0
  0
LINE
  5
12E1B
330
1A
100
AcDbEntity
  8
SOUZOUSEN
100
AcDbLine
 10
-1611.012505398689
 20
1739.151239754653
 30
0.0
 11
-1610.432055398689
 21
1738.861019754653
 31
0.0
  0
LINE
  5
12E1C
330
1A
100
AcDbEntity
  8
SOUZOUSEN
100
AcDbLine
 10
-1613.859495398688
 20
1735.588029754651
 30
0.0
 11
-1610.599895398689
 21
1736.162839754653
 31
0.0
  0
LINE
  5
12E1D
330
1A
100
AcDbEntity
  8
SOUZOUSEN
100
AcDbLine
 10
-1611.592945398689
 20
1739.151239754653
 30
0.0
 11
-1611.012505398689
 21
1739.151239754653
 31
0.0
  0
LINE
  5
12E1E
330
1A
100
AcDbEntity
  8
SOUZOUSEN
100
AcDbLine
 10
-1612.173385398689
 20
1739.151239754653
 30
0.0
 11
-1611.592945398689
 21
1739.151239754653
 31
0.0
  0
LINE
  5
12E1F
330
1A
100
AcDbEntity
  8
SOUZOUSEN
100
AcDbLine
 10
-1612.753835398689
 20
1739.151239754653
 30
0.0
 11
-1612.173385398689
 21
1739.151239754653
 31
0.0
  0
LINE
  5
12E20
330
1A
100
AcDbEntity
  8
SOUZOUSEN
100
AcDbLine
 10
-1613.334275398689
 20
1739.151239754653
 30
0.0
 11
-1612.753835398689
 21
1739.151239754653
 31
0.0
  0
LINE
  5
12E21
330
1A
100
AcDbEntity
  8
SOUZOUSEN
100
AcDbLine
 10
-1613.769625398689
 20
1739.151239754653
 30
0.0
 11
-1613.334275398689
 21
1739.151239754653
 31
0.0
  0
ARC
  5
12E22
330
1A
100
AcDbEntity
  8
SOUZOUSEN
100
AcDbCircle
 10
-1610.667665398689
 20
1736.547179754652
 30
0.0
 40
0.3902874
100
AcDbArc
 50
280.0000000000061
 51
89.99998400000361
  0
LINE
  5
12E23
330
1A
100
AcDbEntity
  8
SOUZOUSEN
100
AcDbLine
 10
-1609.126045398689
 20
1737.119689754653
 30
0.0
 11
-1609.271165398689
 21
1737.264789754653
 31
0.0
  0
LINE
  5
12E24
330
1A
100
AcDbEntity
  8
SOUZOUSEN
100
AcDbLine
 10
-1608.980925398689
 20
1736.394119754653
 30
0.0
 11
-1609.126045398689
 21
1737.119689754653
 31
0.0
  0
LINE
  5
12E25
330
1A
100
AcDbEntity
  8
SOUZOUSEN
100
AcDbLine
 10
-1609.271165398689
 20
1737.119689754653
 30
0.0
 11
-1609.271165398689
 21
1736.974589754653
 31
0.0
  0
LINE
  5
12E26
330
1A
100
AcDbEntity
  8
SOUZOUSEN
100
AcDbLine
 10
-1609.271165398689
 20
1737.845249754651
 30
0.0
 11
-1609.271165398689
 21
1737.119689754653
 31
0.0
  0
LINE
  5
12E27
330
1A
100
AcDbEntity
  8
SOUZOUSEN
100
AcDbLine
 10
-1609.851615398689
 20
1738.425699754652
 30
0.0
 11
-1609.271165398689
 21
1737.845249754651
 31
0.0
  0
LINE
  5
12E28
330
1A
100
AcDbEntity
  8
SOUZOUSEN
100
AcDbLine
 10
-1610.432055398689
 20
1738.861019754653
 30
0.0
 11
-1609.851615398689
 21
1738.425699754652
 31
0.0
  0
LINE
  5
12E29
330
1A
100
AcDbEntity
  8
CL1
100
AcDbLine
 10
-1612.220465398689
 20
1756.5
 30
0.0
 11
-1623.383569026874
 21
1756.5
 31
0.0
  0
LINE
  5
12E2A
330
1A
100
AcDbEntity
  8
SOUZOUSEN
100
AcDbLine
 10
-1615.417995398689
 20
1776.070279754651
 30
0.0
 11
-1610.667665398689
 21
1776.070279754651
 31
0.0
  0
LINE
  5
12E2B
330
1A
100
AcDbEntity
  8
SOUZOUSEN
100
AcDbLine
 10
-1613.914725398689
 20
1773.978029754651
 30
0.0
 11
-1613.479375398689
 21
1773.687799754653
 31
0.0
  0
LINE
  5
12E2C
330
1A
100
AcDbEntity
  8
SOUZOUSEN
100
AcDbLine
 10
-1613.963545398689
 20
1774.509129754651
 30
0.0
 11
-1613.796545398689
 21
1773.885949754651
 31
0.0
  0
ARC
  5
12E2D
330
1A
100
AcDbEntity
  8
SOUZOUSEN
100
AcDbCircle
 10
-1613.235005398689
 20
1777.943669754653
 30
0.0
 40
0.6244598000000003
100
AcDbArc
 50
80.00002999999519
 51
180.0
  0
LINE
  5
12E2E
330
1A
100
AcDbEntity
  8
SOUZOUSEN
100
AcDbLine
 10
-1619.999986228998
 20
1758.065019754653
 30
0.0
 11
-1620.000015398689
 21
1754.75
 31
0.0
  0
LINE
  5
12E2F
330
1A
100
AcDbEntity
  8
SOUZOUSEN
100
AcDbLine
 10
-1615.000015398689
 20
1758.585409754651
 30
0.0
 11
-1615.000015398689
 21
1772.753469754652
 31
0.0
  0
ARC
  5
12E30
330
1A
100
AcDbEntity
  8
SOUZOUSEN
100
AcDbCircle
 10
-1612.915365398689
 20
1756.503869754653
 30
0.0
 40
3.3378866
100
AcDbArc
 50
141.4199000000041
 51
218.5800700000092
  0
LINE
  5
12E31
330
1A
100
AcDbEntity
  8
SOUZOUSEN
100
AcDbLine
 10
-1615.000015398689
 20
1758.585409754651
 30
0.0
 11
-1615.524685398689
 21
1758.585409754651
 31
0.0
  0
LINE
  5
12E32
330
1A
100
AcDbEntity
  8
SOUZOUSEN
100
AcDbLine
 10
-1615.000015398689
 20
1754.422339754651
 30
0.0
 11
-1615.524685398689
 21
1754.422339754651
 31
0.0
  0
ARC
  5
12E33
330
1A
100
AcDbEntity
  8
SOUZOUSEN
100
AcDbCircle
 10
-1617.294005398689
 20
1773.412649754653
 30
0.0
 40
2.081532899999999
100
AcDbArc
 50
104.9999799999933
 51
180.0
  0
ARC
  5
12E34
330
1A
100
AcDbEntity
  8
SOUZOUSEN
100
AcDbCircle
 10
-1620.936665398689
 20
1772.219449754651
 30
0.0
 40
1.5611496
100
AcDbArc
 50
306.8697900000027
 51
0.0
  0
LINE
  5
12E35
330
1A
100
AcDbEntity
  8
SOUZOUSEN
100
AcDbLine
 10
-1619.375525398689
 20
1772.219449754651
 30
0.0
 11
-1619.375525398689
 21
1773.412649754653
 31
0.0
  0
LINE
  5
12E36
330
1A
100
AcDbEntity
  8
SOUZOUSEN
100
AcDbLine
 10
-1615.212475398688
 20
1774.509129754651
 30
0.0
 11
-1613.963545398689
 21
1774.509129754651
 31
0.0
  0
ARC
  5
12E37
330
1A
100
AcDbEntity
  8
SOUZOUSEN
100
AcDbCircle
 10
-1617.189935398689
 20
1773.440539754653
 30
0.0
 40
0.5203829000000001
100
AcDbArc
 50
104.9999999999944
 51
284.9999799999934
  0
ARC
  5
12E38
330
1A
100
AcDbEntity
  8
SOUZOUSEN
100
AcDbCircle
 10
-1615.813093343679
 20
1772.350137190283
 30
0.0
 40
0.9076193597038255
100
AcDbArc
 50
26.38400748477756
 51
93.43980017489167
  0
LINE
  5
12E39
330
1A
100
AcDbEntity
  8
SOUZOUSEN
100
AcDbLine
 10
-1615.212475398688
 20
1774.509129754651
 30
0.0
 11
-1617.324615398689
 21
1773.943189754651
 31
0.0
  0
LINE
  5
12E3A
330
1A
100
AcDbEntity
  8
SOUZOUSEN
100
AcDbLine
 10
-1615.867515398689
 20
1773.256139754653
 30
0.0
 11
-1617.055225398689
 21
1772.937889754651
 31
0.0
  0
LINE
  5
12E3B
330
1A
100
AcDbEntity
  8
SOUZOUSEN
100
AcDbLine
 10
-1615.417995398689
 20
1776.070279754651
 30
0.0
 11
-1617.832735398689
 21
1775.423249754652
 31
0.0
  0
LINE
  5
12E3C
330
1A
100
AcDbEntity
  8
SOUZOUSEN
100
AcDbLine
 10
-1620.000015398689
 20
1770.970519754651
 30
0.0
 11
-1620.000015398689
 21
1742.037229754653
 31
0.0
  0
LINE
  5
12E3D
330
1A
100
AcDbEntity
  8
SOUZOUSEN
100
AcDbLine
 10
-1611.157595398689
 20
1773.687799754653
 30
0.0
 11
-1610.577155398689
 21
1773.687799754653
 31
0.0
  0
LINE
  5
12E3E
330
1A
100
AcDbEntity
  8
SOUZOUSEN
100
AcDbLine
 10
-1610.257935398688
 20
1778.052809754653
 30
0.0
 11
-1613.126575398689
 21
1778.558629754653
 31
0.0
  0
LINE
  5
12E3F
330
1A
100
AcDbEntity
  8
SOUZOUSEN
100
AcDbLine
 10
-1613.859495398688
 20
1777.419689754651
 30
0.0
 11
-1610.599895398689
 21
1776.844939754653
 31
0.0
  0
LINE
  5
12E40
330
1A
100
AcDbEntity
  8
SOUZOUSEN
100
AcDbLine
 10
-1613.859495398688
 20
1777.943669754653
 30
0.0
 11
-1613.859495398688
 21
1776.070279754651
 31
0.0
  0
LINE
  5
12E41
330
1A
100
AcDbEntity
  8
SOUZOUSEN
100
AcDbLine
 10
-1613.479375398689
 20
1773.687799754653
 30
0.0
 11
-1613.796545398689
 21
1773.885949754651
 31
0.0
  0
LINE
  5
12E42
330
1A
100
AcDbEntity
  8
SOUZOUSEN
100
AcDbLine
 10
-1611.738045398689
 20
1773.687799754653
 30
0.0
 11
-1611.157595398689
 21
1773.687799754653
 31
0.0
  0
LINE
  5
12E43
330
1A
100
AcDbEntity
  8
SOUZOUSEN
100
AcDbLine
 10
-1612.318485398689
 20
1773.687799754653
 30
0.0
 11
-1611.738045398689
 21
1773.687799754653
 31
0.0
  0
LINE
  5
12E44
330
1A
100
AcDbEntity
  8
SOUZOUSEN
100
AcDbLine
 10
-1612.898935398689
 20
1773.687799754653
 30
0.0
 11
-1612.318485398689
 21
1773.687799754653
 31
0.0
  0
LINE
  5
12E45
330
1A
100
AcDbEntity
  8
SOUZOUSEN
100
AcDbLine
 10
-1613.479375398689
 20
1773.687799754653
 30
0.0
 11
-1612.898935398689
 21
1773.687799754653
 31
0.0
  0
ARC
  5
12E46
330
1A
100
AcDbEntity
  8
SOUZOUSEN
100
AcDbCircle
 10
-1610.667665398689
 20
1776.460559754651
 30
0.0
 40
0.3902874
100
AcDbArc
 50
270.0
 51
79.99998400000435
  0
LINE
  5
12E47
330
1A
100
AcDbEntity
  8
SOUZOUSEN
100
AcDbLine
 10
-1608.980925398689
 20
1776.444929754652
 30
0.0
 11
-1608.835825398689
 21
1775.864479754653
 31
0.0
  0
LINE
  5
12E48
330
1A
100
AcDbEntity
  8
SOUZOUSEN
100
AcDbLine
 10
-1609.416265398689
 20
1775.574259754653
 30
0.0
 11
-1609.126045398689
 21
1775.574259754653
 31
0.0
  0
LINE
  5
12E49
330
1A
100
AcDbEntity
  8
SOUZOUSEN
100
AcDbLine
 10
-1608.835825398689
 20
1775.864479754653
 30
0.0
 11
-1609.416265398689
 21
1775.574259754653
 31
0.0
  0
LINE
  5
12E4A
330
1A
100
AcDbEntity
  8
SOUZOUSEN
100
AcDbLine
 10
-1608.980925398689
 20
1774.993819754651
 30
0.0
 11
-1608.980925398689
 21
1775.574259754653
 31
0.0
  0
LINE
  5
12E4B
330
1A
100
AcDbEntity
  8
SOUZOUSEN
100
AcDbLine
 10
-1609.416265398689
 20
1774.268249754652
 30
0.0
 11
-1608.980925398689
 21
1774.993819754651
 31
0.0
  0
LINE
  5
12E4C
330
1A
100
AcDbEntity
  8
SOUZOUSEN
100
AcDbLine
 10
-1609.996715398689
 20
1773.832929754652
 30
0.0
 11
-1609.416265398689
 21
1774.268249754652
 31
0.0
  0
LINE
  5
12E4D
330
1A
100
AcDbEntity
  8
SOUZOUSEN
100
AcDbLine
 10
-1610.577155398689
 20
1773.687799754653
 30
0.0
 11
-1609.996715398689
 21
1773.832929754652
 31
0.0
  0
ARC
  5
12E4E
330
1A
100
AcDbEntity
  8
SOUZOUSEN
100
AcDbCircle
 10
-1610.529005398689
 20
1776.515419754653
 30
0.0
 40
1.5611496
100
AcDbArc
 50
0.0
 51
79.99998400000435
  0
LINE
  5
12E4F
330
1A
100
AcDbEntity
  8
SOUZOUSEN
100
AcDbLine
 10
-1608.980925398689
 20
1776.444929754652
 30
0.0
 11
-1608.967855398689
 21
1776.515419754653
 31
0.0
  0
LINE
  5
12E50
330
1A
100
AcDbEntity
  8
KAKURESEN1
100
AcDbLine
 10
-1622.000005398689
 20
1755.5
 30
0.0
 11
-1616.098717793595
 21
1755.5
 31
0.0
  0
LINE
  5
12E51
330
1A
100
AcDbEntity
  8
KAKURESEN1
100
AcDbLine
 10
-1622.000005398689
 20
1755.0
 30
0.0
 11
-1615.895275248919
 21
1755.0
 31
0.0
  0
LINE
  5
12E52
330
1A
100
AcDbEntity
  8
KAKURESEN1
100
AcDbLine
 10
-1616.101148110796
 20
1757.5
 30
0.0
 11
-1622.000005398689
 21
1757.5
 31
0.0
  0
LINE
  5
12E53
330
1A
100
AcDbEntity
  8
KAKURESEN1
100
AcDbLine
 10
-1620.000015398689
 20
1757.5
 30
0.0
 11
-1622.000005398689
 21
1757.5
 31
0.0
  0
LINE
  5
12E54
330
1A
100
AcDbEntity
  8
KAKURESEN1
100
AcDbLine
 10
-1615.899168549605
 20
1758.0
 30
0.0
 11
-1622.000005398689
 21
1758.0
 31
0.0
  0
DIMENSION
  5
12F24
330
1A
100
AcDbEntity
  8
SUNPOU
100
AcDbDimension
  2
*D7
 10
-1508.82176907205
 20
1726.500000924
 30
0.0
 11
-1511.57176907205
 21
1756.500000923999
 31
0.0
 70
    32
  3
標準スタイル
100
AcDbAlignedDimension
 13
-1542.000002906729
 23
1786.500000924
 33
0.0
 14
-1542.000002906729
 24
1726.500000924
 34
0.0
 50
90.0
100
AcDbRotatedDimension
1001
ACAD
1000
DSTYLE
1002
{
1070
   340
1005
10
1070
    40
1040
1.0
1002
}
  0
DIMENSION
  5
12F25
330
1A
100
AcDbEntity
  8
SUNPOU
100
AcDbDimension
  2
*D8
 10
-1529.000002906729
 20
1690.19841877881
 30
0.0
 11
-1544.000002906729
 21
1692.94841877881
 31
0.0
 70
    32
  3
標準スタイル
100
AcDbAlignedDimension
 13
-1559.000002906729
 23
1754.500000924
 33
0.0
 14
-1529.000002906729
 24
1754.445578352156
 34
0.0
 50
180.0
100
AcDbRotatedDimension
1001
ACAD
1000
DSTYLE
1002
{
1070
   340
1005
10
1070
    40
1040
1.0
1002
}
  0
LINE
  5
12F26
330
1A
100
AcDbEntity
  8
ZISSEN1
100
AcDbLine
 10
-1528.000005793333
 20
1729.499999986475
 30
0.0
 11
-1528.000005793333
 21
1723.499999986475
 31
0.0
  0
LINE
  5
12F27
330
1A
100
AcDbEntity
  8
ZISSEN1
100
AcDbLine
 10
-1560.000002906729
 20
1729.500000924
 30
0.0
 11
-1560.000002906729
 21
1723.500000924
 31
0.0
  0
LINE
  5
12F28
330
1A
100
AcDbEntity
  8
CL1
100
AcDbLine
 10
-1544.000002906729
 20
1698.000000924
 30
0.0
 11
-1544.000002906729
 21
1815.000000924
 31
0.0
  0
LINE
  5
12F29
330
1A
100
AcDbEntity
  8
ZISSEN1
100
AcDbLine
 10
-1565.000002906729
 20
1729.500000924
 30
0.0
 11
-1565.000002906729
 21
1723.500000924
 31
0.0
  0
LINE
  5
12F2A
330
1A
100
AcDbEntity
  8
ZISSEN1
100
AcDbLine
 10
-1523.000002906729
 20
1723.500000924
 30
0.0
 11
-1523.000002906729
 21
1729.500000924
 31
0.0
  0
LINE
  5
12F2B
330
1A
100
AcDbEntity
  8
ZISSEN1
100
AcDbLine
 10
-1518.000002906729
 20
1700.000000924
 30
0.0
 11
-1518.000002906729
 21
1813.000000924
 31
0.0
  0
LINE
  5
12F2C
330
1A
100
AcDbEntity
  8
ZISSEN1
100
AcDbLine
 10
-1570.000002906729
 20
1700.000000924
 30
0.0
 11
-1570.000002906729
 21
1813.000000924
 31
0.0
  0
LINE
  5
12F2D
330
1A
100
AcDbEntity
  8
ZISSEN1
100
AcDbLine
 10
-1545.750002906729
 20
1707.500000924
 30
0.0
 11
-1545.750002906729
 21
1700.000000924
 31
0.0
  0
LINE
  5
12F2E
330
1A
100
AcDbEntity
  8
ZISSEN1
100
AcDbLine
 10
-1542.250002906729
 20
1700.000000924
 30
0.0
 11
-1542.250002906729
 21
1707.500000924
 31
0.0
  0
CIRCLE
  5
12F2F
330
1A
100
AcDbEntity
  8
ZISSEN1
100
AcDbCircle
 10
-1522.000002906729
 20
1704.000000924
 30
0.0
 40
1.75
  0
LINE
  5
12F30
330
1A
100
AcDbEntity
  8
ZISSEN1
100
AcDbLine
 10
-1545.749999999999
 20
1700.0
 30
0.0
 11
-1570.0
 21
1700.0
 31
0.0
  0
LINE
  5
12F31
330
1A
100
AcDbEntity
  8
ZISSEN1
100
AcDbLine
 10
-1518.000002906729
 20
1700.000000924
 30
0.0
 11
-1542.250002906729
 21
1700.000000924
 31
0.0
  0
LINE
  5
12F32
330
1A
100
AcDbEntity
  8
CL1
100
AcDbLine
 10
-1547.000002906729
 20
1706.5
 30
0.0
 11
-1541.000002906729
 21
1706.5
 31
0.0
  0
ARC
  5
12F33
330
1A
100
AcDbEntity
  8
ZISSEN1
100
AcDbCircle
 10
-1544.000002906729
 20
1707.500000924
 30
0.0
 40
1.75
100
AcDbArc
 50
0.0
 51
90.0
  0
ARC
  5
12F34
330
1A
100
AcDbEntity
  8
ZISSEN1
100
AcDbCircle
 10
-1544.000002906729
 20
1707.500000924
 30
0.0
 40
1.75
100
AcDbArc
 50
90.0
 51
180.0
  0
LINE
  5
12F35
330
1A
100
AcDbEntity
  8
ZISSEN1
100
AcDbLine
 10
-1544.000002906729
 20
1709.250000924
 30
0.0
 11
-1544.000002906729
 21
1709.250000924
 31
0.0
  0
LINE
  5
12F36
330
1A
100
AcDbEntity
  8
ZISSEN1
100
AcDbLine
 10
-1565.000002906729
 20
1723.500000924
 30
0.0
 11
-1523.000002906729
 21
1723.500000924
 31
0.0
  0
CIRCLE
  5
12F37
330
1A
100
AcDbEntity
  8
ZISSEN1
100
AcDbCircle
 10
-1544.000002906729
 20
1726.500000924
 30
0.0
 40
1.0
  0
ARC
  5
12F38
330
1A
100
AcDbEntity
  8
ZISSEN1
100
AcDbCircle
 10
-1544.000002906729
 20
1726.500000924
 30
0.0
 40
2.0
100
AcDbArc
 50
60.65881829724943
 51
119.9999999999973
  0
ARC
  5
12F39
330
1A
100
AcDbEntity
  8
ZISSEN1
100
AcDbCircle
 10
-1544.000002906729
 20
1726.500000924
 30
0.0
 40
2.0
100
AcDbArc
 50
239.3411817027459
 51
299.999999999986
  0
CIRCLE
  5
12F3A
330
1A
100
AcDbEntity
  8
SAISEN
100
AcDbCircle
 10
-1544.000002906729
 20
1726.500000924
 30
0.0
 40
1.5
  0
ARC
  5
12F3B
330
1A
100
AcDbEntity
  8
ZISSEN1
100
AcDbCircle
 10
-1544.000002906729
 20
1726.500000924
 30
0.0
 40
2.0
100
AcDbArc
 50
330.0000000000139
 51
30.38036333329439
  0
ARC
  5
12F3C
330
1A
100
AcDbEntity
  8
ZISSEN1
100
AcDbCircle
 10
-1544.000002906729
 20
1726.500000924
 30
0.0
 40
2.0
100
AcDbArc
 50
150.0000000000027
 51
209.6196366667142
  0
LEADER
  5
12F3D
330
1A
100
AcDbEntity
  8
SUNPOU
100
AcDbLeader
  3
標準スタイル
 76
     2
 10
-1545.140184923257
 20
1785.525329200194
 30
0.0
 10
-1575.000002906729
 20
1760.000000924
 30
0.0
211
0.0000000000000001
221
1.0
231
0.0
1001
ACAD
1000
DSTYLE
1002
{
1070
     5
1000

1070
    77
1070
     0
1070
   147
1040
1.0
1070
   342
1005
0
1002
}
  0
MTEXT
  5
12F3E
330
1A
100
AcDbEntity
  8
SUNPOU
100
AcDbMText
 10
-1582.568686051235
 20
1732.563013395996
 30
0.0
 40
2.5
 41
41.0822
 71
     1
 72
     5
  1
マウンティングフット(付属)\P取り付け穴(M3タップ×４)
 11
0.0000000000000001
 21
1.0
 31
0.0
1001
ACAD
1000
MTEXTBEGIN
1070
    73
1070
     1
1070
    44
1040
1.0
1070
    74
1070
     0
1000
MTEXTEND
1000
MTEXTBEGIN
1070
    73
1070
     1
1070
    44
1040
1.0
1070
    74
1070
     0
1000
MTEXTEND
  0
LINE
  5
12F3F
330
1A
100
AcDbEntity
  8
ZISSEN1
100
AcDbLine
 10
-1523.000002906729
 20
1729.500000924
 30
0.0
 11
-1565.000002906729
 21
1729.500000924
 31
0.0
  0
ARC
  5
12F40
330
1A
100
AcDbEntity
  8
ZISSEN1
100
AcDbCircle
 10
-1559.000002906729
 20
1756.500000924
 30
0.0
 40
2.0
100
AcDbArc
 50
150.0000000000027
 51
209.6196366667142
  0
ARC
  5
12F41
330
1A
100
AcDbEntity
  8
ZISSEN1
100
AcDbCircle
 10
-1559.000002906729
 20
1756.500000924
 30
0.0
 40
2.0
100
AcDbArc
 50
330.0000000000139
 51
30.38036333329439
  0
ARC
  5
12F42
330
1A
100
AcDbEntity
  8
ZISSEN1
100
AcDbCircle
 10
-1559.000002906729
 20
1756.500000924
 30
0.0
 40
2.0
100
AcDbArc
 50
239.3411817027459
 51
299.999999999986
  0
ARC
  5
12F43
330
1A
100
AcDbEntity
  8
ZISSEN1
100
AcDbCircle
 10
-1559.000002906729
 20
1756.500000924
 30
0.0
 40
2.0
100
AcDbArc
 50
60.65881829724943
 51
119.9999999999973
  0
CIRCLE
  5
12F44
330
1A
100
AcDbEntity
  8
ZISSEN1
100
AcDbCircle
 10
-1559.000002906729
 20
1756.500000924
 30
0.0
 40
1.0
  0
CIRCLE
  5
12F45
330
1A
100
AcDbEntity
  8
SAISEN
100
AcDbCircle
 10
-1559.000002906729
 20
1756.500000924
 30
0.0
 40
1.5
  0
ARC
  5
12F46
330
1A
100
AcDbEntity
  8
ZISSEN1
100
AcDbCircle
 10
-1529.000002906729
 20
1756.500000924
 30
0.0
 40
2.0
100
AcDbArc
 50
150.0000000000027
 51
209.6196366667142
  0
ARC
  5
12F47
330
1A
100
AcDbEntity
  8
ZISSEN1
100
AcDbCircle
 10
-1529.000002906729
 20
1756.500000924
 30
0.0
 40
2.0
100
AcDbArc
 50
330.0000000000139
 51
30.38036333329439
  0
CIRCLE
  5
12F48
330
1A
100
AcDbEntity
  8
SAISEN
100
AcDbCircle
 10
-1529.000002906729
 20
1756.500000924
 30
0.0
 40
1.5
  0
ARC
  5
12F49
330
1A
100
AcDbEntity
  8
ZISSEN1
100
AcDbCircle
 10
-1529.000002906729
 20
1756.500000924
 30
0.0
 40
2.0
100
AcDbArc
 50
239.3411817027459
 51
299.999999999986
  0
ARC
  5
12F4A
330
1A
100
AcDbEntity
  8
ZISSEN1
100
AcDbCircle
 10
-1529.000002906729
 20
1756.500000924
 30
0.0
 40
2.0
100
AcDbArc
 50
60.65881829724943
 51
119.9999999999973
  0
CIRCLE
  5
12F4B
330
1A
100
AcDbEntity
  8
ZISSEN1
100
AcDbCircle
 10
-1529.000002906729
 20
1756.500000924
 30
0.0
 40
1.0
  0
LEADER
  5
12F4C
330
1A
100
AcDbEntity
  8
SUNPOU
100
AcDbLeader
  3
標準スタイル
 76
     2
 10
-1560.709577937172
 20
1756.873970461909
 30
0.0
 10
-1575.000002906729
 20
1760.000000924
 30
0.0
211
0.0000000000000001
221
1.0
231
0.0
1001
ACAD
1000
DSTYLE
1002
{
1070
     5
1000

1070
    77
1070
     0
1070
   147
1040
1.0
1070
   342
1005
0
1002
}
  0
LINE
  5
12F4D
330
1A
100
AcDbEntity
  8
CL1
100
AcDbLine
 10
-1516.000002906729
 20
1756.500000924
 30
0.0
 11
-1572.000002906729
 21
1756.500000924
 31
0.0
  0
ARC
  5
12F4E
330
1A
100
AcDbEntity
  8
ZISSEN1
100
AcDbCircle
 10
-1544.000002906729
 20
1786.500000924
 30
0.0
 40
2.0
100
AcDbArc
 50
150.0000000000027
 51
209.6196366667142
  0
ARC
  5
12F4F
330
1A
100
AcDbEntity
  8
ZISSEN1
100
AcDbCircle
 10
-1544.000002906729
 20
1786.500000924
 30
0.0
 40
2.0
100
AcDbArc
 50
330.0000000000139
 51
30.38036333329439
  0
CIRCLE
  5
12F50
330
1A
100
AcDbEntity
  8
SAISEN
100
AcDbCircle
 10
-1544.000002906729
 20
1786.500000924
 30
0.0
 40
1.5
  0
ARC
  5
12F51
330
1A
100
AcDbEntity
  8
ZISSEN1
100
AcDbCircle
 10
-1544.000002906729
 20
1786.500000924
 30
0.0
 40
2.0
100
AcDbArc
 50
239.3411817027459
 51
299.999999999986
  0
ARC
  5
12F52
330
1A
100
AcDbEntity
  8
ZISSEN1
100
AcDbCircle
 10
-1544.000002906729
 20
1786.500000924
 30
0.0
 40
2.0
100
AcDbArc
 50
60.65881829724943
 51
119.9999999999973
  0
CIRCLE
  5
12F53
330
1A
100
AcDbEntity
  8
ZISSEN1
100
AcDbCircle
 10
-1544.000002906729
 20
1786.500000924
 30
0.0
 40
1.0
  0
LINE
  5
12F54
330
1A
100
AcDbEntity
  8
ZISSEN1
100
AcDbLine
 10
-1528.000003259619
 20
1789.499999048949
 30
0.0
 11
-1528.000003259619
 21
1783.499999048949
 31
0.0
  0
LINE
  5
12F55
330
1A
100
AcDbEntity
  8
ZISSEN1
100
AcDbLine
 10
-1560.000000373015
 20
1789.499999986474
 30
0.0
 11
-1560.000000373015
 21
1783.499999986474
 31
0.0
  0
LINE
  5
12F56
330
1A
100
AcDbEntity
  8
ZISSEN1
100
AcDbLine
 10
-1565.000000186508
 20
1783.499999986474
 30
0.0
 11
-1523.000000186508
 21
1783.499999986474
 31
0.0
  0
LINE
  5
12F57
330
1A
100
AcDbEntity
  8
ZISSEN1
100
AcDbLine
 10
-1565.000000186508
 20
1789.499999986474
 30
0.0
 11
-1565.000000186508
 21
1783.499999986474
 31
0.0
  0
LINE
  5
12F58
330
1A
100
AcDbEntity
  8
ZISSEN1
100
AcDbLine
 10
-1523.000000186508
 20
1789.499999986474
 30
0.0
 11
-1565.000000186508
 21
1789.499999986474
 31
0.0
  0
LINE
  5
12F59
330
1A
100
AcDbEntity
  8
ZISSEN1
100
AcDbLine
 10
-1523.000000186508
 20
1783.499999986474
 30
0.0
 11
-1523.000000186508
 21
1789.499999986474
 31
0.0
  0
LINE
  5
12F5A
330
1A
100
AcDbEntity
  8
CL1
100
AcDbLine
 10
-1547.000002906729
 20
1806.50002
 30
0.0
 11
-1541.000002906729
 21
1806.50002
 31
0.0
  0
CIRCLE
  5
12F5B
330
1A
100
AcDbEntity
  8
ZISSEN1
100
AcDbCircle
 10
-1566.000002906729
 20
1809.000000924
 30
0.0
 40
1.75
  0
LINE
  5
12F5C
330
1A
100
AcDbEntity
  8
ZISSEN1
100
AcDbLine
 10
-1545.7499990545
 20
1813.00000604557
 30
0.0
 11
-1569.999998109
 21
1813.000006969569
 31
0.0
  0
ARC
  5
12F5D
330
1A
100
AcDbEntity
  8
ZISSEN1
100
AcDbCircle
 10
-1544.000001961229
 20
1805.500001847999
 30
0.0
 40
1.75
100
AcDbArc
 50
180.0
 51
270.0
  0
LINE
  5
12F5E
330
1A
100
AcDbEntity
  8
ZISSEN1
100
AcDbLine
 10
-1545.750001961229
 20
1805.500001847999
 30
0.0
 11
-1545.750001961229
 21
1813.000001847998
 31
0.0
  0
ARC
  5
12F5F
330
1A
100
AcDbEntity
  8
ZISSEN1
100
AcDbCircle
 10
-1544.000001961229
 20
1805.500001847999
 30
0.0
 40
1.75
100
AcDbArc
 50
270.0
 51
0.0
  0
LINE
  5
12F60
330
1A
100
AcDbEntity
  8
ZISSEN1
100
AcDbLine
 10
-1542.250001961229
 20
1813.000001847998
 30
0.0
 11
-1542.250001961229
 21
1805.500001847999
 31
0.0
  0
LINE
  5
12F61
330
1A
100
AcDbEntity
  8
ZISSEN1
100
AcDbLine
 10
-1544.000001961228
 20
1803.750001847999
 30
0.0
 11
-1544.000001961228
 21
1803.750001847999
 31
0.0
  0
LINE
  5
12F62
330
1A
100
AcDbEntity
  8
ZISSEN1
100
AcDbLine
 10
-1518.000002906729
 20
1813.000000924
 30
0.0
 11
-1542.250001961229
 21
1813.000001847998
 31
0.0
  0
LINE
  5
13021
330
1A
100
AcDbEntity
  8
SOUZOUSEN
100
AcDbLine
 10
-1556.000001969203
 20
1735.500003644221
 30
0.0
 11
-1556.000001969203
 21
1777.500003644221
 31
0.0
  0
LINE
  5
13022
330
1A
100
AcDbEntity
  8
SOUZOUSEN
100
AcDbLine
 10
-1562.000001969203
 20
1777.500003644221
 30
0.0
 11
-1562.000001969203
 21
1735.500003644221
 31
0.0
  0
LINE
  5
13023
330
1A
100
AcDbEntity
  8
SOUZOUSEN
100
AcDbLine
 10
-1562.000001969203
 20
1735.500003644221
 30
0.0
 11
-1556.000001969203
 21
1735.500003644221
 31
0.0
  0
ARC
  5
13024
330
1A
100
AcDbEntity
  8
SOUZOUSEN
  6
HIDDEN
100
AcDbCircle
 10
-1559.000002906729
 20
1756.500000924
 30
0.0
 40
2.0
100
AcDbArc
 50
240.0000000000026
 51
299.6196366667142
  0
ARC
  5
13025
330
1A
100
AcDbEntity
  8
SOUZOUSEN
  6
HIDDEN
100
AcDbCircle
 10
-1559.000002906729
 20
1756.500000924
 30
0.0
 40
2.0
100
AcDbArc
 50
60.00000000001401
 51
120.3803633332944
  0
ARC
  5
13026
330
1A
100
AcDbEntity
  8
SOUZOUSEN
  6
HIDDEN
100
AcDbCircle
 10
-1559.000002906729
 20
1756.500000924
 30
0.0
 40
2.0
100
AcDbArc
 50
329.3411817027459
 51
29.99999999998598
  0
ARC
  5
13027
330
1A
100
AcDbEntity
  8
SOUZOUSEN
  6
HIDDEN
100
AcDbCircle
 10
-1559.000002906729
 20
1756.500000924
 30
0.0
 40
2.0
100
AcDbArc
 50
150.6588182972494
 51
209.9999999999972
  0
LINE
  5
13028
330
1A
100
AcDbEntity
  8
SOUZOUSEN
100
AcDbLine
 10
-1562.000001969203
 20
1740.500003457714
 30
0.0
 11
-1556.000001969203
 21
1740.500003457714
 31
0.0
  0
LINE
  5
13029
330
1A
100
AcDbEntity
  8
SOUZOUSEN
100
AcDbLine
 10
-1562.000001031678
 20
1772.50000057111
 30
0.0
 11
-1556.000001031678
 21
1772.50000057111
 31
0.0
  0
LINE
  5
1302A
330
1A
100
AcDbEntity
  8
SOUZOUSEN
100
AcDbLine
 10
-1556.000001969203
 20
1777.500003644221
 30
0.0
 11
-1562.000001969203
 21
1777.500003644221
 31
0.0
  0
LINE
  5
13039
330
1A
100
AcDbEntity
  8
SOUZOUSEN
100
AcDbLine
 10
-1526.000001969203
 20
1735.500003644221
 30
0.0
 11
-1526.000001969203
 21
1777.500003644221
 31
0.0
  0
LINE
  5
1303A
330
1A
100
AcDbEntity
  8
SOUZOUSEN
100
AcDbLine
 10
-1532.000001969203
 20
1777.500003644221
 30
0.0
 11
-1532.000001969203
 21
1735.500003644221
 31
0.0
  0
LINE
  5
1303B
330
1A
100
AcDbEntity
  8
SOUZOUSEN
100
AcDbLine
 10
-1532.000001969203
 20
1735.500003644221
 30
0.0
 11
-1526.000001969203
 21
1735.500003644221
 31
0.0
  0
ARC
  5
1303C
330
1A
100
AcDbEntity
  8
SOUZOUSEN
  6
HIDDEN
100
AcDbCircle
 10
-1529.000002906729
 20
1756.500000924
 30
0.0
 40
2.0
100
AcDbArc
 50
240.0000000000026
 51
299.6196366667142
  0
ARC
  5
1303D
330
1A
100
AcDbEntity
  8
SOUZOUSEN
  6
HIDDEN
100
AcDbCircle
 10
-1529.000002906729
 20
1756.500000924
 30
0.0
 40
2.0
100
AcDbArc
 50
60.00000000001401
 51
120.3803633332944
  0
ARC
  5
1303E
330
1A
100
AcDbEntity
  8
SOUZOUSEN
  6
HIDDEN
100
AcDbCircle
 10
-1529.000002906729
 20
1756.500000924
 30
0.0
 40
2.0
100
AcDbArc
 50
329.3411817027459
 51
29.99999999998598
  0
ARC
  5
1303F
330
1A
100
AcDbEntity
  8
SOUZOUSEN
  6
HIDDEN
100
AcDbCircle
 10
-1529.000002906729
 20
1756.500000924
 30
0.0
 40
2.0
100
AcDbArc
 50
150.6588182972494
 51
209.9999999999972
  0
LINE
  5
13040
330
1A
100
AcDbEntity
  8
SOUZOUSEN
100
AcDbLine
 10
-1532.000001969203
 20
1740.500003457714
 30
0.0
 11
-1526.000001969203
 21
1740.500003457714
 31
0.0
  0
LINE
  5
13041
330
1A
100
AcDbEntity
  8
SOUZOUSEN
100
AcDbLine
 10
-1532.000001031678
 20
1772.50000057111
 30
0.0
 11
-1526.000001031678
 21
1772.50000057111
 31
0.0
  0
LINE
  5
13042
330
1A
100
AcDbEntity
  8
SOUZOUSEN
100
AcDbLine
 10
-1526.000001969203
 20
1777.500003644221
 30
0.0
 11
-1532.000001969203
 21
1777.500003644221
 31
0.0
  0
LEADER
  5
1304B
330
1A
100
AcDbEntity
  8
SOUZOUSEN
 62
     5
100
AcDbLeader
  3
標準スタイル
 76
     2
 10
-1562.000001031678
 20
1772.50000057111
 30
0.0
 10
-1592.049405372615
 20
1806.650539730329
 30
0.0
211
1.0
221
-0.0000000000000002
231
0.0
1001
ACAD
1000
DSTYLE
1002
{
1070
     5
1000

1070
    77
1070
     0
1070
   147
1040
1.0
1070
   176
1070
     5
1070
   342
1005
0
1002
}
  0
LEADER
  5
1304C
330
1A
100
AcDbEntity
  8
SOUZOUSEN
 62
     5
100
AcDbLeader
  3
標準スタイル
 76
     2
 10
-1608.967855398689
 20
1776.515419754653
 30
0.0
 10
-1592.049405372615
 20
1806.650539730329
 30
0.0
211
1.0
221
-0.0000000000000002
231
0.0
1001
ACAD
1000
DSTYLE
1002
{
1070
     5
1000

1070
    77
1070
     0
1070
   147
1040
1.0
1070
   176
1070
     5
1070
   342
1005
0
1002
}
  0
MTEXT
  5
1304D
330
1A
100
AcDbEntity
  8
SUNPOU
 62
     5
100
AcDbMText
 10
-1613.378233536417
 20
1811.893645625743
 30
0.0
 40
2.5
 41
41.0822
 71
     1
 72
     5
  1
90°向きを変えた取り付け
1001
ACAD
1000
MTEXTBEGIN
1070
    73
1070
     1
1070
    44
1040
1.0
1070
    74
1070
     0
1000
MTEXTEND
1000
MTEXTBEGIN
1070
    73
1070
     1
1070
    44
1040
1.0
1070
    74
1070
     0
1000
MTEXTEND
  0
LINE
  5
1310B
330
1A
100
AcDbEntity
  8
SOUZOUSEN
100
AcDbLine
 10
-1703.639232881452
 20
1751.5
 30
0.0
 11
-1678.599999999999
 21
1751.5
 31
0.0
  0
ARC
  5
13113
330
1A
100
AcDbEntity
  8
SOUZOUSEN
100
AcDbCircle
 10
-1704.892619984775
 20
1761.294263957762
 30
0.0
 40
6.25
100
AcDbArc
 50
306.8698976458414
 51
53.13010235415861
  0
LINE
  5
13117
330
1A
100
AcDbEntity
  8
SOUZOUSEN
100
AcDbLine
 10
-1698.646007088099
 20
1761.5
 30
0.0
 11
-1678.599999999999
 21
1761.5
 31
0.0
  0
ARC
  5
13118
330
1A
100
AcDbEntity
  8
SOUZOUSEN
100
AcDbCircle
 10
-1697.392619984775
 20
1751.294263957762
 30
0.0
 40
6.25
100
AcDbArc
 50
126.8698976458414
 51
233.1301023541585
  0
LINE
  5
13159
330
1A
100
AcDbEntity
  8
SOUZOUSEN
100
AcDbLine
 10
-1778.977613229354
 20
1675.999992410348
 30
0.0
 11
-1778.977613229354
 21
1649.595168548417
 31
0.0
  0
ARC
  5
1315A
330
1A
100
AcDbEntity
  8
SOUZOUSEN
100
AcDbCircle
 10
-1773.977613429354
 20
1675.999992410348
 30
0.0
 40
4.9999998
100
AcDbArc
 50
90.0
 51
180.0
  0
LINE
  5
1315B
330
1A
100
AcDbEntity
  8
SOUZOUSEN
100
AcDbLine
 10
-1765.977613229354
 20
1670.9999908
 30
0.0
 11
-1756.950583229355
 21
1670.9999908
 31
0.0
  0
LINE
  5
1315D
330
1A
100
AcDbEntity
  8
SOUZOUSEN
100
AcDbLine
 10
-1768.977613229354
 20
1667.9999908
 30
0.0
 11
-1768.977613229354
 21
1649.595168548417
 31
0.0
  0
ARC
  5
1315E
330
1A
100
AcDbEntity
  8
SOUZOUSEN
100
AcDbCircle
 10
-1765.977613229354
 20
1667.9999908
 30
0.0
 40
3.0
100
AcDbArc
 50
90.0
 51
180.0
  0
LINE
  5
13167
330
1A
100
AcDbEntity
  8
ZISSEN1
100
AcDbLine
 10
-1777.977623229355
 20
1652.595169548417
 30
0.0
 11
-1769.977593229354
 21
1652.595169548417
 31
0.0
  0
LINE
  5
13168
330
1A
100
AcDbEntity
  8
ZISSEN1
100
AcDbLine
 10
-1777.977623229354
 20
1638.595169548417
 30
0.0
 11
-1769.977593229354
 21
1638.595169548417
 31
0.0
  0
LINE
  5
13169
330
1A
100
AcDbEntity
  8
ZISSEN1
100
AcDbLine
 10
-1768.227603229354
 20
1649.595168548417
 30
0.0
 11
-1769.977593229354
 21
1649.595168548417
 31
0.0
  0
LINE
  5
1316A
330
1A
100
AcDbEntity
  8
ZISSEN1
100
AcDbLine
 10
-1769.977593229354
 20
1652.595169548417
 30
0.0
 11
-1769.977593229354
 21
1638.595169548417
 31
0.0
  0
LINE
  5
1316B
330
1A
100
AcDbEntity
  8
ZISSEN1
100
AcDbLine
 10
-1777.977623229355
 20
1649.595168548417
 30
0.0
 11
-1779.727613229354
 21
1649.595168548417
 31
0.0
  0
LINE
  5
1316C
330
1A
100
AcDbEntity
  8
ZISSEN1
100
AcDbLine
 10
-1777.977623229355
 20
1652.595169548417
 30
0.0
 11
-1777.977623229355
 21
1638.595169548417
 31
0.0
  0
LINE
  5
131CE
330
1A
100
AcDbEntity
  8
ZISSEN1
100
AcDbLine
 10
-1748.707088282874
 20
1805.000019999999
 30
0.0
 11
-1747.999978282874
 21
1804.29291
 31
0.0
  0
LINE
  5
13207
330
1A
100
AcDbEntity
  8
CL1
100
AcDbLine
 10
-1522.000002906729
 20
1700.947217958953
 30
0.0
 11
-1522.000002906729
 21
1707.270553139751
 31
0.0
  0
LINE
  5
13208
330
1A
100
AcDbEntity
  8
CL1
100
AcDbLine
 10
-1524.577524602784
 20
1704.00002
 30
0.0
 11
-1518.989741119393
 21
1704.00002
 31
0.0
  0
LINE
  5
1320B
330
1A
100
AcDbEntity
  8
CL1
100
AcDbLine
 10
-1568.577524602784
 20
1809.00002
 30
0.0
 11
-1562.989741119394
 21
1809.00002
 31
0.0
  0
LINE
  5
1320C
330
1A
100
AcDbEntity
  8
CL1
100
AcDbLine
 10
-1566.000002906729
 20
1805.947217958953
 30
0.0
 11
-1566.000002906729
 21
1812.270553139751
 31
0.0
  0
LINE
  5
1327C
330
1A
100
AcDbEntity
  8
CL1
100
AcDbLine
 10
-1773.999978282874
 20
1593.812956575734
 30
0.0
 11
-1773.999978282874
 21
1589.87505619752
 31
0.0
  0
LINE
  5
1327D
330
1A
100
AcDbEntity
  8
CL1
100
AcDbLine
 10
-1751.999978282874
 20
1593.812956575734
 30
0.0
 11
-1751.999978282874
 21
1589.87505619752
 31
0.0
  0
LINE
  5
1327E
330
1A
100
AcDbEntity
  8
CL1
100
AcDbLine
 10
-1795.999978282874
 20
1593.812956575734
 30
0.0
 11
-1795.999978282874
 21
1589.87505619752
 31
0.0
  0
DIMENSION
  5
1329C
330
1A
100
AcDbEntity
  8
SUNPOU
100
AcDbDimension
  2
*D9
 10
-1751.997088282874
 20
1819.108998423555
 30
0.0
 11
-1773.997088282874
 21
1821.858998423555
 31
0.0
 70
    32
  3
標準スタイル
100
AcDbAlignedDimension
 13
-1795.997088282874
 23
1709.02001
 33
0.0
 14
-1751.997088282874
 24
1814.500019999999
 34
0.0
100
AcDbRotatedDimension
1001
ACAD
1000
DSTYLE
1002
{
1070
   340
1005
10
1070
    40
1040
1.0
1002
}
  0
DIMENSION
  5
132A9
330
1A
100
AcDbEntity
  8
SUNPOU
100
AcDbDimension
  2
*D10
 10
-1747.999978282874
 20
1825.514526728316
 30
0.0
 11
-1773.999973782874
 21
1828.264526728316
 31
0.0
 70
    32
  3
標準スタイル
100
AcDbAlignedDimension
 13
-1799.999969282874
 23
1812.29291
 33
0.0
 14
-1747.999978282874
 24
1812.29291
 34
0.0
100
AcDbRotatedDimension
1001
ACAD
1000
DSTYLE
1002
{
1070
   340
1005
10
1070
    40
1040
1.0
1002
}
  0
DIMENSION
  5
132B6
330
1A
100
AcDbEntity
  8
SUNPOU
100
AcDbDimension
  2
*D11
 10
-1735.192476826326
 20
1700.0
 30
0.0
 11
-1737.942476826326
 21
1756.500009999999
 31
0.0
 70
    32
  3
標準スタイル
100
AcDbAlignedDimension
 13
-1748.707088282874
 23
1813.00002
 33
0.0
 14
-1748.707088282874
 24
1700.0
 34
0.0
 50
90.0
100
AcDbRotatedDimension
1001
ACAD
1000
DSTYLE
1002
{
1070
   340
1005
10
1070
    40
1040
1.0
1002
}
  0
LINE
  5
1339B
330
1A
100
AcDbEntity
  8
CL1
100
AcDbLine
 10
-1544.000002906729
 20
1726.500000924
 30
0.0
 11
-1546.553146966219
 21
1726.500000924
 31
0.0
  0
LINE
  5
1339C
330
1A
100
AcDbEntity
  8
CL1
100
AcDbLine
 10
-1546.553146966219
 20
1726.500000924
 30
0.0
 11
-1544.000002906729
 21
1726.500000924
 31
0.0
  0
LINE
  5
1339D
330
1A
100
AcDbEntity
  8
CL1
100
AcDbLine
 10
-1544.000002906729
 20
1726.500000924
 30
0.0
 11
-1542.000002906729
 21
1726.500000924
 31
0.0
  0
LINE
  5
133B0
330
1A
100
AcDbEntity
  8
CL1
100
AcDbLine
 10
-1546.553146966219
 20
1786.500000924
 30
0.0
 11
-1544.000002906729
 21
1786.500000924
 31
0.0
  0
LINE
  5
133B1
330
1A
100
AcDbEntity
  8
CL1
100
AcDbLine
 10
-1544.000002906729
 20
1786.500000924
 30
0.0
 11
-1546.553146966219
 21
1786.500000924
 31
0.0
  0
LINE
  5
133B2
330
1A
100
AcDbEntity
  8
CL1
100
AcDbLine
 10
-1544.000002906729
 20
1786.500000924
 30
0.0
 11
-1542.000002906729
 21
1786.500000924
 31
0.0
  0
LINE
  5
133BE
330
1A
100
AcDbEntity
  8
CL1
100
AcDbLine
 10
-1559.000002906729
 20
1756.500000924
 30
0.0
 11
-1559.000002906729
 21
1758.558017558122
 31
0.0
  0
LINE
  5
133BF
330
1A
100
AcDbEntity
  8
CL1
100
AcDbLine
 10
-1559.000002906729
 20
1758.558017558122
 30
0.0
 11
-1559.000002906729
 21
1756.500000924
 31
0.0
  0
LINE
  5
133C0
330
1A
100
AcDbEntity
  8
CL1
100
AcDbLine
 10
-1559.000002906729
 20
1756.500000924
 30
0.0
 11
-1559.000002906729
 21
1754.445578352156
 31
0.0
  0
LINE
  5
133DC
330
1A
100
AcDbEntity
  8
CL1
100
AcDbLine
 10
-1529.000002906729
 20
1756.500000924
 30
0.0
 11
-1529.000002906729
 21
1754.445578352156
 31
0.0
  0
LINE
  5
133DD
330
1A
100
AcDbEntity
  8
CL1
100
AcDbLine
 10
-1529.000002906729
 20
1758.558017558122
 30
0.0
 11
-1529.000002906729
 21
1756.500000924
 31
0.0
  0
LINE
  5
133DE
330
1A
100
AcDbEntity
  8
CL1
100
AcDbLine
 10
-1529.000002906729
 20
1756.500000924
 30
0.0
 11
-1529.000002906729
 21
1758.558017558122
 31
0.0
  0
LINE
  5
1349D
330
1A
100
AcDbEntity
  8
ZISSEN1
100
AcDbLine
 10
-1777.977623229355
 20
1649.595168548417
 30
0.0
 11
-1769.977593229354
 21
1649.595168548417
 31
0.0
  0
LINE
  5
134B4
330
1A
100
AcDbEntity
  8
CL1
100
AcDbLine
 10
-1626.60001
 20
1704.0
 30
0.0
 11
-1618.59998
 21
1704.0
 31
0.0
  0
LINE
  5
134C4
330
1A
100
AcDbEntity
  8
CL1
100
AcDbLine
 10
-1626.60001
 20
1809.00002
 30
0.0
 11
-1618.59998
 21
1809.00002
 31
0.0
  0
CIRCLE
  5
1354D
330
1A
100
AcDbEntity
  8
ZISSEN1
100
AcDbCircle
 10
-1773.999978282874
 20
1795.6
 30
0.0
 40
4.0
  0
CIRCLE
  5
1354E
330
1A
100
AcDbEntity
  8
ZISSEN1
100
AcDbCircle
 10
-1773.999978282874
 20
1717.4
 30
0.0
 40
4.0
  0
CIRCLE
  5
13552
330
1A
100
AcDbEntity
  8
SOUZOUSEN
100
AcDbCircle
 10
-1773.999978282874
 20
1756.5
 30
0.0
 40
5.0
  0
LINE
  5
13553
330
1A
100
AcDbEntity
  8
ZISSEN1
100
AcDbLine
 10
-1771.892782990928
 20
1714.000039999999
 30
0.0
 11
-1768.249968282874
 21
1714.000039999999
 31
0.0
  0
LINE
  5
13554
330
1A
100
AcDbEntity
  8
ZISSEN1
100
AcDbLine
 10
-1771.892799126015
 20
1798.999969999999
 30
0.0
 11
-1768.249968282874
 21
1798.999969999999
 31
0.0
  0
VIEWPORT
  5
5D8F
330
5D8E
100
AcDbEntity
 67
     1
  8
0
100
AcDbViewport
 10
272.1297467028787
 20
157.7036408303041
 30
0.0
 40
683.0059499095991
 41
314.237268371582
 68
     1
 69
     1
1001
ACAD
1000
MVIEW
1002
{
1070
    16
1010
0.0
1020
0.0
1030
0.0
1010
0.0
1020
0.0
1030
1.0
1040
0.0
1040
314.237268371582
1040
272.1297467028787
1040
157.7036408303041
1040
50.0
1040
0.0
1040
0.0
1070
     0
1070
   100
1070
     1
1070
     0
1070
     0
1070
     0
1070
     0
1070
     0
1040
0.0
1040
0.0
1040
0.0
1040
1.0
1040
1.0
1040
10.0
1040
10.0
1070
     0
1002
{
1002
}
1002
}
  0
VIEWPORT
  5
6001
330
5D8E
100
AcDbEntity
 67
     1
  8
ZISSEN1
100
AcDbViewport
 10
221.7861955525412
 20
157.6960273330388
 30
0.0
 40
385.4999999999997
 41
259.9999999999999
 68
     2
 69
     2
1001
ACAD
1000
MVIEW
1002
{
1070
    16
1010
0.0
1020
0.0
1030
0.0
1010
0.0
1020
0.0
1030
1.0
1040
0.0
1040
260.0000005596413
1040
-1682.70469739284
1040
1706.655205696221
1040
50.0
1040
0.0
1040
0.0
1070
     0
1070
   100
1070
     1
1070
     0
1070
     0
1070
     0
1070
     0
1070
     0
1040
0.0
1040
0.0
1040
0.0
1040
1.0
1040
1.0
1040
10.0
1040
10.0
1070
     0
1002
{
1002
}
1002
}
  0
TEXT
  5
716F
330
5D8E
100
AcDbEntity
 67
     1
  8
SUNPOU
 62
     0
100
AcDbText
 10
351.884648325778
 20
52.42625829507812
 30
0.0
 40
3.5
  1
縮尺 1/1
100
AcDbText
  0
ENDSEC
  0
SECTION
  2
OBJECTS
  0
DICTIONARY
  5
C
330
0
100
AcDbDictionary
  3
ACAD_GROUP
350
D
  3
ACAD_LAYOUT
350
5C7D
  3
ACAD_MLINESTYLE
350
E
  3
ACAD_PLOTSETTINGS
350
5C7E
  3
ACAD_PLOTSTYLENAME
350
5C7B
  3
DWGPROPS
350
5E8E
  3
ACDBVARIABLEDICTIONARY
350
13680
  3
ACDBHEADERROUNDTRIPXREC
350
13682
  0
DICTIONARY
  5
136A2
330
1A
100
AcDbDictionary
280
     1
  3
ACAD_LAYOUTSELFREF
360
136A3
  0
DICTIONARY
  5
136A4
330
5D8E
100
AcDbDictionary
280
     1
  3
ACAD_LAYOUTSELFREF
360
136A5
  0
DICTIONARY
  5
D
102
{ACAD_REACTORS
330
C
102
}
330
C
100
AcDbDictionary
  3
*A1
350
477D
  3
*A2
350
477F
  3
*A3
350
4780
  3
*A4
350
4781
  3
*A5
350
4C0E
  3
*A6
350
4C0F
  3
*A7
350
4C10
  3
*A8
350
4C11
  3
*A9
350
4C12
  3
*A10
350
4C13
  3
*A11
350
4C14
  3
*A12
350
4C15
  3
*A13
350
4C16
  3
*A14
350
4C17
  3
*A15
350
477E
  0
DICTIONARY
  5
5C7D
102
{ACAD_REACTORS
330
C
102
}
330
C
100
AcDbDictionary
  0
DICTIONARY
  5
E
102
{ACAD_REACTORS
330
C
102
}
330
C
100
AcDbDictionary
  3
STANDARD
350
13
  0
DICTIONARY
  5
5C7E
102
{ACAD_REACTORS
330
C
102
}
330
C
100
AcDbDictionary
  0
ACDBDICTIONARYWDFLT
  5
5C7B
102
{ACAD_REACTORS
330
C
102
}
330
C
100
AcDbDictionary
281
     1
  3
Normal
350
5C7C
100
AcDbDictionaryWithDefault
340
5C7C
  0
XRECORD
  5
5E8E
102
{ACAD_REACTORS
330
C
102
}
330
C
100
AcDbXrecord
  1
DWGPROPS COOKIE
  2

  3

  4

  6

  7

  8

  9

300
=
301
=
302
=
303
=
304
=
305
=
306
=
307
=
308
=
309
=
 40
0.586753587962963
 41
2450495.493631365
 42
2453208.662277431
  1

 90
        0
  0
DICTIONARY
  5
13680
102
{ACAD_REACTORS
330
C
102
}
330
C
100
AcDbDictionary
  3
INDEXCTL
350
13681
  0
DICTIONARY
  5
13682
102
{ACAD_REACTORS
330
C
102
}
330
C
100
AcDbDictionary
  3
TSTACKALIGN
350
13683
  3
TSTACKSIZE
350
13684
  3
HYPERLINKBASE
350
13685
  3
STYLESHEET
350
13686
  3
LAYOUTDICT
350
13687
  3
PLOTSETDICT
350
13688
  3
PLOTSTYLNAMDICT
350
13689
  3
LWETCUNION
350
1368A
  3
INSUNITS
350
1368B
  3
CEPSNTYPE
350
1368C
  3
FINGERPRINTGUID
350
1368D
  3
VERSIONGUID
350
1368E
  3
PSVPSCALE
350
1368F
  3
PUCSORTHOREF
350
13690
  3
PUCSORTHOVIEW
350
13691
  3
PUCSBASE
350
13692
  3
PUCSORGTOP
350
13693
  3
PUCSORGBOTTOM
350
13694
  3
PUCSORGLEFT
350
13695
  3
PUCSORGRIGHT
350
13696
  3
PUCSORGFRONT
350
13697
  3
PUCSORGBACK
350
13698
  3
UCSORTHOREF
350
13699
  3
UCSORTHOVIEW
350
1369A
  3
UCSBASE
350
1369B
  3
UCSORGTOP
350
1369C
  3
UCSORGBOTTOM
350
1369D
  3
UCSORGLEFT
350
1369E
  3
UCSORGRIGHT
350
1369F
  3
UCSORGFRONT
350
136A0
  3
UCSORGBACK
350
136A1
  0
XRECORD
  5
136A3
102
{ACAD_REACTORS
330
136A2
102
}
330
136A2
100
AcDbXrecord
340
1A
  0
XRECORD
  5
136A5
102
{ACAD_REACTORS
330
136A4
102
}
330
136A4
100
AcDbXrecord
340
5D8E
  0
GROUP
  5
477D
102
{ACAD_REACTORS
330
D
102
}
330
D
100
AcDbGroup
300

 70
     1
 71
     1
  0
GROUP
  5
477F
102
{ACAD_REACTORS
330
D
102
}
330
D
100
AcDbGroup
300

 70
     1
 71
     1
  0
GROUP
  5
4780
102
{ACAD_REACTORS
330
D
102
}
330
D
100
AcDbGroup
300

 70
     1
 71
     1
  0
GROUP
  5
4781
102
{ACAD_REACTORS
330
D
102
}
330
D
100
AcDbGroup
300

 70
     1
 71
     1
  0
GROUP
  5
4C0E
102
{ACAD_REACTORS
330
D
102
}
330
D
100
AcDbGroup
300

 70
     1
 71
     1
  0
GROUP
  5
4C0F
102
{ACAD_REACTORS
330
D
102
}
330
D
100
AcDbGroup
300

 70
     1
 71
     1
  0
GROUP
  5
4C10
102
{ACAD_REACTORS
330
D
102
}
330
D
100
AcDbGroup
300

 70
     1
 71
     1
  0
GROUP
  5
4C11
102
{ACAD_REACTORS
330
D
102
}
330
D
100
AcDbGroup
300

 70
     1
 71
     1
  0
GROUP
  5
4C12
102
{ACAD_REACTORS
330
D
102
}
330
D
100
AcDbGroup
300

 70
     1
 71
     1
  0
GROUP
  5
4C13
102
{ACAD_REACTORS
330
D
102
}
330
D
100
AcDbGroup
300

 70
     1
 71
     1
  0
GROUP
  5
4C14
102
{ACAD_REACTORS
330
D
102
}
330
D
100
AcDbGroup
300

 70
     1
 71
     1
  0
GROUP
  5
4C15
102
{ACAD_REACTORS
330
D
102
}
330
D
100
AcDbGroup
300

 70
     1
 71
     1
  0
GROUP
  5
4C16
102
{ACAD_REACTORS
330
D
102
}
330
D
100
AcDbGroup
300

 70
     1
 71
     1
  0
GROUP
  5
4C17
102
{ACAD_REACTORS
330
D
102
}
330
D
100
AcDbGroup
300

 70
     1
 71
     1
  0
GROUP
  5
477E
102
{ACAD_REACTORS
330
D
102
}
330
D
100
AcDbGroup
300

 70
     1
 71
     1
  0
MLINESTYLE
  5
13
102
{ACAD_REACTORS
330
E
102
}
330
E
100
AcDbMlineStyle
  2
STANDARD
 70
     0
  3

 62
     0
 51
90.0
 52
90.0
 71
     2
 49
0.5
 62
   256
  6
BYLAYER
 49
-0.5
 62
   256
  6
BYLAYER
  0
ACDBPLACEHOLDER
  5
5C7C
102
{ACAD_REACTORS
330
5C7B
102
}
330
5C7B
100
AcDbPlaceHolder
280
     0
  0
DICTIONARYVAR
  5
13681
102
{ACAD_REACTORS
330
13680
102
}
330
13680
100
DictionaryVariables
280
     0
  1
-1
  0
XRECORD
  5
13683
102
{ACAD_REACTORS
330
13682
102
}
330
13682
100
AcDbXrecord
 90
        1
  0
XRECORD
  5
13684
102
{ACAD_REACTORS
330
13682
102
}
330
13682
100
AcDbXrecord
 90
       70
  0
XRECORD
  5
13685
102
{ACAD_REACTORS
330
13682
102
}
330
13682
100
AcDbXrecord
  1

  0
XRECORD
  5
13686
102
{ACAD_REACTORS
330
13682
102
}
330
13682
100
AcDbXrecord
  1

  0
XRECORD
  5
13687
102
{ACAD_REACTORS
330
13682
102
}
330
13682
100
AcDbXrecord
340
5C7D
  0
XRECORD
  5
13688
102
{ACAD_REACTORS
330
13682
102
}
330
13682
100
AcDbXrecord
340
5C7E
  0
XRECORD
  5
13689
102
{ACAD_REACTORS
330
13682
102
}
330
13682
100
AcDbXrecord
340
5C7B
  0
XRECORD
  5
1368A
102
{ACAD_REACTORS
330
13682
102
}
330
13682
100
AcDbXrecord
 90
    10781
  0
XRECORD
  5
1368B
102
{ACAD_REACTORS
330
13682
102
}
330
13682
100
AcDbXrecord
 90
        0
  0
XRECORD
  5
1368C
102
{ACAD_REACTORS
330
13682
102
}
330
13682
100
AcDbXrecord
 90
        0
  0
XRECORD
  5
1368D
102
{ACAD_REACTORS
330
13682
102
}
330
13682
100
AcDbXrecord
  1
{225A7F0D-DA29-11D8-946A-0000E2416295}
  0
XRECORD
  5
1368E
102
{ACAD_REACTORS
330
13682
102
}
330
13682
100
AcDbXrecord
  1
{7541A07E-8C0B-421A-86FF-2DD9A681DE8B}
  0
XRECORD
  5
1368F
102
{ACAD_REACTORS
330
13682
102
}
330
13682
100
AcDbXrecord
 40
0.0
  0
XRECORD
  5
13690
102
{ACAD_REACTORS
330
13682
102
}
330
13682
100
AcDbXrecord
340
0
  0
XRECORD
  5
13691
102
{ACAD_REACTORS
330
13682
102
}
330
13682
100
AcDbXrecord
 70
     0
  0
XRECORD
  5
13692
102
{ACAD_REACTORS
330
13682
102
}
330
13682
100
AcDbXrecord
340
0
  0
XRECORD
  5
13693
102
{ACAD_REACTORS
330
13682
102
}
330
13682
100
AcDbXrecord
 10
0.0
 20
0.0
 30
0.0
  0
XRECORD
  5
13694
102
{ACAD_REACTORS
330
13682
102
}
330
13682
100
AcDbXrecord
 10
0.0
 20
0.0
 30
0.0
  0
XRECORD
  5
13695
102
{ACAD_REACTORS
330
13682
102
}
330
13682
100
AcDbXrecord
 10
0.0
 20
0.0
 30
0.0
  0
XRECORD
  5
13696
102
{ACAD_REACTORS
330
13682
102
}
330
13682
100
AcDbXrecord
 10
0.0
 20
0.0
 30
0.0
  0
XRECORD
  5
13697
102
{ACAD_REACTORS
330
13682
102
}
330
13682
100
AcDbXrecord
 10
0.0
 20
0.0
 30
0.0
  0
XRECORD
  5
13698
102
{ACAD_REACTORS
330
13682
102
}
330
13682
100
AcDbXrecord
 10
0.0
 20
0.0
 30
0.0
  0
XRECORD
  5
13699
102
{ACAD_REACTORS
330
13682
102
}
330
13682
100
AcDbXrecord
340
0
  0
XRECORD
  5
1369A
102
{ACAD_REACTORS
330
13682
102
}
330
13682
100
AcDbXrecord
 70
     0
  0
XRECORD
  5
1369B
102
{ACAD_REACTORS
330
13682
102
}
330
13682
100
AcDbXrecord
340
0
  0
XRECORD
  5
1369C
102
{ACAD_REACTORS
330
13682
102
}
330
13682
100
AcDbXrecord
 10
0.0
 20
0.0
 30
0.0
  0
XRECORD
  5
1369D
102
{ACAD_REACTORS
330
13682
102
}
330
13682
100
AcDbXrecord
 10
0.0
 20
0.0
 30
0.0
  0
XRECORD
  5
1369E
102
{ACAD_REACTORS
330
13682
102
}
330
13682
100
AcDbXrecord
 10
0.0
 20
0.0
 30
0.0
  0
XRECORD
  5
1369F
102
{ACAD_REACTORS
330
13682
102
}
330
13682
100
AcDbXrecord
 10
0.0
 20
0.0
 30
0.0
  0
XRECORD
  5
136A0
102
{ACAD_REACTORS
330
13682
102
}
330
13682
100
AcDbXrecord
 10
0.0
 20
0.0
 30
0.0
  0
XRECORD
  5
136A1
102
{ACAD_REACTORS
330
13682
102
}
330
13682
100
AcDbXrecord
 10
0.0
 20
0.0
 30
0.0
  0
ENDSEC
  0
EOF
