  0
SECTION
  2
HEADER
  9
$ACADVER
  1
AC1014
  9
$ACADMAINTVER
 70
     9
  9
$DWGCODEPAGE
  3
ANSI_932
  9
$INSBASE
 10
0.0
 20
0.0
 30
0.0
  9
$EXTMIN
 10
-1153.330514010924
 20
974.6879003921677
 30
0.0
  9
$EXTMAX
 10
-895.4219332122939
 20
1152.720719580013
 30
0.0
  9
$LIMMIN
 10
0.0
 20
0.0
  9
$LIMMAX
 10
420.0
 20
297.0
  9
$ORTHOMODE
 70
     0
  9
$REGENMODE
 70
     1
  9
$FILLMODE
 70
     1
  9
$QTEXTMODE
 70
     0
  9
$MIRRTEXT
 70
     1
  9
$DRAGMODE
 70
     2
  9
$LTSCALE
 40
1.0
  9
$OSMODE
 70
    37
  9
$ATTMODE
 70
     1
  9
$TEXTSIZE
 40
2.5
  9
$TRACEWID
 40
1.0
  9
$TEXTSTYLE
  7
ゴシック体
  9
$CLAYER
  8
ZISSEN1
  9
$CELTYPE
  6
BYLAYER
  9
$CECOLOR
 62
   256
  9
$CELTSCALE
 40
1.0
  9
$DELOBJ
 70
     1
  9
$DISPSILH
 70
     0
  9
$DIMSCALE
 40
0.0
  9
$DIMASZ
 40
3.0
  9
$DIMEXO
 40
0.5
  9
$DIMDLI
 40
0.5
  9
$DIMRND
 40
0.0
  9
$DIMDLE
 40
0.0
  9
$DIMEXE
 40
0.5
  9
$DIMTP
 40
0.0
  9
$DIMTM
 40
0.0
  9
$DIMTXT
 40
3.5
  9
$DIMCEN
 40
0.0
  9
$DIMTSZ
 40
0.0
  9
$DIMTOL
 70
     0
  9
$DIMLIM
 70
     0
  9
$DIMTIH
 70
     0
  9
$DIMTOH
 70
     0
  9
$DIMSE1
 70
     0
  9
$DIMSE2
 70
     0
  9
$DIMTAD
 70
     1
  9
$DIMZIN
 70
     8
  9
$DIMBLK
  1

  9
$DIMASO
 70
     1
  9
$DIMSHO
 70
     1
  9
$DIMPOST
  1

  9
$DIMAPOST
  1

  9
$DIMALT
 70
     0
  9
$DIMALTD
 70
     2
  9
$DIMALTF
 40
25.4
  9
$DIMLFAC
 40
1.0
  9
$DIMTOFL
 70
     1
  9
$DIMTVP
 40
0.0
  9
$DIMTIX
 70
     0
  9
$DIMSOXD
 70
     0
  9
$DIMSAH
 70
     0
  9
$DIMBLK1
  1

  9
$DIMBLK2
  1

  9
$DIMSTYLE
  2
標準スタイル
  9
$DIMCLRD
 70
     1
  9
$DIMCLRE
 70
     1
  9
$DIMCLRT
 70
     1
  9
$DIMTFAC
 40
1.0
  9
$DIMGAP
 40
1.0
  9
$DIMJUST
 70
     0
  9
$DIMSD1
 70
     0
  9
$DIMSD2
 70
     0
  9
$DIMTOLJ
 70
     1
  9
$DIMTZIN
 70
     8
  9
$DIMALTZ
 70
     0
  9
$DIMALTTZ
 70
     0
  9
$DIMFIT
 70
     3
  9
$DIMUPT
 70
     0
  9
$DIMUNIT
 70
     2
  9
$DIMDEC
 70
     2
  9
$DIMTDEC
 70
     2
  9
$DIMALTU
 70
     2
  9
$DIMALTTD
 70
     2
  9
$DIMTXSTY
  7
STANDARD
  9
$DIMAUNIT
 70
     0
  9
$LUNITS
 70
     2
  9
$LUPREC
 70
     4
  9
$SKETCHINC
 40
1.0
  9
$FILLETRAD
 40
1.5
  9
$AUNITS
 70
     0
  9
$AUPREC
 70
     0
  9
$MENU
  1
.
  9
$ELEVATION
 40
0.0
  9
$PELEVATION
 40
0.0
  9
$THICKNESS
 40
0.0
  9
$LIMCHECK
 70
     0
  9
$BLIPMODE
 70
     0
  9
$CHAMFERA
 40
1.0
  9
$CHAMFERB
 40
1.0
  9
$CHAMFERC
 40
1.0
  9
$CHAMFERD
 40
0.7853981633974483
  9
$SKPOLY
 70
     0
  9
$TDCREATE
 40
2450495.493631365
  9
$TDUPDATE
 40
2454572.445547280
  9
$TDINDWG
 40
3.8186974421
  9
$TDUSRTIMER
 40
3.8186974421
  9
$USRTIMER
 70
     1
  9
$ANGBASE
 50
0.0
  9
$ANGDIR
 70
     0
  9
$PDMODE
 70
    99
  9
$PDSIZE
 40
0.0
  9
$PLINEWID
 40
0.0
  9
$COORDS
 70
     1
  9
$SPLFRAME
 70
     0
  9
$SPLINETYPE
 70
     6
  9
$SPLINESEGS
 70
     8
  9
$ATTDIA
 70
     0
  9
$ATTREQ
 70
     1
  9
$HANDLING
 70
 10241
  9
$HANDSEED
  5
198B4
  9
$SURFTAB1
 70
     6
  9
$SURFTAB2
 70
     6
  9
$SURFTYPE
 70
     6
  9
$SURFU
 70
     6
  9
$SURFV
 70
     6
  9
$UCSNAME
  2

  9
$UCSORG
 10
0.0
 20
0.0
 30
0.0
  9
$UCSXDIR
 10
1.0
 20
0.0
 30
0.0
  9
$UCSYDIR
 10
0.0
 20
1.0
 30
0.0
  9
$PUCSNAME
  2

  9
$PUCSORG
 10
0.0
 20
0.0
 30
0.0
  9
$PUCSXDIR
 10
1.0
 20
0.0
 30
0.0
  9
$PUCSYDIR
 10
0.0
 20
1.0
 30
0.0
  9
$USERI1
 70
     0
  9
$USERI2
 70
     0
  9
$USERI3
 70
     0
  9
$USERI4
 70
     0
  9
$USERI5
 70
     0
  9
$USERR1
 40
0.0
  9
$USERR2
 40
0.0
  9
$USERR3
 40
0.0
  9
$USERR4
 40
0.0
  9
$USERR5
 40
0.0
  9
$WORLDVIEW
 70
     1
  9
$SHADEDGE
 70
     3
  9
$SHADEDIF
 70
    70
  9
$TILEMODE
 70
     0
  9
$MAXACTVP
 70
    16
  9
$PINSBASE
 10
0.0
 20
0.0
 30
0.0
  9
$PLIMCHECK
 70
     0
  9
$PEXTMIN
 10
29.03619555254135
 20
27.69602733303884
 30
0.0
  9
$PEXTMAX
 10
414.5361955525411
 20
287.6960273330388
 30
0.0
  9
$PLIMMIN
 10
11.81082890028157
 20
9.195652182841064
  9
$PLIMMAX
 10
431.757484173719
 20
306.2063028176067
  9
$UNITMODE
 70
     0
  9
$VISRETAIN
 70
     0
  9
$PLINEGEN
 70
     0
  9
$PSLTSCALE
 70
     1
  9
$TREEDEPTH
 70
  3020
  9
$PICKSTYLE
 70
     1
  9
$CMLSTYLE
  2
STANDARD
  9
$CMLJUST
 70
     0
  9
$CMLSCALE
 40
1.0
  9
$PROXYGRAPHICS
 70
     1
  9
$MEASUREMENT
 70
     0
  0
ENDSEC
  0
SECTION
  2
CLASSES
  0
CLASS
  1
LWPOLYLINE
  2
AcDbPolyline
  3
AutoCAD 2000
 90
        0
280
     0
281
     1
  0
CLASS
  1
HATCH
  2
AcDbHatch
  3
AutoCAD 2000
 90
        0
280
     0
281
     1
  0
CLASS
  1
ACDBDICTIONARYWDFLT
  2
AcDbDictionaryWithDefault
  3
AutoCAD 2000
 90
        0
280
     0
281
     0
  0
CLASS
  1
ACDBPLACEHOLDER
  2
AcDbPlaceHolder
  3
AutoCAD 2000
 90
        0
280
     0
281
     0
  0
CLASS
  1
LAYOUT
  2
AcDbLayout
  3
AutoCAD 2000
 90
        0
280
     0
281
     0
  0
CLASS
  1
DICTIONARYVAR
  2
AcDbDictionaryVar
  3
AutoCAD 2000
 90
        0
280
     0
281
     0
  0
CLASS
  1
LONG_TRANSACTION
  2
AcDbLongTransaction
  3
AutoCAD 2000
 90
        0
280
     0
281
     0
  0
CLASS
  1
LWPOLYLINE
  2
AcDbPolyline
  3
AutoCAD 2000
 90
        0
280
     0
281
     1
  0
CLASS
  1
HATCH
  2
AcDbHatch
  3
AutoCAD 2000
 90
        0
280
     0
281
     1
  0
CLASS
  1
XRECORD
  2
AcDbXrecord
  3
AutoCAD 2000
 90
        0
280
     0
281
     0
  0
ENDSEC
  0
SECTION
  2
TABLES
  0
TABLE
  2
VPORT
  5
8
330
0
100
AcDbSymbolTable
 70
     1
  0
VPORT
  5
1988A
330
8
100
AcDbSymbolTableRecord
100
AcDbViewportTableRecord
  2
*ACTIVE
 70
     0
 10
0.0
 20
0.0
 11
1.0
 21
1.0
 12
-918.8177080479226
 22
1033.203898149683
 13
0.0
 23
0.0
 14
5.0
 24
5.0
 15
0.0
 25
0.0
 16
0.0
 26
0.0
 36
1.0
 17
0.0
 27
0.0
 37
0.0
 40
228.9029455461898
 41
2.173535791757049
 42
50.0
 43
0.0
 44
0.0
 50
0.0
 51
0.0
 71
     0
 72
   100
 73
     1
 74
     0
 75
     0
 76
     0
 77
     0
 78
     0
  0
ENDTAB
  0
TABLE
  2
LTYPE
  5
5
330
0
100
AcDbSymbolTable
 70
     2
  0
LTYPE
  5
14
330
5
100
AcDbSymbolTableRecord
100
AcDbLinetypeTableRecord
  2
BYBLOCK
 70
     0
  3

 72
    65
 73
     0
 40
0.0
  0
LTYPE
  5
15
330
5
100
AcDbSymbolTableRecord
100
AcDbLinetypeTableRecord
  2
BYLAYER
 70
     0
  3

 72
    65
 73
     0
 40
0.0
  0
LTYPE
  5
16
330
5
100
AcDbSymbolTableRecord
100
AcDbLinetypeTableRecord
  2
CONTINUOUS
 70
     0
  3
Solid line
 72
    65
 73
     0
 40
0.0
  0
LTYPE
  5
1956
330
5
100
AcDbSymbolTableRecord
100
AcDbLinetypeTableRecord
  2
CENTERX2
 70
     0
  3
________  __  ________  __  ________  __  _____
 72
    65
 73
     4
 40
4.0
 49
2.5
 74
     0
 49
-0.5
 74
     0
 49
0.5
 74
     0
 49
-0.5
 74
     0
  0
ENDTAB
  0
TABLE
  2
LAYER
  5
2
330
0
100
AcDbSymbolTable
 70
     5
  0
LAYER
  5
F
330
2
100
AcDbSymbolTableRecord
100
AcDbLayerTableRecord
  2
0
 70
     0
 62
     7
  6
CONTINUOUS
  0
LAYER
  5
18F
330
2
100
AcDbSymbolTableRecord
100
AcDbLayerTableRecord
  2
ZISSEN1
 70
     0
 62
     7
  6
CONTINUOUS
  0
LAYER
  5
529
330
2
100
AcDbSymbolTableRecord
100
AcDbLayerTableRecord
  2
SUNPOU
 70
     0
 62
     1
  6
CONTINUOUS
  0
LAYER
  5
195A
330
2
100
AcDbSymbolTableRecord
100
AcDbLayerTableRecord
  2
CL1
 70
     0
 62
   210
  6
CENTERX2
  0
LAYER
  5
3A9B
330
2
100
AcDbSymbolTableRecord
100
AcDbLayerTableRecord
  2
DEFPOINTS
 70
     0
 62
     7
  6
CONTINUOUS
  0
ENDTAB
  0
TABLE
  2
STYLE
  5
3
330
0
100
AcDbSymbolTable
 70
     2
  0
STYLE
  5
10
330
3
100
AcDbSymbolTableRecord
100
AcDbTextStyleTableRecord
  2
STANDARD
 70
     0
 40
0.0
 41
1.0
 50
0.0
 71
     0
 42
3.0
  3
txt
  4
BigFont
  0
STYLE
  5
1960
330
3
100
AcDbSymbolTableRecord
100
AcDbTextStyleTableRecord
  2
ゴシック体
 70
     0
 40
0.0
 41
1.0
 50
0.0
 71
     0
 42
2.5
  3
MS Gothic.ttf
  4

1001
ACAD
1000
MS Gothic
1071
    32817
  0
ENDTAB
  0
TABLE
  2
VIEW
  5
6
330
0
100
AcDbSymbolTable
 70
     0
  0
ENDTAB
  0
TABLE
  2
UCS
  5
7
330
0
100
AcDbSymbolTable
 70
     0
  0
ENDTAB
  0
TABLE
  2
APPID
  5
9
330
0
100
AcDbSymbolTable
 70
     5
  0
APPID
  5
11
330
9
100
AcDbSymbolTableRecord
100
AcDbRegAppTableRecord
  2
ACAD
 70
     0
  0
APPID
  5
4005
330
9
100
AcDbSymbolTableRecord
100
AcDbRegAppTableRecord
  2
CONTENTTABDATA
 70
     0
  0
APPID
  5
4006
330
9
100
AcDbSymbolTableRecord
100
AcDbRegAppTableRecord
  2
CONTENTCURRENTTAB
 70
     0
  0
APPID
  5
477B
330
9
100
AcDbSymbolTableRecord
100
AcDbRegAppTableRecord
  2
CONTENTBLOCKDESCRIPTION
 70
     0
  0
APPID
  5
477C
330
9
100
AcDbSymbolTableRecord
100
AcDbRegAppTableRecord
  2
CONTENTBLOCKICON
 70
     0
  0
ENDTAB
  0
TABLE
  2
DIMSTYLE
  5
A
330
0
100
AcDbSymbolTable
 70
     2
  0
DIMSTYLE
105
1D
330
A
100
AcDbSymbolTableRecord
100
AcDbDimStyleTableRecord
  2
STANDARD
 70
     0
  3

  4

  5

  6

  7

 40
1.0
 41
0.18
 42
0.0625
 43
0.38
 44
0.18
 45
0.0
 46
0.0
 47
0.0
 48
0.0
140
0.18
141
0.09
142
0.0
143
25.4
144
1.0
145
0.0
146
1.0
147
0.09
 71
     0
 72
     0
 73
     1
 74
     1
 75
     0
 76
     0
 77
     0
 78
     0
170
     0
171
     2
172
     0
173
     0
174
     0
175
     0
176
     0
177
     0
178
     0
270
     2
271
     4
272
     4
273
     2
274
     2
340
10
275
     0
280
     0
281
     0
282
     0
283
     1
284
     0
285
     0
286
     0
287
     3
288
     0
  0
DIMSTYLE
105
52E
102
{ACAD_REACTORS
330
18CAC
330
18CB8
330
18CF5
330
18CF8
330
18D51
330
18D52
330
18D5F
330
18D6B
330
18D9F
330
1905E
330
18CEC
102
}
330
A
100
AcDbSymbolTableRecord
100
AcDbDimStyleTableRecord
  2
標準スタイル
 70
     0
  3

  4

  5

  6

  7

 40
0.0
 41
3.0
 42
0.5
 43
0.5
 44
0.5
 45
0.0
 46
0.0
 47
0.0
 48
0.0
140
3.5
141
0.0
142
0.0
143
25.4
144
1.0
145
0.0
146
1.0
147
1.0
 71
     0
 72
     0
 73
     0
 74
     0
 75
     0
 76
     0
 77
     1
 78
     8
170
     0
171
     2
172
     1
173
     0
174
     0
175
     0
176
     1
177
     1
178
     1
270
     2
271
     2
272
     2
273
     2
274
     2
340
10
275
     0
280
     0
281
     0
282
     0
283
     1
284
     8
285
     0
286
     0
287
     3
288
     0
  0
ENDTAB
  0
TABLE
  2
BLOCK_RECORD
  5
1
330
0
100
AcDbSymbolTable
 70
    11
  0
BLOCK_RECORD
  5
1A
102
{ACAD_XDICTIONARY
360
198B0
102
}
330
1
100
AcDbSymbolTableRecord
100
AcDbBlockTableRecord
  2
*MODEL_SPACE
  0
BLOCK_RECORD
  5
15176
102
{ACAD_XDICTIONARY
360
198B2
102
}
330
1
100
AcDbSymbolTableRecord
100
AcDbBlockTableRecord
  2
*PAPER_SPACE
  0
BLOCK_RECORD
  5
18DB5
330
1
100
AcDbSymbolTableRecord
100
AcDbBlockTableRecord
  2
*D0
  0
BLOCK_RECORD
  5
18DC1
330
1
100
AcDbSymbolTableRecord
100
AcDbBlockTableRecord
  2
*D1
  0
BLOCK_RECORD
  5
18DDD
330
1
100
AcDbSymbolTableRecord
100
AcDbBlockTableRecord
  2
*D2
  0
BLOCK_RECORD
  5
18DEB
330
1
100
AcDbSymbolTableRecord
100
AcDbBlockTableRecord
  2
*D3
  0
BLOCK_RECORD
  5
18E03
330
1
100
AcDbSymbolTableRecord
100
AcDbBlockTableRecord
  2
*D4
  0
BLOCK_RECORD
  5
18E0F
330
1
100
AcDbSymbolTableRecord
100
AcDbBlockTableRecord
  2
*D5
  0
BLOCK_RECORD
  5
18E1B
330
1
100
AcDbSymbolTableRecord
100
AcDbBlockTableRecord
  2
*D6
  0
BLOCK_RECORD
  5
18E27
330
1
100
AcDbSymbolTableRecord
100
AcDbBlockTableRecord
  2
*D7
  0
BLOCK_RECORD
  5
18E33
330
1
100
AcDbSymbolTableRecord
100
AcDbBlockTableRecord
  2
*D8
  0
BLOCK_RECORD
  5
18E4D
330
1
100
AcDbSymbolTableRecord
100
AcDbBlockTableRecord
  2
*D9
  0
BLOCK_RECORD
  5
1905F
330
1
100
AcDbSymbolTableRecord
100
AcDbBlockTableRecord
  2
*D10
  0
ENDTAB
  0
ENDSEC
  0
SECTION
  2
BLOCKS
  0
BLOCK
  5
1B
330
1A
100
AcDbEntity
  8
0
100
AcDbBlockBegin
  2
*MODEL_SPACE
 70
     0
 10
0.0
 20
0.0
 30
0.0
  3
*MODEL_SPACE
  1

  0
ENDBLK
  5
1C
330
1A
100
AcDbEntity
  8
0
100
AcDbBlockEnd
  0
BLOCK
  5
1517A
330
15176
100
AcDbEntity
 67
     1
  8
0
100
AcDbBlockBegin
  2
*PAPER_SPACE
 70
     0
 10
0.0
 20
0.0
 30
0.0
  3
*PAPER_SPACE
  1

  0
ENDBLK
  5
1517B
330
15176
100
AcDbEntity
 67
     1
  8
0
100
AcDbBlockEnd
  0
BLOCK
  5
18DBF
330
18DB5
100
AcDbEntity
  8
0
100
AcDbBlockBegin
  2
*D0
 70
     1
 10
0.0
 20
0.0
 30
0.0
  3
*D0
  1

  0
LINE
  5
19387
330
18DB5
100
AcDbEntity
  8
SUNPOU
 62
     1
100
AcDbLine
 10
-1076.0
 20
1000.707109
 30
0.0
 11
-1076.0
 21
976.9656643910424
 31
0.0
  0
LINE
  5
19388
330
18DB5
100
AcDbEntity
  8
SUNPOU
 62
     1
100
AcDbLine
 10
-1041.0
 20
1000.0
 30
0.0
 11
-1041.0
 21
976.9656643910424
 31
0.0
  0
LINE
  5
19389
330
18DB5
100
AcDbEntity
  8
SUNPOU
 62
     1
100
AcDbLine
 10
-1073.0
 20
977.4656643910425
 30
0.0
 11
-1044.0
 21
977.4656643910425
 31
0.0
  0
SOLID
  5
1938A
330
18DB5
100
AcDbEntity
  8
SUNPOU
 62
     1
100
AcDbTrace
 10
-1073.0
 20
977.9656643910426
 30
0.0
 11
-1073.0
 21
976.9656643910424
 31
0.0
 12
-1076.0
 22
977.4656643910425
 32
0.0
 13
-1076.0
 23
977.4656643910425
 33
0.0
  0
SOLID
  5
1938B
330
18DB5
100
AcDbEntity
  8
SUNPOU
 62
     1
100
AcDbTrace
 10
-1044.0
 20
977.9656643910426
 30
0.0
 11
-1044.0
 21
976.9656643910424
 31
0.0
 12
-1041.0
 22
977.4656643910425
 32
0.0
 13
-1041.0
 23
977.4656643910425
 33
0.0
  0
MTEXT
  5
1938C
330
18DB5
100
AcDbEntity
  8
SUNPOU
 62
     1
100
AcDbMText
 10
-1058.898226113593
 20
980.2156643910425
 30
0.0
 40
3.5
 41
0.0
 71
     5
 72
     1
  1
\A1;35
1001
ACAD
1000
MTEXTBEGIN
1070
    73
1070
     1
1070
    44
1040
1.0
1070
    74
1070
     0
1000
MTEXTEND
  0
POINT
  5
1938D
330
18DB5
100
AcDbEntity
  8
DEFPOINTS
 62
     0
100
AcDbPoint
 10
-1076.0
 20
1001.207109
 30
0.0
  0
POINT
  5
1938E
330
18DB5
100
AcDbEntity
  8
DEFPOINTS
 62
     0
100
AcDbPoint
 10
-1041.0
 20
1000.5
 30
0.0
  0
POINT
  5
1938F
330
18DB5
100
AcDbEntity
  8
DEFPOINTS
 62
     0
100
AcDbPoint
 10
-1041.0
 20
977.4656643910425
 30
0.0
  0
ENDBLK
  5
18DC0
330
18DB5
100
AcDbEntity
  8
0
100
AcDbBlockEnd
  0
BLOCK
  5
18DCD
330
18DC1
100
AcDbEntity
  8
0
100
AcDbBlockBegin
  2
*D1
 70
     1
 10
0.0
 20
0.0
 30
0.0
  3
*D1
  1

  0
LINE
  5
19509
330
18DC1
100
AcDbEntity
  8
SUNPOU
 62
     1
100
AcDbLine
 10
-1040.499999999999
 20
1003.499998
 30
0.0
 11
-1030.752754733544
 21
1003.499998
 31
0.0
  0
LINE
  5
1950A
330
18DC1
100
AcDbEntity
  8
SUNPOU
 62
     1
100
AcDbLine
 10
-1040.499999999999
 20
1000.5
 30
0.0
 11
-1030.752754733544
 21
1000.5
 31
0.0
  0
LINE
  5
1950B
330
18DC1
100
AcDbEntity
  8
SUNPOU
 62
     1
100
AcDbLine
 10
-1031.252754733544
 20
1006.499998
 30
0.0
 11
-1031.252754733544
 21
1009.499998
 31
0.0
  0
LINE
  5
1950C
330
18DC1
100
AcDbEntity
  8
SUNPOU
 62
     1
100
AcDbLine
 10
-1031.252754733544
 20
997.4999999999999
 30
0.0
 11
-1031.252754733544
 21
990.1666666666667
 31
0.0
  0
LINE
  5
1950D
330
18DC1
100
AcDbEntity
  8
SUNPOU
 62
     1
100
AcDbLine
 10
-1031.252754733544
 20
1003.499998
 30
0.0
 11
-1031.252754733544
 21
1000.5
 31
0.0
  0
SOLID
  5
1950E
330
18DC1
100
AcDbEntity
  8
SUNPOU
 62
     1
100
AcDbTrace
 10
-1031.752754733544
 20
1006.499998
 30
0.0
 11
-1030.752754733544
 21
1006.499998
 31
0.0
 12
-1031.252754733544
 22
1003.499998
 32
0.0
 13
-1031.252754733544
 23
1003.499998
 33
0.0
  0
SOLID
  5
1950F
330
18DC1
100
AcDbEntity
  8
SUNPOU
 62
     1
100
AcDbTrace
 10
-1031.752754733544
 20
997.4999999999999
 30
0.0
 11
-1030.752754733544
 21
997.4999999999999
 31
0.0
 12
-1031.252754733544
 22
1000.5
 32
0.0
 13
-1031.252754733544
 23
1000.5
 33
0.0
  0
MTEXT
  5
19510
330
18DC1
100
AcDbEntity
  8
SUNPOU
 62
     1
100
AcDbMText
 10
-1034.002754733544
 20
992.3333333333332
 30
0.0
 40
3.5
 41
0.0
 71
     5
 72
     1
  1
\A1;3
 11
0.0000000000000001
 21
1.0
 31
0.0
1001
ACAD
1000
MTEXTBEGIN
1070
    73
1070
     1
1070
    44
1040
1.0
1070
    74
1070
     0
1000
MTEXTEND
  0
POINT
  5
19511
330
18DC1
100
AcDbEntity
  8
DEFPOINTS
 62
     0
100
AcDbPoint
 10
-1041.0
 20
1003.499998
 30
0.0
  0
POINT
  5
19512
330
18DC1
100
AcDbEntity
  8
DEFPOINTS
 62
     0
100
AcDbPoint
 10
-1041.0
 20
1000.5
 30
0.0
  0
POINT
  5
19513
330
18DC1
100
AcDbEntity
  8
DEFPOINTS
 62
     0
100
AcDbPoint
 10
-1031.252754733544
 20
1000.5
 30
0.0
  0
ENDBLK
  5
18DCE
330
18DC1
100
AcDbEntity
  8
0
100
AcDbBlockEnd
  0
BLOCK
  5
18DE9
330
18DDD
100
AcDbEntity
  8
0
100
AcDbBlockBegin
  2
*D2
 70
     1
 10
0.0
 20
0.0
 30
0.0
  3
*D2
  1

  0
LINE
  5
1953A
330
18DDD
100
AcDbEntity
  8
SUNPOU
 62
     1
100
AcDbLine
 10
-916.5
 20
1119.75
 30
0.0
 11
-908.7290411161097
 21
1119.75
 31
0.0
  0
LINE
  5
1953B
330
18DDD
100
AcDbEntity
  8
SUNPOU
 62
     1
100
AcDbLine
 10
-916.5
 20
1116.250009999999
 30
0.0
 11
-908.7290411161097
 21
1116.250009999999
 31
0.0
  0
LINE
  5
1953C
330
18DDD
100
AcDbEntity
  8
SUNPOU
 62
     1
100
AcDbLine
 10
-909.2290411161098
 20
1122.75
 30
0.0
 11
-909.2290411161098
 21
1125.75
 31
0.0
  0
LINE
  5
1953D
330
18DDD
100
AcDbEntity
  8
SUNPOU
 62
     1
100
AcDbLine
 10
-909.2290411161098
 20
1113.250009999999
 30
0.0
 11
-909.2290411161098
 21
1101.250009999999
 31
0.0
  0
LINE
  5
1953E
330
18DDD
100
AcDbEntity
  8
SUNPOU
 62
     1
100
AcDbLine
 10
-909.2290411161098
 20
1119.75
 30
0.0
 11
-909.2290411161098
 21
1116.250009999999
 31
0.0
  0
SOLID
  5
1953F
330
18DDD
100
AcDbEntity
  8
SUNPOU
 62
     1
100
AcDbTrace
 10
-909.7290411161097
 20
1122.75
 30
0.0
 11
-908.7290411161097
 21
1122.75
 31
0.0
 12
-909.2290411161098
 22
1119.75
 32
0.0
 13
-909.2290411161098
 23
1119.75
 33
0.0
  0
SOLID
  5
19540
330
18DDD
100
AcDbEntity
  8
SUNPOU
 62
     1
100
AcDbTrace
 10
-909.7290411161097
 20
1113.250009999999
 30
0.0
 11
-908.7290411161097
 21
1113.250009999999
 31
0.0
 12
-909.2290411161098
 22
1116.250009999999
 32
0.0
 13
-909.2290411161098
 23
1116.250009999999
 33
0.0
  0
MTEXT
  5
19541
330
18DDD
100
AcDbEntity
  8
SUNPOU
 62
     1
100
AcDbMText
 10
-911.9790411161099
 20
1105.750009999999
 30
0.0
 40
3.5
 41
0.0
 71
     5
 72
     1
  1
\A1;3.5
 11
0.0000000000000001
 21
1.0
 31
0.0
1001
ACAD
1000
MTEXTBEGIN
1070
    73
1070
     1
1070
    44
1040
1.0
1070
    74
1070
     0
1000
MTEXTEND
  0
POINT
  5
19542
330
18DDD
100
AcDbEntity
  8
DEFPOINTS
 62
     0
100
AcDbPoint
 10
-917.0
 20
1119.75
 30
0.0
  0
POINT
  5
19543
330
18DDD
100
AcDbEntity
  8
DEFPOINTS
 62
     0
100
AcDbPoint
 10
-917.0
 20
1116.250009999999
 30
0.0
  0
POINT
  5
19544
330
18DDD
100
AcDbEntity
  8
DEFPOINTS
 62
     0
100
AcDbPoint
 10
-909.2290411161098
 20
1116.250009999999
 30
0.0
  0
ENDBLK
  5
18DEA
330
18DDD
100
AcDbEntity
  8
0
100
AcDbBlockEnd
  0
BLOCK
  5
18DF5
330
18DEB
100
AcDbEntity
  8
0
100
AcDbBlockBegin
  2
*D3
 70
     1
 10
0.0
 20
0.0
 30
0.0
  3
*D3
  1

  0
LINE
  5
196BB
330
18DEB
100
AcDbEntity
  8
SUNPOU
 62
     1
100
AcDbLine
 10
-1003.999999867628
 20
1028.799999869833
 30
0.0
 11
-1003.999999867628
 21
974.6879003921677
 31
0.0
  0
LINE
  5
196BC
330
18DEB
100
AcDbEntity
  8
SUNPOU
 62
     1
100
AcDbLine
 10
-917.0
 20
999.5
 30
0.0
 11
-917.0
 21
974.6879003921677
 31
0.0
  0
LINE
  5
196BD
330
18DEB
100
AcDbEntity
  8
SUNPOU
 62
     1
100
AcDbLine
 10
-1000.999999867628
 20
975.1879003921676
 30
0.0
 11
-920.0
 21
975.1879003921676
 31
0.0
  0
SOLID
  5
196BE
330
18DEB
100
AcDbEntity
  8
SUNPOU
 62
     1
100
AcDbTrace
 10
-1000.999999867628
 20
975.6879003921676
 30
0.0
 11
-1000.999999867628
 21
974.6879003921677
 31
0.0
 12
-1003.999999867628
 22
975.1879003921676
 32
0.0
 13
-1003.999999867628
 23
975.1879003921676
 33
0.0
  0
SOLID
  5
196BF
330
18DEB
100
AcDbEntity
  8
SUNPOU
 62
     1
100
AcDbTrace
 10
-920.0
 20
975.6879003921676
 30
0.0
 11
-920.0
 21
974.6879003921677
 31
0.0
 12
-917.0
 22
975.1879003921676
 32
0.0
 13
-917.0
 23
975.1879003921676
 33
0.0
  0
MTEXT
  5
196C0
330
18DEB
100
AcDbEntity
  8
SUNPOU
 62
     1
100
AcDbMText
 10
-960.4999999338142
 20
977.9379003921675
 30
0.0
 40
3.5
 41
0.0
 71
     5
 72
     1
  1
\A1;(87)
1001
ACAD
1000
MTEXTBEGIN
1070
    73
1070
     1
1070
    44
1040
1.0
1070
    74
1070
     0
1000
MTEXTEND
  0
POINT
  5
196C1
330
18DEB
100
AcDbEntity
  8
DEFPOINTS
 62
     0
100
AcDbPoint
 10
-1003.999999867628
 20
1029.299999869833
 30
0.0
  0
POINT
  5
196C2
330
18DEB
100
AcDbEntity
  8
DEFPOINTS
 62
     0
100
AcDbPoint
 10
-917.0
 20
1000.0
 30
0.0
  0
POINT
  5
196C3
330
18DEB
100
AcDbEntity
  8
DEFPOINTS
 62
     0
100
AcDbPoint
 10
-917.0
 20
975.1879003921676
 30
0.0
  0
ENDBLK
  5
18DF6
330
18DEB
100
AcDbEntity
  8
0
100
AcDbBlockEnd
  0
BLOCK
  5
18E0D
330
18E03
100
AcDbEntity
  8
0
100
AcDbBlockBegin
  2
*D4
 70
     1
 10
0.0
 20
0.0
 30
0.0
  3
*D4
  1

  0
LINE
  5
19141
330
18E03
100
AcDbEntity
  8
SUNPOU
 62
     1
100
AcDbLine
 10
-1000.0
 20
1000.0
 30
0.0
 11
-1000.0
 21
987.172915975108
 31
0.0
  0
LINE
  5
19142
330
18E03
100
AcDbEntity
  8
SUNPOU
 62
     1
100
AcDbLine
 10
-917.0
 20
1000.0
 30
0.0
 11
-917.0
 21
987.172915975108
 31
0.0
  0
LINE
  5
19143
330
18E03
100
AcDbEntity
  8
SUNPOU
 62
     1
100
AcDbLine
 10
-997.0
 20
987.672915975108
 30
0.0
 11
-920.0
 21
987.672915975108
 31
0.0
  0
SOLID
  5
19144
330
18E03
100
AcDbEntity
  8
SUNPOU
 62
     1
100
AcDbTrace
 10
-997.0
 20
988.1729159751079
 30
0.0
 11
-997.0
 21
987.172915975108
 31
0.0
 12
-1000.0
 22
987.672915975108
 32
0.0
 13
-1000.0
 23
987.672915975108
 33
0.0
  0
SOLID
  5
19145
330
18E03
100
AcDbEntity
  8
SUNPOU
 62
     1
100
AcDbTrace
 10
-920.0
 20
988.1729159751079
 30
0.0
 11
-920.0
 21
987.172915975108
 31
0.0
 12
-917.0
 22
987.672915975108
 32
0.0
 13
-917.0
 23
987.672915975108
 33
0.0
  0
MTEXT
  5
19146
330
18E03
100
AcDbEntity
  8
SUNPOU
 62
     1
100
AcDbMText
 10
-958.5
 20
990.422915975108
 30
0.0
 40
3.5
 41
0.0
 71
     5
 72
     1
  1
\A1;83
1001
ACAD
1000
MTEXTBEGIN
1070
    73
1070
     1
1070
    44
1040
1.0
1070
    74
1070
     0
1000
MTEXTEND
  0
POINT
  5
19147
330
18E03
100
AcDbEntity
  8
DEFPOINTS
 62
     0
100
AcDbPoint
 10
-1000.0
 20
1000.5
 30
0.0
  0
POINT
  5
19148
330
18E03
100
AcDbEntity
  8
DEFPOINTS
 62
     0
100
AcDbPoint
 10
-917.0
 20
1000.5
 30
0.0
  0
POINT
  5
19149
330
18E03
100
AcDbEntity
  8
DEFPOINTS
 62
     0
100
AcDbPoint
 10
-917.0
 20
987.672915975108
 30
0.0
  0
ENDBLK
  5
18E0E
330
18E03
100
AcDbEntity
  8
0
100
AcDbBlockEnd
  0
BLOCK
  5
18E19
330
18E0F
100
AcDbEntity
  8
0
100
AcDbBlockBegin
  2
*D5
 70
     1
 10
0.0
 20
0.0
 30
0.0
  3
*D5
  1

  0
LINE
  5
195C5
330
18E0F
100
AcDbEntity
  8
SUNPOU
 62
     1
100
AcDbLine
 10
-929.4500000000001
 20
1077.0
 30
0.0
 11
-895.4219332122939
 21
1077.0
 31
0.0
  0
LINE
  5
195C6
330
18E0F
100
AcDbEntity
  8
SUNPOU
 62
     1
100
AcDbLine
 10
-916.0
 20
1000.5
 30
0.0
 11
-895.4219332122939
 21
1000.5
 31
0.0
  0
LINE
  5
195C7
330
18E0F
100
AcDbEntity
  8
SUNPOU
 62
     1
100
AcDbLine
 10
-895.9219332122939
 20
1074.0
 30
0.0
 11
-895.9219332122939
 21
1003.5
 31
0.0
  0
SOLID
  5
195C8
330
18E0F
100
AcDbEntity
  8
SUNPOU
 62
     1
100
AcDbTrace
 10
-896.4219332122938
 20
1074.0
 30
0.0
 11
-895.4219332122939
 21
1074.0
 31
0.0
 12
-895.9219332122939
 22
1077.0
 32
0.0
 13
-895.9219332122939
 23
1077.0
 33
0.0
  0
SOLID
  5
195C9
330
18E0F
100
AcDbEntity
  8
SUNPOU
 62
     1
100
AcDbTrace
 10
-896.4219332122938
 20
1003.5
 30
0.0
 11
-895.4219332122939
 21
1003.5
 31
0.0
 12
-895.9219332122939
 22
1000.5
 32
0.0
 13
-895.9219332122939
 23
1000.5
 33
0.0
  0
MTEXT
  5
195CA
330
18E0F
100
AcDbEntity
  8
SUNPOU
 62
     1
100
AcDbMText
 10
-898.6719332122939
 20
1038.749999999999
 30
0.0
 40
3.5
 41
0.0
 71
     5
 72
     1
  1
\A1;(76.5)
 11
0.0000000000000001
 21
1.0
 31
0.0
1001
ACAD
1000
MTEXTBEGIN
1070
    73
1070
     1
1070
    44
1040
1.0
1070
    74
1070
     0
1000
MTEXTEND
  0
POINT
  5
195CB
330
18E0F
100
AcDbEntity
  8
DEFPOINTS
 62
     0
100
AcDbPoint
 10
-929.95
 20
1077.0
 30
0.0
  0
POINT
  5
195CC
330
18E0F
100
AcDbEntity
  8
DEFPOINTS
 62
     0
100
AcDbPoint
 10
-916.5
 20
1000.5
 30
0.0
  0
POINT
  5
195CD
330
18E0F
100
AcDbEntity
  8
DEFPOINTS
 62
     0
100
AcDbPoint
 10
-895.9219332122939
 20
1000.5
 30
0.0
  0
ENDBLK
  5
18E1A
330
18E0F
100
AcDbEntity
  8
0
100
AcDbBlockEnd
  0
BLOCK
  5
18E25
330
18E1B
100
AcDbEntity
  8
0
100
AcDbBlockBegin
  2
*D6
 70
     1
 10
0.0
 20
0.0
 30
0.0
  3
*D6
  1

  0
LINE
  5
194B3
330
18E1B
100
AcDbEntity
  8
SUNPOU
 62
     1
100
AcDbLine
 10
-916.5
 20
1000.5
 30
0.0
 11
-907.7917186306939
 21
1000.5
 31
0.0
  0
LINE
  5
194B4
330
18E1B
100
AcDbEntity
  8
SUNPOU
 62
     1
100
AcDbLine
 10
-922.4999999999999
 20
1065.499999999999
 30
0.0
 11
-907.7917186306939
 21
1065.499999999999
 31
0.0
  0
LINE
  5
194B5
330
18E1B
100
AcDbEntity
  8
SUNPOU
 62
     1
100
AcDbLine
 10
-908.2917186306938
 20
1003.5
 30
0.0
 11
-908.2917186306938
 21
1062.5
 31
0.0
  0
SOLID
  5
194B6
330
18E1B
100
AcDbEntity
  8
SUNPOU
 62
     1
100
AcDbTrace
 10
-908.7917186306938
 20
1003.5
 30
0.0
 11
-907.7917186306939
 21
1003.5
 31
0.0
 12
-908.2917186306938
 22
1000.5
 32
0.0
 13
-908.2917186306938
 23
1000.5
 33
0.0
  0
SOLID
  5
194B7
330
18E1B
100
AcDbEntity
  8
SUNPOU
 62
     1
100
AcDbTrace
 10
-908.7917186306938
 20
1062.5
 30
0.0
 11
-907.7917186306939
 21
1062.5
 31
0.0
 12
-908.2917186306938
 22
1065.499999999999
 32
0.0
 13
-908.2917186306938
 23
1065.499999999999
 33
0.0
  0
MTEXT
  5
194B8
330
18E1B
100
AcDbEntity
  8
SUNPOU
 62
     1
100
AcDbMText
 10
-911.0417186306939
 20
1032.999999999999
 30
0.0
 40
3.5
 41
0.0
 71
     5
 72
     1
  1
\A1;65
 11
0.0000000000000001
 21
1.0
 31
0.0
1001
ACAD
1000
MTEXTBEGIN
1070
    73
1070
     1
1070
    44
1040
1.0
1070
    74
1070
     0
1000
MTEXTEND
  0
POINT
  5
194B9
330
18E1B
100
AcDbEntity
  8
DEFPOINTS
 62
     0
100
AcDbPoint
 10
-917.0
 20
1000.5
 30
0.0
  0
POINT
  5
194BA
330
18E1B
100
AcDbEntity
  8
DEFPOINTS
 62
     0
100
AcDbPoint
 10
-923.0
 20
1065.499999999999
 30
0.0
  0
POINT
  5
194BB
330
18E1B
100
AcDbEntity
  8
DEFPOINTS
 62
     0
100
AcDbPoint
 10
-908.2917186306938
 20
1065.499999999999
 30
0.0
  0
ENDBLK
  5
18E26
330
18E1B
100
AcDbEntity
  8
0
100
AcDbBlockEnd
  0
BLOCK
  5
18E31
330
18E27
100
AcDbEntity
  8
0
100
AcDbBlockBegin
  2
*D7
 70
     1
 10
0.0
 20
0.0
 30
0.0
  3
*D7
  1

  0
LINE
  5
1959A
330
18E27
100
AcDbEntity
  8
SUNPOU
 62
     1
100
AcDbLine
 10
-997.0000050000502
 20
1121.500010000037
 30
0.0
 11
-997.0000050000502
 21
1148.720719580013
 31
0.0
  0
LINE
  5
1959B
330
18E27
100
AcDbEntity
  8
SUNPOU
 62
     1
100
AcDbLine
 10
-919.9982761161733
 20
1121.499952096359
 30
0.0
 11
-919.9982761161733
 21
1148.720719580013
 31
0.0
  0
LINE
  5
1959C
330
18E27
100
AcDbEntity
  8
SUNPOU
 62
     1
100
AcDbLine
 10
-994.0000050000501
 20
1148.220719580013
 30
0.0
 11
-922.9982761161732
 21
1148.220719580013
 31
0.0
  0
SOLID
  5
1959D
330
18E27
100
AcDbEntity
  8
SUNPOU
 62
     1
100
AcDbTrace
 10
-994.0000050000501
 20
1148.720719580013
 30
0.0
 11
-994.0000050000501
 21
1147.720719580013
 31
0.0
 12
-997.0000050000502
 22
1148.220719580013
 32
0.0
 13
-997.0000050000502
 23
1148.220719580013
 33
0.0
  0
SOLID
  5
1959E
330
18E27
100
AcDbEntity
  8
SUNPOU
 62
     1
100
AcDbTrace
 10
-922.9982761161732
 20
1148.720719580013
 30
0.0
 11
-922.9982761161732
 21
1147.720719580013
 31
0.0
 12
-919.9982761161733
 22
1148.220719580013
 32
0.0
 13
-919.9982761161733
 23
1148.220719580013
 33
0.0
  0
MTEXT
  5
1959F
330
18E27
100
AcDbEntity
  8
SUNPOU
 62
     1
100
AcDbMText
 10
-958.4991405581117
 20
1150.970719580013
 30
0.0
 40
3.5
 41
0.0
 71
     5
 72
     1
  1
\A1;77
1001
ACAD
1000
MTEXTBEGIN
1070
    73
1070
     1
1070
    44
1040
1.0
1070
    74
1070
     0
1000
MTEXTEND
  0
POINT
  5
195A0
330
18E27
100
AcDbEntity
  8
DEFPOINTS
 62
     0
100
AcDbPoint
 10
-997.0000050000502
 20
1121.000010000037
 30
0.0
  0
POINT
  5
195A1
330
18E27
100
AcDbEntity
  8
DEFPOINTS
 62
     0
100
AcDbPoint
 10
-919.9982761161733
 20
1120.999952096359
 30
0.0
  0
POINT
  5
195A2
330
18E27
100
AcDbEntity
  8
DEFPOINTS
 62
     0
100
AcDbPoint
 10
-919.9982761161733
 20
1148.220719580013
 30
0.0
  0
ENDBLK
  5
18E32
330
18E27
100
AcDbEntity
  8
0
100
AcDbBlockEnd
  0
BLOCK
  5
18E3F
330
18E33
100
AcDbEntity
  8
0
100
AcDbBlockBegin
  2
*D8
 70
     1
 10
0.0
 20
0.0
 30
0.0
  3
*D8
  1

  0
LINE
  5
1958F
330
18E33
100
AcDbEntity
  8
SUNPOU
 62
     1
100
AcDbLine
 10
-1000.0
 20
1137.499999999999
 30
0.0
 11
-1000.0
 21
1148.720719580013
 31
0.0
  0
LINE
  5
19590
330
18E33
100
AcDbEntity
  8
SUNPOU
 62
     1
100
AcDbLine
 10
-997.0000050000502
 20
1122.000010000037
 30
0.0
 11
-997.0000050000502
 21
1148.720719580013
 31
0.0
  0
LINE
  5
19591
330
18E33
100
AcDbEntity
  8
SUNPOU
 62
     1
100
AcDbLine
 10
-994.0000050000501
 20
1148.220719580013
 30
0.0
 11
-991.0000050000501
 21
1148.220719580013
 31
0.0
  0
LINE
  5
19592
330
18E33
100
AcDbEntity
  8
SUNPOU
 62
     1
100
AcDbLine
 10
-1003.0
 20
1148.220719580013
 30
0.0
 11
-1014.125
 21
1148.220719580013
 31
0.0
  0
LINE
  5
19593
330
18E33
100
AcDbEntity
  8
SUNPOU
 62
     1
100
AcDbLine
 10
-997.0000050000502
 20
1148.220719580013
 30
0.0
 11
-1000.0
 21
1148.220719580013
 31
0.0
  0
SOLID
  5
19594
330
18E33
100
AcDbEntity
  8
SUNPOU
 62
     1
100
AcDbTrace
 10
-994.0000050000501
 20
1148.720719580013
 30
0.0
 11
-994.0000050000501
 21
1147.720719580013
 31
0.0
 12
-997.0000050000502
 22
1148.220719580013
 32
0.0
 13
-997.0000050000502
 23
1148.220719580013
 33
0.0
  0
SOLID
  5
19595
330
18E33
100
AcDbEntity
  8
SUNPOU
 62
     1
100
AcDbTrace
 10
-1003.0
 20
1148.720719580013
 30
0.0
 11
-1003.0
 21
1147.720719580013
 31
0.0
 12
-1000.0
 22
1148.220719580013
 32
0.0
 13
-1000.0
 23
1148.220719580013
 33
0.0
  0
MTEXT
  5
19596
330
18E33
100
AcDbEntity
  8
SUNPOU
 62
     1
100
AcDbMText
 10
-1011.958333333333
 20
1150.970719580013
 30
0.0
 40
3.5
 41
0.0
 71
     5
 72
     1
  1
\A1;3
1001
ACAD
1000
MTEXTBEGIN
1070
    73
1070
     1
1070
    44
1040
1.0
1070
    74
1070
     0
1000
MTEXTEND
  0
POINT
  5
19597
330
18E33
100
AcDbEntity
  8
DEFPOINTS
 62
     0
100
AcDbPoint
 10
-1000.0
 20
1137.0
 30
0.0
  0
POINT
  5
19598
330
18E33
100
AcDbEntity
  8
DEFPOINTS
 62
     0
100
AcDbPoint
 10
-997.0000050000502
 20
1121.500010000037
 30
0.0
  0
POINT
  5
19599
330
18E33
100
AcDbEntity
  8
DEFPOINTS
 62
     0
100
AcDbPoint
 10
-997.0000050000502
 20
1148.220719580013
 30
0.0
  0
ENDBLK
  5
18E40
330
18E33
100
AcDbEntity
  8
0
100
AcDbBlockEnd
  0
BLOCK
  5
18E59
330
18E4D
100
AcDbEntity
  8
0
100
AcDbBlockBegin
  2
*D9
 70
     1
 10
0.0
 20
0.0
 30
0.0
  3
*D9
  1

  0
LINE
  5
195BA
330
18E4D
100
AcDbEntity
  8
SUNPOU
 62
     1
100
AcDbLine
 10
-919.9982761161733
 20
1121.999952096359
 30
0.0
 11
-919.9982761161733
 21
1148.720719580013
 31
0.0
  0
LINE
  5
195BB
330
18E4D
100
AcDbEntity
  8
SUNPOU
 62
     1
100
AcDbLine
 10
-917.0
 20
1137.499999999999
 30
0.0
 11
-917.0
 21
1148.720719580013
 31
0.0
  0
LINE
  5
195BC
330
18E4D
100
AcDbEntity
  8
SUNPOU
 62
     1
100
AcDbLine
 10
-922.9982761161732
 20
1148.220719580013
 30
0.0
 11
-925.9982761161731
 21
1148.220719580013
 31
0.0
  0
LINE
  5
195BD
330
18E4D
100
AcDbEntity
  8
SUNPOU
 62
     1
100
AcDbLine
 10
-914.0
 20
1148.220719580013
 30
0.0
 11
-906.6666666666666
 21
1148.220719580013
 31
0.0
  0
LINE
  5
195BE
330
18E4D
100
AcDbEntity
  8
SUNPOU
 62
     1
100
AcDbLine
 10
-919.9982761161733
 20
1148.220719580013
 30
0.0
 11
-917.0
 21
1148.220719580013
 31
0.0
  0
SOLID
  5
195BF
330
18E4D
100
AcDbEntity
  8
SUNPOU
 62
     1
100
AcDbTrace
 10
-922.9982761161732
 20
1148.720719580013
 30
0.0
 11
-922.9982761161732
 21
1147.720719580013
 31
0.0
 12
-919.9982761161733
 22
1148.220719580013
 32
0.0
 13
-919.9982761161733
 23
1148.220719580013
 33
0.0
  0
SOLID
  5
195C0
330
18E4D
100
AcDbEntity
  8
SUNPOU
 62
     1
100
AcDbTrace
 10
-914.0
 20
1148.720719580013
 30
0.0
 11
-914.0
 21
1147.720719580013
 31
0.0
 12
-917.0
 22
1148.220719580013
 32
0.0
 13
-917.0
 23
1148.220719580013
 33
0.0
  0
MTEXT
  5
195C1
330
18E4D
100
AcDbEntity
  8
SUNPOU
 62
     1
100
AcDbMText
 10
-908.8333333333334
 20
1150.970719580013
 30
0.0
 40
3.5
 41
0.0
 71
     5
 72
     1
  1
\A1;3
1001
ACAD
1000
MTEXTBEGIN
1070
    73
1070
     1
1070
    44
1040
1.0
1070
    74
1070
     0
1000
MTEXTEND
  0
POINT
  5
195C2
330
18E4D
100
AcDbEntity
  8
DEFPOINTS
 62
     0
100
AcDbPoint
 10
-919.9982761161733
 20
1121.499952096359
 30
0.0
  0
POINT
  5
195C3
330
18E4D
100
AcDbEntity
  8
DEFPOINTS
 62
     0
100
AcDbPoint
 10
-917.0
 20
1137.0
 30
0.0
  0
POINT
  5
195C4
330
18E4D
100
AcDbEntity
  8
DEFPOINTS
 62
     0
100
AcDbPoint
 10
-917.0
 20
1148.220719580013
 30
0.0
  0
ENDBLK
  5
18E5A
330
18E4D
100
AcDbEntity
  8
0
100
AcDbBlockEnd
  0
BLOCK
  5
19069
330
1905F
100
AcDbEntity
  8
0
100
AcDbBlockBegin
  2
*D10
 70
     1
 10
0.0
 20
0.0
 30
0.0
  3
*D10
  1

  0
LINE
  5
19572
330
1905F
100
AcDbEntity
  8
SUNPOU
 62
     1
100
AcDbLine
 10
-995.7499999999999
 20
1141.000379250332
 30
0.0
 11
-1019.730415380202
 21
1141.000379250332
 31
0.0
  0
LINE
  5
19573
330
1905F
100
AcDbEntity
  8
SUNPOU
 62
     1
100
AcDbLine
 10
-1000.5
 20
1118.0
 30
0.0
 11
-1019.730415380202
 21
1118.0
 31
0.0
  0
LINE
  5
19574
330
1905F
100
AcDbEntity
  8
SUNPOU
 62
     1
100
AcDbLine
 10
-1019.230415380202
 20
1138.000379250332
 30
0.0
 11
-1019.230415380202
 21
1121.0
 31
0.0
  0
SOLID
  5
19575
330
1905F
100
AcDbEntity
  8
SUNPOU
 62
     1
100
AcDbTrace
 10
-1019.730415380202
 20
1138.000379250332
 30
0.0
 11
-1018.730415380202
 21
1138.000379250332
 31
0.0
 12
-1019.230415380202
 22
1141.000379250332
 32
0.0
 13
-1019.230415380202
 23
1141.000379250332
 33
0.0
  0
SOLID
  5
19576
330
1905F
100
AcDbEntity
  8
SUNPOU
 62
     1
100
AcDbTrace
 10
-1019.730415380202
 20
1121.0
 30
0.0
 11
-1018.730415380202
 21
1121.0
 31
0.0
 12
-1019.230415380202
 22
1118.0
 32
0.0
 13
-1019.230415380202
 23
1118.0
 33
0.0
  0
MTEXT
  5
19577
330
1905F
100
AcDbEntity
  8
SUNPOU
 62
     1
100
AcDbMText
 10
-1021.980415380202
 20
1129.500189625166
 30
0.0
 40
3.5
 41
0.0
 71
     5
 72
     1
  1
\A1;23
 11
0.0000000000000001
 21
1.0
 31
0.0
1001
ACAD
1000
MTEXTBEGIN
1070
    73
1070
     1
1070
    44
1040
1.0
1070
    74
1070
     0
1000
MTEXTEND
  0
POINT
  5
19578
330
1905F
100
AcDbEntity
  8
DEFPOINTS
 62
     0
100
AcDbPoint
 10
-995.25
 20
1141.000379250332
 30
0.0
  0
POINT
  5
19579
330
1905F
100
AcDbEntity
  8
DEFPOINTS
 62
     0
100
AcDbPoint
 10
-1000.0
 20
1118.0
 30
0.0
  0
POINT
  5
1957A
330
1905F
100
AcDbEntity
  8
DEFPOINTS
 62
     0
100
AcDbPoint
 10
-1019.230415380202
 20
1118.0
 30
0.0
  0
ENDBLK
  5
1906A
330
1905F
100
AcDbEntity
  8
0
100
AcDbBlockEnd
  0
ENDSEC
  0
SECTION
  2
ENTITIES
  0
MTEXT
  5
5084
330
1A
100
AcDbEntity
  8
0
100
AcDbMText
 10
1985.239088685435
 20
-948.5420423450428
 30
0.0
 40
8.0
 41
0.0
 71
     7
 72
     5
  1

1001
ACAD
1000
MTEXTBEGIN
1070
    73
1070
     1
1070
    44
1040
1.0
1070
    74
1070
     0
1000
MTEXTEND
  0
MTEXT
  5
5085
330
1A
100
AcDbEntity
  8
0
100
AcDbMText
 10
4270.596778580329
 20
22.24825240601649
 30
0.0
 40
8.0
 41
0.0
 71
     7
 72
     5
  1

1001
ACAD
1000
MTEXTBEGIN
1070
    73
1070
     1
1070
    44
1040
1.0
1070
    74
1070
     0
1000
MTEXTEND
  0
MTEXT
  5
5343
330
1A
100
AcDbEntity
  8
SUNPOU
100
AcDbMText
 10
6936.493799262471
 20
9534.359644781135
 30
0.0
 40
10.5
 41
0.0
 71
     1
 72
     5
  1

1001
ACAD
1000
MTEXTBEGIN
1070
    73
1070
     1
1070
    44
1040
1.0
1070
    74
1070
     0
1000
MTEXTEND
  0
MTEXT
  5
544F
330
1A
100
AcDbEntity
  8
0
100
AcDbMText
 10
16317.2832773148
 20
12833.35428897674
 30
0.0
 40
8.0
 41
0.0
 71
     7
 72
     5
  1

1001
ACAD
1000
MTEXTBEGIN
1070
    73
1070
     1
1070
    44
1040
1.0
1070
    74
1070
     0
1000
MTEXTEND
  0
MTEXT
  5
5450
330
1A
100
AcDbEntity
  8
0
100
AcDbMText
 10
18602.64096720969
 20
13804.1445837278
 30
0.0
 40
8.0
 41
0.0
 71
     7
 72
     5
  1

1001
ACAD
1000
MTEXTBEGIN
1070
    73
1070
     1
1070
    44
1040
1.0
1070
    74
1070
     0
1000
MTEXTEND
  0
MTEXT
  5
5451
330
1A
100
AcDbEntity
  8
SUNPOU
100
AcDbMText
 10
21268.53798789184
 20
23316.25597610292
 30
0.0
 40
10.5
 41
0.0
 71
     1
 72
     5
  1

1001
ACAD
1000
MTEXTBEGIN
1070
    73
1070
     1
1070
    44
1040
1.0
1070
    74
1070
     0
1000
MTEXTEND
  0
MTEXT
  5
5452
330
1A
100
AcDbEntity
  8
SUNPOU
100
AcDbMText
 10
13337.6147919559
 20
22369.46284218996
 30
0.0
 40
10.5
 41
0.0
 71
     7
 72
     5
  1

1001
ACAD
1000
MTEXTBEGIN
1070
    73
1070
     1
1070
    44
1040
1.0
1070
    74
1070
     0
1000
MTEXTEND
  0
MTEXT
  5
5453
330
1A
100
AcDbEntity
  8
SUNPOU
100
AcDbMText
 10
16286.59845646867
 20
27270.13891403281
 30
0.0
 40
10.5
 41
0.0
 71
     7
 72
     5
  1

1001
ACAD
1000
MTEXTBEGIN
1070
    73
1070
     1
1070
    44
1040
1.0
1070
    74
1070
     0
1000
MTEXTEND
  0
MTEXT
  5
5454
330
1A
100
AcDbEntity
  8
SUNPOU
100
AcDbMText
 10
20795.67658441924
 20
29706.43966165288
 30
0.0
 40
10.5
 41
0.0
 71
     7
 72
     5
  1

1001
ACAD
1000
MTEXTBEGIN
1070
    73
1070
     1
1070
    44
1040
1.0
1070
    74
1070
     0
1000
MTEXTEND
  0
MTEXT
  5
5455
330
1A
100
AcDbEntity
  8
0
100
AcDbMText
 10
16611.93789220314
 20
14707.52144344448
 30
0.0
 40
8.0
 41
0.0
 71
     7
 72
     5
  1

1001
ACAD
1000
MTEXTBEGIN
1070
    73
1070
     1
1070
    44
1040
1.0
1070
    74
1070
     0
1000
MTEXTEND
  0
MTEXT
  5
5456
330
1A
100
AcDbEntity
  8
0
100
AcDbMText
 10
18897.29558209804
 20
15678.31173819554
 30
0.0
 40
8.0
 41
0.0
 71
     7
 72
     5
  1

1001
ACAD
1000
MTEXTBEGIN
1070
    73
1070
     1
1070
    44
1040
1.0
1070
    74
1070
     0
1000
MTEXTEND
  0
MTEXT
  5
5457
330
1A
100
AcDbEntity
  8
SUNPOU
100
AcDbMText
 10
21563.19260278019
 20
25190.42313057066
 30
0.0
 40
10.5
 41
0.0
 71
     1
 72
     5
  1

1001
ACAD
1000
MTEXTBEGIN
1070
    73
1070
     1
1070
    44
1040
1.0
1070
    74
1070
     0
1000
MTEXTEND
  0
MTEXT
  5
5458
330
1A
100
AcDbEntity
  8
SUNPOU
100
AcDbMText
 10
13632.26940684426
 20
24243.6299966577
 30
0.0
 40
10.5
 41
0.0
 71
     7
 72
     5
  1

1001
ACAD
1000
MTEXTBEGIN
1070
    73
1070
     1
1070
    44
1040
1.0
1070
    74
1070
     0
1000
MTEXTEND
  0
MTEXT
  5
5459
330
1A
100
AcDbEntity
  8
SUNPOU
100
AcDbMText
 10
16581.25307135702
 20
29144.30606850055
 30
0.0
 40
10.5
 41
0.0
 71
     7
 72
     5
  1

1001
ACAD
1000
MTEXTBEGIN
1070
    73
1070
     1
1070
    44
1040
1.0
1070
    74
1070
     0
1000
MTEXTEND
  0
MTEXT
  5
545A
330
1A
100
AcDbEntity
  8
SUNPOU
100
AcDbMText
 10
21090.33119930759
 20
31580.60681612062
 30
0.0
 40
10.5
 41
0.0
 71
     7
 72
     5
  1

1001
ACAD
1000
MTEXTBEGIN
1070
    73
1070
     1
1070
    44
1040
1.0
1070
    74
1070
     0
1000
MTEXTEND
  0
MTEXT
  5
545B
330
1A
100
AcDbEntity
  8
0
100
AcDbMText
 10
22871.60517627167
 20
23974.88367124799
 30
0.0
 40
8.0
 41
0.0
 71
     7
 72
     5
  1

1001
ACAD
1000
MTEXTBEGIN
1070
    73
1070
     1
1070
    44
1040
1.0
1070
    74
1070
     0
1000
MTEXTEND
  0
MTEXT
  5
545C
330
1A
100
AcDbEntity
  8
0
100
AcDbMText
 10
25156.96286616657
 20
24945.67396599906
 30
0.0
 40
8.0
 41
0.0
 71
     7
 72
     5
  1

1001
ACAD
1000
MTEXTBEGIN
1070
    73
1070
     1
1070
    44
1040
1.0
1070
    74
1070
     0
1000
MTEXTEND
  0
MTEXT
  5
545D
330
1A
100
AcDbEntity
  8
SUNPOU
100
AcDbMText
 10
27822.85988684871
 20
34457.78535837418
 30
0.0
 40
10.5
 41
0.0
 71
     1
 72
     5
  1

1001
ACAD
1000
MTEXTBEGIN
1070
    73
1070
     1
1070
    44
1040
1.0
1070
    74
1070
     0
1000
MTEXTEND
  0
MTEXT
  5
545E
330
1A
100
AcDbEntity
  8
SUNPOU
100
AcDbMText
 10
19891.93669091278
 20
33510.99222446122
 30
0.0
 40
10.5
 41
0.0
 71
     7
 72
     5
  1

1001
ACAD
1000
MTEXTBEGIN
1070
    73
1070
     1
1070
    44
1040
1.0
1070
    74
1070
     0
1000
MTEXTEND
  0
MTEXT
  5
545F
330
1A
100
AcDbEntity
  8
SUNPOU
100
AcDbMText
 10
22840.92035542555
 20
38411.66829630407
 30
0.0
 40
10.5
 41
0.0
 71
     7
 72
     5
  1

1001
ACAD
1000
MTEXTBEGIN
1070
    73
1070
     1
1070
    44
1040
1.0
1070
    74
1070
     0
1000
MTEXTEND
  0
MTEXT
  5
5460
330
1A
100
AcDbEntity
  8
SUNPOU
100
AcDbMText
 10
27349.99848337611
 20
40847.96904392415
 30
0.0
 40
10.5
 41
0.0
 71
     7
 72
     5
  1

1001
ACAD
1000
MTEXTBEGIN
1070
    73
1070
     1
1070
    44
1040
1.0
1070
    74
1070
     0
1000
MTEXTEND
  0
MTEXT
  5
55B7
330
1A
100
AcDbEntity
  8
SUNPOU
100
AcDbMText
 10
67424.23923338197
 20
64463.86602884816
 30
0.0
 40
10.5
 41
0.0
 71
     9
 72
     5
  1

1001
ACAD
1000
MTEXTBEGIN
1070
    73
1070
     1
1070
    44
1040
1.0
1070
    74
1070
     0
1000
MTEXTEND
  0
MTEXT
  5
55B8
330
1A
100
AcDbEntity
  8
SUNPOU
100
AcDbMText
 10
76146.40679929998
 20
71879.70056038563
 30
0.0
 40
10.5
 41
0.0
 71
     9
 72
     5
  1

1001
ACAD
1000
MTEXTBEGIN
1070
    73
1070
     1
1070
    44
1040
1.0
1070
    74
1070
     0
1000
MTEXTEND
  0
MTEXT
  5
55B9
330
1A
100
AcDbEntity
  8
SUNPOU
100
AcDbMText
 10
95100.16551662994
 20
89346.27661287766
 30
0.0
 40
10.5
 41
0.0
 71
     9
 72
     5
  1

1001
ACAD
1000
MTEXTBEGIN
1070
    73
1070
     1
1070
    44
1040
1.0
1070
    74
1070
     0
1000
MTEXTEND
  0
MTEXT
  5
55BA
330
1A
100
AcDbEntity
  8
SUNPOU
100
AcDbMText
 10
97043.57276333936
 20
87545.22753299966
 30
0.0
 40
3.5
 41
0.0
 71
     9
 72
     5
  1

1001
ACAD
1000
MTEXTBEGIN
1070
    73
1070
     1
1070
    44
1040
1.0
1070
    74
1070
     0
1000
MTEXTEND
  0
MTEXT
  5
55BB
330
1A
100
AcDbEntity
  8
SUNPOU
100
AcDbMText
 10
128169.752595959
 20
130040.1732006569
 30
0.0
 40
10.5
 41
0.0
 71
     9
 72
     5
  1

1001
ACAD
1000
MTEXTBEGIN
1070
    73
1070
     1
1070
    44
1040
1.0
1070
    74
1070
     0
1000
MTEXTEND
  0
MTEXT
  5
55BC
330
1A
100
AcDbEntity
  8
SUNPOU
100
AcDbMText
 10
130113.1598426684
 20
128239.1241207789
 30
0.0
 40
3.5
 41
0.0
 71
     9
 72
     5
  1

1001
ACAD
1000
MTEXTBEGIN
1070
    73
1070
     1
1070
    44
1040
1.0
1070
    74
1070
     0
1000
MTEXTEND
  0
MTEXT
  5
55BD
330
1A
100
AcDbEntity
  8
SUNPOU
100
AcDbMText
 10
78610.02030175463
 20
75873.33835563206
 30
0.0
 40
10.5
 41
0.0
 71
     9
 72
     5
  1

1001
ACAD
1000
MTEXTBEGIN
1070
    73
1070
     1
1070
    44
1040
1.0
1070
    74
1070
     0
1000
MTEXTEND
  0
MTEXT
  5
55BE
330
1A
100
AcDbEntity
  8
SUNPOU
100
AcDbMText
 10
64662.02020137863
 20
56700.93921651987
 30
0.0
 40
3.5
 41
0.0
 71
     7
 72
     5
  1

1001
ACAD
1000
MTEXTBEGIN
1070
    73
1070
     1
1070
    44
1040
1.0
1070
    74
1070
     0
1000
MTEXTEND
  0
MTEXT
  5
55BF
330
1A
100
AcDbEntity
  8
SUNPOU
100
AcDbMText
 10
45647.18959837178
 20
44463.08794733807
 30
0.0
 40
10.5
 41
0.0
 71
     7
 72
     5
  1

1001
ACAD
1000
MTEXTBEGIN
1070
    73
1070
     1
1070
    44
1040
1.0
1070
    74
1070
     0
1000
MTEXTEND
  0
MTEXT
  5
55C0
330
1A
100
AcDbEntity
  8
SUNPOU
100
AcDbMText
 10
33189.96133342368
 20
28618.15636923965
 30
0.0
 40
35.0
 41
0.0
 71
     9
 72
     5
  1

1001
ACAD
1000
MTEXTBEGIN
1070
    73
1070
     1
1070
    44
1040
1.0
1070
    74
1070
     0
1000
MTEXTEND
  0
MTEXT
  5
55C1
330
1A
100
AcDbEntity
  8
SUNPOU
100
AcDbMText
 10
32098.44639099864
 20
29226.93177928835
 30
0.0
 40
350.0000004171781
 41
0.0
 71
     7
 72
     5
  1

1001
ACAD
1000
MTEXTBEGIN
1070
    73
1070
     1
1070
    44
1040
1.0
1070
    74
1070
     0
1000
MTEXTEND
  0
MTEXT
  5
55C2
330
1A
100
AcDbEntity
  8
0
100
AcDbMText
 10
38142.39714894154
 20
27206.85414142458
 30
0.0
 40
8.0
 41
0.0
 71
     7
 72
     5
  1

1001
ACAD
1000
MTEXTBEGIN
1070
    73
1070
     1
1070
    44
1040
1.0
1070
    74
1070
     0
1000
MTEXTEND
  0
MTEXT
  5
55C3
330
1A
100
AcDbEntity
  8
0
100
AcDbMText
 10
40427.75483883644
 20
28177.64443617564
 30
0.0
 40
8.0
 41
0.0
 71
     7
 72
     5
  1

1001
ACAD
1000
MTEXTBEGIN
1070
    73
1070
     1
1070
    44
1040
1.0
1070
    74
1070
     0
1000
MTEXTEND
  0
MTEXT
  5
55C4
330
1A
100
AcDbEntity
  8
SUNPOU
100
AcDbMText
 10
43093.65185951858
 20
37689.75582855077
 30
0.0
 40
10.5
 41
0.0
 71
     1
 72
     5
  1

1001
ACAD
1000
MTEXTBEGIN
1070
    73
1070
     1
1070
    44
1040
1.0
1070
    74
1070
     0
1000
MTEXTEND
  0
MTEXT
  5
55C5
330
1A
100
AcDbEntity
  8
SUNPOU
100
AcDbMText
 10
35162.72866358265
 20
36742.96269463781
 30
0.0
 40
10.5
 41
0.0
 71
     7
 72
     5
  1

1001
ACAD
1000
MTEXTBEGIN
1070
    73
1070
     1
1070
    44
1040
1.0
1070
    74
1070
     0
1000
MTEXTEND
  0
MTEXT
  5
55C6
330
1A
100
AcDbEntity
  8
SUNPOU
100
AcDbMText
 10
38111.71232809542
 20
41643.63876648066
 30
0.0
 40
10.5
 41
0.0
 71
     7
 72
     5
  1

1001
ACAD
1000
MTEXTBEGIN
1070
    73
1070
     1
1070
    44
1040
1.0
1070
    74
1070
     0
1000
MTEXTEND
  0
MTEXT
  5
55C7
330
1A
100
AcDbEntity
  8
SUNPOU
100
AcDbMText
 10
42620.79045604597
 20
44079.93951410074
 30
0.0
 40
10.5
 41
0.0
 71
     7
 72
     5
  1

1001
ACAD
1000
MTEXTBEGIN
1070
    73
1070
     1
1070
    44
1040
1.0
1070
    74
1070
     0
1000
MTEXTEND
  0
MTEXT
  5
55C8
330
1A
100
AcDbEntity
  8
SUNPOU
100
AcDbMText
 10
26221.62834281429
 20
23077.53566448964
 30
0.0
 40
10.5
 41
0.0
 71
     7
 72
     5
  1

1001
ACAD
1000
MTEXTBEGIN
1070
    73
1070
     1
1070
    44
1040
1.0
1070
    74
1070
     0
1000
MTEXTEND
  0
MTEXT
  5
55C9
330
1A
100
AcDbEntity
  8
SUNPOU
100
AcDbMText
 10
77413.14677671455
 20
68750.51622813789
 30
0.0
 40
10.5
 41
0.0
 71
     9
 72
     5
  1

1001
ACAD
1000
MTEXTBEGIN
1070
    73
1070
     1
1070
    44
1040
1.0
1070
    74
1070
     0
1000
MTEXTEND
  0
MTEXT
  5
55CA
330
1A
100
AcDbEntity
  8
SUNPOU
100
AcDbMText
 10
86135.31434263256
 20
76166.35075967536
 30
0.0
 40
10.5
 41
0.0
 71
     9
 72
     5
  1

1001
ACAD
1000
MTEXTBEGIN
1070
    73
1070
     1
1070
    44
1040
1.0
1070
    74
1070
     0
1000
MTEXTEND
  0
MTEXT
  5
55CB
330
1A
100
AcDbEntity
  8
SUNPOU
100
AcDbMText
 10
105089.0730599625
 20
93632.92681216739
 30
0.0
 40
10.5
 41
0.0
 71
     9
 72
     5
  1

1001
ACAD
1000
MTEXTBEGIN
1070
    73
1070
     1
1070
    44
1040
1.0
1070
    74
1070
     0
1000
MTEXTEND
  0
MTEXT
  5
55CC
330
1A
100
AcDbEntity
  8
SUNPOU
100
AcDbMText
 10
107032.4803066719
 20
91831.8777322894
 30
0.0
 40
3.5
 41
0.0
 71
     9
 72
     5
  1

1001
ACAD
1000
MTEXTBEGIN
1070
    73
1070
     1
1070
    44
1040
1.0
1070
    74
1070
     0
1000
MTEXTEND
  0
MTEXT
  5
55CD
330
1A
100
AcDbEntity
  8
SUNPOU
100
AcDbMText
 10
138158.6601392916
 20
134326.8233999467
 30
0.0
 40
10.5
 41
0.0
 71
     9
 72
     5
  1

1001
ACAD
1000
MTEXTBEGIN
1070
    73
1070
     1
1070
    44
1040
1.0
1070
    74
1070
     0
1000
MTEXTEND
  0
MTEXT
  5
55CE
330
1A
100
AcDbEntity
  8
SUNPOU
100
AcDbMText
 10
140102.067386001
 20
132525.7743200686
 30
0.0
 40
3.5
 41
0.0
 71
     9
 72
     5
  1

1001
ACAD
1000
MTEXTBEGIN
1070
    73
1070
     1
1070
    44
1040
1.0
1070
    74
1070
     0
1000
MTEXTEND
  0
MTEXT
  5
55CF
330
1A
100
AcDbEntity
  8
SUNPOU
100
AcDbMText
 10
88598.92784508721
 20
80159.98855492179
 30
0.0
 40
10.5
 41
0.0
 71
     9
 72
     5
  1

1001
ACAD
1000
MTEXTBEGIN
1070
    73
1070
     1
1070
    44
1040
1.0
1070
    74
1070
     0
1000
MTEXTEND
  0
MTEXT
  5
55D0
330
1A
100
AcDbEntity
  8
SUNPOU
100
AcDbMText
 10
74650.92774471121
 20
60987.5894158096
 30
0.0
 40
3.5
 41
0.0
 71
     7
 72
     5
  1

1001
ACAD
1000
MTEXTBEGIN
1070
    73
1070
     1
1070
    44
1040
1.0
1070
    74
1070
     0
1000
MTEXTEND
  0
MTEXT
  5
55D1
330
1A
100
AcDbEntity
  8
SUNPOU
100
AcDbMText
 10
55636.09714170436
 20
48749.73814662781
 30
0.0
 40
10.5
 41
0.0
 71
     7
 72
     5
  1

1001
ACAD
1000
MTEXTBEGIN
1070
    73
1070
     1
1070
    44
1040
1.0
1070
    74
1070
     0
1000
MTEXTEND
  0
MTEXT
  5
55D2
330
1A
100
AcDbEntity
  8
SUNPOU
100
AcDbMText
 10
43178.86887675626
 20
32904.80656852938
 30
0.0
 40
35.0
 41
0.0
 71
     9
 72
     5
  1

1001
ACAD
1000
MTEXTBEGIN
1070
    73
1070
     1
1070
    44
1040
1.0
1070
    74
1070
     0
1000
MTEXTEND
  0
MTEXT
  5
55D3
330
1A
100
AcDbEntity
  8
SUNPOU
100
AcDbMText
 10
42087.35393433121
 20
33513.58197857809
 30
0.0
 40
350.0000004171781
 41
0.0
 71
     7
 72
     5
  1

1001
ACAD
1000
MTEXTBEGIN
1070
    73
1070
     1
1070
    44
1040
1.0
1070
    74
1070
     0
1000
MTEXTEND
  0
MTEXT
  5
55D4
330
1A
100
AcDbEntity
  8
0
100
AcDbMText
 10
48131.30469227412
 20
31493.50434071431
 30
0.0
 40
8.0
 41
0.0
 71
     7
 72
     5
  1

1001
ACAD
1000
MTEXTBEGIN
1070
    73
1070
     1
1070
    44
1040
1.0
1070
    74
1070
     0
1000
MTEXTEND
  0
MTEXT
  5
55D5
330
1A
100
AcDbEntity
  8
0
100
AcDbMText
 10
50416.66238216901
 20
32464.29463546537
 30
0.0
 40
8.0
 41
0.0
 71
     7
 72
     5
  1

1001
ACAD
1000
MTEXTBEGIN
1070
    73
1070
     1
1070
    44
1040
1.0
1070
    74
1070
     0
1000
MTEXTEND
  0
MTEXT
  5
55D6
330
1A
100
AcDbEntity
  8
SUNPOU
100
AcDbMText
 10
53082.55940285115
 20
41976.4060278405
 30
0.0
 40
10.5
 41
0.0
 71
     1
 72
     5
  1

1001
ACAD
1000
MTEXTBEGIN
1070
    73
1070
     1
1070
    44
1040
1.0
1070
    74
1070
     0
1000
MTEXTEND
  0
MTEXT
  5
55D7
330
1A
100
AcDbEntity
  8
SUNPOU
100
AcDbMText
 10
45151.63620691522
 20
41029.61289392755
 30
0.0
 40
10.5
 41
0.0
 71
     7
 72
     5
  1

1001
ACAD
1000
MTEXTBEGIN
1070
    73
1070
     1
1070
    44
1040
1.0
1070
    74
1070
     0
1000
MTEXTEND
  0
MTEXT
  5
55D8
330
1A
100
AcDbEntity
  8
SUNPOU
100
AcDbMText
 10
48100.61987142798
 20
45930.28896577039
 30
0.0
 40
10.5
 41
0.0
 71
     7
 72
     5
  1

1001
ACAD
1000
MTEXTBEGIN
1070
    73
1070
     1
1070
    44
1040
1.0
1070
    74
1070
     0
1000
MTEXTEND
  0
MTEXT
  5
55D9
330
1A
100
AcDbEntity
  8
SUNPOU
100
AcDbMText
 10
52609.69799937854
 20
48366.58971339046
 30
0.0
 40
10.5
 41
0.0
 71
     7
 72
     5
  1

1001
ACAD
1000
MTEXTBEGIN
1070
    73
1070
     1
1070
    44
1040
1.0
1070
    74
1070
     0
1000
MTEXTEND
  0
MTEXT
  5
55DA
330
1A
100
AcDbEntity
  8
SUNPOU
100
AcDbMText
 10
36210.53588614687
 20
27364.18586377937
 30
0.0
 40
10.5
 41
0.0
 71
     7
 72
     5
  1

1001
ACAD
1000
MTEXTBEGIN
1070
    73
1070
     1
1070
    44
1040
1.0
1070
    74
1070
     0
1000
MTEXTEND
  0
MTEXT
  5
55DB
330
1A
100
AcDbEntity
  8
SUNPOU
100
AcDbMText
 10
38021.29879752181
 20
33691.59985125794
 30
0.0
 40
10.5
 41
0.0
 71
     9
 72
     5
  1

1001
ACAD
1000
MTEXTBEGIN
1070
    73
1070
     1
1070
    44
1040
1.0
1070
    74
1070
     0
1000
MTEXTEND
  0
MTEXT
  5
55DC
330
1A
100
AcDbEntity
  8
SUNPOU
100
AcDbMText
 10
46743.46636343979
 20
41107.43438279541
 30
0.0
 40
10.5
 41
0.0
 71
     9
 72
     5
  1

1001
ACAD
1000
MTEXTBEGIN
1070
    73
1070
     1
1070
    44
1040
1.0
1070
    74
1070
     0
1000
MTEXTEND
  0
MTEXT
  5
55DD
330
1A
100
AcDbEntity
  8
SUNPOU
100
AcDbMText
 10
65697.22508076975
 20
58574.01043528746
 30
0.0
 40
10.5
 41
0.0
 71
     9
 72
     5
  1

1001
ACAD
1000
MTEXTBEGIN
1070
    73
1070
     1
1070
    44
1040
1.0
1070
    74
1070
     0
1000
MTEXTEND
  0
MTEXT
  5
55DE
330
1A
100
AcDbEntity
  8
SUNPOU
100
AcDbMText
 10
67640.63232747917
 20
56772.96135540945
 30
0.0
 40
3.5
 41
0.0
 71
     9
 72
     5
  1

1001
ACAD
1000
MTEXTBEGIN
1070
    73
1070
     1
1070
    44
1040
1.0
1070
    74
1070
     0
1000
MTEXTEND
  0
MTEXT
  5
55DF
330
1A
100
AcDbEntity
  8
SUNPOU
100
AcDbMText
 10
98766.81216009888
 20
99267.9070230668
 30
0.0
 40
10.5
 41
0.0
 71
     9
 72
     5
  1

1001
ACAD
1000
MTEXTBEGIN
1070
    73
1070
     1
1070
    44
1040
1.0
1070
    74
1070
     0
1000
MTEXTEND
  0
MTEXT
  5
55E0
330
1A
100
AcDbEntity
  8
SUNPOU
100
AcDbMText
 10
100710.2194068083
 20
97466.85794318878
 30
0.0
 40
3.5
 41
0.0
 71
     9
 72
     5
  1

1001
ACAD
1000
MTEXTBEGIN
1070
    73
1070
     1
1070
    44
1040
1.0
1070
    74
1070
     0
1000
MTEXTEND
  0
MTEXT
  5
55E1
330
1A
100
AcDbEntity
  8
SUNPOU
100
AcDbMText
 10
49207.07986589444
 20
45101.07217804185
 30
0.0
 40
10.5
 41
0.0
 71
     9
 72
     5
  1

1001
ACAD
1000
MTEXTBEGIN
1070
    73
1070
     1
1070
    44
1040
1.0
1070
    74
1070
     0
1000
MTEXTEND
  0
MTEXT
  5
55E2
330
1A
100
AcDbEntity
  8
SUNPOU
100
AcDbMText
 10
35259.07976551845
 20
25928.67303892964
 30
0.0
 40
3.5
 41
0.0
 71
     7
 72
     5
  1

1001
ACAD
1000
MTEXTBEGIN
1070
    73
1070
     1
1070
    44
1040
1.0
1070
    74
1070
     0
1000
MTEXTEND
  0
MTEXT
  5
55E3
330
1A
100
AcDbEntity
  8
SUNPOU
100
AcDbMText
 10
48951.43044828905
 20
35287.73625995099
 30
0.0
 40
10.5
 41
0.0
 71
     9
 72
     5
  1

1001
ACAD
1000
MTEXTBEGIN
1070
    73
1070
     1
1070
    44
1040
1.0
1070
    74
1070
     0
1000
MTEXTEND
  0
MTEXT
  5
55E4
330
1A
100
AcDbEntity
  8
SUNPOU
100
AcDbMText
 10
57673.59801420702
 20
42703.57079148847
 30
0.0
 40
10.5
 41
0.0
 71
     9
 72
     5
  1

1001
ACAD
1000
MTEXTBEGIN
1070
    73
1070
     1
1070
    44
1040
1.0
1070
    74
1070
     0
1000
MTEXTEND
  0
MTEXT
  5
55E5
330
1A
100
AcDbEntity
  8
SUNPOU
100
AcDbMText
 10
76627.35673153699
 20
60170.14684398051
 30
0.0
 40
10.5
 41
0.0
 71
     9
 72
     5
  1

1001
ACAD
1000
MTEXTBEGIN
1070
    73
1070
     1
1070
    44
1040
1.0
1070
    74
1070
     0
1000
MTEXTEND
  0
MTEXT
  5
55E6
330
1A
100
AcDbEntity
  8
SUNPOU
100
AcDbMText
 10
78570.76397824641
 20
58369.09776410251
 30
0.0
 40
3.5
 41
0.0
 71
     9
 72
     5
  1

1001
ACAD
1000
MTEXTBEGIN
1070
    73
1070
     1
1070
    44
1040
1.0
1070
    74
1070
     0
1000
MTEXTEND
  0
MTEXT
  5
55E7
330
1A
100
AcDbEntity
  8
SUNPOU
100
AcDbMText
 10
109696.9438108661
 20
100864.0434317598
 30
0.0
 40
10.5
 41
0.0
 71
     9
 72
     5
  1

1001
ACAD
1000
MTEXTBEGIN
1070
    73
1070
     1
1070
    44
1040
1.0
1070
    74
1070
     0
1000
MTEXTEND
  0
MTEXT
  5
55E8
330
1A
100
AcDbEntity
  8
SUNPOU
100
AcDbMText
 10
111640.3510575755
 20
99062.99435188183
 30
0.0
 40
3.5
 41
0.0
 71
     9
 72
     5
  1

1001
ACAD
1000
MTEXTBEGIN
1070
    73
1070
     1
1070
    44
1040
1.0
1070
    74
1070
     0
1000
MTEXTEND
  0
MTEXT
  5
55E9
330
1A
100
AcDbEntity
  8
SUNPOU
100
AcDbMText
 10
60137.21151666167
 20
46697.20858673491
 30
0.0
 40
10.5
 41
0.0
 71
     9
 72
     5
  1

1001
ACAD
1000
MTEXTBEGIN
1070
    73
1070
     1
1070
    44
1040
1.0
1070
    74
1070
     0
1000
MTEXTEND
  0
MTEXT
  5
55EA
330
1A
100
AcDbEntity
  8
SUNPOU
100
AcDbMText
 10
46189.21141628568
 20
27524.80944762269
 30
0.0
 40
3.5
 41
0.0
 71
     7
 72
     5
  1

1001
ACAD
1000
MTEXTBEGIN
1070
    73
1070
     1
1070
    44
1040
1.0
1070
    74
1070
     0
1000
MTEXTEND
  0
MTEXT
  5
55EB
330
1A
100
AcDbEntity
  8
SUNPOU
100
AcDbMText
 10
45007.68847015541
 20
38269.57947701874
 30
0.0
 40
10.5
 41
0.0
 71
     9
 72
     5
  1

1001
ACAD
1000
MTEXTBEGIN
1070
    73
1070
     1
1070
    44
1040
1.0
1070
    74
1070
     0
1000
MTEXTEND
  0
MTEXT
  5
55EC
330
1A
100
AcDbEntity
  8
SUNPOU
100
AcDbMText
 10
63961.44718748539
 20
55736.15552951081
 30
0.0
 40
10.5
 41
0.0
 71
     9
 72
     5
  1

1001
ACAD
1000
MTEXTBEGIN
1070
    73
1070
     1
1070
    44
1040
1.0
1070
    74
1070
     0
1000
MTEXTEND
  0
MTEXT
  5
55ED
330
1A
100
AcDbEntity
  8
SUNPOU
100
AcDbMText
 10
65904.85443419479
 20
53935.10644963279
 30
0.0
 40
3.5
 41
0.0
 71
     9
 72
     5
  1

1001
ACAD
1000
MTEXTBEGIN
1070
    73
1070
     1
1070
    44
1040
1.0
1070
    74
1070
     0
1000
MTEXTEND
  0
MTEXT
  5
55EE
330
1A
100
AcDbEntity
  8
SUNPOU
100
AcDbMText
 10
97031.03426681451
 20
96430.05211729015
 30
0.0
 40
10.5
 41
0.0
 71
     9
 72
     5
  1

1001
ACAD
1000
MTEXTBEGIN
1070
    73
1070
     1
1070
    44
1040
1.0
1070
    74
1070
     0
1000
MTEXTEND
  0
MTEXT
  5
55EF
330
1A
100
AcDbEntity
  8
SUNPOU
100
AcDbMText
 10
98974.44151352393
 20
94629.00303741212
 30
0.0
 40
3.5
 41
0.0
 71
     9
 72
     5
  1

1001
ACAD
1000
MTEXTBEGIN
1070
    73
1070
     1
1070
    44
1040
1.0
1070
    74
1070
     0
1000
MTEXTEND
  0
MTEXT
  5
55F0
330
1A
100
AcDbEntity
  8
SUNPOU
100
AcDbMText
 10
47471.30197261006
 20
42263.21727226519
 30
0.0
 40
10.5
 41
0.0
 71
     9
 72
     5
  1

1001
ACAD
1000
MTEXTBEGIN
1070
    73
1070
     1
1070
    44
1040
1.0
1070
    74
1070
     0
1000
MTEXTEND
  0
MTEXT
  5
55F1
330
1A
100
AcDbEntity
  8
SUNPOU
100
AcDbMText
 10
33523.30187223408
 20
23090.81813315298
 30
0.0
 40
3.5
 41
0.0
 71
     7
 72
     5
  1

1001
ACAD
1000
MTEXTBEGIN
1070
    73
1070
     1
1070
    44
1040
1.0
1070
    74
1070
     0
1000
MTEXTEND
  0
MTEXT
  5
55F2
330
1A
100
AcDbEntity
  8
SUNPOU
100
AcDbMText
 10
57959.46254102503
 20
50038.08111611015
 30
0.0
 40
10.5
 41
0.0
 71
     9
 72
     5
  1

1001
ACAD
1000
MTEXTBEGIN
1070
    73
1070
     1
1070
    44
1040
1.0
1070
    74
1070
     0
1000
MTEXTEND
  0
MTEXT
  5
55F3
330
1A
100
AcDbEntity
  8
SUNPOU
100
AcDbMText
 10
76913.22125835503
 20
67504.65716860222
 30
0.0
 40
10.5
 41
0.0
 71
     9
 72
     5
  1

1001
ACAD
1000
MTEXTBEGIN
1070
    73
1070
     1
1070
    44
1040
1.0
1070
    74
1070
     0
1000
MTEXTEND
  0
MTEXT
  5
55F4
330
1A
100
AcDbEntity
  8
SUNPOU
100
AcDbMText
 10
78856.62850506443
 20
65703.6080887242
 30
0.0
 40
3.5
 41
0.0
 71
     9
 72
     5
  1

1001
ACAD
1000
MTEXTBEGIN
1070
    73
1070
     1
1070
    44
1040
1.0
1070
    74
1070
     0
1000
MTEXTEND
  0
MTEXT
  5
55F5
330
1A
100
AcDbEntity
  8
SUNPOU
100
AcDbMText
 10
109982.8083376841
 20
108198.5537563815
 30
0.0
 40
10.5
 41
0.0
 71
     9
 72
     5
  1

1001
ACAD
1000
MTEXTBEGIN
1070
    73
1070
     1
1070
    44
1040
1.0
1070
    74
1070
     0
1000
MTEXTEND
  0
MTEXT
  5
55F6
330
1A
100
AcDbEntity
  8
SUNPOU
100
AcDbMText
 10
111926.2155843935
 20
106397.5046765035
 30
0.0
 40
3.5
 41
0.0
 71
     9
 72
     5
  1

1001
ACAD
1000
MTEXTBEGIN
1070
    73
1070
     1
1070
    44
1040
1.0
1070
    74
1070
     0
1000
MTEXTEND
  0
MTEXT
  5
55F7
330
1A
100
AcDbEntity
  8
SUNPOU
100
AcDbMText
 10
60423.07604347968
 20
54031.71891135659
 30
0.0
 40
10.5
 41
0.0
 71
     9
 72
     5
  1

1001
ACAD
1000
MTEXTBEGIN
1070
    73
1070
     1
1070
    44
1040
1.0
1070
    74
1070
     0
1000
MTEXTEND
  0
MTEXT
  5
55F8
330
1A
100
AcDbEntity
  8
SUNPOU
100
AcDbMText
 10
46475.07594310369
 20
34859.3197722444
 30
0.0
 40
3.5
 41
0.0
 71
     7
 72
     5
  1

1001
ACAD
1000
MTEXTBEGIN
1070
    73
1070
     1
1070
    44
1040
1.0
1070
    74
1070
     0
1000
MTEXTEND
  0
MTEXT
  5
55F9
330
1A
100
AcDbEntity
  8
SUNPOU
100
AcDbMText
 10
74027.35402123588
 20
68370.58278833383
 30
0.0
 40
10.5
 41
0.0
 71
     9
 72
     5
  1

1001
ACAD
1000
MTEXTBEGIN
1070
    73
1070
     1
1070
    44
1040
1.0
1070
    74
1070
     0
1000
MTEXTEND
  0
MTEXT
  5
55FA
330
1A
100
AcDbEntity
  8
SUNPOU
100
AcDbMText
 10
75970.7612679453
 20
66569.53370845583
 30
0.0
 40
3.5
 41
0.0
 71
     9
 72
     5
  1

1001
ACAD
1000
MTEXTBEGIN
1070
    73
1070
     1
1070
    44
1040
1.0
1070
    74
1070
     0
1000
MTEXTEND
  0
MTEXT
  5
55FB
330
1A
100
AcDbEntity
  8
SUNPOU
100
AcDbMText
 10
107096.941100565
 20
109064.4793761132
 30
0.0
 40
10.5
 41
0.0
 71
     9
 72
     5
  1

1001
ACAD
1000
MTEXTBEGIN
1070
    73
1070
     1
1070
    44
1040
1.0
1070
    74
1070
     0
1000
MTEXTEND
  0
MTEXT
  5
55FC
330
1A
100
AcDbEntity
  8
SUNPOU
100
AcDbMText
 10
109040.3483472744
 20
107263.4302962351
 30
0.0
 40
3.5
 41
0.0
 71
     9
 72
     5
  1

1001
ACAD
1000
MTEXTBEGIN
1070
    73
1070
     1
1070
    44
1040
1.0
1070
    74
1070
     0
1000
MTEXTEND
  0
MTEXT
  5
55FD
330
1A
100
AcDbEntity
  8
SUNPOU
100
AcDbMText
 10
105709.1709283621
 20
108141.3777665285
 30
0.0
 40
10.5
 41
0.0
 71
     9
 72
     5
  1

1001
ACAD
1000
MTEXTBEGIN
1070
    73
1070
     1
1070
    44
1040
1.0
1070
    74
1070
     0
1000
MTEXTEND
  0
MTEXT
  5
55FE
330
1A
100
AcDbEntity
  8
SUNPOU
100
AcDbMText
 10
107652.5781750715
 20
106340.3286866505
 30
0.0
 40
3.5
 41
0.0
 71
     9
 72
     5
  1

1001
ACAD
1000
MTEXTBEGIN
1070
    73
1070
     1
1070
    44
1040
1.0
1070
    74
1070
     0
1000
MTEXTEND
  0
MTEXT
  5
55FF
330
1A
100
AcDbEntity
  8
SUNPOU
100
AcDbMText
 10
73193.09268743351
 20
66158.78082845056
 30
0.0
 40
10.5
 41
0.0
 71
     9
 72
     5
  1

1001
ACAD
1000
MTEXTBEGIN
1070
    73
1070
     1
1070
    44
1040
1.0
1070
    74
1070
     0
1000
MTEXTEND
  0
MTEXT
  5
5600
330
1A
100
AcDbEntity
  8
SUNPOU
100
AcDbMText
 10
75916.39889159806
 20
66563.46252003162
 30
0.0
 40
3.5
 41
0.0
 71
     9
 72
     5
  1

1001
ACAD
1000
MTEXTBEGIN
1070
    73
1070
     1
1070
    44
1040
1.0
1070
    74
1070
     0
1000
MTEXTEND
  0
MTEXT
  5
5601
330
1A
100
AcDbEntity
  8
SUNPOU
100
AcDbMText
 10
75124.04436649058
 20
63402.1566819768
 30
0.0
 40
10.5
 41
0.0
 71
     9
 72
     5
  1

1001
ACAD
1000
MTEXTBEGIN
1070
    73
1070
     1
1070
    44
1040
1.0
1070
    74
1070
     0
1000
MTEXTEND
  0
MTEXT
  5
5602
330
1A
100
AcDbEntity
  8
SUNPOU
100
AcDbMText
 10
77067.4516132
 20
61601.1076020988
 30
0.0
 40
3.5
 41
0.0
 71
     9
 72
     5
  1

1001
ACAD
1000
MTEXTBEGIN
1070
    73
1070
     1
1070
    44
1040
1.0
1070
    74
1070
     0
1000
MTEXTEND
  0
MTEXT
  5
5603
330
1A
100
AcDbEntity
  8
SUNPOU
100
AcDbMText
 10
77012.54710378659
 20
61488.33571981449
 30
0.0
 40
3.5
 41
0.0
 71
     9
 72
     5
  1

1001
ACAD
1000
MTEXTBEGIN
1070
    73
1070
     1
1070
    44
1040
1.0
1070
    74
1070
     0
1000
MTEXTEND
  0
MTEXT
  5
5604
330
1A
100
AcDbEntity
  8
SUNPOU
100
AcDbMText
 10
76376.61896736668
 20
60677.01447874797
 30
0.0
 40
3.5
 41
0.0
 71
     9
 72
     5
  1

1001
ACAD
1000
MTEXTBEGIN
1070
    73
1070
     1
1070
    44
1040
1.0
1070
    74
1070
     0
1000
MTEXTEND
  0
MTEXT
  5
5605
330
1A
100
AcDbEntity
  8
SUNPOU
100
AcDbMText
 10
76375.37854794595
 20
60676.76650181047
 30
0.0
 40
10.5
 41
0.0
 71
     9
 72
     5
  1

1001
ACAD
1000
MTEXTBEGIN
1070
    73
1070
     1
1070
    44
1040
1.0
1070
    74
1070
     0
1000
MTEXTEND
  0
MTEXT
  5
5606
330
1A
100
AcDbEntity
  8
SUNPOU
100
AcDbMText
 10
84709.93991079748
 20
78034.0328293557
 30
0.0
 40
10.5
 41
0.0
 71
     9
 72
     5
  1

1001
ACAD
1000
MTEXTBEGIN
1070
    73
1070
     1
1070
    44
1040
1.0
1070
    74
1070
     0
1000
MTEXTEND
  0
MTEXT
  5
5607
330
1A
100
AcDbEntity
  8
SUNPOU
100
AcDbMText
 10
93432.10747671548
 20
85449.86736089315
 30
0.0
 40
10.5
 41
0.0
 71
     9
 72
     5
  1

1001
ACAD
1000
MTEXTBEGIN
1070
    73
1070
     1
1070
    44
1040
1.0
1070
    74
1070
     0
1000
MTEXTEND
  0
MTEXT
  5
5608
330
1A
100
AcDbEntity
  8
SUNPOU
100
AcDbMText
 10
112385.8661940454
 20
102916.4434133851
 30
0.0
 40
10.5
 41
0.0
 71
     9
 72
     5
  1

1001
ACAD
1000
MTEXTBEGIN
1070
    73
1070
     1
1070
    44
1040
1.0
1070
    74
1070
     0
1000
MTEXTEND
  0
MTEXT
  5
5609
330
1A
100
AcDbEntity
  8
SUNPOU
100
AcDbMText
 10
114329.2734407548
 20
101115.3943335072
 30
0.0
 40
3.5
 41
0.0
 71
     9
 72
     5
  1

1001
ACAD
1000
MTEXTBEGIN
1070
    73
1070
     1
1070
    44
1040
1.0
1070
    74
1070
     0
1000
MTEXTEND
  0
MTEXT
  5
560A
330
1A
100
AcDbEntity
  8
SUNPOU
100
AcDbMText
 10
145455.4532733745
 20
143610.3400011645
 30
0.0
 40
10.5
 41
0.0
 71
     9
 72
     5
  1

1001
ACAD
1000
MTEXTBEGIN
1070
    73
1070
     1
1070
    44
1040
1.0
1070
    74
1070
     0
1000
MTEXTEND
  0
MTEXT
  5
560B
330
1A
100
AcDbEntity
  8
SUNPOU
100
AcDbMText
 10
147398.8605200839
 20
141809.2909212864
 30
0.0
 40
3.5
 41
0.0
 71
     9
 72
     5
  1

1001
ACAD
1000
MTEXTBEGIN
1070
    73
1070
     1
1070
    44
1040
1.0
1070
    74
1070
     0
1000
MTEXTEND
  0
MTEXT
  5
560C
330
1A
100
AcDbEntity
  8
SUNPOU
100
AcDbMText
 10
95895.72097917013
 20
89443.5051561396
 30
0.0
 40
10.5
 41
0.0
 71
     9
 72
     5
  1

1001
ACAD
1000
MTEXTBEGIN
1070
    73
1070
     1
1070
    44
1040
1.0
1070
    74
1070
     0
1000
MTEXTEND
  0
MTEXT
  5
560D
330
1A
100
AcDbEntity
  8
SUNPOU
100
AcDbMText
 10
81947.72087879414
 20
70271.1060170274
 30
0.0
 40
3.5
 41
0.0
 71
     7
 72
     5
  1

1001
ACAD
1000
MTEXTBEGIN
1070
    73
1070
     1
1070
    44
1040
1.0
1070
    74
1070
     0
1000
MTEXTEND
  0
MTEXT
  5
560E
330
1A
100
AcDbEntity
  8
SUNPOU
100
AcDbMText
 10
62932.89027578729
 20
58033.25474784561
 30
0.0
 40
10.5
 41
0.0
 71
     7
 72
     5
  1

1001
ACAD
1000
MTEXTBEGIN
1070
    73
1070
     1
1070
    44
1040
1.0
1070
    74
1070
     0
1000
MTEXTEND
  0
MTEXT
  5
560F
330
1A
100
AcDbEntity
  8
SUNPOU
100
AcDbMText
 10
50475.66201083918
 20
42188.32316974719
 30
0.0
 40
35.0
 41
0.0
 71
     9
 72
     5
  1

1001
ACAD
1000
MTEXTBEGIN
1070
    73
1070
     1
1070
    44
1040
1.0
1070
    74
1070
     0
1000
MTEXTEND
  0
MTEXT
  5
5610
330
1A
100
AcDbEntity
  8
SUNPOU
100
AcDbMText
 10
49384.14706841413
 20
42797.0985797959
 30
0.0
 40
350.0000004171781
 41
0.0
 71
     7
 72
     5
  1

1001
ACAD
1000
MTEXTBEGIN
1070
    73
1070
     1
1070
    44
1040
1.0
1070
    74
1070
     0
1000
MTEXTEND
  0
MTEXT
  5
5611
330
1A
100
AcDbEntity
  8
0
100
AcDbMText
 10
55428.09782635704
 20
40777.02094193211
 30
0.0
 40
8.0
 41
0.0
 71
     7
 72
     5
  1

1001
ACAD
1000
MTEXTBEGIN
1070
    73
1070
     1
1070
    44
1040
1.0
1070
    74
1070
     0
1000
MTEXTEND
  0
MTEXT
  5
5612
330
1A
100
AcDbEntity
  8
0
100
AcDbMText
 10
57713.45551625194
 20
41747.81123668317
 30
0.0
 40
8.0
 41
0.0
 71
     7
 72
     5
  1

1001
ACAD
1000
MTEXTBEGIN
1070
    73
1070
     1
1070
    44
1040
1.0
1070
    74
1070
     0
1000
MTEXTEND
  0
MTEXT
  5
5613
330
1A
100
AcDbEntity
  8
SUNPOU
100
AcDbMText
 10
60379.35253693408
 20
51259.9226290583
 30
0.0
 40
10.5
 41
0.0
 71
     1
 72
     5
  1

1001
ACAD
1000
MTEXTBEGIN
1070
    73
1070
     1
1070
    44
1040
1.0
1070
    74
1070
     0
1000
MTEXTEND
  0
MTEXT
  5
5614
330
1A
100
AcDbEntity
  8
SUNPOU
100
AcDbMText
 10
52448.42934099814
 20
50313.12949514535
 30
0.0
 40
10.5
 41
0.0
 71
     7
 72
     5
  1

1001
ACAD
1000
MTEXTBEGIN
1070
    73
1070
     1
1070
    44
1040
1.0
1070
    74
1070
     0
1000
MTEXTEND
  0
MTEXT
  5
5615
330
1A
100
AcDbEntity
  8
SUNPOU
100
AcDbMText
 10
55397.41300551091
 20
55213.80556698819
 30
0.0
 40
10.5
 41
0.0
 71
     7
 72
     5
  1

1001
ACAD
1000
MTEXTBEGIN
1070
    73
1070
     1
1070
    44
1040
1.0
1070
    74
1070
     0
1000
MTEXTEND
  0
MTEXT
  5
5616
330
1A
100
AcDbEntity
  8
SUNPOU
100
AcDbMText
 10
59906.49113346147
 20
57650.10631460826
 30
0.0
 40
10.5
 41
0.0
 71
     7
 72
     5
  1

1001
ACAD
1000
MTEXTBEGIN
1070
    73
1070
     1
1070
    44
1040
1.0
1070
    74
1070
     0
1000
MTEXTEND
  0
MTEXT
  5
5617
330
1A
100
AcDbEntity
  8
SUNPOU
100
AcDbMText
 10
43507.32902022979
 20
36647.70246499718
 30
0.0
 40
10.5
 41
0.0
 71
     7
 72
     5
  1

1001
ACAD
1000
MTEXTBEGIN
1070
    73
1070
     1
1070
    44
1040
1.0
1070
    74
1070
     0
1000
MTEXTEND
  0
MTEXT
  5
5618
330
1A
100
AcDbEntity
  8
SUNPOU
100
AcDbMText
 10
94698.84745413006
 20
82320.68302864542
 30
0.0
 40
10.5
 41
0.0
 71
     9
 72
     5
  1

1001
ACAD
1000
MTEXTBEGIN
1070
    73
1070
     1
1070
    44
1040
1.0
1070
    74
1070
     0
1000
MTEXTEND
  0
MTEXT
  5
5619
330
1A
100
AcDbEntity
  8
SUNPOU
100
AcDbMText
 10
103421.015020048
 20
89736.5175601829
 30
0.0
 40
10.5
 41
0.0
 71
     9
 72
     5
  1

1001
ACAD
1000
MTEXTBEGIN
1070
    73
1070
     1
1070
    44
1040
1.0
1070
    74
1070
     0
1000
MTEXTEND
  0
MTEXT
  5
561A
330
1A
100
AcDbEntity
  8
SUNPOU
100
AcDbMText
 10
122374.773737378
 20
107203.0936126749
 30
0.0
 40
10.5
 41
0.0
 71
     9
 72
     5
  1

1001
ACAD
1000
MTEXTBEGIN
1070
    73
1070
     1
1070
    44
1040
1.0
1070
    74
1070
     0
1000
MTEXTEND
  0
MTEXT
  5
561B
330
1A
100
AcDbEntity
  8
SUNPOU
100
AcDbMText
 10
124318.1809840874
 20
105402.0445327969
 30
0.0
 40
3.5
 41
0.0
 71
     9
 72
     5
  1

1001
ACAD
1000
MTEXTBEGIN
1070
    73
1070
     1
1070
    44
1040
1.0
1070
    74
1070
     0
1000
MTEXTEND
  0
MTEXT
  5
561C
330
1A
100
AcDbEntity
  8
SUNPOU
100
AcDbMText
 10
155444.3608167071
 20
147896.9902004542
 30
0.0
 40
10.5
 41
0.0
 71
     9
 72
     5
  1

1001
ACAD
1000
MTEXTBEGIN
1070
    73
1070
     1
1070
    44
1040
1.0
1070
    74
1070
     0
1000
MTEXTEND
  0
MTEXT
  5
561D
330
1A
100
AcDbEntity
  8
SUNPOU
100
AcDbMText
 10
157387.7680634165
 20
146095.9411205762
 30
0.0
 40
3.5
 41
0.0
 71
     9
 72
     5
  1

1001
ACAD
1000
MTEXTBEGIN
1070
    73
1070
     1
1070
    44
1040
1.0
1070
    74
1070
     0
1000
MTEXTEND
  0
MTEXT
  5
561E
330
1A
100
AcDbEntity
  8
SUNPOU
100
AcDbMText
 10
105884.6285225027
 20
93730.15535542933
 30
0.0
 40
10.5
 41
0.0
 71
     9
 72
     5
  1

1001
ACAD
1000
MTEXTBEGIN
1070
    73
1070
     1
1070
    44
1040
1.0
1070
    74
1070
     0
1000
MTEXTEND
  0
MTEXT
  5
561F
330
1A
100
AcDbEntity
  8
SUNPOU
100
AcDbMText
 10
91936.6284221267
 20
74557.75621631714
 30
0.0
 40
3.5
 41
0.0
 71
     7
 72
     5
  1

1001
ACAD
1000
MTEXTBEGIN
1070
    73
1070
     1
1070
    44
1040
1.0
1070
    74
1070
     0
1000
MTEXTEND
  0
MTEXT
  5
5620
330
1A
100
AcDbEntity
  8
SUNPOU
100
AcDbMText
 10
72921.79781911986
 20
62319.90494713533
 30
0.0
 40
10.5
 41
0.0
 71
     7
 72
     5
  1

1001
ACAD
1000
MTEXTBEGIN
1070
    73
1070
     1
1070
    44
1040
1.0
1070
    74
1070
     0
1000
MTEXTEND
  0
MTEXT
  5
5621
330
1A
100
AcDbEntity
  8
SUNPOU
100
AcDbMText
 10
60464.56955417175
 20
46474.97336903692
 30
0.0
 40
35.0
 41
0.0
 71
     9
 72
     5
  1

1001
ACAD
1000
MTEXTBEGIN
1070
    73
1070
     1
1070
    44
1040
1.0
1070
    74
1070
     0
1000
MTEXTEND
  0
MTEXT
  5
5622
330
1A
100
AcDbEntity
  8
SUNPOU
100
AcDbMText
 10
59373.05461174672
 20
47083.74877908562
 30
0.0
 40
350.0000004171781
 41
0.0
 71
     7
 72
     5
  1

1001
ACAD
1000
MTEXTBEGIN
1070
    73
1070
     1
1070
    44
1040
1.0
1070
    74
1070
     0
1000
MTEXTEND
  0
MTEXT
  5
5623
330
1A
100
AcDbEntity
  8
0
100
AcDbMText
 10
65417.00536968962
 20
45063.67114122186
 30
0.0
 40
8.0
 41
0.0
 71
     7
 72
     5
  1

1001
ACAD
1000
MTEXTBEGIN
1070
    73
1070
     1
1070
    44
1040
1.0
1070
    74
1070
     0
1000
MTEXTEND
  0
MTEXT
  5
5624
330
1A
100
AcDbEntity
  8
0
100
AcDbMText
 10
67702.36305958452
 20
46034.46143597292
 30
0.0
 40
8.0
 41
0.0
 71
     7
 72
     5
  1

1001
ACAD
1000
MTEXTBEGIN
1070
    73
1070
     1
1070
    44
1040
1.0
1070
    74
1070
     0
1000
MTEXTEND
  0
MTEXT
  5
5625
330
1A
100
AcDbEntity
  8
SUNPOU
100
AcDbMText
 10
70368.26008026666
 20
55546.57282834803
 30
0.0
 40
10.5
 41
0.0
 71
     1
 72
     5
  1

1001
ACAD
1000
MTEXTBEGIN
1070
    73
1070
     1
1070
    44
1040
1.0
1070
    74
1070
     0
1000
MTEXTEND
  0
MTEXT
  5
5626
330
1A
100
AcDbEntity
  8
SUNPOU
100
AcDbMText
 10
62437.33688433072
 20
54599.77969443508
 30
0.0
 40
10.5
 41
0.0
 71
     7
 72
     5
  1

1001
ACAD
1000
MTEXTBEGIN
1070
    73
1070
     1
1070
    44
1040
1.0
1070
    74
1070
     0
1000
MTEXTEND
  0
MTEXT
  5
5627
330
1A
100
AcDbEntity
  8
SUNPOU
100
AcDbMText
 10
65386.32054884349
 20
59500.45576627792
 30
0.0
 40
10.5
 41
0.0
 71
     7
 72
     5
  1

1001
ACAD
1000
MTEXTBEGIN
1070
    73
1070
     1
1070
    44
1040
1.0
1070
    74
1070
     0
1000
MTEXTEND
  0
MTEXT
  5
5628
330
1A
100
AcDbEntity
  8
SUNPOU
100
AcDbMText
 10
69895.39867679405
 20
61936.756513898
 30
0.0
 40
10.5
 41
0.0
 71
     7
 72
     5
  1

1001
ACAD
1000
MTEXTBEGIN
1070
    73
1070
     1
1070
    44
1040
1.0
1070
    74
1070
     0
1000
MTEXTEND
  0
MTEXT
  5
5629
330
1A
100
AcDbEntity
  8
SUNPOU
100
AcDbMText
 10
53496.23656356237
 20
40934.35266428691
 30
0.0
 40
10.5
 41
0.0
 71
     7
 72
     5
  1

1001
ACAD
1000
MTEXTBEGIN
1070
    73
1070
     1
1070
    44
1040
1.0
1070
    74
1070
     0
1000
MTEXTEND
  0
MTEXT
  5
562A
330
1A
100
AcDbEntity
  8
SUNPOU
100
AcDbMText
 10
55306.99947493731
 20
47261.76665176547
 30
0.0
 40
10.5
 41
0.0
 71
     9
 72
     5
  1

1001
ACAD
1000
MTEXTBEGIN
1070
    73
1070
     1
1070
    44
1040
1.0
1070
    74
1070
     0
1000
MTEXTEND
  0
MTEXT
  5
562B
330
1A
100
AcDbEntity
  8
SUNPOU
100
AcDbMText
 10
64029.16704085528
 20
54677.60118330295
 30
0.0
 40
10.5
 41
0.0
 71
     9
 72
     5
  1

1001
ACAD
1000
MTEXTBEGIN
1070
    73
1070
     1
1070
    44
1040
1.0
1070
    74
1070
     0
1000
MTEXTEND
  0
MTEXT
  5
562C
330
1A
100
AcDbEntity
  8
SUNPOU
100
AcDbMText
 10
82982.92575818527
 20
72144.17723579499
 30
0.0
 40
10.5
 41
0.0
 71
     9
 72
     5
  1

1001
ACAD
1000
MTEXTBEGIN
1070
    73
1070
     1
1070
    44
1040
1.0
1070
    74
1070
     0
1000
MTEXTEND
  0
MTEXT
  5
562D
330
1A
100
AcDbEntity
  8
SUNPOU
100
AcDbMText
 10
84926.33300489467
 20
70343.12815591698
 30
0.0
 40
3.5
 41
0.0
 71
     9
 72
     5
  1

1001
ACAD
1000
MTEXTBEGIN
1070
    73
1070
     1
1070
    44
1040
1.0
1070
    74
1070
     0
1000
MTEXTEND
  0
MTEXT
  5
562E
330
1A
100
AcDbEntity
  8
SUNPOU
100
AcDbMText
 10
116052.5128375143
 20
112838.0738235743
 30
0.0
 40
10.5
 41
0.0
 71
     9
 72
     5
  1

1001
ACAD
1000
MTEXTBEGIN
1070
    73
1070
     1
1070
    44
1040
1.0
1070
    74
1070
     0
1000
MTEXTEND
  0
MTEXT
  5
562F
330
1A
100
AcDbEntity
  8
SUNPOU
100
AcDbMText
 10
117995.9200842238
 20
111037.0247436963
 30
0.0
 40
3.5
 41
0.0
 71
     9
 72
     5
  1

1001
ACAD
1000
MTEXTBEGIN
1070
    73
1070
     1
1070
    44
1040
1.0
1070
    74
1070
     0
1000
MTEXTEND
  0
MTEXT
  5
5630
330
1A
100
AcDbEntity
  8
SUNPOU
100
AcDbMText
 10
66492.78054330994
 20
58671.23897854939
 30
0.0
 40
10.5
 41
0.0
 71
     9
 72
     5
  1

1001
ACAD
1000
MTEXTBEGIN
1070
    73
1070
     1
1070
    44
1040
1.0
1070
    74
1070
     0
1000
MTEXTEND
  0
MTEXT
  5
5631
330
1A
100
AcDbEntity
  8
SUNPOU
100
AcDbMText
 10
52544.78044293396
 20
39498.83983943717
 30
0.0
 40
3.5
 41
0.0
 71
     7
 72
     5
  1

1001
ACAD
1000
MTEXTBEGIN
1070
    73
1070
     1
1070
    44
1040
1.0
1070
    74
1070
     0
1000
MTEXTEND
  0
MTEXT
  5
5632
330
1A
100
AcDbEntity
  8
SUNPOU
100
AcDbMText
 10
66237.13112570454
 20
48857.90306045851
 30
0.0
 40
10.5
 41
0.0
 71
     9
 72
     5
  1

1001
ACAD
1000
MTEXTBEGIN
1070
    73
1070
     1
1070
    44
1040
1.0
1070
    74
1070
     0
1000
MTEXTEND
  0
MTEXT
  5
5633
330
1A
100
AcDbEntity
  8
SUNPOU
100
AcDbMText
 10
74959.29869162252
 20
56273.737591996
 30
0.0
 40
10.5
 41
0.0
 71
     9
 72
     5
  1

1001
ACAD
1000
MTEXTBEGIN
1070
    73
1070
     1
1070
    44
1040
1.0
1070
    74
1070
     0
1000
MTEXTEND
  0
MTEXT
  5
5634
330
1A
100
AcDbEntity
  8
SUNPOU
100
AcDbMText
 10
93913.0574089525
 20
73740.31364448805
 30
0.0
 40
10.5
 41
0.0
 71
     9
 72
     5
  1

1001
ACAD
1000
MTEXTBEGIN
1070
    73
1070
     1
1070
    44
1040
1.0
1070
    74
1070
     0
1000
MTEXTEND
  0
MTEXT
  5
5635
330
1A
100
AcDbEntity
  8
SUNPOU
100
AcDbMText
 10
95856.46465566192
 20
71939.26456461004
 30
0.0
 40
3.5
 41
0.0
 71
     9
 72
     5
  1

1001
ACAD
1000
MTEXTBEGIN
1070
    73
1070
     1
1070
    44
1040
1.0
1070
    74
1070
     0
1000
MTEXTEND
  0
MTEXT
  5
5636
330
1A
100
AcDbEntity
  8
SUNPOU
100
AcDbMText
 10
126982.6444882816
 20
114434.2102322673
 30
0.0
 40
10.5
 41
0.0
 71
     9
 72
     5
  1

1001
ACAD
1000
MTEXTBEGIN
1070
    73
1070
     1
1070
    44
1040
1.0
1070
    74
1070
     0
1000
MTEXTEND
  0
MTEXT
  5
5637
330
1A
100
AcDbEntity
  8
SUNPOU
100
AcDbMText
 10
128926.051734991
 20
112633.1611523893
 30
0.0
 40
3.5
 41
0.0
 71
     9
 72
     5
  1

1001
ACAD
1000
MTEXTBEGIN
1070
    73
1070
     1
1070
    44
1040
1.0
1070
    74
1070
     0
1000
MTEXTEND
  0
MTEXT
  5
5638
330
1A
100
AcDbEntity
  8
SUNPOU
100
AcDbMText
 10
77422.91219407717
 20
60267.37538724244
 30
0.0
 40
10.5
 41
0.0
 71
     9
 72
     5
  1

1001
ACAD
1000
MTEXTBEGIN
1070
    73
1070
     1
1070
    44
1040
1.0
1070
    74
1070
     0
1000
MTEXTEND
  0
MTEXT
  5
5639
330
1A
100
AcDbEntity
  8
SUNPOU
100
AcDbMText
 10
63474.91209370119
 20
41094.97624813023
 30
0.0
 40
3.5
 41
0.0
 71
     7
 72
     5
  1

1001
ACAD
1000
MTEXTBEGIN
1070
    73
1070
     1
1070
    44
1040
1.0
1070
    74
1070
     0
1000
MTEXTEND
  0
MTEXT
  5
563A
330
1A
100
AcDbEntity
  8
SUNPOU
100
AcDbMText
 10
48117.65086229006
 20
40806.11043916631
 30
0.0
 40
10.5
 41
0.0
 71
     9
 72
     5
  1

1001
ACAD
1000
MTEXTBEGIN
1070
    73
1070
     1
1070
    44
1040
1.0
1070
    74
1070
     0
1000
MTEXTEND
  0
MTEXT
  5
563B
330
1A
100
AcDbEntity
  8
SUNPOU
100
AcDbMText
 10
67071.40957962004
 20
58272.68649165837
 30
0.0
 40
10.5
 41
0.0
 71
     9
 72
     5
  1

1001
ACAD
1000
MTEXTBEGIN
1070
    73
1070
     1
1070
    44
1040
1.0
1070
    74
1070
     0
1000
MTEXTEND
  0
MTEXT
  5
563C
330
1A
100
AcDbEntity
  8
SUNPOU
100
AcDbMText
 10
69014.81682632945
 20
56471.63741178035
 30
0.0
 40
3.5
 41
0.0
 71
     9
 72
     5
  1

1001
ACAD
1000
MTEXTBEGIN
1070
    73
1070
     1
1070
    44
1040
1.0
1070
    74
1070
     0
1000
MTEXTEND
  0
MTEXT
  5
563D
330
1A
100
AcDbEntity
  8
SUNPOU
100
AcDbMText
 10
100140.9966589491
 20
98966.58307943772
 30
0.0
 40
10.5
 41
0.0
 71
     9
 72
     5
  1

1001
ACAD
1000
MTEXTBEGIN
1070
    73
1070
     1
1070
    44
1040
1.0
1070
    74
1070
     0
1000
MTEXTEND
  0
MTEXT
  5
563E
330
1A
100
AcDbEntity
  8
SUNPOU
100
AcDbMText
 10
102084.4039056586
 20
97165.53399955969
 30
0.0
 40
3.5
 41
0.0
 71
     9
 72
     5
  1

1001
ACAD
1000
MTEXTBEGIN
1070
    73
1070
     1
1070
    44
1040
1.0
1070
    74
1070
     0
1000
MTEXTEND
  0
MTEXT
  5
563F
330
1A
100
AcDbEntity
  8
SUNPOU
100
AcDbMText
 10
50581.26436474472
 20
44799.74823441275
 30
0.0
 40
10.5
 41
0.0
 71
     9
 72
     5
  1

1001
ACAD
1000
MTEXTBEGIN
1070
    73
1070
     1
1070
    44
1040
1.0
1070
    74
1070
     0
1000
MTEXTEND
  0
MTEXT
  5
5640
330
1A
100
AcDbEntity
  8
SUNPOU
100
AcDbMText
 10
36633.26426436873
 20
25627.34909530054
 30
0.0
 40
3.5
 41
0.0
 71
     7
 72
     5
  1

1001
ACAD
1000
MTEXTBEGIN
1070
    73
1070
     1
1070
    44
1040
1.0
1070
    74
1070
     0
1000
MTEXTEND
  0
MTEXT
  5
5641
330
1A
100
AcDbEntity
  8
SUNPOU
100
AcDbMText
 10
61069.42493315968
 20
52574.61207825771
 30
0.0
 40
10.5
 41
0.0
 71
     9
 72
     5
  1

1001
ACAD
1000
MTEXTBEGIN
1070
    73
1070
     1
1070
    44
1040
1.0
1070
    74
1070
     0
1000
MTEXTEND
  0
MTEXT
  5
5642
330
1A
100
AcDbEntity
  8
SUNPOU
100
AcDbMText
 10
80023.18365048967
 20
70041.18813074978
 30
0.0
 40
10.5
 41
0.0
 71
     9
 72
     5
  1

1001
ACAD
1000
MTEXTBEGIN
1070
    73
1070
     1
1070
    44
1040
1.0
1070
    74
1070
     0
1000
MTEXTEND
  0
MTEXT
  5
5643
330
1A
100
AcDbEntity
  8
SUNPOU
100
AcDbMText
 10
81966.59089719908
 20
68240.13905087176
 30
0.0
 40
3.5
 41
0.0
 71
     9
 72
     5
  1

1001
ACAD
1000
MTEXTBEGIN
1070
    73
1070
     1
1070
    44
1040
1.0
1070
    74
1070
     0
1000
MTEXTEND
  0
MTEXT
  5
5644
330
1A
100
AcDbEntity
  8
SUNPOU
100
AcDbMText
 10
113092.7707298187
 20
110735.0847185291
 30
0.0
 40
10.5
 41
0.0
 71
     9
 72
     5
  1

1001
ACAD
1000
MTEXTBEGIN
1070
    73
1070
     1
1070
    44
1040
1.0
1070
    74
1070
     0
1000
MTEXTEND
  0
MTEXT
  5
5645
330
1A
100
AcDbEntity
  8
SUNPOU
100
AcDbMText
 10
115036.1779765282
 20
108934.0356386511
 30
0.0
 40
3.5
 41
0.0
 71
     9
 72
     5
  1

1001
ACAD
1000
MTEXTBEGIN
1070
    73
1070
     1
1070
    44
1040
1.0
1070
    74
1070
     0
1000
MTEXTEND
  0
MTEXT
  5
5646
330
1A
100
AcDbEntity
  8
SUNPOU
100
AcDbMText
 10
63533.03843561433
 20
56568.24987350415
 30
0.0
 40
10.5
 41
0.0
 71
     9
 72
     5
  1

1001
ACAD
1000
MTEXTBEGIN
1070
    73
1070
     1
1070
    44
1040
1.0
1070
    74
1070
     0
1000
MTEXTEND
  0
MTEXT
  5
5647
330
1A
100
AcDbEntity
  8
SUNPOU
100
AcDbMText
 10
49585.03833523835
 20
37395.85073439196
 30
0.0
 40
3.5
 41
0.0
 71
     7
 72
     5
  1

1001
ACAD
1000
MTEXTBEGIN
1070
    73
1070
     1
1070
    44
1040
1.0
1070
    74
1070
     0
1000
MTEXTEND
  0
MTEXT
  5
5648
330
1A
100
AcDbEntity
  8
SUNPOU
100
AcDbMText
 10
77137.31641337052
 20
70907.11375048141
 30
0.0
 40
10.5
 41
0.0
 71
     9
 72
     5
  1

1001
ACAD
1000
MTEXTBEGIN
1070
    73
1070
     1
1070
    44
1040
1.0
1070
    74
1070
     0
1000
MTEXTEND
  0
MTEXT
  5
5649
330
1A
100
AcDbEntity
  8
SUNPOU
100
AcDbMText
 10
79080.72366007995
 20
69106.06467060339
 30
0.0
 40
3.5
 41
0.0
 71
     9
 72
     5
  1

1001
ACAD
1000
MTEXTBEGIN
1070
    73
1070
     1
1070
    44
1040
1.0
1070
    74
1070
     0
1000
MTEXTEND
  0
MTEXT
  5
564A
330
1A
100
AcDbEntity
  8
SUNPOU
100
AcDbMText
 10
110206.9034926996
 20
111601.0103382607
 30
0.0
 40
10.5
 41
0.0
 71
     9
 72
     5
  1

1001
ACAD
1000
MTEXTBEGIN
1070
    73
1070
     1
1070
    44
1040
1.0
1070
    74
1070
     0
1000
MTEXTEND
  0
MTEXT
  5
564B
330
1A
100
AcDbEntity
  8
SUNPOU
100
AcDbMText
 10
112150.310739409
 20
109799.9612583827
 30
0.0
 40
3.5
 41
0.0
 71
     9
 72
     5
  1

1001
ACAD
1000
MTEXTBEGIN
1070
    73
1070
     1
1070
    44
1040
1.0
1070
    74
1070
     0
1000
MTEXTEND
  0
MTEXT
  5
564C
330
1A
100
AcDbEntity
  8
SUNPOU
100
AcDbMText
 10
108819.1333204968
 20
110677.9087286761
 30
0.0
 40
10.5
 41
0.0
 71
     9
 72
     5
  1

1001
ACAD
1000
MTEXTBEGIN
1070
    73
1070
     1
1070
    44
1040
1.0
1070
    74
1070
     0
1000
MTEXTEND
  0
MTEXT
  5
564D
330
1A
100
AcDbEntity
  8
SUNPOU
100
AcDbMText
 10
110762.5405672062
 20
108876.8596487981
 30
0.0
 40
3.5
 41
0.0
 71
     9
 72
     5
  1

1001
ACAD
1000
MTEXTBEGIN
1070
    73
1070
     1
1070
    44
1040
1.0
1070
    74
1070
     0
1000
MTEXTEND
  0
MTEXT
  5
564E
330
1A
100
AcDbEntity
  8
SUNPOU
100
AcDbMText
 10
76303.05507956816
 20
68695.31179059812
 30
0.0
 40
10.5
 41
0.0
 71
     9
 72
     5
  1

1001
ACAD
1000
MTEXTBEGIN
1070
    73
1070
     1
1070
    44
1040
1.0
1070
    74
1070
     0
1000
MTEXTEND
  0
MTEXT
  5
564F
330
1A
100
AcDbEntity
  8
SUNPOU
100
AcDbMText
 10
79026.36128373271
 20
69099.99348217918
 30
0.0
 40
3.5
 41
0.0
 71
     9
 72
     5
  1

1001
ACAD
1000
MTEXTBEGIN
1070
    73
1070
     1
1070
    44
1040
1.0
1070
    74
1070
     0
1000
MTEXTEND
  0
MTEXT
  5
5650
330
1A
100
AcDbEntity
  8
SUNPOU
100
AcDbMText
 10
78234.00675862522
 20
65938.68764412436
 30
0.0
 40
10.5
 41
0.0
 71
     9
 72
     5
  1

1001
ACAD
1000
MTEXTBEGIN
1070
    73
1070
     1
1070
    44
1040
1.0
1070
    74
1070
     0
1000
MTEXTEND
  0
MTEXT
  5
5651
330
1A
100
AcDbEntity
  8
SUNPOU
100
AcDbMText
 10
80177.41400533465
 20
64137.63856424636
 30
0.0
 40
3.5
 41
0.0
 71
     9
 72
     5
  1

1001
ACAD
1000
MTEXTBEGIN
1070
    73
1070
     1
1070
    44
1040
1.0
1070
    74
1070
     0
1000
MTEXTEND
  0
MTEXT
  5
5652
330
1A
100
AcDbEntity
  8
SUNPOU
100
AcDbMText
 10
80122.50949592123
 20
64024.86668196205
 30
0.0
 40
3.5
 41
0.0
 71
     9
 72
     5
  1

1001
ACAD
1000
MTEXTBEGIN
1070
    73
1070
     1
1070
    44
1040
1.0
1070
    74
1070
     0
1000
MTEXTEND
  0
MTEXT
  5
5653
330
1A
100
AcDbEntity
  8
SUNPOU
100
AcDbMText
 10
79486.58135950133
 20
63213.54544089553
 30
0.0
 40
3.5
 41
0.0
 71
     9
 72
     5
  1

1001
ACAD
1000
MTEXTBEGIN
1070
    73
1070
     1
1070
    44
1040
1.0
1070
    74
1070
     0
1000
MTEXTEND
  0
MTEXT
  5
5654
330
1A
100
AcDbEntity
  8
SUNPOU
100
AcDbMText
 10
79485.3409400806
 20
63213.29746395804
 30
0.0
 40
10.5
 41
0.0
 71
     9
 72
     5
  1

1001
ACAD
1000
MTEXTBEGIN
1070
    73
1070
     1
1070
    44
1040
1.0
1070
    74
1070
     0
1000
MTEXTEND
  0
MTEXT
  5
5655
330
1A
100
AcDbEntity
  8
SUNPOU
100
AcDbMText
 10
85473.63363627567
 20
80747.76348077064
 30
0.0
 40
10.5
 41
0.0
 71
     9
 72
     5
  1

1001
ACAD
1000
MTEXTBEGIN
1070
    73
1070
     1
1070
    44
1040
1.0
1070
    74
1070
     0
1000
MTEXTEND
  0
MTEXT
  5
5656
330
1A
100
AcDbEntity
  8
SUNPOU
100
AcDbMText
 10
94195.80120219368
 20
88163.59801230809
 30
0.0
 40
10.5
 41
0.0
 71
     9
 72
     5
  1

1001
ACAD
1000
MTEXTBEGIN
1070
    73
1070
     1
1070
    44
1040
1.0
1070
    74
1070
     0
1000
MTEXTEND
  0
MTEXT
  5
5657
330
1A
100
AcDbEntity
  8
SUNPOU
100
AcDbMText
 10
113149.5599195236
 20
105630.1740648001
 30
0.0
 40
10.5
 41
0.0
 71
     9
 72
     5
  1

1001
ACAD
1000
MTEXTBEGIN
1070
    73
1070
     1
1070
    44
1040
1.0
1070
    74
1070
     0
1000
MTEXTEND
  0
MTEXT
  5
5658
330
1A
100
AcDbEntity
  8
SUNPOU
100
AcDbMText
 10
115092.967166233
 20
103829.1249849221
 30
0.0
 40
3.5
 41
0.0
 71
     9
 72
     5
  1

1001
ACAD
1000
MTEXTBEGIN
1070
    73
1070
     1
1070
    44
1040
1.0
1070
    74
1070
     0
1000
MTEXTEND
  0
MTEXT
  5
5659
330
1A
100
AcDbEntity
  8
SUNPOU
100
AcDbMText
 10
146219.1469988527
 20
146324.0706525794
 30
0.0
 40
10.5
 41
0.0
 71
     9
 72
     5
  1

1001
ACAD
1000
MTEXTBEGIN
1070
    73
1070
     1
1070
    44
1040
1.0
1070
    74
1070
     0
1000
MTEXTEND
  0
MTEXT
  5
565A
330
1A
100
AcDbEntity
  8
SUNPOU
100
AcDbMText
 10
148162.5542455621
 20
144523.0215727014
 30
0.0
 40
3.5
 41
0.0
 71
     9
 72
     5
  1

1001
ACAD
1000
MTEXTBEGIN
1070
    73
1070
     1
1070
    44
1040
1.0
1070
    74
1070
     0
1000
MTEXTEND
  0
MTEXT
  5
565B
330
1A
100
AcDbEntity
  8
SUNPOU
100
AcDbMText
 10
96659.41470464833
 20
92157.23580755453
 30
0.0
 40
10.5
 41
0.0
 71
     9
 72
     5
  1

1001
ACAD
1000
MTEXTBEGIN
1070
    73
1070
     1
1070
    44
1040
1.0
1070
    74
1070
     0
1000
MTEXTEND
  0
MTEXT
  5
565C
330
1A
100
AcDbEntity
  8
SUNPOU
100
AcDbMText
 10
82711.41460427234
 20
72984.83666844234
 30
0.0
 40
3.5
 41
0.0
 71
     7
 72
     5
  1

1001
ACAD
1000
MTEXTBEGIN
1070
    73
1070
     1
1070
    44
1040
1.0
1070
    74
1070
     0
1000
MTEXTEND
  0
MTEXT
  5
565D
330
1A
100
AcDbEntity
  8
SUNPOU
100
AcDbMText
 10
63696.58400126548
 20
60746.98539926055
 30
0.0
 40
10.5
 41
0.0
 71
     7
 72
     5
  1

1001
ACAD
1000
MTEXTBEGIN
1070
    73
1070
     1
1070
    44
1040
1.0
1070
    74
1070
     0
1000
MTEXTEND
  0
MTEXT
  5
565E
330
1A
100
AcDbEntity
  8
SUNPOU
100
AcDbMText
 10
51239.35573631738
 20
44902.05382116213
 30
0.0
 40
35.0
 41
0.0
 71
     9
 72
     5
  1

1001
ACAD
1000
MTEXTBEGIN
1070
    73
1070
     1
1070
    44
1040
1.0
1070
    74
1070
     0
1000
MTEXTEND
  0
MTEXT
  5
565F
330
1A
100
AcDbEntity
  8
SUNPOU
100
AcDbMText
 10
50147.84079389233
 20
45510.82923121084
 30
0.0
 40
350.0000004171781
 41
0.0
 71
     7
 72
     5
  1

1001
ACAD
1000
MTEXTBEGIN
1070
    73
1070
     1
1070
    44
1040
1.0
1070
    74
1070
     0
1000
MTEXTEND
  0
MTEXT
  5
5660
330
1A
100
AcDbEntity
  8
0
100
AcDbMText
 10
56191.79155183523
 20
43490.75159334705
 30
0.0
 40
8.0
 41
0.0
 71
     7
 72
     5
  1

1001
ACAD
1000
MTEXTBEGIN
1070
    73
1070
     1
1070
    44
1040
1.0
1070
    74
1070
     0
1000
MTEXTEND
  0
MTEXT
  5
5661
330
1A
100
AcDbEntity
  8
0
100
AcDbMText
 10
58477.14924173013
 20
44461.54188809812
 30
0.0
 40
8.0
 41
0.0
 71
     7
 72
     5
  1

1001
ACAD
1000
MTEXTBEGIN
1070
    73
1070
     1
1070
    44
1040
1.0
1070
    74
1070
     0
1000
MTEXTEND
  0
MTEXT
  5
5662
330
1A
100
AcDbEntity
  8
SUNPOU
100
AcDbMText
 10
61143.04626241227
 20
53973.65328047324
 30
0.0
 40
10.5
 41
0.0
 71
     1
 72
     5
  1

1001
ACAD
1000
MTEXTBEGIN
1070
    73
1070
     1
1070
    44
1040
1.0
1070
    74
1070
     0
1000
MTEXTEND
  0
MTEXT
  5
5663
330
1A
100
AcDbEntity
  8
SUNPOU
100
AcDbMText
 10
53212.12306647634
 20
53026.86014656028
 30
0.0
 40
10.5
 41
0.0
 71
     7
 72
     5
  1

1001
ACAD
1000
MTEXTBEGIN
1070
    73
1070
     1
1070
    44
1040
1.0
1070
    74
1070
     0
1000
MTEXTEND
  0
MTEXT
  5
5664
330
1A
100
AcDbEntity
  8
SUNPOU
100
AcDbMText
 10
56161.1067309891
 20
57927.53621840312
 30
0.0
 40
10.5
 41
0.0
 71
     7
 72
     5
  1

1001
ACAD
1000
MTEXTBEGIN
1070
    73
1070
     1
1070
    44
1040
1.0
1070
    74
1070
     0
1000
MTEXTEND
  0
MTEXT
  5
5665
330
1A
100
AcDbEntity
  8
SUNPOU
100
AcDbMText
 10
60670.18485893966
 20
60363.8369660232
 30
0.0
 40
10.5
 41
0.0
 71
     7
 72
     5
  1

1001
ACAD
1000
MTEXTBEGIN
1070
    73
1070
     1
1070
    44
1040
1.0
1070
    74
1070
     0
1000
MTEXTEND
  0
MTEXT
  5
5666
330
1A
100
AcDbEntity
  8
SUNPOU
100
AcDbMText
 10
44271.02274570799
 20
39361.43311641212
 30
0.0
 40
10.5
 41
0.0
 71
     7
 72
     5
  1

1001
ACAD
1000
MTEXTBEGIN
1070
    73
1070
     1
1070
    44
1040
1.0
1070
    74
1070
     0
1000
MTEXTEND
  0
MTEXT
  5
5667
330
1A
100
AcDbEntity
  8
SUNPOU
100
AcDbMText
 10
95462.54117960824
 20
85034.41368006038
 30
0.0
 40
10.5
 41
0.0
 71
     9
 72
     5
  1

1001
ACAD
1000
MTEXTBEGIN
1070
    73
1070
     1
1070
    44
1040
1.0
1070
    74
1070
     0
1000
MTEXTEND
  0
MTEXT
  5
5668
330
1A
100
AcDbEntity
  8
SUNPOU
100
AcDbMText
 10
104184.7087455262
 20
92450.24821159784
 30
0.0
 40
10.5
 41
0.0
 71
     9
 72
     5
  1

1001
ACAD
1000
MTEXTBEGIN
1070
    73
1070
     1
1070
    44
1040
1.0
1070
    74
1070
     0
1000
MTEXTEND
  0
MTEXT
  5
5669
330
1A
100
AcDbEntity
  8
SUNPOU
100
AcDbMText
 10
123138.4674628562
 20
109916.8242640898
 30
0.0
 40
10.5
 41
0.0
 71
     9
 72
     5
  1

1001
ACAD
1000
MTEXTBEGIN
1070
    73
1070
     1
1070
    44
1040
1.0
1070
    74
1070
     0
1000
MTEXTEND
  0
MTEXT
  5
566A
330
1A
100
AcDbEntity
  8
SUNPOU
100
AcDbMText
 10
125081.8747095656
 20
108115.7751842118
 30
0.0
 40
3.5
 41
0.0
 71
     9
 72
     5
  1

1001
ACAD
1000
MTEXTBEGIN
1070
    73
1070
     1
1070
    44
1040
1.0
1070
    74
1070
     0
1000
MTEXTEND
  0
MTEXT
  5
566B
330
1A
100
AcDbEntity
  8
SUNPOU
100
AcDbMText
 10
156208.0545421853
 20
150610.7208518691
 30
0.0
 40
10.5
 41
0.0
 71
     9
 72
     5
  1

1001
ACAD
1000
MTEXTBEGIN
1070
    73
1070
     1
1070
    44
1040
1.0
1070
    74
1070
     0
1000
MTEXTEND
  0
MTEXT
  5
566C
330
1A
100
AcDbEntity
  8
SUNPOU
100
AcDbMText
 10
158151.4617888947
 20
148809.6717719911
 30
0.0
 40
3.5
 41
0.0
 71
     9
 72
     5
  1

1001
ACAD
1000
MTEXTBEGIN
1070
    73
1070
     1
1070
    44
1040
1.0
1070
    74
1070
     0
1000
MTEXTEND
  0
MTEXT
  5
566D
330
1A
100
AcDbEntity
  8
SUNPOU
100
AcDbMText
 10
106648.3222479809
 20
96443.88600684427
 30
0.0
 40
10.5
 41
0.0
 71
     9
 72
     5
  1

1001
ACAD
1000
MTEXTBEGIN
1070
    73
1070
     1
1070
    44
1040
1.0
1070
    74
1070
     0
1000
MTEXTEND
  0
MTEXT
  5
566E
330
1A
100
AcDbEntity
  8
SUNPOU
100
AcDbMText
 10
92700.3221476049
 20
77271.48686773207
 30
0.0
 40
3.5
 41
0.0
 71
     7
 72
     5
  1

1001
ACAD
1000
MTEXTBEGIN
1070
    73
1070
     1
1070
    44
1040
1.0
1070
    74
1070
     0
1000
MTEXTEND
  0
MTEXT
  5
566F
330
1A
100
AcDbEntity
  8
SUNPOU
100
AcDbMText
 10
73685.49154459806
 20
65033.63559855027
 30
0.0
 40
10.5
 41
0.0
 71
     7
 72
     5
  1

1001
ACAD
1000
MTEXTBEGIN
1070
    73
1070
     1
1070
    44
1040
1.0
1070
    74
1070
     0
1000
MTEXTEND
  0
MTEXT
  5
5670
330
1A
100
AcDbEntity
  8
SUNPOU
100
AcDbMText
 10
61228.26327964995
 20
49188.70402045185
 30
0.0
 40
35.0
 41
0.0
 71
     9
 72
     5
  1

1001
ACAD
1000
MTEXTBEGIN
1070
    73
1070
     1
1070
    44
1040
1.0
1070
    74
1070
     0
1000
MTEXTEND
  0
MTEXT
  5
5671
330
1A
100
AcDbEntity
  8
SUNPOU
100
AcDbMText
 10
60136.74833722491
 20
49797.47943050056
 30
0.0
 40
350.0000004171781
 41
0.0
 71
     7
 72
     5
  1

1001
ACAD
1000
MTEXTBEGIN
1070
    73
1070
     1
1070
    44
1040
1.0
1070
    74
1070
     0
1000
MTEXTEND
  0
MTEXT
  5
5672
330
1A
100
AcDbEntity
  8
0
100
AcDbMText
 10
66180.69909516782
 20
47777.40179263678
 30
0.0
 40
8.0
 41
0.0
 71
     7
 72
     5
  1

1001
ACAD
1000
MTEXTBEGIN
1070
    73
1070
     1
1070
    44
1040
1.0
1070
    74
1070
     0
1000
MTEXTEND
  0
MTEXT
  5
5673
330
1A
100
AcDbEntity
  8
0
100
AcDbMText
 10
68466.05678506271
 20
48748.19208738784
 30
0.0
 40
8.0
 41
0.0
 71
     7
 72
     5
  1

1001
ACAD
1000
MTEXTBEGIN
1070
    73
1070
     1
1070
    44
1040
1.0
1070
    74
1070
     0
1000
MTEXTEND
  0
MTEXT
  5
5674
330
1A
100
AcDbEntity
  8
SUNPOU
100
AcDbMText
 10
71131.95380574485
 20
58260.30347976296
 30
0.0
 40
10.5
 41
0.0
 71
     1
 72
     5
  1

1001
ACAD
1000
MTEXTBEGIN
1070
    73
1070
     1
1070
    44
1040
1.0
1070
    74
1070
     0
1000
MTEXTEND
  0
MTEXT
  5
5675
330
1A
100
AcDbEntity
  8
SUNPOU
100
AcDbMText
 10
63201.03060980891
 20
57313.51034585002
 30
0.0
 40
10.5
 41
0.0
 71
     7
 72
     5
  1

1001
ACAD
1000
MTEXTBEGIN
1070
    73
1070
     1
1070
    44
1040
1.0
1070
    74
1070
     0
1000
MTEXTEND
  0
MTEXT
  5
5676
330
1A
100
AcDbEntity
  8
SUNPOU
100
AcDbMText
 10
66150.01427432169
 20
62214.18641769286
 30
0.0
 40
10.5
 41
0.0
 71
     7
 72
     5
  1

1001
ACAD
1000
MTEXTBEGIN
1070
    73
1070
     1
1070
    44
1040
1.0
1070
    74
1070
     0
1000
MTEXTEND
  0
MTEXT
  5
5677
330
1A
100
AcDbEntity
  8
SUNPOU
100
AcDbMText
 10
70659.09240227225
 20
64650.48716531294
 30
0.0
 40
10.5
 41
0.0
 71
     7
 72
     5
  1

1001
ACAD
1000
MTEXTBEGIN
1070
    73
1070
     1
1070
    44
1040
1.0
1070
    74
1070
     0
1000
MTEXTEND
  0
MTEXT
  5
5678
330
1A
100
AcDbEntity
  8
SUNPOU
100
AcDbMText
 10
54259.93028904056
 20
43648.08331570185
 30
0.0
 40
10.5
 41
0.0
 71
     7
 72
     5
  1

1001
ACAD
1000
MTEXTBEGIN
1070
    73
1070
     1
1070
    44
1040
1.0
1070
    74
1070
     0
1000
MTEXTEND
  0
MTEXT
  5
5679
330
1A
100
AcDbEntity
  8
SUNPOU
100
AcDbMText
 10
56070.69320041551
 20
49975.4973031804
 30
0.0
 40
10.5
 41
0.0
 71
     9
 72
     5
  1

1001
ACAD
1000
MTEXTBEGIN
1070
    73
1070
     1
1070
    44
1040
1.0
1070
    74
1070
     0
1000
MTEXTEND
  0
MTEXT
  5
567A
330
1A
100
AcDbEntity
  8
SUNPOU
100
AcDbMText
 10
64792.86076633348
 20
57391.33183471788
 30
0.0
 40
10.5
 41
0.0
 71
     9
 72
     5
  1

1001
ACAD
1000
MTEXTBEGIN
1070
    73
1070
     1
1070
    44
1040
1.0
1070
    74
1070
     0
1000
MTEXTEND
  0
MTEXT
  5
567B
330
1A
100
AcDbEntity
  8
SUNPOU
100
AcDbMText
 10
83746.61948366345
 20
74857.90788720994
 30
0.0
 40
10.5
 41
0.0
 71
     9
 72
     5
  1

1001
ACAD
1000
MTEXTBEGIN
1070
    73
1070
     1
1070
    44
1040
1.0
1070
    74
1070
     0
1000
MTEXTEND
  0
MTEXT
  5
567C
330
1A
100
AcDbEntity
  8
SUNPOU
100
AcDbMText
 10
85690.02673037287
 20
73056.85880733192
 30
0.0
 40
3.5
 41
0.0
 71
     9
 72
     5
  1

1001
ACAD
1000
MTEXTBEGIN
1070
    73
1070
     1
1070
    44
1040
1.0
1070
    74
1070
     0
1000
MTEXTEND
  0
MTEXT
  5
567D
330
1A
100
AcDbEntity
  8
SUNPOU
100
AcDbMText
 10
116816.2065629925
 20
115551.8044749892
 30
0.0
 40
10.5
 41
0.0
 71
     9
 72
     5
  1

1001
ACAD
1000
MTEXTBEGIN
1070
    73
1070
     1
1070
    44
1040
1.0
1070
    74
1070
     0
1000
MTEXTEND
  0
MTEXT
  5
567E
330
1A
100
AcDbEntity
  8
SUNPOU
100
AcDbMText
 10
118759.613809702
 20
113750.7553951112
 30
0.0
 40
3.5
 41
0.0
 71
     9
 72
     5
  1

1001
ACAD
1000
MTEXTBEGIN
1070
    73
1070
     1
1070
    44
1040
1.0
1070
    74
1070
     0
1000
MTEXTEND
  0
MTEXT
  5
567F
330
1A
100
AcDbEntity
  8
SUNPOU
100
AcDbMText
 10
67256.47426878814
 20
61384.96962996432
 30
0.0
 40
10.5
 41
0.0
 71
     9
 72
     5
  1

1001
ACAD
1000
MTEXTBEGIN
1070
    73
1070
     1
1070
    44
1040
1.0
1070
    74
1070
     0
1000
MTEXTEND
  0
MTEXT
  5
5680
330
1A
100
AcDbEntity
  8
SUNPOU
100
AcDbMText
 10
53308.47416841216
 20
42212.57049085211
 30
0.0
 40
3.5
 41
0.0
 71
     7
 72
     5
  1

1001
ACAD
1000
MTEXTBEGIN
1070
    73
1070
     1
1070
    44
1040
1.0
1070
    74
1070
     0
1000
MTEXTEND
  0
MTEXT
  5
5681
330
1A
100
AcDbEntity
  8
SUNPOU
100
AcDbMText
 10
67000.82485118274
 20
51571.63371187345
 30
0.0
 40
10.5
 41
0.0
 71
     9
 72
     5
  1

1001
ACAD
1000
MTEXTBEGIN
1070
    73
1070
     1
1070
    44
1040
1.0
1070
    74
1070
     0
1000
MTEXTEND
  0
MTEXT
  5
5682
330
1A
100
AcDbEntity
  8
SUNPOU
100
AcDbMText
 10
75722.99241710071
 20
58987.46824341094
 30
0.0
 40
10.5
 41
0.0
 71
     9
 72
     5
  1

1001
ACAD
1000
MTEXTBEGIN
1070
    73
1070
     1
1070
    44
1040
1.0
1070
    74
1070
     0
1000
MTEXTEND
  0
MTEXT
  5
5683
330
1A
100
AcDbEntity
  8
SUNPOU
100
AcDbMText
 10
94676.75113443068
 20
76454.04429590299
 30
0.0
 40
10.5
 41
0.0
 71
     9
 72
     5
  1

1001
ACAD
1000
MTEXTBEGIN
1070
    73
1070
     1
1070
    44
1040
1.0
1070
    74
1070
     0
1000
MTEXTEND
  0
MTEXT
  5
5684
330
1A
100
AcDbEntity
  8
SUNPOU
100
AcDbMText
 10
96620.1583811401
 20
74652.99521602498
 30
0.0
 40
3.5
 41
0.0
 71
     9
 72
     5
  1

1001
ACAD
1000
MTEXTBEGIN
1070
    73
1070
     1
1070
    44
1040
1.0
1070
    74
1070
     0
1000
MTEXTEND
  0
MTEXT
  5
5685
330
1A
100
AcDbEntity
  8
SUNPOU
100
AcDbMText
 10
127746.3382137598
 20
117147.9408836823
 30
0.0
 40
10.5
 41
0.0
 71
     9
 72
     5
  1

1001
ACAD
1000
MTEXTBEGIN
1070
    73
1070
     1
1070
    44
1040
1.0
1070
    74
1070
     0
1000
MTEXTEND
  0
MTEXT
  5
5686
330
1A
100
AcDbEntity
  8
SUNPOU
100
AcDbMText
 10
129689.7454604692
 20
115346.8918038043
 30
0.0
 40
3.5
 41
0.0
 71
     9
 72
     5
  1

1001
ACAD
1000
MTEXTBEGIN
1070
    73
1070
     1
1070
    44
1040
1.0
1070
    74
1070
     0
1000
MTEXTEND
  0
MTEXT
  5
5687
330
1A
100
AcDbEntity
  8
SUNPOU
100
AcDbMText
 10
78186.60591955537
 20
62981.10603865738
 30
0.0
 40
10.5
 41
0.0
 71
     9
 72
     5
  1

1001
ACAD
1000
MTEXTBEGIN
1070
    73
1070
     1
1070
    44
1040
1.0
1070
    74
1070
     0
1000
MTEXTEND
  0
MTEXT
  5
5688
330
1A
100
AcDbEntity
  8
SUNPOU
100
AcDbMText
 10
64238.60581917939
 20
43808.70689954517
 30
0.0
 40
3.5
 41
0.0
 71
     7
 72
     5
  1

1001
ACAD
1000
MTEXTBEGIN
1070
    73
1070
     1
1070
    44
1040
1.0
1070
    74
1070
     0
1000
MTEXTEND
  0
MTEXT
  5
5689
330
1A
100
AcDbEntity
  8
SUNPOU
100
AcDbMText
 10
33428.13481137435
 20
32770.04710035564
 30
0.0
 40
10.5
 41
0.0
 71
     9
 72
     5
  1

1001
ACAD
1000
MTEXTBEGIN
1070
    73
1070
     1
1070
    44
1040
1.0
1070
    74
1070
     0
1000
MTEXTEND
  0
MTEXT
  5
568A
330
1A
100
AcDbEntity
  8
SUNPOU
100
AcDbMText
 10
52381.89352870432
 20
50236.62315284769
 30
0.0
 40
10.5
 41
0.0
 71
     9
 72
     5
  1

1001
ACAD
1000
MTEXTBEGIN
1070
    73
1070
     1
1070
    44
1040
1.0
1070
    74
1070
     0
1000
MTEXTEND
  0
MTEXT
  5
568B
330
1A
100
AcDbEntity
  8
SUNPOU
100
AcDbMText
 10
54325.30077541374
 20
48435.57407296968
 30
0.0
 40
3.5
 41
0.0
 71
     9
 72
     5
  1

1001
ACAD
1000
MTEXTBEGIN
1070
    73
1070
     1
1070
    44
1040
1.0
1070
    74
1070
     0
1000
MTEXTEND
  0
MTEXT
  5
568C
330
1A
100
AcDbEntity
  8
SUNPOU
100
AcDbMText
 10
85451.48060803343
 20
90930.51974062703
 30
0.0
 40
10.5
 41
0.0
 71
     9
 72
     5
  1

1001
ACAD
1000
MTEXTBEGIN
1070
    73
1070
     1
1070
    44
1040
1.0
1070
    74
1070
     0
1000
MTEXTEND
  0
MTEXT
  5
568D
330
1A
100
AcDbEntity
  8
SUNPOU
100
AcDbMText
 10
87394.88785474286
 20
89129.47066074901
 30
0.0
 40
3.5
 41
0.0
 71
     9
 72
     5
  1

1001
ACAD
1000
MTEXTBEGIN
1070
    73
1070
     1
1070
    44
1040
1.0
1070
    74
1070
     0
1000
MTEXTEND
  0
MTEXT
  5
568E
330
1A
100
AcDbEntity
  8
SUNPOU
100
AcDbMText
 10
35891.74831382901
 20
36763.68489560208
 30
0.0
 40
10.5
 41
0.0
 71
     9
 72
     5
  1

1001
ACAD
1000
MTEXTBEGIN
1070
    73
1070
     1
1070
    44
1040
1.0
1070
    74
1070
     0
1000
MTEXTEND
  0
MTEXT
  5
568F
330
1A
100
AcDbEntity
  8
SUNPOU
100
AcDbMText
 10
21943.74821345303
 20
17591.28575648986
 30
0.0
 40
3.5
 41
0.0
 71
     7
 72
     5
  1

1001
ACAD
1000
MTEXTBEGIN
1070
    73
1070
     1
1070
    44
1040
1.0
1070
    74
1070
     0
1000
MTEXTEND
  0
MTEXT
  5
18026
330
1A
100
AcDbEntity
  8
ZISSEN1
100
AcDbMText
 10
-1153.330514010924
 20
1132.674934362466
 30
0.0
 40
5.0
 41
113.6564999999999
 71
     1
 72
     5
  1
VDB-2620　　No.SS0001f57
1001
ACAD
1000
MTEXTBEGIN
1070
    73
1070
     1
1070
    44
1040
1.0
1070
    74
1070
     0
1000
MTEXTEND
  0
LINE
  5
18CA3
330
1A
100
AcDbEntity
  8
ZISSEN1
100
AcDbLine
 10
-1045.299999999999
 20
1024.299999999999
 30
0.0
 11
-1045.299999999999
 21
1056.699999999999
 31
0.0
  0
LINE
  5
18CA4
102
{ACAD_REACTORS
330
197E3
102
}
330
1A
100
AcDbEntity
  8
ZISSEN1
100
AcDbLine
 10
-1063.2
 20
1058.5
 30
0.0
 11
-1063.2
 21
1057.5
 31
0.0
  0
LINE
  5
18CA5
330
1A
100
AcDbEntity
  8
ZISSEN1
100
AcDbLine
 10
-1068.40001
 20
1055.4
 30
0.0
 11
-1068.40001
 21
1048.60001
 31
0.0
  0
LINE
  5
18CA6
330
1A
100
AcDbEntity
  8
ZISSEN1
100
AcDbLine
 10
-1073.00002
 20
1003.499998
 30
0.0
 11
-1073.00002
 21
1065.499999999999
 31
0.0
  0
LINE
  5
18CA7
330
1A
100
AcDbEntity
  8
ZISSEN1
100
AcDbLine
 10
-1070.00001
 20
1003.499998
 30
0.0
 11
-1070.00001
 21
1065.499999999999
 31
0.0
  0
LINE
  5
18CA8
330
1A
100
AcDbEntity
  8
ZISSEN1
100
AcDbLine
 10
-1068.40001
 20
1003.499998
 30
0.0
 11
-1068.40001
 21
1065.499999999999
 31
0.0
  0
LINE
  5
18CA9
330
1A
100
AcDbEntity
  8
ZISSEN1
100
AcDbLine
 10
-1056.80003
 20
1013.5
 30
0.0
 11
-1056.80003
 21
1065.499999999999
 31
0.0
  0
LINE
  5
18CAA
330
1A
100
AcDbEntity
  8
ZISSEN1
100
AcDbLine
 10
-1058.40003
 20
1013.5
 30
0.0
 11
-1058.40003
 21
1065.499999999999
 31
0.0
  0
LINE
  5
18CAB
330
1A
100
AcDbEntity
  8
ZISSEN1
100
AcDbLine
 10
-1076.0
 20
1001.499999999999
 30
0.0
 11
-1076.0
 21
1065.499999999999
 31
0.0
  0
DIMENSION
  5
18CAC
330
1A
100
AcDbEntity
  8
SUNPOU
100
AcDbDimension
  2
*D0
 10
-1041.0
 20
977.4656643910425
 30
0.0
 11
-1058.898226113593
 21
977.4656643910425
 31
0.0
 70
   160
  3
標準スタイル
100
AcDbAlignedDimension
 13
-1076.0
 23
1001.207109
 33
0.0
 14
-1041.0
 24
1000.5
 34
0.0
100
AcDbRotatedDimension
1001
ACAD
1000
DSTYLE
1002
{
1070
    40
1040
1.0
1002
}
  0
LINE
  5
18CAD
330
1A
100
AcDbEntity
  8
ZISSEN1
100
AcDbLine
 10
-1060.65
 20
1051.7
 30
0.0
 11
-1068.40001
 21
1051.7
 31
0.0
  0
LINE
  5
18CAE
330
1A
100
AcDbEntity
  8
ZISSEN1
100
AcDbLine
 10
-1041.0
 20
1003.499998
 30
0.0
 11
-1073.00002
 21
1003.499998
 31
0.0
  0
LINE
  5
18CAF
330
1A
100
AcDbEntity
  8
ZISSEN1
100
AcDbLine
 10
-1075.0
 20
1000.499999999999
 30
0.0
 11
-1041.0
 21
1000.5
 31
0.0
  0
LINE
  5
18CB0
330
1A
100
AcDbEntity
  8
ZISSEN1
100
AcDbLine
 10
-1058.40003
 20
1019.7
 30
0.0
 11
-1068.40001
 21
1019.7
 31
0.0
  0
LINE
  5
18CB1
330
1A
100
AcDbEntity
  8
ZISSEN1
100
AcDbLine
 10
-1058.40003
 20
1014.70001
 30
0.0
 11
-1068.40001
 21
1014.70001
 31
0.0
  0
LINE
  5
18CB2
102
{ACAD_REACTORS
330
19656
330
19665
102
}
330
1A
100
AcDbEntity
  8
ZISSEN1
100
AcDbLine
 10
-1054.75
 20
1003.499998
 30
0.0
 11
-1054.75
 21
1000.5
 31
0.0
  0
LINE
  5
18CB3
330
1A
100
AcDbEntity
  8
ZISSEN1
100
AcDbLine
 10
-1073.00002
 20
1003.499998
 30
0.0
 11
-1073.00002
 21
1000.5
 31
0.0
  0
LINE
  5
18CB4
330
1A
100
AcDbEntity
  8
ZISSEN1
100
AcDbLine
 10
-1072.50002
 20
1000.5
 30
0.0
 11
-1072.50002
 21
1003.499998
 31
0.0
  0
DIMENSION
  5
18CB8
330
1A
100
AcDbEntity
  8
SUNPOU
100
AcDbDimension
  2
*D1
 10
-1031.252754733544
 20
1000.5
 30
0.0
 11
-1031.252754733544
 21
992.3333333333332
 31
0.0
 70
   160
  3
標準スタイル
100
AcDbAlignedDimension
 13
-1041.0
 23
1003.499998
 33
0.0
 14
-1041.0
 24
1000.5
 34
0.0
 50
90.0
100
AcDbRotatedDimension
1001
ACAD
1000
DSTYLE
1002
{
1070
    40
1040
1.0
1002
}
  0
LINE
  5
18CBA
330
1A
100
AcDbEntity
  8
ZISSEN1
100
AcDbLine
 10
-1056.80003
 20
1013.5
 30
0.0
 11
-1058.40003
 21
1013.5
 31
0.0
  0
LINE
  5
18CBB
330
1A
100
AcDbEntity
  8
ZISSEN1
100
AcDbLine
 10
-1056.80003
 20
1019.5
 30
0.0
 11
-1058.40003
 21
1019.5
 31
0.0
  0
LINE
  5
18CBF
330
1A
100
AcDbEntity
  8
ZISSEN1
100
AcDbLine
 10
-1041.0
 20
1000.5
 30
0.0
 11
-1041.0
 21
1003.499998
 31
0.0
  0
LINE
  5
18CC0
330
1A
100
AcDbEntity
  8
ZISSEN1
100
AcDbLine
 10
-1041.5
 20
1000.5
 30
0.0
 11
-1041.5
 21
1003.499998
 31
0.0
  0
LINE
  5
18CC3
102
{ACAD_REACTORS
330
19656
330
19665
102
}
330
1A
100
AcDbEntity
  8
ZISSEN1
100
AcDbLine
 10
-1051.25
 20
1003.499998
 30
0.0
 11
-1051.25
 21
1000.5
 31
0.0
  0
LINE
  5
18CC5
102
{ACAD_REACTORS
330
19656
330
19665
102
}
330
1A
100
AcDbEntity
  8
CL1
100
AcDbLine
 10
-1053.0
 20
1006.499995
 30
0.0
 11
-1053.0
 21
997.5000030000002
 31
0.0
  0
LINE
  5
18CCA
330
1A
100
AcDbEntity
  8
ZISSEN1
100
AcDbLine
 10
-1045.299999999999
 20
1024.299999999999
 30
0.0
 11
-1056.80003
 21
1024.299999999999
 31
0.0
  0
LINE
  5
18CCC
330
1A
100
AcDbEntity
  8
ZISSEN1
100
AcDbLine
 10
-1056.80003
 20
1020.499999999999
 30
0.0
 11
-1058.40003
 21
1020.499999999999
 31
0.0
  0
LINE
  5
18CCD
330
1A
100
AcDbEntity
  8
ZISSEN1
100
AcDbLine
 10
-1068.40001
 20
1077.0
 30
0.0
 11
-1058.7
 21
1077.0
 31
0.0
  0
LINE
  5
18CCE
330
1A
100
AcDbEntity
  8
ZISSEN1
100
AcDbLine
 10
-1058.40003
 20
1064.5
 30
0.0
 11
-1068.40001
 21
1064.5
 31
0.0
  0
LINE
  5
18CD0
102
{ACAD_REACTORS
330
197E3
102
}
330
1A
100
AcDbEntity
  8
ZISSEN1
100
AcDbLine
 10
-1064.4
 20
1055.5
 30
0.0
 11
-1068.40001
 21
1055.5
 31
0.0
  0
LINE
  5
18CD1
330
1A
100
AcDbEntity
  8
ZISSEN1
100
AcDbLine
 10
-1058.40003
 20
1058.5
 30
0.0
 11
-1068.400039999999
 21
1058.5
 31
0.0
  0
LINE
  5
18CD3
330
1A
100
AcDbEntity
  8
ZISSEN1
100
AcDbLine
 10
-1070.00001
 20
1065.499999999999
 30
0.0
 11
-1068.40001
 21
1065.499999999999
 31
0.0
  0
LINE
  5
18CD4
330
1A
100
AcDbEntity
  8
ZISSEN1
100
AcDbLine
 10
-1068.40001
 20
1064.5
 30
0.0
 11
-1070.00001
 21
1064.5
 31
0.0
  0
LINE
  5
18CD7
330
1A
100
AcDbEntity
  8
ZISSEN1
100
AcDbLine
 10
-1070.00001
 20
1064.0
 30
0.0
 11
-1073.00002
 21
1064.0
 31
0.0
  0
LINE
  5
18CD8
330
1A
100
AcDbEntity
  8
ZISSEN1
100
AcDbLine
 10
-1073.00002
 20
1065.499999999999
 30
0.0
 11
-1076.0
 21
1065.499999999999
 31
0.0
  0
LINE
  5
18CDD
330
1A
100
AcDbEntity
  8
ZISSEN1
100
AcDbLine
 10
-1068.40001
 20
1077.0
 30
0.0
 11
-1068.40001
 21
1056.30001
 31
0.0
  0
LINE
  5
18CDE
330
1A
100
AcDbEntity
  8
ZISSEN1
100
AcDbLine
 10
-1070.00001
 20
1064.5
 30
0.0
 11
-1070.00001
 21
1056.50002
 31
0.0
  0
LINE
  5
18CE2
330
1A
100
AcDbEntity
  8
ZISSEN1
100
AcDbLine
 10
-1056.80003
 20
1057.7
 30
0.0
 11
-1045.299999999999
 21
1057.7
 31
0.0
  0
LINE
  5
18CE4
330
1A
100
AcDbEntity
  8
ZISSEN1
100
AcDbLine
 10
-1045.299999999999
 20
1057.7
 30
0.0
 11
-1045.299999999999
 21
1065.3
 31
0.0
  0
LINE
  5
18CE5
330
1A
100
AcDbEntity
  8
ZISSEN1
100
AcDbLine
 10
-1045.299999999999
 20
1065.3
 30
0.0
 11
-1056.80003
 21
1065.3
 31
0.0
  0
LINE
  5
18CE8
330
1A
100
AcDbEntity
  8
ZISSEN1
100
AcDbLine
 10
-1045.299999999999
 20
1056.699999999999
 30
0.0
 11
-1056.80003
 21
1056.699999999999
 31
0.0
  0
LINE
  5
18CEA
330
1A
100
AcDbEntity
  8
ZISSEN1
100
AcDbLine
 10
-1058.7
 20
1077.0
 30
0.0
 11
-1058.7
 21
1064.5
 31
0.0
  0
DIMENSION
  5
18CEC
330
1A
100
AcDbEntity
  8
SUNPOU
100
AcDbDimension
  2
*D2
 10
-909.2290411161098
 20
1116.250009999999
 30
0.0
 11
-911.9790411161099
 21
1105.750009999999
 31
0.0
 70
    32
  3
標準スタイル
100
AcDbAlignedDimension
 13
-917.0
 23
1119.75
 33
0.0
 14
-917.0
 24
1116.250009999999
 34
0.0
 50
90.0
100
AcDbRotatedDimension
1001
ACAD
1000
DSTYLE
1002
{
1070
    40
1040
1.0
1002
}
  0
LINE
  5
18CED
330
1A
100
AcDbEntity
  8
ZISSEN1
100
AcDbLine
 10
-1004.0
 20
1125.65
 30
0.0
 11
-1004.0
 21
1133.4
 31
0.0
  0
LINE
  5
18CEF
102
{ACAD_REACTORS
330
197DC
102
}
330
1A
100
AcDbEntity
  8
ZISSEN1
100
AcDbLine
 10
-930.2999999999999
 20
1110.3
 30
0.0
 11
-930.2999999999999
 21
1121.8
 31
0.0
  0
LINE
  5
18CF0
102
{ACAD_REACTORS
330
197DC
102
}
330
1A
100
AcDbEntity
  8
ZISSEN1
100
AcDbLine
 10
-955.2000000000001
 20
1110.3
 30
0.0
 11
-955.2000000000001
 21
1121.8
 31
0.0
  0
LINE
  5
18CF1
102
{ACAD_REACTORS
330
197DC
102
}
330
1A
100
AcDbEntity
  8
ZISSEN1
100
AcDbLine
 10
-955.7999999999999
 20
1110.3
 30
0.0
 11
-955.7999999999999
 21
1121.8
 31
0.0
  0
LINE
  5
18CF2
102
{ACAD_REACTORS
330
197DC
102
}
330
1A
100
AcDbEntity
  8
ZISSEN1
100
AcDbLine
 10
-965.7
 20
1110.3
 30
0.0
 11
-965.7
 21
1121.8
 31
0.0
  0
DIMENSION
  5
18CF5
330
1A
100
AcDbEntity
  8
SUNPOU
100
AcDbDimension
  2
*D3
 10
-917.0
 20
975.1879003921676
 30
0.0
 11
-960.4999999338142
 21
977.9379003921675
 31
0.0
 70
    32
  1
(87)
  3
標準スタイル
100
AcDbAlignedDimension
 13
-1003.999999867628
 23
1029.299999869833
 33
0.0
 14
-917.0
 24
1000.0
 34
0.0
100
AcDbRotatedDimension
1001
ACAD
1000
DSTYLE
1002
{
1070
    40
1040
1.0
1002
}
  0
DIMENSION
  5
18CF8
330
1A
100
AcDbEntity
  8
SUNPOU
100
AcDbDimension
  2
*D4
 10
-917.0
 20
987.672915975108
 30
0.0
 11
-958.5
 21
990.422915975108
 31
0.0
 70
    32
  3
標準スタイル
100
AcDbAlignedDimension
 13
-1000.0
 23
1000.5
 33
0.0
 14
-917.0
 24
1000.5
 34
0.0
100
AcDbRotatedDimension
1001
ACAD
1000
DSTYLE
1002
{
1070
    40
1040
1.0
1002
}
  0
LINE
  5
18CF9
330
1A
100
AcDbEntity
  8
ZISSEN1
100
AcDbLine
 10
-953.0499999999999
 20
1077.0
 30
0.0
 11
-929.95
 21
1077.0
 31
0.0
  0
LINE
  5
18CFA
102
{ACAD_REACTORS
330
197DC
102
}
330
1A
100
AcDbEntity
  8
ZISSEN1
100
AcDbLine
 10
-955.2000000000001
 20
1110.3
 30
0.0
 11
-930.2999999999999
 21
1110.3
 31
0.0
  0
LINE
  5
18CFB
330
1A
100
AcDbEntity
  8
ZISSEN1
100
AcDbLine
 10
-955.2000000000001
 20
1057.7
 30
0.0
 11
-930.2999999999999
 21
1057.7
 31
0.0
  0
LINE
  5
18CFC
330
1A
100
AcDbEntity
  8
ZISSEN1
100
AcDbLine
 10
-955.2000000000001
 20
1065.3
 30
0.0
 11
-930.2999999999999
 21
1065.3
 31
0.0
  0
LINE
  5
18CFD
330
1A
100
AcDbEntity
  8
ZISSEN1
100
AcDbLine
 10
-962.2929
 20
1025.0
 30
0.0
 11
-934.7070999999999
 21
1025.0
 31
0.0
  0
LINE
  5
18D00
330
1A
100
AcDbEntity
  8
ZISSEN1
100
AcDbLine
 10
-1000.0
 20
1003.499998
 30
0.0
 11
-917.0
 21
1003.499998
 31
0.0
  0
LINE
  5
18D01
330
1A
100
AcDbEntity
  8
ZISSEN1
100
AcDbLine
 10
-1000.0
 20
1000.5
 30
0.0
 11
-917.0
 21
1000.5
 31
0.0
  0
LINE
  5
18D02
330
1A
100
AcDbEntity
  8
ZISSEN1
100
AcDbLine
 10
-994.8
 20
1024.3
 30
0.0
 11
-994.8
 21
1056.699999999999
 31
0.0
  0
LINE
  5
18D03
330
1A
100
AcDbEntity
  8
ZISSEN1
100
AcDbLine
 10
-987.1999999999999
 20
1024.299999999999
 30
0.0
 11
-987.1999999999999
 21
1056.699999999999
 31
0.0
  0
LINE
  5
18D0C
330
1A
100
AcDbEntity
  8
CL1
100
AcDbLine
 10
-997.0000199999999
 20
1006.499995
 30
0.0
 11
-997.0000199999999
 21
997.4999910000001
 31
0.0
  0
LINE
  5
18D0D
330
1A
100
AcDbEntity
  8
ZISSEN1
100
AcDbLine
 10
-1000.0
 20
1000.5
 30
0.0
 11
-1000.0
 21
1003.499998
 31
0.0
  0
LINE
  5
18D0E
330
1A
100
AcDbEntity
  8
ZISSEN1
100
AcDbLine
 10
-999.2929
 20
1003.499998
 30
0.0
 11
-999.2929
 21
1000.5
 31
0.0
  0
LINE
  5
18D0F
330
1A
100
AcDbEntity
  8
ZISSEN1
100
AcDbLine
 10
-994.9999999999999
 20
1064.5
 30
0.0
 11
-995.0
 21
1003.499998
 31
0.0
  0
LINE
  5
18D12
330
1A
100
AcDbEntity
  8
ZISSEN1
100
AcDbLine
 10
-994.8
 20
1024.299999999999
 30
0.0
 11
-987.1999999999999
 21
1024.299999999999
 31
0.0
  0
LINE
  5
18D15
330
1A
100
AcDbEntity
  8
ZISSEN1
100
AcDbLine
 10
-963.0
 20
1024.2929
 30
0.0
 11
-963.0
 21
1013.5
 31
0.0
  0
LINE
  5
18D1B
330
1A
100
AcDbEntity
  8
ZISSEN1
  6
CONTINUOUS
 62
     7
100
AcDbLine
 10
-971.5999899999999
 20
1022.499999999999
 30
0.0
 11
-971.5999899999999
 21
1023.30002
 31
0.0
  0
LINE
  5
18D1C
330
1A
100
AcDbEntity
  8
ZISSEN1
  6
CONTINUOUS
 62
     7
100
AcDbLine
 10
-970.0
 20
1023.30002
 30
0.0
 11
-970.0
 21
1022.499999999999
 31
0.0
  0
LINE
  5
18D1D
330
1A
100
AcDbEntity
  8
ZISSEN1
  6
CONTINUOUS
 62
     7
100
AcDbLine
 10
-970.0
 20
1022.499999999999
 30
0.0
 11
-971.5999899999999
 21
1022.499999999999
 31
0.0
  0
LINE
  5
18D1E
330
1A
100
AcDbEntity
  8
ZISSEN1
  6
CONTINUOUS
 62
     7
100
AcDbLine
 10
-971.5999899999999
 20
1023.30002
 30
0.0
 11
-970.0
 21
1023.30002
 31
0.0
  0
LINE
  5
18D1F
330
1A
100
AcDbEntity
  8
ZISSEN1
  6
CONTINUOUS
 62
     7
100
AcDbLine
 10
-971.5999899999999
 20
1024.549979999999
 30
0.0
 11
-971.5999899999999
 21
1025.349999999999
 31
0.0
  0
LINE
  5
18D20
330
1A
100
AcDbEntity
  8
ZISSEN1
  6
CONTINUOUS
 62
     7
100
AcDbLine
 10
-970.0
 20
1025.349999999999
 30
0.0
 11
-970.0
 21
1024.549979999999
 31
0.0
  0
LINE
  5
18D21
330
1A
100
AcDbEntity
  8
ZISSEN1
  6
CONTINUOUS
 62
     7
100
AcDbLine
 10
-970.0
 20
1024.549979999999
 30
0.0
 11
-971.5999899999999
 21
1024.549979999999
 31
0.0
  0
LINE
  5
18D22
330
1A
100
AcDbEntity
  8
ZISSEN1
  6
CONTINUOUS
 62
     7
100
AcDbLine
 10
-971.5999899999999
 20
1025.349999999999
 30
0.0
 11
-970.0
 21
1025.349999999999
 31
0.0
  0
LINE
  5
18D23
330
1A
100
AcDbEntity
  8
ZISSEN1
  6
CONTINUOUS
 62
     7
100
AcDbLine
 10
-971.5999899999999
 20
1026.59998
 30
0.0
 11
-971.5999899999999
 21
1027.4
 31
0.0
  0
LINE
  5
18D24
330
1A
100
AcDbEntity
  8
ZISSEN1
  6
CONTINUOUS
 62
     7
100
AcDbLine
 10
-970.0
 20
1027.4
 30
0.0
 11
-970.0
 21
1026.59998
 31
0.0
  0
LINE
  5
18D25
330
1A
100
AcDbEntity
  8
ZISSEN1
  6
CONTINUOUS
 62
     7
100
AcDbLine
 10
-970.0
 20
1026.59998
 30
0.0
 11
-971.5999899999999
 21
1026.59998
 31
0.0
  0
LINE
  5
18D26
330
1A
100
AcDbEntity
  8
ZISSEN1
  6
CONTINUOUS
 62
     7
100
AcDbLine
 10
-971.5999899999999
 20
1027.4
 30
0.0
 11
-970.0
 21
1027.4
 31
0.0
  0
LINE
  5
18D27
330
1A
100
AcDbEntity
  8
ZISSEN1
  6
CONTINUOUS
 62
     7
100
AcDbLine
 10
-971.5999899999999
 20
1028.649979999999
 30
0.0
 11
-971.5999899999999
 21
1029.45
 31
0.0
  0
LINE
  5
18D28
330
1A
100
AcDbEntity
  8
ZISSEN1
  6
CONTINUOUS
 62
     7
100
AcDbLine
 10
-970.0
 20
1029.45
 30
0.0
 11
-970.0
 21
1028.649979999999
 31
0.0
  0
LINE
  5
18D29
330
1A
100
AcDbEntity
  8
ZISSEN1
  6
CONTINUOUS
 62
     7
100
AcDbLine
 10
-970.0
 20
1028.649979999999
 30
0.0
 11
-971.5999899999999
 21
1028.649979999999
 31
0.0
  0
LINE
  5
18D2A
330
1A
100
AcDbEntity
  8
ZISSEN1
  6
CONTINUOUS
 62
     7
100
AcDbLine
 10
-971.5999899999999
 20
1029.45
 30
0.0
 11
-970.0
 21
1029.45
 31
0.0
  0
LINE
  5
18D2B
330
1A
100
AcDbEntity
  8
ZISSEN1
  6
CONTINUOUS
 62
     7
100
AcDbLine
 10
-971.5999899999999
 20
1031.5
 30
0.0
 11
-970.0
 21
1031.5
 31
0.0
  0
LINE
  5
18D2C
330
1A
100
AcDbEntity
  8
ZISSEN1
  6
CONTINUOUS
 62
     7
100
AcDbLine
 10
-970.0
 20
1030.699979999999
 30
0.0
 11
-971.5999899999999
 21
1030.699979999999
 31
0.0
  0
LINE
  5
18D2D
330
1A
100
AcDbEntity
  8
ZISSEN1
  6
CONTINUOUS
 62
     7
100
AcDbLine
 10
-970.0
 20
1031.5
 30
0.0
 11
-970.0
 21
1030.699979999999
 31
0.0
  0
LINE
  5
18D2E
330
1A
100
AcDbEntity
  8
ZISSEN1
  6
CONTINUOUS
 62
     7
100
AcDbLine
 10
-971.5999899999999
 20
1030.699979999999
 30
0.0
 11
-971.5999899999999
 21
1031.5
 31
0.0
  0
LINE
  5
18D35
330
1A
100
AcDbEntity
  8
ZISSEN1
100
AcDbLine
 10
-994.8
 20
1056.699999999999
 30
0.0
 11
-987.1999999999999
 21
1056.699999999999
 31
0.0
  0
LINE
  5
18D38
330
1A
100
AcDbEntity
  8
ZISSEN1
100
AcDbLine
 10
-993.9999999999999
 20
1065.499999999999
 30
0.0
 11
-923.0
 21
1065.499999999999
 31
0.0
  0
LINE
  5
18D3A
330
1A
100
AcDbEntity
  8
ZISSEN1
100
AcDbLine
 10
-1004.0
 20
1125.65
 30
0.0
 11
-994.5
 21
1125.65
 31
0.0
  0
LINE
  5
18D3E
330
1A
100
AcDbEntity
  8
ZISSEN1
100
AcDbLine
 10
-963.0499999999999
 20
1077.0
 30
0.0
 11
-953.95
 21
1077.0
 31
0.0
  0
LINE
  5
18D3F
330
1A
100
AcDbEntity
  8
ZISSEN1
100
AcDbLine
 10
-965.7
 20
1065.3
 30
0.0
 11
-955.7999999999999
 21
1065.3
 31
0.0
  0
LINE
  5
18D40
330
1A
100
AcDbEntity
  8
ZISSEN1
100
AcDbLine
 10
-965.7
 20
1057.7
 30
0.0
 11
-955.7999999999999
 21
1057.7
 31
0.0
  0
LINE
  5
18D41
330
1A
100
AcDbEntity
  8
ZISSEN1
100
AcDbLine
 10
-963.0499999999999
 20
1077.0
 30
0.0
 11
-963.0499999999999
 21
1065.499999999999
 31
0.0
  0
LINE
  5
18D44
330
1A
100
AcDbEntity
  8
ZISSEN1
100
AcDbLine
 10
-965.7
 20
1065.3
 30
0.0
 11
-965.7
 21
1057.7
 31
0.0
  0
LINE
  5
18D45
330
1A
100
AcDbEntity
  8
ZISSEN1
100
AcDbLine
 10
-953.0499999999999
 20
1077.0
 30
0.0
 11
-953.0499999999999
 21
1065.499999999999
 31
0.0
  0
LINE
  5
18D46
330
1A
100
AcDbEntity
  8
ZISSEN1
100
AcDbLine
 10
-953.95
 20
1077.0
 30
0.0
 11
-953.95
 21
1065.499999999999
 31
0.0
  0
LINE
  5
18D48
330
1A
100
AcDbEntity
  8
ZISSEN1
100
AcDbLine
 10
-955.2000000000001
 20
1065.3
 30
0.0
 11
-955.2000000000001
 21
1057.7
 31
0.0
  0
LINE
  5
18D49
330
1A
100
AcDbEntity
  8
ZISSEN1
100
AcDbLine
 10
-955.7999999999999
 20
1065.3
 30
0.0
 11
-955.7999999999999
 21
1057.7
 31
0.0
  0
LINE
  5
18D4B
102
{ACAD_REACTORS
330
197DC
102
}
330
1A
100
AcDbEntity
  8
ZISSEN1
100
AcDbLine
 10
-965.7
 20
1110.3
 30
0.0
 11
-955.7999999999999
 21
1110.3
 31
0.0
  0
DIMENSION
  5
18D51
330
1A
100
AcDbEntity
  8
SUNPOU
100
AcDbDimension
  2
*D5
 10
-895.9219332122939
 20
1000.5
 30
0.0
 11
-898.6719332122939
 21
1038.749999999999
 31
0.0
 70
    32
  1
(76.5)
  3
標準スタイル
100
AcDbAlignedDimension
 13
-929.95
 23
1077.0
 33
0.0
 14
-916.5
 24
1000.5
 34
0.0
 50
90.0
100
AcDbRotatedDimension
1001
ACAD
1000
DSTYLE
1002
{
1070
    40
1040
1.0
1002
}
  0
DIMENSION
  5
18D52
330
1A
100
AcDbEntity
  8
SUNPOU
100
AcDbDimension
  2
*D6
 10
-908.2917186306938
 20
1065.499999999999
 30
0.0
 11
-911.0417186306939
 21
1032.999999999999
 31
0.0
 70
    32
  3
標準スタイル
100
AcDbAlignedDimension
 13
-917.0
 23
1000.5
 33
0.0
 14
-923.0
 24
1065.499999999999
 34
0.0
 50
90.0
100
AcDbRotatedDimension
1001
ACAD
1000
DSTYLE
1002
{
1070
    40
1040
1.0
1002
}
  0
LINE
  5
18D53
330
1A
100
AcDbEntity
  8
ZISSEN1
100
AcDbLine
 10
-922.0
 20
1020.2071
 30
0.0
 11
-922.0
 21
1064.5
 31
0.0
  0
LINE
  5
18D54
330
1A
100
AcDbEntity
  8
ZISSEN1
100
AcDbLine
 10
-922.0
 20
1020.499999999999
 30
0.0
 11
-922.0
 21
1003.499998
 31
0.0
  0
LINE
  5
18D56
330
1A
100
AcDbEntity
  8
CL1
100
AcDbLine
 10
-919.9999899999999
 20
1006.499995
 30
0.0
 11
-919.9999899999999
 21
997.5000030000002
 31
0.0
  0
LINE
  5
18D57
330
1A
100
AcDbEntity
  8
ZISSEN1
100
AcDbLine
 10
-917.0
 20
1000.5
 30
0.0
 11
-917.0
 21
1003.499998
 31
0.0
  0
LINE
  5
18D58
330
1A
100
AcDbEntity
  8
ZISSEN1
100
AcDbLine
 10
-917.70711
 20
1003.499998
 30
0.0
 11
-917.70711
 21
1000.5
 31
0.0
  0
LINE
  5
18D5A
330
1A
100
AcDbEntity
  8
ZISSEN1
100
AcDbLine
 10
-929.95
 20
1077.0
 30
0.0
 11
-929.95
 21
1065.499999999999
 31
0.0
  0
LINE
  5
18D5D
330
1A
100
AcDbEntity
  8
ZISSEN1
100
AcDbLine
 10
-930.2999999999999
 20
1065.3
 30
0.0
 11
-930.2999999999999
 21
1057.7
 31
0.0
  0
DIMENSION
  5
18D5F
330
1A
100
AcDbEntity
  8
SUNPOU
100
AcDbDimension
  2
*D7
 10
-919.9982761161733
 20
1148.220719580013
 30
0.0
 11
-958.4991405581117
 21
1150.970719580013
 31
0.0
 70
    32
  3
標準スタイル
100
AcDbAlignedDimension
 13
-997.0000050000502
 23
1121.000010000037
 33
0.0
 14
-919.9982761161733
 24
1120.999952096359
 34
0.0
100
AcDbRotatedDimension
1001
ACAD
1000
DSTYLE
1002
{
1070
    40
1040
1.0
1002
}
  0
LINE
  5
18D60
330
1A
100
AcDbEntity
  8
ZISSEN1
100
AcDbLine
 10
-949.8000324854158
 20
1133.400369250332
 30
0.0
 11
-930.2000224854159
 21
1133.400369250332
 31
0.0
  0
LINE
  5
18D61
330
1A
100
AcDbEntity
  8
ZISSEN1
100
AcDbLine
 10
-929.95
 20
1123.7
 30
0.0
 11
-953.0499999999999
 21
1123.7
 31
0.0
  0
LINE
  5
18D62
330
1A
100
AcDbEntity
  8
ZISSEN1
100
AcDbLine
 10
-995.0
 20
1141.0
 30
0.0
 11
-922.0
 21
1141.0
 31
0.0
  0
LINE
  5
18D63
330
1A
100
AcDbEntity
  8
ZISSEN1
100
AcDbLine
 10
-995.0
 20
1135.0
 30
0.0
 11
-922.0
 21
1135.0
 31
0.0
  0
LINE
  5
18D64
330
1A
100
AcDbEntity
  8
ZISSEN1
100
AcDbLine
 10
-995.0
 20
1133.4
 30
0.0
 11
-922.0
 21
1133.4
 31
0.0
  0
LINE
  5
18D65
330
1A
100
AcDbEntity
  8
ZISSEN1
100
AcDbLine
 10
-995.0
 20
1123.4
 30
0.0
 11
-922.0
 21
1123.4
 31
0.0
  0
LINE
  5
18D66
330
1A
100
AcDbEntity
  8
ZISSEN1
100
AcDbLine
 10
-995.0
 20
1121.8
 30
0.0
 11
-922.0
 21
1121.8
 31
0.0
  0
LINE
  5
18D67
330
1A
100
AcDbEntity
  8
ZISSEN1
100
AcDbLine
 10
-918.0
 20
1138.0
 30
0.0
 11
-999.0
 21
1138.0
 31
0.0
  0
DIMENSION
  5
18D6B
330
1A
100
AcDbEntity
  8
SUNPOU
100
AcDbDimension
  2
*D8
 10
-997.0000050000502
 20
1148.220719580013
 30
0.0
 11
-1011.958333333333
 21
1148.220719580013
 31
0.0
 70
   160
  3
標準スタイル
100
AcDbAlignedDimension
 13
-1000.0
 23
1137.0
 33
0.0
 14
-997.0000050000502
 24
1121.500010000037
 34
0.0
100
AcDbRotatedDimension
1001
ACAD
1000
DSTYLE
1002
{
1070
    40
1040
1.0
1002
}
  0
LINE
  5
18D6C
330
1A
100
AcDbEntity
  8
ZISSEN1
100
AcDbLine
 10
-1004.0
 20
1133.4
 30
0.0
 11
-994.5
 21
1133.4
 31
0.0
  0
ARC
  5
18D6D
330
1A
100
AcDbEntity
  8
ZISSEN1
100
AcDbCircle
 10
-996.0000199999999
 20
1118.0
 30
0.0
 40
1.749999899999999
100
AcDbArc
 50
270.0
 51
313.292717344229
  0
LINE
  5
18D6E
330
1A
100
AcDbEntity
  8
CL1
100
AcDbLine
 10
-994.7999998435509
 20
1118.0
 30
0.0
 11
-1000.0
 21
1118.0
 31
0.0
  0
LINE
  5
18D70
330
1A
100
AcDbEntity
  8
ZISSEN1
100
AcDbLine
 10
-995.0
 20
1133.400369250332
 30
0.0
 11
-995.0
 21
1135.000359250332
 31
0.0
  0
LINE
  5
18D71
330
1A
100
AcDbEntity
  8
ZISSEN1
100
AcDbLine
 10
-995.0
 20
1138.0
 30
0.0
 11
-995.0
 21
1141.0
 31
0.0
  0
LINE
  5
18D72
330
1A
100
AcDbEntity
  8
ZISSEN1
100
AcDbLine
 10
-1000.0
 20
1137.0
 30
0.0
 11
-999.0
 21
1138.0
 31
0.0
  0
LINE
  5
18D73
330
1A
100
AcDbEntity
  8
ZISSEN1
100
AcDbLine
 10
-995.0
 20
1121.800389250332
 30
0.0
 11
-995.0
 21
1123.400379250332
 31
0.0
  0
LINE
  5
18D75
330
1A
100
AcDbEntity
  8
ZISSEN1
100
AcDbLine
 10
-996.0000199999999
 20
1116.250009999999
 30
0.0
 11
-1000.0
 21
1116.250009999999
 31
0.0
  0
LINE
  5
18D76
330
1A
100
AcDbEntity
  8
ZISSEN1
100
AcDbLine
 10
-996.0000199999999
 20
1119.75
 30
0.0
 11
-1000.0
 21
1119.75
 31
0.0
  0
LINE
  5
18D77
330
1A
100
AcDbEntity
  8
CL1
100
AcDbLine
 10
-997.0000050000502
 20
1114.999990000037
 30
0.0
 11
-997.0000050000502
 21
1121.000010000037
 31
0.0
  0
LINE
  5
18D78
330
1A
100
AcDbEntity
  8
ZISSEN1
100
AcDbLine
 10
-1000.0
 20
1137.0
 30
0.0
 11
-1000.0
 21
1133.4
 31
0.0
  0
LINE
  5
18D7C
330
1A
100
AcDbEntity
  8
ZISSEN1
100
AcDbLine
 10
-989.0
 20
1135.0
 30
0.0
 11
-989.0
 21
1138.0
 31
0.0
  0
LINE
  5
18D7D
330
1A
100
AcDbEntity
  8
ZISSEN1
100
AcDbLine
 10
-994.0
 20
1135.0
 30
0.0
 11
-994.0
 21
1138.0
 31
0.0
  0
LINE
  5
18D7E
330
1A
100
AcDbEntity
  8
ZISSEN1
100
AcDbLine
 10
-994.0
 20
1133.400369250332
 30
0.0
 11
-994.0
 21
1135.000359250332
 31
0.0
  0
LINE
  5
18D7F
330
1A
100
AcDbEntity
  8
ZISSEN1
100
AcDbLine
 10
-994.0
 20
1138.0
 30
0.0
 11
-994.0
 21
1141.0
 31
0.0
  0
LINE
  5
18D80
330
1A
100
AcDbEntity
  8
ZISSEN1
100
AcDbLine
 10
-994.0
 20
1121.800389250332
 30
0.0
 11
-994.0
 21
1123.400379250332
 31
0.0
  0
LINE
  5
18D81
330
1A
100
AcDbEntity
  8
ZISSEN1
100
AcDbLine
 10
-988.4999999999999
 20
1133.4
 30
0.0
 11
-988.4999999999999
 21
1123.4
 31
0.0
  0
LINE
  5
18D82
330
1A
100
AcDbEntity
  8
ZISSEN1
100
AcDbLine
 10
-994.5
 20
1133.4
 30
0.0
 11
-994.5
 21
1123.4
 31
0.0
  0
LINE
  5
18D84
330
1A
100
AcDbEntity
  8
ZISSEN1
100
AcDbLine
 10
-960.0500224854158
 20
1133.400369250332
 30
0.0
 11
-950.9500324854158
 21
1133.400369250332
 31
0.0
  0
LINE
  5
18D85
330
1A
100
AcDbEntity
  8
ZISSEN1
100
AcDbLine
 10
-953.95
 20
1123.70028522209
 30
0.0
 11
-963.0499999999999
 21
1123.7
 31
0.0
  0
LINE
  5
18D99
330
1A
100
AcDbEntity
  8
ZISSEN1
100
AcDbLine
 10
-963.0499999999999
 20
1133.4
 30
0.0
 11
-963.0499999999999
 21
1123.7
 31
0.0
  0
LINE
  5
18D9D
330
1A
100
AcDbEntity
  8
ZISSEN1
100
AcDbLine
 10
-953.0499999999999
 20
1133.4
 30
0.0
 11
-953.0499999999999
 21
1123.7
 31
0.0
  0
LINE
  5
18D9E
330
1A
100
AcDbEntity
  8
ZISSEN1
100
AcDbLine
 10
-953.95
 20
1133.4
 30
0.0
 11
-953.95
 21
1123.7
 31
0.0
  0
DIMENSION
  5
18D9F
330
1A
100
AcDbEntity
  8
SUNPOU
100
AcDbDimension
  2
*D9
 10
-917.0
 20
1148.220719580013
 30
0.0
 11
-908.8333333333334
 21
1150.970719580013
 31
0.0
 70
    32
  3
標準スタイル
100
AcDbAlignedDimension
 13
-919.9982761161733
 23
1121.499952096359
 33
0.0
 14
-917.0
 24
1137.0
 34
0.0
100
AcDbRotatedDimension
1001
ACAD
1000
DSTYLE
1002
{
1070
    40
1040
1.0
1002
}
  0
LINE
  5
18DA0
330
1A
100
AcDbEntity
  8
ZISSEN1
100
AcDbLine
 10
-920.9787133785926
 20
1119.75
 30
0.0
 11
-917.0
 21
1119.75
 31
0.0
  0
LINE
  5
18DA1
330
1A
100
AcDbEntity
  8
ZISSEN1
100
AcDbLine
 10
-920.9787133785926
 20
1116.250009999999
 30
0.0
 11
-917.0
 21
1116.250009999999
 31
0.0
  0
LINE
  5
18DA2
330
1A
100
AcDbEntity
  8
CL1
100
AcDbLine
 10
-922.9787233785925
 20
1118.0
 30
0.0
 11
-916.9787233785925
 21
1118.0
 31
0.0
  0
LINE
  5
18DA4
330
1A
100
AcDbEntity
  8
CL1
100
AcDbLine
 10
-919.9982761161733
 20
1114.999932096359
 30
0.0
 11
-919.9982761161733
 21
1120.999952096359
 31
0.0
  0
LINE
  5
18DA5
330
1A
100
AcDbEntity
  8
ZISSEN1
100
AcDbLine
 10
-922.0
 20
1133.400369250332
 30
0.0
 11
-922.0
 21
1135.000359250332
 31
0.0
  0
LINE
  5
18DA6
330
1A
100
AcDbEntity
  8
ZISSEN1
100
AcDbLine
 10
-923.0
 20
1135.0
 30
0.0
 11
-923.0
 21
1138.0
 31
0.0
  0
LINE
  5
18DA7
330
1A
100
AcDbEntity
  8
ZISSEN1
100
AcDbLine
 10
-923.0
 20
1133.400369250332
 30
0.0
 11
-923.0
 21
1135.000359250332
 31
0.0
  0
LINE
  5
18DA8
330
1A
100
AcDbEntity
  8
ZISSEN1
100
AcDbLine
 10
-928.0
 20
1135.0
 30
0.0
 11
-928.0
 21
1138.0
 31
0.0
  0
LINE
  5
18DA9
330
1A
100
AcDbEntity
  8
ZISSEN1
100
AcDbLine
 10
-922.0
 20
1138.0
 30
0.0
 11
-922.0
 21
1141.0
 31
0.0
  0
LINE
  5
18DAA
330
1A
100
AcDbEntity
  8
ZISSEN1
100
AcDbLine
 10
-923.0
 20
1138.0
 30
0.0
 11
-923.0
 21
1141.0
 31
0.0
  0
LINE
  5
18DAB
330
1A
100
AcDbEntity
  8
ZISSEN1
100
AcDbLine
 10
-922.0
 20
1121.800389250332
 30
0.0
 11
-922.0
 21
1123.400379250332
 31
0.0
  0
LINE
  5
18DAC
330
1A
100
AcDbEntity
  8
ZISSEN1
100
AcDbLine
 10
-923.0
 20
1121.800389250332
 30
0.0
 11
-923.0
 21
1123.400379250332
 31
0.0
  0
ARC
  5
18DAD
330
1A
100
AcDbEntity
  8
ZISSEN1
100
AcDbCircle
 10
-920.9787133785926
 20
1118.0
 30
0.0
 40
1.749999899999999
100
AcDbArc
 50
90.0
 51
270.0
  0
LINE
  5
18DAE
330
1A
100
AcDbEntity
  8
ZISSEN1
100
AcDbLine
 10
-928.5
 20
1133.4
 30
0.0
 11
-928.5
 21
1123.4
 31
0.0
  0
LINE
  5
18DAF
330
1A
100
AcDbEntity
  8
ZISSEN1
100
AcDbLine
 10
-922.4999999999999
 20
1133.4
 30
0.0
 11
-922.4999999999999
 21
1123.4
 31
0.0
  0
LINE
  5
18DB0
330
1A
100
AcDbEntity
  8
ZISSEN1
100
AcDbLine
 10
-929.95
 20
1133.4
 30
0.0
 11
-929.95
 21
1123.7
 31
0.0
  0
LINE
  5
18DB4
330
1A
100
AcDbEntity
  8
ZISSEN1
100
AcDbLine
 10
-917.0
 20
1137.0
 30
0.0
 11
-917.0
 21
1119.75
 31
0.0
  0
LINE
  5
18F99
330
1A
100
AcDbEntity
  8
ZISSEN1
100
AcDbLine
 10
-1076.0
 20
1001.499999999999
 30
0.0
 11
-1075.0
 21
1000.499999999999
 31
0.0
  0
LINE
  5
18FA3
330
1A
100
AcDbEntity
  8
ZISSEN1
100
AcDbLine
 10
-975.955
 20
1062.65
 30
0.0
 11
-969.045
 21
1062.65
 31
0.0
  0
LINE
  5
18FA4
330
1A
100
AcDbEntity
  8
ZISSEN1
100
AcDbLine
 10
-969.045
 20
1062.65
 30
0.0
 11
-969.045
 21
1056.35
 31
0.0
  0
LINE
  5
18FA5
330
1A
100
AcDbEntity
  8
ZISSEN1
100
AcDbLine
 10
-969.045
 20
1056.35
 30
0.0
 11
-975.955
 21
1056.35
 31
0.0
  0
LINE
  5
18FA6
330
1A
100
AcDbEntity
  8
ZISSEN1
100
AcDbLine
 10
-975.955
 20
1056.35
 30
0.0
 11
-975.955
 21
1062.65
 31
0.0
  0
LINE
  5
18FA7
330
1A
100
AcDbEntity
  8
ZISSEN1
100
AcDbLine
 10
-983.455
 20
1062.65
 30
0.0
 11
-976.5449999999999
 21
1062.65
 31
0.0
  0
LINE
  5
18FA8
330
1A
100
AcDbEntity
  8
ZISSEN1
100
AcDbLine
 10
-976.5449999999999
 20
1062.65
 30
0.0
 11
-976.5449999999999
 21
1056.35
 31
0.0
  0
LINE
  5
18FA9
330
1A
100
AcDbEntity
  8
ZISSEN1
100
AcDbLine
 10
-976.5449999999999
 20
1056.35
 30
0.0
 11
-983.455
 21
1056.35
 31
0.0
  0
LINE
  5
18FAA
330
1A
100
AcDbEntity
  8
ZISSEN1
100
AcDbLine
 10
-983.455
 20
1056.35
 30
0.0
 11
-983.455
 21
1062.65
 31
0.0
  0
LINE
  5
18FD3
330
1A
100
AcDbEntity
  8
ZISSEN1
100
AcDbLine
 10
-989.0
 20
1019.5
 30
0.0
 11
-994.0
 21
1019.5
 31
0.0
  0
LINE
  5
18FDF
330
1A
100
AcDbEntity
  8
ZISSEN1
100
AcDbLine
 10
-995.0
 20
1020.499999999999
 30
0.0
 11
-994.0
 21
1019.5
 31
0.0
  0
DIMENSION
  5
1905E
330
1A
100
AcDbEntity
  8
SUNPOU
100
AcDbDimension
  2
*D10
 10
-1019.230415380202
 20
1118.0
 30
0.0
 11
-1021.980415380202
 21
1129.500189625166
 31
0.0
 70
    32
  3
標準スタイル
100
AcDbAlignedDimension
 13
-995.25
 23
1141.000379250332
 33
0.0
 14
-1000.0
 24
1118.0
 34
0.0
 50
90.0
100
AcDbRotatedDimension
1001
ACAD
1000
DSTYLE
1002
{
1070
    40
1040
1.0
1002
}
  0
LINE
  5
190C4
330
1A
100
AcDbEntity
  8
ZISSEN1
100
AcDbLine
 10
-983.455000658153
 20
1062.649999582085
 30
0.0
 11
-976.5450006581529
 21
1062.649999582085
 31
0.0
  0
LINE
  5
191F4
330
1A
100
AcDbEntity
  8
ZISSEN1
100
AcDbLine
 10
-984.75
 20
1133.4
 30
0.0
 11
-984.75
 21
1125.4
 31
0.0
  0
LINE
  5
191F5
330
1A
100
AcDbEntity
  8
ZISSEN1
100
AcDbLine
 10
-984.75
 20
1125.4
 30
0.0
 11
-977.25
 21
1125.4
 31
0.0
  0
LINE
  5
191F6
330
1A
100
AcDbEntity
  8
ZISSEN1
100
AcDbLine
 10
-977.25
 20
1133.4
 30
0.0
 11
-977.25
 21
1125.4
 31
0.0
  0
LINE
  5
191F7
330
1A
100
AcDbEntity
  8
ZISSEN1
100
AcDbLine
 10
-980.46
 20
1121.8
 30
0.0
 11
-973.55
 21
1121.8
 31
0.0
  0
LINE
  5
191F8
330
1A
100
AcDbEntity
  8
ZISSEN1
100
AcDbLine
 10
-975.955
 20
1121.8
 30
0.0
 11
-975.955
 21
1119.5
 31
0.0
  0
LINE
  5
191F9
330
1A
100
AcDbEntity
  8
ZISSEN1
100
AcDbLine
 10
-976.5449999999999
 20
1119.5
 30
0.0
 11
-983.455
 21
1119.5
 31
0.0
  0
LINE
  5
191FA
330
1A
100
AcDbEntity
  8
ZISSEN1
100
AcDbLine
 10
-983.455
 20
1121.8
 30
0.0
 11
-983.455
 21
1119.5
 31
0.0
  0
LINE
  5
1928D
330
1A
100
AcDbEntity
  8
ZISSEN1
100
AcDbLine
 10
-934.4100006581529
 20
1042.5
 30
0.0
 11
-927.5000006581528
 21
1042.5
 31
0.0
  0
LINE
  5
1928E
330
1A
100
AcDbEntity
  8
ZISSEN1
100
AcDbLine
 10
-934.41
 20
1036.200000417914
 30
0.0
 11
-934.41
 21
1042.500000417914
 31
0.0
  0
LINE
  5
1928F
330
1A
100
AcDbEntity
  8
ZISSEN1
100
AcDbLine
 10
-927.5
 20
1036.200000417914
 30
0.0
 11
-934.41
 21
1036.200000417914
 31
0.0
  0
LINE
  5
19290
330
1A
100
AcDbEntity
  8
ZISSEN1
100
AcDbLine
 10
-927.5
 20
1042.500000417914
 30
0.0
 11
-927.5
 21
1036.200000417914
 31
0.0
  0
LINE
  5
19291
330
1A
100
AcDbEntity
  8
ZISSEN1
100
AcDbLine
 10
-934.41
 20
1042.500000417914
 30
0.0
 11
-927.5
 21
1042.500000417914
 31
0.0
  0
LINE
  5
1931B
330
1A
100
AcDbEntity
  8
ZISSEN1
100
AcDbLine
 10
-1058.40003
 20
1065.499999999999
 30
0.0
 11
-1056.80003
 21
1065.499999999999
 31
0.0
  0
LINE
  5
193CE
330
1A
100
AcDbEntity
  8
ZISSEN1
 62
     0
100
AcDbLine
 10
-924.999999818754
 20
1011.999999385539
 30
0.0
 11
-924.999999818754
 21
1003.49999938554
 31
0.0
  0
LINE
  5
193CF
330
1A
100
AcDbEntity
  8
ZISSEN1
100
AcDbLine
 10
-991.999999818754
 20
1011.999999385539
 30
0.0
 11
-924.999999818754
 21
1011.999999385539
 31
0.0
  0
LINE
  5
193D0
330
1A
100
AcDbEntity
  8
ZISSEN1
 62
     0
100
AcDbLine
 10
-992.0
 20
1011.999999999999
 30
0.0
 11
-992.0
 21
1003.5
 31
0.0
  0
LINE
  5
19496
330
1A
100
AcDbEntity
  8
ZISSEN1
 62
     0
100
AcDbLine
 10
-989.0
 20
1019.5
 30
0.0
 11
-989.0
 21
1013.5
 31
0.0
  0
LINE
  5
19497
330
1A
100
AcDbEntity
  8
ZISSEN1
 62
     0
100
AcDbLine
 10
-989.0
 20
1013.5
 30
0.0
 11
-963.0
 21
1013.5
 31
0.0
  0
LINE
  5
194A0
330
1A
100
AcDbEntity
  8
ZISSEN1
 62
     0
100
AcDbLine
 10
-934.0
 20
1024.2929
 30
0.0
 11
-934.0
 21
1019.5
 31
0.0
  0
LINE
  5
194A1
330
1A
100
AcDbEntity
  8
ZISSEN1
 62
     0
100
AcDbLine
 10
-934.0
 20
1019.5
 30
0.0
 11
-922.7071
 21
1019.5
 31
0.0
  0
LINE
  5
194A6
330
1A
100
AcDbEntity
  8
ZISSEN1
100
AcDbLine
 10
-922.7071
 20
1019.5
 30
0.0
 11
-922.0
 21
1020.2071
 31
0.0
  0
LINE
  5
194A7
330
1A
100
AcDbEntity
  8
ZISSEN1
100
AcDbLine
 10
-934.0
 20
1024.2929
 30
0.0
 11
-934.7070999999999
 21
1025.0
 31
0.0
  0
LINE
  5
194A8
330
1A
100
AcDbEntity
  8
ZISSEN1
100
AcDbLine
 10
-962.2929
 20
1025.0
 30
0.0
 11
-963.0
 21
1024.2929
 31
0.0
  0
LINE
  5
194B2
330
1A
100
AcDbEntity
  8
ZISSEN1
100
AcDbLine
 10
-923.0
 20
1065.499999999999
 30
0.0
 11
-922.0
 21
1064.5
 31
0.0
  0
LINE
  5
194D4
330
1A
100
AcDbEntity
  8
ZISSEN1
100
AcDbLine
 10
-1003.999999867628
 20
1029.299999869834
 30
0.0
 11
-1003.999999867628
 21
1051.7
 31
0.0
  0
LINE
  5
194D5
330
1A
100
AcDbEntity
  8
ZISSEN1
100
AcDbLine
 10
-1003.999999867628
 20
1051.7
 30
0.0
 11
-995.0
 21
1051.7
 31
0.0
  0
LINE
  5
194D6
330
1A
100
AcDbEntity
  8
ZISSEN1
100
AcDbLine
 10
-1003.999999867628
 20
1029.299999869833
 30
0.0
 11
-995.0
 21
1029.299999869833
 31
0.0
  0
LINE
  5
194E4
330
1A
100
AcDbEntity
  8
ZISSEN1
100
AcDbLine
 10
-1068.40001
 20
1011.999997999999
 30
0.0
 11
-1068.40001
 21
1003.499998
 31
0.0
  0
LINE
  5
194E5
330
1A
100
AcDbEntity
  8
ZISSEN1
100
AcDbLine
 10
-1042.9
 20
1011.999997999999
 30
0.0
 11
-1068.40001
 21
1011.999997999999
 31
0.0
  0
LINE
  5
194E6
330
1A
100
AcDbEntity
  8
ZISSEN1
100
AcDbLine
 10
-1042.9
 20
1011.999997999999
 30
0.0
 11
-1042.9
 21
1003.499998
 31
0.0
  0
LINE
  5
194E7
330
1A
100
AcDbEntity
  8
ZISSEN1
100
AcDbLine
 10
-993.9999999999999
 20
1065.499999999999
 30
0.0
 11
-994.9999999999999
 21
1064.5
 31
0.0
  0
LINE
  5
194EE
330
1A
100
AcDbEntity
  8
ZISSEN1
100
AcDbLine
 10
-1073.0
 20
1064.5
 30
0.0
 11
-1076.0
 21
1064.5
 31
0.0
  0
LINE
  5
194F5
330
1A
100
AcDbEntity
  8
ZISSEN1
100
AcDbLine
 10
-1058.40002970018
 20
1064.5
 30
0.0
 11
-1056.80002970018
 21
1064.5
 31
0.0
  0
LINE
  5
194FC
330
1A
100
AcDbEntity
  8
ZISSEN1
100
AcDbLine
 10
-1069.999989498774
 20
1059.0
 30
0.0
 11
-1072.999999498774
 21
1059.0
 31
0.0
  0
LINE
  5
19514
102
{ACAD_REACTORS
330
197E3
102
}
330
1A
100
AcDbEntity
  8
ZISSEN1
100
AcDbLine
 10
-1064.4
 20
1055.5
 30
0.0
 11
-1063.2
 21
1057.5
 31
0.0
  0
LINE
  5
1951C
330
1A
100
AcDbEntity
  8
ZISSEN1
100
AcDbLine
 10
-1060.649989430802
 20
1029.300000092065
 30
0.0
 11
-1068.399999430802
 21
1029.300000092065
 31
0.0
  0
LINE
  5
19523
330
1A
100
AcDbEntity
  8
ZISSEN1
100
AcDbLine
 10
-1060.649989633034
 20
1029.300000295755
 30
0.0
 11
-1060.649989633034
 21
1051.700000425921
 31
0.0
  0
LINE
  5
19547
330
1A
100
AcDbEntity
  8
ZISSEN1
100
AcDbLine
 10
-971.9599999999999
 20
1133.4
 30
0.0
 11
-965.0499999999999
 21
1133.4
 31
0.0
  0
LINE
  5
19548
330
1A
100
AcDbEntity
  8
ZISSEN1
100
AcDbLine
 10
-968.5999999999999
 20
1133.4
 30
0.0
 11
-968.5999999999999
 21
1125.2
 31
0.0
  0
LINE
  5
19549
330
1A
100
AcDbEntity
  8
ZISSEN1
100
AcDbLine
 10
-968.5999999999999
 20
1125.2
 30
0.0
 11
-975.3999999999999
 21
1125.2
 31
0.0
  0
LINE
  5
1954A
330
1A
100
AcDbEntity
  8
ZISSEN1
100
AcDbLine
 10
-975.3999999999999
 20
1133.4
 30
0.0
 11
-975.3999999999999
 21
1125.2
 31
0.0
  0
LINE
  5
19553
330
1A
100
AcDbEntity
  8
ZISSEN1
100
AcDbLine
 10
-991.999999818754
 20
1107.900000614459
 30
0.0
 11
-924.999999818754
 21
1107.900000614459
 31
0.0
  0
LINE
  5
19558
330
1A
100
AcDbEntity
  8
ZISSEN1
 62
     0
100
AcDbLine
 10
-992.0
 20
1107.9
 30
0.0
 11
-992.0000000000001
 21
1110.300000197938
 31
0.0
  0
LINE
  5
19559
330
1A
100
AcDbEntity
  8
ZISSEN1
 62
     0
100
AcDbLine
 10
-924.999999818754
 20
1107.900000614459
 30
0.0
 11
-924.999999818754
 21
1121.8
 31
0.0
  0
LINE
  5
19562
330
1A
100
AcDbEntity
  8
ZISSEN1
100
AcDbLine
 10
-976.5449999999999
 20
1121.8
 30
0.0
 11
-976.5449999999999
 21
1119.5
 31
0.0
  0
LINE
  5
19563
330
1A
100
AcDbEntity
  8
ZISSEN1
100
AcDbLine
 10
-969.045
 20
1119.5
 30
0.0
 11
-975.955
 21
1119.5
 31
0.0
  0
LINE
  5
19564
330
1A
100
AcDbEntity
  8
ZISSEN1
100
AcDbLine
 10
-969.045
 20
1121.8
 30
0.0
 11
-969.045
 21
1119.5
 31
0.0
  0
LINE
  5
1956D
330
1A
100
AcDbEntity
  8
ZISSEN1
100
AcDbLine
 10
-994.7999998435509
 20
1110.300000197938
 30
0.0
 11
-994.7999998435509
 21
1121.800000197938
 31
0.0
  0
LINE
  5
1956E
330
1A
100
AcDbEntity
  8
ZISSEN1
100
AcDbLine
 10
-994.7999998435509
 20
1110.300000197938
 30
0.0
 11
-987.1999998435509
 21
1110.300000197938
 31
0.0
  0
ARC
  5
19570
330
1A
100
AcDbEntity
  8
ZISSEN1
100
AcDbCircle
 10
-996.0000199999999
 20
1118.0
 30
0.0
 40
1.749999899999999
100
AcDbArc
 50
46.70728265577092
 51
90.0
  0
LINE
  5
19571
330
1A
100
AcDbEntity
  8
ZISSEN1
100
AcDbLine
 10
-1000.0
 20
1125.65
 30
0.0
 11
-1000.0
 21
1119.75
 31
0.0
  0
LINE
  5
195B9
330
1A
100
AcDbEntity
  8
ZISSEN1
100
AcDbLine
 10
-918.0
 20
1138.0
 30
0.0
 11
-917.0
 21
1137.0
 31
0.0
  0
LINE
  5
195D6
330
1A
100
AcDbEntity
  8
ZISSEN1
100
AcDbLine
 10
-1048.400000177358
 20
1057.699999869833
 30
0.0
 11
-1048.400000177358
 21
1065.299999869833
 31
0.0
  0
LINE
  5
195D7
330
1A
100
AcDbEntity
  8
ZISSEN1
100
AcDbLine
 10
-1048.400000177358
 20
1024.299999869833
 30
0.0
 11
-1048.400000177358
 21
1056.699999869833
 31
0.0
  0
LINE
  5
195DE
330
1A
100
AcDbEntity
  8
ZISSEN1
100
AcDbLine
 10
-1068.399999430802
 20
1070.999999835502
 30
0.0
 11
-1058.699989430802
 21
1070.999999835502
 31
0.0
  0
LINE
  5
195E6
330
1A
100
AcDbEntity
  8
ZISSEN1
100
AcDbLine
 10
-963.0499996458718
 20
1070.999999835502
 30
0.0
 11
-953.9499996458719
 21
1070.999999835502
 31
0.0
  0
LINE
  5
195E7
330
1A
100
AcDbEntity
  8
ZISSEN1
100
AcDbLine
 10
-953.0499996458718
 20
1070.999999835502
 30
0.0
 11
-929.9499996458719
 21
1070.999999835502
 31
0.0
  0
LINE
  5
195EE
330
1A
100
AcDbEntity
  8
ZISSEN1
100
AcDbLine
 10
-1001.150000202231
 20
1029.30000020369
 30
0.0
 11
-1001.150000202231
 21
1051.700000333856
 31
0.0
  0
LINE
  5
195F7
102
{ACAD_REACTORS
330
197DC
102
}
330
1A
100
AcDbEntity
  8
ZISSEN1
100
AcDbLine
 10
-965.7000000277516
 20
1113.400000197938
 30
0.0
 11
-955.8000000277516
 21
1113.400000197938
 31
0.0
  0
LINE
  5
195F8
102
{ACAD_REACTORS
330
197DC
102
}
330
1A
100
AcDbEntity
  8
ZISSEN1
100
AcDbLine
 10
-955.2000000277516
 20
1113.400000197938
 30
0.0
 11
-930.3000000277515
 21
1113.400000197938
 31
0.0
  0
LINE
  5
195F9
330
1A
100
AcDbEntity
  8
ZISSEN1
100
AcDbLine
 10
-994.7999998713026
 20
1113.400000395877
 30
0.0
 11
-987.1999998435509
 21
1113.400000395877
 31
0.0
  0
LINE
  5
19600
330
1A
100
AcDbEntity
  8
ZISSEN1
100
AcDbLine
 10
-1001.150000334603
 20
1125.649999715389
 30
0.0
 11
-1001.150000334603
 21
1133.399999715389
 31
0.0
  0
LINE
  5
197D2
330
1A
100
AcDbEntity
  8
ZISSEN1
100
AcDbLine
 10
-987.1999998435509
 20
1110.300000197938
 30
0.0
 11
-987.1999998435509
 21
1121.800000197938
 31
0.0
  0
LINE
  5
19838
102
{ACAD_REACTORS
330
1983E
330
1983F
102
}
330
1A
100
AcDbEntity
  8
ZISSEN1
100
AcDbLine
 10
-999.0
 20
1106.0
 30
0.0
 11
-918.0
 21
1106.0
 31
0.0
  0
LINE
  5
19839
102
{ACAD_REACTORS
330
1983E
330
1983F
102
}
330
1A
100
AcDbEntity
  8
ZISSEN1
100
AcDbLine
 10
-999.0
 20
1106.0
 30
0.0
 11
-1000.0
 21
1107.0
 31
0.0
  0
LINE
  5
1983A
102
{ACAD_REACTORS
330
1983E
330
1983F
102
}
330
1A
100
AcDbEntity
  8
ZISSEN1
100
AcDbLine
 10
-918.0
 20
1106.0
 30
0.0
 11
-917.0
 21
1107.0
 31
0.0
  0
LINE
  5
1983B
330
1A
100
AcDbEntity
  8
ZISSEN1
100
AcDbLine
 10
-917.0
 20
1107.0
 30
0.0
 11
-917.0
 21
1116.250009999999
 31
0.0
  0
LINE
  5
1983C
330
1A
100
AcDbEntity
  8
ZISSEN1
100
AcDbLine
 10
-1000.0
 20
1107.0
 30
0.0
 11
-1000.0
 21
1116.250009999999
 31
0.0
  0
VIEWPORT
  5
15177
330
15176
100
AcDbEntity
 67
     1
  8
0
100
AcDbViewport
 10
286.5575069953973
 20
157.7009775002238
 30
0.0
 40
683.0059499095991
 41
314.237268371582
 68
     1
 69
     1
1001
ACAD
1000
MVIEW
1002
{
1070
    16
1010
0.0
1020
0.0
1030
0.0
1010
0.0
1020
0.0
1030
1.0
1040
0.0
1040
314.237268371582
1040
286.5575069953973
1040
157.7009775002238
1040
50.0
1040
0.0
1040
0.0
1070
     0
1070
   100
1070
     1
1070
     0
1070
     0
1070
     0
1070
     0
1070
     0
1040
0.0
1040
0.0
1040
0.0
1040
1.0
1040
1.0
1040
10.0
1040
10.0
1070
     0
1002
{
1002
}
1002
}
  0
VIEWPORT
  5
15178
330
15176
100
AcDbEntity
 67
     1
  8
ZISSEN1
100
AcDbViewport
 10
221.7861955525412
 20
157.6960273330388
 30
0.0
 40
385.4999999999997
 41
259.9999999999999
 68
     2
 69
     2
1001
ACAD
1000
MVIEW
1002
{
1070
    16
1010
0.0
1020
0.0
1030
0.0
1010
0.0
1020
0.0
1030
1.0
1040
0.0
1040
259.9999999999999
1040
-1001.7554540391
1040
1068.454322871155
1040
50.0
1040
0.0
1040
0.0
1070
     0
1070
   100
1070
     1
1070
     0
1070
     0
1070
     0
1070
     0
1070
     0
1040
0.0
1040
0.0
1040
0.0
1040
1.0
1040
1.0
1040
10.0
1040
10.0
1070
     0
1002
{
1002
}
1002
}
  0
TEXT
  5
15179
330
15176
100
AcDbEntity
 67
     1
  8
SUNPOU
 62
     0
100
AcDbText
 10
374.1863124306944
 20
60.86794705907585
 30
0.0
 40
3.5
  1
縮尺 1/1
100
AcDbText
  0
ENDSEC
  0
SECTION
  2
OBJECTS
  0
DICTIONARY
  5
C
330
0
100
AcDbDictionary
  3
ACAD_GROUP
350
D
  3
ACAD_LAYOUT
350
5C7D
  3
ACAD_MLINESTYLE
350
E
  3
ACAD_PLOTSETTINGS
350
5C7E
  3
ACAD_PLOTSTYLENAME
350
5C7B
  3
ACDBVARIABLEDICTIONARY
350
13217
  3
DWGPROPS
350
19604
  3
ACDBHEADERROUNDTRIPXREC
350
19890
  0
DICTIONARY
  5
198B0
330
1A
100
AcDbDictionary
280
     1
  3
ACAD_LAYOUTSELFREF
360
198B1
  0
DICTIONARY
  5
198B2
330
15176
100
AcDbDictionary
280
     1
  3
ACAD_LAYOUTSELFREF
360
198B3
  0
DICTIONARY
  5
D
102
{ACAD_REACTORS
330
C
102
}
330
C
100
AcDbDictionary
  3
*A1
350
477D
  3
*A2
350
1983F
  3
*A3
350
477E
  3
*A4
350
19665
  3
*A5
350
477F
  3
*A6
350
4780
  3
*A7
350
4781
  3
*A8
350
13853
  3
*A9
350
4C0E
  3
*A10
350
19656
  3
*A11
350
197DC
  3
*A12
350
4C14
  3
*A13
350
4C0F
  3
*A14
350
197E3
  3
*A15
350
4C10
  3
*A16
350
4C11
  3
*A17
350
4C12
  3
*A18
350
4C13
  3
*A19
350
4C15
  3
*A20
350
4C17
  3
*A21
350
4C16
  3
*A22
350
19828
  3
*A23
350
1982E
  3
*A24
350
1982F
  3
*A25
350
1983E
  0
DICTIONARY
  5
5C7D
102
{ACAD_REACTORS
330
C
102
}
330
C
100
AcDbDictionary
  0
DICTIONARY
  5
E
102
{ACAD_REACTORS
330
C
102
}
330
C
100
AcDbDictionary
  3
STANDARD
350
13
  0
DICTIONARY
  5
5C7E
102
{ACAD_REACTORS
330
C
102
}
330
C
100
AcDbDictionary
  0
ACDBDICTIONARYWDFLT
  5
5C7B
102
{ACAD_REACTORS
330
C
102
}
330
C
100
AcDbDictionary
281
     1
  3
Normal
350
5C7C
100
AcDbDictionaryWithDefault
340
5C7C
  0
DICTIONARY
  5
13217
102
{ACAD_REACTORS
330
C
102
}
330
C
100
AcDbDictionary
  3
INDEXCTL
350
190FD
  3
SORTENTS
350
13218
  0
XRECORD
  5
19604
102
{ACAD_REACTORS
330
C
102
}
330
C
100
AcDbXrecord
  1
DWGPROPS COOKIE
  2

  3

  4

  6

  7

  8

  9

300
=
301
=
302
=
303
=
304
=
305
=
306
=
307
=
308
=
309
=
 40
3.74221761574074
 41
2450495.493631365
 42
2454399.750178483
  1

 90
        0
  0
DICTIONARY
  5
19890
102
{ACAD_REACTORS
330
C
102
}
330
C
100
AcDbDictionary
  3
TSTACKALIGN
350
19891
  3
TSTACKSIZE
350
19892
  3
HYPERLINKBASE
350
19893
  3
STYLESHEET
350
19894
  3
LAYOUTDICT
350
19895
  3
PLOTSETDICT
350
19896
  3
PLOTSTYLNAMDICT
350
19897
  3
LWETCUNION
350
19898
  3
INSUNITS
350
19899
  3
CEPSNTYPE
350
1989A
  3
FINGERPRINTGUID
350
1989B
  3
VERSIONGUID
350
1989C
  3
PSVPSCALE
350
1989D
  3
PUCSORTHOREF
350
1989E
  3
PUCSORTHOVIEW
350
1989F
  3
PUCSBASE
350
198A0
  3
PUCSORGTOP
350
198A1
  3
PUCSORGBOTTOM
350
198A2
  3
PUCSORGLEFT
350
198A3
  3
PUCSORGRIGHT
350
198A4
  3
PUCSORGFRONT
350
198A5
  3
PUCSORGBACK
350
198A6
  3
UCSORTHOREF
350
198A7
  3
UCSORTHOVIEW
350
198A8
  3
UCSBASE
350
198A9
  3
UCSORGTOP
350
198AA
  3
UCSORGBOTTOM
350
198AB
  3
UCSORGLEFT
350
198AC
  3
UCSORGRIGHT
350
198AD
  3
UCSORGFRONT
350
198AE
  3
UCSORGBACK
350
198AF
  0
XRECORD
  5
198B1
102
{ACAD_REACTORS
330
198B0
102
}
330
198B0
100
AcDbXrecord
340
1A
  0
XRECORD
  5
198B3
102
{ACAD_REACTORS
330
198B2
102
}
330
198B2
100
AcDbXrecord
340
15176
  0
GROUP
  5
477D
102
{ACAD_REACTORS
330
D
102
}
330
D
100
AcDbGroup
300

 70
     1
 71
     1
  0
GROUP
  5
1983F
102
{ACAD_REACTORS
330
D
102
}
330
D
100
AcDbGroup
300

 70
     1
 71
     1
340
19838
340
19839
340
1983A
  0
GROUP
  5
477E
102
{ACAD_REACTORS
330
D
102
}
330
D
100
AcDbGroup
300

 70
     1
 71
     1
  0
GROUP
  5
19665
102
{ACAD_REACTORS
330
D
102
}
330
D
100
AcDbGroup
300

 70
     1
 71
     1
340
18CC5
340
18CB2
340
18CC3
  0
GROUP
  5
477F
102
{ACAD_REACTORS
330
D
102
}
330
D
100
AcDbGroup
300

 70
     1
 71
     1
  0
GROUP
  5
4780
102
{ACAD_REACTORS
330
D
102
}
330
D
100
AcDbGroup
300

 70
     1
 71
     1
  0
GROUP
  5
4781
102
{ACAD_REACTORS
330
D
102
}
330
D
100
AcDbGroup
300

 70
     1
 71
     1
  0
GROUP
  5
13853
102
{ACAD_REACTORS
330
D
102
}
330
D
100
AcDbGroup
300

 70
     1
 71
     1
  0
GROUP
  5
4C0E
102
{ACAD_REACTORS
330
D
102
}
330
D
100
AcDbGroup
300

 70
     1
 71
     1
  0
GROUP
  5
19656
102
{ACAD_REACTORS
330
D
102
}
330
D
100
AcDbGroup
300

 70
     1
 71
     1
340
18CC5
340
18CB2
340
18CC3
  0
GROUP
  5
197DC
102
{ACAD_REACTORS
330
D
102
}
330
D
100
AcDbGroup
300

 70
     1
 71
     1
340
18CF2
340
18CF1
340
18CF0
340
18CEF
340
195F8
340
18CFA
340
195F7
340
18D4B
  0
GROUP
  5
4C14
102
{ACAD_REACTORS
330
D
102
}
330
D
100
AcDbGroup
300

 70
     1
 71
     1
  0
GROUP
  5
4C0F
102
{ACAD_REACTORS
330
D
102
}
330
D
100
AcDbGroup
300

 70
     1
 71
     1
  0
GROUP
  5
197E3
102
{ACAD_REACTORS
330
D
102
}
330
D
100
AcDbGroup
300

 70
     1
 71
     1
340
19514
340
18CD0
340
18CA4
  0
GROUP
  5
4C10
102
{ACAD_REACTORS
330
D
102
}
330
D
100
AcDbGroup
300

 70
     1
 71
     1
  0
GROUP
  5
4C11
102
{ACAD_REACTORS
330
D
102
}
330
D
100
AcDbGroup
300

 70
     1
 71
     1
  0
GROUP
  5
4C12
102
{ACAD_REACTORS
330
D
102
}
330
D
100
AcDbGroup
300

 70
     1
 71
     1
  0
GROUP
  5
4C13
102
{ACAD_REACTORS
330
D
102
}
330
D
100
AcDbGroup
300

 70
     1
 71
     1
  0
GROUP
  5
4C15
102
{ACAD_REACTORS
330
D
102
}
330
D
100
AcDbGroup
300

 70
     1
 71
     1
  0
GROUP
  5
4C17
102
{ACAD_REACTORS
330
D
102
}
330
D
100
AcDbGroup
300

 70
     1
 71
     1
  0
GROUP
  5
4C16
102
{ACAD_REACTORS
330
D
102
}
330
D
100
AcDbGroup
300

 70
     1
 71
     1
  0
GROUP
  5
19828
102
{ACAD_REACTORS
330
D
102
}
330
D
100
AcDbGroup
300

 70
     1
 71
     1
  0
GROUP
  5
1982E
102
{ACAD_REACTORS
330
D
102
}
330
D
100
AcDbGroup
300

 70
     1
 71
     1
  0
GROUP
  5
1982F
102
{ACAD_REACTORS
330
D
102
}
330
D
100
AcDbGroup
300

 70
     1
 71
     1
  0
GROUP
  5
1983E
102
{ACAD_REACTORS
330
D
102
}
330
D
100
AcDbGroup
300

 70
     1
 71
     1
340
19838
340
19839
340
1983A
  0
MLINESTYLE
  5
13
102
{ACAD_REACTORS
330
E
102
}
330
E
100
AcDbMlineStyle
  2
STANDARD
 70
     0
  3

 62
     0
 51
90.0
 52
90.0
 71
     2
 49
0.5
 62
   256
  6
BYLAYER
 49
-0.5
 62
   256
  6
BYLAYER
  0
ACDBPLACEHOLDER
  5
5C7C
102
{ACAD_REACTORS
330
5C7B
102
}
330
5C7B
100
AcDbPlaceHolder
280
     0
  0
DICTIONARYVAR
  5
190FD
102
{ACAD_REACTORS
330
13217
102
}
330
13217
100
DictionaryVariables
280
     0
  1
-1
  0
DICTIONARYVAR
  5
13218
102
{ACAD_REACTORS
330
13217
102
}
330
13217
100
DictionaryVariables
280
     0
  1
96
  0
XRECORD
  5
19891
102
{ACAD_REACTORS
330
19890
102
}
330
19890
100
AcDbXrecord
 90
        1
  0
XRECORD
  5
19892
102
{ACAD_REACTORS
330
19890
102
}
330
19890
100
AcDbXrecord
 90
       70
  0
XRECORD
  5
19893
102
{ACAD_REACTORS
330
19890
102
}
330
19890
100
AcDbXrecord
  1

  0
XRECORD
  5
19894
102
{ACAD_REACTORS
330
19890
102
}
330
19890
100
AcDbXrecord
  1

  0
XRECORD
  5
19895
102
{ACAD_REACTORS
330
19890
102
}
330
19890
100
AcDbXrecord
340
5C7D
  0
XRECORD
  5
19896
102
{ACAD_REACTORS
330
19890
102
}
330
19890
100
AcDbXrecord
340
5C7E
  0
XRECORD
  5
19897
102
{ACAD_REACTORS
330
19890
102
}
330
19890
100
AcDbXrecord
340
5C7B
  0
XRECORD
  5
19898
102
{ACAD_REACTORS
330
19890
102
}
330
19890
100
AcDbXrecord
 90
    10781
  0
XRECORD
  5
19899
102
{ACAD_REACTORS
330
19890
102
}
330
19890
100
AcDbXrecord
 90
        0
  0
XRECORD
  5
1989A
102
{ACAD_REACTORS
330
19890
102
}
330
19890
100
AcDbXrecord
 90
        0
  0
XRECORD
  5
1989B
102
{ACAD_REACTORS
330
19890
102
}
330
19890
100
AcDbXrecord
  1
{225A7F0D-DA29-11D8-946A-0000E2416295}
  0
XRECORD
  5
1989C
102
{ACAD_REACTORS
330
19890
102
}
330
19890
100
AcDbXrecord
  1
{36C6CEB0-7B83-447A-A2E1-89EA89234E83}
  0
XRECORD
  5
1989D
102
{ACAD_REACTORS
330
19890
102
}
330
19890
100
AcDbXrecord
 40
0.0
  0
XRECORD
  5
1989E
102
{ACAD_REACTORS
330
19890
102
}
330
19890
100
AcDbXrecord
340
0
  0
XRECORD
  5
1989F
102
{ACAD_REACTORS
330
19890
102
}
330
19890
100
AcDbXrecord
 70
     0
  0
XRECORD
  5
198A0
102
{ACAD_REACTORS
330
19890
102
}
330
19890
100
AcDbXrecord
340
0
  0
XRECORD
  5
198A1
102
{ACAD_REACTORS
330
19890
102
}
330
19890
100
AcDbXrecord
 10
0.0
 20
0.0
 30
0.0
  0
XRECORD
  5
198A2
102
{ACAD_REACTORS
330
19890
102
}
330
19890
100
AcDbXrecord
 10
0.0
 20
0.0
 30
0.0
  0
XRECORD
  5
198A3
102
{ACAD_REACTORS
330
19890
102
}
330
19890
100
AcDbXrecord
 10
0.0
 20
0.0
 30
0.0
  0
XRECORD
  5
198A4
102
{ACAD_REACTORS
330
19890
102
}
330
19890
100
AcDbXrecord
 10
0.0
 20
0.0
 30
0.0
  0
XRECORD
  5
198A5
102
{ACAD_REACTORS
330
19890
102
}
330
19890
100
AcDbXrecord
 10
0.0
 20
0.0
 30
0.0
  0
XRECORD
  5
198A6
102
{ACAD_REACTORS
330
19890
102
}
330
19890
100
AcDbXrecord
 10
0.0
 20
0.0
 30
0.0
  0
XRECORD
  5
198A7
102
{ACAD_REACTORS
330
19890
102
}
330
19890
100
AcDbXrecord
340
0
  0
XRECORD
  5
198A8
102
{ACAD_REACTORS
330
19890
102
}
330
19890
100
AcDbXrecord
 70
     0
  0
XRECORD
  5
198A9
102
{ACAD_REACTORS
330
19890
102
}
330
19890
100
AcDbXrecord
340
0
  0
XRECORD
  5
198AA
102
{ACAD_REACTORS
330
19890
102
}
330
19890
100
AcDbXrecord
 10
0.0
 20
0.0
 30
0.0
  0
XRECORD
  5
198AB
102
{ACAD_REACTORS
330
19890
102
}
330
19890
100
AcDbXrecord
 10
0.0
 20
0.0
 30
0.0
  0
XRECORD
  5
198AC
102
{ACAD_REACTORS
330
19890
102
}
330
19890
100
AcDbXrecord
 10
0.0
 20
0.0
 30
0.0
  0
XRECORD
  5
198AD
102
{ACAD_REACTORS
330
19890
102
}
330
19890
100
AcDbXrecord
 10
0.0
 20
0.0
 30
0.0
  0
XRECORD
  5
198AE
102
{ACAD_REACTORS
330
19890
102
}
330
19890
100
AcDbXrecord
 10
0.0
 20
0.0
 30
0.0
  0
XRECORD
  5
198AF
102
{ACAD_REACTORS
330
19890
102
}
330
19890
100
AcDbXrecord
 10
0.0
 20
0.0
 30
0.0
  0
ENDSEC
  0
EOF
