  0
SECTION
  2
HEADER
  9
$ACADVER
  1
AC1014
  9
$ACADMAINTVER
 70
     9
  9
$DWGCODEPAGE
  3
ANSI_932
  9
$INSBASE
 10
0.0
 20
0.0
 30
0.0
  9
$EXTMIN
 10
-1838.224497264766
 20
1703.451820637685
 30
0.0
  9
$EXTMAX
 10
-1507.37478484702
 20
1918.610506697176
 30
0.0
  9
$LIMMIN
 10
0.0
 20
0.0
  9
$LIMMAX
 10
420.0
 20
297.0
  9
$ORTHOMODE
 70
     1
  9
$REGENMODE
 70
     1
  9
$FILLMODE
 70
     1
  9
$QTEXTMODE
 70
     0
  9
$MIRRTEXT
 70
     1
  9
$DRAGMODE
 70
     2
  9
$LTSCALE
 40
1.0
  9
$OSMODE
 70
    37
  9
$ATTMODE
 70
     1
  9
$TEXTSIZE
 40
2.5
  9
$TRACEWID
 40
1.0
  9
$TEXTSTYLE
  7
ゴシック体
  9
$CLAYER
  8
ZISSEN1
  9
$CELTYPE
  6
BYLAYER
  9
$CECOLOR
 62
   256
  9
$CELTSCALE
 40
1.0
  9
$DELOBJ
 70
     1
  9
$DISPSILH
 70
     0
  9
$DIMSCALE
 40
0.0
  9
$DIMASZ
 40
3.0
  9
$DIMEXO
 40
0.5
  9
$DIMDLI
 40
0.5
  9
$DIMRND
 40
0.0
  9
$DIMDLE
 40
0.0
  9
$DIMEXE
 40
0.5
  9
$DIMTP
 40
0.0
  9
$DIMTM
 40
0.0
  9
$DIMTXT
 40
3.5
  9
$DIMCEN
 40
0.0
  9
$DIMTSZ
 40
0.0
  9
$DIMTOL
 70
     0
  9
$DIMLIM
 70
     0
  9
$DIMTIH
 70
     0
  9
$DIMTOH
 70
     0
  9
$DIMSE1
 70
     0
  9
$DIMSE2
 70
     0
  9
$DIMTAD
 70
     1
  9
$DIMZIN
 70
     8
  9
$DIMBLK
  1

  9
$DIMASO
 70
     1
  9
$DIMSHO
 70
     1
  9
$DIMPOST
  1

  9
$DIMAPOST
  1

  9
$DIMALT
 70
     0
  9
$DIMALTD
 70
     2
  9
$DIMALTF
 40
25.4
  9
$DIMLFAC
 40
1.0
  9
$DIMTOFL
 70
     1
  9
$DIMTVP
 40
0.0
  9
$DIMTIX
 70
     0
  9
$DIMSOXD
 70
     0
  9
$DIMSAH
 70
     0
  9
$DIMBLK1
  1

  9
$DIMBLK2
  1

  9
$DIMSTYLE
  2
標準スタイル
  9
$DIMCLRD
 70
     1
  9
$DIMCLRE
 70
     1
  9
$DIMCLRT
 70
     1
  9
$DIMTFAC
 40
1.0
  9
$DIMGAP
 40
1.0
  9
$DIMJUST
 70
     0
  9
$DIMSD1
 70
     0
  9
$DIMSD2
 70
     0
  9
$DIMTOLJ
 70
     1
  9
$DIMTZIN
 70
     8
  9
$DIMALTZ
 70
     0
  9
$DIMALTTZ
 70
     0
  9
$DIMFIT
 70
     3
  9
$DIMUPT
 70
     0
  9
$DIMUNIT
 70
     2
  9
$DIMDEC
 70
     2
  9
$DIMTDEC
 70
     2
  9
$DIMALTU
 70
     2
  9
$DIMALTTD
 70
     2
  9
$DIMTXSTY
  7
ゴシック体
  9
$DIMAUNIT
 70
     0
  9
$LUNITS
 70
     2
  9
$LUPREC
 70
     4
  9
$SKETCHINC
 40
1.0
  9
$FILLETRAD
 40
1.0
  9
$AUNITS
 70
     0
  9
$AUPREC
 70
     0
  9
$MENU
  1
.
  9
$ELEVATION
 40
0.0
  9
$PELEVATION
 40
0.0
  9
$THICKNESS
 40
0.0
  9
$LIMCHECK
 70
     0
  9
$BLIPMODE
 70
     0
  9
$CHAMFERA
 40
1.0
  9
$CHAMFERB
 40
1.0
  9
$CHAMFERC
 40
2.0
  9
$CHAMFERD
 40
0.7853981633974483
  9
$SKPOLY
 70
     0
  9
$TDCREATE
 40
2450495.493631365
  9
$TDUPDATE
 40
2453984.451342708
  9
$TDINDWG
 40
2.7263910995
  9
$TDUSRTIMER
 40
2.7263910995
  9
$USRTIMER
 70
     1
  9
$ANGBASE
 50
0.0
  9
$ANGDIR
 70
     0
  9
$PDMODE
 70
    99
  9
$PDSIZE
 40
0.0
  9
$PLINEWID
 40
0.0
  9
$COORDS
 70
     1
  9
$SPLFRAME
 70
     0
  9
$SPLINETYPE
 70
     6
  9
$SPLINESEGS
 70
     8
  9
$ATTDIA
 70
     0
  9
$ATTREQ
 70
     1
  9
$HANDLING
 70
 10241
  9
$HANDSEED
  5
15F86
  9
$SURFTAB1
 70
     6
  9
$SURFTAB2
 70
     6
  9
$SURFTYPE
 70
     6
  9
$SURFU
 70
     6
  9
$SURFV
 70
     6
  9
$UCSNAME
  2

  9
$UCSORG
 10
0.0
 20
0.0
 30
0.0
  9
$UCSXDIR
 10
1.0
 20
0.0
 30
0.0
  9
$UCSYDIR
 10
0.0
 20
1.0
 30
0.0
  9
$PUCSNAME
  2

  9
$PUCSORG
 10
0.0
 20
0.0
 30
0.0
  9
$PUCSXDIR
 10
1.0
 20
0.0
 30
0.0
  9
$PUCSYDIR
 10
0.0
 20
1.0
 30
0.0
  9
$USERI1
 70
     0
  9
$USERI2
 70
     0
  9
$USERI3
 70
     0
  9
$USERI4
 70
     0
  9
$USERI5
 70
     0
  9
$USERR1
 40
0.0
  9
$USERR2
 40
0.0
  9
$USERR3
 40
0.0
  9
$USERR4
 40
0.0
  9
$USERR5
 40
0.0
  9
$WORLDVIEW
 70
     1
  9
$SHADEDGE
 70
     3
  9
$SHADEDIF
 70
    70
  9
$TILEMODE
 70
     1
  9
$MAXACTVP
 70
    16
  9
$PINSBASE
 10
0.0
 20
0.0
 30
0.0
  9
$PLIMCHECK
 70
     0
  9
$PEXTMIN
 10
29.03619555254135
 20
27.69602733303884
 30
0.0
  9
$PEXTMAX
 10
414.5361955525411
 20
287.6960273330388
 30
0.0
  9
$PLIMMIN
 10
15.15433780389673
 20
13.80781516542163
  9
$PLIMMAX
 10
435.1009930773342
 20
310.8184658001872
  9
$UNITMODE
 70
     0
  9
$VISRETAIN
 70
     0
  9
$PLINEGEN
 70
     0
  9
$PSLTSCALE
 70
     1
  9
$TREEDEPTH
 70
  3020
  9
$PICKSTYLE
 70
     1
  9
$CMLSTYLE
  2
STANDARD
  9
$CMLJUST
 70
     0
  9
$CMLSCALE
 40
1.0
  9
$PROXYGRAPHICS
 70
     1
  9
$MEASUREMENT
 70
     0
  0
ENDSEC
  0
SECTION
  2
CLASSES
  0
CLASS
  1
LWPOLYLINE
  2
AcDbPolyline
  3
AutoCAD 2000
 90
        0
280
     0
281
     1
  0
CLASS
  1
HATCH
  2
AcDbHatch
  3
AutoCAD 2000
 90
        0
280
     0
281
     1
  0
CLASS
  1
ACDBDICTIONARYWDFLT
  2
AcDbDictionaryWithDefault
  3
AutoCAD 2000
 90
        0
280
     0
281
     0
  0
CLASS
  1
ACDBPLACEHOLDER
  2
AcDbPlaceHolder
  3
AutoCAD 2000
 90
        0
280
     0
281
     0
  0
CLASS
  1
LAYOUT
  2
AcDbLayout
  3
AutoCAD 2000
 90
        0
280
     0
281
     0
  0
CLASS
  1
DICTIONARYVAR
  2
AcDbDictionaryVar
  3
AutoCAD 2000
 90
        0
280
     0
281
     0
  0
CLASS
  1
LONG_TRANSACTION
  2
AcDbLongTransaction
  3
AutoCAD 2000
 90
        0
280
     0
281
     0
  0
CLASS
  1
LWPOLYLINE
  2
AcDbPolyline
  3
AutoCAD 2000
 90
        0
280
     0
281
     1
  0
CLASS
  1
HATCH
  2
AcDbHatch
  3
AutoCAD 2000
 90
        0
280
     0
281
     1
  0
CLASS
  1
XRECORD
  2
AcDbXrecord
  3
AutoCAD 2000
 90
        0
280
     0
281
     0
  0
ENDSEC
  0
SECTION
  2
TABLES
  0
TABLE
  2
VPORT
  5
8
330
0
100
AcDbSymbolTable
 70
     2
  0
VPORT
  5
15F30
330
8
100
AcDbSymbolTableRecord
100
AcDbViewportTableRecord
  2
*ACTIVE
 70
     0
 10
0.0
 20
0.0
 11
1.0
 21
1.0
 12
-1565.462781380461
 22
1800.088339842601
 13
0.0
 23
0.0
 14
5.0
 24
5.0
 15
0.0
 25
0.0
 16
0.0
 26
0.0
 36
1.0
 17
0.0
 27
0.0
 37
0.0
 40
291.4695395506035
 41
2.192560175054704
 42
50.0
 43
0.0
 44
0.0
 50
0.0
 51
0.0
 71
     0
 72
   100
 73
     1
 74
     0
 75
     0
 76
     0
 77
     0
 78
     0
  0
ENDTAB
  0
TABLE
  2
LTYPE
  5
5
330
0
100
AcDbSymbolTable
 70
    13
  0
LTYPE
  5
14
330
5
100
AcDbSymbolTableRecord
100
AcDbLinetypeTableRecord
  2
BYBLOCK
 70
     0
  3

 72
    65
 73
     0
 40
0.0
  0
LTYPE
  5
15
330
5
100
AcDbSymbolTableRecord
100
AcDbLinetypeTableRecord
  2
BYLAYER
 70
     0
  3

 72
    65
 73
     0
 40
0.0
  0
LTYPE
  5
16
330
5
100
AcDbSymbolTableRecord
100
AcDbLinetypeTableRecord
  2
CONTINUOUS
 70
     0
  3
Solid line
 72
    65
 73
     0
 40
0.0
  0
LTYPE
  5
1956
330
5
100
AcDbSymbolTableRecord
100
AcDbLinetypeTableRecord
  2
CENTERX2
 70
     0
  3
________  __  ________  __  ________  __  _____
 72
    65
 73
     4
 40
4.0
 49
2.5
 74
     0
 49
-0.5
 74
     0
 49
0.5
 74
     0
 49
-0.5
 74
     0
  0
ENDTAB
  0
TABLE
  2
LAYER
  5
2
330
0
100
AcDbSymbolTable
 70
    34
  0
LAYER
  5
F
330
2
100
AcDbSymbolTableRecord
100
AcDbLayerTableRecord
  2
0
 70
     0
 62
     7
  6
CONTINUOUS
  0
LAYER
  5
18F
330
2
100
AcDbSymbolTableRecord
100
AcDbLayerTableRecord
  2
ZISSEN1
 70
     0
 62
     7
  6
CONTINUOUS
  0
LAYER
  5
529
330
2
100
AcDbSymbolTableRecord
100
AcDbLayerTableRecord
  2
SUNPOU
 70
     0
 62
     1
  6
CONTINUOUS
  0
LAYER
  5
195A
330
2
100
AcDbSymbolTableRecord
100
AcDbLayerTableRecord
  2
CL1
 70
     0
 62
   210
  6
CENTERX2
  0
LAYER
  5
3A9B
330
2
100
AcDbSymbolTableRecord
100
AcDbLayerTableRecord
  2
DEFPOINTS
 70
     0
 62
     7
  6
CONTINUOUS
  0
ENDTAB
  0
TABLE
  2
STYLE
  5
3
330
0
100
AcDbSymbolTable
 70
     5
  0
STYLE
  5
10
330
3
100
AcDbSymbolTableRecord
100
AcDbTextStyleTableRecord
  2
STANDARD
 70
     0
 40
0.0
 41
1.0
 50
0.0
 71
     0
 42
3.0
  3
txt
  4
BigFont
  0
STYLE
  5
1960
330
3
100
AcDbSymbolTableRecord
100
AcDbTextStyleTableRecord
  2
ゴシック体
 70
     0
 40
0.0
 41
1.0
 50
0.0
 71
     0
 42
2.5
  3
MS Gothic.ttf
  4

1001
ACAD
1000
MS Gothic
1071
    32817
  0
ENDTAB
  0
TABLE
  2
VIEW
  5
6
330
0
100
AcDbSymbolTable
 70
     0
  0
ENDTAB
  0
TABLE
  2
UCS
  5
7
330
0
100
AcDbSymbolTable
 70
     0
  0
ENDTAB
  0
TABLE
  2
APPID
  5
9
330
0
100
AcDbSymbolTable
 70
     5
  0
APPID
  5
11
330
9
100
AcDbSymbolTableRecord
100
AcDbRegAppTableRecord
  2
ACAD
 70
     0
  0
APPID
  5
4005
330
9
100
AcDbSymbolTableRecord
100
AcDbRegAppTableRecord
  2
CONTENTTABDATA
 70
     0
  0
APPID
  5
4006
330
9
100
AcDbSymbolTableRecord
100
AcDbRegAppTableRecord
  2
CONTENTCURRENTTAB
 70
     0
  0
APPID
  5
477B
330
9
100
AcDbSymbolTableRecord
100
AcDbRegAppTableRecord
  2
CONTENTBLOCKDESCRIPTION
 70
     0
  0
APPID
  5
477C
330
9
100
AcDbSymbolTableRecord
100
AcDbRegAppTableRecord
  2
CONTENTBLOCKICON
 70
     0
  0
ENDTAB
  0
TABLE
  2
DIMSTYLE
  5
A
330
0
100
AcDbSymbolTable
 70
    13
  0
DIMSTYLE
105
1D
330
A
100
AcDbSymbolTableRecord
100
AcDbDimStyleTableRecord
  2
STANDARD
 70
     0
  3

  4

  5

  6

  7

 40
1.0
 41
0.18
 42
0.0625
 43
0.38
 44
0.18
 45
0.0
 46
0.0
 47
0.0
 48
0.0
140
0.18
141
0.09
142
0.0
143
25.4
144
1.0
145
0.0
146
1.0
147
0.09
 71
     0
 72
     0
 73
     1
 74
     1
 75
     0
 76
     0
 77
     0
 78
     0
170
     0
171
     2
172
     0
173
     0
174
     0
175
     0
176
     0
177
     0
178
     0
270
     2
271
     4
272
     4
273
     2
274
     2
340
10
275
     0
280
     0
281
     0
282
     0
283
     1
284
     0
285
     0
286
     0
287
     3
288
     0
  0
DIMSTYLE
105
52E
102
{ACAD_REACTORS
330
135AC
330
135AF
330
135B1
330
13799
330
137A1
330
137A4
330
15AA2
330
15AA8
330
15AA9
330
15AAA
330
15AD7
330
15ADC
330
15ADD
330
15ADE
330
15AEB
330
15AEC
330
15AF1
330
15AF8
330
15AFA
330
15B06
102
}
330
A
100
AcDbSymbolTableRecord
100
AcDbDimStyleTableRecord
  2
標準スタイル
 70
     0
  3

  4

  5

  6

  7

 40
0.0
 41
3.0
 42
0.5
 43
0.5
 44
0.5
 45
0.0
 46
0.0
 47
0.0
 48
0.0
140
3.5
141
0.0
142
0.0
143
25.4
144
1.0
145
0.0
146
1.0
147
1.0
 71
     0
 72
     0
 73
     0
 74
     0
 75
     0
 76
     0
 77
     1
 78
     8
170
     0
171
     2
172
     1
173
     0
174
     0
175
     0
176
     1
177
     1
178
     1
270
     2
271
     2
272
     2
273
     2
274
     2
340
1960
275
     0
280
     0
281
     0
282
     0
283
     1
284
     8
285
     0
286
     0
287
     3
288
     0
  0
ENDTAB
  0
TABLE
  2
BLOCK_RECORD
  5
1
330
0
100
AcDbSymbolTable
 70
    47
  0
BLOCK_RECORD
  5
1A
102
{ACAD_XDICTIONARY
360
15F51
102
}
330
1
100
AcDbSymbolTableRecord
100
AcDbBlockTableRecord
  2
*MODEL_SPACE
  0
BLOCK_RECORD
  5
15176
102
{ACAD_XDICTIONARY
360
15F53
102
}
330
1
100
AcDbSymbolTableRecord
100
AcDbBlockTableRecord
  2
*PAPER_SPACE
  0
BLOCK_RECORD
  5
3DEF
330
1
100
AcDbSymbolTableRecord
100
AcDbBlockTableRecord
  2
_NONE
  0
BLOCK_RECORD
  5
15B0C
330
1
100
AcDbSymbolTableRecord
100
AcDbBlockTableRecord
  2
*D33
  0
BLOCK_RECORD
  5
15B18
330
1
100
AcDbSymbolTableRecord
100
AcDbBlockTableRecord
  2
*D34
  0
BLOCK_RECORD
  5
15B24
330
1
100
AcDbSymbolTableRecord
100
AcDbBlockTableRecord
  2
*D35
  0
BLOCK_RECORD
  5
15B30
330
1
100
AcDbSymbolTableRecord
100
AcDbBlockTableRecord
  2
*D36
  0
BLOCK_RECORD
  5
15B3C
330
1
100
AcDbSymbolTableRecord
100
AcDbBlockTableRecord
  2
*D37
  0
BLOCK_RECORD
  5
15B48
330
1
100
AcDbSymbolTableRecord
100
AcDbBlockTableRecord
  2
*D38
  0
BLOCK_RECORD
  5
15B56
330
1
100
AcDbSymbolTableRecord
100
AcDbBlockTableRecord
  2
*D39
  0
BLOCK_RECORD
  5
15B64
330
1
100
AcDbSymbolTableRecord
100
AcDbBlockTableRecord
  2
*D40
  0
BLOCK_RECORD
  5
15B70
330
1
100
AcDbSymbolTableRecord
100
AcDbBlockTableRecord
  2
*D41
  0
BLOCK_RECORD
  5
15B7D
330
1
100
AcDbSymbolTableRecord
100
AcDbBlockTableRecord
  2
*D42
  0
BLOCK_RECORD
  5
15B8A
330
1
100
AcDbSymbolTableRecord
100
AcDbBlockTableRecord
  2
*D43
  0
BLOCK_RECORD
  5
15B94
330
1
100
AcDbSymbolTableRecord
100
AcDbBlockTableRecord
  2
*D44
  0
BLOCK_RECORD
  5
15BA2
330
1
100
AcDbSymbolTableRecord
100
AcDbBlockTableRecord
  2
*D45
  0
BLOCK_RECORD
  5
15BAE
330
1
100
AcDbSymbolTableRecord
100
AcDbBlockTableRecord
  2
*D46
  0
ENDTAB
  0
ENDSEC
  0
SECTION
  2
BLOCKS
  0
BLOCK
  5
1B
330
1A
100
AcDbEntity
  8
0
100
AcDbBlockBegin
  2
*MODEL_SPACE
 70
     0
 10
0.0
 20
0.0
 30
0.0
  3
*MODEL_SPACE
  1

  0
ENDBLK
  5
1C
330
1A
100
AcDbEntity
  8
0
100
AcDbBlockEnd
  0
BLOCK
  5
1517A
330
15176
100
AcDbEntity
 67
     1
  8
0
100
AcDbBlockBegin
  2
*PAPER_SPACE
 70
     0
 10
0.0
 20
0.0
 30
0.0
  3
*PAPER_SPACE
  1

  0
ENDBLK
  5
1517B
330
15176
100
AcDbEntity
 67
     1
  8
0
100
AcDbBlockEnd
  0
BLOCK
  5
3DF0
330
3DEF
100
AcDbEntity
  8
0
100
AcDbBlockBegin
  2
_NONE
 70
     0
 10
0.0
 20
0.0
 30
0.0
  3
_NONE
  1

  0
CIRCLE
  5
3DF1
330
3DEF
100
AcDbEntity
  8
0
  6
BYBLOCK
 62
     0
100
AcDbCircle
 10
0.0
 20
0.0
 30
0.0
 40
0.25
  0
ENDBLK
  5
3DF2
330
3DEF
100
AcDbEntity
  8
0
100
AcDbBlockEnd
  0
BLOCK
  5
15B16
330
15B0C
100
AcDbEntity
  8
0
100
AcDbBlockBegin
  2
*D33
 70
     1
 10
0.0
 20
0.0
 30
0.0
  3
*D33
  1

  0
LINE
  5
15E6C
330
15B0C
100
AcDbEntity
  8
SUNPOU
 62
     1
100
AcDbLine
 10
-1571.964988679128
 20
1814.110506697176
 30
0.0
 11
-1571.964988679128
 21
1795.49064011378
 31
0.0
  0
LINE
  5
15E6D
330
15B0C
100
AcDbEntity
  8
SUNPOU
 62
     1
100
AcDbLine
 10
-1681.964988679129
 20
1801.110506697176
 30
0.0
 11
-1681.964988679129
 21
1795.49064011378
 31
0.0
  0
LINE
  5
15E6E
330
15B0C
100
AcDbEntity
  8
SUNPOU
 62
     1
100
AcDbLine
 10
-1574.964988679128
 20
1795.99064011378
 30
0.0
 11
-1678.964988679128
 21
1795.99064011378
 31
0.0
  0
SOLID
  5
15E6F
330
15B0C
100
AcDbEntity
  8
SUNPOU
 62
     1
100
AcDbTrace
 10
-1574.964988679128
 20
1796.49064011378
 30
0.0
 11
-1574.964988679128
 21
1795.49064011378
 31
0.0
 12
-1571.964988679128
 22
1795.99064011378
 32
0.0
 13
-1571.964988679128
 23
1795.99064011378
 33
0.0
  0
SOLID
  5
15E70
330
15B0C
100
AcDbEntity
  8
SUNPOU
 62
     1
100
AcDbTrace
 10
-1678.964988679128
 20
1796.49064011378
 30
0.0
 11
-1678.964988679128
 21
1795.49064011378
 31
0.0
 12
-1681.964988679129
 22
1795.99064011378
 32
0.0
 13
-1681.964988679129
 23
1795.99064011378
 33
0.0
  0
MTEXT
  5
15E71
330
15B0C
100
AcDbEntity
  8
SUNPOU
 62
     1
100
AcDbMText
 10
-1626.964988679128
 20
1798.74064011378
 30
0.0
 40
3.5
 41
0.0
 71
     5
 72
     1
  1
\A1;110
1001
ACAD
1000
MTEXTBEGIN
1070
    73
1070
     1
1070
    44
1040
1.0
1070
    74
1070
     0
1000
MTEXTEND
  0
POINT
  5
15E72
330
15B0C
100
AcDbEntity
  8
DEFPOINTS
 62
     0
100
AcDbPoint
 10
-1571.964988679128
 20
1814.610506697176
 30
0.0
  0
POINT
  5
15E73
330
15B0C
100
AcDbEntity
  8
DEFPOINTS
 62
     0
100
AcDbPoint
 10
-1681.964988679129
 20
1801.610506697176
 30
0.0
  0
POINT
  5
15E74
330
15B0C
100
AcDbEntity
  8
DEFPOINTS
 62
     0
100
AcDbPoint
 10
-1681.964988679129
 20
1795.99064011378
 30
0.0
  0
ENDBLK
  5
15B17
330
15B0C
100
AcDbEntity
  8
0
100
AcDbBlockEnd
  0
BLOCK
  5
15B22
330
15B18
100
AcDbEntity
  8
0
100
AcDbBlockBegin
  2
*D34
 70
     1
 10
0.0
 20
0.0
 30
0.0
  3
*D34
  1

  0
LINE
  5
15EC6
330
15B18
100
AcDbEntity
  8
SUNPOU
 62
     1
100
AcDbLine
 10
-1747.964988679129
 20
1746.110506697176
 30
0.0
 11
-1747.964988679129
 21
1729.074408720765
 31
0.0
  0
LINE
  5
15EC7
330
15B18
100
AcDbEntity
  8
SUNPOU
 62
     1
100
AcDbLine
 10
-1567.964988679128
 20
1746.110506697176
 30
0.0
 11
-1567.964988679128
 21
1729.074408720765
 31
0.0
  0
LINE
  5
15EC8
330
15B18
100
AcDbEntity
  8
SUNPOU
 62
     1
100
AcDbLine
 10
-1744.964988679129
 20
1729.574408720764
 30
0.0
 11
-1570.964988679128
 21
1729.574408720764
 31
0.0
  0
SOLID
  5
15EC9
330
15B18
100
AcDbEntity
  8
SUNPOU
 62
     1
100
AcDbTrace
 10
-1744.964988679129
 20
1730.074408720765
 30
0.0
 11
-1744.964988679129
 21
1729.074408720765
 31
0.0
 12
-1747.964988679129
 22
1729.574408720764
 32
0.0
 13
-1747.964988679129
 23
1729.574408720764
 33
0.0
  0
SOLID
  5
15ECA
330
15B18
100
AcDbEntity
  8
SUNPOU
 62
     1
100
AcDbTrace
 10
-1570.964988679128
 20
1730.074408720765
 30
0.0
 11
-1570.964988679128
 21
1729.074408720765
 31
0.0
 12
-1567.964988679128
 22
1729.574408720764
 32
0.0
 13
-1567.964988679128
 23
1729.574408720764
 33
0.0
  0
MTEXT
  5
15ECB
330
15B18
100
AcDbEntity
  8
SUNPOU
 62
     1
100
AcDbMText
 10
-1657.847097465387
 20
1732.324408720765
 30
0.0
 40
3.5
 41
0.0
 71
     5
 72
     1
  1
\A1;180
1001
ACAD
1000
MTEXTBEGIN
1070
    73
1070
     1
1070
    44
1040
1.0
1070
    74
1070
     0
1000
MTEXTEND
  0
POINT
  5
15ECC
330
15B18
100
AcDbEntity
  8
DEFPOINTS
 62
     0
100
AcDbPoint
 10
-1747.964988679129
 20
1746.610506697176
 30
0.0
  0
POINT
  5
15ECD
330
15B18
100
AcDbEntity
  8
DEFPOINTS
 62
     0
100
AcDbPoint
 10
-1567.964988679128
 20
1746.610506697176
 30
0.0
  0
POINT
  5
15ECE
330
15B18
100
AcDbEntity
  8
DEFPOINTS
 62
     0
100
AcDbPoint
 10
-1567.964988679128
 20
1729.574408720764
 30
0.0
  0
ENDBLK
  5
15B23
330
15B18
100
AcDbEntity
  8
0
100
AcDbBlockEnd
  0
BLOCK
  5
15B2E
330
15B24
100
AcDbEntity
  8
0
100
AcDbBlockBegin
  2
*D35
 70
     1
 10
0.0
 20
0.0
 30
0.0
  3
*D35
  1

  0
LINE
  5
15ED8
330
15B24
100
AcDbEntity
  8
SUNPOU
 62
     1
100
AcDbLine
 10
-1756.964989121564
 20
1747.110506697176
 30
0.0
 11
-1756.964989121564
 21
1703.451820637685
 31
0.0
  0
LINE
  5
15ED9
330
15B24
100
AcDbEntity
  8
SUNPOU
 62
     1
100
AcDbLine
 10
-1558.964988679128
 20
1747.110506697176
 30
0.0
 11
-1558.964988679128
 21
1703.451820637685
 31
0.0
  0
LINE
  5
15EDA
330
15B24
100
AcDbEntity
  8
SUNPOU
 62
     1
100
AcDbLine
 10
-1753.964989121564
 20
1703.951820637685
 30
0.0
 11
-1561.964988679128
 21
1703.951820637685
 31
0.0
  0
SOLID
  5
15EDB
330
15B24
100
AcDbEntity
  8
SUNPOU
 62
     1
100
AcDbTrace
 10
-1753.964989121564
 20
1704.451820637685
 30
0.0
 11
-1753.964989121564
 21
1703.451820637685
 31
0.0
 12
-1756.964989121564
 22
1703.951820637685
 32
0.0
 13
-1756.964989121564
 23
1703.951820637685
 33
0.0
  0
SOLID
  5
15EDC
330
15B24
100
AcDbEntity
  8
SUNPOU
 62
     1
100
AcDbTrace
 10
-1561.964988679128
 20
1704.451820637685
 30
0.0
 11
-1561.964988679128
 21
1703.451820637685
 31
0.0
 12
-1558.964988679128
 22
1703.951820637685
 32
0.0
 13
-1558.964988679128
 23
1703.951820637685
 33
0.0
  0
MTEXT
  5
15EDD
330
15B24
100
AcDbEntity
  8
SUNPOU
 62
     1
100
AcDbMText
 10
-1657.964988900346
 20
1706.701820637685
 30
0.0
 40
3.5
 41
0.0
 71
     5
 72
     1
  1
\A1;198
1001
ACAD
1000
MTEXTBEGIN
1070
    73
1070
     1
1070
    44
1040
1.0
1070
    74
1070
     0
1000
MTEXTEND
  0
POINT
  5
15EDE
330
15B24
100
AcDbEntity
  8
DEFPOINTS
 62
     0
100
AcDbPoint
 10
-1756.964989121564
 20
1747.610506697176
 30
0.0
  0
POINT
  5
15EDF
330
15B24
100
AcDbEntity
  8
DEFPOINTS
 62
     0
100
AcDbPoint
 10
-1558.964988679128
 20
1747.610506697176
 30
0.0
  0
POINT
  5
15EE0
330
15B24
100
AcDbEntity
  8
DEFPOINTS
 62
     0
100
AcDbPoint
 10
-1558.964988679128
 20
1703.951820637685
 30
0.0
  0
ENDBLK
  5
15B2F
330
15B24
100
AcDbEntity
  8
0
100
AcDbBlockEnd
  0
BLOCK
  5
15B3A
330
15B30
100
AcDbEntity
  8
0
100
AcDbBlockBegin
  2
*D36
 70
     1
 10
0.0
 20
0.0
 30
0.0
  3
*D36
  1

  0
LINE
  5
15ECF
330
15B30
100
AcDbEntity
  8
SUNPOU
 62
     1
100
AcDbLine
 10
-1752.964988679128
 20
1757.860506697176
 30
0.0
 11
-1752.964988679128
 21
1717.321468276493
 31
0.0
  0
LINE
  5
15ED0
330
15B30
100
AcDbEntity
  8
SUNPOU
 62
     1
100
AcDbLine
 10
-1562.964988679128
 20
1757.860506697176
 30
0.0
 11
-1562.964988679128
 21
1717.321468276493
 31
0.0
  0
LINE
  5
15ED1
330
15B30
100
AcDbEntity
  8
SUNPOU
 62
     1
100
AcDbLine
 10
-1749.964988679129
 20
1717.821468276493
 30
0.0
 11
-1565.964988679128
 21
1717.821468276493
 31
0.0
  0
SOLID
  5
15ED2
330
15B30
100
AcDbEntity
  8
SUNPOU
 62
     1
100
AcDbTrace
 10
-1749.964988679129
 20
1718.321468276493
 30
0.0
 11
-1749.964988679129
 21
1717.321468276493
 31
0.0
 12
-1752.964988679128
 22
1717.821468276493
 32
0.0
 13
-1752.964988679128
 23
1717.821468276493
 33
0.0
  0
SOLID
  5
15ED3
330
15B30
100
AcDbEntity
  8
SUNPOU
 62
     1
100
AcDbTrace
 10
-1565.964988679128
 20
1718.321468276493
 30
0.0
 11
-1565.964988679128
 21
1717.321468276493
 31
0.0
 12
-1562.964988679128
 22
1717.821468276493
 32
0.0
 13
-1562.964988679128
 23
1717.821468276493
 33
0.0
  0
MTEXT
  5
15ED4
330
15B30
100
AcDbEntity
  8
SUNPOU
 62
     1
100
AcDbMText
 10
-1656.671450206366
 20
1720.571468276493
 30
0.0
 40
3.5
 41
0.0
 71
     5
 72
     1
  1
\A1;190
1001
ACAD
1000
MTEXTBEGIN
1070
    73
1070
     1
1070
    44
1040
1.0
1070
    74
1070
     0
1000
MTEXTEND
  0
POINT
  5
15ED5
330
15B30
100
AcDbEntity
  8
DEFPOINTS
 62
     0
100
AcDbPoint
 10
-1752.964988679128
 20
1758.360506697176
 30
0.0
  0
POINT
  5
15ED6
330
15B30
100
AcDbEntity
  8
DEFPOINTS
 62
     0
100
AcDbPoint
 10
-1562.964988679128
 20
1758.360506697176
 30
0.0
  0
POINT
  5
15ED7
330
15B30
100
AcDbEntity
  8
DEFPOINTS
 62
     0
100
AcDbPoint
 10
-1562.964988679128
 20
1717.821468276493
 30
0.0
  0
ENDBLK
  5
15B3B
330
15B30
100
AcDbEntity
  8
0
100
AcDbBlockEnd
  0
BLOCK
  5
15B46
330
15B3C
100
AcDbEntity
  8
0
100
AcDbBlockBegin
  2
*D37
 70
     1
 10
0.0
 20
0.0
 30
0.0
  3
*D37
  1

  0
LINE
  5
15E80
330
15B3C
100
AcDbEntity
  8
SUNPOU
 62
     1
100
AcDbLine
 10
-1522.464988679128
 20
1912.610506697176
 30
0.0
 11
-1507.37478484702
 21
1912.610506697176
 31
0.0
  0
LINE
  5
15E81
330
15B3C
100
AcDbEntity
  8
SUNPOU
 62
     1
100
AcDbLine
 10
-1522.464988679128
 20
1816.610506697176
 30
0.0
 11
-1507.37478484702
 21
1816.610506697176
 31
0.0
  0
LINE
  5
15E82
330
15B3C
100
AcDbEntity
  8
SUNPOU
 62
     1
100
AcDbLine
 10
-1507.87478484702
 20
1909.610506697176
 30
0.0
 11
-1507.87478484702
 21
1819.610506697176
 31
0.0
  0
SOLID
  5
15E83
330
15B3C
100
AcDbEntity
  8
SUNPOU
 62
     1
100
AcDbTrace
 10
-1508.37478484702
 20
1909.610506697176
 30
0.0
 11
-1507.37478484702
 21
1909.610506697176
 31
0.0
 12
-1507.87478484702
 22
1912.610506697176
 32
0.0
 13
-1507.87478484702
 23
1912.610506697176
 33
0.0
  0
SOLID
  5
15E84
330
15B3C
100
AcDbEntity
  8
SUNPOU
 62
     1
100
AcDbTrace
 10
-1508.37478484702
 20
1819.610506697176
 30
0.0
 11
-1507.37478484702
 21
1819.610506697176
 31
0.0
 12
-1507.87478484702
 22
1816.610506697176
 32
0.0
 13
-1507.87478484702
 23
1816.610506697176
 33
0.0
  0
MTEXT
  5
15E85
330
15B3C
100
AcDbEntity
  8
SUNPOU
 62
     1
100
AcDbMText
 10
-1510.62478484702
 20
1864.610506697176
 30
0.0
 40
3.5
 41
0.0
 71
     5
 72
     1
  1
\A1;96
 11
0.0000000000000001
 21
1.0
 31
0.0
1001
ACAD
1000
MTEXTBEGIN
1070
    73
1070
     1
1070
    44
1040
1.0
1070
    74
1070
     0
1000
MTEXTEND
  0
POINT
  5
15E86
330
15B3C
100
AcDbEntity
  8
DEFPOINTS
 62
     0
100
AcDbPoint
 10
-1522.964988679128
 20
1912.610506697176
 30
0.0
  0
POINT
  5
15E87
330
15B3C
100
AcDbEntity
  8
DEFPOINTS
 62
     0
100
AcDbPoint
 10
-1522.964988679128
 20
1816.610506697176
 30
0.0
  0
POINT
  5
15E88
330
15B3C
100
AcDbEntity
  8
DEFPOINTS
 62
     0
100
AcDbPoint
 10
-1507.87478484702
 20
1816.610506697176
 30
0.0
  0
ENDBLK
  5
15B47
330
15B3C
100
AcDbEntity
  8
0
100
AcDbBlockEnd
  0
BLOCK
  5
15B54
330
15B48
100
AcDbEntity
  8
0
100
AcDbBlockBegin
  2
*D38
 70
     1
 10
0.0
 20
0.0
 30
0.0
  3
*D38
  1

  0
LINE
  5
15F55
330
15B48
100
AcDbEntity
  8
SUNPOU
 62
     1
100
AcDbLine
 10
-1558.464988679128
 20
1763.860506697175
 30
0.0
 11
-1549.464988679128
 21
1763.860506697175
 31
0.0
  0
LINE
  5
15F56
330
15B48
100
AcDbEntity
  8
SUNPOU
 62
     1
100
AcDbLine
 10
-1558.464988679128
 20
1759.360506697176
 30
0.0
 11
-1549.464988679128
 21
1759.360506697176
 31
0.0
  0
LINE
  5
15F57
330
15B48
100
AcDbEntity
  8
SUNPOU
 62
     1
100
AcDbLine
 10
-1549.964988679128
 20
1766.860506697176
 30
0.0
 11
-1549.964988679128
 21
1769.860506697176
 31
0.0
  0
LINE
  5
15F58
330
15B48
100
AcDbEntity
  8
SUNPOU
 62
     1
100
AcDbLine
 10
-1549.964988679128
 20
1756.360506697176
 30
0.0
 11
-1549.964988679128
 21
1753.360506697176
 31
0.0
  0
MTEXT
  5
15F59
330
15B48
100
AcDbEntity
  8
SUNPOU
 62
     1
100
AcDbMText
 10
-1553.478634168713
 20
1752.107352281909
 30
0.0
 40
3.5
 41
0.0
 71
     5
 72
     1
  1
\A1;4.5
 11
0.0000000000000001
 21
1.0
 31
0.0
  0
LINE
  5
15F5A
330
15B48
100
AcDbEntity
  8
SUNPOU
 62
     1
100
AcDbLine
 10
-1549.964988679128
 20
1763.860506697175
 30
0.0
 11
-1549.964988679128
 21
1759.360506697176
 31
0.0
  0
SOLID
  5
15F5B
330
15B48
100
AcDbEntity
  8
SUNPOU
 62
     1
100
AcDbTrace
 10
-1550.464988679128
 20
1766.860506697176
 30
0.0
 11
-1549.464988679128
 21
1766.860506697176
 31
0.0
 12
-1549.964988679128
 22
1763.860506697175
 32
0.0
 13
-1549.964988679128
 23
1763.860506697175
 33
0.0
  0
SOLID
  5
15F5C
330
15B48
100
AcDbEntity
  8
SUNPOU
 62
     1
100
AcDbTrace
 10
-1550.464988679128
 20
1756.360506697176
 30
0.0
 11
-1549.464988679128
 21
1756.360506697176
 31
0.0
 12
-1549.964988679128
 22
1759.360506697176
 32
0.0
 13
-1549.964988679128
 23
1759.360506697176
 33
0.0
  0
POINT
  5
15F5D
330
15B48
100
AcDbEntity
  8
DEFPOINTS
 62
     0
100
AcDbPoint
 10
-1558.964988679128
 20
1763.860506697175
 30
0.0
  0
POINT
  5
15F5E
330
15B48
100
AcDbEntity
  8
DEFPOINTS
 62
     0
100
AcDbPoint
 10
-1558.964988679128
 20
1759.360506697176
 30
0.0
  0
POINT
  5
15F5F
330
15B48
100
AcDbEntity
  8
DEFPOINTS
 62
     0
100
AcDbPoint
 10
-1549.964988679128
 20
1759.360506697176
 30
0.0
  0
ENDBLK
  5
15B55
330
15B48
100
AcDbEntity
  8
0
100
AcDbBlockEnd
  0
BLOCK
  5
15B62
330
15B56
100
AcDbEntity
  8
0
100
AcDbBlockBegin
  2
*D39
 70
     1
 10
0.0
 20
0.0
 30
0.0
  3
*D39
  1

  0
LINE
  5
15EB0
330
15B56
100
AcDbEntity
  8
SUNPOU
 62
     1
100
AcDbLine
 10
-1559.964988679128
 20
1761.610506697176
 30
0.0
 11
-1539.116066120844
 21
1761.610506697176
 31
0.0
  0
LINE
  5
15EB1
330
15B56
100
AcDbEntity
  8
SUNPOU
 62
     1
100
AcDbLine
 10
-1559.464988679128
 20
1746.610506697176
 30
0.0
 11
-1539.116066120844
 21
1746.610506697176
 31
0.0
  0
LINE
  5
15EB2
330
15B56
100
AcDbEntity
  8
SUNPOU
 62
     1
100
AcDbLine
 10
-1539.616066120844
 20
1764.610506697176
 30
0.0
 11
-1539.616066120844
 21
1767.610506697176
 31
0.0
  0
LINE
  5
15EB3
330
15B56
100
AcDbEntity
  8
SUNPOU
 62
     1
100
AcDbLine
 10
-1539.616066120844
 20
1743.610506697176
 30
0.0
 11
-1539.616066120844
 21
1740.610506697176
 31
0.0
  0
LINE
  5
15EB4
330
15B56
100
AcDbEntity
  8
SUNPOU
 62
     1
100
AcDbLine
 10
-1539.616066120844
 20
1761.610506697176
 30
0.0
 11
-1539.616066120844
 21
1746.610506697176
 31
0.0
  0
SOLID
  5
15EB5
330
15B56
100
AcDbEntity
  8
SUNPOU
 62
     1
100
AcDbTrace
 10
-1540.116066120844
 20
1764.610506697176
 30
0.0
 11
-1539.116066120844
 21
1764.610506697176
 31
0.0
 12
-1539.616066120844
 22
1761.610506697176
 32
0.0
 13
-1539.616066120844
 23
1761.610506697176
 33
0.0
  0
SOLID
  5
15EB6
330
15B56
100
AcDbEntity
  8
SUNPOU
 62
     1
100
AcDbTrace
 10
-1540.116066120844
 20
1743.610506697176
 30
0.0
 11
-1539.116066120844
 21
1743.610506697176
 31
0.0
 12
-1539.616066120844
 22
1746.610506697176
 32
0.0
 13
-1539.616066120844
 23
1746.610506697176
 33
0.0
  0
MTEXT
  5
15EB7
330
15B56
100
AcDbEntity
  8
SUNPOU
 62
     1
100
AcDbMText
 10
-1542.366066120845
 20
1751.610506697176
 30
0.0
 40
3.5
 41
0.0
 71
     5
 72
     1
  1
\A1;15
 11
0.0000000000000001
 21
1.0
 31
0.0
1001
ACAD
1000
MTEXTBEGIN
1070
    73
1070
     1
1070
    44
1040
1.0
1070
    74
1070
     0
1000
MTEXTEND
  0
POINT
  5
15EB8
330
15B56
100
AcDbEntity
  8
DEFPOINTS
 62
     0
100
AcDbPoint
 10
-1560.464988679128
 20
1761.610506697176
 30
0.0
  0
POINT
  5
15EB9
330
15B56
100
AcDbEntity
  8
DEFPOINTS
 62
     0
100
AcDbPoint
 10
-1559.964988679128
 20
1746.610506697176
 30
0.0
  0
POINT
  5
15EBA
330
15B56
100
AcDbEntity
  8
DEFPOINTS
 62
     0
100
AcDbPoint
 10
-1539.616066120844
 20
1746.610506697176
 30
0.0
  0
ENDBLK
  5
15B63
330
15B56
100
AcDbEntity
  8
0
100
AcDbBlockEnd
  0
BLOCK
  5
15B6E
330
15B64
100
AcDbEntity
  8
0
100
AcDbBlockBegin
  2
*D40
 70
     1
 10
0.0
 20
0.0
 30
0.0
  3
*D40
  1

  0
LINE
  5
15EA7
330
15B64
100
AcDbEntity
  8
SUNPOU
 62
     1
100
AcDbLine
 10
-1559.464988679128
 20
1776.610506697176
 30
0.0
 11
-1530.556038058091
 21
1776.610506697175
 31
0.0
  0
LINE
  5
15EA8
330
15B64
100
AcDbEntity
  8
SUNPOU
 62
     1
100
AcDbLine
 10
-1559.464988679128
 20
1746.610506697176
 30
0.0
 11
-1530.556038058091
 21
1746.610506697176
 31
0.0
  0
LINE
  5
15EA9
330
15B64
100
AcDbEntity
  8
SUNPOU
 62
     1
100
AcDbLine
 10
-1531.056038058091
 20
1773.610506697176
 30
0.0
 11
-1531.056038058091
 21
1749.610506697175
 31
0.0
  0
SOLID
  5
15EAA
330
15B64
100
AcDbEntity
  8
SUNPOU
 62
     1
100
AcDbTrace
 10
-1531.556038058091
 20
1773.610506697176
 30
0.0
 11
-1530.556038058091
 21
1773.610506697176
 31
0.0
 12
-1531.056038058091
 22
1776.610506697175
 32
0.0
 13
-1531.056038058091
 23
1776.610506697175
 33
0.0
  0
SOLID
  5
15EAB
330
15B64
100
AcDbEntity
  8
SUNPOU
 62
     1
100
AcDbTrace
 10
-1531.556038058091
 20
1749.610506697175
 30
0.0
 11
-1530.556038058091
 21
1749.610506697175
 31
0.0
 12
-1531.056038058091
 22
1746.610506697176
 32
0.0
 13
-1531.056038058091
 23
1746.610506697176
 33
0.0
  0
MTEXT
  5
15EAC
330
15B64
100
AcDbEntity
  8
SUNPOU
 62
     1
100
AcDbMText
 10
-1533.306038058092
 20
1761.181796435039
 30
0.0
 40
3.5
 41
0.0
 71
     5
 72
     1
  1
\A1;30
 11
0.0000000000000001
 21
1.0
 31
0.0
1001
ACAD
1000
MTEXTBEGIN
1070
    73
1070
     1
1070
    44
1040
1.0
1070
    74
1070
     0
1000
MTEXTEND
  0
POINT
  5
15EAD
330
15B64
100
AcDbEntity
  8
DEFPOINTS
 62
     0
100
AcDbPoint
 10
-1559.964988679128
 20
1776.610506697176
 30
0.0
  0
POINT
  5
15EAE
330
15B64
100
AcDbEntity
  8
DEFPOINTS
 62
     0
100
AcDbPoint
 10
-1559.964988679128
 20
1746.610506697176
 30
0.0
  0
POINT
  5
15EAF
330
15B64
100
AcDbEntity
  8
DEFPOINTS
 62
     0
100
AcDbPoint
 10
-1531.056038058091
 20
1746.610506697176
 30
0.0
  0
ENDBLK
  5
15B6F
330
15B64
100
AcDbEntity
  8
0
100
AcDbBlockEnd
  0
BLOCK
  5
15B7B
330
15B70
100
AcDbEntity
  8
0
100
AcDbBlockBegin
  2
*D41
 70
     1
 10
0.0
 20
0.0
 30
0.0
  3
*D41
  1

  0
LINE
  5
15F60
330
15B70
100
AcDbEntity
  8
SUNPOU
 62
     1
100
AcDbLine
 10
-1563.964988679128
 20
1848.110506697176
 30
0.0
 11
-1563.964988679128
 21
1795.49064011378
 31
0.0
  0
LINE
  5
15F61
330
15B70
100
AcDbEntity
  8
SUNPOU
 62
     1
100
AcDbLine
 10
-1567.964988679128
 20
1816.110506697176
 30
0.0
 11
-1567.964988679128
 21
1795.49064011378
 31
0.0
  0
LINE
  5
15F62
330
15B70
100
AcDbEntity
  8
SUNPOU
 62
     1
100
AcDbLine
 10
-1560.964988679129
 20
1795.99064011378
 30
0.0
 11
-1557.964988679128
 21
1795.99064011378
 31
0.0
  0
LINE
  5
15F63
330
15B70
100
AcDbEntity
  8
SUNPOU
 62
     1
100
AcDbLine
 10
-1567.964988679128
 20
1795.99064011378
 30
0.0
 11
-1570.964988679128
 21
1795.99064011378
 31
0.0
  0
MTEXT
  5
15F64
330
15B70
100
AcDbEntity
  8
SUNPOU
 62
     1
100
AcDbMText
 10
-1566.059492153117
 20
1798.279667579458
 30
0.0
 40
3.5
 41
0.0
 71
     5
 72
     1
  1
\A1;4
  0
LINE
  5
15F65
330
15B70
100
AcDbEntity
  8
SUNPOU
 62
     1
100
AcDbLine
 10
-1563.964988679128
 20
1795.99064011378
 30
0.0
 11
-1567.964988679128
 21
1795.99064011378
 31
0.0
  0
SOLID
  5
15F66
330
15B70
100
AcDbEntity
  8
SUNPOU
 62
     1
100
AcDbTrace
 10
-1560.964988679129
 20
1796.49064011378
 30
0.0
 11
-1560.964988679129
 21
1795.49064011378
 31
0.0
 12
-1563.964988679128
 22
1795.99064011378
 32
0.0
 13
-1563.964988679128
 23
1795.99064011378
 33
0.0
  0
POINT
  5
15F67
330
15B70
100
AcDbEntity
  8
DEFPOINTS
 62
     0
100
AcDbPoint
 10
-1563.964988679128
 20
1848.610506697175
 30
0.0
  0
POINT
  5
15F68
330
15B70
100
AcDbEntity
  8
DEFPOINTS
 62
     0
100
AcDbPoint
 10
-1567.964988679128
 20
1816.610506697176
 30
0.0
  0
POINT
  5
15F69
330
15B70
100
AcDbEntity
  8
DEFPOINTS
 62
     0
100
AcDbPoint
 10
-1567.964988679128
 20
1795.99064011378
 30
0.0
  0
ENDBLK
  5
15B7C
330
15B70
100
AcDbEntity
  8
0
100
AcDbBlockEnd
  0
BLOCK
  5
15B88
330
15B7D
100
AcDbEntity
  8
0
100
AcDbBlockBegin
  2
*D42
 70
     1
 10
0.0
 20
0.0
 30
0.0
  3
*D42
  1

  0
LINE
  5
15F6A
330
15B7D
100
AcDbEntity
  8
SUNPOU
 62
     1
100
AcDbLine
 10
-1530.564988679128
 20
1801.110506697176
 30
0.0
 11
-1530.564988679128
 21
1791.349937631713
 31
0.0
  0
LINE
  5
15F6B
330
15B7D
100
AcDbEntity
  8
SUNPOU
 62
     1
100
AcDbLine
 10
-1538.814988679128
 20
1801.110506697176
 30
0.0
 11
-1538.814988679128
 21
1791.349937631713
 31
0.0
  0
LINE
  5
15F6C
330
15B7D
100
AcDbEntity
  8
SUNPOU
 62
     1
100
AcDbLine
 10
-1533.564988679128
 20
1791.849937631713
 30
0.0
 11
-1535.814988679128
 21
1791.849937631713
 31
0.0
  0
LINE
  5
15F6D
330
15B7D
100
AcDbEntity
  8
SUNPOU
 62
     1
100
AcDbLine
 10
-1538.814988679128
 20
1791.849937631713
 30
0.0
 11
-1554.314988679128
 21
1791.849937631713
 31
0.0
  0
SOLID
  5
15F6E
330
15B7D
100
AcDbEntity
  8
SUNPOU
 62
     1
100
AcDbTrace
 10
-1533.564988679128
 20
1792.349937631713
 30
0.0
 11
-1533.564988679128
 21
1791.349937631713
 31
0.0
 12
-1530.564988679128
 22
1791.849937631713
 32
0.0
 13
-1530.564988679128
 23
1791.849937631713
 33
0.0
  0
SOLID
  5
15F6F
330
15B7D
100
AcDbEntity
  8
SUNPOU
 62
     1
100
AcDbTrace
 10
-1535.814988679128
 20
1792.349937631713
 30
0.0
 11
-1535.814988679128
 21
1791.349937631713
 31
0.0
 12
-1538.814988679128
 22
1791.849937631713
 32
0.0
 13
-1538.814988679128
 23
1791.849937631713
 33
0.0
  0
MTEXT
  5
15F70
330
15B7D
100
AcDbEntity
  8
SUNPOU
 62
     1
100
AcDbMText
 10
-1548.064988679128
 20
1794.599937631713
 30
0.0
 40
3.5
 41
0.0
 71
     5
 72
     1
  1
\A1;8.25
  0
POINT
  5
15F71
330
15B7D
100
AcDbEntity
  8
DEFPOINTS
 62
     0
100
AcDbPoint
 10
-1530.564988679128
 20
1801.610506697176
 30
0.0
  0
POINT
  5
15F72
330
15B7D
100
AcDbEntity
  8
DEFPOINTS
 62
     0
100
AcDbPoint
 10
-1538.814988679128
 20
1801.610506697176
 30
0.0
  0
POINT
  5
15F73
330
15B7D
100
AcDbEntity
  8
DEFPOINTS
 62
     0
100
AcDbPoint
 10
-1538.814988679128
 20
1791.849937631713
 30
0.0
  0
ENDBLK
  5
15B89
330
15B7D
100
AcDbEntity
  8
0
100
AcDbBlockEnd
  0
BLOCK
  5
15B92
330
15B8A
100
AcDbEntity
  8
0
100
AcDbBlockBegin
  2
*D43
 70
     1
 10
0.0
 20
0.0
 30
0.0
  3
*D43
  1

  0
LINE
  5
15F74
330
15B8A
100
AcDbEntity
  8
SUNPOU
 62
     1
100
AcDbLine
 10
-1567.964988679128
 20
1816.110506697176
 30
0.0
 11
-1567.964988679128
 21
1795.49064011378
 31
0.0
  0
LINE
  5
15F75
330
15B8A
100
AcDbEntity
  8
SUNPOU
 62
     1
100
AcDbLine
 10
-1571.964988679128
 20
1814.110506697176
 30
0.0
 11
-1571.964988679128
 21
1795.49064011378
 31
0.0
  0
LINE
  5
15F76
330
15B8A
100
AcDbEntity
  8
SUNPOU
 62
     1
100
AcDbLine
 10
-1567.964988679128
 20
1795.99064011378
 30
0.0
 11
-1571.964988679128
 21
1795.99064011378
 31
0.0
  0
MTEXT
  5
15F77
330
15B8A
100
AcDbEntity
  8
SUNPOU
 62
     1
100
AcDbMText
 10
-1569.922706684101
 20
1798.279667579458
 30
0.0
 40
3.5
 41
0.0
 71
     5
 72
     1
  1
\A1;4
  0
POINT
  5
15F78
330
15B8A
100
AcDbEntity
  8
DEFPOINTS
 62
     0
100
AcDbPoint
 10
-1567.964988679128
 20
1816.610506697176
 30
0.0
  0
POINT
  5
15F79
330
15B8A
100
AcDbEntity
  8
DEFPOINTS
 62
     0
100
AcDbPoint
 10
-1571.964988679128
 20
1814.610506697176
 30
0.0
  0
POINT
  5
15F7A
330
15B8A
100
AcDbEntity
  8
DEFPOINTS
 62
     0
100
AcDbPoint
 10
-1571.964988679128
 20
1795.99064011378
 30
0.0
  0
ENDBLK
  5
15B93
330
15B8A
100
AcDbEntity
  8
0
100
AcDbBlockEnd
  0
BLOCK
  5
15BA0
330
15B94
100
AcDbEntity
  8
0
100
AcDbBlockBegin
  2
*D44
 70
     1
 10
0.0
 20
0.0
 30
0.0
  3
*D44
  1

  0
LINE
  5
15F7B
330
15B94
100
AcDbEntity
  8
SUNPOU
 62
     1
100
AcDbLine
 10
-1522.964988679128
 20
1816.110506697176
 30
0.0
 11
-1522.964988679128
 21
1791.353318041863
 31
0.0
  0
LINE
  5
15F7C
330
15B94
100
AcDbEntity
  8
SUNPOU
 62
     1
100
AcDbLine
 10
-1530.564988679128
 20
1801.110506697176
 30
0.0
 11
-1530.564988679128
 21
1791.353318041863
 31
0.0
  0
LINE
  5
15F7D
330
15B94
100
AcDbEntity
  8
SUNPOU
 62
     1
100
AcDbLine
 10
-1533.564988679128
 20
1791.853318041863
 30
0.0
 11
-1536.564988679128
 21
1791.853318041863
 31
0.0
  0
LINE
  5
15F7E
330
15B94
100
AcDbEntity
  8
SUNPOU
 62
     1
100
AcDbLine
 10
-1519.964988679128
 20
1791.853318041863
 30
0.0
 11
-1507.964988679128
 21
1791.853318041863
 31
0.0
  0
LINE
  5
15F7F
330
15B94
100
AcDbEntity
  8
SUNPOU
 62
     1
100
AcDbLine
 10
-1530.564988679128
 20
1791.853318041863
 30
0.0
 11
-1522.964988679128
 21
1791.853318041863
 31
0.0
  0
SOLID
  5
15F80
330
15B94
100
AcDbEntity
  8
SUNPOU
 62
     1
100
AcDbTrace
 10
-1533.564988679128
 20
1792.353318041863
 30
0.0
 11
-1533.564988679128
 21
1791.353318041863
 31
0.0
 12
-1530.564988679128
 22
1791.853318041863
 32
0.0
 13
-1530.564988679128
 23
1791.853318041863
 33
0.0
  0
SOLID
  5
15F81
330
15B94
100
AcDbEntity
  8
SUNPOU
 62
     1
100
AcDbTrace
 10
-1519.964988679128
 20
1792.353318041863
 30
0.0
 11
-1519.964988679128
 21
1791.353318041863
 31
0.0
 12
-1522.964988679128
 22
1791.853318041863
 32
0.0
 13
-1522.964988679128
 23
1791.853318041863
 33
0.0
  0
MTEXT
  5
15F82
330
15B94
100
AcDbEntity
  8
SUNPOU
 62
     1
100
AcDbMText
 10
-1512.464988679128
 20
1794.603318041863
 30
0.0
 40
3.5
 41
0.0
 71
     5
 72
     1
  1
\A1;7.6
  0
POINT
  5
15F83
330
15B94
100
AcDbEntity
  8
DEFPOINTS
 62
     0
100
AcDbPoint
 10
-1522.964988679128
 20
1816.610506697176
 30
0.0
  0
POINT
  5
15F84
330
15B94
100
AcDbEntity
  8
DEFPOINTS
 62
     0
100
AcDbPoint
 10
-1530.564988679128
 20
1801.610506697176
 30
0.0
  0
POINT
  5
15F85
330
15B94
100
AcDbEntity
  8
DEFPOINTS
 62
     0
100
AcDbPoint
 10
-1530.564988679128
 20
1791.853318041863
 30
0.0
  0
ENDBLK
  5
15BA1
330
15B94
100
AcDbEntity
  8
0
100
AcDbBlockEnd
  0
BLOCK
  5
15BAC
330
15BA2
100
AcDbEntity
  8
0
100
AcDbBlockBegin
  2
*D45
 70
     1
 10
0.0
 20
0.0
 30
0.0
  3
*D45
  1

  0
LINE
  5
15E89
330
15BA2
100
AcDbEntity
  8
SUNPOU
 62
     1
100
AcDbLine
 10
-1522.464988679128
 20
1816.610506697176
 30
0.0
 11
-1507.37478484702
 21
1816.610506697176
 31
0.0
  0
LINE
  5
15E8A
330
15BA2
100
AcDbEntity
  8
SUNPOU
 62
     1
100
AcDbLine
 10
-1530.064988679128
 20
1801.610506697176
 30
0.0
 11
-1507.37478484702
 21
1801.610506697176
 31
0.0
  0
LINE
  5
15E8B
330
15BA2
100
AcDbEntity
  8
SUNPOU
 62
     1
100
AcDbLine
 10
-1507.87478484702
 20
1813.610506697176
 30
0.0
 11
-1507.87478484702
 21
1804.610506697176
 31
0.0
  0
SOLID
  5
15E8C
330
15BA2
100
AcDbEntity
  8
SUNPOU
 62
     1
100
AcDbTrace
 10
-1508.37478484702
 20
1813.610506697176
 30
0.0
 11
-1507.37478484702
 21
1813.610506697176
 31
0.0
 12
-1507.87478484702
 22
1816.610506697176
 32
0.0
 13
-1507.87478484702
 23
1816.610506697176
 33
0.0
  0
SOLID
  5
15E8D
330
15BA2
100
AcDbEntity
  8
SUNPOU
 62
     1
100
AcDbTrace
 10
-1508.37478484702
 20
1804.610506697176
 30
0.0
 11
-1507.37478484702
 21
1804.610506697176
 31
0.0
 12
-1507.87478484702
 22
1801.610506697176
 32
0.0
 13
-1507.87478484702
 23
1801.610506697176
 33
0.0
  0
MTEXT
  5
15E8E
330
15BA2
100
AcDbEntity
  8
SUNPOU
 62
     1
100
AcDbMText
 10
-1510.624784847021
 20
1809.110506697176
 30
0.0
 40
3.5
 41
0.0
 71
     5
 72
     1
  1
\A1;15
 11
0.0000000000000001
 21
1.0
 31
0.0
1001
ACAD
1000
MTEXTBEGIN
1070
    73
1070
     1
1070
    44
1040
1.0
1070
    74
1070
     0
1000
MTEXTEND
  0
POINT
  5
15E8F
330
15BA2
100
AcDbEntity
  8
DEFPOINTS
 62
     0
100
AcDbPoint
 10
-1522.964988679128
 20
1816.610506697176
 30
0.0
  0
POINT
  5
15E90
330
15BA2
100
AcDbEntity
  8
DEFPOINTS
 62
     0
100
AcDbPoint
 10
-1530.564988679128
 20
1801.610506697176
 30
0.0
  0
POINT
  5
15E91
330
15BA2
100
AcDbEntity
  8
DEFPOINTS
 62
     0
100
AcDbPoint
 10
-1507.87478484702
 20
1801.610506697176
 30
0.0
  0
ENDBLK
  5
15BAD
330
15BA2
100
AcDbEntity
  8
0
100
AcDbBlockEnd
  0
BLOCK
  5
15BBA
330
15BAE
100
AcDbEntity
  8
0
100
AcDbBlockBegin
  2
*D46
 70
     1
 10
0.0
 20
0.0
 30
0.0
  3
*D46
  1

  0
LINE
  5
15E75
330
15BAE
100
AcDbEntity
  8
SUNPOU
 62
     1
100
AcDbLine
 10
-1558.464988679128
 20
1912.610506697176
 30
0.0
 11
-1556.522890754247
 21
1912.610506697176
 31
0.0
  0
LINE
  5
15E76
330
15BAE
100
AcDbEntity
  8
SUNPOU
 62
     1
100
AcDbLine
 10
-1558.464988679128
 20
1911.610506697176
 30
0.0
 11
-1556.522890754247
 21
1911.610506697176
 31
0.0
  0
LINE
  5
15E77
330
15BAE
100
AcDbEntity
  8
SUNPOU
 62
     1
100
AcDbLine
 10
-1557.022890754248
 20
1915.610506697176
 30
0.0
 11
-1557.022890754248
 21
1918.610506697176
 31
0.0
  0
LINE
  5
15E78
330
15BAE
100
AcDbEntity
  8
SUNPOU
 62
     1
100
AcDbLine
 10
-1557.022890754248
 20
1908.610506697176
 30
0.0
 11
-1557.022890754248
 21
1902.443840030509
 31
0.0
  0
LINE
  5
15E79
330
15BAE
100
AcDbEntity
  8
SUNPOU
 62
     1
100
AcDbLine
 10
-1557.022890754248
 20
1912.610506697176
 30
0.0
 11
-1557.022890754248
 21
1911.610506697176
 31
0.0
  0
SOLID
  5
15E7A
330
15BAE
100
AcDbEntity
  8
SUNPOU
 62
     1
100
AcDbTrace
 10
-1557.522890754247
 20
1915.610506697176
 30
0.0
 11
-1556.522890754247
 21
1915.610506697176
 31
0.0
 12
-1557.022890754248
 22
1912.610506697176
 32
0.0
 13
-1557.022890754248
 23
1912.610506697176
 33
0.0
  0
SOLID
  5
15E7B
330
15BAE
100
AcDbEntity
  8
SUNPOU
 62
     1
100
AcDbTrace
 10
-1557.522890754247
 20
1908.610506697176
 30
0.0
 11
-1556.522890754247
 21
1908.610506697176
 31
0.0
 12
-1557.022890754248
 22
1911.610506697176
 32
0.0
 13
-1557.022890754248
 23
1911.610506697176
 33
0.0
  0
MTEXT
  5
15E7C
330
15BAE
100
AcDbEntity
  8
SUNPOU
 62
     1
100
AcDbMText
 10
-1559.772890754248
 20
1904.027173363842
 30
0.0
 40
3.5
 41
0.0
 71
     5
 72
     1
  1
\A1;1
 11
0.0000000000000001
 21
1.0
 31
0.0
1001
ACAD
1000
MTEXTBEGIN
1070
    73
1070
     1
1070
    44
1040
1.0
1070
    74
1070
     0
1000
MTEXTEND
  0
POINT
  5
15E7D
330
15BAE
100
AcDbEntity
  8
DEFPOINTS
 62
     0
100
AcDbPoint
 10
-1558.964988679128
 20
1912.610506697176
 30
0.0
  0
POINT
  5
15E7E
330
15BAE
100
AcDbEntity
  8
DEFPOINTS
 62
     0
100
AcDbPoint
 10
-1558.964988679128
 20
1911.610506697176
 30
0.0
  0
POINT
  5
15E7F
330
15BAE
100
AcDbEntity
  8
DEFPOINTS
 62
     0
100
AcDbPoint
 10
-1557.022890754248
 20
1911.610506697176
 30
0.0
  0
ENDBLK
  5
15BBB
330
15BAE
100
AcDbEntity
  8
0
100
AcDbBlockEnd
  0
ENDSEC
  0
SECTION
  2
ENTITIES
  0
MTEXT
  5
5084
330
1A
100
AcDbEntity
  8
0
100
AcDbMText
 10
1985.239088685435
 20
-948.5420423450428
 30
0.0
 40
8.0
 41
0.0
 71
     7
 72
     5
  1

1001
ACAD
1000
MTEXTBEGIN
1070
    73
1070
     1
1070
    44
1040
1.0
1070
    74
1070
     0
1000
MTEXTEND
  0
MTEXT
  5
5085
330
1A
100
AcDbEntity
  8
0
100
AcDbMText
 10
4270.596778580329
 20
22.24825240601649
 30
0.0
 40
8.0
 41
0.0
 71
     7
 72
     5
  1

1001
ACAD
1000
MTEXTBEGIN
1070
    73
1070
     1
1070
    44
1040
1.0
1070
    74
1070
     0
1000
MTEXTEND
  0
MTEXT
  5
5343
330
1A
100
AcDbEntity
  8
SUNPOU
100
AcDbMText
 10
6936.493799262471
 20
9534.359644781135
 30
0.0
 40
10.5
 41
0.0
 71
     1
 72
     5
  1

1001
ACAD
1000
MTEXTBEGIN
1070
    73
1070
     1
1070
    44
1040
1.0
1070
    74
1070
     0
1000
MTEXTEND
  0
MTEXT
  5
544F
330
1A
100
AcDbEntity
  8
0
100
AcDbMText
 10
16317.2832773148
 20
12833.35428897674
 30
0.0
 40
8.0
 41
0.0
 71
     7
 72
     5
  1

1001
ACAD
1000
MTEXTBEGIN
1070
    73
1070
     1
1070
    44
1040
1.0
1070
    74
1070
     0
1000
MTEXTEND
  0
MTEXT
  5
5450
330
1A
100
AcDbEntity
  8
0
100
AcDbMText
 10
18602.64096720969
 20
13804.1445837278
 30
0.0
 40
8.0
 41
0.0
 71
     7
 72
     5
  1

1001
ACAD
1000
MTEXTBEGIN
1070
    73
1070
     1
1070
    44
1040
1.0
1070
    74
1070
     0
1000
MTEXTEND
  0
MTEXT
  5
5451
330
1A
100
AcDbEntity
  8
SUNPOU
100
AcDbMText
 10
21268.53798789184
 20
23316.25597610292
 30
0.0
 40
10.5
 41
0.0
 71
     1
 72
     5
  1

1001
ACAD
1000
MTEXTBEGIN
1070
    73
1070
     1
1070
    44
1040
1.0
1070
    74
1070
     0
1000
MTEXTEND
  0
MTEXT
  5
5452
330
1A
100
AcDbEntity
  8
SUNPOU
100
AcDbMText
 10
13337.6147919559
 20
22369.46284218996
 30
0.0
 40
10.5
 41
0.0
 71
     7
 72
     5
  1

1001
ACAD
1000
MTEXTBEGIN
1070
    73
1070
     1
1070
    44
1040
1.0
1070
    74
1070
     0
1000
MTEXTEND
  0
MTEXT
  5
5453
330
1A
100
AcDbEntity
  8
SUNPOU
100
AcDbMText
 10
16286.59845646867
 20
27270.13891403281
 30
0.0
 40
10.5
 41
0.0
 71
     7
 72
     5
  1

1001
ACAD
1000
MTEXTBEGIN
1070
    73
1070
     1
1070
    44
1040
1.0
1070
    74
1070
     0
1000
MTEXTEND
  0
MTEXT
  5
5454
330
1A
100
AcDbEntity
  8
SUNPOU
100
AcDbMText
 10
20795.67658441924
 20
29706.43966165288
 30
0.0
 40
10.5
 41
0.0
 71
     7
 72
     5
  1

1001
ACAD
1000
MTEXTBEGIN
1070
    73
1070
     1
1070
    44
1040
1.0
1070
    74
1070
     0
1000
MTEXTEND
  0
MTEXT
  5
5455
330
1A
100
AcDbEntity
  8
0
100
AcDbMText
 10
16611.93789220314
 20
14707.52144344448
 30
0.0
 40
8.0
 41
0.0
 71
     7
 72
     5
  1

1001
ACAD
1000
MTEXTBEGIN
1070
    73
1070
     1
1070
    44
1040
1.0
1070
    74
1070
     0
1000
MTEXTEND
  0
MTEXT
  5
5456
330
1A
100
AcDbEntity
  8
0
100
AcDbMText
 10
18897.29558209804
 20
15678.31173819554
 30
0.0
 40
8.0
 41
0.0
 71
     7
 72
     5
  1

1001
ACAD
1000
MTEXTBEGIN
1070
    73
1070
     1
1070
    44
1040
1.0
1070
    74
1070
     0
1000
MTEXTEND
  0
MTEXT
  5
5457
330
1A
100
AcDbEntity
  8
SUNPOU
100
AcDbMText
 10
21563.19260278019
 20
25190.42313057066
 30
0.0
 40
10.5
 41
0.0
 71
     1
 72
     5
  1

1001
ACAD
1000
MTEXTBEGIN
1070
    73
1070
     1
1070
    44
1040
1.0
1070
    74
1070
     0
1000
MTEXTEND
  0
MTEXT
  5
5458
330
1A
100
AcDbEntity
  8
SUNPOU
100
AcDbMText
 10
13632.26940684426
 20
24243.6299966577
 30
0.0
 40
10.5
 41
0.0
 71
     7
 72
     5
  1

1001
ACAD
1000
MTEXTBEGIN
1070
    73
1070
     1
1070
    44
1040
1.0
1070
    74
1070
     0
1000
MTEXTEND
  0
MTEXT
  5
5459
330
1A
100
AcDbEntity
  8
SUNPOU
100
AcDbMText
 10
16581.25307135702
 20
29144.30606850055
 30
0.0
 40
10.5
 41
0.0
 71
     7
 72
     5
  1

1001
ACAD
1000
MTEXTBEGIN
1070
    73
1070
     1
1070
    44
1040
1.0
1070
    74
1070
     0
1000
MTEXTEND
  0
MTEXT
  5
545A
330
1A
100
AcDbEntity
  8
SUNPOU
100
AcDbMText
 10
21090.33119930759
 20
31580.60681612062
 30
0.0
 40
10.5
 41
0.0
 71
     7
 72
     5
  1

1001
ACAD
1000
MTEXTBEGIN
1070
    73
1070
     1
1070
    44
1040
1.0
1070
    74
1070
     0
1000
MTEXTEND
  0
MTEXT
  5
545B
330
1A
100
AcDbEntity
  8
0
100
AcDbMText
 10
22871.60517627167
 20
23974.88367124799
 30
0.0
 40
8.0
 41
0.0
 71
     7
 72
     5
  1

1001
ACAD
1000
MTEXTBEGIN
1070
    73
1070
     1
1070
    44
1040
1.0
1070
    74
1070
     0
1000
MTEXTEND
  0
MTEXT
  5
545C
330
1A
100
AcDbEntity
  8
0
100
AcDbMText
 10
25156.96286616657
 20
24945.67396599906
 30
0.0
 40
8.0
 41
0.0
 71
     7
 72
     5
  1

1001
ACAD
1000
MTEXTBEGIN
1070
    73
1070
     1
1070
    44
1040
1.0
1070
    74
1070
     0
1000
MTEXTEND
  0
MTEXT
  5
545D
330
1A
100
AcDbEntity
  8
SUNPOU
100
AcDbMText
 10
27822.85988684871
 20
34457.78535837418
 30
0.0
 40
10.5
 41
0.0
 71
     1
 72
     5
  1

1001
ACAD
1000
MTEXTBEGIN
1070
    73
1070
     1
1070
    44
1040
1.0
1070
    74
1070
     0
1000
MTEXTEND
  0
MTEXT
  5
545E
330
1A
100
AcDbEntity
  8
SUNPOU
100
AcDbMText
 10
19891.93669091278
 20
33510.99222446122
 30
0.0
 40
10.5
 41
0.0
 71
     7
 72
     5
  1

1001
ACAD
1000
MTEXTBEGIN
1070
    73
1070
     1
1070
    44
1040
1.0
1070
    74
1070
     0
1000
MTEXTEND
  0
MTEXT
  5
545F
330
1A
100
AcDbEntity
  8
SUNPOU
100
AcDbMText
 10
22840.92035542555
 20
38411.66829630407
 30
0.0
 40
10.5
 41
0.0
 71
     7
 72
     5
  1

1001
ACAD
1000
MTEXTBEGIN
1070
    73
1070
     1
1070
    44
1040
1.0
1070
    74
1070
     0
1000
MTEXTEND
  0
MTEXT
  5
5460
330
1A
100
AcDbEntity
  8
SUNPOU
100
AcDbMText
 10
27349.99848337611
 20
40847.96904392415
 30
0.0
 40
10.5
 41
0.0
 71
     7
 72
     5
  1

1001
ACAD
1000
MTEXTBEGIN
1070
    73
1070
     1
1070
    44
1040
1.0
1070
    74
1070
     0
1000
MTEXTEND
  0
MTEXT
  5
55B7
330
1A
100
AcDbEntity
  8
SUNPOU
100
AcDbMText
 10
67424.23923338197
 20
64463.86602884816
 30
0.0
 40
10.5
 41
0.0
 71
     9
 72
     5
  1

1001
ACAD
1000
MTEXTBEGIN
1070
    73
1070
     1
1070
    44
1040
1.0
1070
    74
1070
     0
1000
MTEXTEND
  0
MTEXT
  5
55B8
330
1A
100
AcDbEntity
  8
SUNPOU
100
AcDbMText
 10
76146.40679929998
 20
71879.70056038563
 30
0.0
 40
10.5
 41
0.0
 71
     9
 72
     5
  1

1001
ACAD
1000
MTEXTBEGIN
1070
    73
1070
     1
1070
    44
1040
1.0
1070
    74
1070
     0
1000
MTEXTEND
  0
MTEXT
  5
55B9
330
1A
100
AcDbEntity
  8
SUNPOU
100
AcDbMText
 10
95100.16551662994
 20
89346.27661287766
 30
0.0
 40
10.5
 41
0.0
 71
     9
 72
     5
  1

1001
ACAD
1000
MTEXTBEGIN
1070
    73
1070
     1
1070
    44
1040
1.0
1070
    74
1070
     0
1000
MTEXTEND
  0
MTEXT
  5
55BA
330
1A
100
AcDbEntity
  8
SUNPOU
100
AcDbMText
 10
97043.57276333936
 20
87545.22753299966
 30
0.0
 40
3.5
 41
0.0
 71
     9
 72
     5
  1

1001
ACAD
1000
MTEXTBEGIN
1070
    73
1070
     1
1070
    44
1040
1.0
1070
    74
1070
     0
1000
MTEXTEND
  0
MTEXT
  5
55BB
330
1A
100
AcDbEntity
  8
SUNPOU
100
AcDbMText
 10
128169.752595959
 20
130040.1732006569
 30
0.0
 40
10.5
 41
0.0
 71
     9
 72
     5
  1

1001
ACAD
1000
MTEXTBEGIN
1070
    73
1070
     1
1070
    44
1040
1.0
1070
    74
1070
     0
1000
MTEXTEND
  0
MTEXT
  5
55BC
330
1A
100
AcDbEntity
  8
SUNPOU
100
AcDbMText
 10
130113.1598426684
 20
128239.1241207789
 30
0.0
 40
3.5
 41
0.0
 71
     9
 72
     5
  1

1001
ACAD
1000
MTEXTBEGIN
1070
    73
1070
     1
1070
    44
1040
1.0
1070
    74
1070
     0
1000
MTEXTEND
  0
MTEXT
  5
55BD
330
1A
100
AcDbEntity
  8
SUNPOU
100
AcDbMText
 10
78610.02030175463
 20
75873.33835563206
 30
0.0
 40
10.5
 41
0.0
 71
     9
 72
     5
  1

1001
ACAD
1000
MTEXTBEGIN
1070
    73
1070
     1
1070
    44
1040
1.0
1070
    74
1070
     0
1000
MTEXTEND
  0
MTEXT
  5
55BE
330
1A
100
AcDbEntity
  8
SUNPOU
100
AcDbMText
 10
64662.02020137863
 20
56700.93921651987
 30
0.0
 40
3.5
 41
0.0
 71
     7
 72
     5
  1

1001
ACAD
1000
MTEXTBEGIN
1070
    73
1070
     1
1070
    44
1040
1.0
1070
    74
1070
     0
1000
MTEXTEND
  0
MTEXT
  5
55BF
330
1A
100
AcDbEntity
  8
SUNPOU
100
AcDbMText
 10
45647.18959837178
 20
44463.08794733807
 30
0.0
 40
10.5
 41
0.0
 71
     7
 72
     5
  1

1001
ACAD
1000
MTEXTBEGIN
1070
    73
1070
     1
1070
    44
1040
1.0
1070
    74
1070
     0
1000
MTEXTEND
  0
MTEXT
  5
55C0
330
1A
100
AcDbEntity
  8
SUNPOU
100
AcDbMText
 10
33189.96133342368
 20
28618.15636923965
 30
0.0
 40
35.0
 41
0.0
 71
     9
 72
     5
  1

1001
ACAD
1000
MTEXTBEGIN
1070
    73
1070
     1
1070
    44
1040
1.0
1070
    74
1070
     0
1000
MTEXTEND
  0
MTEXT
  5
55C1
330
1A
100
AcDbEntity
  8
SUNPOU
100
AcDbMText
 10
32098.44639099864
 20
29226.93177928835
 30
0.0
 40
350.0000004171781
 41
0.0
 71
     7
 72
     5
  1

1001
ACAD
1000
MTEXTBEGIN
1070
    73
1070
     1
1070
    44
1040
1.0
1070
    74
1070
     0
1000
MTEXTEND
  0
MTEXT
  5
55C2
330
1A
100
AcDbEntity
  8
0
100
AcDbMText
 10
38142.39714894154
 20
27206.85414142458
 30
0.0
 40
8.0
 41
0.0
 71
     7
 72
     5
  1

1001
ACAD
1000
MTEXTBEGIN
1070
    73
1070
     1
1070
    44
1040
1.0
1070
    74
1070
     0
1000
MTEXTEND
  0
MTEXT
  5
55C3
330
1A
100
AcDbEntity
  8
0
100
AcDbMText
 10
40427.75483883644
 20
28177.64443617564
 30
0.0
 40
8.0
 41
0.0
 71
     7
 72
     5
  1

1001
ACAD
1000
MTEXTBEGIN
1070
    73
1070
     1
1070
    44
1040
1.0
1070
    74
1070
     0
1000
MTEXTEND
  0
MTEXT
  5
55C4
330
1A
100
AcDbEntity
  8
SUNPOU
100
AcDbMText
 10
43093.65185951858
 20
37689.75582855077
 30
0.0
 40
10.5
 41
0.0
 71
     1
 72
     5
  1

1001
ACAD
1000
MTEXTBEGIN
1070
    73
1070
     1
1070
    44
1040
1.0
1070
    74
1070
     0
1000
MTEXTEND
  0
MTEXT
  5
55C5
330
1A
100
AcDbEntity
  8
SUNPOU
100
AcDbMText
 10
35162.72866358265
 20
36742.96269463781
 30
0.0
 40
10.5
 41
0.0
 71
     7
 72
     5
  1

1001
ACAD
1000
MTEXTBEGIN
1070
    73
1070
     1
1070
    44
1040
1.0
1070
    74
1070
     0
1000
MTEXTEND
  0
MTEXT
  5
55C6
330
1A
100
AcDbEntity
  8
SUNPOU
100
AcDbMText
 10
38111.71232809542
 20
41643.63876648066
 30
0.0
 40
10.5
 41
0.0
 71
     7
 72
     5
  1

1001
ACAD
1000
MTEXTBEGIN
1070
    73
1070
     1
1070
    44
1040
1.0
1070
    74
1070
     0
1000
MTEXTEND
  0
MTEXT
  5
55C7
330
1A
100
AcDbEntity
  8
SUNPOU
100
AcDbMText
 10
42620.79045604597
 20
44079.93951410074
 30
0.0
 40
10.5
 41
0.0
 71
     7
 72
     5
  1

1001
ACAD
1000
MTEXTBEGIN
1070
    73
1070
     1
1070
    44
1040
1.0
1070
    74
1070
     0
1000
MTEXTEND
  0
MTEXT
  5
55C8
330
1A
100
AcDbEntity
  8
SUNPOU
100
AcDbMText
 10
26221.62834281429
 20
23077.53566448964
 30
0.0
 40
10.5
 41
0.0
 71
     7
 72
     5
  1

1001
ACAD
1000
MTEXTBEGIN
1070
    73
1070
     1
1070
    44
1040
1.0
1070
    74
1070
     0
1000
MTEXTEND
  0
MTEXT
  5
55C9
330
1A
100
AcDbEntity
  8
SUNPOU
100
AcDbMText
 10
77413.14677671455
 20
68750.51622813789
 30
0.0
 40
10.5
 41
0.0
 71
     9
 72
     5
  1

1001
ACAD
1000
MTEXTBEGIN
1070
    73
1070
     1
1070
    44
1040
1.0
1070
    74
1070
     0
1000
MTEXTEND
  0
MTEXT
  5
55CA
330
1A
100
AcDbEntity
  8
SUNPOU
100
AcDbMText
 10
86135.31434263256
 20
76166.35075967536
 30
0.0
 40
10.5
 41
0.0
 71
     9
 72
     5
  1

1001
ACAD
1000
MTEXTBEGIN
1070
    73
1070
     1
1070
    44
1040
1.0
1070
    74
1070
     0
1000
MTEXTEND
  0
MTEXT
  5
55CB
330
1A
100
AcDbEntity
  8
SUNPOU
100
AcDbMText
 10
105089.0730599625
 20
93632.92681216739
 30
0.0
 40
10.5
 41
0.0
 71
     9
 72
     5
  1

1001
ACAD
1000
MTEXTBEGIN
1070
    73
1070
     1
1070
    44
1040
1.0
1070
    74
1070
     0
1000
MTEXTEND
  0
MTEXT
  5
55CC
330
1A
100
AcDbEntity
  8
SUNPOU
100
AcDbMText
 10
107032.4803066719
 20
91831.8777322894
 30
0.0
 40
3.5
 41
0.0
 71
     9
 72
     5
  1

1001
ACAD
1000
MTEXTBEGIN
1070
    73
1070
     1
1070
    44
1040
1.0
1070
    74
1070
     0
1000
MTEXTEND
  0
MTEXT
  5
55CD
330
1A
100
AcDbEntity
  8
SUNPOU
100
AcDbMText
 10
138158.6601392916
 20
134326.8233999467
 30
0.0
 40
10.5
 41
0.0
 71
     9
 72
     5
  1

1001
ACAD
1000
MTEXTBEGIN
1070
    73
1070
     1
1070
    44
1040
1.0
1070
    74
1070
     0
1000
MTEXTEND
  0
MTEXT
  5
55CE
330
1A
100
AcDbEntity
  8
SUNPOU
100
AcDbMText
 10
140102.067386001
 20
132525.7743200686
 30
0.0
 40
3.5
 41
0.0
 71
     9
 72
     5
  1

1001
ACAD
1000
MTEXTBEGIN
1070
    73
1070
     1
1070
    44
1040
1.0
1070
    74
1070
     0
1000
MTEXTEND
  0
MTEXT
  5
55CF
330
1A
100
AcDbEntity
  8
SUNPOU
100
AcDbMText
 10
88598.92784508721
 20
80159.98855492179
 30
0.0
 40
10.5
 41
0.0
 71
     9
 72
     5
  1

1001
ACAD
1000
MTEXTBEGIN
1070
    73
1070
     1
1070
    44
1040
1.0
1070
    74
1070
     0
1000
MTEXTEND
  0
MTEXT
  5
55D0
330
1A
100
AcDbEntity
  8
SUNPOU
100
AcDbMText
 10
74650.92774471121
 20
60987.5894158096
 30
0.0
 40
3.5
 41
0.0
 71
     7
 72
     5
  1

1001
ACAD
1000
MTEXTBEGIN
1070
    73
1070
     1
1070
    44
1040
1.0
1070
    74
1070
     0
1000
MTEXTEND
  0
MTEXT
  5
55D1
330
1A
100
AcDbEntity
  8
SUNPOU
100
AcDbMText
 10
55636.09714170436
 20
48749.73814662781
 30
0.0
 40
10.5
 41
0.0
 71
     7
 72
     5
  1

1001
ACAD
1000
MTEXTBEGIN
1070
    73
1070
     1
1070
    44
1040
1.0
1070
    74
1070
     0
1000
MTEXTEND
  0
MTEXT
  5
55D2
330
1A
100
AcDbEntity
  8
SUNPOU
100
AcDbMText
 10
43178.86887675626
 20
32904.80656852938
 30
0.0
 40
35.0
 41
0.0
 71
     9
 72
     5
  1

1001
ACAD
1000
MTEXTBEGIN
1070
    73
1070
     1
1070
    44
1040
1.0
1070
    74
1070
     0
1000
MTEXTEND
  0
MTEXT
  5
55D3
330
1A
100
AcDbEntity
  8
SUNPOU
100
AcDbMText
 10
42087.35393433121
 20
33513.58197857809
 30
0.0
 40
350.0000004171781
 41
0.0
 71
     7
 72
     5
  1

1001
ACAD
1000
MTEXTBEGIN
1070
    73
1070
     1
1070
    44
1040
1.0
1070
    74
1070
     0
1000
MTEXTEND
  0
MTEXT
  5
55D4
330
1A
100
AcDbEntity
  8
0
100
AcDbMText
 10
48131.30469227412
 20
31493.50434071431
 30
0.0
 40
8.0
 41
0.0
 71
     7
 72
     5
  1

1001
ACAD
1000
MTEXTBEGIN
1070
    73
1070
     1
1070
    44
1040
1.0
1070
    74
1070
     0
1000
MTEXTEND
  0
MTEXT
  5
55D5
330
1A
100
AcDbEntity
  8
0
100
AcDbMText
 10
50416.66238216901
 20
32464.29463546537
 30
0.0
 40
8.0
 41
0.0
 71
     7
 72
     5
  1

1001
ACAD
1000
MTEXTBEGIN
1070
    73
1070
     1
1070
    44
1040
1.0
1070
    74
1070
     0
1000
MTEXTEND
  0
MTEXT
  5
55D6
330
1A
100
AcDbEntity
  8
SUNPOU
100
AcDbMText
 10
53082.55940285115
 20
41976.4060278405
 30
0.0
 40
10.5
 41
0.0
 71
     1
 72
     5
  1

1001
ACAD
1000
MTEXTBEGIN
1070
    73
1070
     1
1070
    44
1040
1.0
1070
    74
1070
     0
1000
MTEXTEND
  0
MTEXT
  5
55D7
330
1A
100
AcDbEntity
  8
SUNPOU
100
AcDbMText
 10
45151.63620691522
 20
41029.61289392755
 30
0.0
 40
10.5
 41
0.0
 71
     7
 72
     5
  1

1001
ACAD
1000
MTEXTBEGIN
1070
    73
1070
     1
1070
    44
1040
1.0
1070
    74
1070
     0
1000
MTEXTEND
  0
MTEXT
  5
55D8
330
1A
100
AcDbEntity
  8
SUNPOU
100
AcDbMText
 10
48100.61987142798
 20
45930.28896577039
 30
0.0
 40
10.5
 41
0.0
 71
     7
 72
     5
  1

1001
ACAD
1000
MTEXTBEGIN
1070
    73
1070
     1
1070
    44
1040
1.0
1070
    74
1070
     0
1000
MTEXTEND
  0
MTEXT
  5
55D9
330
1A
100
AcDbEntity
  8
SUNPOU
100
AcDbMText
 10
52609.69799937854
 20
48366.58971339046
 30
0.0
 40
10.5
 41
0.0
 71
     7
 72
     5
  1

1001
ACAD
1000
MTEXTBEGIN
1070
    73
1070
     1
1070
    44
1040
1.0
1070
    74
1070
     0
1000
MTEXTEND
  0
MTEXT
  5
55DA
330
1A
100
AcDbEntity
  8
SUNPOU
100
AcDbMText
 10
36210.53588614687
 20
27364.18586377937
 30
0.0
 40
10.5
 41
0.0
 71
     7
 72
     5
  1

1001
ACAD
1000
MTEXTBEGIN
1070
    73
1070
     1
1070
    44
1040
1.0
1070
    74
1070
     0
1000
MTEXTEND
  0
MTEXT
  5
55DB
330
1A
100
AcDbEntity
  8
SUNPOU
100
AcDbMText
 10
38021.29879752181
 20
33691.59985125794
 30
0.0
 40
10.5
 41
0.0
 71
     9
 72
     5
  1

1001
ACAD
1000
MTEXTBEGIN
1070
    73
1070
     1
1070
    44
1040
1.0
1070
    74
1070
     0
1000
MTEXTEND
  0
MTEXT
  5
55DC
330
1A
100
AcDbEntity
  8
SUNPOU
100
AcDbMText
 10
46743.46636343979
 20
41107.43438279541
 30
0.0
 40
10.5
 41
0.0
 71
     9
 72
     5
  1

1001
ACAD
1000
MTEXTBEGIN
1070
    73
1070
     1
1070
    44
1040
1.0
1070
    74
1070
     0
1000
MTEXTEND
  0
MTEXT
  5
55DD
330
1A
100
AcDbEntity
  8
SUNPOU
100
AcDbMText
 10
65697.22508076975
 20
58574.01043528746
 30
0.0
 40
10.5
 41
0.0
 71
     9
 72
     5
  1

1001
ACAD
1000
MTEXTBEGIN
1070
    73
1070
     1
1070
    44
1040
1.0
1070
    74
1070
     0
1000
MTEXTEND
  0
MTEXT
  5
55DE
330
1A
100
AcDbEntity
  8
SUNPOU
100
AcDbMText
 10
67640.63232747917
 20
56772.96135540945
 30
0.0
 40
3.5
 41
0.0
 71
     9
 72
     5
  1

1001
ACAD
1000
MTEXTBEGIN
1070
    73
1070
     1
1070
    44
1040
1.0
1070
    74
1070
     0
1000
MTEXTEND
  0
MTEXT
  5
55DF
330
1A
100
AcDbEntity
  8
SUNPOU
100
AcDbMText
 10
98766.81216009888
 20
99267.9070230668
 30
0.0
 40
10.5
 41
0.0
 71
     9
 72
     5
  1

1001
ACAD
1000
MTEXTBEGIN
1070
    73
1070
     1
1070
    44
1040
1.0
1070
    74
1070
     0
1000
MTEXTEND
  0
MTEXT
  5
55E0
330
1A
100
AcDbEntity
  8
SUNPOU
100
AcDbMText
 10
100710.2194068083
 20
97466.85794318878
 30
0.0
 40
3.5
 41
0.0
 71
     9
 72
     5
  1

1001
ACAD
1000
MTEXTBEGIN
1070
    73
1070
     1
1070
    44
1040
1.0
1070
    74
1070
     0
1000
MTEXTEND
  0
MTEXT
  5
55E1
330
1A
100
AcDbEntity
  8
SUNPOU
100
AcDbMText
 10
49207.07986589444
 20
45101.07217804185
 30
0.0
 40
10.5
 41
0.0
 71
     9
 72
     5
  1

1001
ACAD
1000
MTEXTBEGIN
1070
    73
1070
     1
1070
    44
1040
1.0
1070
    74
1070
     0
1000
MTEXTEND
  0
MTEXT
  5
55E2
330
1A
100
AcDbEntity
  8
SUNPOU
100
AcDbMText
 10
35259.07976551845
 20
25928.67303892964
 30
0.0
 40
3.5
 41
0.0
 71
     7
 72
     5
  1

1001
ACAD
1000
MTEXTBEGIN
1070
    73
1070
     1
1070
    44
1040
1.0
1070
    74
1070
     0
1000
MTEXTEND
  0
MTEXT
  5
55E3
330
1A
100
AcDbEntity
  8
SUNPOU
100
AcDbMText
 10
48951.43044828905
 20
35287.73625995099
 30
0.0
 40
10.5
 41
0.0
 71
     9
 72
     5
  1

1001
ACAD
1000
MTEXTBEGIN
1070
    73
1070
     1
1070
    44
1040
1.0
1070
    74
1070
     0
1000
MTEXTEND
  0
MTEXT
  5
55E4
330
1A
100
AcDbEntity
  8
SUNPOU
100
AcDbMText
 10
57673.59801420702
 20
42703.57079148847
 30
0.0
 40
10.5
 41
0.0
 71
     9
 72
     5
  1

1001
ACAD
1000
MTEXTBEGIN
1070
    73
1070
     1
1070
    44
1040
1.0
1070
    74
1070
     0
1000
MTEXTEND
  0
MTEXT
  5
55E5
330
1A
100
AcDbEntity
  8
SUNPOU
100
AcDbMText
 10
76627.35673153699
 20
60170.14684398051
 30
0.0
 40
10.5
 41
0.0
 71
     9
 72
     5
  1

1001
ACAD
1000
MTEXTBEGIN
1070
    73
1070
     1
1070
    44
1040
1.0
1070
    74
1070
     0
1000
MTEXTEND
  0
MTEXT
  5
55E6
330
1A
100
AcDbEntity
  8
SUNPOU
100
AcDbMText
 10
78570.76397824641
 20
58369.09776410251
 30
0.0
 40
3.5
 41
0.0
 71
     9
 72
     5
  1

1001
ACAD
1000
MTEXTBEGIN
1070
    73
1070
     1
1070
    44
1040
1.0
1070
    74
1070
     0
1000
MTEXTEND
  0
MTEXT
  5
55E7
330
1A
100
AcDbEntity
  8
SUNPOU
100
AcDbMText
 10
109696.9438108661
 20
100864.0434317598
 30
0.0
 40
10.5
 41
0.0
 71
     9
 72
     5
  1

1001
ACAD
1000
MTEXTBEGIN
1070
    73
1070
     1
1070
    44
1040
1.0
1070
    74
1070
     0
1000
MTEXTEND
  0
MTEXT
  5
55E8
330
1A
100
AcDbEntity
  8
SUNPOU
100
AcDbMText
 10
111640.3510575755
 20
99062.99435188183
 30
0.0
 40
3.5
 41
0.0
 71
     9
 72
     5
  1

1001
ACAD
1000
MTEXTBEGIN
1070
    73
1070
     1
1070
    44
1040
1.0
1070
    74
1070
     0
1000
MTEXTEND
  0
MTEXT
  5
55E9
330
1A
100
AcDbEntity
  8
SUNPOU
100
AcDbMText
 10
60137.21151666167
 20
46697.20858673491
 30
0.0
 40
10.5
 41
0.0
 71
     9
 72
     5
  1

1001
ACAD
1000
MTEXTBEGIN
1070
    73
1070
     1
1070
    44
1040
1.0
1070
    74
1070
     0
1000
MTEXTEND
  0
MTEXT
  5
55EA
330
1A
100
AcDbEntity
  8
SUNPOU
100
AcDbMText
 10
46189.21141628568
 20
27524.80944762269
 30
0.0
 40
3.5
 41
0.0
 71
     7
 72
     5
  1

1001
ACAD
1000
MTEXTBEGIN
1070
    73
1070
     1
1070
    44
1040
1.0
1070
    74
1070
     0
1000
MTEXTEND
  0
MTEXT
  5
55EB
330
1A
100
AcDbEntity
  8
SUNPOU
100
AcDbMText
 10
45007.68847015541
 20
38269.57947701874
 30
0.0
 40
10.5
 41
0.0
 71
     9
 72
     5
  1

1001
ACAD
1000
MTEXTBEGIN
1070
    73
1070
     1
1070
    44
1040
1.0
1070
    74
1070
     0
1000
MTEXTEND
  0
MTEXT
  5
55EC
330
1A
100
AcDbEntity
  8
SUNPOU
100
AcDbMText
 10
63961.44718748539
 20
55736.15552951081
 30
0.0
 40
10.5
 41
0.0
 71
     9
 72
     5
  1

1001
ACAD
1000
MTEXTBEGIN
1070
    73
1070
     1
1070
    44
1040
1.0
1070
    74
1070
     0
1000
MTEXTEND
  0
MTEXT
  5
55ED
330
1A
100
AcDbEntity
  8
SUNPOU
100
AcDbMText
 10
65904.85443419479
 20
53935.10644963279
 30
0.0
 40
3.5
 41
0.0
 71
     9
 72
     5
  1

1001
ACAD
1000
MTEXTBEGIN
1070
    73
1070
     1
1070
    44
1040
1.0
1070
    74
1070
     0
1000
MTEXTEND
  0
MTEXT
  5
55EE
330
1A
100
AcDbEntity
  8
SUNPOU
100
AcDbMText
 10
97031.03426681451
 20
96430.05211729015
 30
0.0
 40
10.5
 41
0.0
 71
     9
 72
     5
  1

1001
ACAD
1000
MTEXTBEGIN
1070
    73
1070
     1
1070
    44
1040
1.0
1070
    74
1070
     0
1000
MTEXTEND
  0
MTEXT
  5
55EF
330
1A
100
AcDbEntity
  8
SUNPOU
100
AcDbMText
 10
98974.44151352393
 20
94629.00303741212
 30
0.0
 40
3.5
 41
0.0
 71
     9
 72
     5
  1

1001
ACAD
1000
MTEXTBEGIN
1070
    73
1070
     1
1070
    44
1040
1.0
1070
    74
1070
     0
1000
MTEXTEND
  0
MTEXT
  5
55F0
330
1A
100
AcDbEntity
  8
SUNPOU
100
AcDbMText
 10
47471.30197261006
 20
42263.21727226519
 30
0.0
 40
10.5
 41
0.0
 71
     9
 72
     5
  1

1001
ACAD
1000
MTEXTBEGIN
1070
    73
1070
     1
1070
    44
1040
1.0
1070
    74
1070
     0
1000
MTEXTEND
  0
MTEXT
  5
55F1
330
1A
100
AcDbEntity
  8
SUNPOU
100
AcDbMText
 10
33523.30187223408
 20
23090.81813315298
 30
0.0
 40
3.5
 41
0.0
 71
     7
 72
     5
  1

1001
ACAD
1000
MTEXTBEGIN
1070
    73
1070
     1
1070
    44
1040
1.0
1070
    74
1070
     0
1000
MTEXTEND
  0
MTEXT
  5
55F2
330
1A
100
AcDbEntity
  8
SUNPOU
100
AcDbMText
 10
57959.46254102503
 20
50038.08111611015
 30
0.0
 40
10.5
 41
0.0
 71
     9
 72
     5
  1

1001
ACAD
1000
MTEXTBEGIN
1070
    73
1070
     1
1070
    44
1040
1.0
1070
    74
1070
     0
1000
MTEXTEND
  0
MTEXT
  5
55F3
330
1A
100
AcDbEntity
  8
SUNPOU
100
AcDbMText
 10
76913.22125835503
 20
67504.65716860222
 30
0.0
 40
10.5
 41
0.0
 71
     9
 72
     5
  1

1001
ACAD
1000
MTEXTBEGIN
1070
    73
1070
     1
1070
    44
1040
1.0
1070
    74
1070
     0
1000
MTEXTEND
  0
MTEXT
  5
55F4
330
1A
100
AcDbEntity
  8
SUNPOU
100
AcDbMText
 10
78856.62850506443
 20
65703.6080887242
 30
0.0
 40
3.5
 41
0.0
 71
     9
 72
     5
  1

1001
ACAD
1000
MTEXTBEGIN
1070
    73
1070
     1
1070
    44
1040
1.0
1070
    74
1070
     0
1000
MTEXTEND
  0
MTEXT
  5
55F5
330
1A
100
AcDbEntity
  8
SUNPOU
100
AcDbMText
 10
109982.8083376841
 20
108198.5537563815
 30
0.0
 40
10.5
 41
0.0
 71
     9
 72
     5
  1

1001
ACAD
1000
MTEXTBEGIN
1070
    73
1070
     1
1070
    44
1040
1.0
1070
    74
1070
     0
1000
MTEXTEND
  0
MTEXT
  5
55F6
330
1A
100
AcDbEntity
  8
SUNPOU
100
AcDbMText
 10
111926.2155843935
 20
106397.5046765035
 30
0.0
 40
3.5
 41
0.0
 71
     9
 72
     5
  1

1001
ACAD
1000
MTEXTBEGIN
1070
    73
1070
     1
1070
    44
1040
1.0
1070
    74
1070
     0
1000
MTEXTEND
  0
MTEXT
  5
55F7
330
1A
100
AcDbEntity
  8
SUNPOU
100
AcDbMText
 10
60423.07604347968
 20
54031.71891135659
 30
0.0
 40
10.5
 41
0.0
 71
     9
 72
     5
  1

1001
ACAD
1000
MTEXTBEGIN
1070
    73
1070
     1
1070
    44
1040
1.0
1070
    74
1070
     0
1000
MTEXTEND
  0
MTEXT
  5
55F8
330
1A
100
AcDbEntity
  8
SUNPOU
100
AcDbMText
 10
46475.07594310369
 20
34859.3197722444
 30
0.0
 40
3.5
 41
0.0
 71
     7
 72
     5
  1

1001
ACAD
1000
MTEXTBEGIN
1070
    73
1070
     1
1070
    44
1040
1.0
1070
    74
1070
     0
1000
MTEXTEND
  0
MTEXT
  5
55F9
330
1A
100
AcDbEntity
  8
SUNPOU
100
AcDbMText
 10
74027.35402123588
 20
68370.58278833383
 30
0.0
 40
10.5
 41
0.0
 71
     9
 72
     5
  1

1001
ACAD
1000
MTEXTBEGIN
1070
    73
1070
     1
1070
    44
1040
1.0
1070
    74
1070
     0
1000
MTEXTEND
  0
MTEXT
  5
55FA
330
1A
100
AcDbEntity
  8
SUNPOU
100
AcDbMText
 10
75970.7612679453
 20
66569.53370845583
 30
0.0
 40
3.5
 41
0.0
 71
     9
 72
     5
  1

1001
ACAD
1000
MTEXTBEGIN
1070
    73
1070
     1
1070
    44
1040
1.0
1070
    74
1070
     0
1000
MTEXTEND
  0
MTEXT
  5
55FB
330
1A
100
AcDbEntity
  8
SUNPOU
100
AcDbMText
 10
107096.941100565
 20
109064.4793761132
 30
0.0
 40
10.5
 41
0.0
 71
     9
 72
     5
  1

1001
ACAD
1000
MTEXTBEGIN
1070
    73
1070
     1
1070
    44
1040
1.0
1070
    74
1070
     0
1000
MTEXTEND
  0
MTEXT
  5
55FC
330
1A
100
AcDbEntity
  8
SUNPOU
100
AcDbMText
 10
109040.3483472744
 20
107263.4302962351
 30
0.0
 40
3.5
 41
0.0
 71
     9
 72
     5
  1

1001
ACAD
1000
MTEXTBEGIN
1070
    73
1070
     1
1070
    44
1040
1.0
1070
    74
1070
     0
1000
MTEXTEND
  0
MTEXT
  5
55FD
330
1A
100
AcDbEntity
  8
SUNPOU
100
AcDbMText
 10
105709.1709283621
 20
108141.3777665285
 30
0.0
 40
10.5
 41
0.0
 71
     9
 72
     5
  1

1001
ACAD
1000
MTEXTBEGIN
1070
    73
1070
     1
1070
    44
1040
1.0
1070
    74
1070
     0
1000
MTEXTEND
  0
MTEXT
  5
55FE
330
1A
100
AcDbEntity
  8
SUNPOU
100
AcDbMText
 10
107652.5781750715
 20
106340.3286866505
 30
0.0
 40
3.5
 41
0.0
 71
     9
 72
     5
  1

1001
ACAD
1000
MTEXTBEGIN
1070
    73
1070
     1
1070
    44
1040
1.0
1070
    74
1070
     0
1000
MTEXTEND
  0
MTEXT
  5
55FF
330
1A
100
AcDbEntity
  8
SUNPOU
100
AcDbMText
 10
73193.09268743351
 20
66158.78082845056
 30
0.0
 40
10.5
 41
0.0
 71
     9
 72
     5
  1

1001
ACAD
1000
MTEXTBEGIN
1070
    73
1070
     1
1070
    44
1040
1.0
1070
    74
1070
     0
1000
MTEXTEND
  0
MTEXT
  5
5600
330
1A
100
AcDbEntity
  8
SUNPOU
100
AcDbMText
 10
75916.39889159806
 20
66563.46252003162
 30
0.0
 40
3.5
 41
0.0
 71
     9
 72
     5
  1

1001
ACAD
1000
MTEXTBEGIN
1070
    73
1070
     1
1070
    44
1040
1.0
1070
    74
1070
     0
1000
MTEXTEND
  0
MTEXT
  5
5601
330
1A
100
AcDbEntity
  8
SUNPOU
100
AcDbMText
 10
75124.04436649058
 20
63402.1566819768
 30
0.0
 40
10.5
 41
0.0
 71
     9
 72
     5
  1

1001
ACAD
1000
MTEXTBEGIN
1070
    73
1070
     1
1070
    44
1040
1.0
1070
    74
1070
     0
1000
MTEXTEND
  0
MTEXT
  5
5602
330
1A
100
AcDbEntity
  8
SUNPOU
100
AcDbMText
 10
77067.4516132
 20
61601.1076020988
 30
0.0
 40
3.5
 41
0.0
 71
     9
 72
     5
  1

1001
ACAD
1000
MTEXTBEGIN
1070
    73
1070
     1
1070
    44
1040
1.0
1070
    74
1070
     0
1000
MTEXTEND
  0
MTEXT
  5
5603
330
1A
100
AcDbEntity
  8
SUNPOU
100
AcDbMText
 10
77012.54710378659
 20
61488.33571981449
 30
0.0
 40
3.5
 41
0.0
 71
     9
 72
     5
  1

1001
ACAD
1000
MTEXTBEGIN
1070
    73
1070
     1
1070
    44
1040
1.0
1070
    74
1070
     0
1000
MTEXTEND
  0
MTEXT
  5
5604
330
1A
100
AcDbEntity
  8
SUNPOU
100
AcDbMText
 10
76376.61896736668
 20
60677.01447874797
 30
0.0
 40
3.5
 41
0.0
 71
     9
 72
     5
  1

1001
ACAD
1000
MTEXTBEGIN
1070
    73
1070
     1
1070
    44
1040
1.0
1070
    74
1070
     0
1000
MTEXTEND
  0
MTEXT
  5
5605
330
1A
100
AcDbEntity
  8
SUNPOU
100
AcDbMText
 10
76375.37854794595
 20
60676.76650181047
 30
0.0
 40
10.5
 41
0.0
 71
     9
 72
     5
  1

1001
ACAD
1000
MTEXTBEGIN
1070
    73
1070
     1
1070
    44
1040
1.0
1070
    74
1070
     0
1000
MTEXTEND
  0
MTEXT
  5
5606
330
1A
100
AcDbEntity
  8
SUNPOU
100
AcDbMText
 10
84709.93991079748
 20
78034.0328293557
 30
0.0
 40
10.5
 41
0.0
 71
     9
 72
     5
  1

1001
ACAD
1000
MTEXTBEGIN
1070
    73
1070
     1
1070
    44
1040
1.0
1070
    74
1070
     0
1000
MTEXTEND
  0
MTEXT
  5
5607
330
1A
100
AcDbEntity
  8
SUNPOU
100
AcDbMText
 10
93432.10747671548
 20
85449.86736089315
 30
0.0
 40
10.5
 41
0.0
 71
     9
 72
     5
  1

1001
ACAD
1000
MTEXTBEGIN
1070
    73
1070
     1
1070
    44
1040
1.0
1070
    74
1070
     0
1000
MTEXTEND
  0
MTEXT
  5
5608
330
1A
100
AcDbEntity
  8
SUNPOU
100
AcDbMText
 10
112385.8661940454
 20
102916.4434133851
 30
0.0
 40
10.5
 41
0.0
 71
     9
 72
     5
  1

1001
ACAD
1000
MTEXTBEGIN
1070
    73
1070
     1
1070
    44
1040
1.0
1070
    74
1070
     0
1000
MTEXTEND
  0
MTEXT
  5
5609
330
1A
100
AcDbEntity
  8
SUNPOU
100
AcDbMText
 10
114329.2734407548
 20
101115.3943335072
 30
0.0
 40
3.5
 41
0.0
 71
     9
 72
     5
  1

1001
ACAD
1000
MTEXTBEGIN
1070
    73
1070
     1
1070
    44
1040
1.0
1070
    74
1070
     0
1000
MTEXTEND
  0
MTEXT
  5
560A
330
1A
100
AcDbEntity
  8
SUNPOU
100
AcDbMText
 10
145455.4532733745
 20
143610.3400011645
 30
0.0
 40
10.5
 41
0.0
 71
     9
 72
     5
  1

1001
ACAD
1000
MTEXTBEGIN
1070
    73
1070
     1
1070
    44
1040
1.0
1070
    74
1070
     0
1000
MTEXTEND
  0
MTEXT
  5
560B
330
1A
100
AcDbEntity
  8
SUNPOU
100
AcDbMText
 10
147398.8605200839
 20
141809.2909212864
 30
0.0
 40
3.5
 41
0.0
 71
     9
 72
     5
  1

1001
ACAD
1000
MTEXTBEGIN
1070
    73
1070
     1
1070
    44
1040
1.0
1070
    74
1070
     0
1000
MTEXTEND
  0
MTEXT
  5
560C
330
1A
100
AcDbEntity
  8
SUNPOU
100
AcDbMText
 10
95895.72097917013
 20
89443.5051561396
 30
0.0
 40
10.5
 41
0.0
 71
     9
 72
     5
  1

1001
ACAD
1000
MTEXTBEGIN
1070
    73
1070
     1
1070
    44
1040
1.0
1070
    74
1070
     0
1000
MTEXTEND
  0
MTEXT
  5
560D
330
1A
100
AcDbEntity
  8
SUNPOU
100
AcDbMText
 10
81947.72087879414
 20
70271.1060170274
 30
0.0
 40
3.5
 41
0.0
 71
     7
 72
     5
  1

1001
ACAD
1000
MTEXTBEGIN
1070
    73
1070
     1
1070
    44
1040
1.0
1070
    74
1070
     0
1000
MTEXTEND
  0
MTEXT
  5
560E
330
1A
100
AcDbEntity
  8
SUNPOU
100
AcDbMText
 10
62932.89027578729
 20
58033.25474784561
 30
0.0
 40
10.5
 41
0.0
 71
     7
 72
     5
  1

1001
ACAD
1000
MTEXTBEGIN
1070
    73
1070
     1
1070
    44
1040
1.0
1070
    74
1070
     0
1000
MTEXTEND
  0
MTEXT
  5
560F
330
1A
100
AcDbEntity
  8
SUNPOU
100
AcDbMText
 10
50475.66201083918
 20
42188.32316974719
 30
0.0
 40
35.0
 41
0.0
 71
     9
 72
     5
  1

1001
ACAD
1000
MTEXTBEGIN
1070
    73
1070
     1
1070
    44
1040
1.0
1070
    74
1070
     0
1000
MTEXTEND
  0
MTEXT
  5
5610
330
1A
100
AcDbEntity
  8
SUNPOU
100
AcDbMText
 10
49384.14706841413
 20
42797.0985797959
 30
0.0
 40
350.0000004171781
 41
0.0
 71
     7
 72
     5
  1

1001
ACAD
1000
MTEXTBEGIN
1070
    73
1070
     1
1070
    44
1040
1.0
1070
    74
1070
     0
1000
MTEXTEND
  0
MTEXT
  5
5611
330
1A
100
AcDbEntity
  8
0
100
AcDbMText
 10
55428.09782635704
 20
40777.02094193211
 30
0.0
 40
8.0
 41
0.0
 71
     7
 72
     5
  1

1001
ACAD
1000
MTEXTBEGIN
1070
    73
1070
     1
1070
    44
1040
1.0
1070
    74
1070
     0
1000
MTEXTEND
  0
MTEXT
  5
5612
330
1A
100
AcDbEntity
  8
0
100
AcDbMText
 10
57713.45551625194
 20
41747.81123668317
 30
0.0
 40
8.0
 41
0.0
 71
     7
 72
     5
  1

1001
ACAD
1000
MTEXTBEGIN
1070
    73
1070
     1
1070
    44
1040
1.0
1070
    74
1070
     0
1000
MTEXTEND
  0
MTEXT
  5
5613
330
1A
100
AcDbEntity
  8
SUNPOU
100
AcDbMText
 10
60379.35253693408
 20
51259.9226290583
 30
0.0
 40
10.5
 41
0.0
 71
     1
 72
     5
  1

1001
ACAD
1000
MTEXTBEGIN
1070
    73
1070
     1
1070
    44
1040
1.0
1070
    74
1070
     0
1000
MTEXTEND
  0
MTEXT
  5
5614
330
1A
100
AcDbEntity
  8
SUNPOU
100
AcDbMText
 10
52448.42934099814
 20
50313.12949514535
 30
0.0
 40
10.5
 41
0.0
 71
     7
 72
     5
  1

1001
ACAD
1000
MTEXTBEGIN
1070
    73
1070
     1
1070
    44
1040
1.0
1070
    74
1070
     0
1000
MTEXTEND
  0
MTEXT
  5
5615
330
1A
100
AcDbEntity
  8
SUNPOU
100
AcDbMText
 10
55397.41300551091
 20
55213.80556698819
 30
0.0
 40
10.5
 41
0.0
 71
     7
 72
     5
  1

1001
ACAD
1000
MTEXTBEGIN
1070
    73
1070
     1
1070
    44
1040
1.0
1070
    74
1070
     0
1000
MTEXTEND
  0
MTEXT
  5
5616
330
1A
100
AcDbEntity
  8
SUNPOU
100
AcDbMText
 10
59906.49113346147
 20
57650.10631460826
 30
0.0
 40
10.5
 41
0.0
 71
     7
 72
     5
  1

1001
ACAD
1000
MTEXTBEGIN
1070
    73
1070
     1
1070
    44
1040
1.0
1070
    74
1070
     0
1000
MTEXTEND
  0
MTEXT
  5
5617
330
1A
100
AcDbEntity
  8
SUNPOU
100
AcDbMText
 10
43507.32902022979
 20
36647.70246499718
 30
0.0
 40
10.5
 41
0.0
 71
     7
 72
     5
  1

1001
ACAD
1000
MTEXTBEGIN
1070
    73
1070
     1
1070
    44
1040
1.0
1070
    74
1070
     0
1000
MTEXTEND
  0
MTEXT
  5
5618
330
1A
100
AcDbEntity
  8
SUNPOU
100
AcDbMText
 10
94698.84745413006
 20
82320.68302864542
 30
0.0
 40
10.5
 41
0.0
 71
     9
 72
     5
  1

1001
ACAD
1000
MTEXTBEGIN
1070
    73
1070
     1
1070
    44
1040
1.0
1070
    74
1070
     0
1000
MTEXTEND
  0
MTEXT
  5
5619
330
1A
100
AcDbEntity
  8
SUNPOU
100
AcDbMText
 10
103421.015020048
 20
89736.5175601829
 30
0.0
 40
10.5
 41
0.0
 71
     9
 72
     5
  1

1001
ACAD
1000
MTEXTBEGIN
1070
    73
1070
     1
1070
    44
1040
1.0
1070
    74
1070
     0
1000
MTEXTEND
  0
MTEXT
  5
561A
330
1A
100
AcDbEntity
  8
SUNPOU
100
AcDbMText
 10
122374.773737378
 20
107203.0936126749
 30
0.0
 40
10.5
 41
0.0
 71
     9
 72
     5
  1

1001
ACAD
1000
MTEXTBEGIN
1070
    73
1070
     1
1070
    44
1040
1.0
1070
    74
1070
     0
1000
MTEXTEND
  0
MTEXT
  5
561B
330
1A
100
AcDbEntity
  8
SUNPOU
100
AcDbMText
 10
124318.1809840874
 20
105402.0445327969
 30
0.0
 40
3.5
 41
0.0
 71
     9
 72
     5
  1

1001
ACAD
1000
MTEXTBEGIN
1070
    73
1070
     1
1070
    44
1040
1.0
1070
    74
1070
     0
1000
MTEXTEND
  0
MTEXT
  5
561C
330
1A
100
AcDbEntity
  8
SUNPOU
100
AcDbMText
 10
155444.3608167071
 20
147896.9902004542
 30
0.0
 40
10.5
 41
0.0
 71
     9
 72
     5
  1

1001
ACAD
1000
MTEXTBEGIN
1070
    73
1070
     1
1070
    44
1040
1.0
1070
    74
1070
     0
1000
MTEXTEND
  0
MTEXT
  5
561D
330
1A
100
AcDbEntity
  8
SUNPOU
100
AcDbMText
 10
157387.7680634165
 20
146095.9411205762
 30
0.0
 40
3.5
 41
0.0
 71
     9
 72
     5
  1

1001
ACAD
1000
MTEXTBEGIN
1070
    73
1070
     1
1070
    44
1040
1.0
1070
    74
1070
     0
1000
MTEXTEND
  0
MTEXT
  5
561E
330
1A
100
AcDbEntity
  8
SUNPOU
100
AcDbMText
 10
105884.6285225027
 20
93730.15535542933
 30
0.0
 40
10.5
 41
0.0
 71
     9
 72
     5
  1

1001
ACAD
1000
MTEXTBEGIN
1070
    73
1070
     1
1070
    44
1040
1.0
1070
    74
1070
     0
1000
MTEXTEND
  0
MTEXT
  5
561F
330
1A
100
AcDbEntity
  8
SUNPOU
100
AcDbMText
 10
91936.6284221267
 20
74557.75621631714
 30
0.0
 40
3.5
 41
0.0
 71
     7
 72
     5
  1

1001
ACAD
1000
MTEXTBEGIN
1070
    73
1070
     1
1070
    44
1040
1.0
1070
    74
1070
     0
1000
MTEXTEND
  0
MTEXT
  5
5620
330
1A
100
AcDbEntity
  8
SUNPOU
100
AcDbMText
 10
72921.79781911986
 20
62319.90494713533
 30
0.0
 40
10.5
 41
0.0
 71
     7
 72
     5
  1

1001
ACAD
1000
MTEXTBEGIN
1070
    73
1070
     1
1070
    44
1040
1.0
1070
    74
1070
     0
1000
MTEXTEND
  0
MTEXT
  5
5621
330
1A
100
AcDbEntity
  8
SUNPOU
100
AcDbMText
 10
60464.56955417175
 20
46474.97336903692
 30
0.0
 40
35.0
 41
0.0
 71
     9
 72
     5
  1

1001
ACAD
1000
MTEXTBEGIN
1070
    73
1070
     1
1070
    44
1040
1.0
1070
    74
1070
     0
1000
MTEXTEND
  0
MTEXT
  5
5622
330
1A
100
AcDbEntity
  8
SUNPOU
100
AcDbMText
 10
59373.05461174672
 20
47083.74877908562
 30
0.0
 40
350.0000004171781
 41
0.0
 71
     7
 72
     5
  1

1001
ACAD
1000
MTEXTBEGIN
1070
    73
1070
     1
1070
    44
1040
1.0
1070
    74
1070
     0
1000
MTEXTEND
  0
MTEXT
  5
5623
330
1A
100
AcDbEntity
  8
0
100
AcDbMText
 10
65417.00536968962
 20
45063.67114122186
 30
0.0
 40
8.0
 41
0.0
 71
     7
 72
     5
  1

1001
ACAD
1000
MTEXTBEGIN
1070
    73
1070
     1
1070
    44
1040
1.0
1070
    74
1070
     0
1000
MTEXTEND
  0
MTEXT
  5
5624
330
1A
100
AcDbEntity
  8
0
100
AcDbMText
 10
67702.36305958452
 20
46034.46143597292
 30
0.0
 40
8.0
 41
0.0
 71
     7
 72
     5
  1

1001
ACAD
1000
MTEXTBEGIN
1070
    73
1070
     1
1070
    44
1040
1.0
1070
    74
1070
     0
1000
MTEXTEND
  0
MTEXT
  5
5625
330
1A
100
AcDbEntity
  8
SUNPOU
100
AcDbMText
 10
70368.26008026666
 20
55546.57282834803
 30
0.0
 40
10.5
 41
0.0
 71
     1
 72
     5
  1

1001
ACAD
1000
MTEXTBEGIN
1070
    73
1070
     1
1070
    44
1040
1.0
1070
    74
1070
     0
1000
MTEXTEND
  0
MTEXT
  5
5626
330
1A
100
AcDbEntity
  8
SUNPOU
100
AcDbMText
 10
62437.33688433072
 20
54599.77969443508
 30
0.0
 40
10.5
 41
0.0
 71
     7
 72
     5
  1

1001
ACAD
1000
MTEXTBEGIN
1070
    73
1070
     1
1070
    44
1040
1.0
1070
    74
1070
     0
1000
MTEXTEND
  0
MTEXT
  5
5627
330
1A
100
AcDbEntity
  8
SUNPOU
100
AcDbMText
 10
65386.32054884349
 20
59500.45576627792
 30
0.0
 40
10.5
 41
0.0
 71
     7
 72
     5
  1

1001
ACAD
1000
MTEXTBEGIN
1070
    73
1070
     1
1070
    44
1040
1.0
1070
    74
1070
     0
1000
MTEXTEND
  0
MTEXT
  5
5628
330
1A
100
AcDbEntity
  8
SUNPOU
100
AcDbMText
 10
69895.39867679405
 20
61936.756513898
 30
0.0
 40
10.5
 41
0.0
 71
     7
 72
     5
  1

1001
ACAD
1000
MTEXTBEGIN
1070
    73
1070
     1
1070
    44
1040
1.0
1070
    74
1070
     0
1000
MTEXTEND
  0
MTEXT
  5
5629
330
1A
100
AcDbEntity
  8
SUNPOU
100
AcDbMText
 10
53496.23656356237
 20
40934.35266428691
 30
0.0
 40
10.5
 41
0.0
 71
     7
 72
     5
  1

1001
ACAD
1000
MTEXTBEGIN
1070
    73
1070
     1
1070
    44
1040
1.0
1070
    74
1070
     0
1000
MTEXTEND
  0
MTEXT
  5
562A
330
1A
100
AcDbEntity
  8
SUNPOU
100
AcDbMText
 10
55306.99947493731
 20
47261.76665176547
 30
0.0
 40
10.5
 41
0.0
 71
     9
 72
     5
  1

1001
ACAD
1000
MTEXTBEGIN
1070
    73
1070
     1
1070
    44
1040
1.0
1070
    74
1070
     0
1000
MTEXTEND
  0
MTEXT
  5
562B
330
1A
100
AcDbEntity
  8
SUNPOU
100
AcDbMText
 10
64029.16704085528
 20
54677.60118330295
 30
0.0
 40
10.5
 41
0.0
 71
     9
 72
     5
  1

1001
ACAD
1000
MTEXTBEGIN
1070
    73
1070
     1
1070
    44
1040
1.0
1070
    74
1070
     0
1000
MTEXTEND
  0
MTEXT
  5
562C
330
1A
100
AcDbEntity
  8
SUNPOU
100
AcDbMText
 10
82982.92575818527
 20
72144.17723579499
 30
0.0
 40
10.5
 41
0.0
 71
     9
 72
     5
  1

1001
ACAD
1000
MTEXTBEGIN
1070
    73
1070
     1
1070
    44
1040
1.0
1070
    74
1070
     0
1000
MTEXTEND
  0
MTEXT
  5
562D
330
1A
100
AcDbEntity
  8
SUNPOU
100
AcDbMText
 10
84926.33300489467
 20
70343.12815591698
 30
0.0
 40
3.5
 41
0.0
 71
     9
 72
     5
  1

1001
ACAD
1000
MTEXTBEGIN
1070
    73
1070
     1
1070
    44
1040
1.0
1070
    74
1070
     0
1000
MTEXTEND
  0
MTEXT
  5
562E
330
1A
100
AcDbEntity
  8
SUNPOU
100
AcDbMText
 10
116052.5128375143
 20
112838.0738235743
 30
0.0
 40
10.5
 41
0.0
 71
     9
 72
     5
  1

1001
ACAD
1000
MTEXTBEGIN
1070
    73
1070
     1
1070
    44
1040
1.0
1070
    74
1070
     0
1000
MTEXTEND
  0
MTEXT
  5
562F
330
1A
100
AcDbEntity
  8
SUNPOU
100
AcDbMText
 10
117995.9200842238
 20
111037.0247436963
 30
0.0
 40
3.5
 41
0.0
 71
     9
 72
     5
  1

1001
ACAD
1000
MTEXTBEGIN
1070
    73
1070
     1
1070
    44
1040
1.0
1070
    74
1070
     0
1000
MTEXTEND
  0
MTEXT
  5
5630
330
1A
100
AcDbEntity
  8
SUNPOU
100
AcDbMText
 10
66492.78054330994
 20
58671.23897854939
 30
0.0
 40
10.5
 41
0.0
 71
     9
 72
     5
  1

1001
ACAD
1000
MTEXTBEGIN
1070
    73
1070
     1
1070
    44
1040
1.0
1070
    74
1070
     0
1000
MTEXTEND
  0
MTEXT
  5
5631
330
1A
100
AcDbEntity
  8
SUNPOU
100
AcDbMText
 10
52544.78044293396
 20
39498.83983943717
 30
0.0
 40
3.5
 41
0.0
 71
     7
 72
     5
  1

1001
ACAD
1000
MTEXTBEGIN
1070
    73
1070
     1
1070
    44
1040
1.0
1070
    74
1070
     0
1000
MTEXTEND
  0
MTEXT
  5
5632
330
1A
100
AcDbEntity
  8
SUNPOU
100
AcDbMText
 10
66237.13112570454
 20
48857.90306045851
 30
0.0
 40
10.5
 41
0.0
 71
     9
 72
     5
  1

1001
ACAD
1000
MTEXTBEGIN
1070
    73
1070
     1
1070
    44
1040
1.0
1070
    74
1070
     0
1000
MTEXTEND
  0
MTEXT
  5
5633
330
1A
100
AcDbEntity
  8
SUNPOU
100
AcDbMText
 10
74959.29869162252
 20
56273.737591996
 30
0.0
 40
10.5
 41
0.0
 71
     9
 72
     5
  1

1001
ACAD
1000
MTEXTBEGIN
1070
    73
1070
     1
1070
    44
1040
1.0
1070
    74
1070
     0
1000
MTEXTEND
  0
MTEXT
  5
5634
330
1A
100
AcDbEntity
  8
SUNPOU
100
AcDbMText
 10
93913.0574089525
 20
73740.31364448805
 30
0.0
 40
10.5
 41
0.0
 71
     9
 72
     5
  1

1001
ACAD
1000
MTEXTBEGIN
1070
    73
1070
     1
1070
    44
1040
1.0
1070
    74
1070
     0
1000
MTEXTEND
  0
MTEXT
  5
5635
330
1A
100
AcDbEntity
  8
SUNPOU
100
AcDbMText
 10
95856.46465566192
 20
71939.26456461004
 30
0.0
 40
3.5
 41
0.0
 71
     9
 72
     5
  1

1001
ACAD
1000
MTEXTBEGIN
1070
    73
1070
     1
1070
    44
1040
1.0
1070
    74
1070
     0
1000
MTEXTEND
  0
MTEXT
  5
5636
330
1A
100
AcDbEntity
  8
SUNPOU
100
AcDbMText
 10
126982.6444882816
 20
114434.2102322673
 30
0.0
 40
10.5
 41
0.0
 71
     9
 72
     5
  1

1001
ACAD
1000
MTEXTBEGIN
1070
    73
1070
     1
1070
    44
1040
1.0
1070
    74
1070
     0
1000
MTEXTEND
  0
MTEXT
  5
5637
330
1A
100
AcDbEntity
  8
SUNPOU
100
AcDbMText
 10
128926.051734991
 20
112633.1611523893
 30
0.0
 40
3.5
 41
0.0
 71
     9
 72
     5
  1

1001
ACAD
1000
MTEXTBEGIN
1070
    73
1070
     1
1070
    44
1040
1.0
1070
    74
1070
     0
1000
MTEXTEND
  0
MTEXT
  5
5638
330
1A
100
AcDbEntity
  8
SUNPOU
100
AcDbMText
 10
77422.91219407717
 20
60267.37538724244
 30
0.0
 40
10.5
 41
0.0
 71
     9
 72
     5
  1

1001
ACAD
1000
MTEXTBEGIN
1070
    73
1070
     1
1070
    44
1040
1.0
1070
    74
1070
     0
1000
MTEXTEND
  0
MTEXT
  5
5639
330
1A
100
AcDbEntity
  8
SUNPOU
100
AcDbMText
 10
63474.91209370119
 20
41094.97624813023
 30
0.0
 40
3.5
 41
0.0
 71
     7
 72
     5
  1

1001
ACAD
1000
MTEXTBEGIN
1070
    73
1070
     1
1070
    44
1040
1.0
1070
    74
1070
     0
1000
MTEXTEND
  0
MTEXT
  5
563A
330
1A
100
AcDbEntity
  8
SUNPOU
100
AcDbMText
 10
48117.65086229006
 20
40806.11043916631
 30
0.0
 40
10.5
 41
0.0
 71
     9
 72
     5
  1

1001
ACAD
1000
MTEXTBEGIN
1070
    73
1070
     1
1070
    44
1040
1.0
1070
    74
1070
     0
1000
MTEXTEND
  0
MTEXT
  5
563B
330
1A
100
AcDbEntity
  8
SUNPOU
100
AcDbMText
 10
67071.40957962004
 20
58272.68649165837
 30
0.0
 40
10.5
 41
0.0
 71
     9
 72
     5
  1

1001
ACAD
1000
MTEXTBEGIN
1070
    73
1070
     1
1070
    44
1040
1.0
1070
    74
1070
     0
1000
MTEXTEND
  0
MTEXT
  5
563C
330
1A
100
AcDbEntity
  8
SUNPOU
100
AcDbMText
 10
69014.81682632945
 20
56471.63741178035
 30
0.0
 40
3.5
 41
0.0
 71
     9
 72
     5
  1

1001
ACAD
1000
MTEXTBEGIN
1070
    73
1070
     1
1070
    44
1040
1.0
1070
    74
1070
     0
1000
MTEXTEND
  0
MTEXT
  5
563D
330
1A
100
AcDbEntity
  8
SUNPOU
100
AcDbMText
 10
100140.9966589491
 20
98966.58307943772
 30
0.0
 40
10.5
 41
0.0
 71
     9
 72
     5
  1

1001
ACAD
1000
MTEXTBEGIN
1070
    73
1070
     1
1070
    44
1040
1.0
1070
    74
1070
     0
1000
MTEXTEND
  0
MTEXT
  5
563E
330
1A
100
AcDbEntity
  8
SUNPOU
100
AcDbMText
 10
102084.4039056586
 20
97165.53399955969
 30
0.0
 40
3.5
 41
0.0
 71
     9
 72
     5
  1

1001
ACAD
1000
MTEXTBEGIN
1070
    73
1070
     1
1070
    44
1040
1.0
1070
    74
1070
     0
1000
MTEXTEND
  0
MTEXT
  5
563F
330
1A
100
AcDbEntity
  8
SUNPOU
100
AcDbMText
 10
50581.26436474472
 20
44799.74823441275
 30
0.0
 40
10.5
 41
0.0
 71
     9
 72
     5
  1

1001
ACAD
1000
MTEXTBEGIN
1070
    73
1070
     1
1070
    44
1040
1.0
1070
    74
1070
     0
1000
MTEXTEND
  0
MTEXT
  5
5640
330
1A
100
AcDbEntity
  8
SUNPOU
100
AcDbMText
 10
36633.26426436873
 20
25627.34909530054
 30
0.0
 40
3.5
 41
0.0
 71
     7
 72
     5
  1

1001
ACAD
1000
MTEXTBEGIN
1070
    73
1070
     1
1070
    44
1040
1.0
1070
    74
1070
     0
1000
MTEXTEND
  0
MTEXT
  5
5641
330
1A
100
AcDbEntity
  8
SUNPOU
100
AcDbMText
 10
61069.42493315968
 20
52574.61207825771
 30
0.0
 40
10.5
 41
0.0
 71
     9
 72
     5
  1

1001
ACAD
1000
MTEXTBEGIN
1070
    73
1070
     1
1070
    44
1040
1.0
1070
    74
1070
     0
1000
MTEXTEND
  0
MTEXT
  5
5642
330
1A
100
AcDbEntity
  8
SUNPOU
100
AcDbMText
 10
80023.18365048967
 20
70041.18813074978
 30
0.0
 40
10.5
 41
0.0
 71
     9
 72
     5
  1

1001
ACAD
1000
MTEXTBEGIN
1070
    73
1070
     1
1070
    44
1040
1.0
1070
    74
1070
     0
1000
MTEXTEND
  0
MTEXT
  5
5643
330
1A
100
AcDbEntity
  8
SUNPOU
100
AcDbMText
 10
81966.59089719908
 20
68240.13905087176
 30
0.0
 40
3.5
 41
0.0
 71
     9
 72
     5
  1

1001
ACAD
1000
MTEXTBEGIN
1070
    73
1070
     1
1070
    44
1040
1.0
1070
    74
1070
     0
1000
MTEXTEND
  0
MTEXT
  5
5644
330
1A
100
AcDbEntity
  8
SUNPOU
100
AcDbMText
 10
113092.7707298187
 20
110735.0847185291
 30
0.0
 40
10.5
 41
0.0
 71
     9
 72
     5
  1

1001
ACAD
1000
MTEXTBEGIN
1070
    73
1070
     1
1070
    44
1040
1.0
1070
    74
1070
     0
1000
MTEXTEND
  0
MTEXT
  5
5645
330
1A
100
AcDbEntity
  8
SUNPOU
100
AcDbMText
 10
115036.1779765282
 20
108934.0356386511
 30
0.0
 40
3.5
 41
0.0
 71
     9
 72
     5
  1

1001
ACAD
1000
MTEXTBEGIN
1070
    73
1070
     1
1070
    44
1040
1.0
1070
    74
1070
     0
1000
MTEXTEND
  0
MTEXT
  5
5646
330
1A
100
AcDbEntity
  8
SUNPOU
100
AcDbMText
 10
63533.03843561433
 20
56568.24987350415
 30
0.0
 40
10.5
 41
0.0
 71
     9
 72
     5
  1

1001
ACAD
1000
MTEXTBEGIN
1070
    73
1070
     1
1070
    44
1040
1.0
1070
    74
1070
     0
1000
MTEXTEND
  0
MTEXT
  5
5647
330
1A
100
AcDbEntity
  8
SUNPOU
100
AcDbMText
 10
49585.03833523835
 20
37395.85073439196
 30
0.0
 40
3.5
 41
0.0
 71
     7
 72
     5
  1

1001
ACAD
1000
MTEXTBEGIN
1070
    73
1070
     1
1070
    44
1040
1.0
1070
    74
1070
     0
1000
MTEXTEND
  0
MTEXT
  5
5648
330
1A
100
AcDbEntity
  8
SUNPOU
100
AcDbMText
 10
77137.31641337052
 20
70907.11375048141
 30
0.0
 40
10.5
 41
0.0
 71
     9
 72
     5
  1

1001
ACAD
1000
MTEXTBEGIN
1070
    73
1070
     1
1070
    44
1040
1.0
1070
    74
1070
     0
1000
MTEXTEND
  0
MTEXT
  5
5649
330
1A
100
AcDbEntity
  8
SUNPOU
100
AcDbMText
 10
79080.72366007995
 20
69106.06467060339
 30
0.0
 40
3.5
 41
0.0
 71
     9
 72
     5
  1

1001
ACAD
1000
MTEXTBEGIN
1070
    73
1070
     1
1070
    44
1040
1.0
1070
    74
1070
     0
1000
MTEXTEND
  0
MTEXT
  5
564A
330
1A
100
AcDbEntity
  8
SUNPOU
100
AcDbMText
 10
110206.9034926996
 20
111601.0103382607
 30
0.0
 40
10.5
 41
0.0
 71
     9
 72
     5
  1

1001
ACAD
1000
MTEXTBEGIN
1070
    73
1070
     1
1070
    44
1040
1.0
1070
    74
1070
     0
1000
MTEXTEND
  0
MTEXT
  5
564B
330
1A
100
AcDbEntity
  8
SUNPOU
100
AcDbMText
 10
112150.310739409
 20
109799.9612583827
 30
0.0
 40
3.5
 41
0.0
 71
     9
 72
     5
  1

1001
ACAD
1000
MTEXTBEGIN
1070
    73
1070
     1
1070
    44
1040
1.0
1070
    74
1070
     0
1000
MTEXTEND
  0
MTEXT
  5
564C
330
1A
100
AcDbEntity
  8
SUNPOU
100
AcDbMText
 10
108819.1333204968
 20
110677.9087286761
 30
0.0
 40
10.5
 41
0.0
 71
     9
 72
     5
  1

1001
ACAD
1000
MTEXTBEGIN
1070
    73
1070
     1
1070
    44
1040
1.0
1070
    74
1070
     0
1000
MTEXTEND
  0
MTEXT
  5
564D
330
1A
100
AcDbEntity
  8
SUNPOU
100
AcDbMText
 10
110762.5405672062
 20
108876.8596487981
 30
0.0
 40
3.5
 41
0.0
 71
     9
 72
     5
  1

1001
ACAD
1000
MTEXTBEGIN
1070
    73
1070
     1
1070
    44
1040
1.0
1070
    74
1070
     0
1000
MTEXTEND
  0
MTEXT
  5
564E
330
1A
100
AcDbEntity
  8
SUNPOU
100
AcDbMText
 10
76303.05507956816
 20
68695.31179059812
 30
0.0
 40
10.5
 41
0.0
 71
     9
 72
     5
  1

1001
ACAD
1000
MTEXTBEGIN
1070
    73
1070
     1
1070
    44
1040
1.0
1070
    74
1070
     0
1000
MTEXTEND
  0
MTEXT
  5
564F
330
1A
100
AcDbEntity
  8
SUNPOU
100
AcDbMText
 10
79026.36128373271
 20
69099.99348217918
 30
0.0
 40
3.5
 41
0.0
 71
     9
 72
     5
  1

1001
ACAD
1000
MTEXTBEGIN
1070
    73
1070
     1
1070
    44
1040
1.0
1070
    74
1070
     0
1000
MTEXTEND
  0
MTEXT
  5
5650
330
1A
100
AcDbEntity
  8
SUNPOU
100
AcDbMText
 10
78234.00675862522
 20
65938.68764412436
 30
0.0
 40
10.5
 41
0.0
 71
     9
 72
     5
  1

1001
ACAD
1000
MTEXTBEGIN
1070
    73
1070
     1
1070
    44
1040
1.0
1070
    74
1070
     0
1000
MTEXTEND
  0
MTEXT
  5
5651
330
1A
100
AcDbEntity
  8
SUNPOU
100
AcDbMText
 10
80177.41400533465
 20
64137.63856424636
 30
0.0
 40
3.5
 41
0.0
 71
     9
 72
     5
  1

1001
ACAD
1000
MTEXTBEGIN
1070
    73
1070
     1
1070
    44
1040
1.0
1070
    74
1070
     0
1000
MTEXTEND
  0
MTEXT
  5
5652
330
1A
100
AcDbEntity
  8
SUNPOU
100
AcDbMText
 10
80122.50949592123
 20
64024.86668196205
 30
0.0
 40
3.5
 41
0.0
 71
     9
 72
     5
  1

1001
ACAD
1000
MTEXTBEGIN
1070
    73
1070
     1
1070
    44
1040
1.0
1070
    74
1070
     0
1000
MTEXTEND
  0
MTEXT
  5
5653
330
1A
100
AcDbEntity
  8
SUNPOU
100
AcDbMText
 10
79486.58135950133
 20
63213.54544089553
 30
0.0
 40
3.5
 41
0.0
 71
     9
 72
     5
  1

1001
ACAD
1000
MTEXTBEGIN
1070
    73
1070
     1
1070
    44
1040
1.0
1070
    74
1070
     0
1000
MTEXTEND
  0
MTEXT
  5
5654
330
1A
100
AcDbEntity
  8
SUNPOU
100
AcDbMText
 10
79485.3409400806
 20
63213.29746395804
 30
0.0
 40
10.5
 41
0.0
 71
     9
 72
     5
  1

1001
ACAD
1000
MTEXTBEGIN
1070
    73
1070
     1
1070
    44
1040
1.0
1070
    74
1070
     0
1000
MTEXTEND
  0
MTEXT
  5
5655
330
1A
100
AcDbEntity
  8
SUNPOU
100
AcDbMText
 10
85473.63363627567
 20
80747.76348077064
 30
0.0
 40
10.5
 41
0.0
 71
     9
 72
     5
  1

1001
ACAD
1000
MTEXTBEGIN
1070
    73
1070
     1
1070
    44
1040
1.0
1070
    74
1070
     0
1000
MTEXTEND
  0
MTEXT
  5
5656
330
1A
100
AcDbEntity
  8
SUNPOU
100
AcDbMText
 10
94195.80120219368
 20
88163.59801230809
 30
0.0
 40
10.5
 41
0.0
 71
     9
 72
     5
  1

1001
ACAD
1000
MTEXTBEGIN
1070
    73
1070
     1
1070
    44
1040
1.0
1070
    74
1070
     0
1000
MTEXTEND
  0
MTEXT
  5
5657
330
1A
100
AcDbEntity
  8
SUNPOU
100
AcDbMText
 10
113149.5599195236
 20
105630.1740648001
 30
0.0
 40
10.5
 41
0.0
 71
     9
 72
     5
  1

1001
ACAD
1000
MTEXTBEGIN
1070
    73
1070
     1
1070
    44
1040
1.0
1070
    74
1070
     0
1000
MTEXTEND
  0
MTEXT
  5
5658
330
1A
100
AcDbEntity
  8
SUNPOU
100
AcDbMText
 10
115092.967166233
 20
103829.1249849221
 30
0.0
 40
3.5
 41
0.0
 71
     9
 72
     5
  1

1001
ACAD
1000
MTEXTBEGIN
1070
    73
1070
     1
1070
    44
1040
1.0
1070
    74
1070
     0
1000
MTEXTEND
  0
MTEXT
  5
5659
330
1A
100
AcDbEntity
  8
SUNPOU
100
AcDbMText
 10
146219.1469988527
 20
146324.0706525794
 30
0.0
 40
10.5
 41
0.0
 71
     9
 72
     5
  1

1001
ACAD
1000
MTEXTBEGIN
1070
    73
1070
     1
1070
    44
1040
1.0
1070
    74
1070
     0
1000
MTEXTEND
  0
MTEXT
  5
565A
330
1A
100
AcDbEntity
  8
SUNPOU
100
AcDbMText
 10
148162.5542455621
 20
144523.0215727014
 30
0.0
 40
3.5
 41
0.0
 71
     9
 72
     5
  1

1001
ACAD
1000
MTEXTBEGIN
1070
    73
1070
     1
1070
    44
1040
1.0
1070
    74
1070
     0
1000
MTEXTEND
  0
MTEXT
  5
565B
330
1A
100
AcDbEntity
  8
SUNPOU
100
AcDbMText
 10
96659.41470464833
 20
92157.23580755453
 30
0.0
 40
10.5
 41
0.0
 71
     9
 72
     5
  1

1001
ACAD
1000
MTEXTBEGIN
1070
    73
1070
     1
1070
    44
1040
1.0
1070
    74
1070
     0
1000
MTEXTEND
  0
MTEXT
  5
565C
330
1A
100
AcDbEntity
  8
SUNPOU
100
AcDbMText
 10
82711.41460427234
 20
72984.83666844234
 30
0.0
 40
3.5
 41
0.0
 71
     7
 72
     5
  1

1001
ACAD
1000
MTEXTBEGIN
1070
    73
1070
     1
1070
    44
1040
1.0
1070
    74
1070
     0
1000
MTEXTEND
  0
MTEXT
  5
565D
330
1A
100
AcDbEntity
  8
SUNPOU
100
AcDbMText
 10
63696.58400126548
 20
60746.98539926055
 30
0.0
 40
10.5
 41
0.0
 71
     7
 72
     5
  1

1001
ACAD
1000
MTEXTBEGIN
1070
    73
1070
     1
1070
    44
1040
1.0
1070
    74
1070
     0
1000
MTEXTEND
  0
MTEXT
  5
565E
330
1A
100
AcDbEntity
  8
SUNPOU
100
AcDbMText
 10
51239.35573631738
 20
44902.05382116213
 30
0.0
 40
35.0
 41
0.0
 71
     9
 72
     5
  1

1001
ACAD
1000
MTEXTBEGIN
1070
    73
1070
     1
1070
    44
1040
1.0
1070
    74
1070
     0
1000
MTEXTEND
  0
MTEXT
  5
565F
330
1A
100
AcDbEntity
  8
SUNPOU
100
AcDbMText
 10
50147.84079389233
 20
45510.82923121084
 30
0.0
 40
350.0000004171781
 41
0.0
 71
     7
 72
     5
  1

1001
ACAD
1000
MTEXTBEGIN
1070
    73
1070
     1
1070
    44
1040
1.0
1070
    74
1070
     0
1000
MTEXTEND
  0
MTEXT
  5
5660
330
1A
100
AcDbEntity
  8
0
100
AcDbMText
 10
56191.79155183523
 20
43490.75159334705
 30
0.0
 40
8.0
 41
0.0
 71
     7
 72
     5
  1

1001
ACAD
1000
MTEXTBEGIN
1070
    73
1070
     1
1070
    44
1040
1.0
1070
    74
1070
     0
1000
MTEXTEND
  0
MTEXT
  5
5661
330
1A
100
AcDbEntity
  8
0
100
AcDbMText
 10
58477.14924173013
 20
44461.54188809812
 30
0.0
 40
8.0
 41
0.0
 71
     7
 72
     5
  1

1001
ACAD
1000
MTEXTBEGIN
1070
    73
1070
     1
1070
    44
1040
1.0
1070
    74
1070
     0
1000
MTEXTEND
  0
MTEXT
  5
5662
330
1A
100
AcDbEntity
  8
SUNPOU
100
AcDbMText
 10
61143.04626241227
 20
53973.65328047324
 30
0.0
 40
10.5
 41
0.0
 71
     1
 72
     5
  1

1001
ACAD
1000
MTEXTBEGIN
1070
    73
1070
     1
1070
    44
1040
1.0
1070
    74
1070
     0
1000
MTEXTEND
  0
MTEXT
  5
5663
330
1A
100
AcDbEntity
  8
SUNPOU
100
AcDbMText
 10
53212.12306647634
 20
53026.86014656028
 30
0.0
 40
10.5
 41
0.0
 71
     7
 72
     5
  1

1001
ACAD
1000
MTEXTBEGIN
1070
    73
1070
     1
1070
    44
1040
1.0
1070
    74
1070
     0
1000
MTEXTEND
  0
MTEXT
  5
5664
330
1A
100
AcDbEntity
  8
SUNPOU
100
AcDbMText
 10
56161.1067309891
 20
57927.53621840312
 30
0.0
 40
10.5
 41
0.0
 71
     7
 72
     5
  1

1001
ACAD
1000
MTEXTBEGIN
1070
    73
1070
     1
1070
    44
1040
1.0
1070
    74
1070
     0
1000
MTEXTEND
  0
MTEXT
  5
5665
330
1A
100
AcDbEntity
  8
SUNPOU
100
AcDbMText
 10
60670.18485893966
 20
60363.8369660232
 30
0.0
 40
10.5
 41
0.0
 71
     7
 72
     5
  1

1001
ACAD
1000
MTEXTBEGIN
1070
    73
1070
     1
1070
    44
1040
1.0
1070
    74
1070
     0
1000
MTEXTEND
  0
MTEXT
  5
5666
330
1A
100
AcDbEntity
  8
SUNPOU
100
AcDbMText
 10
44271.02274570799
 20
39361.43311641212
 30
0.0
 40
10.5
 41
0.0
 71
     7
 72
     5
  1

1001
ACAD
1000
MTEXTBEGIN
1070
    73
1070
     1
1070
    44
1040
1.0
1070
    74
1070
     0
1000
MTEXTEND
  0
MTEXT
  5
5667
330
1A
100
AcDbEntity
  8
SUNPOU
100
AcDbMText
 10
95462.54117960824
 20
85034.41368006038
 30
0.0
 40
10.5
 41
0.0
 71
     9
 72
     5
  1

1001
ACAD
1000
MTEXTBEGIN
1070
    73
1070
     1
1070
    44
1040
1.0
1070
    74
1070
     0
1000
MTEXTEND
  0
MTEXT
  5
5668
330
1A
100
AcDbEntity
  8
SUNPOU
100
AcDbMText
 10
104184.7087455262
 20
92450.24821159784
 30
0.0
 40
10.5
 41
0.0
 71
     9
 72
     5
  1

1001
ACAD
1000
MTEXTBEGIN
1070
    73
1070
     1
1070
    44
1040
1.0
1070
    74
1070
     0
1000
MTEXTEND
  0
MTEXT
  5
5669
330
1A
100
AcDbEntity
  8
SUNPOU
100
AcDbMText
 10
123138.4674628562
 20
109916.8242640898
 30
0.0
 40
10.5
 41
0.0
 71
     9
 72
     5
  1

1001
ACAD
1000
MTEXTBEGIN
1070
    73
1070
     1
1070
    44
1040
1.0
1070
    74
1070
     0
1000
MTEXTEND
  0
MTEXT
  5
566A
330
1A
100
AcDbEntity
  8
SUNPOU
100
AcDbMText
 10
125081.8747095656
 20
108115.7751842118
 30
0.0
 40
3.5
 41
0.0
 71
     9
 72
     5
  1

1001
ACAD
1000
MTEXTBEGIN
1070
    73
1070
     1
1070
    44
1040
1.0
1070
    74
1070
     0
1000
MTEXTEND
  0
MTEXT
  5
566B
330
1A
100
AcDbEntity
  8
SUNPOU
100
AcDbMText
 10
156208.0545421853
 20
150610.7208518691
 30
0.0
 40
10.5
 41
0.0
 71
     9
 72
     5
  1

1001
ACAD
1000
MTEXTBEGIN
1070
    73
1070
     1
1070
    44
1040
1.0
1070
    74
1070
     0
1000
MTEXTEND
  0
MTEXT
  5
566C
330
1A
100
AcDbEntity
  8
SUNPOU
100
AcDbMText
 10
158151.4617888947
 20
148809.6717719911
 30
0.0
 40
3.5
 41
0.0
 71
     9
 72
     5
  1

1001
ACAD
1000
MTEXTBEGIN
1070
    73
1070
     1
1070
    44
1040
1.0
1070
    74
1070
     0
1000
MTEXTEND
  0
MTEXT
  5
566D
330
1A
100
AcDbEntity
  8
SUNPOU
100
AcDbMText
 10
106648.3222479809
 20
96443.88600684427
 30
0.0
 40
10.5
 41
0.0
 71
     9
 72
     5
  1

1001
ACAD
1000
MTEXTBEGIN
1070
    73
1070
     1
1070
    44
1040
1.0
1070
    74
1070
     0
1000
MTEXTEND
  0
MTEXT
  5
566E
330
1A
100
AcDbEntity
  8
SUNPOU
100
AcDbMText
 10
92700.3221476049
 20
77271.48686773207
 30
0.0
 40
3.5
 41
0.0
 71
     7
 72
     5
  1

1001
ACAD
1000
MTEXTBEGIN
1070
    73
1070
     1
1070
    44
1040
1.0
1070
    74
1070
     0
1000
MTEXTEND
  0
MTEXT
  5
566F
330
1A
100
AcDbEntity
  8
SUNPOU
100
AcDbMText
 10
73685.49154459806
 20
65033.63559855027
 30
0.0
 40
10.5
 41
0.0
 71
     7
 72
     5
  1

1001
ACAD
1000
MTEXTBEGIN
1070
    73
1070
     1
1070
    44
1040
1.0
1070
    74
1070
     0
1000
MTEXTEND
  0
MTEXT
  5
5670
330
1A
100
AcDbEntity
  8
SUNPOU
100
AcDbMText
 10
61228.26327964995
 20
49188.70402045185
 30
0.0
 40
35.0
 41
0.0
 71
     9
 72
     5
  1

1001
ACAD
1000
MTEXTBEGIN
1070
    73
1070
     1
1070
    44
1040
1.0
1070
    74
1070
     0
1000
MTEXTEND
  0
MTEXT
  5
5671
330
1A
100
AcDbEntity
  8
SUNPOU
100
AcDbMText
 10
60136.74833722491
 20
49797.47943050056
 30
0.0
 40
350.0000004171781
 41
0.0
 71
     7
 72
     5
  1

1001
ACAD
1000
MTEXTBEGIN
1070
    73
1070
     1
1070
    44
1040
1.0
1070
    74
1070
     0
1000
MTEXTEND
  0
MTEXT
  5
5672
330
1A
100
AcDbEntity
  8
0
100
AcDbMText
 10
66180.69909516782
 20
47777.40179263678
 30
0.0
 40
8.0
 41
0.0
 71
     7
 72
     5
  1

1001
ACAD
1000
MTEXTBEGIN
1070
    73
1070
     1
1070
    44
1040
1.0
1070
    74
1070
     0
1000
MTEXTEND
  0
MTEXT
  5
5673
330
1A
100
AcDbEntity
  8
0
100
AcDbMText
 10
68466.05678506271
 20
48748.19208738784
 30
0.0
 40
8.0
 41
0.0
 71
     7
 72
     5
  1

1001
ACAD
1000
MTEXTBEGIN
1070
    73
1070
     1
1070
    44
1040
1.0
1070
    74
1070
     0
1000
MTEXTEND
  0
MTEXT
  5
5674
330
1A
100
AcDbEntity
  8
SUNPOU
100
AcDbMText
 10
71131.95380574485
 20
58260.30347976296
 30
0.0
 40
10.5
 41
0.0
 71
     1
 72
     5
  1

1001
ACAD
1000
MTEXTBEGIN
1070
    73
1070
     1
1070
    44
1040
1.0
1070
    74
1070
     0
1000
MTEXTEND
  0
MTEXT
  5
5675
330
1A
100
AcDbEntity
  8
SUNPOU
100
AcDbMText
 10
63201.03060980891
 20
57313.51034585002
 30
0.0
 40
10.5
 41
0.0
 71
     7
 72
     5
  1

1001
ACAD
1000
MTEXTBEGIN
1070
    73
1070
     1
1070
    44
1040
1.0
1070
    74
1070
     0
1000
MTEXTEND
  0
MTEXT
  5
5676
330
1A
100
AcDbEntity
  8
SUNPOU
100
AcDbMText
 10
66150.01427432169
 20
62214.18641769286
 30
0.0
 40
10.5
 41
0.0
 71
     7
 72
     5
  1

1001
ACAD
1000
MTEXTBEGIN
1070
    73
1070
     1
1070
    44
1040
1.0
1070
    74
1070
     0
1000
MTEXTEND
  0
MTEXT
  5
5677
330
1A
100
AcDbEntity
  8
SUNPOU
100
AcDbMText
 10
70659.09240227225
 20
64650.48716531294
 30
0.0
 40
10.5
 41
0.0
 71
     7
 72
     5
  1

1001
ACAD
1000
MTEXTBEGIN
1070
    73
1070
     1
1070
    44
1040
1.0
1070
    74
1070
     0
1000
MTEXTEND
  0
MTEXT
  5
5678
330
1A
100
AcDbEntity
  8
SUNPOU
100
AcDbMText
 10
54259.93028904056
 20
43648.08331570185
 30
0.0
 40
10.5
 41
0.0
 71
     7
 72
     5
  1

1001
ACAD
1000
MTEXTBEGIN
1070
    73
1070
     1
1070
    44
1040
1.0
1070
    74
1070
     0
1000
MTEXTEND
  0
MTEXT
  5
5679
330
1A
100
AcDbEntity
  8
SUNPOU
100
AcDbMText
 10
56070.69320041551
 20
49975.4973031804
 30
0.0
 40
10.5
 41
0.0
 71
     9
 72
     5
  1

1001
ACAD
1000
MTEXTBEGIN
1070
    73
1070
     1
1070
    44
1040
1.0
1070
    74
1070
     0
1000
MTEXTEND
  0
MTEXT
  5
567A
330
1A
100
AcDbEntity
  8
SUNPOU
100
AcDbMText
 10
64792.86076633348
 20
57391.33183471788
 30
0.0
 40
10.5
 41
0.0
 71
     9
 72
     5
  1

1001
ACAD
1000
MTEXTBEGIN
1070
    73
1070
     1
1070
    44
1040
1.0
1070
    74
1070
     0
1000
MTEXTEND
  0
MTEXT
  5
567B
330
1A
100
AcDbEntity
  8
SUNPOU
100
AcDbMText
 10
83746.61948366345
 20
74857.90788720994
 30
0.0
 40
10.5
 41
0.0
 71
     9
 72
     5
  1

1001
ACAD
1000
MTEXTBEGIN
1070
    73
1070
     1
1070
    44
1040
1.0
1070
    74
1070
     0
1000
MTEXTEND
  0
MTEXT
  5
567C
330
1A
100
AcDbEntity
  8
SUNPOU
100
AcDbMText
 10
85690.02673037287
 20
73056.85880733192
 30
0.0
 40
3.5
 41
0.0
 71
     9
 72
     5
  1

1001
ACAD
1000
MTEXTBEGIN
1070
    73
1070
     1
1070
    44
1040
1.0
1070
    74
1070
     0
1000
MTEXTEND
  0
MTEXT
  5
567D
330
1A
100
AcDbEntity
  8
SUNPOU
100
AcDbMText
 10
116816.2065629925
 20
115551.8044749892
 30
0.0
 40
10.5
 41
0.0
 71
     9
 72
     5
  1

1001
ACAD
1000
MTEXTBEGIN
1070
    73
1070
     1
1070
    44
1040
1.0
1070
    74
1070
     0
1000
MTEXTEND
  0
MTEXT
  5
567E
330
1A
100
AcDbEntity
  8
SUNPOU
100
AcDbMText
 10
118759.613809702
 20
113750.7553951112
 30
0.0
 40
3.5
 41
0.0
 71
     9
 72
     5
  1

1001
ACAD
1000
MTEXTBEGIN
1070
    73
1070
     1
1070
    44
1040
1.0
1070
    74
1070
     0
1000
MTEXTEND
  0
MTEXT
  5
567F
330
1A
100
AcDbEntity
  8
SUNPOU
100
AcDbMText
 10
67256.47426878814
 20
61384.96962996432
 30
0.0
 40
10.5
 41
0.0
 71
     9
 72
     5
  1

1001
ACAD
1000
MTEXTBEGIN
1070
    73
1070
     1
1070
    44
1040
1.0
1070
    74
1070
     0
1000
MTEXTEND
  0
MTEXT
  5
5680
330
1A
100
AcDbEntity
  8
SUNPOU
100
AcDbMText
 10
53308.47416841216
 20
42212.57049085211
 30
0.0
 40
3.5
 41
0.0
 71
     7
 72
     5
  1

1001
ACAD
1000
MTEXTBEGIN
1070
    73
1070
     1
1070
    44
1040
1.0
1070
    74
1070
     0
1000
MTEXTEND
  0
MTEXT
  5
5681
330
1A
100
AcDbEntity
  8
SUNPOU
100
AcDbMText
 10
67000.82485118274
 20
51571.63371187345
 30
0.0
 40
10.5
 41
0.0
 71
     9
 72
     5
  1

1001
ACAD
1000
MTEXTBEGIN
1070
    73
1070
     1
1070
    44
1040
1.0
1070
    74
1070
     0
1000
MTEXTEND
  0
MTEXT
  5
5682
330
1A
100
AcDbEntity
  8
SUNPOU
100
AcDbMText
 10
75722.99241710071
 20
58987.46824341094
 30
0.0
 40
10.5
 41
0.0
 71
     9
 72
     5
  1

1001
ACAD
1000
MTEXTBEGIN
1070
    73
1070
     1
1070
    44
1040
1.0
1070
    74
1070
     0
1000
MTEXTEND
  0
MTEXT
  5
5683
330
1A
100
AcDbEntity
  8
SUNPOU
100
AcDbMText
 10
94676.75113443068
 20
76454.04429590299
 30
0.0
 40
10.5
 41
0.0
 71
     9
 72
     5
  1

1001
ACAD
1000
MTEXTBEGIN
1070
    73
1070
     1
1070
    44
1040
1.0
1070
    74
1070
     0
1000
MTEXTEND
  0
MTEXT
  5
5684
330
1A
100
AcDbEntity
  8
SUNPOU
100
AcDbMText
 10
96620.1583811401
 20
74652.99521602498
 30
0.0
 40
3.5
 41
0.0
 71
     9
 72
     5
  1

1001
ACAD
1000
MTEXTBEGIN
1070
    73
1070
     1
1070
    44
1040
1.0
1070
    74
1070
     0
1000
MTEXTEND
  0
MTEXT
  5
5685
330
1A
100
AcDbEntity
  8
SUNPOU
100
AcDbMText
 10
127746.3382137598
 20
117147.9408836823
 30
0.0
 40
10.5
 41
0.0
 71
     9
 72
     5
  1

1001
ACAD
1000
MTEXTBEGIN
1070
    73
1070
     1
1070
    44
1040
1.0
1070
    74
1070
     0
1000
MTEXTEND
  0
MTEXT
  5
5686
330
1A
100
AcDbEntity
  8
SUNPOU
100
AcDbMText
 10
129689.7454604692
 20
115346.8918038043
 30
0.0
 40
3.5
 41
0.0
 71
     9
 72
     5
  1

1001
ACAD
1000
MTEXTBEGIN
1070
    73
1070
     1
1070
    44
1040
1.0
1070
    74
1070
     0
1000
MTEXTEND
  0
MTEXT
  5
5687
330
1A
100
AcDbEntity
  8
SUNPOU
100
AcDbMText
 10
78186.60591955537
 20
62981.10603865738
 30
0.0
 40
10.5
 41
0.0
 71
     9
 72
     5
  1

1001
ACAD
1000
MTEXTBEGIN
1070
    73
1070
     1
1070
    44
1040
1.0
1070
    74
1070
     0
1000
MTEXTEND
  0
MTEXT
  5
5688
330
1A
100
AcDbEntity
  8
SUNPOU
100
AcDbMText
 10
64238.60581917939
 20
43808.70689954517
 30
0.0
 40
3.5
 41
0.0
 71
     7
 72
     5
  1

1001
ACAD
1000
MTEXTBEGIN
1070
    73
1070
     1
1070
    44
1040
1.0
1070
    74
1070
     0
1000
MTEXTEND
  0
MTEXT
  5
5689
330
1A
100
AcDbEntity
  8
SUNPOU
100
AcDbMText
 10
33428.13481137435
 20
32770.04710035564
 30
0.0
 40
10.5
 41
0.0
 71
     9
 72
     5
  1

1001
ACAD
1000
MTEXTBEGIN
1070
    73
1070
     1
1070
    44
1040
1.0
1070
    74
1070
     0
1000
MTEXTEND
  0
MTEXT
  5
568A
330
1A
100
AcDbEntity
  8
SUNPOU
100
AcDbMText
 10
52381.89352870432
 20
50236.62315284769
 30
0.0
 40
10.5
 41
0.0
 71
     9
 72
     5
  1

1001
ACAD
1000
MTEXTBEGIN
1070
    73
1070
     1
1070
    44
1040
1.0
1070
    74
1070
     0
1000
MTEXTEND
  0
MTEXT
  5
568B
330
1A
100
AcDbEntity
  8
SUNPOU
100
AcDbMText
 10
54325.30077541374
 20
48435.57407296968
 30
0.0
 40
3.5
 41
0.0
 71
     9
 72
     5
  1

1001
ACAD
1000
MTEXTBEGIN
1070
    73
1070
     1
1070
    44
1040
1.0
1070
    74
1070
     0
1000
MTEXTEND
  0
MTEXT
  5
568C
330
1A
100
AcDbEntity
  8
SUNPOU
100
AcDbMText
 10
85451.48060803343
 20
90930.51974062703
 30
0.0
 40
10.5
 41
0.0
 71
     9
 72
     5
  1

1001
ACAD
1000
MTEXTBEGIN
1070
    73
1070
     1
1070
    44
1040
1.0
1070
    74
1070
     0
1000
MTEXTEND
  0
MTEXT
  5
568D
330
1A
100
AcDbEntity
  8
SUNPOU
100
AcDbMText
 10
87394.88785474286
 20
89129.47066074901
 30
0.0
 40
3.5
 41
0.0
 71
     9
 72
     5
  1

1001
ACAD
1000
MTEXTBEGIN
1070
    73
1070
     1
1070
    44
1040
1.0
1070
    74
1070
     0
1000
MTEXTEND
  0
MTEXT
  5
568E
330
1A
100
AcDbEntity
  8
SUNPOU
100
AcDbMText
 10
35891.74831382901
 20
36763.68489560208
 30
0.0
 40
10.5
 41
0.0
 71
     9
 72
     5
  1

1001
ACAD
1000
MTEXTBEGIN
1070
    73
1070
     1
1070
    44
1040
1.0
1070
    74
1070
     0
1000
MTEXTEND
  0
MTEXT
  5
568F
330
1A
100
AcDbEntity
  8
SUNPOU
100
AcDbMText
 10
21943.74821345303
 20
17591.28575648986
 30
0.0
 40
3.5
 41
0.0
 71
     7
 72
     5
  1

1001
ACAD
1000
MTEXTBEGIN
1070
    73
1070
     1
1070
    44
1040
1.0
1070
    74
1070
     0
1000
MTEXTEND
  0
DIMENSION
  5
15AA2
330
1A
100
AcDbEntity
  8
SUNPOU
100
AcDbDimension
  2
*D33
 10
-1681.964988679129
 20
1795.99064011378
 30
0.0
 11
-1626.964988679128
 21
1798.74064011378
 31
0.0
 70
    32
  3
標準スタイル
100
AcDbAlignedDimension
 13
-1571.964988679128
 23
1814.610506697176
 33
0.0
 14
-1681.964988679129
 24
1801.610506697176
 34
0.0
100
AcDbRotatedDimension
1001
ACAD
1000
DSTYLE
1002
{
1070
   340
1005
10
1070
    40
1040
1.0
1002
}
  0
LWPOLYLINE
  5
15AA3
330
1A
100
AcDbEntity
  8
ZISSEN1
100
AcDbPolyline
 90
        4
 70
     1
 43
0.0
 10
-1681.964988679129
 20
1816.610506697176
 10
-1582.004988679128
 20
1816.610506697176
 10
-1582.004988679128
 20
1801.610506697176
 10
-1681.964988679129
 20
1801.610506697176
  0
LINE
  5
15AA4
330
1A
100
AcDbEntity
  8
ZISSEN1
100
AcDbLine
 10
-1567.964988679128
 20
1912.610506697176
 30
0.0
 11
-1747.964988679129
 21
1912.610506697176
 31
0.0
  0
LINE
  5
15AA5
330
1A
100
AcDbEntity
  8
ZISSEN1
100
AcDbLine
 10
-1747.964988679129
 20
1816.610506697176
 30
0.0
 11
-1567.964988679128
 21
1816.610506697176
 31
0.0
  0
LINE
  5
15AA6
330
1A
100
AcDbEntity
  8
ZISSEN1
100
AcDbLine
 10
-1571.964988679128
 20
1749.610506697176
 30
0.0
 11
-1681.964988679129
 21
1749.610506697176
 31
0.0
  0
LINE
  5
15AA7
330
1A
100
AcDbEntity
  8
ZISSEN1
100
AcDbLine
 10
-1681.964988679129
 20
1759.610506697176
 30
0.0
 11
-1571.964988679128
 21
1759.610506697176
 31
0.0
  0
DIMENSION
  5
15AA8
330
1A
100
AcDbEntity
  8
SUNPOU
100
AcDbDimension
  2
*D34
 10
-1567.964988679128
 20
1729.574408720764
 30
0.0
 11
-1657.847097465387
 21
1729.574408720764
 31
0.0
 70
   160
  3
標準スタイル
100
AcDbAlignedDimension
 13
-1747.964988679129
 23
1746.610506697176
 33
0.0
 14
-1567.964988679128
 24
1746.610506697176
 34
0.0
100
AcDbRotatedDimension
1001
ACAD
1000
DSTYLE
1002
{
1070
   340
1005
10
1070
    40
1040
1.0
1002
}
  0
DIMENSION
  5
15AA9
330
1A
100
AcDbEntity
  8
SUNPOU
100
AcDbDimension
  2
*D35
 10
-1558.964988679128
 20
1703.951820637685
 30
0.0
 11
-1657.964988900346
 21
1706.701820637685
 31
0.0
 70
    32
  3
標準スタイル
100
AcDbAlignedDimension
 13
-1756.964989121564
 23
1747.610506697176
 33
0.0
 14
-1558.964988679128
 24
1747.610506697176
 34
0.0
100
AcDbRotatedDimension
1001
ACAD
1000
DSTYLE
1002
{
1070
   340
1005
10
1070
    40
1040
1.0
1002
}
  0
DIMENSION
  5
15AAA
330
1A
100
AcDbEntity
  8
SUNPOU
100
AcDbDimension
  2
*D36
 10
-1562.964988679128
 20
1717.821468276493
 30
0.0
 11
-1656.671450206366
 21
1717.821468276493
 31
0.0
 70
   160
  3
標準スタイル
100
AcDbAlignedDimension
 13
-1752.964988679128
 23
1758.360506697176
 33
0.0
 14
-1562.964988679128
 24
1758.360506697176
 34
0.0
100
AcDbRotatedDimension
1001
ACAD
1000
DSTYLE
1002
{
1070
   340
1005
10
1070
    40
1040
1.0
1002
}
  0
LINE
  5
15AAB
330
1A
100
AcDbEntity
  8
ZISSEN1
100
AcDbLine
 10
-1567.964988679128
 20
1746.610506697176
 30
0.0
 11
-1747.964988679129
 21
1746.610506697176
 31
0.0
  0
LINE
  5
15AAC
330
1A
100
AcDbEntity
  8
ZISSEN1
100
AcDbLine
 10
-1747.964988679129
 20
1776.610506697176
 30
0.0
 11
-1567.964988679128
 21
1776.610506697176
 31
0.0
  0
LINE
  5
15AAD
330
1A
100
AcDbEntity
  8
ZISSEN1
100
AcDbLine
 10
-1747.964988679129
 20
1912.610506697176
 30
0.0
 11
-1747.964988679129
 21
1816.610506697176
 31
0.0
  0
LINE
  5
15AAE
330
1A
100
AcDbEntity
  8
ZISSEN1
100
AcDbLine
 10
-1756.964989121564
 20
1775.610506697176
 30
0.0
 11
-1756.964989121564
 21
1763.860506697175
 31
0.0
  0
LINE
  5
15AAF
330
1A
100
AcDbEntity
  8
ZISSEN1
100
AcDbLine
 10
-1747.964988679129
 20
1746.610506697176
 30
0.0
 11
-1747.964988679129
 21
1776.610506697176
 31
0.0
  0
LINE
  5
15AB0
330
1A
100
AcDbEntity
  8
ZISSEN1
100
AcDbLine
 10
-1756.964989121564
 20
1747.610506697176
 30
0.0
 11
-1756.964989121564
 21
1759.360506697176
 31
0.0
  0
LINE
  5
15AB1
330
1A
100
AcDbEntity
  8
ZISSEN1
100
AcDbLine
 10
-1755.964988679128
 20
1746.610506697176
 30
0.0
 11
-1747.964988679129
 21
1746.610506697176
 31
0.0
  0
LINE
  5
15AB2
330
1A
100
AcDbEntity
  8
ZISSEN1
100
AcDbLine
 10
-1756.964989121564
 20
1747.610506697176
 30
0.0
 11
-1755.964988679128
 21
1746.610506697176
 31
0.0
  0
LINE
  5
15AB3
330
1A
100
AcDbEntity
  8
ZISSEN1
100
AcDbLine
 10
-1751.964989121564
 20
1763.860506697175
 30
0.0
 11
-1756.964989121564
 21
1763.860506697175
 31
0.0
  0
LINE
  5
15AB4
330
1A
100
AcDbEntity
  8
ZISSEN1
100
AcDbLine
 10
-1751.964989121564
 20
1759.360506697176
 30
0.0
 11
-1756.964989121564
 21
1759.360506697176
 31
0.0
  0
LINE
  5
15AB5
330
1A
100
AcDbEntity
  8
CL1
100
AcDbLine
 10
-1749.464988679128
 20
1761.610506697176
 30
0.0
 11
-1755.464988679128
 21
1761.610506697176
 31
0.0
  0
LINE
  5
15AB6
330
1A
100
AcDbEntity
  8
CL1
100
AcDbLine
 10
-1752.964988679128
 20
1764.860506697176
 30
0.0
 11
-1752.964988679128
 21
1758.360506697176
 31
0.0
  0
ARC
  5
15AB7
330
1A
100
AcDbEntity
  8
ZISSEN1
100
AcDbCircle
 10
-1751.964989121564
 20
1761.360506697176
 30
0.0
 40
2.0
100
AcDbArc
 50
270.0
 51
0.0
  0
ARC
  5
15AB8
330
1A
100
AcDbEntity
  8
ZISSEN1
100
AcDbCircle
 10
-1751.964989121564
 20
1761.860506697176
 30
0.0
 40
2.0
100
AcDbArc
 50
0.0
 51
90.0
  0
LINE
  5
15AB9
330
1A
100
AcDbEntity
  8
ZISSEN1
100
AcDbLine
 10
-1749.964989121564
 20
1761.860506697176
 30
0.0
 11
-1749.964989121564
 21
1761.360506697176
 31
0.0
  0
LINE
  5
15ABA
330
1A
100
AcDbEntity
  8
ZISSEN1
100
AcDbLine
 10
-1755.964988679128
 20
1776.610506697176
 30
0.0
 11
-1747.964988679129
 21
1776.610506697176
 31
0.0
  0
LINE
  5
15ABB
330
1A
100
AcDbEntity
  8
ZISSEN1
100
AcDbLine
 10
-1756.964989121564
 20
1775.610506697176
 30
0.0
 11
-1755.964988679128
 21
1776.610506697176
 31
0.0
  0
ARC
  5
15ABC
330
1A
100
AcDbEntity
  8
ZISSEN1
100
AcDbCircle
 10
-1749.964988679129
 20
1848.610506697175
 30
0.0
 40
2.0
100
AcDbArc
 50
180.0
 51
270.0
  0
LINE
  5
15ABD
330
1A
100
AcDbEntity
  8
ZISSEN1
100
AcDbLine
 10
-1747.964988679129
 20
1846.610506697176
 30
0.0
 11
-1749.964988679129
 21
1846.610506697176
 31
0.0
  0
ARC
  5
15ABE
330
1A
100
AcDbEntity
  8
ZISSEN1
100
AcDbCircle
 10
-1749.964988679129
 20
1850.610506697176
 30
0.0
 40
2.0
100
AcDbArc
 50
90.0
 51
180.0
  0
LINE
  5
15ABF
330
1A
100
AcDbEntity
  8
ZISSEN1
100
AcDbLine
 10
-1749.964988679129
 20
1852.610506697176
 30
0.0
 11
-1747.964988679129
 21
1852.610506697176
 31
0.0
  0
LINE
  5
15AC0
330
1A
100
AcDbEntity
  8
ZISSEN1
100
AcDbLine
 10
-1751.964988679128
 20
1848.610506697175
 30
0.0
 11
-1751.964988679128
 21
1850.610506697176
 31
0.0
  0
LINE
  5
15AC1
330
1A
100
AcDbEntity
  8
ZISSEN1
100
AcDbLine
 10
-1719.964988679128
 20
1758.410506697176
 30
0.0
 11
-1719.964988679128
 21
1771.310506697176
 31
0.0
  0
LINE
  5
15AC2
330
1A
100
AcDbEntity
  8
ZISSEN1
100
AcDbLine
 10
-1697.464988679128
 20
1771.310506697176
 30
0.0
 11
-1697.464988679128
 21
1758.410506697176
 31
0.0
  0
LINE
  5
15AC3
330
1A
100
AcDbEntity
  8
ZISSEN1
100
AcDbLine
 10
-1689.964988679128
 20
1769.010506697176
 30
0.0
 11
-1689.964988679128
 21
1767.010506697176
 31
0.0
  0
LINE
  5
15AC4
330
1A
100
AcDbEntity
  8
ZISSEN1
100
AcDbLine
 10
-1695.964988679128
 20
1767.010506697176
 30
0.0
 11
-1695.964988679128
 21
1769.010506697176
 31
0.0
  0
LINE
  5
15AC5
330
1A
100
AcDbEntity
  8
ZISSEN1
100
AcDbLine
 10
-1704.964988679128
 20
1771.310506697176
 30
0.0
 11
-1704.964988679128
 21
1758.410506697176
 31
0.0
  0
LINE
  5
15AC6
330
1A
100
AcDbEntity
  8
ZISSEN1
100
AcDbLine
 10
-1712.464988679128
 20
1771.310506697176
 30
0.0
 11
-1712.464988679128
 21
1758.410506697176
 31
0.0
  0
CIRCLE
  5
15AC7
330
1A
100
AcDbEntity
  8
ZISSEN1
100
AcDbCircle
 10
-1734.628626884856
 20
1764.031000313382
 30
0.0
 40
7.5
  0
LINE
  5
15AC8
330
1A
100
AcDbEntity
  8
ZISSEN1
100
AcDbLine
 10
-1719.964988679128
 20
1758.410506697176
 30
0.0
 11
-1697.464988679128
 21
1758.410506697176
 31
0.0
  0
LINE
  5
15AC9
330
1A
100
AcDbEntity
  8
ZISSEN1
100
AcDbLine
 10
-1695.964988679128
 20
1767.010506697176
 30
0.0
 11
-1689.964988679128
 21
1767.010506697176
 31
0.0
  0
LINE
  5
15ACA
330
1A
100
AcDbEntity
  8
ZISSEN1
100
AcDbLine
 10
-1695.964988679128
 20
1765.010506697176
 30
0.0
 11
-1689.964988679128
 21
1765.010506697176
 31
0.0
  0
LINE
  5
15ACB
330
1A
100
AcDbEntity
  8
ZISSEN1
100
AcDbLine
 10
-1695.964988679128
 20
1763.010506697176
 30
0.0
 11
-1689.964988679128
 21
1763.010506697176
 31
0.0
  0
LINE
  5
15ACC
330
1A
100
AcDbEntity
  8
ZISSEN1
100
AcDbLine
 10
-1695.964988679128
 20
1763.110506697176
 30
0.0
 11
-1695.964988679128
 21
1765.010506697176
 31
0.0
  0
LINE
  5
15ACD
330
1A
100
AcDbEntity
  8
ZISSEN1
100
AcDbLine
 10
-1689.964988679128
 20
1765.010506697176
 30
0.0
 11
-1689.964988679128
 21
1763.110506697176
 31
0.0
  0
LINE
  5
15ACE
330
1A
100
AcDbEntity
  8
ZISSEN1
100
AcDbLine
 10
-1681.964988679129
 20
1749.610506697176
 30
0.0
 11
-1681.964988679129
 21
1759.610506697176
 31
0.0
  0
LINE
  5
15ACF
330
1A
100
AcDbEntity
  8
ZISSEN1
100
AcDbLine
 10
-1719.964988679128
 20
1771.310506697176
 30
0.0
 11
-1697.464988679128
 21
1771.310506697176
 31
0.0
  0
LINE
  5
15AD0
330
1A
100
AcDbEntity
  8
ZISSEN1
100
AcDbLine
 10
-1695.964988679128
 20
1771.010506697176
 30
0.0
 11
-1689.964988679128
 21
1771.010506697176
 31
0.0
  0
LINE
  5
15AD1
330
1A
100
AcDbEntity
  8
ZISSEN1
100
AcDbLine
 10
-1695.964988679128
 20
1773.010506697176
 30
0.0
 11
-1689.964988679128
 21
1773.010506697176
 31
0.0
  0
LINE
  5
15AD2
330
1A
100
AcDbEntity
  8
ZISSEN1
100
AcDbLine
 10
-1695.964988679128
 20
1769.010506697176
 30
0.0
 11
-1689.964988679128
 21
1769.010506697176
 31
0.0
  0
LINE
  5
15AD3
330
1A
100
AcDbEntity
  8
ZISSEN1
100
AcDbLine
 10
-1695.964988679128
 20
1771.010506697176
 30
0.0
 11
-1695.964988679128
 21
1773.010506697176
 31
0.0
  0
LINE
  5
15AD4
330
1A
100
AcDbEntity
  8
ZISSEN1
100
AcDbLine
 10
-1689.964988679128
 20
1773.010506697176
 30
0.0
 11
-1689.964988679128
 21
1771.010506697176
 31
0.0
  0
MTEXT
  5
15AD5
330
1A
100
AcDbEntity
  8
ZISSEN1
100
AcDbMText
 10
-1838.224497264766
 20
1894.115935570862
 30
0.0
 40
5.0
 41
83.08973905318467
 71
     1
 72
     5
  1
C-551SA-C02　　No.SS0001f45
1001
ACAD
1000
MTEXTBEGIN
1070
    73
1070
     1
1070
    44
1040
1.0
1070
    74
1070
     0
1000
MTEXTEND
  0
LWPOLYLINE
  5
15AD6
330
1A
100
AcDbEntity
  8
ZISSEN1
100
AcDbPolyline
 90
        4
 70
     1
 43
0.0
 10
-1747.964988679129
 20
1912.610506697176
 10
-1756.964988679128
 20
1912.610506697176
 10
-1756.964988679128
 20
1911.610506697176
 10
-1747.964988679129
 20
1911.610506697176
  0
DIMENSION
  5
15AD7
330
1A
100
AcDbEntity
  8
SUNPOU
100
AcDbDimension
  2
*D37
 10
-1507.87478484702
 20
1816.610506697176
 30
0.0
 11
-1510.62478484702
 21
1864.610506697176
 31
0.0
 70
    32
  3
標準スタイル
100
AcDbAlignedDimension
 13
-1522.964988679128
 23
1912.610506697176
 33
0.0
 14
-1522.964988679128
 24
1816.610506697176
 34
0.0
 50
90.0
100
AcDbRotatedDimension
1001
ACAD
1000
DSTYLE
1002
{
1070
   340
1005
10
1070
    40
1040
1.0
1002
}
  0
LWPOLYLINE
  5
15AD8
330
1A
100
AcDbEntity
  8
ZISSEN1
100
AcDbPolyline
 90
        4
 70
     1
 43
0.0
 10
-1552.964988679129
 20
1912.610506697176
 10
-1522.964988679128
 20
1912.610506697176
 10
-1522.964988679128
 20
1816.610506697176
 10
-1552.964988679129
 20
1816.610506697176
  0
LINE
  5
15AD9
330
1A
100
AcDbEntity
  8
ZISSEN1
100
AcDbLine
 10
-1567.964988679128
 20
1816.610506697176
 30
0.0
 11
-1567.964988679128
 21
1912.610506697176
 31
0.0
  0
LEADER
  5
15ADA
330
1A
100
AcDbEntity
  8
SUNPOU
100
AcDbLeader
  3
標準スタイル
 76
     2
 10
-1562.964989029983
 20
1761.610506965791
 30
0.0
 10
-1552.715398721808
 20
1781.244317817469
 30
0.0
1001
ACAD
1000
DSTYLE
1002
{
1070
     5
1000

1070
    77
1070
     0
1070
   147
1040
1.0
1002
}
  0
LINE
  5
15ADB
330
1A
100
AcDbEntity
  8
ZISSEN1
100
AcDbLine
 10
-1558.964988679128
 20
1763.860506697175
 30
0.0
 11
-1558.964988679128
 21
1775.610506697176
 31
0.0
  0
DIMENSION
  5
15ADC
330
1A
100
AcDbEntity
  8
SUNPOU
100
AcDbDimension
  2
*D38
 10
-1549.964988679128
 20
1759.360506697176
 30
0.0
 11
-1553.478634168713
 21
1752.107352281909
 31
0.0
 70
   160
  3
標準スタイル
100
AcDbAlignedDimension
 13
-1558.964988679128
 23
1763.860506697175
 33
0.0
 14
-1558.964988679128
 24
1759.360506697176
 34
0.0
 50
90.0
100
AcDbRotatedDimension
1001
ACAD
1000
DSTYLE
1002
{
1070
   287
1070
     5
1070
    40
1040
1.0
1070
   279
1070
     2
1070
   340
1005
10
1002
}
  0
DIMENSION
  5
15ADD
330
1A
100
AcDbEntity
  8
SUNPOU
100
AcDbDimension
  2
*D39
 10
-1539.616066120844
 20
1746.610506697176
 30
0.0
 11
-1539.616066120845
 21
1751.610506697176
 31
0.0
 70
   160
  3
標準スタイル
100
AcDbAlignedDimension
 13
-1560.464988679128
 23
1761.610506697176
 33
0.0
 14
-1559.964988679128
 24
1746.610506697176
 34
0.0
 50
90.0
100
AcDbRotatedDimension
1001
ACAD
1000
DSTYLE
1002
{
1070
   340
1005
10
1070
    41
1040
3.0
1070
    40
1040
1.0
1002
}
  0
DIMENSION
  5
15ADE
330
1A
100
AcDbEntity
  8
SUNPOU
100
AcDbDimension
  2
*D40
 10
-1531.056038058091
 20
1746.610506697176
 30
0.0
 11
-1531.056038058092
 21
1761.181796435039
 31
0.0
 70
   160
  3
標準スタイル
100
AcDbAlignedDimension
 13
-1559.964988679128
 23
1776.610506697176
 33
0.0
 14
-1559.964988679128
 24
1746.610506697176
 34
0.0
 50
90.0
100
AcDbRotatedDimension
1001
ACAD
1000
DSTYLE
1002
{
1070
   340
1005
10
1070
   147
1040
0.5
1070
    40
1040
1.0
1002
}
  0
LINE
  5
15ADF
330
1A
100
AcDbEntity
  8
ZISSEN1
100
AcDbLine
 10
-1567.964988679128
 20
1746.610506697176
 30
0.0
 11
-1567.964988679128
 21
1776.610506697176
 31
0.0
  0
LINE
  5
15AE0
330
1A
100
AcDbEntity
  8
ZISSEN1
100
AcDbLine
 10
-1563.964988679128
 20
1759.360506697176
 30
0.0
 11
-1558.964988679128
 21
1759.360506697176
 31
0.0
  0
LINE
  5
15AE1
330
1A
100
AcDbEntity
  8
CL1
100
AcDbLine
 10
-1566.464988679128
 20
1761.610506697176
 30
0.0
 11
-1560.464988679128
 21
1761.610506697176
 31
0.0
  0
LINE
  5
15AE2
330
1A
100
AcDbEntity
  8
ZISSEN1
100
AcDbLine
 10
-1563.964988679128
 20
1763.860506697175
 30
0.0
 11
-1558.964988679128
 21
1763.860506697175
 31
0.0
  0
LINE
  5
15AE3
330
1A
100
AcDbEntity
  8
ZISSEN1
100
AcDbLine
 10
-1567.964988679128
 20
1746.610506697176
 30
0.0
 11
-1559.964988679128
 21
1746.610506697176
 31
0.0
  0
LINE
  5
15AE4
330
1A
100
AcDbEntity
  8
ZISSEN1
100
AcDbLine
 10
-1571.964988679128
 20
1759.610506697176
 30
0.0
 11
-1571.964988679128
 21
1749.610506697176
 31
0.0
  0
ARC
  5
15AE5
330
1A
100
AcDbEntity
  8
ZISSEN1
100
AcDbCircle
 10
-1563.964988679128
 20
1761.360506697176
 30
0.0
 40
2.0
100
AcDbArc
 50
180.0
 51
270.0
  0
ARC
  5
15AE6
330
1A
100
AcDbEntity
  8
ZISSEN1
100
AcDbCircle
 10
-1563.964988679128
 20
1761.860506697176
 30
0.0
 40
2.0
100
AcDbArc
 50
90.0
 51
180.0
  0
LINE
  5
15AE7
330
1A
100
AcDbEntity
  8
ZISSEN1
100
AcDbLine
 10
-1565.964988679128
 20
1761.860506697176
 30
0.0
 11
-1565.964988679128
 21
1761.360506697176
 31
0.0
  0
LINE
  5
15AE8
330
1A
100
AcDbEntity
  8
ZISSEN1
100
AcDbLine
 10
-1558.964988679128
 20
1747.610506697176
 30
0.0
 11
-1558.964988679128
 21
1759.360506697176
 31
0.0
  0
LINE
  5
15AE9
330
1A
100
AcDbEntity
  8
ZISSEN1
100
AcDbLine
 10
-1558.964988679128
 20
1747.610506697176
 30
0.0
 11
-1559.964988679128
 21
1746.610506697176
 31
0.0
  0
LINE
  5
15AEA
330
1A
100
AcDbEntity
  8
CL1
100
AcDbLine
 10
-1562.964988679128
 20
1764.860506697176
 30
0.0
 11
-1562.964988679128
 21
1758.360506697176
 31
0.0
  0
DIMENSION
  5
15AEB
330
1A
100
AcDbEntity
  8
SUNPOU
100
AcDbDimension
  2
*D41
 10
-1567.964988679128
 20
1795.99064011378
 30
0.0
 11
-1566.059492153117
 21
1798.279667579458
 31
0.0
 70
   160
  3
標準スタイル
100
AcDbAlignedDimension
 13
-1563.964988679128
 23
1848.610506697175
 33
0.0
 14
-1567.964988679128
 24
1816.610506697176
 34
0.0
100
AcDbRotatedDimension
1001
ACAD
1000
DSTYLE
1002
{
1070
   287
1070
     5
1070
    40
1040
1.0
1070
   173
1070
     1
1070
   279
1070
     2
1070
   340
1005
10
1070
     7
1000
NONE
1002
}
  0
DIMENSION
  5
15AEC
330
1A
100
AcDbEntity
  8
SUNPOU
100
AcDbDimension
  2
*D42
 10
-1538.814988679128
 20
1791.849937631713
 30
0.0
 11
-1548.064988679128
 21
1791.849937631713
 31
0.0
 70
   160
  3
標準スタイル
100
AcDbAlignedDimension
 13
-1530.564988679128
 23
1801.610506697176
 33
0.0
 14
-1538.814988679128
 24
1801.610506697176
 34
0.0
100
AcDbRotatedDimension
1001
ACAD
1000
DSTYLE
1002
{
1070
   340
1005
10
1070
     6
1000

1070
   173
1070
     1
1070
     7
1000

1070
    40
1040
1.0
1002
}
  0
MTEXT
  5
15AED
330
1A
100
AcDbEntity
  8
SUNPOU
100
AcDbMText
 10
-1550.862997960526
 20
1786.588008388521
 30
0.0
 40
3.5
 41
16.37941934466639
 71
     1
 72
     5
  1
2-M4
1001
ACAD
1000
MTEXTBEGIN
1070
    73
1070
     1
1070
    44
1040
1.0
1070
    74
1070
     0
1000
MTEXTEND
  0
LINE
  5
15AEE
330
1A
100
AcDbEntity
  8
SUNPOU
100
AcDbLine
 10
-1552.715398721808
 20
1781.244317817469
 30
0.0
 11
-1538.976679890367
 21
1781.244317817469
 31
0.0
  0
LINE
  5
15AEF
330
1A
100
AcDbEntity
  8
ZISSEN1
100
AcDbLine
 10
-1567.964988679128
 20
1776.610506697176
 30
0.0
 11
-1559.964988679128
 21
1776.610506697176
 31
0.0
  0
LINE
  5
15AF0
330
1A
100
AcDbEntity
  8
ZISSEN1
100
AcDbLine
 10
-1559.964988679128
 20
1776.610506697176
 30
0.0
 11
-1558.964988679128
 21
1775.610506697176
 31
0.0
  0
DIMENSION
  5
15AF1
330
1A
100
AcDbEntity
  8
SUNPOU
100
AcDbDimension
  2
*D43
 10
-1571.964988679128
 20
1795.99064011378
 30
0.0
 11
-1569.922706684101
 21
1798.279667579458
 31
0.0
 70
   160
  3
標準スタイル
100
AcDbAlignedDimension
 13
-1567.964988679128
 23
1816.610506697176
 33
0.0
 14
-1571.964988679128
 24
1814.610506697176
 34
0.0
100
AcDbRotatedDimension
1001
ACAD
1000
DSTYLE
1002
{
1070
   287
1070
     5
1070
    40
1040
1.0
1070
   173
1070
     1
1070
   279
1070
     2
1070
   340
1005
10
1070
     6
1000
NONE
1070
     7
1000
NONE
1002
}
  0
ARC
  5
15AF2
330
1A
100
AcDbEntity
  8
ZISSEN1
100
AcDbCircle
 10
-1573.964988679128
 20
1813.110506697176
 30
0.0
 40
1.5
100
AcDbArc
 50
270.0
 51
0.0
  0
LWPOLYLINE
  5
15AF3
330
1A
100
AcDbEntity
  8
ZISSEN1
100
AcDbPolyline
 90
        4
 70
     1
 43
0.0
 10
-1577.964988679128
 20
1814.610506697176
 10
-1571.964988679128
 20
1814.610506697176
 10
-1571.964988679128
 20
1816.610506697176
 10
-1577.964988679128
 20
1816.610506697176
  0
LINE
  5
15AF4
330
1A
100
AcDbEntity
  8
ZISSEN1
100
AcDbLine
 10
-1577.464988679128
 20
1814.610506697176
 30
0.0
 11
-1577.464988679128
 21
1813.110506697176
 31
0.0
  0
ARC
  5
15AF5
330
1A
100
AcDbEntity
  8
ZISSEN1
100
AcDbCircle
 10
-1575.964988679128
 20
1813.110506697176
 30
0.0
 40
1.5
100
AcDbArc
 50
180.0
 51
270.0
  0
LINE
  5
15AF6
330
1A
100
AcDbEntity
  8
ZISSEN1
100
AcDbLine
 10
-1575.964988679128
 20
1811.610506697176
 30
0.0
 11
-1573.964988679128
 21
1811.610506697176
 31
0.0
  0
LINE
  5
15AF7
330
1A
100
AcDbEntity
  8
ZISSEN1
100
AcDbLine
 10
-1572.464988679128
 20
1813.110506697176
 30
0.0
 11
-1572.464988679128
 21
1814.610506697176
 31
0.0
  0
DIMENSION
  5
15AF8
330
1A
100
AcDbEntity
  8
SUNPOU
100
AcDbDimension
  2
*D44
 10
-1530.564988679128
 20
1791.853318041863
 30
0.0
 11
-1512.464988679128
 21
1791.853318041863
 31
0.0
 70
   160
  3
標準スタイル
100
AcDbAlignedDimension
 13
-1522.964988679128
 23
1816.610506697176
 33
0.0
 14
-1530.564988679128
 24
1801.610506697176
 34
0.0
100
AcDbRotatedDimension
1001
ACAD
1000
DSTYLE
1002
{
1070
   340
1005
10
1070
    41
1040
3.0
1070
     7
1000

1070
   173
1070
     1
1070
     6
1000

1070
    40
1040
1.0
1002
}
  0
DIMENSION
  5
15AFA
330
1A
100
AcDbEntity
  8
SUNPOU
100
AcDbDimension
  2
*D45
 10
-1507.87478484702
 20
1801.610506697176
 30
0.0
 11
-1510.624784847021
 21
1809.110506697176
 31
0.0
 70
    32
  3
標準スタイル
100
AcDbAlignedDimension
 13
-1522.964988679128
 23
1816.610506697176
 33
0.0
 14
-1530.564988679128
 24
1801.610506697176
 34
0.0
 50
90.0
100
AcDbRotatedDimension
1001
ACAD
1000
DSTYLE
1002
{
1070
   340
1005
10
1070
    40
1040
1.0
1002
}
  0
LWPOLYLINE
  5
15AFB
330
1A
100
AcDbEntity
  8
ZISSEN1
100
AcDbPolyline
 90
        4
 70
     1
 43
0.0
 10
-1538.814988679128
 20
1816.610506697176
 10
-1530.564988679128
 20
1816.610506697176
 10
-1530.564988679128
 20
1801.610506697176
 10
-1538.814988679128
 20
1801.610506697176
  0
ARC
  5
15AFC
330
1A
100
AcDbEntity
  8
ZISSEN1
100
AcDbCircle
 10
-1565.964988679128
 20
1848.610506697175
 30
0.0
 40
2.0
100
AcDbArc
 50
270.0
 51
0.0
  0
LINE
  5
15AFD
330
1A
100
AcDbEntity
  8
ZISSEN1
100
AcDbLine
 10
-1567.964988679128
 20
1846.610506697176
 30
0.0
 11
-1565.964988679128
 21
1846.610506697176
 31
0.0
  0
ARC
  5
15AFE
330
1A
100
AcDbEntity
  8
ZISSEN1
100
AcDbCircle
 10
-1565.964988679128
 20
1850.610506697176
 30
0.0
 40
2.0
100
AcDbArc
 50
0.0
 51
90.0
  0
LINE
  5
15AFF
330
1A
100
AcDbEntity
  8
ZISSEN1
100
AcDbLine
 10
-1565.964988679128
 20
1852.610506697176
 30
0.0
 11
-1567.964988679128
 21
1852.610506697176
 31
0.0
  0
LINE
  5
15B00
330
1A
100
AcDbEntity
  8
ZISSEN1
100
AcDbLine
 10
-1563.964988679128
 20
1848.610506697175
 30
0.0
 11
-1563.964988679128
 21
1850.610506697176
 31
0.0
  0
CIRCLE
  5
15B01
330
1A
100
AcDbEntity
  8
ZISSEN1
100
AcDbCircle
 10
-1534.689988679128
 20
1849.610506697176
 30
0.0
 40
3.0
  0
LINE
  5
15B02
330
1A
100
AcDbEntity
  8
ZISSEN1
100
AcDbLine
 10
-1552.964988679129
 20
1911.610506697176
 30
0.0
 11
-1522.964988679128
 21
1911.610506697176
 31
0.0
  0
LINE
  5
15B03
330
1A
100
AcDbEntity
  8
ZISSEN1
100
AcDbLine
 10
-1558.964988679128
 20
1911.610506697176
 30
0.0
 11
-1567.964988679128
 21
1911.610506697176
 31
0.0
  0
LINE
  5
15B04
330
1A
100
AcDbEntity
  8
ZISSEN1
100
AcDbLine
 10
-1567.964988679128
 20
1912.610506697176
 30
0.0
 11
-1558.964988679128
 21
1912.610506697176
 31
0.0
  0
LINE
  5
15B05
330
1A
100
AcDbEntity
  8
ZISSEN1
100
AcDbLine
 10
-1567.964988679128
 20
1911.610506697176
 30
0.0
 11
-1567.964988679128
 21
1912.610506697176
 31
0.0
  0
DIMENSION
  5
15B06
330
1A
100
AcDbEntity
  8
SUNPOU
100
AcDbDimension
  2
*D46
 10
-1557.022890754248
 20
1911.610506697176
 30
0.0
 11
-1557.022890754248
 21
1904.027173363842
 31
0.0
 70
   160
  3
標準スタイル
100
AcDbAlignedDimension
 13
-1558.964988679128
 23
1912.610506697176
 33
0.0
 14
-1558.964988679128
 24
1911.610506697176
 34
0.0
 50
90.0
100
AcDbRotatedDimension
1001
ACAD
1000
DSTYLE
1002
{
1070
   340
1005
10
1070
    42
1040
0.5
1070
    40
1040
1.0
1002
}
  0
LINE
  5
15B07
330
1A
100
AcDbEntity
  8
ZISSEN1
100
AcDbLine
 10
-1558.964988679128
 20
1912.610506697176
 30
0.0
 11
-1558.964988679128
 21
1911.610506697176
 31
0.0
  0
LWPOLYLINE
  5
15B08
330
1A
100
AcDbEntity
  8
ZISSEN1
100
AcDbPolyline
 90
        4
 70
     1
 43
0.0
 10
-1530.964988679128
 20
1899.610506697176
 10
-1527.964988679128
 20
1899.610506697176
 10
-1527.964988679128
 20
1885.610506697176
 10
-1530.964988679128
 20
1885.610506697176
  0
LINE
  5
15B09
330
1A
100
AcDbEntity
  8
CL1
100
AcDbLine
 10
-1537.964988679128
 20
1914.610506697176
 30
0.0
 11
-1537.964988679128
 21
1909.610506697176
 31
0.0
  0
LINE
  5
15B0A
330
1A
100
AcDbEntity
  8
ZISSEN1
100
AcDbLine
 10
-1540.214988679128
 20
1912.610506697176
 30
0.0
 11
-1540.214988679128
 21
1911.610506697176
 31
0.0
  0
LINE
  5
15B0B
330
1A
100
AcDbEntity
  8
ZISSEN1
100
AcDbLine
 10
-1535.714988679128
 20
1912.610506697176
 30
0.0
 11
-1535.714988679128
 21
1911.610506697176
 31
0.0
  0
LINE
  5
15DA8
330
1A
100
AcDbEntity
  8
ZISSEN1
100
AcDbLine
 10
-1582.004988679128
 20
1759.610506697176
 30
0.0
 11
-1582.004988679128
 21
1749.610506697176
 31
0.0
  0
LINE
  5
15DA9
330
1A
100
AcDbEntity
  8
ZISSEN1
100
AcDbLine
 10
-1577.964988679128
 20
1759.610506697176
 30
0.0
 11
-1577.964988679128
 21
1749.610506697176
 31
0.0
  0
VIEWPORT
  5
15177
330
15176
100
AcDbEntity
 67
     1
  8
0
100
AcDbViewport
 10
323.0028309023013
 20
170.1509400164577
 30
0.0
 40
654.2332172100069
 41
298.3878046556618
 68
     1
 69
     1
1001
ACAD
1000
MVIEW
1002
{
1070
    16
1010
0.0
1020
0.0
1030
0.0
1010
0.0
1020
0.0
1030
1.0
1040
0.0
1040
298.3878046556618
1040
323.0028309023013
1040
170.1509400164577
1040
50.0
1040
0.0
1040
0.0
1070
     0
1070
   100
1070
     1
1070
     0
1070
     0
1070
     0
1070
     0
1070
     0
1040
0.0
1040
0.0
1040
0.0
1040
1.0
1040
1.0
1040
10.0
1040
10.0
1070
     0
1002
{
1002
}
1002
}
  0
VIEWPORT
  5
15178
330
15176
100
AcDbEntity
 67
     1
  8
ZISSEN1
100
AcDbViewport
 10
221.7861955525412
 20
157.6960273330388
 30
0.0
 40
385.4999999999997
 41
259.9999999999999
 68
     2
 69
     2
1001
ACAD
1000
MVIEW
1002
{
1070
    16
1010
0.0
1020
0.0
1030
0.0
1010
0.0
1020
0.0
1030
1.0
1040
0.0
1040
259.999999755806
1040
-1663.485767216677
1040
1806.287243475754
1040
50.0
1040
0.0
1040
0.0
1070
     0
1070
   100
1070
     1
1070
     0
1070
     0
1070
     0
1070
     0
1070
     0
1040
0.0
1040
0.0
1040
0.0
1040
1.0
1040
1.0
1040
10.0
1040
10.0
1070
     0
1002
{
1002
}
1002
}
  0
TEXT
  5
15179
330
15176
100
AcDbEntity
 67
     1
  8
SUNPOU
 62
     0
100
AcDbText
 10
374.1863124306944
 20
60.86794705907585
 30
0.0
 40
3.5
  1
縮尺 1/1
100
AcDbText
  0
ENDSEC
  0
SECTION
  2
OBJECTS
  0
DICTIONARY
  5
C
330
0
100
AcDbDictionary
  3
ACAD_GROUP
350
D
  3
ACAD_LAYOUT
350
5C7D
  3
ACAD_MLINESTYLE
350
E
  3
ACAD_PLOTSETTINGS
350
5C7E
  3
ACAD_PLOTSTYLENAME
350
5C7B
  3
ACDBVARIABLEDICTIONARY
350
13217
  3
DWGPROPS
350
15F2F
  3
ACDBHEADERROUNDTRIPXREC
350
15F31
  0
DICTIONARY
  5
15F51
330
1A
100
AcDbDictionary
280
     1
  3
ACAD_LAYOUTSELFREF
360
15F52
  0
DICTIONARY
  5
15F53
330
15176
100
AcDbDictionary
280
     1
  3
ACAD_LAYOUTSELFREF
360
15F54
  0
DICTIONARY
  5
D
102
{ACAD_REACTORS
330
C
102
}
330
C
100
AcDbDictionary
  3
*A1
350
477D
  3
*A2
350
4C15
  3
*A3
350
4C16
  3
*A4
350
4C17
  3
*A5
350
477E
  3
*A6
350
477F
  3
*A7
350
4780
  3
*A8
350
4781
  3
*A9
350
13853
  3
*A10
350
4C0E
  3
*A11
350
4C0F
  3
*A12
350
4C10
  3
*A13
350
4C11
  3
*A14
350
4C12
  3
*A15
350
4C13
  3
*A16
350
4C14
  0
DICTIONARY
  5
5C7D
102
{ACAD_REACTORS
330
C
102
}
330
C
100
AcDbDictionary
  0
DICTIONARY
  5
E
102
{ACAD_REACTORS
330
C
102
}
330
C
100
AcDbDictionary
  3
STANDARD
350
13
  0
DICTIONARY
  5
5C7E
102
{ACAD_REACTORS
330
C
102
}
330
C
100
AcDbDictionary
  0
ACDBDICTIONARYWDFLT
  5
5C7B
102
{ACAD_REACTORS
330
C
102
}
330
C
100
AcDbDictionary
281
     1
  3
Normal
350
5C7C
100
AcDbDictionaryWithDefault
340
5C7C
  0
DICTIONARY
  5
13217
102
{ACAD_REACTORS
330
C
102
}
330
C
100
AcDbDictionary
  3
SORTENTS
350
13218
  3
INDEXCTL
350
15F25
  0
XRECORD
  5
15F2F
102
{ACAD_REACTORS
330
C
102
}
330
C
100
AcDbXrecord
  1
DWGPROPS COOKIE
  2

  3

  4

  6

  7

  8

  9

300
=
301
=
302
=
303
=
304
=
305
=
306
=
307
=
308
=
309
=
 40
2.726389479166666
 41
2450495.493631365
 42
2453984.451342708
  1

 90
        0
  0
DICTIONARY
  5
15F31
102
{ACAD_REACTORS
330
C
102
}
330
C
100
AcDbDictionary
  3
TSTACKALIGN
350
15F32
  3
TSTACKSIZE
350
15F33
  3
HYPERLINKBASE
350
15F34
  3
STYLESHEET
350
15F35
  3
LAYOUTDICT
350
15F36
  3
PLOTSETDICT
350
15F37
  3
PLOTSTYLNAMDICT
350
15F38
  3
LWETCUNION
350
15F39
  3
INSUNITS
350
15F3A
  3
CEPSNTYPE
350
15F3B
  3
FINGERPRINTGUID
350
15F3C
  3
VERSIONGUID
350
15F3D
  3
PSVPSCALE
350
15F3E
  3
PUCSORTHOREF
350
15F3F
  3
PUCSORTHOVIEW
350
15F40
  3
PUCSBASE
350
15F41
  3
PUCSORGTOP
350
15F42
  3
PUCSORGBOTTOM
350
15F43
  3
PUCSORGLEFT
350
15F44
  3
PUCSORGRIGHT
350
15F45
  3
PUCSORGFRONT
350
15F46
  3
PUCSORGBACK
350
15F47
  3
UCSORTHOREF
350
15F48
  3
UCSORTHOVIEW
350
15F49
  3
UCSBASE
350
15F4A
  3
UCSORGTOP
350
15F4B
  3
UCSORGBOTTOM
350
15F4C
  3
UCSORGLEFT
350
15F4D
  3
UCSORGRIGHT
350
15F4E
  3
UCSORGFRONT
350
15F4F
  3
UCSORGBACK
350
15F50
  0
XRECORD
  5
15F52
102
{ACAD_REACTORS
330
15F51
102
}
330
15F51
100
AcDbXrecord
340
1A
  0
XRECORD
  5
15F54
102
{ACAD_REACTORS
330
15F53
102
}
330
15F53
100
AcDbXrecord
340
15176
  0
GROUP
  5
477D
102
{ACAD_REACTORS
330
D
102
}
330
D
100
AcDbGroup
300

 70
     1
 71
     1
  0
GROUP
  5
4C15
102
{ACAD_REACTORS
330
D
102
}
330
D
100
AcDbGroup
300

 70
     1
 71
     1
  0
GROUP
  5
4C16
102
{ACAD_REACTORS
330
D
102
}
330
D
100
AcDbGroup
300

 70
     1
 71
     1
  0
GROUP
  5
4C17
102
{ACAD_REACTORS
330
D
102
}
330
D
100
AcDbGroup
300

 70
     1
 71
     1
  0
GROUP
  5
477E
102
{ACAD_REACTORS
330
D
102
}
330
D
100
AcDbGroup
300

 70
     1
 71
     1
  0
GROUP
  5
477F
102
{ACAD_REACTORS
330
D
102
}
330
D
100
AcDbGroup
300

 70
     1
 71
     1
  0
GROUP
  5
4780
102
{ACAD_REACTORS
330
D
102
}
330
D
100
AcDbGroup
300

 70
     1
 71
     1
  0
GROUP
  5
4781
102
{ACAD_REACTORS
330
D
102
}
330
D
100
AcDbGroup
300

 70
     1
 71
     1
  0
GROUP
  5
13853
102
{ACAD_REACTORS
330
D
102
}
330
D
100
AcDbGroup
300

 70
     1
 71
     1
  0
GROUP
  5
4C0E
102
{ACAD_REACTORS
330
D
102
}
330
D
100
AcDbGroup
300

 70
     1
 71
     1
  0
GROUP
  5
4C0F
102
{ACAD_REACTORS
330
D
102
}
330
D
100
AcDbGroup
300

 70
     1
 71
     1
  0
GROUP
  5
4C10
102
{ACAD_REACTORS
330
D
102
}
330
D
100
AcDbGroup
300

 70
     1
 71
     1
  0
GROUP
  5
4C11
102
{ACAD_REACTORS
330
D
102
}
330
D
100
AcDbGroup
300

 70
     1
 71
     1
  0
GROUP
  5
4C12
102
{ACAD_REACTORS
330
D
102
}
330
D
100
AcDbGroup
300

 70
     1
 71
     1
  0
GROUP
  5
4C13
102
{ACAD_REACTORS
330
D
102
}
330
D
100
AcDbGroup
300

 70
     1
 71
     1
  0
GROUP
  5
4C14
102
{ACAD_REACTORS
330
D
102
}
330
D
100
AcDbGroup
300

 70
     1
 71
     1
  0
MLINESTYLE
  5
13
102
{ACAD_REACTORS
330
E
102
}
330
E
100
AcDbMlineStyle
  2
STANDARD
 70
     0
  3

 62
     0
 51
90.0
 52
90.0
 71
     2
 49
0.5
 62
   256
  6
BYLAYER
 49
-0.5
 62
   256
  6
BYLAYER
  0
ACDBPLACEHOLDER
  5
5C7C
102
{ACAD_REACTORS
330
5C7B
102
}
330
5C7B
100
AcDbPlaceHolder
280
     0
  0
DICTIONARYVAR
  5
13218
102
{ACAD_REACTORS
330
13217
102
}
330
13217
100
DictionaryVariables
280
     0
  1
96
  0
DICTIONARYVAR
  5
15F25
102
{ACAD_REACTORS
330
13217
102
}
330
13217
100
DictionaryVariables
280
     0
  1
-1
  0
XRECORD
  5
15F32
102
{ACAD_REACTORS
330
15F31
102
}
330
15F31
100
AcDbXrecord
 90
        1
  0
XRECORD
  5
15F33
102
{ACAD_REACTORS
330
15F31
102
}
330
15F31
100
AcDbXrecord
 90
       70
  0
XRECORD
  5
15F34
102
{ACAD_REACTORS
330
15F31
102
}
330
15F31
100
AcDbXrecord
  1

  0
XRECORD
  5
15F35
102
{ACAD_REACTORS
330
15F31
102
}
330
15F31
100
AcDbXrecord
  1

  0
XRECORD
  5
15F36
102
{ACAD_REACTORS
330
15F31
102
}
330
15F31
100
AcDbXrecord
340
5C7D
  0
XRECORD
  5
15F37
102
{ACAD_REACTORS
330
15F31
102
}
330
15F31
100
AcDbXrecord
340
5C7E
  0
XRECORD
  5
15F38
102
{ACAD_REACTORS
330
15F31
102
}
330
15F31
100
AcDbXrecord
340
5C7B
  0
XRECORD
  5
15F39
102
{ACAD_REACTORS
330
15F31
102
}
330
15F31
100
AcDbXrecord
 90
    10781
  0
XRECORD
  5
15F3A
102
{ACAD_REACTORS
330
15F31
102
}
330
15F31
100
AcDbXrecord
 90
        0
  0
XRECORD
  5
15F3B
102
{ACAD_REACTORS
330
15F31
102
}
330
15F31
100
AcDbXrecord
 90
        0
  0
XRECORD
  5
15F3C
102
{ACAD_REACTORS
330
15F31
102
}
330
15F31
100
AcDbXrecord
  1
{225A7F0D-DA29-11D8-946A-0000E2416295}
  0
XRECORD
  5
15F3D
102
{ACAD_REACTORS
330
15F31
102
}
330
15F31
100
AcDbXrecord
  1
{ECA8BE4F-16AD-45B0-A46F-4FB3732B7063}
  0
XRECORD
  5
15F3E
102
{ACAD_REACTORS
330
15F31
102
}
330
15F31
100
AcDbXrecord
 40
0.0
  0
XRECORD
  5
15F3F
102
{ACAD_REACTORS
330
15F31
102
}
330
15F31
100
AcDbXrecord
340
0
  0
XRECORD
  5
15F40
102
{ACAD_REACTORS
330
15F31
102
}
330
15F31
100
AcDbXrecord
 70
     0
  0
XRECORD
  5
15F41
102
{ACAD_REACTORS
330
15F31
102
}
330
15F31
100
AcDbXrecord
340
0
  0
XRECORD
  5
15F42
102
{ACAD_REACTORS
330
15F31
102
}
330
15F31
100
AcDbXrecord
 10
0.0
 20
0.0
 30
0.0
  0
XRECORD
  5
15F43
102
{ACAD_REACTORS
330
15F31
102
}
330
15F31
100
AcDbXrecord
 10
0.0
 20
0.0
 30
0.0
  0
XRECORD
  5
15F44
102
{ACAD_REACTORS
330
15F31
102
}
330
15F31
100
AcDbXrecord
 10
0.0
 20
0.0
 30
0.0
  0
XRECORD
  5
15F45
102
{ACAD_REACTORS
330
15F31
102
}
330
15F31
100
AcDbXrecord
 10
0.0
 20
0.0
 30
0.0
  0
XRECORD
  5
15F46
102
{ACAD_REACTORS
330
15F31
102
}
330
15F31
100
AcDbXrecord
 10
0.0
 20
0.0
 30
0.0
  0
XRECORD
  5
15F47
102
{ACAD_REACTORS
330
15F31
102
}
330
15F31
100
AcDbXrecord
 10
0.0
 20
0.0
 30
0.0
  0
XRECORD
  5
15F48
102
{ACAD_REACTORS
330
15F31
102
}
330
15F31
100
AcDbXrecord
340
0
  0
XRECORD
  5
15F49
102
{ACAD_REACTORS
330
15F31
102
}
330
15F31
100
AcDbXrecord
 70
     0
  0
XRECORD
  5
15F4A
102
{ACAD_REACTORS
330
15F31
102
}
330
15F31
100
AcDbXrecord
340
0
  0
XRECORD
  5
15F4B
102
{ACAD_REACTORS
330
15F31
102
}
330
15F31
100
AcDbXrecord
 10
0.0
 20
0.0
 30
0.0
  0
XRECORD
  5
15F4C
102
{ACAD_REACTORS
330
15F31
102
}
330
15F31
100
AcDbXrecord
 10
0.0
 20
0.0
 30
0.0
  0
XRECORD
  5
15F4D
102
{ACAD_REACTORS
330
15F31
102
}
330
15F31
100
AcDbXrecord
 10
0.0
 20
0.0
 30
0.0
  0
XRECORD
  5
15F4E
102
{ACAD_REACTORS
330
15F31
102
}
330
15F31
100
AcDbXrecord
 10
0.0
 20
0.0
 30
0.0
  0
XRECORD
  5
15F4F
102
{ACAD_REACTORS
330
15F31
102
}
330
15F31
100
AcDbXrecord
 10
0.0
 20
0.0
 30
0.0
  0
XRECORD
  5
15F50
102
{ACAD_REACTORS
330
15F31
102
}
330
15F31
100
AcDbXrecord
 10
0.0
 20
0.0
 30
0.0
  0
ENDSEC
  0
EOF
