  0
SECTION
  2
HEADER
  9
$ACADVER
  1
AC1014
  9
$ACADMAINTVER
 70
     9
  9
$DWGCODEPAGE
  3
ANSI_932
  9
$INSBASE
 10
0.0
 20
0.0
 30
0.0
  9
$EXTMIN
 10
-1787.648997035629
 20
1591.547648356536
 30
-0.00000001
  9
$EXTMAX
 10
-1465.317654598331
 20
1945.0
 30
0.00000001
  9
$LIMMIN
 10
0.0
 20
0.0
  9
$LIMMAX
 10
420.0
 20
297.0
  9
$ORTHOMODE
 70
     0
  9
$REGENMODE
 70
     1
  9
$FILLMODE
 70
     1
  9
$QTEXTMODE
 70
     0
  9
$MIRRTEXT
 70
     1
  9
$DRAGMODE
 70
     2
  9
$LTSCALE
 40
1.0
  9
$OSMODE
 70
    37
  9
$ATTMODE
 70
     1
  9
$TEXTSIZE
 40
2.5
  9
$TRACEWID
 40
1.0
  9
$TEXTSTYLE
  7
ゴシック体
  9
$CLAYER
  8
ZISSEN1
  9
$CELTYPE
  6
BYLAYER
  9
$CECOLOR
 62
   256
  9
$CELTSCALE
 40
1.0
  9
$DELOBJ
 70
     1
  9
$DISPSILH
 70
     0
  9
$DIMSCALE
 40
0.0
  9
$DIMASZ
 40
3.0
  9
$DIMEXO
 40
0.5
  9
$DIMDLI
 40
0.5
  9
$DIMRND
 40
0.0
  9
$DIMDLE
 40
0.0
  9
$DIMEXE
 40
0.5
  9
$DIMTP
 40
0.0
  9
$DIMTM
 40
0.0
  9
$DIMTXT
 40
3.5
  9
$DIMCEN
 40
0.0
  9
$DIMTSZ
 40
0.0
  9
$DIMTOL
 70
     0
  9
$DIMLIM
 70
     0
  9
$DIMTIH
 70
     0
  9
$DIMTOH
 70
     0
  9
$DIMSE1
 70
     0
  9
$DIMSE2
 70
     0
  9
$DIMTAD
 70
     1
  9
$DIMZIN
 70
     8
  9
$DIMBLK
  1

  9
$DIMASO
 70
     1
  9
$DIMSHO
 70
     1
  9
$DIMPOST
  1

  9
$DIMAPOST
  1

  9
$DIMALT
 70
     0
  9
$DIMALTD
 70
     2
  9
$DIMALTF
 40
25.4
  9
$DIMLFAC
 40
1.0
  9
$DIMTOFL
 70
     1
  9
$DIMTVP
 40
0.0
  9
$DIMTIX
 70
     0
  9
$DIMSOXD
 70
     0
  9
$DIMSAH
 70
     0
  9
$DIMBLK1
  1

  9
$DIMBLK2
  1

  9
$DIMSTYLE
  2
標準スタイル
  9
$DIMCLRD
 70
     1
  9
$DIMCLRE
 70
     1
  9
$DIMCLRT
 70
     1
  9
$DIMTFAC
 40
1.0
  9
$DIMGAP
 40
1.0
  9
$DIMJUST
 70
     0
  9
$DIMSD1
 70
     0
  9
$DIMSD2
 70
     0
  9
$DIMTOLJ
 70
     1
  9
$DIMTZIN
 70
     8
  9
$DIMALTZ
 70
     0
  9
$DIMALTTZ
 70
     0
  9
$DIMFIT
 70
     3
  9
$DIMUPT
 70
     0
  9
$DIMUNIT
 70
     2
  9
$DIMDEC
 70
     2
  9
$DIMTDEC
 70
     2
  9
$DIMALTU
 70
     2
  9
$DIMALTTD
 70
     2
  9
$DIMTXSTY
  7
ゴシック体
  9
$DIMAUNIT
 70
     0
  9
$LUNITS
 70
     2
  9
$LUPREC
 70
     4
  9
$SKETCHINC
 40
1.0
  9
$FILLETRAD
 40
1.0
  9
$AUNITS
 70
     0
  9
$AUPREC
 70
     0
  9
$MENU
  1
.
  9
$ELEVATION
 40
0.0
  9
$PELEVATION
 40
0.0
  9
$THICKNESS
 40
0.0
  9
$LIMCHECK
 70
     0
  9
$BLIPMODE
 70
     0
  9
$CHAMFERA
 40
1.0
  9
$CHAMFERB
 40
1.0
  9
$CHAMFERC
 40
2.0
  9
$CHAMFERD
 40
0.7853981633974483
  9
$SKPOLY
 70
     0
  9
$TDCREATE
 40
2450495.493631365
  9
$TDUPDATE
 40
2453984.445170752
  9
$TDINDWG
 40
2.5562720602
  9
$TDUSRTIMER
 40
2.5562719444
  9
$USRTIMER
 70
     1
  9
$ANGBASE
 50
0.0
  9
$ANGDIR
 70
     0
  9
$PDMODE
 70
    99
  9
$PDSIZE
 40
0.0
  9
$PLINEWID
 40
0.0
  9
$COORDS
 70
     1
  9
$SPLFRAME
 70
     0
  9
$SPLINETYPE
 70
     6
  9
$SPLINESEGS
 70
     8
  9
$ATTDIA
 70
     0
  9
$ATTREQ
 70
     1
  9
$HANDLING
 70
 10241
  9
$HANDSEED
  5
15C39
  9
$SURFTAB1
 70
     6
  9
$SURFTAB2
 70
     6
  9
$SURFTYPE
 70
     6
  9
$SURFU
 70
     6
  9
$SURFV
 70
     6
  9
$UCSNAME
  2

  9
$UCSORG
 10
0.0
 20
0.0
 30
0.0
  9
$UCSXDIR
 10
1.0
 20
0.0
 30
0.0
  9
$UCSYDIR
 10
0.0
 20
1.0
 30
0.0
  9
$PUCSNAME
  2

  9
$PUCSORG
 10
0.0
 20
0.0
 30
0.0
  9
$PUCSXDIR
 10
1.0
 20
0.0
 30
0.0
  9
$PUCSYDIR
 10
0.0
 20
1.0
 30
0.0
  9
$USERI1
 70
     0
  9
$USERI2
 70
     0
  9
$USERI3
 70
     0
  9
$USERI4
 70
     0
  9
$USERI5
 70
     0
  9
$USERR1
 40
0.0
  9
$USERR2
 40
0.0
  9
$USERR3
 40
0.0
  9
$USERR4
 40
0.0
  9
$USERR5
 40
0.0
  9
$WORLDVIEW
 70
     1
  9
$SHADEDGE
 70
     3
  9
$SHADEDIF
 70
    70
  9
$TILEMODE
 70
     1
  9
$MAXACTVP
 70
    16
  9
$PINSBASE
 10
0.0
 20
0.0
 30
0.0
  9
$PLIMCHECK
 70
     0
  9
$PEXTMIN
 10
29.03619555254135
 20
27.69602733303884
 30
0.0
  9
$PEXTMAX
 10
414.5361955525411
 20
287.6960273330388
 30
0.0
  9
$PLIMMIN
 10
15.15433780389673
 20
13.80781516542163
  9
$PLIMMAX
 10
435.1009930773342
 20
310.8184658001872
  9
$UNITMODE
 70
     0
  9
$VISRETAIN
 70
     0
  9
$PLINEGEN
 70
     0
  9
$PSLTSCALE
 70
     1
  9
$TREEDEPTH
 70
  3020
  9
$PICKSTYLE
 70
     1
  9
$CMLSTYLE
  2
STANDARD
  9
$CMLJUST
 70
     0
  9
$CMLSCALE
 40
1.0
  9
$PROXYGRAPHICS
 70
     1
  9
$MEASUREMENT
 70
     0
  0
ENDSEC
  0
SECTION
  2
CLASSES
  0
CLASS
  1
LWPOLYLINE
  2
AcDbPolyline
  3
AutoCAD 2000
 90
        0
280
     0
281
     1
  0
CLASS
  1
HATCH
  2
AcDbHatch
  3
AutoCAD 2000
 90
        0
280
     0
281
     1
  0
CLASS
  1
ACDBDICTIONARYWDFLT
  2
AcDbDictionaryWithDefault
  3
AutoCAD 2000
 90
        0
280
     0
281
     0
  0
CLASS
  1
ACDBPLACEHOLDER
  2
AcDbPlaceHolder
  3
AutoCAD 2000
 90
        0
280
     0
281
     0
  0
CLASS
  1
LAYOUT
  2
AcDbLayout
  3
AutoCAD 2000
 90
        0
280
     0
281
     0
  0
CLASS
  1
DICTIONARYVAR
  2
AcDbDictionaryVar
  3
AutoCAD 2000
 90
        0
280
     0
281
     0
  0
CLASS
  1
LONG_TRANSACTION
  2
AcDbLongTransaction
  3
AutoCAD 2000
 90
        0
280
     0
281
     0
  0
CLASS
  1
LWPOLYLINE
  2
AcDbPolyline
  3
AutoCAD 2000
 90
        0
280
     0
281
     1
  0
CLASS
  1
HATCH
  2
AcDbHatch
  3
AutoCAD 2000
 90
        0
280
     0
281
     1
  0
CLASS
  1
XRECORD
  2
AcDbXrecord
  3
AutoCAD 2000
 90
        0
280
     0
281
     0
  0
ENDSEC
  0
SECTION
  2
TABLES
  0
TABLE
  2
VPORT
  5
8
330
0
100
AcDbSymbolTable
 70
     2
  0
VPORT
  5
15C14
330
8
100
AcDbSymbolTableRecord
100
AcDbViewportTableRecord
  2
*ACTIVE
 70
     0
 10
0.0
 20
0.0
 11
1.0
 21
1.0
 12
-1470.704062466775
 22
1769.670363225406
 13
0.0
 23
0.0
 14
5.0
 24
5.0
 15
0.0
 25
0.0
 16
0.0
 26
0.0
 36
1.0
 17
0.0
 27
0.0
 37
0.0
 40
425.7906408698616
 41
2.192560175054704
 42
50.0
 43
0.0
 44
0.0
 50
0.0
 51
0.0
 71
     0
 72
   100
 73
     1
 74
     0
 75
     0
 76
     0
 77
     0
 78
     0
  0
ENDTAB
  0
TABLE
  2
LTYPE
  5
5
330
0
100
AcDbSymbolTable
 70
    13
  0
LTYPE
  5
14
330
5
100
AcDbSymbolTableRecord
100
AcDbLinetypeTableRecord
  2
BYBLOCK
 70
     0
  3

 72
    65
 73
     0
 40
0.0
  0
LTYPE
  5
15
330
5
100
AcDbSymbolTableRecord
100
AcDbLinetypeTableRecord
  2
BYLAYER
 70
     0
  3

 72
    65
 73
     0
 40
0.0
  0
LTYPE
  5
16
330
5
100
AcDbSymbolTableRecord
100
AcDbLinetypeTableRecord
  2
CONTINUOUS
 70
     0
  3
Solid line
 72
    65
 73
     0
 40
0.0
  0
LTYPE
  5
329
330
5
100
AcDbSymbolTableRecord
100
AcDbLinetypeTableRecord
  2
DASHEDX2
 70
     0
  3
____  ____  ____  ____  ____  ____  ____  ____ 
 72
    65
 73
     2
 40
1.5
 49
1.0
 74
     0
 49
-0.5
 74
     0
  0
LTYPE
  5
1956
330
5
100
AcDbSymbolTableRecord
100
AcDbLinetypeTableRecord
  2
CENTERX2
 70
     0
  3
________  __  ________  __  ________  __  _____
 72
    65
 73
     4
 40
4.0
 49
2.5
 74
     0
 49
-0.5
 74
     0
 49
0.5
 74
     0
 49
-0.5
 74
     0
  0
ENDTAB
  0
TABLE
  2
LAYER
  5
2
330
0
100
AcDbSymbolTable
 70
    34
  0
LAYER
  5
F
330
2
100
AcDbSymbolTableRecord
100
AcDbLayerTableRecord
  2
0
 70
     0
 62
     7
  6
CONTINUOUS
  0
LAYER
  5
18F
330
2
100
AcDbSymbolTableRecord
100
AcDbLayerTableRecord
  2
ZISSEN1
 70
     0
 62
     7
  6
CONTINUOUS
  0
LAYER
  5
191
330
2
100
AcDbSymbolTableRecord
100
AcDbLayerTableRecord
  2
SAISEN
 70
     0
 62
     1
  6
CONTINUOUS
  0
LAYER
  5
193
330
2
100
AcDbSymbolTableRecord
100
AcDbLayerTableRecord
  2
KAKURESEN2
 70
     0
 62
     4
  6
DASHEDX2
  0
LAYER
  5
529
330
2
100
AcDbSymbolTableRecord
100
AcDbLayerTableRecord
  2
SUNPOU
 70
     0
 62
     1
  6
CONTINUOUS
  0
LAYER
  5
195A
330
2
100
AcDbSymbolTableRecord
100
AcDbLayerTableRecord
  2
CL1
 70
     0
 62
   210
  6
CENTERX2
  0
LAYER
  5
3A9B
330
2
100
AcDbSymbolTableRecord
100
AcDbLayerTableRecord
  2
DEFPOINTS
 70
     0
 62
     7
  6
CONTINUOUS
  0
ENDTAB
  0
TABLE
  2
STYLE
  5
3
330
0
100
AcDbSymbolTable
 70
     5
  0
STYLE
  5
10
330
3
100
AcDbSymbolTableRecord
100
AcDbTextStyleTableRecord
  2
STANDARD
 70
     0
 40
0.0
 41
1.0
 50
0.0
 71
     0
 42
3.0
  3
txt
  4
BigFont
  0
STYLE
  5
1960
330
3
100
AcDbSymbolTableRecord
100
AcDbTextStyleTableRecord
  2
ゴシック体
 70
     0
 40
0.0
 41
1.0
 50
0.0
 71
     0
 42
2.5
  3
MS Gothic.ttf
  4

1001
ACAD
1000
MS Gothic
1071
    32817
  0
ENDTAB
  0
TABLE
  2
VIEW
  5
6
330
0
100
AcDbSymbolTable
 70
     0
  0
ENDTAB
  0
TABLE
  2
UCS
  5
7
330
0
100
AcDbSymbolTable
 70
     0
  0
ENDTAB
  0
TABLE
  2
APPID
  5
9
330
0
100
AcDbSymbolTable
 70
     5
  0
APPID
  5
11
330
9
100
AcDbSymbolTableRecord
100
AcDbRegAppTableRecord
  2
ACAD
 70
     0
  0
APPID
  5
4005
330
9
100
AcDbSymbolTableRecord
100
AcDbRegAppTableRecord
  2
CONTENTTABDATA
 70
     0
  0
APPID
  5
4006
330
9
100
AcDbSymbolTableRecord
100
AcDbRegAppTableRecord
  2
CONTENTCURRENTTAB
 70
     0
  0
APPID
  5
477B
330
9
100
AcDbSymbolTableRecord
100
AcDbRegAppTableRecord
  2
CONTENTBLOCKDESCRIPTION
 70
     0
  0
APPID
  5
477C
330
9
100
AcDbSymbolTableRecord
100
AcDbRegAppTableRecord
  2
CONTENTBLOCKICON
 70
     0
  0
ENDTAB
  0
TABLE
  2
DIMSTYLE
  5
A
330
0
100
AcDbSymbolTable
 70
    12
  0
DIMSTYLE
105
1D
330
A
100
AcDbSymbolTableRecord
100
AcDbDimStyleTableRecord
  2
STANDARD
 70
     0
  3

  4

  5

  6

  7

 40
1.0
 41
0.18
 42
0.0625
 43
0.38
 44
0.18
 45
0.0
 46
0.0
 47
0.0
 48
0.0
140
0.18
141
0.09
142
0.0
143
25.4
144
1.0
145
0.0
146
1.0
147
0.09
 71
     0
 72
     0
 73
     1
 74
     1
 75
     0
 76
     0
 77
     0
 78
     0
170
     0
171
     2
172
     0
173
     0
174
     0
175
     0
176
     0
177
     0
178
     0
270
     2
271
     4
272
     4
273
     2
274
     2
340
10
275
     0
280
     0
281
     0
282
     0
283
     1
284
     0
285
     0
286
     0
287
     3
288
     0
  0
DIMSTYLE
105
52E
102
{ACAD_REACTORS
330
135AC
330
135AF
330
135B1
330
13799
330
137A1
330
137A4
330
12E2D
330
12E7D
330
12E8A
330
12E97
330
12EEC
330
1302C
330
131B7
330
131B8
330
1322C
330
137CF
330
137D7
330
15808
330
15900
330
15929
102
}
330
A
100
AcDbSymbolTableRecord
100
AcDbDimStyleTableRecord
  2
標準スタイル
 70
     0
  3

  4

  5

  6

  7

 40
0.0
 41
3.0
 42
0.5
 43
0.5
 44
0.5
 45
0.0
 46
0.0
 47
0.0
 48
0.0
140
3.5
141
0.0
142
0.0
143
25.4
144
1.0
145
0.0
146
1.0
147
1.0
 71
     0
 72
     0
 73
     0
 74
     0
 75
     0
 76
     0
 77
     1
 78
     8
170
     0
171
     2
172
     1
173
     0
174
     0
175
     0
176
     1
177
     1
178
     1
270
     2
271
     2
272
     2
273
     2
274
     2
340
1960
275
     0
280
     0
281
     0
282
     0
283
     1
284
     8
285
     0
286
     0
287
     3
288
     0
  0
ENDTAB
  0
TABLE
  2
BLOCK_RECORD
  5
1
330
0
100
AcDbSymbolTable
 70
    47
  0
BLOCK_RECORD
  5
1A
102
{ACAD_XDICTIONARY
360
15C35
102
}
330
1
100
AcDbSymbolTableRecord
100
AcDbBlockTableRecord
  2
*MODEL_SPACE
  0
BLOCK_RECORD
  5
15176
102
{ACAD_XDICTIONARY
360
15C37
102
}
330
1
100
AcDbSymbolTableRecord
100
AcDbBlockTableRecord
  2
*PAPER_SPACE
  0
BLOCK_RECORD
  5
12E2E
330
1
100
AcDbSymbolTableRecord
100
AcDbBlockTableRecord
  2
*D24
  0
BLOCK_RECORD
  5
12E7E
330
1
100
AcDbSymbolTableRecord
100
AcDbBlockTableRecord
  2
*D25
  0
BLOCK_RECORD
  5
12E8B
330
1
100
AcDbSymbolTableRecord
100
AcDbBlockTableRecord
  2
*D26
  0
BLOCK_RECORD
  5
12E98
330
1
100
AcDbSymbolTableRecord
100
AcDbBlockTableRecord
  2
*D27
  0
BLOCK_RECORD
  5
12EED
330
1
100
AcDbSymbolTableRecord
100
AcDbBlockTableRecord
  2
*D28
  0
BLOCK_RECORD
  5
1302D
330
1
100
AcDbSymbolTableRecord
100
AcDbBlockTableRecord
  2
*D29
  0
BLOCK_RECORD
  5
131BD
330
1
100
AcDbSymbolTableRecord
100
AcDbBlockTableRecord
  2
*D30
  0
BLOCK_RECORD
  5
131C9
330
1
100
AcDbSymbolTableRecord
100
AcDbBlockTableRecord
  2
*D31
  0
BLOCK_RECORD
  5
1322D
330
1
100
AcDbSymbolTableRecord
100
AcDbBlockTableRecord
  2
*D32
  0
BLOCK_RECORD
  5
13802
330
1
100
AcDbSymbolTableRecord
100
AcDbBlockTableRecord
  2
*D42
  0
BLOCK_RECORD
  5
1380E
330
1
100
AcDbSymbolTableRecord
100
AcDbBlockTableRecord
  2
*D43
  0
BLOCK_RECORD
  5
15809
330
1
100
AcDbSymbolTableRecord
100
AcDbBlockTableRecord
  2
*D44
  0
BLOCK_RECORD
  5
15901
330
1
100
AcDbSymbolTableRecord
100
AcDbBlockTableRecord
  2
*D45
  0
BLOCK_RECORD
  5
1592A
330
1
100
AcDbSymbolTableRecord
100
AcDbBlockTableRecord
  2
*D46
  0
ENDTAB
  0
ENDSEC
  0
SECTION
  2
BLOCKS
  0
BLOCK
  5
1B
330
1A
100
AcDbEntity
  8
0
100
AcDbBlockBegin
  2
*MODEL_SPACE
 70
     0
 10
0.0
 20
0.0
 30
0.0
  3
*MODEL_SPACE
  1

  0
ENDBLK
  5
1C
330
1A
100
AcDbEntity
  8
0
100
AcDbBlockEnd
  0
BLOCK
  5
1517A
330
15176
100
AcDbEntity
 67
     1
  8
0
100
AcDbBlockBegin
  2
*PAPER_SPACE
 70
     0
 10
0.0
 20
0.0
 30
0.0
  3
*PAPER_SPACE
  1

  0
ENDBLK
  5
1517B
330
15176
100
AcDbEntity
 67
     1
  8
0
100
AcDbBlockEnd
  0
BLOCK
  5
12E38
330
12E2E
100
AcDbEntity
  8
0
100
AcDbBlockBegin
  2
*D24
 70
     1
 10
0.0
 20
0.0
 30
0.0
  3
*D24
  1

  0
LINE
  5
15B9E
330
12E2E
100
AcDbEntity
  8
SUNPOU
 62
     1
100
AcDbLine
 10
-1672.0
 20
1756.5
 30
0.0
 11
-1672.0
 21
1749.276221353369
 31
0.0
  0
LINE
  5
15B9F
330
12E2E
100
AcDbEntity
  8
SUNPOU
 62
     1
100
AcDbLine
 10
-1562.0
 20
1756.5
 30
0.0
 11
-1562.0
 21
1749.276221353369
 31
0.0
  0
LINE
  5
15BA0
330
12E2E
100
AcDbEntity
  8
SUNPOU
 62
     1
100
AcDbLine
 10
-1669.0
 20
1749.776221353369
 30
0.0
 11
-1565.0
 21
1749.776221353369
 31
0.0
  0
SOLID
  5
15BA1
330
12E2E
100
AcDbEntity
  8
SUNPOU
 62
     1
100
AcDbTrace
 10
-1669.0
 20
1750.276221353369
 30
0.0
 11
-1669.0
 21
1749.276221353369
 31
0.0
 12
-1672.0
 22
1749.776221353369
 32
0.0
 13
-1672.0
 23
1749.776221353369
 33
0.0
  0
SOLID
  5
15BA2
330
12E2E
100
AcDbEntity
  8
SUNPOU
 62
     1
100
AcDbTrace
 10
-1565.0
 20
1750.276221353369
 30
0.0
 11
-1565.0
 21
1749.276221353369
 31
0.0
 12
-1562.0
 22
1749.776221353369
 32
0.0
 13
-1562.0
 23
1749.776221353369
 33
0.0
  0
MTEXT
  5
15BA3
330
12E2E
100
AcDbEntity
  8
SUNPOU
 62
     1
100
AcDbMText
 10
-1617.0
 20
1752.526221353369
 30
0.0
 40
3.5
 41
0.0
 71
     5
 72
     1
  1
\A1;110
1001
ACAD
1000
MTEXTBEGIN
1070
    73
1070
     1
1070
    44
1040
1.0
1070
    74
1070
     0
1000
MTEXTEND
  0
POINT
  5
15BA4
330
12E2E
100
AcDbEntity
  8
DEFPOINTS
 62
     0
100
AcDbPoint
 10
-1672.0
 20
1757.0
 30
0.0
  0
POINT
  5
15BA5
330
12E2E
100
AcDbEntity
  8
DEFPOINTS
 62
     0
100
AcDbPoint
 10
-1562.0
 20
1757.0
 30
0.0
  0
POINT
  5
15BA6
330
12E2E
100
AcDbEntity
  8
DEFPOINTS
 62
     0
100
AcDbPoint
 10
-1562.0
 20
1749.776221353369
 30
0.0
  0
ENDBLK
  5
12E39
330
12E2E
100
AcDbEntity
  8
0
100
AcDbBlockEnd
  0
BLOCK
  5
12E88
330
12E7E
100
AcDbEntity
  8
0
100
AcDbBlockBegin
  2
*D25
 70
     1
 10
0.0
 20
0.0
 30
0.0
  3
*D25
  1

  0
LINE
  5
15B83
330
12E7E
100
AcDbEntity
  8
SUNPOU
 62
     1
100
AcDbLine
 10
-1561.5
 20
1792.0
 30
0.0
 11
-1516.121232540172
 21
1791.999999999999
 31
0.0
  0
LINE
  5
15B84
330
12E7E
100
AcDbEntity
  8
SUNPOU
 62
     1
100
AcDbLine
 10
-1561.5
 20
1757.0
 30
0.0
 11
-1516.121232540172
 21
1756.999999999999
 31
0.0
  0
LINE
  5
15B85
330
12E7E
100
AcDbEntity
  8
SUNPOU
 62
     1
100
AcDbLine
 10
-1516.621232540172
 20
1788.999999999999
 30
0.0
 11
-1516.621232540172
 21
1759.999999999999
 31
0.0
  0
SOLID
  5
15B86
330
12E7E
100
AcDbEntity
  8
SUNPOU
 62
     1
100
AcDbTrace
 10
-1517.121232540172
 20
1788.999999999999
 30
0.0
 11
-1516.121232540172
 21
1788.999999999999
 31
0.0
 12
-1516.621232540172
 22
1791.999999999999
 32
0.0
 13
-1516.621232540172
 23
1791.999999999999
 33
0.0
  0
SOLID
  5
15B87
330
12E7E
100
AcDbEntity
  8
SUNPOU
 62
     1
100
AcDbTrace
 10
-1517.121232540172
 20
1759.999999999999
 30
0.0
 11
-1516.121232540172
 21
1759.999999999999
 31
0.0
 12
-1516.621232540172
 22
1756.999999999999
 32
0.0
 13
-1516.621232540172
 23
1756.999999999999
 33
0.0
  0
MTEXT
  5
15B88
330
12E7E
100
AcDbEntity
  8
SUNPOU
 62
     1
100
AcDbMText
 10
-1519.371232540172
 20
1774.499999999999
 30
0.0
 40
3.5
 41
0.0
 71
     5
 72
     1
  1
\A1;35
 11
0.0000000000000001
 21
1.0
 31
0.0
1001
ACAD
1000
MTEXTBEGIN
1070
    73
1070
     1
1070
    44
1040
1.0
1070
    74
1070
     0
1000
MTEXTEND
  0
POINT
  5
15B89
330
12E7E
100
AcDbEntity
  8
DEFPOINTS
 62
     0
100
AcDbPoint
 10
-1562.0
 20
1792.0
 30
0.0
  0
POINT
  5
15B8A
330
12E7E
100
AcDbEntity
  8
DEFPOINTS
 62
     0
100
AcDbPoint
 10
-1562.0
 20
1757.0
 30
0.0
  0
POINT
  5
15B8B
330
12E7E
100
AcDbEntity
  8
DEFPOINTS
 62
     0
100
AcDbPoint
 10
-1516.621232540172
 20
1756.999999999999
 30
0.0
  0
ENDBLK
  5
12E89
330
12E7E
100
AcDbEntity
  8
0
100
AcDbBlockEnd
  0
BLOCK
  5
12E95
330
12E8B
100
AcDbEntity
  8
0
100
AcDbBlockBegin
  2
*D26
 70
     1
 10
0.0
 20
0.0
 30
0.0
  3
*D26
  1

  0
LINE
  5
15B71
330
12E8B
100
AcDbEntity
  8
SUNPOU
 62
     1
100
AcDbLine
 10
-1498.25
 20
1945.0
 30
0.0
 11
-1465.317654598331
 21
1945.0
 31
0.0
  0
LINE
  5
15B72
330
12E8B
100
AcDbEntity
  8
SUNPOU
 62
     1
100
AcDbLine
 10
-1489.5
 20
1930.0
 30
0.0
 11
-1465.317654598331
 21
1930.0
 31
0.0
  0
LINE
  5
15B73
330
12E8B
100
AcDbEntity
  8
SUNPOU
 62
     1
100
AcDbLine
 10
-1465.817654598331
 20
1942.0
 30
0.0
 11
-1465.817654598331
 21
1933.0
 31
0.0
  0
SOLID
  5
15B74
330
12E8B
100
AcDbEntity
  8
SUNPOU
 62
     1
100
AcDbTrace
 10
-1466.317654598331
 20
1942.0
 30
0.0
 11
-1465.317654598331
 21
1942.0
 31
0.0
 12
-1465.817654598331
 22
1945.0
 32
0.0
 13
-1465.817654598331
 23
1945.0
 33
0.0
  0
SOLID
  5
15B75
330
12E8B
100
AcDbEntity
  8
SUNPOU
 62
     1
100
AcDbTrace
 10
-1466.317654598331
 20
1933.0
 30
0.0
 11
-1465.317654598331
 21
1933.0
 31
0.0
 12
-1465.817654598331
 22
1930.0
 32
0.0
 13
-1465.817654598331
 23
1930.0
 33
0.0
  0
MTEXT
  5
15B76
330
12E8B
100
AcDbEntity
  8
SUNPOU
 62
     1
100
AcDbMText
 10
-1468.567654598332
 20
1937.499999999999
 30
0.0
 40
3.5
 41
0.0
 71
     5
 72
     1
  1
\A1;15
 11
0.0000000000000001
 21
1.0
 31
0.0
1001
ACAD
1000
MTEXTBEGIN
1070
    73
1070
     1
1070
    44
1040
1.0
1070
    74
1070
     0
1000
MTEXTEND
  0
POINT
  5
15B77
330
12E8B
100
AcDbEntity
  8
DEFPOINTS
 62
     0
100
AcDbPoint
 10
-1498.75
 20
1945.0
 30
0.0
  0
POINT
  5
15B78
330
12E8B
100
AcDbEntity
  8
DEFPOINTS
 62
     0
100
AcDbPoint
 10
-1490.0
 20
1930.0
 30
0.0
  0
POINT
  5
15B79
330
12E8B
100
AcDbEntity
  8
DEFPOINTS
 62
     0
100
AcDbPoint
 10
-1465.817654598331
 20
1930.0
 30
0.0
  0
ENDBLK
  5
12E96
330
12E8B
100
AcDbEntity
  8
0
100
AcDbBlockEnd
  0
BLOCK
  5
12EA2
330
12E98
100
AcDbEntity
  8
0
100
AcDbBlockBegin
  2
*D27
 70
     1
 10
0.0
 20
0.0
 30
0.0
  3
*D27
  1

  0
LINE
  5
15B7A
330
12E98
100
AcDbEntity
  8
SUNPOU
 62
     1
100
AcDbLine
 10
-1489.5
 20
1930.0
 30
0.0
 11
-1465.317654598331
 21
1930.0
 31
0.0
  0
LINE
  5
15B7B
330
12E98
100
AcDbEntity
  8
SUNPOU
 62
     1
100
AcDbLine
 10
-1489.5
 20
1800.0
 30
0.0
 11
-1465.317654598331
 21
1800.0
 31
0.0
  0
LINE
  5
15B7C
330
12E98
100
AcDbEntity
  8
SUNPOU
 62
     1
100
AcDbLine
 10
-1465.817654598331
 20
1927.0
 30
0.0
 11
-1465.817654598331
 21
1803.0
 31
0.0
  0
SOLID
  5
15B7D
330
12E98
100
AcDbEntity
  8
SUNPOU
 62
     1
100
AcDbTrace
 10
-1466.317654598331
 20
1927.0
 30
0.0
 11
-1465.317654598331
 21
1927.0
 31
0.0
 12
-1465.817654598331
 22
1930.0
 32
0.0
 13
-1465.817654598331
 23
1930.0
 33
0.0
  0
SOLID
  5
15B7E
330
12E98
100
AcDbEntity
  8
SUNPOU
 62
     1
100
AcDbTrace
 10
-1466.317654598331
 20
1803.0
 30
0.0
 11
-1465.317654598331
 21
1803.0
 31
0.0
 12
-1465.817654598331
 22
1800.0
 32
0.0
 13
-1465.817654598331
 23
1800.0
 33
0.0
  0
MTEXT
  5
15B7F
330
12E98
100
AcDbEntity
  8
SUNPOU
 62
     1
100
AcDbMText
 10
-1468.567654598332
 20
1865.0
 30
0.0
 40
3.5
 41
0.0
 71
     5
 72
     1
  1
\A1;130
 11
0.0000000000000001
 21
1.0
 31
0.0
1001
ACAD
1000
MTEXTBEGIN
1070
    73
1070
     1
1070
    44
1040
1.0
1070
    74
1070
     0
1000
MTEXTEND
  0
POINT
  5
15B80
330
12E98
100
AcDbEntity
  8
DEFPOINTS
 62
     0
100
AcDbPoint
 10
-1490.0
 20
1930.0
 30
0.0
  0
POINT
  5
15B81
330
12E98
100
AcDbEntity
  8
DEFPOINTS
 62
     0
100
AcDbPoint
 10
-1490.0
 20
1800.0
 30
0.0
  0
POINT
  5
15B82
330
12E98
100
AcDbEntity
  8
DEFPOINTS
 62
     0
100
AcDbPoint
 10
-1465.817654598331
 20
1800.0
 30
0.0
  0
ENDBLK
  5
12EA3
330
12E98
100
AcDbEntity
  8
0
100
AcDbBlockEnd
  0
BLOCK
  5
12EF7
330
12EED
100
AcDbEntity
  8
0
100
AcDbBlockBegin
  2
*D28
 70
     1
 10
0.0
 20
0.0
 30
0.0
  3
*D28
  1

  0
LINE
  5
15B95
330
12EED
100
AcDbEntity
  8
SUNPOU
 62
     1
100
AcDbLine
 10
-1681.0
 20
1770.5
 30
0.0
 11
-1681.0
 21
1742.45850233393
 31
0.0
  0
LINE
  5
15B96
330
12EED
100
AcDbEntity
  8
SUNPOU
 62
     1
100
AcDbLine
 10
-1553.0
 20
1770.5
 30
0.0
 11
-1553.0
 21
1742.45850233393
 31
0.0
  0
LINE
  5
15B97
330
12EED
100
AcDbEntity
  8
SUNPOU
 62
     1
100
AcDbLine
 10
-1678.0
 20
1742.95850233393
 30
0.0
 11
-1556.0
 21
1742.95850233393
 31
0.0
  0
SOLID
  5
15B98
330
12EED
100
AcDbEntity
  8
SUNPOU
 62
     1
100
AcDbTrace
 10
-1678.0
 20
1743.45850233393
 30
0.0
 11
-1678.0
 21
1742.45850233393
 31
0.0
 12
-1681.0
 22
1742.95850233393
 32
0.0
 13
-1681.0
 23
1742.95850233393
 33
0.0
  0
SOLID
  5
15B99
330
12EED
100
AcDbEntity
  8
SUNPOU
 62
     1
100
AcDbTrace
 10
-1556.0
 20
1743.45850233393
 30
0.0
 11
-1556.0
 21
1742.45850233393
 31
0.0
 12
-1553.0
 22
1742.95850233393
 32
0.0
 13
-1553.0
 23
1742.95850233393
 33
0.0
  0
MTEXT
  5
15B9A
330
12EED
100
AcDbEntity
  8
SUNPOU
 62
     1
100
AcDbMText
 10
-1617.0
 20
1745.70850233393
 30
0.0
 40
3.5
 41
0.0
 71
     5
 72
     1
  1
\A1;128
1001
ACAD
1000
MTEXTBEGIN
1070
    73
1070
     1
1070
    44
1040
1.0
1070
    74
1070
     0
1000
MTEXTEND
  0
POINT
  5
15B9B
330
12EED
100
AcDbEntity
  8
DEFPOINTS
 62
     0
100
AcDbPoint
 10
-1681.0
 20
1771.0
 30
0.0
  0
POINT
  5
15B9C
330
12EED
100
AcDbEntity
  8
DEFPOINTS
 62
     0
100
AcDbPoint
 10
-1553.0
 20
1771.0
 30
0.0
  0
POINT
  5
15B9D
330
12EED
100
AcDbEntity
  8
DEFPOINTS
 62
     0
100
AcDbPoint
 10
-1553.0
 20
1742.95850233393
 30
0.0
  0
ENDBLK
  5
12EF8
330
12EED
100
AcDbEntity
  8
0
100
AcDbBlockEnd
  0
BLOCK
  5
13037
330
1302D
100
AcDbEntity
  8
0
100
AcDbBlockBegin
  2
*D29
 70
     1
 10
0.0
 20
0.0
 30
0.0
  3
*D29
  1

  0
LINE
  5
15B8C
330
1302D
100
AcDbEntity
  8
SUNPOU
 62
     1
100
AcDbLine
 10
-1546.499999999999
 20
1791.0
 30
0.0
 11
-1525.854979153775
 21
1790.999999999999
 31
0.0
  0
LINE
  5
15B8D
330
1302D
100
AcDbEntity
  8
SUNPOU
 62
     1
100
AcDbLine
 10
-1547.5
 20
1758.0
 30
0.0
 11
-1525.854979153775
 21
1758.0
 31
0.0
  0
LINE
  5
15B8E
330
1302D
100
AcDbEntity
  8
SUNPOU
 62
     1
100
AcDbLine
 10
-1526.354979153775
 20
1788.0
 30
0.0
 11
-1526.354979153775
 21
1761.0
 31
0.0
  0
SOLID
  5
15B8F
330
1302D
100
AcDbEntity
  8
SUNPOU
 62
     1
100
AcDbTrace
 10
-1526.854979153775
 20
1788.0
 30
0.0
 11
-1525.854979153775
 21
1788.0
 31
0.0
 12
-1526.354979153775
 22
1790.999999999999
 32
0.0
 13
-1526.354979153775
 23
1790.999999999999
 33
0.0
  0
SOLID
  5
15B90
330
1302D
100
AcDbEntity
  8
SUNPOU
 62
     1
100
AcDbTrace
 10
-1526.854979153775
 20
1761.0
 30
0.0
 11
-1525.854979153775
 21
1761.0
 31
0.0
 12
-1526.354979153775
 22
1758.0
 32
0.0
 13
-1526.354979153775
 23
1758.0
 33
0.0
  0
MTEXT
  5
15B91
330
1302D
100
AcDbEntity
  8
SUNPOU
 62
     1
100
AcDbMText
 10
-1529.104979153775
 20
1774.811015262001
 30
0.0
 40
3.5
 41
0.0
 71
     5
 72
     1
  1
\A1;33
 11
0.0000000000000001
 21
1.0
 31
0.0
1001
ACAD
1000
MTEXTBEGIN
1070
    73
1070
     1
1070
    44
1040
1.0
1070
    74
1070
     0
1000
MTEXTEND
  0
POINT
  5
15B92
330
1302D
100
AcDbEntity
  8
DEFPOINTS
 62
     0
100
AcDbPoint
 10
-1547.0
 20
1791.0
 30
0.0
  0
POINT
  5
15B93
330
1302D
100
AcDbEntity
  8
DEFPOINTS
 62
     0
100
AcDbPoint
 10
-1548.0
 20
1758.0
 30
0.0
  0
POINT
  5
15B94
330
1302D
100
AcDbEntity
  8
DEFPOINTS
 62
     0
100
AcDbPoint
 10
-1526.354979153775
 20
1758.0
 30
0.0
  0
ENDBLK
  5
13038
330
1302D
100
AcDbEntity
  8
0
100
AcDbBlockEnd
  0
BLOCK
  5
131C7
330
131BD
100
AcDbEntity
  8
0
100
AcDbBlockBegin
  2
*D30
 70
     1
 10
0.0
 20
0.0
 30
0.0
  3
*D30
  1

  0
LINE
  5
15BBB
330
131BD
100
AcDbEntity
  8
SUNPOU
 62
     1
100
AcDbLine
 10
-1681.0
 20
1694.0
 30
0.0
 11
-1681.0
 21
1666.547648971495
 31
0.0
  0
LINE
  5
15BBC
330
131BD
100
AcDbEntity
  8
SUNPOU
 62
     1
100
AcDbLine
 10
-1553.0
 20
1693.5
 30
0.0
 11
-1553.0
 21
1666.547648971495
 31
0.0
  0
LINE
  5
15BBD
330
131BD
100
AcDbEntity
  8
SUNPOU
 62
     1
100
AcDbLine
 10
-1678.0
 20
1667.047648971495
 30
0.0
 11
-1556.0
 21
1667.047648971495
 31
0.0
  0
SOLID
  5
15BBE
330
131BD
100
AcDbEntity
  8
SUNPOU
 62
     1
100
AcDbTrace
 10
-1678.0
 20
1667.547648971495
 30
0.0
 11
-1678.0
 21
1666.547648971495
 31
0.0
 12
-1681.0
 22
1667.047648971495
 32
0.0
 13
-1681.0
 23
1667.047648971495
 33
0.0
  0
SOLID
  5
15BBF
330
131BD
100
AcDbEntity
  8
SUNPOU
 62
     1
100
AcDbTrace
 10
-1556.0
 20
1667.547648971495
 30
0.0
 11
-1556.0
 21
1666.547648971495
 31
0.0
 12
-1553.0
 22
1667.047648971495
 32
0.0
 13
-1553.0
 23
1667.047648971495
 33
0.0
  0
MTEXT
  5
15BC0
330
131BD
100
AcDbEntity
  8
SUNPOU
 62
     1
100
AcDbMText
 10
-1617.0
 20
1669.797648971495
 30
0.0
 40
3.5
 41
0.0
 71
     5
 72
     1
  1
\A1;128
1001
ACAD
1000
MTEXTBEGIN
1070
    73
1070
     1
1070
    44
1040
1.0
1070
    74
1070
     0
1000
MTEXTEND
  0
POINT
  5
15BC1
330
131BD
100
AcDbEntity
  8
DEFPOINTS
 62
     0
100
AcDbPoint
 10
-1681.0
 20
1694.5
 30
0.0
  0
POINT
  5
15BC2
330
131BD
100
AcDbEntity
  8
DEFPOINTS
 62
     0
100
AcDbPoint
 10
-1553.0
 20
1694.0
 30
0.0
  0
POINT
  5
15BC3
330
131BD
100
AcDbEntity
  8
DEFPOINTS
 62
     0
100
AcDbPoint
 10
-1553.0
 20
1667.047648971495
 30
0.0
  0
ENDBLK
  5
131C8
330
131BD
100
AcDbEntity
  8
0
100
AcDbBlockEnd
  0
BLOCK
  5
131D3
330
131C9
100
AcDbEntity
  8
0
100
AcDbBlockBegin
  2
*D31
 70
     1
 10
0.0
 20
0.0
 30
0.0
  3
*D31
  1

  0
LINE
  5
15BC4
330
131C9
100
AcDbEntity
  8
SUNPOU
 62
     1
100
AcDbLine
 10
-1672.5
 20
1679.5
 30
0.0
 11
-1672.5
 21
1673.365367990934
 31
0.0
  0
LINE
  5
15BC5
330
131C9
100
AcDbEntity
  8
SUNPOU
 62
     1
100
AcDbLine
 10
-1561.5
 20
1679.5
 30
0.0
 11
-1561.5
 21
1673.365367990934
 31
0.0
  0
LINE
  5
15BC6
330
131C9
100
AcDbEntity
  8
SUNPOU
 62
     1
100
AcDbLine
 10
-1669.5
 20
1673.865367990934
 30
0.0
 11
-1564.499999999999
 21
1673.865367990934
 31
0.0
  0
SOLID
  5
15BC7
330
131C9
100
AcDbEntity
  8
SUNPOU
 62
     1
100
AcDbTrace
 10
-1669.5
 20
1674.365367990934
 30
0.0
 11
-1669.5
 21
1673.365367990934
 31
0.0
 12
-1672.5
 22
1673.865367990934
 32
0.0
 13
-1672.5
 23
1673.865367990934
 33
0.0
  0
SOLID
  5
15BC8
330
131C9
100
AcDbEntity
  8
SUNPOU
 62
     1
100
AcDbTrace
 10
-1564.499999999999
 20
1674.365367990934
 30
0.0
 11
-1564.499999999999
 21
1673.365367990934
 31
0.0
 12
-1561.5
 22
1673.865367990934
 32
0.0
 13
-1561.5
 23
1673.865367990934
 33
0.0
  0
MTEXT
  5
15BC9
330
131C9
100
AcDbEntity
  8
SUNPOU
 62
     1
100
AcDbMText
 10
-1617.0
 20
1676.615367990934
 30
0.0
 40
3.5
 41
0.0
 71
     5
 72
     1
  1
\A1;111
1001
ACAD
1000
MTEXTBEGIN
1070
    73
1070
     1
1070
    44
1040
1.0
1070
    74
1070
     0
1000
MTEXTEND
  0
POINT
  5
15BCA
330
131C9
100
AcDbEntity
  8
DEFPOINTS
 62
     0
100
AcDbPoint
 10
-1672.5
 20
1680.0
 30
0.0
  0
POINT
  5
15BCB
330
131C9
100
AcDbEntity
  8
DEFPOINTS
 62
     0
100
AcDbPoint
 10
-1561.5
 20
1680.0
 30
0.0
  0
POINT
  5
15BCC
330
131C9
100
AcDbEntity
  8
DEFPOINTS
 62
     0
100
AcDbPoint
 10
-1561.5
 20
1673.865367990934
 30
0.0
  0
ENDBLK
  5
131D4
330
131C9
100
AcDbEntity
  8
0
100
AcDbBlockEnd
  0
BLOCK
  5
13237
330
1322D
100
AcDbEntity
  8
0
100
AcDbBlockBegin
  2
*D32
 70
     1
 10
0.0
 20
0.0
 30
0.0
  3
*D32
  1

  0
LINE
  5
15BCD
330
1322D
100
AcDbEntity
  8
SUNPOU
 62
     1
100
AcDbLine
 10
-1561.0
 20
1716.0
 30
0.0
 11
-1515.017568922938
 21
1715.999999999999
 31
0.0
  0
LINE
  5
15BCE
330
1322D
100
AcDbEntity
  8
SUNPOU
 62
     1
100
AcDbLine
 10
-1561.0
 20
1680.0
 30
0.0
 11
-1515.017568922938
 21
1679.999999999999
 31
0.0
  0
LINE
  5
15BCF
330
1322D
100
AcDbEntity
  8
SUNPOU
 62
     1
100
AcDbLine
 10
-1515.517568922938
 20
1713.0
 30
0.0
 11
-1515.517568922938
 21
1682.999999999999
 31
0.0
  0
SOLID
  5
15BD0
330
1322D
100
AcDbEntity
  8
SUNPOU
 62
     1
100
AcDbTrace
 10
-1516.017568922937
 20
1713.0
 30
0.0
 11
-1515.017568922938
 21
1713.0
 31
0.0
 12
-1515.517568922938
 22
1715.999999999999
 32
0.0
 13
-1515.517568922938
 23
1715.999999999999
 33
0.0
  0
SOLID
  5
15BD1
330
1322D
100
AcDbEntity
  8
SUNPOU
 62
     1
100
AcDbTrace
 10
-1516.017568922937
 20
1682.999999999999
 30
0.0
 11
-1515.017568922938
 21
1682.999999999999
 31
0.0
 12
-1515.517568922938
 22
1679.999999999999
 32
0.0
 13
-1515.517568922938
 23
1679.999999999999
 33
0.0
  0
MTEXT
  5
15BD2
330
1322D
100
AcDbEntity
  8
SUNPOU
 62
     1
100
AcDbMText
 10
-1518.267568922938
 20
1697.999999999999
 30
0.0
 40
3.5
 41
0.0
 71
     5
 72
     1
  1
\A1;36
 11
0.0000000000000001
 21
1.0
 31
0.0
1001
ACAD
1000
MTEXTBEGIN
1070
    73
1070
     1
1070
    44
1040
1.0
1070
    74
1070
     0
1000
MTEXTEND
  0
POINT
  5
15BD3
330
1322D
100
AcDbEntity
  8
DEFPOINTS
 62
     0
100
AcDbPoint
 10
-1561.5
 20
1716.0
 30
0.0
  0
POINT
  5
15BD4
330
1322D
100
AcDbEntity
  8
DEFPOINTS
 62
     0
100
AcDbPoint
 10
-1561.5
 20
1680.0
 30
0.0
  0
POINT
  5
15BD5
330
1322D
100
AcDbEntity
  8
DEFPOINTS
 62
     0
100
AcDbPoint
 10
-1515.517568922938
 20
1679.999999999999
 30
0.0
  0
ENDBLK
  5
13238
330
1322D
100
AcDbEntity
  8
0
100
AcDbBlockEnd
  0
BLOCK
  5
1380C
330
13802
100
AcDbEntity
  8
0
100
AcDbBlockBegin
  2
*D42
 70
     1
 10
0.0
 20
0.0
 30
0.0
  3
*D42
  1

  0
LINE
  5
15BE8
330
13802
100
AcDbEntity
  8
SUNPOU
 62
     1
100
AcDbLine
 10
-1681.00000130986
 20
1618.99999938504
 30
0.0
 11
-1681.00000130986
 21
1591.547648356536
 31
0.0
  0
LINE
  5
15BE9
330
13802
100
AcDbEntity
  8
SUNPOU
 62
     1
100
AcDbLine
 10
-1553.00000130986
 20
1618.99999938504
 30
0.0
 11
-1553.00000130986
 21
1591.547648356536
 31
0.0
  0
LINE
  5
15BEA
330
13802
100
AcDbEntity
  8
SUNPOU
 62
     1
100
AcDbLine
 10
-1678.00000130986
 20
1592.047648356536
 30
0.0
 11
-1556.00000130986
 21
1592.047648356536
 31
0.0
  0
SOLID
  5
15BEB
330
13802
100
AcDbEntity
  8
SUNPOU
 62
     1
100
AcDbTrace
 10
-1678.00000130986
 20
1592.547648356536
 30
0.0
 11
-1678.00000130986
 21
1591.547648356536
 31
0.0
 12
-1681.00000130986
 22
1592.047648356536
 32
0.0
 13
-1681.00000130986
 23
1592.047648356536
 33
0.0
  0
SOLID
  5
15BEC
330
13802
100
AcDbEntity
  8
SUNPOU
 62
     1
100
AcDbTrace
 10
-1556.00000130986
 20
1592.547648356536
 30
0.0
 11
-1556.00000130986
 21
1591.547648356536
 31
0.0
 12
-1553.00000130986
 22
1592.047648356536
 32
0.0
 13
-1553.00000130986
 23
1592.047648356536
 33
0.0
  0
MTEXT
  5
15BED
330
13802
100
AcDbEntity
  8
SUNPOU
 62
     1
100
AcDbMText
 10
-1617.00000130986
 20
1594.797648356536
 30
0.0
 40
3.5
 41
0.0
 71
     5
 72
     1
  1
\A1;128
1001
ACAD
1000
MTEXTBEGIN
1070
    73
1070
     1
1070
    44
1040
1.0
1070
    74
1070
     0
1000
MTEXTEND
  0
POINT
  5
15BEE
330
13802
100
AcDbEntity
  8
DEFPOINTS
 62
     0
100
AcDbPoint
 10
-1681.00000130986
 20
1619.49999938504
 30
0.0
  0
POINT
  5
15BEF
330
13802
100
AcDbEntity
  8
DEFPOINTS
 62
     0
100
AcDbPoint
 10
-1553.00000130986
 20
1619.49999938504
 30
0.0
  0
POINT
  5
15BF0
330
13802
100
AcDbEntity
  8
DEFPOINTS
 62
     0
100
AcDbPoint
 10
-1553.00000130986
 20
1592.047648356536
 30
0.0
  0
ENDBLK
  5
1380D
330
13802
100
AcDbEntity
  8
0
100
AcDbBlockEnd
  0
BLOCK
  5
13818
330
1380E
100
AcDbEntity
  8
0
100
AcDbBlockBegin
  2
*D43
 70
     1
 10
0.0
 20
0.0
 30
0.0
  3
*D43
  1

  0
LINE
  5
15BD6
330
1380E
100
AcDbEntity
  8
SUNPOU
 62
     1
100
AcDbLine
 10
-1556.499999999999
 20
1640.999989406936
 30
0.0
 11
-1515.017570232798
 21
1640.999989406936
 31
0.0
  0
LINE
  5
15BD7
330
1380E
100
AcDbEntity
  8
SUNPOU
 62
     1
100
AcDbLine
 10
-1556.499999999999
 20
1604.99999938504
 30
0.0
 11
-1515.017570232798
 21
1604.999999385039
 31
0.0
  0
LINE
  5
15BD8
330
1380E
100
AcDbEntity
  8
SUNPOU
 62
     1
100
AcDbLine
 10
-1515.517570232798
 20
1637.999989406936
 30
0.0
 11
-1515.517570232798
 21
1607.99999938504
 31
0.0
  0
SOLID
  5
15BD9
330
1380E
100
AcDbEntity
  8
SUNPOU
 62
     1
100
AcDbTrace
 10
-1516.017570232798
 20
1637.999989406936
 30
0.0
 11
-1515.017570232798
 21
1637.999989406936
 31
0.0
 12
-1515.517570232798
 22
1640.999989406936
 32
0.0
 13
-1515.517570232798
 23
1640.999989406936
 33
0.0
  0
SOLID
  5
15BDA
330
1380E
100
AcDbEntity
  8
SUNPOU
 62
     1
100
AcDbTrace
 10
-1516.017570232798
 20
1607.99999938504
 30
0.0
 11
-1515.017570232798
 21
1607.99999938504
 31
0.0
 12
-1515.517570232798
 22
1604.999999385039
 32
0.0
 13
-1515.517570232798
 23
1604.999999385039
 33
0.0
  0
MTEXT
  5
15BDB
330
1380E
100
AcDbEntity
  8
SUNPOU
 62
     1
100
AcDbMText
 10
-1518.267570232799
 20
1622.999994395987
 30
0.0
 40
3.5
 41
0.0
 71
     5
 72
     1
  1
\A1;36
 11
0.0000000000000001
 21
1.0
 31
0.0
1001
ACAD
1000
MTEXTBEGIN
1070
    73
1070
     1
1070
    44
1040
1.0
1070
    74
1070
     0
1000
MTEXTEND
  0
POINT
  5
15BDC
330
1380E
100
AcDbEntity
  8
DEFPOINTS
 62
     0
100
AcDbPoint
 10
-1557.0
 20
1640.999989406936
 30
0.0
  0
POINT
  5
15BDD
330
1380E
100
AcDbEntity
  8
DEFPOINTS
 62
     0
100
AcDbPoint
 10
-1557.0
 20
1604.99999938504
 30
0.0
  0
POINT
  5
15BDE
330
1380E
100
AcDbEntity
  8
DEFPOINTS
 62
     0
100
AcDbPoint
 10
-1515.517570232798
 20
1604.999999385039
 30
0.0
  0
ENDBLK
  5
13819
330
1380E
100
AcDbEntity
  8
0
100
AcDbBlockEnd
  0
BLOCK
  5
15813
330
15809
100
AcDbEntity
  8
0
100
AcDbBlockBegin
  2
*D44
 70
     1
 10
0.0
 20
0.0
 30
0.0
  3
*D44
  1

  0
LINE
  5
15BDF
330
15809
100
AcDbEntity
  8
SUNPOU
 62
     1
100
AcDbLine
 10
-1677.0
 20
1604.49999938504
 30
0.0
 11
-1677.0
 21
1598.177215419164
 31
0.0
  0
LINE
  5
15BE0
330
15809
100
AcDbEntity
  8
SUNPOU
 62
     1
100
AcDbLine
 10
-1557.0
 20
1604.49999938504
 30
0.0
 11
-1557.0
 21
1598.177215419164
 31
0.0
  0
LINE
  5
15BE1
330
15809
100
AcDbEntity
  8
SUNPOU
 62
     1
100
AcDbLine
 10
-1674.0
 20
1598.677215419164
 30
0.0
 11
-1560.0
 21
1598.677215419164
 31
0.0
  0
SOLID
  5
15BE2
330
15809
100
AcDbEntity
  8
SUNPOU
 62
     1
100
AcDbTrace
 10
-1674.0
 20
1599.177215419164
 30
0.0
 11
-1674.0
 21
1598.177215419164
 31
0.0
 12
-1677.0
 22
1598.677215419164
 32
0.0
 13
-1677.0
 23
1598.677215419164
 33
0.0
  0
SOLID
  5
15BE3
330
15809
100
AcDbEntity
  8
SUNPOU
 62
     1
100
AcDbTrace
 10
-1560.0
 20
1599.177215419164
 30
0.0
 11
-1560.0
 21
1598.177215419164
 31
0.0
 12
-1557.0
 22
1598.677215419164
 32
0.0
 13
-1557.0
 23
1598.677215419164
 33
0.0
  0
MTEXT
  5
15BE4
330
15809
100
AcDbEntity
  8
SUNPOU
 62
     1
100
AcDbMText
 10
-1617.0
 20
1601.427215419164
 30
0.0
 40
3.5
 41
0.0
 71
     5
 72
     1
  1
\A1;120
1001
ACAD
1000
MTEXTBEGIN
1070
    73
1070
     1
1070
    44
1040
1.0
1070
    74
1070
     0
1000
MTEXTEND
  0
POINT
  5
15BE5
330
15809
100
AcDbEntity
  8
DEFPOINTS
 62
     0
100
AcDbPoint
 10
-1677.0
 20
1604.99999938504
 30
0.0
  0
POINT
  5
15BE6
330
15809
100
AcDbEntity
  8
DEFPOINTS
 62
     0
100
AcDbPoint
 10
-1557.0
 20
1604.99999938504
 30
0.0
  0
POINT
  5
15BE7
330
15809
100
AcDbEntity
  8
DEFPOINTS
 62
     0
100
AcDbPoint
 10
-1557.0
 20
1598.677215419164
 30
0.0
  0
ENDBLK
  5
15814
330
15809
100
AcDbEntity
  8
0
100
AcDbBlockEnd
  0
BLOCK
  5
1590B
330
15901
100
AcDbEntity
  8
0
100
AcDbBlockBegin
  2
*D45
 70
     1
 10
0.0
 20
0.0
 30
0.0
  3
*D45
  1

  0
LINE
  5
15BA7
330
15901
100
AcDbEntity
  8
SUNPOU
 62
     1
100
AcDbLine
 10
-1687.0
 20
1758.5
 30
0.0
 11
-1687.0
 21
1736.029925113916
 31
0.0
  0
LINE
  5
15BA8
330
15901
100
AcDbEntity
  8
SUNPOU
 62
     1
100
AcDbLine
 10
-1547.0
 20
1758.5
 30
0.0
 11
-1547.0
 21
1736.029925113916
 31
0.0
  0
LINE
  5
15BA9
330
15901
100
AcDbEntity
  8
SUNPOU
 62
     1
100
AcDbLine
 10
-1684.0
 20
1736.529925113916
 30
0.0
 11
-1550.0
 21
1736.529925113916
 31
0.0
  0
SOLID
  5
15BAA
330
15901
100
AcDbEntity
  8
SUNPOU
 62
     1
100
AcDbTrace
 10
-1684.0
 20
1737.029925113916
 30
0.0
 11
-1684.0
 21
1736.029925113916
 31
0.0
 12
-1687.0
 22
1736.529925113916
 32
0.0
 13
-1687.0
 23
1736.529925113916
 33
0.0
  0
SOLID
  5
15BAB
330
15901
100
AcDbEntity
  8
SUNPOU
 62
     1
100
AcDbTrace
 10
-1550.0
 20
1737.029925113916
 30
0.0
 11
-1550.0
 21
1736.029925113916
 31
0.0
 12
-1547.0
 22
1736.529925113916
 32
0.0
 13
-1547.0
 23
1736.529925113916
 33
0.0
  0
MTEXT
  5
15BAC
330
15901
100
AcDbEntity
  8
SUNPOU
 62
     1
100
AcDbMText
 10
-1617.0
 20
1739.279925113916
 30
0.0
 40
3.5
 41
0.0
 71
     5
 72
     1
  1
\A1;140
1001
ACAD
1000
MTEXTBEGIN
1070
    73
1070
     1
1070
    44
1040
1.0
1070
    74
1070
     0
1000
MTEXTEND
  0
POINT
  5
15BAD
330
15901
100
AcDbEntity
  8
DEFPOINTS
 62
     0
100
AcDbPoint
 10
-1687.0
 20
1759.0
 30
0.0
  0
POINT
  5
15BAE
330
15901
100
AcDbEntity
  8
DEFPOINTS
 62
     0
100
AcDbPoint
 10
-1547.0
 20
1759.0
 30
0.0
  0
POINT
  5
15BAF
330
15901
100
AcDbEntity
  8
DEFPOINTS
 62
     0
100
AcDbPoint
 10
-1547.0
 20
1736.529925113916
 30
0.0
  0
ENDBLK
  5
1590C
330
15901
100
AcDbEntity
  8
0
100
AcDbBlockEnd
  0
BLOCK
  5
15936
330
1592A
100
AcDbEntity
  8
0
100
AcDbBlockBegin
  2
*D46
 70
     1
 10
0.0
 20
0.0
 30
0.0
  3
*D46
  1

  0
LINE
  5
15BB0
330
1592A
100
AcDbEntity
  8
SUNPOU
 62
     1
100
AcDbLine
 10
-1687.5
 20
1776.75
 30
0.0
 11
-1691.272842386313
 21
1776.75
 31
0.0
  0
LINE
  5
15BB1
330
1592A
100
AcDbEntity
  8
SUNPOU
 62
     1
100
AcDbLine
 10
-1687.5
 20
1772.25
 30
0.0
 11
-1691.272842386313
 21
1772.25
 31
0.0
  0
LINE
  5
15BB2
330
1592A
100
AcDbEntity
  8
SUNPOU
 62
     1
100
AcDbLine
 10
-1690.772842386313
 20
1779.749999999999
 30
0.0
 11
-1690.772842386313
 21
1782.75
 31
0.0
  0
LINE
  5
15BB3
330
1592A
100
AcDbEntity
  8
SUNPOU
 62
     1
100
AcDbLine
 10
-1690.772842386313
 20
1769.249999999999
 30
0.0
 11
-1690.772842386313
 21
1757.25
 31
0.0
  0
LINE
  5
15BB4
330
1592A
100
AcDbEntity
  8
SUNPOU
 62
     1
100
AcDbLine
 10
-1690.772842386313
 20
1776.75
 30
0.0
 11
-1690.772842386313
 21
1772.25
 31
0.0
  0
SOLID
  5
15BB5
330
1592A
100
AcDbEntity
  8
SUNPOU
 62
     1
100
AcDbTrace
 10
-1691.272842386313
 20
1779.749999999999
 30
0.0
 11
-1690.272842386313
 21
1779.749999999999
 31
0.0
 12
-1690.772842386313
 22
1776.75
 32
0.0
 13
-1690.772842386313
 23
1776.75
 33
0.0
  0
SOLID
  5
15BB6
330
1592A
100
AcDbEntity
  8
SUNPOU
 62
     1
100
AcDbTrace
 10
-1691.272842386313
 20
1769.249999999999
 30
0.0
 11
-1690.272842386313
 21
1769.249999999999
 31
0.0
 12
-1690.772842386313
 22
1772.25
 32
0.0
 13
-1690.772842386313
 23
1772.25
 33
0.0
  0
MTEXT
  5
15BB7
330
1592A
100
AcDbEntity
  8
SUNPOU
 62
     1
100
AcDbMText
 10
-1693.522842386313
 20
1761.749999999999
 30
0.0
 40
3.5
 41
0.0
 71
     5
 72
     1
  1
\A1;4.5
 11
0.0000000000000001
 21
1.0
 31
0.0
1001
ACAD
1000
MTEXTBEGIN
1070
    73
1070
     1
1070
    44
1040
1.0
1070
    74
1070
     0
1000
MTEXTEND
  0
POINT
  5
15BB8
330
1592A
100
AcDbEntity
  8
DEFPOINTS
 62
     0
100
AcDbPoint
 10
-1687.0
 20
1776.75
 30
0.0
  0
POINT
  5
15BB9
330
1592A
100
AcDbEntity
  8
DEFPOINTS
 62
     0
100
AcDbPoint
 10
-1687.0
 20
1772.25
 30
0.0
  0
POINT
  5
15BBA
330
1592A
100
AcDbEntity
  8
DEFPOINTS
 62
     0
100
AcDbPoint
 10
-1690.772842386313
 20
1772.25
 30
0.0
  0
ENDBLK
  5
15937
330
1592A
100
AcDbEntity
  8
0
100
AcDbBlockEnd
  0
ENDSEC
  0
SECTION
  2
ENTITIES
  0
MTEXT
  5
5084
330
1A
100
AcDbEntity
  8
0
100
AcDbMText
 10
1985.239088685435
 20
-948.5420423450428
 30
0.0
 40
8.0
 41
0.0
 71
     7
 72
     5
  1

1001
ACAD
1000
MTEXTBEGIN
1070
    73
1070
     1
1070
    44
1040
1.0
1070
    74
1070
     0
1000
MTEXTEND
  0
MTEXT
  5
5085
330
1A
100
AcDbEntity
  8
0
100
AcDbMText
 10
4270.596778580329
 20
22.24825240601649
 30
0.0
 40
8.0
 41
0.0
 71
     7
 72
     5
  1

1001
ACAD
1000
MTEXTBEGIN
1070
    73
1070
     1
1070
    44
1040
1.0
1070
    74
1070
     0
1000
MTEXTEND
  0
MTEXT
  5
5343
330
1A
100
AcDbEntity
  8
SUNPOU
100
AcDbMText
 10
6936.493799262471
 20
9534.359644781135
 30
0.0
 40
10.5
 41
0.0
 71
     1
 72
     5
  1

1001
ACAD
1000
MTEXTBEGIN
1070
    73
1070
     1
1070
    44
1040
1.0
1070
    74
1070
     0
1000
MTEXTEND
  0
MTEXT
  5
544F
330
1A
100
AcDbEntity
  8
0
100
AcDbMText
 10
16317.2832773148
 20
12833.35428897674
 30
0.0
 40
8.0
 41
0.0
 71
     7
 72
     5
  1

1001
ACAD
1000
MTEXTBEGIN
1070
    73
1070
     1
1070
    44
1040
1.0
1070
    74
1070
     0
1000
MTEXTEND
  0
MTEXT
  5
5450
330
1A
100
AcDbEntity
  8
0
100
AcDbMText
 10
18602.64096720969
 20
13804.1445837278
 30
0.0
 40
8.0
 41
0.0
 71
     7
 72
     5
  1

1001
ACAD
1000
MTEXTBEGIN
1070
    73
1070
     1
1070
    44
1040
1.0
1070
    74
1070
     0
1000
MTEXTEND
  0
MTEXT
  5
5451
330
1A
100
AcDbEntity
  8
SUNPOU
100
AcDbMText
 10
21268.53798789184
 20
23316.25597610292
 30
0.0
 40
10.5
 41
0.0
 71
     1
 72
     5
  1

1001
ACAD
1000
MTEXTBEGIN
1070
    73
1070
     1
1070
    44
1040
1.0
1070
    74
1070
     0
1000
MTEXTEND
  0
MTEXT
  5
5452
330
1A
100
AcDbEntity
  8
SUNPOU
100
AcDbMText
 10
13337.6147919559
 20
22369.46284218996
 30
0.0
 40
10.5
 41
0.0
 71
     7
 72
     5
  1

1001
ACAD
1000
MTEXTBEGIN
1070
    73
1070
     1
1070
    44
1040
1.0
1070
    74
1070
     0
1000
MTEXTEND
  0
MTEXT
  5
5453
330
1A
100
AcDbEntity
  8
SUNPOU
100
AcDbMText
 10
16286.59845646867
 20
27270.13891403281
 30
0.0
 40
10.5
 41
0.0
 71
     7
 72
     5
  1

1001
ACAD
1000
MTEXTBEGIN
1070
    73
1070
     1
1070
    44
1040
1.0
1070
    74
1070
     0
1000
MTEXTEND
  0
MTEXT
  5
5454
330
1A
100
AcDbEntity
  8
SUNPOU
100
AcDbMText
 10
20795.67658441924
 20
29706.43966165288
 30
0.0
 40
10.5
 41
0.0
 71
     7
 72
     5
  1

1001
ACAD
1000
MTEXTBEGIN
1070
    73
1070
     1
1070
    44
1040
1.0
1070
    74
1070
     0
1000
MTEXTEND
  0
MTEXT
  5
5455
330
1A
100
AcDbEntity
  8
0
100
AcDbMText
 10
16611.93789220314
 20
14707.52144344448
 30
0.0
 40
8.0
 41
0.0
 71
     7
 72
     5
  1

1001
ACAD
1000
MTEXTBEGIN
1070
    73
1070
     1
1070
    44
1040
1.0
1070
    74
1070
     0
1000
MTEXTEND
  0
MTEXT
  5
5456
330
1A
100
AcDbEntity
  8
0
100
AcDbMText
 10
18897.29558209804
 20
15678.31173819554
 30
0.0
 40
8.0
 41
0.0
 71
     7
 72
     5
  1

1001
ACAD
1000
MTEXTBEGIN
1070
    73
1070
     1
1070
    44
1040
1.0
1070
    74
1070
     0
1000
MTEXTEND
  0
MTEXT
  5
5457
330
1A
100
AcDbEntity
  8
SUNPOU
100
AcDbMText
 10
21563.19260278019
 20
25190.42313057066
 30
0.0
 40
10.5
 41
0.0
 71
     1
 72
     5
  1

1001
ACAD
1000
MTEXTBEGIN
1070
    73
1070
     1
1070
    44
1040
1.0
1070
    74
1070
     0
1000
MTEXTEND
  0
MTEXT
  5
5458
330
1A
100
AcDbEntity
  8
SUNPOU
100
AcDbMText
 10
13632.26940684426
 20
24243.6299966577
 30
0.0
 40
10.5
 41
0.0
 71
     7
 72
     5
  1

1001
ACAD
1000
MTEXTBEGIN
1070
    73
1070
     1
1070
    44
1040
1.0
1070
    74
1070
     0
1000
MTEXTEND
  0
MTEXT
  5
5459
330
1A
100
AcDbEntity
  8
SUNPOU
100
AcDbMText
 10
16581.25307135702
 20
29144.30606850055
 30
0.0
 40
10.5
 41
0.0
 71
     7
 72
     5
  1

1001
ACAD
1000
MTEXTBEGIN
1070
    73
1070
     1
1070
    44
1040
1.0
1070
    74
1070
     0
1000
MTEXTEND
  0
MTEXT
  5
545A
330
1A
100
AcDbEntity
  8
SUNPOU
100
AcDbMText
 10
21090.33119930759
 20
31580.60681612062
 30
0.0
 40
10.5
 41
0.0
 71
     7
 72
     5
  1

1001
ACAD
1000
MTEXTBEGIN
1070
    73
1070
     1
1070
    44
1040
1.0
1070
    74
1070
     0
1000
MTEXTEND
  0
MTEXT
  5
545B
330
1A
100
AcDbEntity
  8
0
100
AcDbMText
 10
22871.60517627167
 20
23974.88367124799
 30
0.0
 40
8.0
 41
0.0
 71
     7
 72
     5
  1

1001
ACAD
1000
MTEXTBEGIN
1070
    73
1070
     1
1070
    44
1040
1.0
1070
    74
1070
     0
1000
MTEXTEND
  0
MTEXT
  5
545C
330
1A
100
AcDbEntity
  8
0
100
AcDbMText
 10
25156.96286616657
 20
24945.67396599906
 30
0.0
 40
8.0
 41
0.0
 71
     7
 72
     5
  1

1001
ACAD
1000
MTEXTBEGIN
1070
    73
1070
     1
1070
    44
1040
1.0
1070
    74
1070
     0
1000
MTEXTEND
  0
MTEXT
  5
545D
330
1A
100
AcDbEntity
  8
SUNPOU
100
AcDbMText
 10
27822.85988684871
 20
34457.78535837418
 30
0.0
 40
10.5
 41
0.0
 71
     1
 72
     5
  1

1001
ACAD
1000
MTEXTBEGIN
1070
    73
1070
     1
1070
    44
1040
1.0
1070
    74
1070
     0
1000
MTEXTEND
  0
MTEXT
  5
545E
330
1A
100
AcDbEntity
  8
SUNPOU
100
AcDbMText
 10
19891.93669091278
 20
33510.99222446122
 30
0.0
 40
10.5
 41
0.0
 71
     7
 72
     5
  1

1001
ACAD
1000
MTEXTBEGIN
1070
    73
1070
     1
1070
    44
1040
1.0
1070
    74
1070
     0
1000
MTEXTEND
  0
MTEXT
  5
545F
330
1A
100
AcDbEntity
  8
SUNPOU
100
AcDbMText
 10
22840.92035542555
 20
38411.66829630407
 30
0.0
 40
10.5
 41
0.0
 71
     7
 72
     5
  1

1001
ACAD
1000
MTEXTBEGIN
1070
    73
1070
     1
1070
    44
1040
1.0
1070
    74
1070
     0
1000
MTEXTEND
  0
MTEXT
  5
5460
330
1A
100
AcDbEntity
  8
SUNPOU
100
AcDbMText
 10
27349.99848337611
 20
40847.96904392415
 30
0.0
 40
10.5
 41
0.0
 71
     7
 72
     5
  1

1001
ACAD
1000
MTEXTBEGIN
1070
    73
1070
     1
1070
    44
1040
1.0
1070
    74
1070
     0
1000
MTEXTEND
  0
MTEXT
  5
55B7
330
1A
100
AcDbEntity
  8
SUNPOU
100
AcDbMText
 10
67424.23923338197
 20
64463.86602884816
 30
0.0
 40
10.5
 41
0.0
 71
     9
 72
     5
  1

1001
ACAD
1000
MTEXTBEGIN
1070
    73
1070
     1
1070
    44
1040
1.0
1070
    74
1070
     0
1000
MTEXTEND
  0
MTEXT
  5
55B8
330
1A
100
AcDbEntity
  8
SUNPOU
100
AcDbMText
 10
76146.40679929998
 20
71879.70056038563
 30
0.0
 40
10.5
 41
0.0
 71
     9
 72
     5
  1

1001
ACAD
1000
MTEXTBEGIN
1070
    73
1070
     1
1070
    44
1040
1.0
1070
    74
1070
     0
1000
MTEXTEND
  0
MTEXT
  5
55B9
330
1A
100
AcDbEntity
  8
SUNPOU
100
AcDbMText
 10
95100.16551662994
 20
89346.27661287766
 30
0.0
 40
10.5
 41
0.0
 71
     9
 72
     5
  1

1001
ACAD
1000
MTEXTBEGIN
1070
    73
1070
     1
1070
    44
1040
1.0
1070
    74
1070
     0
1000
MTEXTEND
  0
MTEXT
  5
55BA
330
1A
100
AcDbEntity
  8
SUNPOU
100
AcDbMText
 10
97043.57276333936
 20
87545.22753299966
 30
0.0
 40
3.5
 41
0.0
 71
     9
 72
     5
  1

1001
ACAD
1000
MTEXTBEGIN
1070
    73
1070
     1
1070
    44
1040
1.0
1070
    74
1070
     0
1000
MTEXTEND
  0
MTEXT
  5
55BB
330
1A
100
AcDbEntity
  8
SUNPOU
100
AcDbMText
 10
128169.752595959
 20
130040.1732006569
 30
0.0
 40
10.5
 41
0.0
 71
     9
 72
     5
  1

1001
ACAD
1000
MTEXTBEGIN
1070
    73
1070
     1
1070
    44
1040
1.0
1070
    74
1070
     0
1000
MTEXTEND
  0
MTEXT
  5
55BC
330
1A
100
AcDbEntity
  8
SUNPOU
100
AcDbMText
 10
130113.1598426684
 20
128239.1241207789
 30
0.0
 40
3.5
 41
0.0
 71
     9
 72
     5
  1

1001
ACAD
1000
MTEXTBEGIN
1070
    73
1070
     1
1070
    44
1040
1.0
1070
    74
1070
     0
1000
MTEXTEND
  0
MTEXT
  5
55BD
330
1A
100
AcDbEntity
  8
SUNPOU
100
AcDbMText
 10
78610.02030175463
 20
75873.33835563206
 30
0.0
 40
10.5
 41
0.0
 71
     9
 72
     5
  1

1001
ACAD
1000
MTEXTBEGIN
1070
    73
1070
     1
1070
    44
1040
1.0
1070
    74
1070
     0
1000
MTEXTEND
  0
MTEXT
  5
55BE
330
1A
100
AcDbEntity
  8
SUNPOU
100
AcDbMText
 10
64662.02020137863
 20
56700.93921651987
 30
0.0
 40
3.5
 41
0.0
 71
     7
 72
     5
  1

1001
ACAD
1000
MTEXTBEGIN
1070
    73
1070
     1
1070
    44
1040
1.0
1070
    74
1070
     0
1000
MTEXTEND
  0
MTEXT
  5
55BF
330
1A
100
AcDbEntity
  8
SUNPOU
100
AcDbMText
 10
45647.18959837178
 20
44463.08794733807
 30
0.0
 40
10.5
 41
0.0
 71
     7
 72
     5
  1

1001
ACAD
1000
MTEXTBEGIN
1070
    73
1070
     1
1070
    44
1040
1.0
1070
    74
1070
     0
1000
MTEXTEND
  0
MTEXT
  5
55C0
330
1A
100
AcDbEntity
  8
SUNPOU
100
AcDbMText
 10
33189.96133342368
 20
28618.15636923965
 30
0.0
 40
35.0
 41
0.0
 71
     9
 72
     5
  1

1001
ACAD
1000
MTEXTBEGIN
1070
    73
1070
     1
1070
    44
1040
1.0
1070
    74
1070
     0
1000
MTEXTEND
  0
MTEXT
  5
55C1
330
1A
100
AcDbEntity
  8
SUNPOU
100
AcDbMText
 10
32098.44639099864
 20
29226.93177928835
 30
0.0
 40
350.0000004171781
 41
0.0
 71
     7
 72
     5
  1

1001
ACAD
1000
MTEXTBEGIN
1070
    73
1070
     1
1070
    44
1040
1.0
1070
    74
1070
     0
1000
MTEXTEND
  0
MTEXT
  5
55C2
330
1A
100
AcDbEntity
  8
0
100
AcDbMText
 10
38142.39714894154
 20
27206.85414142458
 30
0.0
 40
8.0
 41
0.0
 71
     7
 72
     5
  1

1001
ACAD
1000
MTEXTBEGIN
1070
    73
1070
     1
1070
    44
1040
1.0
1070
    74
1070
     0
1000
MTEXTEND
  0
MTEXT
  5
55C3
330
1A
100
AcDbEntity
  8
0
100
AcDbMText
 10
40427.75483883644
 20
28177.64443617564
 30
0.0
 40
8.0
 41
0.0
 71
     7
 72
     5
  1

1001
ACAD
1000
MTEXTBEGIN
1070
    73
1070
     1
1070
    44
1040
1.0
1070
    74
1070
     0
1000
MTEXTEND
  0
MTEXT
  5
55C4
330
1A
100
AcDbEntity
  8
SUNPOU
100
AcDbMText
 10
43093.65185951858
 20
37689.75582855077
 30
0.0
 40
10.5
 41
0.0
 71
     1
 72
     5
  1

1001
ACAD
1000
MTEXTBEGIN
1070
    73
1070
     1
1070
    44
1040
1.0
1070
    74
1070
     0
1000
MTEXTEND
  0
MTEXT
  5
55C5
330
1A
100
AcDbEntity
  8
SUNPOU
100
AcDbMText
 10
35162.72866358265
 20
36742.96269463781
 30
0.0
 40
10.5
 41
0.0
 71
     7
 72
     5
  1

1001
ACAD
1000
MTEXTBEGIN
1070
    73
1070
     1
1070
    44
1040
1.0
1070
    74
1070
     0
1000
MTEXTEND
  0
MTEXT
  5
55C6
330
1A
100
AcDbEntity
  8
SUNPOU
100
AcDbMText
 10
38111.71232809542
 20
41643.63876648066
 30
0.0
 40
10.5
 41
0.0
 71
     7
 72
     5
  1

1001
ACAD
1000
MTEXTBEGIN
1070
    73
1070
     1
1070
    44
1040
1.0
1070
    74
1070
     0
1000
MTEXTEND
  0
MTEXT
  5
55C7
330
1A
100
AcDbEntity
  8
SUNPOU
100
AcDbMText
 10
42620.79045604597
 20
44079.93951410074
 30
0.0
 40
10.5
 41
0.0
 71
     7
 72
     5
  1

1001
ACAD
1000
MTEXTBEGIN
1070
    73
1070
     1
1070
    44
1040
1.0
1070
    74
1070
     0
1000
MTEXTEND
  0
MTEXT
  5
55C8
330
1A
100
AcDbEntity
  8
SUNPOU
100
AcDbMText
 10
26221.62834281429
 20
23077.53566448964
 30
0.0
 40
10.5
 41
0.0
 71
     7
 72
     5
  1

1001
ACAD
1000
MTEXTBEGIN
1070
    73
1070
     1
1070
    44
1040
1.0
1070
    74
1070
     0
1000
MTEXTEND
  0
MTEXT
  5
55C9
330
1A
100
AcDbEntity
  8
SUNPOU
100
AcDbMText
 10
77413.14677671455
 20
68750.51622813789
 30
0.0
 40
10.5
 41
0.0
 71
     9
 72
     5
  1

1001
ACAD
1000
MTEXTBEGIN
1070
    73
1070
     1
1070
    44
1040
1.0
1070
    74
1070
     0
1000
MTEXTEND
  0
MTEXT
  5
55CA
330
1A
100
AcDbEntity
  8
SUNPOU
100
AcDbMText
 10
86135.31434263256
 20
76166.35075967536
 30
0.0
 40
10.5
 41
0.0
 71
     9
 72
     5
  1

1001
ACAD
1000
MTEXTBEGIN
1070
    73
1070
     1
1070
    44
1040
1.0
1070
    74
1070
     0
1000
MTEXTEND
  0
MTEXT
  5
55CB
330
1A
100
AcDbEntity
  8
SUNPOU
100
AcDbMText
 10
105089.0730599625
 20
93632.92681216739
 30
0.0
 40
10.5
 41
0.0
 71
     9
 72
     5
  1

1001
ACAD
1000
MTEXTBEGIN
1070
    73
1070
     1
1070
    44
1040
1.0
1070
    74
1070
     0
1000
MTEXTEND
  0
MTEXT
  5
55CC
330
1A
100
AcDbEntity
  8
SUNPOU
100
AcDbMText
 10
107032.4803066719
 20
91831.8777322894
 30
0.0
 40
3.5
 41
0.0
 71
     9
 72
     5
  1

1001
ACAD
1000
MTEXTBEGIN
1070
    73
1070
     1
1070
    44
1040
1.0
1070
    74
1070
     0
1000
MTEXTEND
  0
MTEXT
  5
55CD
330
1A
100
AcDbEntity
  8
SUNPOU
100
AcDbMText
 10
138158.6601392916
 20
134326.8233999467
 30
0.0
 40
10.5
 41
0.0
 71
     9
 72
     5
  1

1001
ACAD
1000
MTEXTBEGIN
1070
    73
1070
     1
1070
    44
1040
1.0
1070
    74
1070
     0
1000
MTEXTEND
  0
MTEXT
  5
55CE
330
1A
100
AcDbEntity
  8
SUNPOU
100
AcDbMText
 10
140102.067386001
 20
132525.7743200686
 30
0.0
 40
3.5
 41
0.0
 71
     9
 72
     5
  1

1001
ACAD
1000
MTEXTBEGIN
1070
    73
1070
     1
1070
    44
1040
1.0
1070
    74
1070
     0
1000
MTEXTEND
  0
MTEXT
  5
55CF
330
1A
100
AcDbEntity
  8
SUNPOU
100
AcDbMText
 10
88598.92784508721
 20
80159.98855492179
 30
0.0
 40
10.5
 41
0.0
 71
     9
 72
     5
  1

1001
ACAD
1000
MTEXTBEGIN
1070
    73
1070
     1
1070
    44
1040
1.0
1070
    74
1070
     0
1000
MTEXTEND
  0
MTEXT
  5
55D0
330
1A
100
AcDbEntity
  8
SUNPOU
100
AcDbMText
 10
74650.92774471121
 20
60987.5894158096
 30
0.0
 40
3.5
 41
0.0
 71
     7
 72
     5
  1

1001
ACAD
1000
MTEXTBEGIN
1070
    73
1070
     1
1070
    44
1040
1.0
1070
    74
1070
     0
1000
MTEXTEND
  0
MTEXT
  5
55D1
330
1A
100
AcDbEntity
  8
SUNPOU
100
AcDbMText
 10
55636.09714170436
 20
48749.73814662781
 30
0.0
 40
10.5
 41
0.0
 71
     7
 72
     5
  1

1001
ACAD
1000
MTEXTBEGIN
1070
    73
1070
     1
1070
    44
1040
1.0
1070
    74
1070
     0
1000
MTEXTEND
  0
MTEXT
  5
55D2
330
1A
100
AcDbEntity
  8
SUNPOU
100
AcDbMText
 10
43178.86887675626
 20
32904.80656852938
 30
0.0
 40
35.0
 41
0.0
 71
     9
 72
     5
  1

1001
ACAD
1000
MTEXTBEGIN
1070
    73
1070
     1
1070
    44
1040
1.0
1070
    74
1070
     0
1000
MTEXTEND
  0
MTEXT
  5
55D3
330
1A
100
AcDbEntity
  8
SUNPOU
100
AcDbMText
 10
42087.35393433121
 20
33513.58197857809
 30
0.0
 40
350.0000004171781
 41
0.0
 71
     7
 72
     5
  1

1001
ACAD
1000
MTEXTBEGIN
1070
    73
1070
     1
1070
    44
1040
1.0
1070
    74
1070
     0
1000
MTEXTEND
  0
MTEXT
  5
55D4
330
1A
100
AcDbEntity
  8
0
100
AcDbMText
 10
48131.30469227412
 20
31493.50434071431
 30
0.0
 40
8.0
 41
0.0
 71
     7
 72
     5
  1

1001
ACAD
1000
MTEXTBEGIN
1070
    73
1070
     1
1070
    44
1040
1.0
1070
    74
1070
     0
1000
MTEXTEND
  0
MTEXT
  5
55D5
330
1A
100
AcDbEntity
  8
0
100
AcDbMText
 10
50416.66238216901
 20
32464.29463546537
 30
0.0
 40
8.0
 41
0.0
 71
     7
 72
     5
  1

1001
ACAD
1000
MTEXTBEGIN
1070
    73
1070
     1
1070
    44
1040
1.0
1070
    74
1070
     0
1000
MTEXTEND
  0
MTEXT
  5
55D6
330
1A
100
AcDbEntity
  8
SUNPOU
100
AcDbMText
 10
53082.55940285115
 20
41976.4060278405
 30
0.0
 40
10.5
 41
0.0
 71
     1
 72
     5
  1

1001
ACAD
1000
MTEXTBEGIN
1070
    73
1070
     1
1070
    44
1040
1.0
1070
    74
1070
     0
1000
MTEXTEND
  0
MTEXT
  5
55D7
330
1A
100
AcDbEntity
  8
SUNPOU
100
AcDbMText
 10
45151.63620691522
 20
41029.61289392755
 30
0.0
 40
10.5
 41
0.0
 71
     7
 72
     5
  1

1001
ACAD
1000
MTEXTBEGIN
1070
    73
1070
     1
1070
    44
1040
1.0
1070
    74
1070
     0
1000
MTEXTEND
  0
MTEXT
  5
55D8
330
1A
100
AcDbEntity
  8
SUNPOU
100
AcDbMText
 10
48100.61987142798
 20
45930.28896577039
 30
0.0
 40
10.5
 41
0.0
 71
     7
 72
     5
  1

1001
ACAD
1000
MTEXTBEGIN
1070
    73
1070
     1
1070
    44
1040
1.0
1070
    74
1070
     0
1000
MTEXTEND
  0
MTEXT
  5
55D9
330
1A
100
AcDbEntity
  8
SUNPOU
100
AcDbMText
 10
52609.69799937854
 20
48366.58971339046
 30
0.0
 40
10.5
 41
0.0
 71
     7
 72
     5
  1

1001
ACAD
1000
MTEXTBEGIN
1070
    73
1070
     1
1070
    44
1040
1.0
1070
    74
1070
     0
1000
MTEXTEND
  0
MTEXT
  5
55DA
330
1A
100
AcDbEntity
  8
SUNPOU
100
AcDbMText
 10
36210.53588614687
 20
27364.18586377937
 30
0.0
 40
10.5
 41
0.0
 71
     7
 72
     5
  1

1001
ACAD
1000
MTEXTBEGIN
1070
    73
1070
     1
1070
    44
1040
1.0
1070
    74
1070
     0
1000
MTEXTEND
  0
MTEXT
  5
55DB
330
1A
100
AcDbEntity
  8
SUNPOU
100
AcDbMText
 10
38021.29879752181
 20
33691.59985125794
 30
0.0
 40
10.5
 41
0.0
 71
     9
 72
     5
  1

1001
ACAD
1000
MTEXTBEGIN
1070
    73
1070
     1
1070
    44
1040
1.0
1070
    74
1070
     0
1000
MTEXTEND
  0
MTEXT
  5
55DC
330
1A
100
AcDbEntity
  8
SUNPOU
100
AcDbMText
 10
46743.46636343979
 20
41107.43438279541
 30
0.0
 40
10.5
 41
0.0
 71
     9
 72
     5
  1

1001
ACAD
1000
MTEXTBEGIN
1070
    73
1070
     1
1070
    44
1040
1.0
1070
    74
1070
     0
1000
MTEXTEND
  0
MTEXT
  5
55DD
330
1A
100
AcDbEntity
  8
SUNPOU
100
AcDbMText
 10
65697.22508076975
 20
58574.01043528746
 30
0.0
 40
10.5
 41
0.0
 71
     9
 72
     5
  1

1001
ACAD
1000
MTEXTBEGIN
1070
    73
1070
     1
1070
    44
1040
1.0
1070
    74
1070
     0
1000
MTEXTEND
  0
MTEXT
  5
55DE
330
1A
100
AcDbEntity
  8
SUNPOU
100
AcDbMText
 10
67640.63232747917
 20
56772.96135540945
 30
0.0
 40
3.5
 41
0.0
 71
     9
 72
     5
  1

1001
ACAD
1000
MTEXTBEGIN
1070
    73
1070
     1
1070
    44
1040
1.0
1070
    74
1070
     0
1000
MTEXTEND
  0
MTEXT
  5
55DF
330
1A
100
AcDbEntity
  8
SUNPOU
100
AcDbMText
 10
98766.81216009888
 20
99267.9070230668
 30
0.0
 40
10.5
 41
0.0
 71
     9
 72
     5
  1

1001
ACAD
1000
MTEXTBEGIN
1070
    73
1070
     1
1070
    44
1040
1.0
1070
    74
1070
     0
1000
MTEXTEND
  0
MTEXT
  5
55E0
330
1A
100
AcDbEntity
  8
SUNPOU
100
AcDbMText
 10
100710.2194068083
 20
97466.85794318878
 30
0.0
 40
3.5
 41
0.0
 71
     9
 72
     5
  1

1001
ACAD
1000
MTEXTBEGIN
1070
    73
1070
     1
1070
    44
1040
1.0
1070
    74
1070
     0
1000
MTEXTEND
  0
MTEXT
  5
55E1
330
1A
100
AcDbEntity
  8
SUNPOU
100
AcDbMText
 10
49207.07986589444
 20
45101.07217804185
 30
0.0
 40
10.5
 41
0.0
 71
     9
 72
     5
  1

1001
ACAD
1000
MTEXTBEGIN
1070
    73
1070
     1
1070
    44
1040
1.0
1070
    74
1070
     0
1000
MTEXTEND
  0
MTEXT
  5
55E2
330
1A
100
AcDbEntity
  8
SUNPOU
100
AcDbMText
 10
35259.07976551845
 20
25928.67303892964
 30
0.0
 40
3.5
 41
0.0
 71
     7
 72
     5
  1

1001
ACAD
1000
MTEXTBEGIN
1070
    73
1070
     1
1070
    44
1040
1.0
1070
    74
1070
     0
1000
MTEXTEND
  0
MTEXT
  5
55E3
330
1A
100
AcDbEntity
  8
SUNPOU
100
AcDbMText
 10
48951.43044828905
 20
35287.73625995099
 30
0.0
 40
10.5
 41
0.0
 71
     9
 72
     5
  1

1001
ACAD
1000
MTEXTBEGIN
1070
    73
1070
     1
1070
    44
1040
1.0
1070
    74
1070
     0
1000
MTEXTEND
  0
MTEXT
  5
55E4
330
1A
100
AcDbEntity
  8
SUNPOU
100
AcDbMText
 10
57673.59801420702
 20
42703.57079148847
 30
0.0
 40
10.5
 41
0.0
 71
     9
 72
     5
  1

1001
ACAD
1000
MTEXTBEGIN
1070
    73
1070
     1
1070
    44
1040
1.0
1070
    74
1070
     0
1000
MTEXTEND
  0
MTEXT
  5
55E5
330
1A
100
AcDbEntity
  8
SUNPOU
100
AcDbMText
 10
76627.35673153699
 20
60170.14684398051
 30
0.0
 40
10.5
 41
0.0
 71
     9
 72
     5
  1

1001
ACAD
1000
MTEXTBEGIN
1070
    73
1070
     1
1070
    44
1040
1.0
1070
    74
1070
     0
1000
MTEXTEND
  0
MTEXT
  5
55E6
330
1A
100
AcDbEntity
  8
SUNPOU
100
AcDbMText
 10
78570.76397824641
 20
58369.09776410251
 30
0.0
 40
3.5
 41
0.0
 71
     9
 72
     5
  1

1001
ACAD
1000
MTEXTBEGIN
1070
    73
1070
     1
1070
    44
1040
1.0
1070
    74
1070
     0
1000
MTEXTEND
  0
MTEXT
  5
55E7
330
1A
100
AcDbEntity
  8
SUNPOU
100
AcDbMText
 10
109696.9438108661
 20
100864.0434317598
 30
0.0
 40
10.5
 41
0.0
 71
     9
 72
     5
  1

1001
ACAD
1000
MTEXTBEGIN
1070
    73
1070
     1
1070
    44
1040
1.0
1070
    74
1070
     0
1000
MTEXTEND
  0
MTEXT
  5
55E8
330
1A
100
AcDbEntity
  8
SUNPOU
100
AcDbMText
 10
111640.3510575755
 20
99062.99435188183
 30
0.0
 40
3.5
 41
0.0
 71
     9
 72
     5
  1

1001
ACAD
1000
MTEXTBEGIN
1070
    73
1070
     1
1070
    44
1040
1.0
1070
    74
1070
     0
1000
MTEXTEND
  0
MTEXT
  5
55E9
330
1A
100
AcDbEntity
  8
SUNPOU
100
AcDbMText
 10
60137.21151666167
 20
46697.20858673491
 30
0.0
 40
10.5
 41
0.0
 71
     9
 72
     5
  1

1001
ACAD
1000
MTEXTBEGIN
1070
    73
1070
     1
1070
    44
1040
1.0
1070
    74
1070
     0
1000
MTEXTEND
  0
MTEXT
  5
55EA
330
1A
100
AcDbEntity
  8
SUNPOU
100
AcDbMText
 10
46189.21141628568
 20
27524.80944762269
 30
0.0
 40
3.5
 41
0.0
 71
     7
 72
     5
  1

1001
ACAD
1000
MTEXTBEGIN
1070
    73
1070
     1
1070
    44
1040
1.0
1070
    74
1070
     0
1000
MTEXTEND
  0
MTEXT
  5
55EB
330
1A
100
AcDbEntity
  8
SUNPOU
100
AcDbMText
 10
45007.68847015541
 20
38269.57947701874
 30
0.0
 40
10.5
 41
0.0
 71
     9
 72
     5
  1

1001
ACAD
1000
MTEXTBEGIN
1070
    73
1070
     1
1070
    44
1040
1.0
1070
    74
1070
     0
1000
MTEXTEND
  0
MTEXT
  5
55EC
330
1A
100
AcDbEntity
  8
SUNPOU
100
AcDbMText
 10
63961.44718748539
 20
55736.15552951081
 30
0.0
 40
10.5
 41
0.0
 71
     9
 72
     5
  1

1001
ACAD
1000
MTEXTBEGIN
1070
    73
1070
     1
1070
    44
1040
1.0
1070
    74
1070
     0
1000
MTEXTEND
  0
MTEXT
  5
55ED
330
1A
100
AcDbEntity
  8
SUNPOU
100
AcDbMText
 10
65904.85443419479
 20
53935.10644963279
 30
0.0
 40
3.5
 41
0.0
 71
     9
 72
     5
  1

1001
ACAD
1000
MTEXTBEGIN
1070
    73
1070
     1
1070
    44
1040
1.0
1070
    74
1070
     0
1000
MTEXTEND
  0
MTEXT
  5
55EE
330
1A
100
AcDbEntity
  8
SUNPOU
100
AcDbMText
 10
97031.03426681451
 20
96430.05211729015
 30
0.0
 40
10.5
 41
0.0
 71
     9
 72
     5
  1

1001
ACAD
1000
MTEXTBEGIN
1070
    73
1070
     1
1070
    44
1040
1.0
1070
    74
1070
     0
1000
MTEXTEND
  0
MTEXT
  5
55EF
330
1A
100
AcDbEntity
  8
SUNPOU
100
AcDbMText
 10
98974.44151352393
 20
94629.00303741212
 30
0.0
 40
3.5
 41
0.0
 71
     9
 72
     5
  1

1001
ACAD
1000
MTEXTBEGIN
1070
    73
1070
     1
1070
    44
1040
1.0
1070
    74
1070
     0
1000
MTEXTEND
  0
MTEXT
  5
55F0
330
1A
100
AcDbEntity
  8
SUNPOU
100
AcDbMText
 10
47471.30197261006
 20
42263.21727226519
 30
0.0
 40
10.5
 41
0.0
 71
     9
 72
     5
  1

1001
ACAD
1000
MTEXTBEGIN
1070
    73
1070
     1
1070
    44
1040
1.0
1070
    74
1070
     0
1000
MTEXTEND
  0
MTEXT
  5
55F1
330
1A
100
AcDbEntity
  8
SUNPOU
100
AcDbMText
 10
33523.30187223408
 20
23090.81813315298
 30
0.0
 40
3.5
 41
0.0
 71
     7
 72
     5
  1

1001
ACAD
1000
MTEXTBEGIN
1070
    73
1070
     1
1070
    44
1040
1.0
1070
    74
1070
     0
1000
MTEXTEND
  0
MTEXT
  5
55F2
330
1A
100
AcDbEntity
  8
SUNPOU
100
AcDbMText
 10
57959.46254102503
 20
50038.08111611015
 30
0.0
 40
10.5
 41
0.0
 71
     9
 72
     5
  1

1001
ACAD
1000
MTEXTBEGIN
1070
    73
1070
     1
1070
    44
1040
1.0
1070
    74
1070
     0
1000
MTEXTEND
  0
MTEXT
  5
55F3
330
1A
100
AcDbEntity
  8
SUNPOU
100
AcDbMText
 10
76913.22125835503
 20
67504.65716860222
 30
0.0
 40
10.5
 41
0.0
 71
     9
 72
     5
  1

1001
ACAD
1000
MTEXTBEGIN
1070
    73
1070
     1
1070
    44
1040
1.0
1070
    74
1070
     0
1000
MTEXTEND
  0
MTEXT
  5
55F4
330
1A
100
AcDbEntity
  8
SUNPOU
100
AcDbMText
 10
78856.62850506443
 20
65703.6080887242
 30
0.0
 40
3.5
 41
0.0
 71
     9
 72
     5
  1

1001
ACAD
1000
MTEXTBEGIN
1070
    73
1070
     1
1070
    44
1040
1.0
1070
    74
1070
     0
1000
MTEXTEND
  0
MTEXT
  5
55F5
330
1A
100
AcDbEntity
  8
SUNPOU
100
AcDbMText
 10
109982.8083376841
 20
108198.5537563815
 30
0.0
 40
10.5
 41
0.0
 71
     9
 72
     5
  1

1001
ACAD
1000
MTEXTBEGIN
1070
    73
1070
     1
1070
    44
1040
1.0
1070
    74
1070
     0
1000
MTEXTEND
  0
MTEXT
  5
55F6
330
1A
100
AcDbEntity
  8
SUNPOU
100
AcDbMText
 10
111926.2155843935
 20
106397.5046765035
 30
0.0
 40
3.5
 41
0.0
 71
     9
 72
     5
  1

1001
ACAD
1000
MTEXTBEGIN
1070
    73
1070
     1
1070
    44
1040
1.0
1070
    74
1070
     0
1000
MTEXTEND
  0
MTEXT
  5
55F7
330
1A
100
AcDbEntity
  8
SUNPOU
100
AcDbMText
 10
60423.07604347968
 20
54031.71891135659
 30
0.0
 40
10.5
 41
0.0
 71
     9
 72
     5
  1

1001
ACAD
1000
MTEXTBEGIN
1070
    73
1070
     1
1070
    44
1040
1.0
1070
    74
1070
     0
1000
MTEXTEND
  0
MTEXT
  5
55F8
330
1A
100
AcDbEntity
  8
SUNPOU
100
AcDbMText
 10
46475.07594310369
 20
34859.3197722444
 30
0.0
 40
3.5
 41
0.0
 71
     7
 72
     5
  1

1001
ACAD
1000
MTEXTBEGIN
1070
    73
1070
     1
1070
    44
1040
1.0
1070
    74
1070
     0
1000
MTEXTEND
  0
MTEXT
  5
55F9
330
1A
100
AcDbEntity
  8
SUNPOU
100
AcDbMText
 10
74027.35402123588
 20
68370.58278833383
 30
0.0
 40
10.5
 41
0.0
 71
     9
 72
     5
  1

1001
ACAD
1000
MTEXTBEGIN
1070
    73
1070
     1
1070
    44
1040
1.0
1070
    74
1070
     0
1000
MTEXTEND
  0
MTEXT
  5
55FA
330
1A
100
AcDbEntity
  8
SUNPOU
100
AcDbMText
 10
75970.7612679453
 20
66569.53370845583
 30
0.0
 40
3.5
 41
0.0
 71
     9
 72
     5
  1

1001
ACAD
1000
MTEXTBEGIN
1070
    73
1070
     1
1070
    44
1040
1.0
1070
    74
1070
     0
1000
MTEXTEND
  0
MTEXT
  5
55FB
330
1A
100
AcDbEntity
  8
SUNPOU
100
AcDbMText
 10
107096.941100565
 20
109064.4793761132
 30
0.0
 40
10.5
 41
0.0
 71
     9
 72
     5
  1

1001
ACAD
1000
MTEXTBEGIN
1070
    73
1070
     1
1070
    44
1040
1.0
1070
    74
1070
     0
1000
MTEXTEND
  0
MTEXT
  5
55FC
330
1A
100
AcDbEntity
  8
SUNPOU
100
AcDbMText
 10
109040.3483472744
 20
107263.4302962351
 30
0.0
 40
3.5
 41
0.0
 71
     9
 72
     5
  1

1001
ACAD
1000
MTEXTBEGIN
1070
    73
1070
     1
1070
    44
1040
1.0
1070
    74
1070
     0
1000
MTEXTEND
  0
MTEXT
  5
55FD
330
1A
100
AcDbEntity
  8
SUNPOU
100
AcDbMText
 10
105709.1709283621
 20
108141.3777665285
 30
0.0
 40
10.5
 41
0.0
 71
     9
 72
     5
  1

1001
ACAD
1000
MTEXTBEGIN
1070
    73
1070
     1
1070
    44
1040
1.0
1070
    74
1070
     0
1000
MTEXTEND
  0
MTEXT
  5
55FE
330
1A
100
AcDbEntity
  8
SUNPOU
100
AcDbMText
 10
107652.5781750715
 20
106340.3286866505
 30
0.0
 40
3.5
 41
0.0
 71
     9
 72
     5
  1

1001
ACAD
1000
MTEXTBEGIN
1070
    73
1070
     1
1070
    44
1040
1.0
1070
    74
1070
     0
1000
MTEXTEND
  0
MTEXT
  5
55FF
330
1A
100
AcDbEntity
  8
SUNPOU
100
AcDbMText
 10
73193.09268743351
 20
66158.78082845056
 30
0.0
 40
10.5
 41
0.0
 71
     9
 72
     5
  1

1001
ACAD
1000
MTEXTBEGIN
1070
    73
1070
     1
1070
    44
1040
1.0
1070
    74
1070
     0
1000
MTEXTEND
  0
MTEXT
  5
5600
330
1A
100
AcDbEntity
  8
SUNPOU
100
AcDbMText
 10
75916.39889159806
 20
66563.46252003162
 30
0.0
 40
3.5
 41
0.0
 71
     9
 72
     5
  1

1001
ACAD
1000
MTEXTBEGIN
1070
    73
1070
     1
1070
    44
1040
1.0
1070
    74
1070
     0
1000
MTEXTEND
  0
MTEXT
  5
5601
330
1A
100
AcDbEntity
  8
SUNPOU
100
AcDbMText
 10
75124.04436649058
 20
63402.1566819768
 30
0.0
 40
10.5
 41
0.0
 71
     9
 72
     5
  1

1001
ACAD
1000
MTEXTBEGIN
1070
    73
1070
     1
1070
    44
1040
1.0
1070
    74
1070
     0
1000
MTEXTEND
  0
MTEXT
  5
5602
330
1A
100
AcDbEntity
  8
SUNPOU
100
AcDbMText
 10
77067.4516132
 20
61601.1076020988
 30
0.0
 40
3.5
 41
0.0
 71
     9
 72
     5
  1

1001
ACAD
1000
MTEXTBEGIN
1070
    73
1070
     1
1070
    44
1040
1.0
1070
    74
1070
     0
1000
MTEXTEND
  0
MTEXT
  5
5603
330
1A
100
AcDbEntity
  8
SUNPOU
100
AcDbMText
 10
77012.54710378659
 20
61488.33571981449
 30
0.0
 40
3.5
 41
0.0
 71
     9
 72
     5
  1

1001
ACAD
1000
MTEXTBEGIN
1070
    73
1070
     1
1070
    44
1040
1.0
1070
    74
1070
     0
1000
MTEXTEND
  0
MTEXT
  5
5604
330
1A
100
AcDbEntity
  8
SUNPOU
100
AcDbMText
 10
76376.61896736668
 20
60677.01447874797
 30
0.0
 40
3.5
 41
0.0
 71
     9
 72
     5
  1

1001
ACAD
1000
MTEXTBEGIN
1070
    73
1070
     1
1070
    44
1040
1.0
1070
    74
1070
     0
1000
MTEXTEND
  0
MTEXT
  5
5605
330
1A
100
AcDbEntity
  8
SUNPOU
100
AcDbMText
 10
76375.37854794595
 20
60676.76650181047
 30
0.0
 40
10.5
 41
0.0
 71
     9
 72
     5
  1

1001
ACAD
1000
MTEXTBEGIN
1070
    73
1070
     1
1070
    44
1040
1.0
1070
    74
1070
     0
1000
MTEXTEND
  0
MTEXT
  5
5606
330
1A
100
AcDbEntity
  8
SUNPOU
100
AcDbMText
 10
84709.93991079748
 20
78034.0328293557
 30
0.0
 40
10.5
 41
0.0
 71
     9
 72
     5
  1

1001
ACAD
1000
MTEXTBEGIN
1070
    73
1070
     1
1070
    44
1040
1.0
1070
    74
1070
     0
1000
MTEXTEND
  0
MTEXT
  5
5607
330
1A
100
AcDbEntity
  8
SUNPOU
100
AcDbMText
 10
93432.10747671548
 20
85449.86736089315
 30
0.0
 40
10.5
 41
0.0
 71
     9
 72
     5
  1

1001
ACAD
1000
MTEXTBEGIN
1070
    73
1070
     1
1070
    44
1040
1.0
1070
    74
1070
     0
1000
MTEXTEND
  0
MTEXT
  5
5608
330
1A
100
AcDbEntity
  8
SUNPOU
100
AcDbMText
 10
112385.8661940454
 20
102916.4434133851
 30
0.0
 40
10.5
 41
0.0
 71
     9
 72
     5
  1

1001
ACAD
1000
MTEXTBEGIN
1070
    73
1070
     1
1070
    44
1040
1.0
1070
    74
1070
     0
1000
MTEXTEND
  0
MTEXT
  5
5609
330
1A
100
AcDbEntity
  8
SUNPOU
100
AcDbMText
 10
114329.2734407548
 20
101115.3943335072
 30
0.0
 40
3.5
 41
0.0
 71
     9
 72
     5
  1

1001
ACAD
1000
MTEXTBEGIN
1070
    73
1070
     1
1070
    44
1040
1.0
1070
    74
1070
     0
1000
MTEXTEND
  0
MTEXT
  5
560A
330
1A
100
AcDbEntity
  8
SUNPOU
100
AcDbMText
 10
145455.4532733745
 20
143610.3400011645
 30
0.0
 40
10.5
 41
0.0
 71
     9
 72
     5
  1

1001
ACAD
1000
MTEXTBEGIN
1070
    73
1070
     1
1070
    44
1040
1.0
1070
    74
1070
     0
1000
MTEXTEND
  0
MTEXT
  5
560B
330
1A
100
AcDbEntity
  8
SUNPOU
100
AcDbMText
 10
147398.8605200839
 20
141809.2909212864
 30
0.0
 40
3.5
 41
0.0
 71
     9
 72
     5
  1

1001
ACAD
1000
MTEXTBEGIN
1070
    73
1070
     1
1070
    44
1040
1.0
1070
    74
1070
     0
1000
MTEXTEND
  0
MTEXT
  5
560C
330
1A
100
AcDbEntity
  8
SUNPOU
100
AcDbMText
 10
95895.72097917013
 20
89443.5051561396
 30
0.0
 40
10.5
 41
0.0
 71
     9
 72
     5
  1

1001
ACAD
1000
MTEXTBEGIN
1070
    73
1070
     1
1070
    44
1040
1.0
1070
    74
1070
     0
1000
MTEXTEND
  0
MTEXT
  5
560D
330
1A
100
AcDbEntity
  8
SUNPOU
100
AcDbMText
 10
81947.72087879414
 20
70271.1060170274
 30
0.0
 40
3.5
 41
0.0
 71
     7
 72
     5
  1

1001
ACAD
1000
MTEXTBEGIN
1070
    73
1070
     1
1070
    44
1040
1.0
1070
    74
1070
     0
1000
MTEXTEND
  0
MTEXT
  5
560E
330
1A
100
AcDbEntity
  8
SUNPOU
100
AcDbMText
 10
62932.89027578729
 20
58033.25474784561
 30
0.0
 40
10.5
 41
0.0
 71
     7
 72
     5
  1

1001
ACAD
1000
MTEXTBEGIN
1070
    73
1070
     1
1070
    44
1040
1.0
1070
    74
1070
     0
1000
MTEXTEND
  0
MTEXT
  5
560F
330
1A
100
AcDbEntity
  8
SUNPOU
100
AcDbMText
 10
50475.66201083918
 20
42188.32316974719
 30
0.0
 40
35.0
 41
0.0
 71
     9
 72
     5
  1

1001
ACAD
1000
MTEXTBEGIN
1070
    73
1070
     1
1070
    44
1040
1.0
1070
    74
1070
     0
1000
MTEXTEND
  0
MTEXT
  5
5610
330
1A
100
AcDbEntity
  8
SUNPOU
100
AcDbMText
 10
49384.14706841413
 20
42797.0985797959
 30
0.0
 40
350.0000004171781
 41
0.0
 71
     7
 72
     5
  1

1001
ACAD
1000
MTEXTBEGIN
1070
    73
1070
     1
1070
    44
1040
1.0
1070
    74
1070
     0
1000
MTEXTEND
  0
MTEXT
  5
5611
330
1A
100
AcDbEntity
  8
0
100
AcDbMText
 10
55428.09782635704
 20
40777.02094193211
 30
0.0
 40
8.0
 41
0.0
 71
     7
 72
     5
  1

1001
ACAD
1000
MTEXTBEGIN
1070
    73
1070
     1
1070
    44
1040
1.0
1070
    74
1070
     0
1000
MTEXTEND
  0
MTEXT
  5
5612
330
1A
100
AcDbEntity
  8
0
100
AcDbMText
 10
57713.45551625194
 20
41747.81123668317
 30
0.0
 40
8.0
 41
0.0
 71
     7
 72
     5
  1

1001
ACAD
1000
MTEXTBEGIN
1070
    73
1070
     1
1070
    44
1040
1.0
1070
    74
1070
     0
1000
MTEXTEND
  0
MTEXT
  5
5613
330
1A
100
AcDbEntity
  8
SUNPOU
100
AcDbMText
 10
60379.35253693408
 20
51259.9226290583
 30
0.0
 40
10.5
 41
0.0
 71
     1
 72
     5
  1

1001
ACAD
1000
MTEXTBEGIN
1070
    73
1070
     1
1070
    44
1040
1.0
1070
    74
1070
     0
1000
MTEXTEND
  0
MTEXT
  5
5614
330
1A
100
AcDbEntity
  8
SUNPOU
100
AcDbMText
 10
52448.42934099814
 20
50313.12949514535
 30
0.0
 40
10.5
 41
0.0
 71
     7
 72
     5
  1

1001
ACAD
1000
MTEXTBEGIN
1070
    73
1070
     1
1070
    44
1040
1.0
1070
    74
1070
     0
1000
MTEXTEND
  0
MTEXT
  5
5615
330
1A
100
AcDbEntity
  8
SUNPOU
100
AcDbMText
 10
55397.41300551091
 20
55213.80556698819
 30
0.0
 40
10.5
 41
0.0
 71
     7
 72
     5
  1

1001
ACAD
1000
MTEXTBEGIN
1070
    73
1070
     1
1070
    44
1040
1.0
1070
    74
1070
     0
1000
MTEXTEND
  0
MTEXT
  5
5616
330
1A
100
AcDbEntity
  8
SUNPOU
100
AcDbMText
 10
59906.49113346147
 20
57650.10631460826
 30
0.0
 40
10.5
 41
0.0
 71
     7
 72
     5
  1

1001
ACAD
1000
MTEXTBEGIN
1070
    73
1070
     1
1070
    44
1040
1.0
1070
    74
1070
     0
1000
MTEXTEND
  0
MTEXT
  5
5617
330
1A
100
AcDbEntity
  8
SUNPOU
100
AcDbMText
 10
43507.32902022979
 20
36647.70246499718
 30
0.0
 40
10.5
 41
0.0
 71
     7
 72
     5
  1

1001
ACAD
1000
MTEXTBEGIN
1070
    73
1070
     1
1070
    44
1040
1.0
1070
    74
1070
     0
1000
MTEXTEND
  0
MTEXT
  5
5618
330
1A
100
AcDbEntity
  8
SUNPOU
100
AcDbMText
 10
94698.84745413006
 20
82320.68302864542
 30
0.0
 40
10.5
 41
0.0
 71
     9
 72
     5
  1

1001
ACAD
1000
MTEXTBEGIN
1070
    73
1070
     1
1070
    44
1040
1.0
1070
    74
1070
     0
1000
MTEXTEND
  0
MTEXT
  5
5619
330
1A
100
AcDbEntity
  8
SUNPOU
100
AcDbMText
 10
103421.015020048
 20
89736.5175601829
 30
0.0
 40
10.5
 41
0.0
 71
     9
 72
     5
  1

1001
ACAD
1000
MTEXTBEGIN
1070
    73
1070
     1
1070
    44
1040
1.0
1070
    74
1070
     0
1000
MTEXTEND
  0
MTEXT
  5
561A
330
1A
100
AcDbEntity
  8
SUNPOU
100
AcDbMText
 10
122374.773737378
 20
107203.0936126749
 30
0.0
 40
10.5
 41
0.0
 71
     9
 72
     5
  1

1001
ACAD
1000
MTEXTBEGIN
1070
    73
1070
     1
1070
    44
1040
1.0
1070
    74
1070
     0
1000
MTEXTEND
  0
MTEXT
  5
561B
330
1A
100
AcDbEntity
  8
SUNPOU
100
AcDbMText
 10
124318.1809840874
 20
105402.0445327969
 30
0.0
 40
3.5
 41
0.0
 71
     9
 72
     5
  1

1001
ACAD
1000
MTEXTBEGIN
1070
    73
1070
     1
1070
    44
1040
1.0
1070
    74
1070
     0
1000
MTEXTEND
  0
MTEXT
  5
561C
330
1A
100
AcDbEntity
  8
SUNPOU
100
AcDbMText
 10
155444.3608167071
 20
147896.9902004542
 30
0.0
 40
10.5
 41
0.0
 71
     9
 72
     5
  1

1001
ACAD
1000
MTEXTBEGIN
1070
    73
1070
     1
1070
    44
1040
1.0
1070
    74
1070
     0
1000
MTEXTEND
  0
MTEXT
  5
561D
330
1A
100
AcDbEntity
  8
SUNPOU
100
AcDbMText
 10
157387.7680634165
 20
146095.9411205762
 30
0.0
 40
3.5
 41
0.0
 71
     9
 72
     5
  1

1001
ACAD
1000
MTEXTBEGIN
1070
    73
1070
     1
1070
    44
1040
1.0
1070
    74
1070
     0
1000
MTEXTEND
  0
MTEXT
  5
561E
330
1A
100
AcDbEntity
  8
SUNPOU
100
AcDbMText
 10
105884.6285225027
 20
93730.15535542933
 30
0.0
 40
10.5
 41
0.0
 71
     9
 72
     5
  1

1001
ACAD
1000
MTEXTBEGIN
1070
    73
1070
     1
1070
    44
1040
1.0
1070
    74
1070
     0
1000
MTEXTEND
  0
MTEXT
  5
561F
330
1A
100
AcDbEntity
  8
SUNPOU
100
AcDbMText
 10
91936.6284221267
 20
74557.75621631714
 30
0.0
 40
3.5
 41
0.0
 71
     7
 72
     5
  1

1001
ACAD
1000
MTEXTBEGIN
1070
    73
1070
     1
1070
    44
1040
1.0
1070
    74
1070
     0
1000
MTEXTEND
  0
MTEXT
  5
5620
330
1A
100
AcDbEntity
  8
SUNPOU
100
AcDbMText
 10
72921.79781911986
 20
62319.90494713533
 30
0.0
 40
10.5
 41
0.0
 71
     7
 72
     5
  1

1001
ACAD
1000
MTEXTBEGIN
1070
    73
1070
     1
1070
    44
1040
1.0
1070
    74
1070
     0
1000
MTEXTEND
  0
MTEXT
  5
5621
330
1A
100
AcDbEntity
  8
SUNPOU
100
AcDbMText
 10
60464.56955417175
 20
46474.97336903692
 30
0.0
 40
35.0
 41
0.0
 71
     9
 72
     5
  1

1001
ACAD
1000
MTEXTBEGIN
1070
    73
1070
     1
1070
    44
1040
1.0
1070
    74
1070
     0
1000
MTEXTEND
  0
MTEXT
  5
5622
330
1A
100
AcDbEntity
  8
SUNPOU
100
AcDbMText
 10
59373.05461174672
 20
47083.74877908562
 30
0.0
 40
350.0000004171781
 41
0.0
 71
     7
 72
     5
  1

1001
ACAD
1000
MTEXTBEGIN
1070
    73
1070
     1
1070
    44
1040
1.0
1070
    74
1070
     0
1000
MTEXTEND
  0
MTEXT
  5
5623
330
1A
100
AcDbEntity
  8
0
100
AcDbMText
 10
65417.00536968962
 20
45063.67114122186
 30
0.0
 40
8.0
 41
0.0
 71
     7
 72
     5
  1

1001
ACAD
1000
MTEXTBEGIN
1070
    73
1070
     1
1070
    44
1040
1.0
1070
    74
1070
     0
1000
MTEXTEND
  0
MTEXT
  5
5624
330
1A
100
AcDbEntity
  8
0
100
AcDbMText
 10
67702.36305958452
 20
46034.46143597292
 30
0.0
 40
8.0
 41
0.0
 71
     7
 72
     5
  1

1001
ACAD
1000
MTEXTBEGIN
1070
    73
1070
     1
1070
    44
1040
1.0
1070
    74
1070
     0
1000
MTEXTEND
  0
MTEXT
  5
5625
330
1A
100
AcDbEntity
  8
SUNPOU
100
AcDbMText
 10
70368.26008026666
 20
55546.57282834803
 30
0.0
 40
10.5
 41
0.0
 71
     1
 72
     5
  1

1001
ACAD
1000
MTEXTBEGIN
1070
    73
1070
     1
1070
    44
1040
1.0
1070
    74
1070
     0
1000
MTEXTEND
  0
MTEXT
  5
5626
330
1A
100
AcDbEntity
  8
SUNPOU
100
AcDbMText
 10
62437.33688433072
 20
54599.77969443508
 30
0.0
 40
10.5
 41
0.0
 71
     7
 72
     5
  1

1001
ACAD
1000
MTEXTBEGIN
1070
    73
1070
     1
1070
    44
1040
1.0
1070
    74
1070
     0
1000
MTEXTEND
  0
MTEXT
  5
5627
330
1A
100
AcDbEntity
  8
SUNPOU
100
AcDbMText
 10
65386.32054884349
 20
59500.45576627792
 30
0.0
 40
10.5
 41
0.0
 71
     7
 72
     5
  1

1001
ACAD
1000
MTEXTBEGIN
1070
    73
1070
     1
1070
    44
1040
1.0
1070
    74
1070
     0
1000
MTEXTEND
  0
MTEXT
  5
5628
330
1A
100
AcDbEntity
  8
SUNPOU
100
AcDbMText
 10
69895.39867679405
 20
61936.756513898
 30
0.0
 40
10.5
 41
0.0
 71
     7
 72
     5
  1

1001
ACAD
1000
MTEXTBEGIN
1070
    73
1070
     1
1070
    44
1040
1.0
1070
    74
1070
     0
1000
MTEXTEND
  0
MTEXT
  5
5629
330
1A
100
AcDbEntity
  8
SUNPOU
100
AcDbMText
 10
53496.23656356237
 20
40934.35266428691
 30
0.0
 40
10.5
 41
0.0
 71
     7
 72
     5
  1

1001
ACAD
1000
MTEXTBEGIN
1070
    73
1070
     1
1070
    44
1040
1.0
1070
    74
1070
     0
1000
MTEXTEND
  0
MTEXT
  5
562A
330
1A
100
AcDbEntity
  8
SUNPOU
100
AcDbMText
 10
55306.99947493731
 20
47261.76665176547
 30
0.0
 40
10.5
 41
0.0
 71
     9
 72
     5
  1

1001
ACAD
1000
MTEXTBEGIN
1070
    73
1070
     1
1070
    44
1040
1.0
1070
    74
1070
     0
1000
MTEXTEND
  0
MTEXT
  5
562B
330
1A
100
AcDbEntity
  8
SUNPOU
100
AcDbMText
 10
64029.16704085528
 20
54677.60118330295
 30
0.0
 40
10.5
 41
0.0
 71
     9
 72
     5
  1

1001
ACAD
1000
MTEXTBEGIN
1070
    73
1070
     1
1070
    44
1040
1.0
1070
    74
1070
     0
1000
MTEXTEND
  0
MTEXT
  5
562C
330
1A
100
AcDbEntity
  8
SUNPOU
100
AcDbMText
 10
82982.92575818527
 20
72144.17723579499
 30
0.0
 40
10.5
 41
0.0
 71
     9
 72
     5
  1

1001
ACAD
1000
MTEXTBEGIN
1070
    73
1070
     1
1070
    44
1040
1.0
1070
    74
1070
     0
1000
MTEXTEND
  0
MTEXT
  5
562D
330
1A
100
AcDbEntity
  8
SUNPOU
100
AcDbMText
 10
84926.33300489467
 20
70343.12815591698
 30
0.0
 40
3.5
 41
0.0
 71
     9
 72
     5
  1

1001
ACAD
1000
MTEXTBEGIN
1070
    73
1070
     1
1070
    44
1040
1.0
1070
    74
1070
     0
1000
MTEXTEND
  0
MTEXT
  5
562E
330
1A
100
AcDbEntity
  8
SUNPOU
100
AcDbMText
 10
116052.5128375143
 20
112838.0738235743
 30
0.0
 40
10.5
 41
0.0
 71
     9
 72
     5
  1

1001
ACAD
1000
MTEXTBEGIN
1070
    73
1070
     1
1070
    44
1040
1.0
1070
    74
1070
     0
1000
MTEXTEND
  0
MTEXT
  5
562F
330
1A
100
AcDbEntity
  8
SUNPOU
100
AcDbMText
 10
117995.9200842238
 20
111037.0247436963
 30
0.0
 40
3.5
 41
0.0
 71
     9
 72
     5
  1

1001
ACAD
1000
MTEXTBEGIN
1070
    73
1070
     1
1070
    44
1040
1.0
1070
    74
1070
     0
1000
MTEXTEND
  0
MTEXT
  5
5630
330
1A
100
AcDbEntity
  8
SUNPOU
100
AcDbMText
 10
66492.78054330994
 20
58671.23897854939
 30
0.0
 40
10.5
 41
0.0
 71
     9
 72
     5
  1

1001
ACAD
1000
MTEXTBEGIN
1070
    73
1070
     1
1070
    44
1040
1.0
1070
    74
1070
     0
1000
MTEXTEND
  0
MTEXT
  5
5631
330
1A
100
AcDbEntity
  8
SUNPOU
100
AcDbMText
 10
52544.78044293396
 20
39498.83983943717
 30
0.0
 40
3.5
 41
0.0
 71
     7
 72
     5
  1

1001
ACAD
1000
MTEXTBEGIN
1070
    73
1070
     1
1070
    44
1040
1.0
1070
    74
1070
     0
1000
MTEXTEND
  0
MTEXT
  5
5632
330
1A
100
AcDbEntity
  8
SUNPOU
100
AcDbMText
 10
66237.13112570454
 20
48857.90306045851
 30
0.0
 40
10.5
 41
0.0
 71
     9
 72
     5
  1

1001
ACAD
1000
MTEXTBEGIN
1070
    73
1070
     1
1070
    44
1040
1.0
1070
    74
1070
     0
1000
MTEXTEND
  0
MTEXT
  5
5633
330
1A
100
AcDbEntity
  8
SUNPOU
100
AcDbMText
 10
74959.29869162252
 20
56273.737591996
 30
0.0
 40
10.5
 41
0.0
 71
     9
 72
     5
  1

1001
ACAD
1000
MTEXTBEGIN
1070
    73
1070
     1
1070
    44
1040
1.0
1070
    74
1070
     0
1000
MTEXTEND
  0
MTEXT
  5
5634
330
1A
100
AcDbEntity
  8
SUNPOU
100
AcDbMText
 10
93913.0574089525
 20
73740.31364448805
 30
0.0
 40
10.5
 41
0.0
 71
     9
 72
     5
  1

1001
ACAD
1000
MTEXTBEGIN
1070
    73
1070
     1
1070
    44
1040
1.0
1070
    74
1070
     0
1000
MTEXTEND
  0
MTEXT
  5
5635
330
1A
100
AcDbEntity
  8
SUNPOU
100
AcDbMText
 10
95856.46465566192
 20
71939.26456461004
 30
0.0
 40
3.5
 41
0.0
 71
     9
 72
     5
  1

1001
ACAD
1000
MTEXTBEGIN
1070
    73
1070
     1
1070
    44
1040
1.0
1070
    74
1070
     0
1000
MTEXTEND
  0
MTEXT
  5
5636
330
1A
100
AcDbEntity
  8
SUNPOU
100
AcDbMText
 10
126982.6444882816
 20
114434.2102322673
 30
0.0
 40
10.5
 41
0.0
 71
     9
 72
     5
  1

1001
ACAD
1000
MTEXTBEGIN
1070
    73
1070
     1
1070
    44
1040
1.0
1070
    74
1070
     0
1000
MTEXTEND
  0
MTEXT
  5
5637
330
1A
100
AcDbEntity
  8
SUNPOU
100
AcDbMText
 10
128926.051734991
 20
112633.1611523893
 30
0.0
 40
3.5
 41
0.0
 71
     9
 72
     5
  1

1001
ACAD
1000
MTEXTBEGIN
1070
    73
1070
     1
1070
    44
1040
1.0
1070
    74
1070
     0
1000
MTEXTEND
  0
MTEXT
  5
5638
330
1A
100
AcDbEntity
  8
SUNPOU
100
AcDbMText
 10
77422.91219407717
 20
60267.37538724244
 30
0.0
 40
10.5
 41
0.0
 71
     9
 72
     5
  1

1001
ACAD
1000
MTEXTBEGIN
1070
    73
1070
     1
1070
    44
1040
1.0
1070
    74
1070
     0
1000
MTEXTEND
  0
MTEXT
  5
5639
330
1A
100
AcDbEntity
  8
SUNPOU
100
AcDbMText
 10
63474.91209370119
 20
41094.97624813023
 30
0.0
 40
3.5
 41
0.0
 71
     7
 72
     5
  1

1001
ACAD
1000
MTEXTBEGIN
1070
    73
1070
     1
1070
    44
1040
1.0
1070
    74
1070
     0
1000
MTEXTEND
  0
MTEXT
  5
563A
330
1A
100
AcDbEntity
  8
SUNPOU
100
AcDbMText
 10
48117.65086229006
 20
40806.11043916631
 30
0.0
 40
10.5
 41
0.0
 71
     9
 72
     5
  1

1001
ACAD
1000
MTEXTBEGIN
1070
    73
1070
     1
1070
    44
1040
1.0
1070
    74
1070
     0
1000
MTEXTEND
  0
MTEXT
  5
563B
330
1A
100
AcDbEntity
  8
SUNPOU
100
AcDbMText
 10
67071.40957962004
 20
58272.68649165837
 30
0.0
 40
10.5
 41
0.0
 71
     9
 72
     5
  1

1001
ACAD
1000
MTEXTBEGIN
1070
    73
1070
     1
1070
    44
1040
1.0
1070
    74
1070
     0
1000
MTEXTEND
  0
MTEXT
  5
563C
330
1A
100
AcDbEntity
  8
SUNPOU
100
AcDbMText
 10
69014.81682632945
 20
56471.63741178035
 30
0.0
 40
3.5
 41
0.0
 71
     9
 72
     5
  1

1001
ACAD
1000
MTEXTBEGIN
1070
    73
1070
     1
1070
    44
1040
1.0
1070
    74
1070
     0
1000
MTEXTEND
  0
MTEXT
  5
563D
330
1A
100
AcDbEntity
  8
SUNPOU
100
AcDbMText
 10
100140.9966589491
 20
98966.58307943772
 30
0.0
 40
10.5
 41
0.0
 71
     9
 72
     5
  1

1001
ACAD
1000
MTEXTBEGIN
1070
    73
1070
     1
1070
    44
1040
1.0
1070
    74
1070
     0
1000
MTEXTEND
  0
MTEXT
  5
563E
330
1A
100
AcDbEntity
  8
SUNPOU
100
AcDbMText
 10
102084.4039056586
 20
97165.53399955969
 30
0.0
 40
3.5
 41
0.0
 71
     9
 72
     5
  1

1001
ACAD
1000
MTEXTBEGIN
1070
    73
1070
     1
1070
    44
1040
1.0
1070
    74
1070
     0
1000
MTEXTEND
  0
MTEXT
  5
563F
330
1A
100
AcDbEntity
  8
SUNPOU
100
AcDbMText
 10
50581.26436474472
 20
44799.74823441275
 30
0.0
 40
10.5
 41
0.0
 71
     9
 72
     5
  1

1001
ACAD
1000
MTEXTBEGIN
1070
    73
1070
     1
1070
    44
1040
1.0
1070
    74
1070
     0
1000
MTEXTEND
  0
MTEXT
  5
5640
330
1A
100
AcDbEntity
  8
SUNPOU
100
AcDbMText
 10
36633.26426436873
 20
25627.34909530054
 30
0.0
 40
3.5
 41
0.0
 71
     7
 72
     5
  1

1001
ACAD
1000
MTEXTBEGIN
1070
    73
1070
     1
1070
    44
1040
1.0
1070
    74
1070
     0
1000
MTEXTEND
  0
MTEXT
  5
5641
330
1A
100
AcDbEntity
  8
SUNPOU
100
AcDbMText
 10
61069.42493315968
 20
52574.61207825771
 30
0.0
 40
10.5
 41
0.0
 71
     9
 72
     5
  1

1001
ACAD
1000
MTEXTBEGIN
1070
    73
1070
     1
1070
    44
1040
1.0
1070
    74
1070
     0
1000
MTEXTEND
  0
MTEXT
  5
5642
330
1A
100
AcDbEntity
  8
SUNPOU
100
AcDbMText
 10
80023.18365048967
 20
70041.18813074978
 30
0.0
 40
10.5
 41
0.0
 71
     9
 72
     5
  1

1001
ACAD
1000
MTEXTBEGIN
1070
    73
1070
     1
1070
    44
1040
1.0
1070
    74
1070
     0
1000
MTEXTEND
  0
MTEXT
  5
5643
330
1A
100
AcDbEntity
  8
SUNPOU
100
AcDbMText
 10
81966.59089719908
 20
68240.13905087176
 30
0.0
 40
3.5
 41
0.0
 71
     9
 72
     5
  1

1001
ACAD
1000
MTEXTBEGIN
1070
    73
1070
     1
1070
    44
1040
1.0
1070
    74
1070
     0
1000
MTEXTEND
  0
MTEXT
  5
5644
330
1A
100
AcDbEntity
  8
SUNPOU
100
AcDbMText
 10
113092.7707298187
 20
110735.0847185291
 30
0.0
 40
10.5
 41
0.0
 71
     9
 72
     5
  1

1001
ACAD
1000
MTEXTBEGIN
1070
    73
1070
     1
1070
    44
1040
1.0
1070
    74
1070
     0
1000
MTEXTEND
  0
MTEXT
  5
5645
330
1A
100
AcDbEntity
  8
SUNPOU
100
AcDbMText
 10
115036.1779765282
 20
108934.0356386511
 30
0.0
 40
3.5
 41
0.0
 71
     9
 72
     5
  1

1001
ACAD
1000
MTEXTBEGIN
1070
    73
1070
     1
1070
    44
1040
1.0
1070
    74
1070
     0
1000
MTEXTEND
  0
MTEXT
  5
5646
330
1A
100
AcDbEntity
  8
SUNPOU
100
AcDbMText
 10
63533.03843561433
 20
56568.24987350415
 30
0.0
 40
10.5
 41
0.0
 71
     9
 72
     5
  1

1001
ACAD
1000
MTEXTBEGIN
1070
    73
1070
     1
1070
    44
1040
1.0
1070
    74
1070
     0
1000
MTEXTEND
  0
MTEXT
  5
5647
330
1A
100
AcDbEntity
  8
SUNPOU
100
AcDbMText
 10
49585.03833523835
 20
37395.85073439196
 30
0.0
 40
3.5
 41
0.0
 71
     7
 72
     5
  1

1001
ACAD
1000
MTEXTBEGIN
1070
    73
1070
     1
1070
    44
1040
1.0
1070
    74
1070
     0
1000
MTEXTEND
  0
MTEXT
  5
5648
330
1A
100
AcDbEntity
  8
SUNPOU
100
AcDbMText
 10
77137.31641337052
 20
70907.11375048141
 30
0.0
 40
10.5
 41
0.0
 71
     9
 72
     5
  1

1001
ACAD
1000
MTEXTBEGIN
1070
    73
1070
     1
1070
    44
1040
1.0
1070
    74
1070
     0
1000
MTEXTEND
  0
MTEXT
  5
5649
330
1A
100
AcDbEntity
  8
SUNPOU
100
AcDbMText
 10
79080.72366007995
 20
69106.06467060339
 30
0.0
 40
3.5
 41
0.0
 71
     9
 72
     5
  1

1001
ACAD
1000
MTEXTBEGIN
1070
    73
1070
     1
1070
    44
1040
1.0
1070
    74
1070
     0
1000
MTEXTEND
  0
MTEXT
  5
564A
330
1A
100
AcDbEntity
  8
SUNPOU
100
AcDbMText
 10
110206.9034926996
 20
111601.0103382607
 30
0.0
 40
10.5
 41
0.0
 71
     9
 72
     5
  1

1001
ACAD
1000
MTEXTBEGIN
1070
    73
1070
     1
1070
    44
1040
1.0
1070
    74
1070
     0
1000
MTEXTEND
  0
MTEXT
  5
564B
330
1A
100
AcDbEntity
  8
SUNPOU
100
AcDbMText
 10
112150.310739409
 20
109799.9612583827
 30
0.0
 40
3.5
 41
0.0
 71
     9
 72
     5
  1

1001
ACAD
1000
MTEXTBEGIN
1070
    73
1070
     1
1070
    44
1040
1.0
1070
    74
1070
     0
1000
MTEXTEND
  0
MTEXT
  5
564C
330
1A
100
AcDbEntity
  8
SUNPOU
100
AcDbMText
 10
108819.1333204968
 20
110677.9087286761
 30
0.0
 40
10.5
 41
0.0
 71
     9
 72
     5
  1

1001
ACAD
1000
MTEXTBEGIN
1070
    73
1070
     1
1070
    44
1040
1.0
1070
    74
1070
     0
1000
MTEXTEND
  0
MTEXT
  5
564D
330
1A
100
AcDbEntity
  8
SUNPOU
100
AcDbMText
 10
110762.5405672062
 20
108876.8596487981
 30
0.0
 40
3.5
 41
0.0
 71
     9
 72
     5
  1

1001
ACAD
1000
MTEXTBEGIN
1070
    73
1070
     1
1070
    44
1040
1.0
1070
    74
1070
     0
1000
MTEXTEND
  0
MTEXT
  5
564E
330
1A
100
AcDbEntity
  8
SUNPOU
100
AcDbMText
 10
76303.05507956816
 20
68695.31179059812
 30
0.0
 40
10.5
 41
0.0
 71
     9
 72
     5
  1

1001
ACAD
1000
MTEXTBEGIN
1070
    73
1070
     1
1070
    44
1040
1.0
1070
    74
1070
     0
1000
MTEXTEND
  0
MTEXT
  5
564F
330
1A
100
AcDbEntity
  8
SUNPOU
100
AcDbMText
 10
79026.36128373271
 20
69099.99348217918
 30
0.0
 40
3.5
 41
0.0
 71
     9
 72
     5
  1

1001
ACAD
1000
MTEXTBEGIN
1070
    73
1070
     1
1070
    44
1040
1.0
1070
    74
1070
     0
1000
MTEXTEND
  0
MTEXT
  5
5650
330
1A
100
AcDbEntity
  8
SUNPOU
100
AcDbMText
 10
78234.00675862522
 20
65938.68764412436
 30
0.0
 40
10.5
 41
0.0
 71
     9
 72
     5
  1

1001
ACAD
1000
MTEXTBEGIN
1070
    73
1070
     1
1070
    44
1040
1.0
1070
    74
1070
     0
1000
MTEXTEND
  0
MTEXT
  5
5651
330
1A
100
AcDbEntity
  8
SUNPOU
100
AcDbMText
 10
80177.41400533465
 20
64137.63856424636
 30
0.0
 40
3.5
 41
0.0
 71
     9
 72
     5
  1

1001
ACAD
1000
MTEXTBEGIN
1070
    73
1070
     1
1070
    44
1040
1.0
1070
    74
1070
     0
1000
MTEXTEND
  0
MTEXT
  5
5652
330
1A
100
AcDbEntity
  8
SUNPOU
100
AcDbMText
 10
80122.50949592123
 20
64024.86668196205
 30
0.0
 40
3.5
 41
0.0
 71
     9
 72
     5
  1

1001
ACAD
1000
MTEXTBEGIN
1070
    73
1070
     1
1070
    44
1040
1.0
1070
    74
1070
     0
1000
MTEXTEND
  0
MTEXT
  5
5653
330
1A
100
AcDbEntity
  8
SUNPOU
100
AcDbMText
 10
79486.58135950133
 20
63213.54544089553
 30
0.0
 40
3.5
 41
0.0
 71
     9
 72
     5
  1

1001
ACAD
1000
MTEXTBEGIN
1070
    73
1070
     1
1070
    44
1040
1.0
1070
    74
1070
     0
1000
MTEXTEND
  0
MTEXT
  5
5654
330
1A
100
AcDbEntity
  8
SUNPOU
100
AcDbMText
 10
79485.3409400806
 20
63213.29746395804
 30
0.0
 40
10.5
 41
0.0
 71
     9
 72
     5
  1

1001
ACAD
1000
MTEXTBEGIN
1070
    73
1070
     1
1070
    44
1040
1.0
1070
    74
1070
     0
1000
MTEXTEND
  0
MTEXT
  5
5655
330
1A
100
AcDbEntity
  8
SUNPOU
100
AcDbMText
 10
85473.63363627567
 20
80747.76348077064
 30
0.0
 40
10.5
 41
0.0
 71
     9
 72
     5
  1

1001
ACAD
1000
MTEXTBEGIN
1070
    73
1070
     1
1070
    44
1040
1.0
1070
    74
1070
     0
1000
MTEXTEND
  0
MTEXT
  5
5656
330
1A
100
AcDbEntity
  8
SUNPOU
100
AcDbMText
 10
94195.80120219368
 20
88163.59801230809
 30
0.0
 40
10.5
 41
0.0
 71
     9
 72
     5
  1

1001
ACAD
1000
MTEXTBEGIN
1070
    73
1070
     1
1070
    44
1040
1.0
1070
    74
1070
     0
1000
MTEXTEND
  0
MTEXT
  5
5657
330
1A
100
AcDbEntity
  8
SUNPOU
100
AcDbMText
 10
113149.5599195236
 20
105630.1740648001
 30
0.0
 40
10.5
 41
0.0
 71
     9
 72
     5
  1

1001
ACAD
1000
MTEXTBEGIN
1070
    73
1070
     1
1070
    44
1040
1.0
1070
    74
1070
     0
1000
MTEXTEND
  0
MTEXT
  5
5658
330
1A
100
AcDbEntity
  8
SUNPOU
100
AcDbMText
 10
115092.967166233
 20
103829.1249849221
 30
0.0
 40
3.5
 41
0.0
 71
     9
 72
     5
  1

1001
ACAD
1000
MTEXTBEGIN
1070
    73
1070
     1
1070
    44
1040
1.0
1070
    74
1070
     0
1000
MTEXTEND
  0
MTEXT
  5
5659
330
1A
100
AcDbEntity
  8
SUNPOU
100
AcDbMText
 10
146219.1469988527
 20
146324.0706525794
 30
0.0
 40
10.5
 41
0.0
 71
     9
 72
     5
  1

1001
ACAD
1000
MTEXTBEGIN
1070
    73
1070
     1
1070
    44
1040
1.0
1070
    74
1070
     0
1000
MTEXTEND
  0
MTEXT
  5
565A
330
1A
100
AcDbEntity
  8
SUNPOU
100
AcDbMText
 10
148162.5542455621
 20
144523.0215727014
 30
0.0
 40
3.5
 41
0.0
 71
     9
 72
     5
  1

1001
ACAD
1000
MTEXTBEGIN
1070
    73
1070
     1
1070
    44
1040
1.0
1070
    74
1070
     0
1000
MTEXTEND
  0
MTEXT
  5
565B
330
1A
100
AcDbEntity
  8
SUNPOU
100
AcDbMText
 10
96659.41470464833
 20
92157.23580755453
 30
0.0
 40
10.5
 41
0.0
 71
     9
 72
     5
  1

1001
ACAD
1000
MTEXTBEGIN
1070
    73
1070
     1
1070
    44
1040
1.0
1070
    74
1070
     0
1000
MTEXTEND
  0
MTEXT
  5
565C
330
1A
100
AcDbEntity
  8
SUNPOU
100
AcDbMText
 10
82711.41460427234
 20
72984.83666844234
 30
0.0
 40
3.5
 41
0.0
 71
     7
 72
     5
  1

1001
ACAD
1000
MTEXTBEGIN
1070
    73
1070
     1
1070
    44
1040
1.0
1070
    74
1070
     0
1000
MTEXTEND
  0
MTEXT
  5
565D
330
1A
100
AcDbEntity
  8
SUNPOU
100
AcDbMText
 10
63696.58400126548
 20
60746.98539926055
 30
0.0
 40
10.5
 41
0.0
 71
     7
 72
     5
  1

1001
ACAD
1000
MTEXTBEGIN
1070
    73
1070
     1
1070
    44
1040
1.0
1070
    74
1070
     0
1000
MTEXTEND
  0
MTEXT
  5
565E
330
1A
100
AcDbEntity
  8
SUNPOU
100
AcDbMText
 10
51239.35573631738
 20
44902.05382116213
 30
0.0
 40
35.0
 41
0.0
 71
     9
 72
     5
  1

1001
ACAD
1000
MTEXTBEGIN
1070
    73
1070
     1
1070
    44
1040
1.0
1070
    74
1070
     0
1000
MTEXTEND
  0
MTEXT
  5
565F
330
1A
100
AcDbEntity
  8
SUNPOU
100
AcDbMText
 10
50147.84079389233
 20
45510.82923121084
 30
0.0
 40
350.0000004171781
 41
0.0
 71
     7
 72
     5
  1

1001
ACAD
1000
MTEXTBEGIN
1070
    73
1070
     1
1070
    44
1040
1.0
1070
    74
1070
     0
1000
MTEXTEND
  0
MTEXT
  5
5660
330
1A
100
AcDbEntity
  8
0
100
AcDbMText
 10
56191.79155183523
 20
43490.75159334705
 30
0.0
 40
8.0
 41
0.0
 71
     7
 72
     5
  1

1001
ACAD
1000
MTEXTBEGIN
1070
    73
1070
     1
1070
    44
1040
1.0
1070
    74
1070
     0
1000
MTEXTEND
  0
MTEXT
  5
5661
330
1A
100
AcDbEntity
  8
0
100
AcDbMText
 10
58477.14924173013
 20
44461.54188809812
 30
0.0
 40
8.0
 41
0.0
 71
     7
 72
     5
  1

1001
ACAD
1000
MTEXTBEGIN
1070
    73
1070
     1
1070
    44
1040
1.0
1070
    74
1070
     0
1000
MTEXTEND
  0
MTEXT
  5
5662
330
1A
100
AcDbEntity
  8
SUNPOU
100
AcDbMText
 10
61143.04626241227
 20
53973.65328047324
 30
0.0
 40
10.5
 41
0.0
 71
     1
 72
     5
  1

1001
ACAD
1000
MTEXTBEGIN
1070
    73
1070
     1
1070
    44
1040
1.0
1070
    74
1070
     0
1000
MTEXTEND
  0
MTEXT
  5
5663
330
1A
100
AcDbEntity
  8
SUNPOU
100
AcDbMText
 10
53212.12306647634
 20
53026.86014656028
 30
0.0
 40
10.5
 41
0.0
 71
     7
 72
     5
  1

1001
ACAD
1000
MTEXTBEGIN
1070
    73
1070
     1
1070
    44
1040
1.0
1070
    74
1070
     0
1000
MTEXTEND
  0
MTEXT
  5
5664
330
1A
100
AcDbEntity
  8
SUNPOU
100
AcDbMText
 10
56161.1067309891
 20
57927.53621840312
 30
0.0
 40
10.5
 41
0.0
 71
     7
 72
     5
  1

1001
ACAD
1000
MTEXTBEGIN
1070
    73
1070
     1
1070
    44
1040
1.0
1070
    74
1070
     0
1000
MTEXTEND
  0
MTEXT
  5
5665
330
1A
100
AcDbEntity
  8
SUNPOU
100
AcDbMText
 10
60670.18485893966
 20
60363.8369660232
 30
0.0
 40
10.5
 41
0.0
 71
     7
 72
     5
  1

1001
ACAD
1000
MTEXTBEGIN
1070
    73
1070
     1
1070
    44
1040
1.0
1070
    74
1070
     0
1000
MTEXTEND
  0
MTEXT
  5
5666
330
1A
100
AcDbEntity
  8
SUNPOU
100
AcDbMText
 10
44271.02274570799
 20
39361.43311641212
 30
0.0
 40
10.5
 41
0.0
 71
     7
 72
     5
  1

1001
ACAD
1000
MTEXTBEGIN
1070
    73
1070
     1
1070
    44
1040
1.0
1070
    74
1070
     0
1000
MTEXTEND
  0
MTEXT
  5
5667
330
1A
100
AcDbEntity
  8
SUNPOU
100
AcDbMText
 10
95462.54117960824
 20
85034.41368006038
 30
0.0
 40
10.5
 41
0.0
 71
     9
 72
     5
  1

1001
ACAD
1000
MTEXTBEGIN
1070
    73
1070
     1
1070
    44
1040
1.0
1070
    74
1070
     0
1000
MTEXTEND
  0
MTEXT
  5
5668
330
1A
100
AcDbEntity
  8
SUNPOU
100
AcDbMText
 10
104184.7087455262
 20
92450.24821159784
 30
0.0
 40
10.5
 41
0.0
 71
     9
 72
     5
  1

1001
ACAD
1000
MTEXTBEGIN
1070
    73
1070
     1
1070
    44
1040
1.0
1070
    74
1070
     0
1000
MTEXTEND
  0
MTEXT
  5
5669
330
1A
100
AcDbEntity
  8
SUNPOU
100
AcDbMText
 10
123138.4674628562
 20
109916.8242640898
 30
0.0
 40
10.5
 41
0.0
 71
     9
 72
     5
  1

1001
ACAD
1000
MTEXTBEGIN
1070
    73
1070
     1
1070
    44
1040
1.0
1070
    74
1070
     0
1000
MTEXTEND
  0
MTEXT
  5
566A
330
1A
100
AcDbEntity
  8
SUNPOU
100
AcDbMText
 10
125081.8747095656
 20
108115.7751842118
 30
0.0
 40
3.5
 41
0.0
 71
     9
 72
     5
  1

1001
ACAD
1000
MTEXTBEGIN
1070
    73
1070
     1
1070
    44
1040
1.0
1070
    74
1070
     0
1000
MTEXTEND
  0
MTEXT
  5
566B
330
1A
100
AcDbEntity
  8
SUNPOU
100
AcDbMText
 10
156208.0545421853
 20
150610.7208518691
 30
0.0
 40
10.5
 41
0.0
 71
     9
 72
     5
  1

1001
ACAD
1000
MTEXTBEGIN
1070
    73
1070
     1
1070
    44
1040
1.0
1070
    74
1070
     0
1000
MTEXTEND
  0
MTEXT
  5
566C
330
1A
100
AcDbEntity
  8
SUNPOU
100
AcDbMText
 10
158151.4617888947
 20
148809.6717719911
 30
0.0
 40
3.5
 41
0.0
 71
     9
 72
     5
  1

1001
ACAD
1000
MTEXTBEGIN
1070
    73
1070
     1
1070
    44
1040
1.0
1070
    74
1070
     0
1000
MTEXTEND
  0
MTEXT
  5
566D
330
1A
100
AcDbEntity
  8
SUNPOU
100
AcDbMText
 10
106648.3222479809
 20
96443.88600684427
 30
0.0
 40
10.5
 41
0.0
 71
     9
 72
     5
  1

1001
ACAD
1000
MTEXTBEGIN
1070
    73
1070
     1
1070
    44
1040
1.0
1070
    74
1070
     0
1000
MTEXTEND
  0
MTEXT
  5
566E
330
1A
100
AcDbEntity
  8
SUNPOU
100
AcDbMText
 10
92700.3221476049
 20
77271.48686773207
 30
0.0
 40
3.5
 41
0.0
 71
     7
 72
     5
  1

1001
ACAD
1000
MTEXTBEGIN
1070
    73
1070
     1
1070
    44
1040
1.0
1070
    74
1070
     0
1000
MTEXTEND
  0
MTEXT
  5
566F
330
1A
100
AcDbEntity
  8
SUNPOU
100
AcDbMText
 10
73685.49154459806
 20
65033.63559855027
 30
0.0
 40
10.5
 41
0.0
 71
     7
 72
     5
  1

1001
ACAD
1000
MTEXTBEGIN
1070
    73
1070
     1
1070
    44
1040
1.0
1070
    74
1070
     0
1000
MTEXTEND
  0
MTEXT
  5
5670
330
1A
100
AcDbEntity
  8
SUNPOU
100
AcDbMText
 10
61228.26327964995
 20
49188.70402045185
 30
0.0
 40
35.0
 41
0.0
 71
     9
 72
     5
  1

1001
ACAD
1000
MTEXTBEGIN
1070
    73
1070
     1
1070
    44
1040
1.0
1070
    74
1070
     0
1000
MTEXTEND
  0
MTEXT
  5
5671
330
1A
100
AcDbEntity
  8
SUNPOU
100
AcDbMText
 10
60136.74833722491
 20
49797.47943050056
 30
0.0
 40
350.0000004171781
 41
0.0
 71
     7
 72
     5
  1

1001
ACAD
1000
MTEXTBEGIN
1070
    73
1070
     1
1070
    44
1040
1.0
1070
    74
1070
     0
1000
MTEXTEND
  0
MTEXT
  5
5672
330
1A
100
AcDbEntity
  8
0
100
AcDbMText
 10
66180.69909516782
 20
47777.40179263678
 30
0.0
 40
8.0
 41
0.0
 71
     7
 72
     5
  1

1001
ACAD
1000
MTEXTBEGIN
1070
    73
1070
     1
1070
    44
1040
1.0
1070
    74
1070
     0
1000
MTEXTEND
  0
MTEXT
  5
5673
330
1A
100
AcDbEntity
  8
0
100
AcDbMText
 10
68466.05678506271
 20
48748.19208738784
 30
0.0
 40
8.0
 41
0.0
 71
     7
 72
     5
  1

1001
ACAD
1000
MTEXTBEGIN
1070
    73
1070
     1
1070
    44
1040
1.0
1070
    74
1070
     0
1000
MTEXTEND
  0
MTEXT
  5
5674
330
1A
100
AcDbEntity
  8
SUNPOU
100
AcDbMText
 10
71131.95380574485
 20
58260.30347976296
 30
0.0
 40
10.5
 41
0.0
 71
     1
 72
     5
  1

1001
ACAD
1000
MTEXTBEGIN
1070
    73
1070
     1
1070
    44
1040
1.0
1070
    74
1070
     0
1000
MTEXTEND
  0
MTEXT
  5
5675
330
1A
100
AcDbEntity
  8
SUNPOU
100
AcDbMText
 10
63201.03060980891
 20
57313.51034585002
 30
0.0
 40
10.5
 41
0.0
 71
     7
 72
     5
  1

1001
ACAD
1000
MTEXTBEGIN
1070
    73
1070
     1
1070
    44
1040
1.0
1070
    74
1070
     0
1000
MTEXTEND
  0
MTEXT
  5
5676
330
1A
100
AcDbEntity
  8
SUNPOU
100
AcDbMText
 10
66150.01427432169
 20
62214.18641769286
 30
0.0
 40
10.5
 41
0.0
 71
     7
 72
     5
  1

1001
ACAD
1000
MTEXTBEGIN
1070
    73
1070
     1
1070
    44
1040
1.0
1070
    74
1070
     0
1000
MTEXTEND
  0
MTEXT
  5
5677
330
1A
100
AcDbEntity
  8
SUNPOU
100
AcDbMText
 10
70659.09240227225
 20
64650.48716531294
 30
0.0
 40
10.5
 41
0.0
 71
     7
 72
     5
  1

1001
ACAD
1000
MTEXTBEGIN
1070
    73
1070
     1
1070
    44
1040
1.0
1070
    74
1070
     0
1000
MTEXTEND
  0
MTEXT
  5
5678
330
1A
100
AcDbEntity
  8
SUNPOU
100
AcDbMText
 10
54259.93028904056
 20
43648.08331570185
 30
0.0
 40
10.5
 41
0.0
 71
     7
 72
     5
  1

1001
ACAD
1000
MTEXTBEGIN
1070
    73
1070
     1
1070
    44
1040
1.0
1070
    74
1070
     0
1000
MTEXTEND
  0
MTEXT
  5
5679
330
1A
100
AcDbEntity
  8
SUNPOU
100
AcDbMText
 10
56070.69320041551
 20
49975.4973031804
 30
0.0
 40
10.5
 41
0.0
 71
     9
 72
     5
  1

1001
ACAD
1000
MTEXTBEGIN
1070
    73
1070
     1
1070
    44
1040
1.0
1070
    74
1070
     0
1000
MTEXTEND
  0
MTEXT
  5
567A
330
1A
100
AcDbEntity
  8
SUNPOU
100
AcDbMText
 10
64792.86076633348
 20
57391.33183471788
 30
0.0
 40
10.5
 41
0.0
 71
     9
 72
     5
  1

1001
ACAD
1000
MTEXTBEGIN
1070
    73
1070
     1
1070
    44
1040
1.0
1070
    74
1070
     0
1000
MTEXTEND
  0
MTEXT
  5
567B
330
1A
100
AcDbEntity
  8
SUNPOU
100
AcDbMText
 10
83746.61948366345
 20
74857.90788720994
 30
0.0
 40
10.5
 41
0.0
 71
     9
 72
     5
  1

1001
ACAD
1000
MTEXTBEGIN
1070
    73
1070
     1
1070
    44
1040
1.0
1070
    74
1070
     0
1000
MTEXTEND
  0
MTEXT
  5
567C
330
1A
100
AcDbEntity
  8
SUNPOU
100
AcDbMText
 10
85690.02673037287
 20
73056.85880733192
 30
0.0
 40
3.5
 41
0.0
 71
     9
 72
     5
  1

1001
ACAD
1000
MTEXTBEGIN
1070
    73
1070
     1
1070
    44
1040
1.0
1070
    74
1070
     0
1000
MTEXTEND
  0
MTEXT
  5
567D
330
1A
100
AcDbEntity
  8
SUNPOU
100
AcDbMText
 10
116816.2065629925
 20
115551.8044749892
 30
0.0
 40
10.5
 41
0.0
 71
     9
 72
     5
  1

1001
ACAD
1000
MTEXTBEGIN
1070
    73
1070
     1
1070
    44
1040
1.0
1070
    74
1070
     0
1000
MTEXTEND
  0
MTEXT
  5
567E
330
1A
100
AcDbEntity
  8
SUNPOU
100
AcDbMText
 10
118759.613809702
 20
113750.7553951112
 30
0.0
 40
3.5
 41
0.0
 71
     9
 72
     5
  1

1001
ACAD
1000
MTEXTBEGIN
1070
    73
1070
     1
1070
    44
1040
1.0
1070
    74
1070
     0
1000
MTEXTEND
  0
MTEXT
  5
567F
330
1A
100
AcDbEntity
  8
SUNPOU
100
AcDbMText
 10
67256.47426878814
 20
61384.96962996432
 30
0.0
 40
10.5
 41
0.0
 71
     9
 72
     5
  1

1001
ACAD
1000
MTEXTBEGIN
1070
    73
1070
     1
1070
    44
1040
1.0
1070
    74
1070
     0
1000
MTEXTEND
  0
MTEXT
  5
5680
330
1A
100
AcDbEntity
  8
SUNPOU
100
AcDbMText
 10
53308.47416841216
 20
42212.57049085211
 30
0.0
 40
3.5
 41
0.0
 71
     7
 72
     5
  1

1001
ACAD
1000
MTEXTBEGIN
1070
    73
1070
     1
1070
    44
1040
1.0
1070
    74
1070
     0
1000
MTEXTEND
  0
MTEXT
  5
5681
330
1A
100
AcDbEntity
  8
SUNPOU
100
AcDbMText
 10
67000.82485118274
 20
51571.63371187345
 30
0.0
 40
10.5
 41
0.0
 71
     9
 72
     5
  1

1001
ACAD
1000
MTEXTBEGIN
1070
    73
1070
     1
1070
    44
1040
1.0
1070
    74
1070
     0
1000
MTEXTEND
  0
MTEXT
  5
5682
330
1A
100
AcDbEntity
  8
SUNPOU
100
AcDbMText
 10
75722.99241710071
 20
58987.46824341094
 30
0.0
 40
10.5
 41
0.0
 71
     9
 72
     5
  1

1001
ACAD
1000
MTEXTBEGIN
1070
    73
1070
     1
1070
    44
1040
1.0
1070
    74
1070
     0
1000
MTEXTEND
  0
MTEXT
  5
5683
330
1A
100
AcDbEntity
  8
SUNPOU
100
AcDbMText
 10
94676.75113443068
 20
76454.04429590299
 30
0.0
 40
10.5
 41
0.0
 71
     9
 72
     5
  1

1001
ACAD
1000
MTEXTBEGIN
1070
    73
1070
     1
1070
    44
1040
1.0
1070
    74
1070
     0
1000
MTEXTEND
  0
MTEXT
  5
5684
330
1A
100
AcDbEntity
  8
SUNPOU
100
AcDbMText
 10
96620.1583811401
 20
74652.99521602498
 30
0.0
 40
3.5
 41
0.0
 71
     9
 72
     5
  1

1001
ACAD
1000
MTEXTBEGIN
1070
    73
1070
     1
1070
    44
1040
1.0
1070
    74
1070
     0
1000
MTEXTEND
  0
MTEXT
  5
5685
330
1A
100
AcDbEntity
  8
SUNPOU
100
AcDbMText
 10
127746.3382137598
 20
117147.9408836823
 30
0.0
 40
10.5
 41
0.0
 71
     9
 72
     5
  1

1001
ACAD
1000
MTEXTBEGIN
1070
    73
1070
     1
1070
    44
1040
1.0
1070
    74
1070
     0
1000
MTEXTEND
  0
MTEXT
  5
5686
330
1A
100
AcDbEntity
  8
SUNPOU
100
AcDbMText
 10
129689.7454604692
 20
115346.8918038043
 30
0.0
 40
3.5
 41
0.0
 71
     9
 72
     5
  1

1001
ACAD
1000
MTEXTBEGIN
1070
    73
1070
     1
1070
    44
1040
1.0
1070
    74
1070
     0
1000
MTEXTEND
  0
MTEXT
  5
5687
330
1A
100
AcDbEntity
  8
SUNPOU
100
AcDbMText
 10
78186.60591955537
 20
62981.10603865738
 30
0.0
 40
10.5
 41
0.0
 71
     9
 72
     5
  1

1001
ACAD
1000
MTEXTBEGIN
1070
    73
1070
     1
1070
    44
1040
1.0
1070
    74
1070
     0
1000
MTEXTEND
  0
MTEXT
  5
5688
330
1A
100
AcDbEntity
  8
SUNPOU
100
AcDbMText
 10
64238.60581917939
 20
43808.70689954517
 30
0.0
 40
3.5
 41
0.0
 71
     7
 72
     5
  1

1001
ACAD
1000
MTEXTBEGIN
1070
    73
1070
     1
1070
    44
1040
1.0
1070
    74
1070
     0
1000
MTEXTEND
  0
MTEXT
  5
5689
330
1A
100
AcDbEntity
  8
SUNPOU
100
AcDbMText
 10
33428.13481137435
 20
32770.04710035564
 30
0.0
 40
10.5
 41
0.0
 71
     9
 72
     5
  1

1001
ACAD
1000
MTEXTBEGIN
1070
    73
1070
     1
1070
    44
1040
1.0
1070
    74
1070
     0
1000
MTEXTEND
  0
MTEXT
  5
568A
330
1A
100
AcDbEntity
  8
SUNPOU
100
AcDbMText
 10
52381.89352870432
 20
50236.62315284769
 30
0.0
 40
10.5
 41
0.0
 71
     9
 72
     5
  1

1001
ACAD
1000
MTEXTBEGIN
1070
    73
1070
     1
1070
    44
1040
1.0
1070
    74
1070
     0
1000
MTEXTEND
  0
MTEXT
  5
568B
330
1A
100
AcDbEntity
  8
SUNPOU
100
AcDbMText
 10
54325.30077541374
 20
48435.57407296968
 30
0.0
 40
3.5
 41
0.0
 71
     9
 72
     5
  1

1001
ACAD
1000
MTEXTBEGIN
1070
    73
1070
     1
1070
    44
1040
1.0
1070
    74
1070
     0
1000
MTEXTEND
  0
MTEXT
  5
568C
330
1A
100
AcDbEntity
  8
SUNPOU
100
AcDbMText
 10
85451.48060803343
 20
90930.51974062703
 30
0.0
 40
10.5
 41
0.0
 71
     9
 72
     5
  1

1001
ACAD
1000
MTEXTBEGIN
1070
    73
1070
     1
1070
    44
1040
1.0
1070
    74
1070
     0
1000
MTEXTEND
  0
MTEXT
  5
568D
330
1A
100
AcDbEntity
  8
SUNPOU
100
AcDbMText
 10
87394.88785474286
 20
89129.47066074901
 30
0.0
 40
3.5
 41
0.0
 71
     9
 72
     5
  1

1001
ACAD
1000
MTEXTBEGIN
1070
    73
1070
     1
1070
    44
1040
1.0
1070
    74
1070
     0
1000
MTEXTEND
  0
MTEXT
  5
568E
330
1A
100
AcDbEntity
  8
SUNPOU
100
AcDbMText
 10
35891.74831382901
 20
36763.68489560208
 30
0.0
 40
10.5
 41
0.0
 71
     9
 72
     5
  1

1001
ACAD
1000
MTEXTBEGIN
1070
    73
1070
     1
1070
    44
1040
1.0
1070
    74
1070
     0
1000
MTEXTEND
  0
MTEXT
  5
568F
330
1A
100
AcDbEntity
  8
SUNPOU
100
AcDbMText
 10
21943.74821345303
 20
17591.28575648986
 30
0.0
 40
3.5
 41
0.0
 71
     7
 72
     5
  1

1001
ACAD
1000
MTEXTBEGIN
1070
    73
1070
     1
1070
    44
1040
1.0
1070
    74
1070
     0
1000
MTEXTEND
  0
MTEXT
  5
11D07
330
1A
100
AcDbEntity
  8
ZISSEN1
100
AcDbMText
 10
-1787.648997035629
 20
1912.808376262202
 30
0.0
 40
5.0
 41
111.4782509945952
 71
     1
 72
     5
  1
C-781S{\H0.7x;v1}　　No.SS0001f43
1001
ACAD
1000
MTEXTBEGIN
1070
    73
1070
     1
1070
    44
1040
1.0
1070
    74
1070
     0
1000
MTEXTEND
  0
LINE
  5
12D75
330
1A
100
AcDbEntity
  8
ZISSEN1
100
AcDbLine
 10
-1561.0
 20
1801.0
 30
0.0
 11
-1547.0
 21
1801.0
 31
0.0
  0
LINE
  5
12D76
330
1A
100
AcDbEntity
  8
ZISSEN1
100
AcDbLine
 10
-1548.0
 20
1758.0
 30
0.0
 11
-1562.0
 21
1758.0
 31
0.0
  0
LINE
  5
12D77
330
1A
100
AcDbEntity
  8
ZISSEN1
100
AcDbLine
 10
-1548.0
 20
1791.0
 30
0.0
 11
-1562.0
 21
1791.0
 31
0.0
  0
LINE
  5
12D78
330
1A
100
AcDbEntity
  8
ZISSEN1
100
AcDbLine
 10
-1687.0
 20
1800.0
 30
0.0
 11
-1547.0
 21
1800.0
 31
0.0
  0
LINE
  5
12D79
330
1A
100
AcDbEntity
  8
ZISSEN1
100
AcDbLine
 10
-1687.0
 20
1790.0
 30
0.0
 11
-1687.0
 21
1776.75
 31
0.0
  0
LINE
  5
12D7A
330
1A
100
AcDbEntity
  8
ZISSEN1
100
AcDbLine
 10
-1562.0
 20
1757.0
 30
0.0
 11
-1562.0
 21
1792.0
 31
0.0
  0
LINE
  5
12D7B
330
1A
100
AcDbEntity
  8
ZISSEN1
100
AcDbLine
 10
-1672.0
 20
1757.0
 30
0.0
 11
-1672.0
 21
1792.0
 31
0.0
  0
LINE
  5
12D80
330
1A
100
AcDbEntity
  8
ZISSEN1
100
AcDbLine
 10
-1562.0
 20
1757.0
 30
0.0
 11
-1672.0
 21
1757.0
 31
0.0
  0
LINE
  5
12D81
330
1A
100
AcDbEntity
  8
ZISSEN1
100
AcDbLine
 10
-1687.0
 20
1759.0
 30
0.0
 11
-1687.0
 21
1772.25
 31
0.0
  0
LINE
  5
12D82
330
1A
100
AcDbEntity
  8
ZISSEN1
100
AcDbLine
 10
-1686.0
 20
1758.0
 30
0.0
 11
-1672.0
 21
1758.0
 31
0.0
  0
LINE
  5
12D85
330
1A
100
AcDbEntity
  8
CL1
100
AcDbLine
 10
-1681.0
 20
1771.0
 30
0.0
 11
-1681.0
 21
1778.0
 31
0.0
  0
LINE
  5
12D86
330
1A
100
AcDbEntity
  8
ZISSEN1
100
AcDbLine
 10
-1680.0
 20
1772.25
 30
0.0
 11
-1687.0
 21
1772.25
 31
0.0
  0
LINE
  5
12D87
330
1A
100
AcDbEntity
  8
CL1
100
AcDbLine
 10
-1677.5
 20
1774.5
 30
0.0
 11
-1684.499999999999
 21
1774.5
 31
0.0
  0
LINE
  5
12D88
330
1A
100
AcDbEntity
  8
ZISSEN1
100
AcDbLine
 10
-1680.0
 20
1776.75
 30
0.0
 11
-1687.0
 21
1776.75
 31
0.0
  0
LINE
  5
12DC2
330
1A
100
AcDbEntity
  8
ZISSEN1
100
AcDbLine
 10
-1576.0
 20
1930.0
 30
0.0
 11
-1576.0
 21
1945.0
 31
0.0
  0
LINE
  5
12DC3
330
1A
100
AcDbEntity
  8
ZISSEN1
100
AcDbLine
 10
-1655.64
 20
1930.0
 30
0.0
 11
-1655.64
 21
1945.0
 31
0.0
  0
LINE
  5
12DC4
330
1A
100
AcDbEntity
  8
ZISSEN1
100
AcDbLine
 10
-1672.0
 20
1800.0
 30
0.0
 11
-1672.0
 21
1930.0
 31
0.0
  0
LINE
  5
12DC5
330
1A
100
AcDbEntity
  8
ZISSEN1
100
AcDbLine
 10
-1562.0
 20
1800.0
 30
0.0
 11
-1562.0
 21
1930.0
 31
0.0
  0
LINE
  5
12DC6
330
1A
100
AcDbEntity
  8
ZISSEN1
100
AcDbLine
 10
-1672.0
 20
1808.5
 30
0.0
 11
-1562.0
 21
1808.5
 31
0.0
  0
LINE
  5
12DC8
330
1A
100
AcDbEntity
  8
ZISSEN1
100
AcDbLine
 10
-1672.0
 20
1792.0
 30
0.0
 11
-1562.0
 21
1792.0
 31
0.0
  0
LINE
  5
12DC9
330
1A
100
AcDbEntity
  8
ZISSEN1
100
AcDbLine
 10
-1673.0
 20
1801.0
 30
0.0
 11
-1673.0
 21
1828.0
 31
0.0
  0
LINE
  5
12DCA
330
1A
100
AcDbEntity
  8
ZISSEN1
100
AcDbLine
 10
-1686.0
 20
1791.0
 30
0.0
 11
-1672.0
 21
1791.0
 31
0.0
  0
LINE
  5
12DCE
330
1A
100
AcDbEntity
  8
ZISSEN1
100
AcDbLine
 10
-1687.0
 20
1801.0
 30
0.0
 11
-1673.0
 21
1801.0
 31
0.0
  0
LINE
  5
12DD0
330
1A
100
AcDbEntity
  8
ZISSEN1
100
AcDbLine
 10
-1687.0
 20
1801.0
 30
0.0
 11
-1687.0
 21
1800.0
 31
0.0
  0
LINE
  5
12DD1
330
1A
100
AcDbEntity
  8
CL1
100
AcDbLine
 10
-1681.0
 20
1797.0
 30
0.0
 11
-1681.0
 21
1804.0
 31
0.0
  0
LINE
  5
12DD6
330
1A
100
AcDbEntity
  8
ZISSEN1
100
AcDbLine
 10
-1673.0
 20
1828.0
 30
0.0
 11
-1672.0
 21
1828.0
 31
0.0
  0
LINE
  5
12DDD
330
1A
100
AcDbEntity
  8
ZISSEN1
100
AcDbLine
 10
-1561.0
 20
1801.0
 30
0.0
 11
-1561.0
 21
1828.0
 31
0.0
  0
LINE
  5
12DDF
330
1A
100
AcDbEntity
  8
ZISSEN1
100
AcDbLine
 10
-1562.0
 20
1828.0
 30
0.0
 11
-1561.0
 21
1828.0
 31
0.0
  0
LINE
  5
12DE3
330
1A
100
AcDbEntity
  8
ZISSEN1
100
AcDbLine
 10
-1562.0
 20
1930.0
 30
0.0
 11
-1672.0
 21
1930.0
 31
0.0
  0
LINE
  5
12DFB
330
1A
100
AcDbEntity
  8
ZISSEN1
100
AcDbLine
 10
-1576.0
 20
1945.0
 30
0.0
 11
-1655.64
 21
1945.0
 31
0.0
  0
LINE
  5
12DFC
330
1A
100
AcDbEntity
  8
ZISSEN1
100
AcDbLine
 10
-1547.0
 20
1790.0
 30
0.0
 11
-1547.0
 21
1776.75
 31
0.0
  0
LINE
  5
12DFD
330
1A
100
AcDbEntity
  8
ZISSEN1
100
AcDbLine
 10
-1547.0
 20
1759.0
 30
0.0
 11
-1547.0
 21
1772.25
 31
0.0
  0
LINE
  5
12DFE
330
1A
100
AcDbEntity
  8
ZISSEN1
100
AcDbLine
 10
-1547.0
 20
1759.0
 30
0.0
 11
-1548.0
 21
1758.0
 31
0.0
  0
ARC
  5
12DFF
330
1A
100
AcDbEntity
  8
ZISSEN1
100
AcDbCircle
 10
-1554.103122706827
 20
1774.5
 30
0.0
 40
2.252361936426163
100
AcDbArc
 50
87.37583824496098
 51
272.6241617550379
  0
LINE
  5
12E00
330
1A
100
AcDbEntity
  8
CL1
100
AcDbLine
 10
-1553.0
 20
1771.0
 30
0.0
 11
-1553.0
 21
1778.0
 31
0.0
  0
LINE
  5
12E01
330
1A
100
AcDbEntity
  8
ZISSEN1
100
AcDbLine
 10
-1554.0
 20
1772.25
 30
0.0
 11
-1547.0
 21
1772.25
 31
0.0
  0
LINE
  5
12E02
330
1A
100
AcDbEntity
  8
CL1
100
AcDbLine
 10
-1549.5
 20
1774.5
 30
0.0
 11
-1556.499999999999
 21
1774.5
 31
0.0
  0
LINE
  5
12E03
330
1A
100
AcDbEntity
  8
ZISSEN1
100
AcDbLine
 10
-1554.0
 20
1776.75
 30
0.0
 11
-1547.0
 21
1776.75
 31
0.0
  0
LINE
  5
12E04
330
1A
100
AcDbEntity
  8
ZISSEN1
100
AcDbLine
 10
-1498.75
 20
1930.0
 30
0.0
 11
-1498.75
 21
1945.0
 31
0.0
  0
LINE
  5
12E05
330
1A
100
AcDbEntity
  8
ZISSEN1
100
AcDbLine
 10
-1507.0
 20
1930.0
 30
0.0
 11
-1507.0
 21
1945.0
 31
0.0
  0
LINE
  5
12E07
330
1A
100
AcDbEntity
  8
ZISSEN1
100
AcDbLine
 10
-1525.0
 20
1800.0
 30
0.0
 11
-1525.0
 21
1930.0
 31
0.0
  0
LINE
  5
12E08
330
1A
100
AcDbEntity
  8
ZISSEN1
100
AcDbLine
 10
-1490.0
 20
1800.0
 30
0.0
 11
-1490.0
 21
1930.0
 31
0.0
  0
LINE
  5
12E09
330
1A
100
AcDbEntity
  8
ZISSEN1
100
AcDbLine
 10
-1524.0
 20
1801.0
 30
0.0
 11
-1491.0
 21
1801.0
 31
0.0
  0
LINE
  5
12E0A
330
1A
100
AcDbEntity
  8
ZISSEN1
100
AcDbLine
 10
-1524.0
 20
1828.0
 30
0.0
 11
-1491.0
 21
1828.0
 31
0.0
  0
LINE
  5
12E0B
330
1A
100
AcDbEntity
  8
ZISSEN1
100
AcDbLine
 10
-1525.0
 20
1800.0
 30
0.0
 11
-1490.0
 21
1800.0
 31
0.0
  0
LINE
  5
12E0C
330
1A
100
AcDbEntity
  8
ZISSEN1
100
AcDbLine
 10
-1524.0
 20
1828.0
 30
0.0
 11
-1524.0
 21
1800.0
 31
0.0
  0
LINE
  5
12E0E
330
1A
100
AcDbEntity
  8
CL1
100
AcDbLine
 10
-1553.0
 20
1797.0
 30
0.0
 11
-1553.0
 21
1804.0
 31
0.0
  0
LINE
  5
12E10
330
1A
100
AcDbEntity
  8
ZISSEN1
100
AcDbLine
 10
-1547.0
 20
1801.0
 30
0.0
 11
-1547.0
 21
1800.0
 31
0.0
  0
LINE
  5
12E17
330
1A
100
AcDbEntity
  8
ZISSEN1
100
AcDbLine
 10
-1525.0
 20
1808.5
 30
0.0
 11
-1524.0
 21
1808.5
 31
0.0
  0
LINE
  5
12E19
330
1A
100
AcDbEntity
  8
CL1
100
AcDbLine
 10
-1507.5
 20
1803.0
 30
0.0
 11
-1507.5
 21
1796.0
 31
0.0
  0
LINE
  5
12E1A
330
1A
100
AcDbEntity
  8
ZISSEN1
100
AcDbLine
 10
-1509.75
 20
1801.0
 30
0.0
 11
-1509.75
 21
1800.0
 31
0.0
  0
LINE
  5
12E1B
330
1A
100
AcDbEntity
  8
ZISSEN1
100
AcDbLine
 10
-1505.25
 20
1801.0
 30
0.0
 11
-1505.25
 21
1800.0
 31
0.0
  0
LINE
  5
12E22
330
1A
100
AcDbEntity
  8
ZISSEN1
100
AcDbLine
 10
-1491.0
 20
1828.0
 30
0.0
 11
-1491.0
 21
1800.0
 31
0.0
  0
LINE
  5
12E24
330
1A
100
AcDbEntity
  8
ZISSEN1
100
AcDbLine
 10
-1507.0
 20
1945.0
 30
0.0
 11
-1498.75
 21
1945.0
 31
0.0
  0
LINE
  5
12E28
330
1A
100
AcDbEntity
  8
ZISSEN1
100
AcDbLine
 10
-1490.0
 20
1930.0
 30
0.0
 11
-1525.0
 21
1930.0
 31
0.0
  0
DIMENSION
  5
12E2D
330
1A
100
AcDbEntity
  8
SUNPOU
100
AcDbDimension
  2
*D24
 10
-1562.0
 20
1749.776221353369
 30
0.0
 11
-1617.0
 21
1752.526221353369
 31
0.0
 70
    32
  3
標準スタイル
100
AcDbAlignedDimension
 13
-1672.0
 23
1757.0
 33
0.0
 14
-1562.0
 24
1757.0
 34
0.0
100
AcDbRotatedDimension
1001
ACAD
1000
DSTYLE
1002
{
1070
   340
1005
10
1070
    40
1040
1.0
1002
}
  0
DIMENSION
  5
12E7D
330
1A
100
AcDbEntity
  8
SUNPOU
100
AcDbDimension
  2
*D25
 10
-1516.621232540172
 20
1756.999999999999
 30
0.0
 11
-1519.371232540172
 21
1774.499999999999
 31
0.0
 70
    32
  3
標準スタイル
100
AcDbAlignedDimension
 13
-1562.0
 23
1792.0
 33
0.0
 14
-1562.0
 24
1757.0
 34
0.0
 50
90.0
100
AcDbRotatedDimension
1001
ACAD
1000
DSTYLE
1002
{
1070
   340
1005
10
1070
    40
1040
1.0
1002
}
  0
DIMENSION
  5
12E8A
330
1A
100
AcDbEntity
  8
SUNPOU
100
AcDbDimension
  2
*D26
 10
-1465.817654598331
 20
1930.0
 30
0.0
 11
-1468.567654598332
 21
1937.499999999999
 31
0.0
 70
    32
  3
標準スタイル
100
AcDbAlignedDimension
 13
-1498.75
 23
1945.0
 33
0.0
 14
-1490.0
 24
1930.0
 34
0.0
 50
90.0
100
AcDbRotatedDimension
1001
ACAD
1000
DSTYLE
1002
{
1070
   340
1005
10
1070
    40
1040
1.0
1002
}
  0
DIMENSION
  5
12E97
330
1A
100
AcDbEntity
  8
SUNPOU
100
AcDbDimension
  2
*D27
 10
-1465.817654598331
 20
1800.0
 30
0.0
 11
-1468.567654598332
 21
1865.0
 31
0.0
 70
    32
  3
標準スタイル
100
AcDbAlignedDimension
 13
-1490.0
 23
1930.0
 33
0.0
 14
-1490.0
 24
1800.0
 34
0.0
 50
90.0
100
AcDbRotatedDimension
1001
ACAD
1000
DSTYLE
1002
{
1070
   340
1005
10
1070
    40
1040
1.0
1002
}
  0
DIMENSION
  5
12EEC
330
1A
100
AcDbEntity
  8
SUNPOU
100
AcDbDimension
  2
*D28
 10
-1553.0
 20
1742.95850233393
 30
0.0
 11
-1617.0
 21
1745.70850233393
 31
0.0
 70
    32
  3
標準スタイル
100
AcDbAlignedDimension
 13
-1681.0
 23
1771.0
 33
0.0
 14
-1553.0
 24
1771.0
 34
0.0
100
AcDbRotatedDimension
1001
ACAD
1000
DSTYLE
1002
{
1070
   340
1005
10
1070
    40
1040
1.0
1002
}
  0
ARC
  5
12FAC
330
1A
100
AcDbEntity
  8
ZISSEN1
100
AcDbCircle
 10
-1680.0
 20
1774.5
 30
0.0
 40
2.25
100
AcDbArc
 50
270.0
 51
90.0
  0
DIMENSION
  5
1302C
330
1A
100
AcDbEntity
  8
SUNPOU
100
AcDbDimension
  2
*D29
 10
-1526.354979153775
 20
1758.0
 30
0.0
 11
-1526.354979153775
 21
1774.811015262001
 31
0.0
 70
   160
  3
標準スタイル
100
AcDbAlignedDimension
 13
-1547.0
 23
1791.0
 33
0.0
 14
-1548.0
 24
1758.0
 34
0.0
 50
90.0
100
AcDbRotatedDimension
1001
ACAD
1000
DSTYLE
1002
{
1070
   340
1005
10
1070
    40
1040
1.0
1002
}
  0
LINE
  5
13067
330
1A
100
AcDbEntity
  8
ZISSEN1
100
AcDbLine
 10
-1548.0
 20
1791.0
 30
0.0
 11
-1547.0
 21
1790.0
 31
0.0
  0
LINE
  5
13068
330
1A
100
AcDbEntity
  8
ZISSEN1
100
AcDbLine
 10
-1687.0
 20
1759.0
 30
0.0
 11
-1686.0
 21
1758.0
 31
0.0
  0
LINE
  5
13069
330
1A
100
AcDbEntity
  8
ZISSEN1
100
AcDbLine
 10
-1687.0
 20
1790.0
 30
0.0
 11
-1686.0
 21
1791.0
 31
0.0
  0
LINE
  5
130CE
330
1A
100
AcDbEntity
  8
ZISSEN1
100
AcDbLine
 10
-1548.0
 20
1801.0
 30
0.0
 11
-1548.0
 21
1800.0
 31
0.0
  0
LINE
  5
130CF
330
1A
100
AcDbEntity
  8
ZISSEN1
100
AcDbLine
 10
-1686.0
 20
1801.0
 30
0.0
 11
-1686.0
 21
1800.0
 31
0.0
  0
LINE
  5
130D0
330
1A
100
AcDbEntity
  8
ZISSEN1
100
AcDbLine
 10
-1687.0
 20
1800.0
 30
0.0
 11
-1687.0
 21
1800.0
 31
0.0
  0
LINE
  5
130E0
330
1A
100
AcDbEntity
  8
ZISSEN1
100
AcDbLine
 10
-1676.0
 20
1816.0
 30
0.0
 11
-1676.0
 21
1814.0
 31
0.0
  0
LINE
  5
130E3
330
1A
100
AcDbEntity
  8
ZISSEN1
100
AcDbLine
 10
-1673.0
 20
1818.0
 30
0.0
 11
-1673.0
 21
1812.0
 31
0.0
  0
LINE
  5
130E5
330
1A
100
AcDbEntity
  8
ZISSEN1
100
AcDbLine
 10
-1673.0
 20
1818.0
 30
0.0
 11
-1674.0
 21
1818.0
 31
0.0
  0
LINE
  5
130E6
330
1A
100
AcDbEntity
  8
ZISSEN1
100
AcDbLine
 10
-1673.0
 20
1812.0
 30
0.0
 11
-1674.0
 21
1812.0
 31
0.0
  0
ARC
  5
130E9
330
1A
100
AcDbEntity
  8
ZISSEN1
100
AcDbCircle
 10
-1674.0
 20
1816.0
 30
0.0
 40
2.0
100
AcDbArc
 50
90.0
 51
180.0
  0
ARC
  5
130EA
330
1A
100
AcDbEntity
  8
ZISSEN1
100
AcDbCircle
 10
-1674.0
 20
1814.0
 30
0.0
 40
2.0
100
AcDbArc
 50
180.0
 51
270.0
  0
LINE
  5
130ED
330
1A
100
AcDbEntity
  8
ZISSEN1
100
AcDbLine
 10
-1561.0
 20
1818.0
 30
0.0
 11
-1560.0
 21
1818.0
 31
0.0
  0
LINE
  5
130EE
330
1A
100
AcDbEntity
  8
ZISSEN1
100
AcDbLine
 10
-1558.0
 20
1816.0
 30
0.0
 11
-1558.0
 21
1814.0
 31
0.0
  0
LINE
  5
130EF
330
1A
100
AcDbEntity
  8
ZISSEN1
100
AcDbLine
 10
-1561.0
 20
1812.0
 30
0.0
 11
-1560.0
 21
1812.0
 31
0.0
  0
ARC
  5
130F1
330
1A
100
AcDbEntity
  8
ZISSEN1
100
AcDbCircle
 10
-1560.0
 20
1816.0
 30
0.0
 40
2.0
100
AcDbArc
 50
0.0
 51
90.0
  0
ARC
  5
130F2
330
1A
100
AcDbEntity
  8
ZISSEN1
100
AcDbCircle
 10
-1560.0
 20
1814.0
 30
0.0
 40
2.0
100
AcDbArc
 50
270.0
 51
0.0
  0
CIRCLE
  5
130F4
330
1A
100
AcDbEntity
  8
ZISSEN1
100
AcDbCircle
 10
-1499.5
 20
1815.0
 30
0.0
 40
3.0
  0
CIRCLE
  5
130FB
330
1A
100
AcDbEntity
  8
ZISSEN1
100
AcDbCircle
 10
-1515.0
 20
1815.0
 30
0.0
 40
3.0
  0
MTEXT
  5
13125
330
1A
100
AcDbEntity
  8
SUNPOU
100
AcDbMText
 10
-1541.943694972558
 20
1710.602597314311
 30
0.0
 40
3.5
 41
34.70689999999999
 71
     1
 72
     5
  1
2-φ4.5
1001
ACAD
1000
MTEXTBEGIN
1070
    73
1070
     1
1070
    44
1040
1.0
1070
    74
1070
     0
1000
MTEXTEND
  0
LINE
  5
13126
330
1A
100
AcDbEntity
  8
SUNPOU
100
AcDbLine
 10
-1542.506621865086
 20
1705.568817827597
 30
0.0
 11
-1531.056832105889
 21
1705.568817827597
 31
0.0
  0
CIRCLE
  5
1312E
330
1A
100
AcDbEntity
  8
ZISSEN1
100
AcDbCircle
 10
-1553.0
 20
1698.0
 30
0.0
 40
2.25
  0
LEADER
  5
13137
330
1A
100
AcDbEntity
  8
SUNPOU
100
AcDbLeader
  3
標準スタイル
 76
     2
 10
-1550.900687791338
 20
1699.524114706838
 30
0.0
 10
-1542.506621865086
 20
1705.568817827597
 30
0.0
1001
ACAD
1000
DSTYLE
1002
{
1070
     5
1000

1070
    77
1070
     0
1070
   147
1040
1.0
1002
}
  0
LINE
  5
131B3
330
1A
100
AcDbEntity
  8
ZISSEN1
100
AcDbLine
 10
-1672.5
 20
1716.0
 30
0.0
 11
-1561.5
 21
1716.0
 31
0.0
  0
LINE
  5
131B4
330
1A
100
AcDbEntity
  8
ZISSEN1
100
AcDbLine
 10
-1672.5
 20
1680.0
 30
0.0
 11
-1672.5
 21
1716.0
 31
0.0
  0
LINE
  5
131B5
330
1A
100
AcDbEntity
  8
ZISSEN1
100
AcDbLine
 10
-1561.5
 20
1680.0
 30
0.0
 11
-1672.5
 21
1680.0
 31
0.0
  0
LINE
  5
131B6
330
1A
100
AcDbEntity
  8
ZISSEN1
100
AcDbLine
 10
-1561.5
 20
1680.0
 30
0.0
 11
-1561.5
 21
1716.0
 31
0.0
  0
DIMENSION
  5
131B7
330
1A
100
AcDbEntity
  8
SUNPOU
100
AcDbDimension
  2
*D30
 10
-1553.0
 20
1667.047648971495
 30
0.0
 11
-1617.0
 21
1669.797648971495
 31
0.0
 70
    32
  3
標準スタイル
100
AcDbAlignedDimension
 13
-1681.0
 23
1694.5
 33
0.0
 14
-1553.0
 24
1694.0
 34
0.0
100
AcDbRotatedDimension
1001
ACAD
1000
DSTYLE
1002
{
1070
   340
1005
10
1070
    40
1040
1.0
1002
}
  0
DIMENSION
  5
131B8
330
1A
100
AcDbEntity
  8
SUNPOU
100
AcDbDimension
  2
*D31
 10
-1561.5
 20
1673.865367990934
 30
0.0
 11
-1617.0
 21
1676.615367990934
 31
0.0
 70
    32
  3
標準スタイル
100
AcDbAlignedDimension
 13
-1672.5
 23
1680.0
 33
0.0
 14
-1561.5
 24
1680.0
 34
0.0
100
AcDbRotatedDimension
1001
ACAD
1000
DSTYLE
1002
{
1070
   340
1005
10
1070
    40
1040
1.0
1002
}
  0
LINE
  5
131B9
330
1A
100
AcDbEntity
  8
CL1
100
AcDbLine
 10
-1553.0
 20
1694.0
 30
0.0
 11
-1553.0
 21
1702.0
 31
0.0
  0
LINE
  5
131BA
330
1A
100
AcDbEntity
  8
CL1
100
AcDbLine
 10
-1549.0
 20
1698.0
 30
0.0
 11
-1557.0
 21
1698.0
 31
0.0
  0
LINE
  5
131BC
330
1A
100
AcDbEntity
  8
CL1
100
AcDbLine
 10
-1681.0
 20
1694.5
 30
0.0
 11
-1681.0
 21
1702.499999999999
 31
0.0
  0
LINE
  5
13212
330
1A
100
AcDbEntity
  8
CL1
100
AcDbLine
 10
-1685.0
 20
1698.0
 30
0.0
 11
-1549.0
 21
1698.0
 31
0.0
  0
DIMENSION
  5
1322C
330
1A
100
AcDbEntity
  8
SUNPOU
100
AcDbDimension
  2
*D32
 10
-1515.517568922938
 20
1679.999999999999
 30
0.0
 11
-1518.267568922938
 21
1697.999999999999
 31
0.0
 70
    32
  3
標準スタイル
100
AcDbAlignedDimension
 13
-1561.5
 23
1716.0
 33
0.0
 14
-1561.5
 24
1680.0
 34
0.0
 50
90.0
100
AcDbRotatedDimension
1001
ACAD
1000
DSTYLE
1002
{
1070
   340
1005
10
1070
    40
1040
1.0
1002
}
  0
LINE
  5
1324C
330
1A
100
AcDbEntity
  8
ZISSEN1
100
AcDbLine
 10
-1487.0
 20
1717.498414639695
 30
0.0
 11
-1487.0
 21
1677.62564964905
 31
0.0
  0
LINE
  5
1324D
330
1A
100
AcDbEntity
  8
ZISSEN1
100
AcDbLine
 10
-1482.0
 20
1718.465696373939
 30
0.0
 11
-1482.0
 21
1678.595867255856
 31
0.0
  0
LINE
  5
1324F
330
1A
100
AcDbEntity
  8
ZISSEN1
100
AcDbLine
 10
-1481.0
 20
1701.0
 30
0.0
 11
-1481.0
 21
1695.0
 31
0.0
  0
LINE
  5
13250
330
1A
100
AcDbEntity
  8
ZISSEN1
100
AcDbLine
 10
-1480.0
 20
1694.0
 30
0.0
 11
-1479.499999999999
 21
1694.0
 31
0.0
  0
LINE
  5
13251
330
1A
100
AcDbEntity
  8
ZISSEN1
100
AcDbLine
 10
-1482.0
 20
1701.0
 30
0.0
 11
-1481.0
 21
1701.0
 31
0.0
  0
LINE
  5
13253
330
1A
100
AcDbEntity
  8
ZISSEN1
100
AcDbLine
 10
-1477.5
 20
1700.0
 30
0.0
 11
-1477.5
 21
1696.0
 31
0.0
  0
LINE
  5
13255
330
1A
100
AcDbEntity
  8
ZISSEN1
100
AcDbLine
 10
-1487.0
 20
1716.0
 30
0.0
 11
-1500.0
 21
1716.0
 31
0.0
  0
LINE
  5
13256
330
1A
100
AcDbEntity
  8
ZISSEN1
100
AcDbLine
 10
-1487.0
 20
1680.0
 30
0.0
 11
-1500.0
 21
1680.0
 31
0.0
  0
LINE
  5
1325B
330
1A
100
AcDbEntity
  8
ZISSEN1
100
AcDbLine
 10
-1495.0
 20
1700.0
 30
0.0
 11
-1491.5
 21
1700.0
 31
0.0
  0
LINE
  5
1325C
330
1A
100
AcDbEntity
  8
ZISSEN1
100
AcDbLine
 10
-1495.0
 20
1700.0
 30
0.0
 11
-1495.0
 21
1696.0
 31
0.0
  0
LINE
  5
1325D
330
1A
100
AcDbEntity
  8
ZISSEN1
100
AcDbLine
 10
-1495.0
 20
1696.0
 30
0.0
 11
-1491.5
 21
1696.0
 31
0.0
  0
LINE
  5
1325E
330
1A
100
AcDbEntity
  8
ZISSEN1
100
AcDbLine
 10
-1489.0
 20
1680.0
 30
0.0
 11
-1489.0
 21
1716.0
 31
0.0
  0
LINE
  5
1325F
330
1A
100
AcDbEntity
  8
ZISSEN1
100
AcDbLine
 10
-1489.0
 20
1700.0
 30
0.0
 11
-1487.0
 21
1700.0
 31
0.0
  0
LINE
  5
13260
330
1A
100
AcDbEntity
  8
ZISSEN1
100
AcDbLine
 10
-1489.0
 20
1696.0
 30
0.0
 11
-1487.0
 21
1696.0
 31
0.0
  0
LINE
  5
13261
330
1A
100
AcDbEntity
  8
CL1
100
AcDbLine
 10
-1495.0
 20
1698.0
 30
0.0
 11
-1475.0
 21
1698.0
 31
0.0
  0
SPLINE
  5
13399
330
1A
100
AcDbEntity
  8
ZISSEN1
100
AcDbSpline
210
0.0
220
0.0
230
1.0
 70
     8
 71
     3
 72
    48
 73
    44
 74
    42
 42
0.0000000001
 43
0.0000000001
 44
0.0000000001
 40
0.0
 40
0.0
 40
0.0
 40
0.0
 40
1.414213562373095
 40
2.82842712474619
 40
4.242640687119285
 40
5.656854213458613
 40
7.071068087242228
 40
8.485281649615323
 40
9.899495211988419
 40
11.31370934375752
 40
12.72792290613061
 40
14.14213646850371
 40
15.55634999623604
 40
16.97056355860914
 40
18.38477712098224
 40
19.79899064732156
 40
21.21320452110518
 40
22.62741808347827
 40
24.04163164585137
 40
25.45584577762047
 40
26.87005933999357
 40
28.28427290236666
 40
29.69848646473976
 40
31.11269999107909
 40
32.5269138648627
 40
33.9411274272358
 40
35.35534098960889
 40
36.76955512137799
 40
38.18376868375108
 40
39.59798224612417
 40
41.01219580849726
 40
42.42640933483659
 40
43.8406232086202
 40
45.25483677099329
 40
46.66905033336639
 40
48.08326389573949
 40
49.49747716409348
 40
50.91169072646657
 40
52.32590428883966
 40
53.74011781517898
 40
55.1543316889626
 40
56.56854525133569
 40
57.98275881370878
 40
57.98275881370878
 40
57.98275881370878
 40
57.98275881370878
 10
-1500.488448256807
 20
1719.322135438693
 30
0.0
 10
-1499.9110979879
 20
1718.98880210535
 30
0.0
 10
-1498.756397450086
 20
1718.322135438666
 30
0.0
 10
-1501.416651483689
 20
1717.3221354388
 30
0.0
 10
-1498.507686180706
 20
1716.322135446786
 30
0.0
 10
-1501.483293576029
 20
1715.322135383772
 30
0.0
 10
-1498.489829092472
 20
1714.322135311801
 30
0.0
 10
-1501.488077874473
 20
1713.322135264765
 30
0.0
 10
-1498.488546853764
 20
1712.322135032161
 30
0.0
 10
-1501.488422374787
 20
1711.322135265176
 30
0.0
 10
-1498.488455779659
 20
1710.322135007887
 30
0.0
 10
-1501.488446614622
 20
1709.322135141157
 30
0.0
 10
-1498.488449467276
 20
1708.322134771981
 30
0.0
 10
-1501.488448700683
 20
1707.322134881378
 30
0.0
 10
-1498.488448939881
 20
1706.322134862284
 30
0.0
 10
-1501.488448945388
 20
1705.322134806492
 30
0.0
 10
-1498.488448480327
 20
1704.322134732713
 30
0.0
 10
-1501.488448573461
 20
1703.322134685689
 30
0.0
 10
-1498.488448288843
 20
1702.32213445485
 30
0.0
 10
-1501.488449554381
 20
1701.322134680788
 30
0.0
 10
-1498.488449245256
 20
1700.322134450045
 30
0.0
 10
-1501.488449216216
 20
1699.322134476036
 30
0.0
 10
-1498.488449264355
 20
1698.322134477103
 30
0.0
 10
-1501.48844932104
 20
1697.322134415909
 30
0.0
 10
-1498.488448842325
 20
1696.322134343577
 30
0.0
 10
-1501.488448938895
 20
1695.322134296164
 30
0.0
 10
-1498.488448654186
 20
1694.322134065432
 30
0.0
 10
-1501.488449916653
 20
1693.322134291336
 30
0.0
 10
-1498.488449619903
 20
1692.32213406062
 30
0.0
 10
-1501.488449544438
 20
1691.322134086543
 30
0.0
 10
-1498.488449765899
 20
1690.322134087851
 30
0.0
 10
-1501.48844917572
 20
1689.322134025764
 30
0.0
 10
-1498.488451111139
 20
1688.322133956764
 30
0.0
 10
-1501.488442198041
 20
1687.322133896913
 30
0.0
 10
-1498.488475940491
 20
1686.322133846809
 30
0.0
 10
-1501.488349896094
 20
1685.322134102977
 30
0.0
 10
-1498.488820331174
 20
1684.322133474912
 30
0.0
 10
-1501.487068713925
 20
1683.322133731071
 30
0.0
 10
-1498.493604773485
 20
1682.322133689496
 30
0.0
 10
-1501.469212163501
 20
1681.322133638004
 30
0.0
 10
-1498.560246354133
 20
1680.322133569507
 30
0.0
 10
-1501.220500498708
 20
1679.322133497052
 30
0.0
 10
-1500.065799972133
 20
1678.655466830259
 30
0.0
 10
-1499.488449708846
 20
1678.322133496862
 30
0.0
 11
-1500.488448256807
 21
1719.322135438693
 31
0.0
 11
-1499.488448256807
 21
1718.322135438693
 31
0.0
 11
-1500.488448256807
 21
1717.322135438693
 31
0.0
 11
-1499.488448256807
 21
1716.322135438693
 31
0.0
 11
-1500.488448231327
 21
1715.322135464172
 31
0.0
 11
-1499.488448011127
 21
1714.322135243972
 31
0.0
 11
-1500.488448011127
 21
1713.322135243972
 31
0.0
 11
-1499.488448011127
 21
1712.322135243972
 31
0.0
 11
-1500.488448621654
 21
1711.322135049251
 31
0.0
 11
-1499.488448621653
 21
1710.322135049251
 31
0.0
 11
-1500.488448621654
 21
1709.322135049251
 31
0.0
 11
-1499.488448859986
 21
1708.322134859908
 31
0.0
 11
-1500.488448859986
 21
1707.322134859908
 31
0.0
 11
-1499.488448859986
 21
1706.322134859908
 31
0.0
 11
-1500.488448834507
 21
1705.322134885388
 31
0.0
 11
-1499.488448614306
 21
1704.322134665187
 31
0.0
 11
-1500.488448614306
 21
1703.322134665187
 31
0.0
 11
-1499.488448614306
 21
1702.322134665187
 31
0.0
 11
-1500.488449224833
 21
1701.322134470466
 31
0.0
 11
-1499.488449224833
 21
1700.322134470467
 31
0.0
 11
-1500.488449224833
 21
1699.322134470467
 31
0.0
 11
-1499.488449224833
 21
1698.322134470466
 31
0.0
 11
-1500.488449199353
 21
1697.322134495946
 31
0.0
 11
-1499.488448979153
 21
1696.322134275746
 31
0.0
 11
-1500.488448979153
 21
1695.322134275746
 31
0.0
 11
-1499.488448979153
 21
1694.322134275746
 31
0.0
 11
-1500.488449589679
 21
1693.322134081025
 31
0.0
 11
-1499.488449589679
 21
1692.322134081025
 31
0.0
 11
-1500.488449589679
 21
1691.322134081025
 31
0.0
 11
-1499.488449589679
 21
1690.322134081025
 31
0.0
 11
-1500.4884495642
 21
1689.322134106505
 31
0.0
 11
-1499.488449343999
 21
1688.322133886304
 31
0.0
 11
-1500.488449343999
 21
1687.322133886304
 31
0.0
 11
-1499.488449343999
 21
1686.322133886304
 31
0.0
 11
-1500.488449343999
 21
1685.322133886304
 31
0.0
 11
-1499.488449954526
 21
1684.322133691583
 31
0.0
 11
-1500.488449954526
 21
1683.322133691583
 31
0.0
 11
-1499.488449954526
 21
1682.322133691584
 31
0.0
 11
-1500.488449929046
 21
1681.322133717063
 31
0.0
 11
-1499.488449708846
 21
1680.322133496862
 31
0.0
 11
-1500.488449708845
 21
1679.322133496863
 31
0.0
 11
-1499.488449708846
 21
1678.322133496862
 31
0.0
  0
LINE
  5
133A3
330
1A
100
AcDbEntity
  8
ZISSEN1
100
AcDbLine
 10
-1480.0
 20
1702.0
 30
0.0
 11
-1479.499999999999
 21
1702.0
 31
0.0
  0
LINE
  5
133AA
330
1A
100
AcDbEntity
  8
ZISSEN1
100
AcDbLine
 10
-1482.0
 20
1695.0
 30
0.0
 11
-1481.0
 21
1695.0
 31
0.0
  0
LINE
  5
133AC
330
1A
100
AcDbEntity
  8
ZISSEN1
100
AcDbLine
 10
-1491.5
 20
1701.0
 30
0.0
 11
-1489.0
 21
1701.0
 31
0.0
  0
LINE
  5
133AD
330
1A
100
AcDbEntity
  8
ZISSEN1
100
AcDbLine
 10
-1489.0
 20
1701.5
 30
0.0
 11
-1489.0
 21
1695.5
 31
0.0
  0
LINE
  5
133AE
330
1A
100
AcDbEntity
  8
ZISSEN1
100
AcDbLine
 10
-1489.0
 20
1695.0
 30
0.0
 11
-1491.5
 21
1695.0
 31
0.0
  0
LINE
  5
133AF
330
1A
100
AcDbEntity
  8
ZISSEN1
100
AcDbLine
 10
-1491.5
 20
1701.0
 30
0.0
 11
-1491.5
 21
1695.0
 31
0.0
  0
SPLINE
  5
133CD
330
1A
100
AcDbEntity
  8
ZISSEN1
100
AcDbSpline
210
0.0
220
0.0
230
1.0
 70
     8
 71
     3
 72
    17
 73
    13
 74
     0
 42
0.0000000001
 43
0.0000000001
 40
4.253301618583542
 40
4.253301618583542
 40
4.253301618583542
 40
4.253301618583542
 40
5.656854213458613
 40
7.071068087242228
 40
8.485281649615323
 40
9.899495211988419
 40
11.31370934375752
 40
12.72792290613061
 40
14.14213646850371
 40
15.55634999623604
 40
16.97056355860914
 40
18.27754775366877
 40
18.27754775366877
 40
18.27754775366877
 40
18.27754775366877
 10
-1490.064623721177
 20
1678.610320714293
 30
0.0
 10
-1489.733803202216
 20
1678.584733557164
 30
0.0
 10
-1489.069649277521
 20
1676.623414933551
 30
0.0
 10
-1488.072162011212
 20
1679.609357423147
 30
0.0
 10
-1487.072161964177
 20
1676.611108641145
 30
0.0
 10
-1486.072161731572
 20
1679.610639661854
 30
0.0
 10
-1485.072161964588
 20
1676.610764140832
 30
0.0
 10
-1484.072161707297
 20
1679.610730735959
 30
0.0
 10
-1483.072161840568
 20
1676.610739900996
 30
0.0
 10
-1482.072161471392
 20
1679.610737048342
 30
0.0
 10
-1481.097435782487
 20
1676.686560408949
 30
0.0
 10
-1480.456043305515
 20
1678.464841525411
 30
0.0
 10
-1480.147984172883
 20
1678.594362273289
 30
0.0
  0
SPLINE
  5
133DA
330
1A
100
AcDbEntity
  8
ZISSEN1
100
AcDbSpline
210
0.0
220
0.0
230
1.0
 70
     8
 71
     3
 72
    16
 73
    12
 74
     0
 42
0.0000000001
 43
0.0000000001
 40
6.727524985022158
 40
6.727524985022158
 40
6.727524985022158
 40
6.727524985022158
 40
7.071068087242228
 40
8.485281649615323
 40
9.899495211988419
 40
11.31370934375752
 40
12.72792290613061
 40
14.14213646850371
 40
15.55634999623604
 40
16.97056355860914
 40
18.27754775366877
 40
18.27754775366877
 40
18.27754775366877
 40
18.27754775366877
 10
-1488.318654267369
 20
1718.334403978829
 30
0.0
 10
-1488.237680381858
 20
1718.423492726511
 30
0.0
 10
-1487.823373165104
 20
1718.72401703934
 30
0.0
 10
-1487.075732632412
 20
1716.482404828257
 30
0.0
 10
-1486.075732399807
 20
1719.481935848966
 30
0.0
 10
-1485.075732632824
 20
1716.482060327943
 30
0.0
 10
-1484.075732375533
 20
1719.48202692307
 30
0.0
 10
-1483.075732508804
 20
1716.482036088107
 30
0.0
 10
-1482.075732139627
 20
1719.482033235453
 30
0.0
 10
-1481.101006450723
 20
1716.55785659606
 30
0.0
 10
-1480.459613973751
 20
1718.336137712523
 30
0.0
 10
-1480.151554841118
 20
1718.4656584604
 30
0.0
  0
CIRCLE
  5
133E3
330
1A
100
AcDbEntity
  8
ZISSEN1
100
AcDbCircle
 10
-1681.0
 20
1698.0
 30
0.0
 40
2.25
  0
DIMENSION
  5
137CF
330
1A
100
AcDbEntity
  8
SUNPOU
100
AcDbDimension
  2
*D42
 10
-1553.00000130986
 20
1592.047648356536
 30
0.0
 11
-1617.00000130986
 21
1594.797648356536
 31
0.0
 70
    32
  3
標準スタイル
100
AcDbAlignedDimension
 13
-1681.00000130986
 23
1619.49999938504
 33
0.0
 14
-1553.00000130986
 24
1619.49999938504
 34
0.0
100
AcDbRotatedDimension
1001
ACAD
1000
DSTYLE
1002
{
1070
   340
1005
10
1070
    40
1040
1.0
1002
}
  0
SPLINE
  5
137D2
330
1A
100
AcDbEntity
  8
ZISSEN1
100
AcDbSpline
210
0.0
220
0.0
230
1.0
 70
     8
 71
     3
 72
    48
 73
    44
 74
    42
 42
0.0000000001
 43
0.0000000001
 44
0.0000000001
 40
0.0
 40
0.0
 40
0.0
 40
0.0
 40
1.414213562373095
 40
2.82842712474619
 40
4.242640687119285
 40
5.656854213458613
 40
7.071068087242228
 40
8.485281649615323
 40
9.899495211988419
 40
11.31370934375752
 40
12.72792290613061
 40
14.14213646850371
 40
15.55634999623604
 40
16.97056355860914
 40
18.38477712098224
 40
19.79899064732156
 40
21.21320452110518
 40
22.62741808347827
 40
24.04163164585137
 40
25.45584577762047
 40
26.87005933999357
 40
28.28427290236666
 40
29.69848646473976
 40
31.11269999107909
 40
32.5269138648627
 40
33.9411274272358
 40
35.35534098960889
 40
36.76955512137799
 40
38.18376868375108
 40
39.59798224612417
 40
41.01219580849726
 40
42.42640933483659
 40
43.8406232086202
 40
45.25483677099329
 40
46.66905033336639
 40
48.08326389573949
 40
49.49747716409348
 40
50.91169072646657
 40
52.32590428883966
 40
53.74011781517898
 40
55.1543316889626
 40
56.56854525133569
 40
57.98275881370878
 40
57.98275881370878
 40
57.98275881370878
 40
57.98275881370878
 10
-1500.488449566668
 20
1644.322134823733
 30
0.0
 10
-1499.911099297761
 20
1643.98880149039
 30
0.0
 10
-1498.756398759947
 20
1643.322134823706
 30
0.0
 10
-1501.41665279355
 20
1642.32213482384
 30
0.0
 10
-1498.507687490567
 20
1641.322134831826
 30
0.0
 10
-1501.48329488589
 20
1640.322134768812
 30
0.0
 10
-1498.489830402332
 20
1639.322134696841
 30
0.0
 10
-1501.488079184334
 20
1638.322134649805
 30
0.0
 10
-1498.488548163625
 20
1637.322134417201
 30
0.0
 10
-1501.488423684647
 20
1636.322134650217
 30
0.0
 10
-1498.48845708952
 20
1635.322134392926
 30
0.0
 10
-1501.488447924483
 20
1634.322134526198
 30
0.0
 10
-1498.488450777137
 20
1633.322134157021
 30
0.0
 10
-1501.488450010544
 20
1632.322134266418
 30
0.0
 10
-1498.488450249742
 20
1631.322134247325
 30
0.0
 10
-1501.488450255249
 20
1630.322134191533
 30
0.0
 10
-1498.488449790188
 20
1629.322134117753
 30
0.0
 10
-1501.488449883321
 20
1628.322134070729
 30
0.0
 10
-1498.488449598704
 20
1627.32213383989
 30
0.0
 10
-1501.488450864241
 20
1626.322134065827
 30
0.0
 10
-1498.488450555116
 20
1625.322133835086
 30
0.0
 10
-1501.488450526077
 20
1624.322133861076
 30
0.0
 10
-1498.488450574216
 20
1623.322133862143
 30
0.0
 10
-1501.4884506309
 20
1622.322133800949
 30
0.0
 10
-1498.488450152186
 20
1621.322133728617
 30
0.0
 10
-1501.488450248755
 20
1620.322133681205
 30
0.0
 10
-1498.488449964047
 20
1619.322133450472
 30
0.0
 10
-1501.488451226513
 20
1618.322133676377
 30
0.0
 10
-1498.488450929763
 20
1617.32213344566
 30
0.0
 10
-1501.488450854299
 20
1616.322133471584
 30
0.0
 10
-1498.48845107576
 20
1615.32213347289
 30
0.0
 10
-1501.488450485581
 20
1614.322133410804
 30
0.0
 10
-1498.488452420999
 20
1613.322133341804
 30
0.0
 10
-1501.488443507902
 20
1612.322133281953
 30
0.0
 10
-1498.488477250352
 20
1611.322133231849
 30
0.0
 10
-1501.488351205955
 20
1610.322133488018
 30
0.0
 10
-1498.488821641035
 20
1609.322132859952
 30
0.0
 10
-1501.487070023786
 20
1608.322133116111
 30
0.0
 10
-1498.493606083346
 20
1607.322133074536
 30
0.0
 10
-1501.469213473362
 20
1606.322133023044
 30
0.0
 10
-1498.560247663994
 20
1605.322132954547
 30
0.0
 10
-1501.220501808569
 20
1604.322132882092
 30
0.0
 10
-1500.065801281994
 20
1603.655466215299
 30
0.0
 10
-1499.488451018706
 20
1603.322132881903
 30
0.0
 11
-1500.488449566668
 21
1644.322134823733
 31
0.0
 11
-1499.488449566668
 21
1643.322134823733
 31
0.0
 11
-1500.488449566668
 21
1642.322134823733
 31
0.0
 11
-1499.488449566668
 21
1641.322134823733
 31
0.0
 11
-1500.488449541188
 21
1640.322134849213
 31
0.0
 11
-1499.488449320987
 21
1639.322134629012
 31
0.0
 11
-1500.488449320988
 21
1638.322134629012
 31
0.0
 11
-1499.488449320987
 21
1637.322134629012
 31
0.0
 11
-1500.488449931514
 21
1636.322134434291
 31
0.0
 11
-1499.488449931514
 21
1635.322134434291
 31
0.0
 11
-1500.488449931514
 21
1634.322134434292
 31
0.0
 11
-1499.488450169847
 21
1633.322134244948
 31
0.0
 11
-1500.488450169847
 21
1632.322134244948
 31
0.0
 11
-1499.488450169847
 21
1631.322134244948
 31
0.0
 11
-1500.488450144367
 21
1630.322134270428
 31
0.0
 11
-1499.488449924167
 21
1629.322134050227
 31
0.0
 11
-1500.488449924167
 21
1628.322134050227
 31
0.0
 11
-1499.488449924167
 21
1627.322134050228
 31
0.0
 11
-1500.488450534693
 21
1626.322133855507
 31
0.0
 11
-1499.488450534693
 21
1625.322133855507
 31
0.0
 11
-1500.488450534693
 21
1624.322133855507
 31
0.0
 11
-1499.488450534693
 21
1623.322133855507
 31
0.0
 11
-1500.488450509214
 21
1622.322133880986
 31
0.0
 11
-1499.488450289013
 21
1621.322133660786
 31
0.0
 11
-1500.488450289013
 21
1620.322133660786
 31
0.0
 11
-1499.488450289013
 21
1619.322133660786
 31
0.0
 11
-1500.48845089954
 21
1618.322133466065
 31
0.0
 11
-1499.48845089954
 21
1617.322133466065
 31
0.0
 11
-1500.48845089954
 21
1616.322133466065
 31
0.0
 11
-1499.48845089954
 21
1615.322133466065
 31
0.0
 11
-1500.48845087406
 21
1614.322133491545
 31
0.0
 11
-1499.48845065386
 21
1613.322133271344
 31
0.0
 11
-1500.48845065386
 21
1612.322133271344
 31
0.0
 11
-1499.48845065386
 21
1611.322133271344
 31
0.0
 11
-1500.48845065386
 21
1610.322133271344
 31
0.0
 11
-1499.488451264387
 21
1609.322133076624
 31
0.0
 11
-1500.488451264387
 21
1608.322133076623
 31
0.0
 11
-1499.488451264387
 21
1607.322133076623
 31
0.0
 11
-1500.488451238907
 21
1606.322133102103
 31
0.0
 11
-1499.488451018706
 21
1605.322132881903
 31
0.0
 11
-1500.488451018706
 21
1604.322132881903
 31
0.0
 11
-1499.488451018706
 21
1603.322132881903
 31
0.0
  0
LINE
  5
137D3
330
1A
100
AcDbEntity
  8
CL1
100
AcDbLine
 10
-1685.00000130986
 20
1623.0
 30
0.0
 11
-1549.00000130986
 21
1623.0
 31
0.0
  0
LINE
  5
137D6
330
1A
100
AcDbEntity
  8
CL1
100
AcDbLine
 10
-1681.00000130986
 20
1619.49999938504
 30
0.0
 11
-1681.00000130986
 21
1627.49999938504
 31
0.0
  0
DIMENSION
  5
137D7
330
1A
100
AcDbEntity
  8
SUNPOU
100
AcDbDimension
  2
*D43
 10
-1515.517570232798
 20
1604.999999385039
 30
0.0
 11
-1518.267570232799
 21
1622.999994395987
 31
0.0
 70
    32
  3
標準スタイル
100
AcDbAlignedDimension
 13
-1557.0
 23
1640.999989406936
 33
0.0
 14
-1557.0
 24
1604.99999938504
 34
0.0
 50
90.0
100
AcDbRotatedDimension
1001
ACAD
1000
DSTYLE
1002
{
1070
   340
1005
10
1070
    40
1040
1.0
1002
}
  0
HATCH
  5
137D9
330
1A
100
AcDbEntity
  8
ZISSEN1
100
AcDbHatch
 10
0.0
 20
0.0
 30
0.0
210
0.0
220
0.0
230
1.0
  2
ANSI31
 70
     0
 71
     1
 91
        1
 92
       33
 93
        4
 72
     1
 10
-1677.0
 20
1604.99999938504
 11
-1677.0
 21
1640.99999938504
 72
     1
 10
-1677.0
 20
1640.99999938504
 11
-1557.0
 21
1640.999989406936
 72
     1
 10
-1557.0
 20
1604.99999938504
 11
-1557.0
 21
1640.99999938504
 72
     1
 10
-1557.0
 20
1604.99999938504
 11
-1677.0
 21
1604.99999938504
 97
        4
330
137DD
330
137DC
330
137DE
330
137DB
 75
     0
 76
     1
 52
0.0
 41
1.0
 77
     0
 78
     1
 53
45.0
 43
-0.000001309860636
 44
-75.00000061495985
 45
-2.245064030267287
 46
2.245064030267288
 79
     0
 98
        1
 10
-0.000001309860636
 20
-75.00000061495985
  0
LINE
  5
137DB
102
{ACAD_REACTORS
330
137D9
102
}
330
1A
100
AcDbEntity
  8
ZISSEN1
100
AcDbLine
 10
-1557.0
 20
1604.99999938504
 30
0.0
 11
-1677.0
 21
1604.99999938504
 31
0.0
  0
LINE
  5
137DC
102
{ACAD_REACTORS
330
137D9
102
}
330
1A
100
AcDbEntity
  8
ZISSEN1
100
AcDbLine
 10
-1677.0
 20
1640.99999938504
 30
0.0
 11
-1557.0
 21
1640.999989406936
 31
0.0
  0
LINE
  5
137DD
102
{ACAD_REACTORS
330
137D9
102
}
330
1A
100
AcDbEntity
  8
ZISSEN1
100
AcDbLine
 10
-1677.0
 20
1604.99999938504
 30
0.0
 11
-1677.0
 21
1640.99999938504
 31
0.0
  0
LINE
  5
137DE
102
{ACAD_REACTORS
330
137D9
102
}
330
1A
100
AcDbEntity
  8
ZISSEN1
100
AcDbLine
 10
-1557.0
 20
1604.99999938504
 30
0.0
 11
-1557.0
 21
1640.99999938504
 31
0.0
  0
LINE
  5
137E0
330
1A
100
AcDbEntity
  8
CL1
100
AcDbLine
 10
-1553.00000130986
 20
1619.49999938504
 30
0.0
 11
-1553.00000130986
 21
1627.49999938504
 31
0.0
  0
LINE
  5
137E3
330
1A
100
AcDbEntity
  8
CL1
100
AcDbLine
 10
-1495.00000130986
 20
1623.0
 30
0.0
 11
-1475.00000130986
 21
1623.0
 31
0.0
  0
LINE
  5
137E4
330
1A
100
AcDbEntity
  8
ZISSEN1
100
AcDbLine
 10
-1489.0
 20
1642.922028056266
 30
0.0
 11
-1489.0
 21
1602.660463421055
 31
0.0
  0
LINE
  5
137E5
330
1A
100
AcDbEntity
  8
ZISSEN1
100
AcDbLine
 10
-1482.0
 20
1605.0
 30
0.0
 11
-1482.0
 21
1641.0
 31
0.0
  0
LINE
  5
137E6
330
1A
100
AcDbEntity
  8
ZISSEN1
100
AcDbLine
 10
-1489.0
 20
1605.0
 30
0.0
 11
-1500.00000130986
 21
1605.0
 31
0.0
  0
LINE
  5
137EF
330
1A
100
AcDbEntity
  8
ZISSEN1
100
AcDbLine
 10
-1492.5
 20
1621.0
 30
0.0
 11
-1489.0
 21
1621.0
 31
0.0
  0
LINE
  5
137F0
330
1A
100
AcDbEntity
  8
ZISSEN1
100
AcDbLine
 10
-1492.5
 20
1625.0
 30
0.0
 11
-1492.5
 21
1621.0
 31
0.0
  0
LINE
  5
137F1
330
1A
100
AcDbEntity
  8
ZISSEN1
100
AcDbLine
 10
-1492.5
 20
1625.0
 30
0.0
 11
-1489.0
 21
1625.0
 31
0.0
  0
LINE
  5
137F2
330
1A
100
AcDbEntity
  8
ZISSEN1
100
AcDbLine
 10
-1489.0
 20
1641.0
 30
0.0
 11
-1500.00000130986
 21
1641.0
 31
0.0
  0
LINE
  5
137F3
330
1A
100
AcDbEntity
  8
ZISSEN1
100
AcDbLine
 10
-1484.0
 20
1643.704646623706
 30
0.0
 11
-1484.0
 21
1603.013435890681
 31
0.0
  0
LINE
  5
137FA
330
1A
100
AcDbEntity
  8
ZISSEN1
100
AcDbLine
 10
-1482.0
 20
1620.5
 30
0.0
 11
-1484.0
 21
1620.5
 31
0.0
  0
LINE
  5
137FB
330
1A
100
AcDbEntity
  8
ZISSEN1
100
AcDbLine
 10
-1480.0
 20
1627.0
 30
0.0
 11
-1479.50000130986
 21
1627.0
 31
0.0
  0
LINE
  5
137FD
330
1A
100
AcDbEntity
  8
ZISSEN1
100
AcDbLine
 10
-1477.50000130986
 20
1625.0
 30
0.0
 11
-1477.50000130986
 21
1621.0
 31
0.0
  0
LINE
  5
137FF
330
1A
100
AcDbEntity
  8
ZISSEN1
100
AcDbLine
 10
-1482.0
 20
1625.499999999999
 30
0.0
 11
-1484.0
 21
1625.499999999999
 31
0.0
  0
LINE
  5
13800
330
1A
100
AcDbEntity
  8
ZISSEN1
100
AcDbLine
 10
-1480.0
 20
1619.0
 30
0.0
 11
-1479.50000130986
 21
1619.0
 31
0.0
  0
LINE
  5
13801
330
1A
100
AcDbEntity
  8
ZISSEN1
100
AcDbLine
 10
-1481.0
 20
1626.0
 30
0.0
 11
-1481.0
 21
1620.0
 31
0.0
  0
CIRCLE
  5
13863
330
1A
100
AcDbEntity
  8
ZISSEN1
100
AcDbCircle
 10
-1553.0
 20
1623.0
 30
0.0
 40
1.5
  0
CIRCLE
  5
13864
330
1A
100
AcDbEntity
  8
SAISEN
100
AcDbCircle
 10
-1553.0
 20
1623.0
 30
0.0
 40
2.0
  0
LEADER
  5
13866
330
1A
100
AcDbEntity
  8
SUNPOU
100
AcDbLeader
  3
標準スタイル
 76
     2
 10
-1550.867171006563
 20
1624.507649896643
 30
0.0
 10
-1543.127608308779
 20
1629.981995473059
 30
0.0
1001
ACAD
1000
DSTYLE
1002
{
1070
     5
1000

1070
    77
1070
     0
1070
   147
1040
1.0
1002
}
  0
LINE
  5
13869
330
1A
100
AcDbEntity
  8
SUNPOU
100
AcDbLine
 10
-1543.127608308779
 20
1629.981995473059
 30
0.0
 11
-1529.388889477339
 21
1629.981995473059
 31
0.0
  0
MTEXT
  5
1386A
330
1A
100
AcDbEntity
  8
SUNPOU
100
AcDbMText
 10
-1540.55805680167
 20
1634.967218146915
 30
0.0
 40
3.5
 41
16.37941934466639
 71
     1
 72
     5
  1
2-M4
1001
ACAD
1000
MTEXTBEGIN
1070
    73
1070
     1
1070
    44
1040
1.0
1070
    74
1070
     0
1000
MTEXTEND
  0
CIRCLE
  5
13872
330
1A
100
AcDbEntity
  8
ZISSEN1
100
AcDbCircle
 10
-1681.0
 20
1623.0
 30
0.0
 40
1.5
  0
CIRCLE
  5
13873
330
1A
100
AcDbEntity
  8
SAISEN
100
AcDbCircle
 10
-1681.0
 20
1623.0
 30
0.0
 40
2.0
  0
LINE
  5
13881
330
1A
100
AcDbEntity
  8
ZISSEN1
100
AcDbLine
 10
-1482.0
 20
1641.0
 30
0.0
 11
-1484.0
 21
1641.0
 31
0.0
  0
LINE
  5
13882
330
1A
100
AcDbEntity
  8
ZISSEN1
100
AcDbLine
 10
-1482.0
 20
1605.0
 30
0.0
 11
-1484.0
 21
1605.0
 31
0.0
  0
LINE
  5
13883
330
1A
100
AcDbEntity
  8
ZISSEN1
100
AcDbLine
 10
-1489.5
 20
1605.49999938504
 30
0.0
 11
-1489.5
 21
1605.49999938504
 31
0.0
  0
LINE
  5
13886
330
1A
100
AcDbEntity
  8
ZISSEN1
100
AcDbLine
 10
-1482.0
 20
1626.0
 30
0.0
 11
-1481.00000130986
 21
1626.0
 31
0.0
  0
LINE
  5
13887
330
1A
100
AcDbEntity
  8
ZISSEN1
100
AcDbLine
 10
-1481.00000130986
 20
1620.0
 30
0.0
 11
-1482.0
 21
1620.0
 31
0.0
  0
ELLIPSE
  5
13E12
330
1A
100
AcDbEntity
  8
KAKURESEN2
100
AcDbEllipse
 10
-1514.573099995561
 20
1629.732547740762
 30
0.0
 11
51.84287360823407
 21
-3.821488033023822
 31
0.0
210
0.0
220
0.0
230
0.9999999999999998
 40
0.577325436956936
 41
5.297680502359762
 42
5.334856565151735
  0
LINE
  5
152AC
330
1A
100
AcDbEntity
  8
CL1
100
AcDbLine
 10
-1617.0
 20
1632.0
 30
0.0
 11
-1617.0
 21
1614.0
 31
0.0
  0
SPLINE
  5
152B4
330
1A
100
AcDbEntity
  8
ZISSEN1
100
AcDbSpline
210
0.0
220
0.0
230
1.0
 70
     8
 71
     3
 72
    17
 73
    13
 74
     0
 42
0.0000000001
 43
0.0000000001
 40
45.0942801072093
 40
45.0942801072093
 40
45.0942801072093
 40
45.0942801072093
 40
45.25483677099329
 40
46.66905033336639
 40
48.08326389573949
 40
49.49747716409348
 40
50.91169072646657
 40
52.32590428883966
 40
53.74011781517898
 40
55.1543316889626
 40
56.56854525133569
 40
57.98275881370878
 40
57.98275881370878
 40
57.98275881370878
 40
57.98275881370878
 10
-1482.082569693574
 20
1643.76921152079
 30
0.0
 10
-1482.120413262588
 20
1643.792063613133
 30
0.0
 10
-1482.49159016994
 20
1643.918487203785
 30
0.0
 10
-1483.196100440481
 20
1641.80498026996
 30
0.0
 10
-1484.196100184312
 20
1644.804854225563
 30
0.0
 10
-1485.196100812378
 20
1641.805324660642
 30
0.0
 10
-1486.196100556218
 20
1644.803573043394
 30
0.0
 10
-1487.196100597794
 20
1641.810109102954
 30
0.0
 10
-1488.196100649286
 20
1644.78571649297
 30
0.0
 10
-1489.196100717783
 20
1641.876750683602
 30
0.0
 10
-1490.196100790238
 20
1644.537004828177
 30
0.0
 10
-1490.862767457031
 20
1643.382304301602
 30
0.0
 10
-1491.196100790427
 20
1642.804954038314
 30
0.0
  0
SPLINE
  5
152C2
330
1A
100
AcDbEntity
  8
ZISSEN1
100
AcDbSpline
210
0.0
220
0.0
230
1.0
 70
     8
 71
     3
 72
    17
 73
    13
 74
     0
 42
0.0000000001
 43
0.0000000001
 40
45.0942801072093
 40
45.0942801072093
 40
45.0942801072093
 40
45.0942801072093
 40
45.25483677099329
 40
46.66905033336639
 40
48.08326389573949
 40
49.49747716409348
 40
50.91169072646657
 40
52.32590428883966
 40
53.74011781517898
 40
55.1543316889626
 40
56.56854525133569
 40
57.98275881370878
 40
57.98275881370878
 40
57.98275881370878
 40
57.98275881370878
 10
-1482.25899273925
 20
1603.29065112461
 30
0.0
 10
-1482.296836308263
 20
1603.313503216952
 30
0.0
 10
-1482.668013215615
 20
1603.439926807605
 30
0.0
 10
-1483.372523486156
 20
1601.32641987378
 30
0.0
 10
-1484.372523229987
 20
1604.326293829382
 30
0.0
 10
-1485.372523858054
 20
1601.326764264462
 30
0.0
 10
-1486.372523601894
 20
1604.325012647214
 30
0.0
 10
-1487.372523643469
 20
1601.331548706774
 30
0.0
 10
-1488.372523694961
 20
1604.30715609679
 30
0.0
 10
-1489.372523763458
 20
1601.398190287422
 30
0.0
 10
-1490.372523835914
 20
1604.058444431997
 30
0.0
 10
-1491.039190502706
 20
1602.903743905421
 30
0.0
 10
-1491.372523836102
 20
1602.326393642134
 30
0.0
  0
ARC
  5
152E7
330
1A
100
AcDbEntity
  8
ZISSEN1
100
AcDbCircle
 10
-1480.0
 20
1626.0
 30
0.0
 40
1.0
100
AcDbArc
 50
90.0
 51
180.0
  0
ARC
  5
152E8
330
1A
100
AcDbEntity
  8
ZISSEN1
100
AcDbCircle
 10
-1480.0
 20
1620.0
 30
0.0
 40
1.0
100
AcDbArc
 50
180.0
 51
270.0
  0
ARC
  5
152E9
330
1A
100
AcDbEntity
  8
ZISSEN1
100
AcDbCircle
 10
-1479.50000130986
 20
1625.0
 30
0.0
 40
2.0
100
AcDbArc
 50
0.0
 51
90.0
  0
ARC
  5
152EA
330
1A
100
AcDbEntity
  8
ZISSEN1
100
AcDbCircle
 10
-1479.50000130986
 20
1621.0
 30
0.0
 40
2.0
100
AcDbArc
 50
270.0
 51
0.0
  0
HATCH
  5
15362
330
1A
100
AcDbEntity
  8
ZISSEN1
100
AcDbHatch
 10
0.0
 20
0.0
 30
0.0
210
0.0
220
0.0
230
1.0
  2
ANSI31
 70
     0
 71
     0
 91
        1
 92
        5
 93
        4
 72
     4
 94
        3
 73
     0
 74
     0
 95
       13
 96
        9
 40
8.02670809970178
 40
8.02670809970178
 40
8.02670809970178
 40
8.02670809970178
 40
8.982347616866849
 40
10.39656117923994
 40
11.81077474161304
 40
13.22498887338214
 40
14.63920243575523
 40
15.09777598566878
 40
15.09777598566878
 40
15.09777598566878
 40
15.09777598566878
 10
-1483.999999333427
 20
1642.471598755207
 10
-1484.225245782179
 20
1642.175468888452
 10
-1484.783825675104
 20
1641.043106723553
 10
-1485.675738624506
 20
1643.718837753941
 10
-1486.675738881797
 20
1640.718871158813
 10
-1487.675738648781
 20
1643.718746679836
 10
-1488.450492348161
 20
1641.394849465686
 10
-1488.891912510736
 20
1641.823812881468
 10
-1488.999999333427
 20
1641.965826537108
 72
     1
 10
-1488.999999333427
 20
1641.965826537108
 11
-1488.999999333427
 21
1623.000000252324
 72
     1
 10
-1488.999999333427
 20
1623.000000252324
 11
-1483.999999333427
 21
1623.000000252324
 72
     1
 10
-1483.999999333427
 20
1623.000000252324
 11
-1483.999999333427
 21
1642.471598755206
 97
        0
 75
     0
 76
     1
 52
0.0
 41
1.0
 77
     0
 78
     1
 53
45.0
 43
-338.0882448911309
 44
0.0000008672845979
 45
-2.245064030267287
 46
2.245064030267288
 79
     0
 47
0.0969399975147672
 98
        1
 10
-1484.14405606986
 20
1629.929052660239
  0
HATCH
  5
15369
330
1A
100
AcDbEntity
  8
ZISSEN1
100
AcDbHatch
 10
0.0
 20
0.0
 30
0.0
210
0.0
220
0.0
230
1.0
  2
ANSI31
 70
     0
 71
     0
 91
        1
 92
        5
 93
        4
 72
     1
 10
-1483.999999333427
 20
1623.072674243544
 11
-1488.999999333427
 21
1623.072674243544
 72
     1
 10
-1488.999999333427
 20
1623.072674243544
 11
-1488.999999333427
 21
1601.760238273002
 72
     4
 94
        3
 73
     0
 74
     0
 95
       13
 96
        9
 40
8.637389044759917
 40
8.637389044759917
 40
8.637389044759917
 40
8.637389044759917
 40
9.899495211988419
 40
11.31370934375752
 40
12.72792290613061
 40
14.14213646850371
 40
15.55634999623604
 40
15.70845683729518
 40
15.70845683729518
 40
15.70845683729518
 40
15.70845683729518
 10
-1488.999999333427
 20
1601.760238273002
 10
-1488.702518043262
 20
1601.931690267912
 10
-1488.071703252972
 20
1603.620314553111
 10
-1487.107555529681
 20
1600.727990725402
 10
-1486.10755527239
 20
1603.727957320529
 10
-1485.107555405661
 20
1600.727966485566
 10
-1484.40503655581
 20
1602.835520253015
 10
-1484.035851262917
 20
1602.716395929241
 10
-1483.999999333427
 20
1602.695747877945
 72
     1
 10
-1483.999999333427
 20
1602.695747877945
 11
-1483.999999333427
 21
1623.072674243544
 97
        0
 75
     0
 76
     1
 52
0.0
 41
1.0
 77
     0
 78
     1
 53
45.0
 43
-338.0882448911309
 44
0.0726748585043424
 45
-2.245064030267287
 46
2.245064030267288
 79
     0
 47
0.0969399975147672
 98
        1
 10
-1486.375437580474
 20
1623.022047030449
  0
LINE
  5
153E0
330
1A
100
AcDbEntity
  8
CL1
100
AcDbLine
 10
-1617.000000379737
 20
1707.0
 30
0.0
 11
-1617.000000379737
 21
1689.0
 31
0.0
  0
HATCH
  5
1579A
330
1A
100
AcDbEntity
  8
ZISSEN1
100
AcDbHatch
 10
0.0
 20
0.0
 30
0.0
210
0.0
220
0.0
230
1.0
  2
ANSI31
 70
     0
 71
     0
 91
        1
 92
       33
 93
        4
 72
     1
 10
-1481.99999953536
 20
1717.456681047517
 11
-1481.99999953536
 21
1677.525988752233
 72
     1
 10
-1486.99999953536
 20
1718.045100483853
 11
-1481.99999953536
 21
1717.045456923825
 72
     1
 10
-1486.99999953536
 20
1718.045100483853
 11
-1486.99999953536
 21
1677.664463000536
 72
     1
 10
-1486.99999953536
 20
1677.664463000536
 11
-1481.99999953536
 21
1677.525988752233
 97
        0
 75
     0
 76
     1
 52
0.0
 41
1.0
 77
     0
 78
     1
 53
45.0
 43
-338.0882450930635
 44
0.4566810475175771
 45
-2.245064030267287
 46
2.245064030267288
 79
     0
 98
        1
 10
-338.0882450930635
 20
0.4566810475175771
  0
ARC
  5
157A7
330
1A
100
AcDbEntity
  8
ZISSEN1
100
AcDbCircle
 10
-1479.499999999999
 20
1696.0
 30
0.0
 40
2.0
100
AcDbArc
 50
270.0
 51
0.0
  0
ARC
  5
157A8
330
1A
100
AcDbEntity
  8
ZISSEN1
100
AcDbCircle
 10
-1479.499999999999
 20
1700.0
 30
0.0
 40
2.0
100
AcDbArc
 50
0.0
 51
90.0
  0
ARC
  5
157A9
330
1A
100
AcDbEntity
  8
ZISSEN1
100
AcDbCircle
 10
-1480.0
 20
1701.0
 30
0.0
 40
1.0
100
AcDbArc
 50
90.0
 51
180.0
  0
ARC
  5
157AA
330
1A
100
AcDbEntity
  8
ZISSEN1
100
AcDbCircle
 10
-1480.0
 20
1695.0
 30
0.0
 40
1.0
100
AcDbArc
 50
180.0
 51
270.0
  0
HATCH
  5
157B1
330
1A
100
AcDbEntity
  8
ZISSEN1
100
AcDbHatch
 10
0.0
 20
0.0
 30
0.0
210
0.0
220
0.0
230
1.0
  2
ANSI31
 70
     0
 71
     0
 91
        1
 92
        1
 93
        4
 72
     1
 10
-1672.500000744117
 20
1679.999999847687
 11
-1672.500000744117
 21
1715.999999847687
 72
     1
 10
-1672.500000744117
 20
1715.999999847687
 11
-1561.500000744117
 21
1715.999999847687
 72
     1
 10
-1561.500000744117
 20
1715.999999847687
 11
-1561.500000744117
 21
1679.999999847687
 72
     1
 10
-1561.500000744117
 20
1679.999999847687
 11
-1672.500000744117
 21
1679.999999847687
 97
        0
 75
     0
 76
     1
 52
0.0
 41
1.0
 77
     0
 78
     1
 53
45.0
 43
-0.5000007441171875
 44
-0.0000001523130777
 45
-2.245064030267287
 46
2.245064030267288
 79
     0
 98
        1
 10
-0.5000007441171875
 20
-0.0000001523130777
  0
DIMENSION
  5
15808
330
1A
100
AcDbEntity
  8
SUNPOU
100
AcDbDimension
  2
*D44
 10
-1557.0
 20
1598.677215419164
 30
0.0
 11
-1617.0
 21
1601.427215419164
 31
0.0
 70
    32
  3
標準スタイル
100
AcDbAlignedDimension
 13
-1677.0
 23
1604.99999938504
 33
0.0
 14
-1557.0
 24
1604.99999938504
 34
0.0
100
AcDbRotatedDimension
1001
ACAD
1000
DSTYLE
1002
{
1070
   340
1005
10
1070
    40
1040
1.0
1002
}
  0
LINE
  5
15894
330
1A
100
AcDbEntity
  8
ZISSEN1
100
AcDbLine
 10
-1626.000000248668
 20
1761.999972273375
 30
0.0
 11
-1620.500000248668
 21
1761.999972273375
 31
0.0
  0
LINE
  5
15895
330
1A
100
AcDbEntity
  8
ZISSEN1
100
AcDbLine
 10
-1626.000000248668
 20
1767.499972273375
 30
0.0
 11
-1620.500000248668
 21
1767.499972273375
 31
0.0
  0
LINE
  5
15896
330
1A
100
AcDbEntity
  8
ZISSEN1
100
AcDbLine
 10
-1657.999999974986
 20
1782.000000396958
 30
0.0
 11
-1582.103663174333
 21
1781.914940920961
 31
0.0
  0
LINE
  5
15897
330
1A
100
AcDbEntity
  8
ZISSEN1
100
AcDbLine
 10
-1581.999999974986
 20
1771.000000396957
 30
0.0
 11
-1657.999999974986
 21
1771.000000396957
 31
0.0
  0
CIRCLE
  5
15898
330
1A
100
AcDbEntity
  8
ZISSEN1
100
AcDbCircle
 10
-1664.191718021559
 20
1772.295829110938
 30
0.0
 40
1.5
  0
LINE
  5
15899
330
1A
100
AcDbEntity
  8
ZISSEN1
100
AcDbLine
 10
-1668.603663174333
 20
1781.414920920961
 30
0.0
 11
-1664.603663174333
 21
1781.414920920961
 31
0.0
  0
LINE
  5
1589A
330
1A
100
AcDbEntity
  8
ZISSEN1
100
AcDbLine
 10
-1664.603663174333
 20
1779.414920920961
 30
0.0
 11
-1668.603663174333
 21
1779.414920920961
 31
0.0
  0
LINE
  5
1589B
330
1A
100
AcDbEntity
  8
ZISSEN1
100
AcDbLine
 10
-1668.603663174333
 20
1777.414920920961
 30
0.0
 11
-1664.603663174333
 21
1777.414920920961
 31
0.0
  0
LINE
  5
1589C
330
1A
100
AcDbEntity
  8
ZISSEN1
100
AcDbLine
 10
-1664.603663174333
 20
1775.414910920961
 30
0.0
 11
-1668.603663174333
 21
1775.414910920961
 31
0.0
  0
LINE
  5
1589D
330
1A
100
AcDbEntity
  8
ZISSEN1
100
AcDbLine
 10
-1668.603663174333
 20
1779.414920920961
 30
0.0
 11
-1668.603663174333
 21
1781.414920920961
 31
0.0
  0
LINE
  5
1589E
330
1A
100
AcDbEntity
  8
ZISSEN1
100
AcDbLine
 10
-1668.603663174333
 20
1775.414910920961
 30
0.0
 11
-1668.603663174333
 21
1777.414920920961
 31
0.0
  0
LINE
  5
1589F
330
1A
100
AcDbEntity
  8
ZISSEN1
100
AcDbLine
 10
-1658.000000248668
 20
1761.999972273375
 30
0.0
 11
-1652.500000248668
 21
1761.999972273375
 31
0.0
  0
LINE
  5
158A0
330
1A
100
AcDbEntity
  8
ZISSEN1
100
AcDbLine
 10
-1650.500000248668
 20
1761.999972273375
 30
0.0
 11
-1645.000000248668
 21
1761.999972273375
 31
0.0
  0
LINE
  5
158A1
330
1A
100
AcDbEntity
  8
ZISSEN1
100
AcDbLine
 10
-1650.500000248668
 20
1767.499972273375
 30
0.0
 11
-1645.000000248668
 21
1767.499972273375
 31
0.0
  0
LINE
  5
158A2
330
1A
100
AcDbEntity
  8
ZISSEN1
100
AcDbLine
 10
-1658.000000248668
 20
1767.499972273375
 30
0.0
 11
-1658.000000248668
 21
1761.999972273375
 31
0.0
  0
LINE
  5
158A3
330
1A
100
AcDbEntity
  8
ZISSEN1
100
AcDbLine
 10
-1652.500000248668
 20
1767.499972273375
 30
0.0
 11
-1652.500000248668
 21
1761.999972273375
 31
0.0
  0
LINE
  5
158A4
330
1A
100
AcDbEntity
  8
ZISSEN1
100
AcDbLine
 10
-1650.500000248668
 20
1767.499972273375
 30
0.0
 11
-1650.500000248668
 21
1761.999972273375
 31
0.0
  0
LINE
  5
158A5
330
1A
100
AcDbEntity
  8
ZISSEN1
100
AcDbLine
 10
-1645.000000248668
 20
1767.499972273375
 30
0.0
 11
-1645.000000248668
 21
1761.999972273375
 31
0.0
  0
LINE
  5
158A6
330
1A
100
AcDbEntity
  8
ZISSEN1
100
AcDbLine
 10
-1658.000000248668
 20
1767.499972273375
 30
0.0
 11
-1652.500000248668
 21
1767.499972273375
 31
0.0
  0
LINE
  5
158A7
330
1A
100
AcDbEntity
  8
ZISSEN1
100
AcDbLine
 10
-1633.500000248668
 20
1761.999972273375
 30
0.0
 11
-1628.000000248668
 21
1761.999972273375
 31
0.0
  0
LINE
  5
158A8
330
1A
100
AcDbEntity
  8
ZISSEN1
100
AcDbLine
 10
-1641.000000248668
 20
1767.499972273375
 30
0.0
 11
-1641.000000248668
 21
1761.999972273375
 31
0.0
  0
LINE
  5
158A9
330
1A
100
AcDbEntity
  8
ZISSEN1
100
AcDbLine
 10
-1641.000000248668
 20
1761.999972273375
 30
0.0
 11
-1635.500000248668
 21
1761.999972273375
 31
0.0
  0
LINE
  5
158AA
330
1A
100
AcDbEntity
  8
ZISSEN1
100
AcDbLine
 10
-1641.000000248668
 20
1767.499972273375
 30
0.0
 11
-1635.500000248668
 21
1767.499972273375
 31
0.0
  0
LINE
  5
158AB
330
1A
100
AcDbEntity
  8
ZISSEN1
100
AcDbLine
 10
-1635.500000248668
 20
1767.499972273375
 30
0.0
 11
-1635.500000248668
 21
1761.999972273375
 31
0.0
  0
LINE
  5
158AC
330
1A
100
AcDbEntity
  8
ZISSEN1
100
AcDbLine
 10
-1633.500000248668
 20
1767.499972273375
 30
0.0
 11
-1628.000000248668
 21
1767.499972273375
 31
0.0
  0
LINE
  5
158AD
330
1A
100
AcDbEntity
  8
ZISSEN1
100
AcDbLine
 10
-1633.500000248668
 20
1767.499972273375
 30
0.0
 11
-1633.500000248668
 21
1761.999972273375
 31
0.0
  0
LINE
  5
158AE
330
1A
100
AcDbEntity
  8
ZISSEN1
100
AcDbLine
 10
-1628.000000248668
 20
1767.499972273375
 30
0.0
 11
-1628.000000248668
 21
1761.999972273375
 31
0.0
  0
LINE
  5
158AF
330
1A
100
AcDbEntity
  8
ZISSEN1
100
AcDbLine
 10
-1626.000000248668
 20
1767.499972273375
 30
0.0
 11
-1626.000000248668
 21
1761.999972273375
 31
0.0
  0
LINE
  5
158B0
330
1A
100
AcDbEntity
  8
ZISSEN1
100
AcDbLine
 10
-1657.999999974986
 20
1771.000000396957
 30
0.0
 11
-1657.999999974986
 21
1782.000000396958
 31
0.0
  0
LINE
  5
158B1
330
1A
100
AcDbEntity
  8
ZISSEN1
100
AcDbLine
 10
-1664.603663174333
 20
1781.414920920961
 30
0.0
 11
-1664.603663174333
 21
1779.414920920961
 31
0.0
  0
LINE
  5
158B2
330
1A
100
AcDbEntity
  8
ZISSEN1
100
AcDbLine
 10
-1664.603663174333
 20
1777.414920920961
 30
0.0
 11
-1664.603663174333
 21
1775.414910920961
 31
0.0
  0
LINE
  5
158B3
330
1A
100
AcDbEntity
  8
ZISSEN1
100
AcDbLine
 10
-1576.499999974986
 20
1771.500000396958
 30
0.0
 11
-1580.999999974986
 21
1771.500000396958
 31
0.0
  0
LINE
  5
158B4
330
1A
100
AcDbEntity
  8
ZISSEN1
100
AcDbLine
 10
-1580.999999974986
 20
1773.500000396958
 30
0.0
 11
-1576.499999974986
 21
1773.500000396958
 31
0.0
  0
LINE
  5
158B5
330
1A
100
AcDbEntity
  8
ZISSEN1
100
AcDbLine
 10
-1576.499999974986
 20
1775.500000396958
 30
0.0
 11
-1580.999999974986
 21
1775.500000396958
 31
0.0
  0
LINE
  5
158B6
330
1A
100
AcDbEntity
  8
ZISSEN1
100
AcDbLine
 10
-1580.999999974986
 20
1777.500000396958
 30
0.0
 11
-1576.499999974986
 21
1777.500000396958
 31
0.0
  0
LINE
  5
158B7
330
1A
100
AcDbEntity
  8
ZISSEN1
100
AcDbLine
 10
-1580.999999974986
 20
1781.414920920961
 30
0.0
 11
-1576.499999974986
 21
1781.414920920961
 31
0.0
  0
LINE
  5
158B8
330
1A
100
AcDbEntity
  8
ZISSEN1
100
AcDbLine
 10
-1576.499999974986
 20
1779.414920920961
 30
0.0
 11
-1580.999999974986
 21
1779.414920920961
 31
0.0
  0
LINE
  5
158B9
330
1A
100
AcDbEntity
  8
ZISSEN1
100
AcDbLine
 10
-1603.500000248668
 20
1761.999972273375
 30
0.0
 11
-1598.000000248668
 21
1761.999972273375
 31
0.0
  0
LINE
  5
158BA
330
1A
100
AcDbEntity
  8
ZISSEN1
100
AcDbLine
 10
-1603.500000248668
 20
1767.499972273375
 30
0.0
 11
-1598.000000248668
 21
1767.499972273375
 31
0.0
  0
LINE
  5
158BB
330
1A
100
AcDbEntity
  8
ZISSEN1
100
AcDbLine
 10
-1618.500000248668
 20
1761.999972273375
 30
0.0
 11
-1613.000000248668
 21
1761.999972273375
 31
0.0
  0
LINE
  5
158BC
330
1A
100
AcDbEntity
  8
ZISSEN1
100
AcDbLine
 10
-1618.500000248668
 20
1767.499972273375
 30
0.0
 11
-1613.000000248668
 21
1767.499972273375
 31
0.0
  0
LINE
  5
158BD
330
1A
100
AcDbEntity
  8
ZISSEN1
100
AcDbLine
 10
-1611.000000248668
 20
1761.999972273375
 30
0.0
 11
-1605.500000248668
 21
1761.999972273375
 31
0.0
  0
LINE
  5
158BE
330
1A
100
AcDbEntity
  8
ZISSEN1
100
AcDbLine
 10
-1611.000000248668
 20
1767.499972273375
 30
0.0
 11
-1605.500000248668
 21
1767.499972273375
 31
0.0
  0
LINE
  5
158BF
330
1A
100
AcDbEntity
  8
ZISSEN1
100
AcDbLine
 10
-1620.500000248668
 20
1767.499972273375
 30
0.0
 11
-1620.500000248668
 21
1761.999972273375
 31
0.0
  0
LINE
  5
158C0
330
1A
100
AcDbEntity
  8
ZISSEN1
100
AcDbLine
 10
-1618.500000248668
 20
1767.499972273375
 30
0.0
 11
-1618.500000248668
 21
1761.999972273375
 31
0.0
  0
LINE
  5
158C1
330
1A
100
AcDbEntity
  8
ZISSEN1
100
AcDbLine
 10
-1613.000000248668
 20
1767.499972273375
 30
0.0
 11
-1613.000000248668
 21
1761.999972273375
 31
0.0
  0
LINE
  5
158C2
330
1A
100
AcDbEntity
  8
ZISSEN1
100
AcDbLine
 10
-1611.000000248668
 20
1767.499972273375
 30
0.0
 11
-1611.000000248668
 21
1761.999972273375
 31
0.0
  0
LINE
  5
158C3
330
1A
100
AcDbEntity
  8
ZISSEN1
100
AcDbLine
 10
-1605.500000248668
 20
1767.499972273375
 30
0.0
 11
-1605.500000248668
 21
1761.999972273375
 31
0.0
  0
LINE
  5
158C4
330
1A
100
AcDbEntity
  8
ZISSEN1
100
AcDbLine
 10
-1603.500000248668
 20
1767.499972273375
 30
0.0
 11
-1603.500000248668
 21
1761.999972273375
 31
0.0
  0
LINE
  5
158C5
330
1A
100
AcDbEntity
  8
ZISSEN1
100
AcDbLine
 10
-1596.000000248668
 20
1761.999972273375
 30
0.0
 11
-1590.500000248668
 21
1761.999972273375
 31
0.0
  0
LINE
  5
158C6
330
1A
100
AcDbEntity
  8
ZISSEN1
100
AcDbLine
 10
-1596.000000248668
 20
1767.499972273375
 30
0.0
 11
-1590.500000248668
 21
1767.499972273375
 31
0.0
  0
LINE
  5
158C7
330
1A
100
AcDbEntity
  8
ZISSEN1
100
AcDbLine
 10
-1588.500000248668
 20
1761.999972273375
 30
0.0
 11
-1583.000000248668
 21
1761.999972273375
 31
0.0
  0
LINE
  5
158C8
330
1A
100
AcDbEntity
  8
ZISSEN1
100
AcDbLine
 10
-1588.500000248668
 20
1767.499972273375
 30
0.0
 11
-1583.000000248668
 21
1767.499972273375
 31
0.0
  0
LINE
  5
158C9
330
1A
100
AcDbEntity
  8
ZISSEN1
100
AcDbLine
 10
-1598.000000248668
 20
1767.499972273375
 30
0.0
 11
-1598.000000248668
 21
1761.999972273375
 31
0.0
  0
LINE
  5
158CA
330
1A
100
AcDbEntity
  8
ZISSEN1
100
AcDbLine
 10
-1596.000000248668
 20
1767.499972273375
 30
0.0
 11
-1596.000000248668
 21
1761.999972273375
 31
0.0
  0
LINE
  5
158CB
330
1A
100
AcDbEntity
  8
ZISSEN1
100
AcDbLine
 10
-1590.500000248668
 20
1767.499972273375
 30
0.0
 11
-1590.500000248668
 21
1761.999972273375
 31
0.0
  0
LINE
  5
158CC
330
1A
100
AcDbEntity
  8
ZISSEN1
100
AcDbLine
 10
-1588.500000248668
 20
1767.499972273375
 30
0.0
 11
-1588.500000248668
 21
1761.999972273375
 31
0.0
  0
LINE
  5
158CD
330
1A
100
AcDbEntity
  8
ZISSEN1
100
AcDbLine
 10
-1583.000000248668
 20
1767.499972273375
 30
0.0
 11
-1583.000000248668
 21
1761.999972273375
 31
0.0
  0
LINE
  5
158CE
330
1A
100
AcDbEntity
  8
ZISSEN1
100
AcDbLine
 10
-1580.999999974986
 20
1771.500000396958
 30
0.0
 11
-1580.999999974986
 21
1773.500000396958
 31
0.0
  0
LINE
  5
158CF
330
1A
100
AcDbEntity
  8
ZISSEN1
100
AcDbLine
 10
-1580.999999974986
 20
1777.500000396958
 30
0.0
 11
-1580.999999974986
 21
1775.500000396958
 31
0.0
  0
LINE
  5
158D0
330
1A
100
AcDbEntity
  8
ZISSEN1
100
AcDbLine
 10
-1580.999999974986
 20
1779.500000396958
 30
0.0
 11
-1580.999999974986
 21
1781.500000396958
 31
0.0
  0
LINE
  5
158D1
330
1A
100
AcDbEntity
  8
ZISSEN1
100
AcDbLine
 10
-1581.999999974986
 20
1782.000000396958
 30
0.0
 11
-1581.999999974986
 21
1771.000000396957
 31
0.0
  0
LINE
  5
158D2
330
1A
100
AcDbEntity
  8
ZISSEN1
100
AcDbLine
 10
-1572.553653448013
 20
1767.499972273375
 30
0.0
 11
-1567.053663448014
 21
1767.499972273375
 31
0.0
  0
LINE
  5
158D3
330
1A
100
AcDbEntity
  8
ZISSEN1
100
AcDbLine
 10
-1567.053663448014
 20
1761.999972273375
 30
0.0
 11
-1572.553653448013
 21
1761.999972273375
 31
0.0
  0
LINE
  5
158D4
330
1A
100
AcDbEntity
  8
ZISSEN1
100
AcDbLine
 10
-1567.053663448014
 20
1767.499972273375
 30
0.0
 11
-1567.053663448014
 21
1761.999972273375
 31
0.0
  0
LINE
  5
158D5
330
1A
100
AcDbEntity
  8
ZISSEN1
100
AcDbLine
 10
-1572.553653448013
 20
1767.499972273375
 30
0.0
 11
-1572.553653448013
 21
1761.999972273375
 31
0.0
  0
LINE
  5
158D6
330
1A
100
AcDbEntity
  8
ZISSEN1
100
AcDbLine
 10
-1576.499999974986
 20
1771.500000396958
 30
0.0
 11
-1576.499999974986
 21
1773.500000396958
 31
0.0
  0
LINE
  5
158D7
330
1A
100
AcDbEntity
  8
ZISSEN1
100
AcDbLine
 10
-1576.499999974986
 20
1777.500000396958
 30
0.0
 11
-1576.499999974986
 21
1775.500000396958
 31
0.0
  0
LINE
  5
158D8
330
1A
100
AcDbEntity
  8
ZISSEN1
100
AcDbLine
 10
-1576.499999974986
 20
1779.500000396958
 30
0.0
 11
-1576.499999974986
 21
1781.500000396958
 31
0.0
  0
DIMENSION
  5
15900
330
1A
100
AcDbEntity
  8
SUNPOU
100
AcDbDimension
  2
*D45
 10
-1547.0
 20
1736.529925113916
 30
0.0
 11
-1617.0
 21
1739.279925113916
 31
0.0
 70
    32
  3
標準スタイル
100
AcDbAlignedDimension
 13
-1687.0
 23
1759.0
 33
0.0
 14
-1547.0
 24
1759.0
 34
0.0
100
AcDbRotatedDimension
1001
ACAD
1000
DSTYLE
1002
{
1070
   340
1005
10
1070
    40
1040
1.0
1002
}
  0
DIMENSION
  5
15929
330
1A
100
AcDbEntity
  8
SUNPOU
100
AcDbDimension
  2
*D46
 10
-1690.772842386313
 20
1772.25
 30
0.0
 11
-1690.772842386313
 21
1761.749999999999
 31
0.0
 70
   160
  3
標準スタイル
100
AcDbAlignedDimension
 13
-1687.0
 23
1776.75
 33
0.0
 14
-1687.0
 24
1772.25
 34
0.0
 50
90.0
100
AcDbRotatedDimension
1001
ACAD
1000
DSTYLE
1002
{
1070
   340
1005
10
1070
    40
1040
1.0
1002
}
  0
MTEXT
  5
15989
330
1A
100
AcDbEntity
  8
ZISSEN1
100
AcDbMText
 10
-1725.038435678474
 20
1729.254013889772
 30
0.0
 40
3.5
 41
53.0531
 71
     1
 72
     5
  1
パネルカット図
1001
ACAD
1000
MTEXTBEGIN
1070
    73
1070
     1
1070
    44
1040
1.0
1070
    74
1070
     0
1000
MTEXTEND
  0
MTEXT
  5
1598A
330
1A
100
AcDbEntity
  8
ZISSEN1
100
AcDbMText
 10
-1717.790511086997
 20
1721.468352354085
 30
0.0
 40
3.5
 41
53.0531
 71
     1
 72
     5
  1
パネル裏面取り付け
1001
ACAD
1000
MTEXTBEGIN
1070
    73
1070
     1
1070
    44
1040
1.0
1070
    74
1070
     0
1000
MTEXTEND
  0
MTEXT
  5
1598B
330
1A
100
AcDbEntity
  8
ZISSEN1
100
AcDbMText
 10
-1716.884816871383
 20
1652.979222038437
 30
0.0
 40
3.5
 41
53.0531
 71
     1
 72
     5
  1
パネル表面取り付け
1001
ACAD
1000
MTEXTBEGIN
1070
    73
1070
     1
1070
    44
1040
1.0
1070
    74
1070
     0
1000
MTEXTEND
  0
MTEXT
  5
15BFD
330
1A
100
AcDbEntity
  8
ZISSEN1
100
AcDbMText
 10
-1574.572744056744
 20
1713.828006244337
 30
0.0
 40
3.5
 41
12.0385981944911
 71
     1
 72
     5
  1
角孔
1001
ACAD
1000
MTEXTBEGIN
1070
    73
1070
     1
1070
    44
1040
1.0
1070
    74
1070
     0
1000
MTEXTEND
  0
MTEXT
  5
15BFF
330
1A
100
AcDbEntity
  8
ZISSEN1
100
AcDbMText
 10
-1571.155827034062
 20
1638.373738748049
 30
0.0
 40
3.5
 41
12.0385981944911
 71
     1
 72
     5
  1
角孔
1001
ACAD
1000
MTEXTBEGIN
1070
    73
1070
     1
1070
    44
1040
1.0
1070
    74
1070
     0
1000
MTEXTEND
  0
VIEWPORT
  5
15177
330
15176
100
AcDbEntity
 67
     1
  8
0
100
AcDbViewport
 10
309.0294557538391
 20
155.4322793836401
 30
0.0
 40
697.8778875823673
 41
318.2936074103211
 68
     1
 69
     1
1001
ACAD
1000
MVIEW
1002
{
1070
    16
1010
0.0
1020
0.0
1030
0.0
1010
0.0
1020
0.0
1030
1.0
1040
0.0
1040
318.2936074103211
1040
309.0294557538391
1040
155.4322793836401
1040
50.0
1040
0.0
1040
0.0
1070
     0
1070
   100
1070
     1
1070
     0
1070
     0
1070
     0
1070
     0
1070
     0
1040
0.0
1040
0.0
1040
0.0
1040
1.0
1040
1.0
1040
10.0
1040
10.0
1070
     0
1002
{
1002
}
1002
}
  0
VIEWPORT
  5
15178
330
15176
100
AcDbEntity
 67
     1
  8
ZISSEN1
100
AcDbViewport
 10
221.7861955525412
 20
157.6960273330388
 30
0.0
 40
385.4999999999997
 41
259.9999999999999
 68
     2
 69
     2
1001
ACAD
1000
MVIEW
1002
{
1070
    16
1010
0.0
1020
0.0
1030
0.0
1010
0.0
1020
0.0
1030
1.0
1040
0.0
1040
520.0000013735565
1040
-1584.210299835703
1040
1778.64387889664
1040
50.0
1040
0.0
1040
0.0
1070
     0
1070
   100
1070
     1
1070
     0
1070
     0
1070
     0
1070
     0
1070
     0
1040
0.0
1040
0.0
1040
0.0
1040
1.0
1040
1.0
1040
10.0
1040
10.0
1070
     0
1002
{
1002
}
1002
}
  0
TEXT
  5
15179
330
15176
100
AcDbEntity
 67
     1
  8
SUNPOU
 62
     0
100
AcDbText
 10
374.1863124306944
 20
60.86794705907585
 30
0.0
 40
3.5
  1
縮尺 1/2
100
AcDbText
  0
ENDSEC
  0
SECTION
  2
OBJECTS
  0
DICTIONARY
  5
C
330
0
100
AcDbDictionary
  3
ACAD_GROUP
350
D
  3
ACAD_LAYOUT
350
5C7D
  3
ACAD_MLINESTYLE
350
E
  3
ACAD_PLOTSETTINGS
350
5C7E
  3
ACAD_PLOTSTYLENAME
350
5C7B
  3
ACDBVARIABLEDICTIONARY
350
13217
  3
DWGPROPS
350
15C13
  3
ACDBHEADERROUNDTRIPXREC
350
15C15
  0
DICTIONARY
  5
15C35
330
1A
100
AcDbDictionary
280
     1
  3
ACAD_LAYOUTSELFREF
360
15C36
  0
DICTIONARY
  5
15C37
330
15176
100
AcDbDictionary
280
     1
  3
ACAD_LAYOUTSELFREF
360
15C38
  0
DICTIONARY
  5
D
102
{ACAD_REACTORS
330
C
102
}
330
C
100
AcDbDictionary
  3
*A1
350
477D
  3
*A2
350
13853
  3
*A3
350
4C0E
  3
*A4
350
4C0F
  3
*A5
350
4C10
  3
*A6
350
4C11
  3
*A7
350
4C12
  3
*A8
350
4C13
  3
*A9
350
4C14
  3
*A10
350
4C15
  3
*A11
350
4C16
  3
*A12
350
4C17
  3
*A13
350
477E
  3
*A14
350
477F
  3
*A15
350
4780
  3
*A16
350
4781
  0
DICTIONARY
  5
5C7D
102
{ACAD_REACTORS
330
C
102
}
330
C
100
AcDbDictionary
  0
DICTIONARY
  5
E
102
{ACAD_REACTORS
330
C
102
}
330
C
100
AcDbDictionary
  3
STANDARD
350
13
  0
DICTIONARY
  5
5C7E
102
{ACAD_REACTORS
330
C
102
}
330
C
100
AcDbDictionary
  0
ACDBDICTIONARYWDFLT
  5
5C7B
102
{ACAD_REACTORS
330
C
102
}
330
C
100
AcDbDictionary
281
     1
  3
Normal
350
5C7C
100
AcDbDictionaryWithDefault
340
5C7C
  0
DICTIONARY
  5
13217
102
{ACAD_REACTORS
330
C
102
}
330
C
100
AcDbDictionary
  3
SORTENTS
350
13218
  3
INDEXCTL
350
15C09
  0
XRECORD
  5
15C13
102
{ACAD_REACTORS
330
C
102
}
330
C
100
AcDbXrecord
  1
DWGPROPS COOKIE
  2

  3

  4

  6

  7

  8

  9

300
=
301
=
302
=
303
=
304
=
305
=
306
=
307
=
308
=
309
=
 40
2.556270555555555
 41
2450495.493631365
 42
2453984.445170752
  1

 90
        0
  0
DICTIONARY
  5
15C15
102
{ACAD_REACTORS
330
C
102
}
330
C
100
AcDbDictionary
  3
TSTACKALIGN
350
15C16
  3
TSTACKSIZE
350
15C17
  3
HYPERLINKBASE
350
15C18
  3
STYLESHEET
350
15C19
  3
LAYOUTDICT
350
15C1A
  3
PLOTSETDICT
350
15C1B
  3
PLOTSTYLNAMDICT
350
15C1C
  3
LWETCUNION
350
15C1D
  3
INSUNITS
350
15C1E
  3
CEPSNTYPE
350
15C1F
  3
FINGERPRINTGUID
350
15C20
  3
VERSIONGUID
350
15C21
  3
PSVPSCALE
350
15C22
  3
PUCSORTHOREF
350
15C23
  3
PUCSORTHOVIEW
350
15C24
  3
PUCSBASE
350
15C25
  3
PUCSORGTOP
350
15C26
  3
PUCSORGBOTTOM
350
15C27
  3
PUCSORGLEFT
350
15C28
  3
PUCSORGRIGHT
350
15C29
  3
PUCSORGFRONT
350
15C2A
  3
PUCSORGBACK
350
15C2B
  3
UCSORTHOREF
350
15C2C
  3
UCSORTHOVIEW
350
15C2D
  3
UCSBASE
350
15C2E
  3
UCSORGTOP
350
15C2F
  3
UCSORGBOTTOM
350
15C30
  3
UCSORGLEFT
350
15C31
  3
UCSORGRIGHT
350
15C32
  3
UCSORGFRONT
350
15C33
  3
UCSORGBACK
350
15C34
  0
XRECORD
  5
15C36
102
{ACAD_REACTORS
330
15C35
102
}
330
15C35
100
AcDbXrecord
340
1A
  0
XRECORD
  5
15C38
102
{ACAD_REACTORS
330
15C37
102
}
330
15C37
100
AcDbXrecord
340
15176
  0
GROUP
  5
477D
102
{ACAD_REACTORS
330
D
102
}
330
D
100
AcDbGroup
300

 70
     1
 71
     1
  0
GROUP
  5
13853
102
{ACAD_REACTORS
330
D
102
}
330
D
100
AcDbGroup
300

 70
     1
 71
     1
  0
GROUP
  5
4C0E
102
{ACAD_REACTORS
330
D
102
}
330
D
100
AcDbGroup
300

 70
     1
 71
     1
  0
GROUP
  5
4C0F
102
{ACAD_REACTORS
330
D
102
}
330
D
100
AcDbGroup
300

 70
     1
 71
     1
  0
GROUP
  5
4C10
102
{ACAD_REACTORS
330
D
102
}
330
D
100
AcDbGroup
300

 70
     1
 71
     1
  0
GROUP
  5
4C11
102
{ACAD_REACTORS
330
D
102
}
330
D
100
AcDbGroup
300

 70
     1
 71
     1
  0
GROUP
  5
4C12
102
{ACAD_REACTORS
330
D
102
}
330
D
100
AcDbGroup
300

 70
     1
 71
     1
  0
GROUP
  5
4C13
102
{ACAD_REACTORS
330
D
102
}
330
D
100
AcDbGroup
300

 70
     1
 71
     1
  0
GROUP
  5
4C14
102
{ACAD_REACTORS
330
D
102
}
330
D
100
AcDbGroup
300

 70
     1
 71
     1
  0
GROUP
  5
4C15
102
{ACAD_REACTORS
330
D
102
}
330
D
100
AcDbGroup
300

 70
     1
 71
     1
  0
GROUP
  5
4C16
102
{ACAD_REACTORS
330
D
102
}
330
D
100
AcDbGroup
300

 70
     1
 71
     1
  0
GROUP
  5
4C17
102
{ACAD_REACTORS
330
D
102
}
330
D
100
AcDbGroup
300

 70
     1
 71
     1
  0
GROUP
  5
477E
102
{ACAD_REACTORS
330
D
102
}
330
D
100
AcDbGroup
300

 70
     1
 71
     1
  0
GROUP
  5
477F
102
{ACAD_REACTORS
330
D
102
}
330
D
100
AcDbGroup
300

 70
     1
 71
     1
  0
GROUP
  5
4780
102
{ACAD_REACTORS
330
D
102
}
330
D
100
AcDbGroup
300

 70
     1
 71
     1
  0
GROUP
  5
4781
102
{ACAD_REACTORS
330
D
102
}
330
D
100
AcDbGroup
300

 70
     1
 71
     1
  0
MLINESTYLE
  5
13
102
{ACAD_REACTORS
330
E
102
}
330
E
100
AcDbMlineStyle
  2
STANDARD
 70
     0
  3

 62
     0
 51
90.0
 52
90.0
 71
     2
 49
0.5
 62
   256
  6
BYLAYER
 49
-0.5
 62
   256
  6
BYLAYER
  0
ACDBPLACEHOLDER
  5
5C7C
102
{ACAD_REACTORS
330
5C7B
102
}
330
5C7B
100
AcDbPlaceHolder
280
     0
  0
DICTIONARYVAR
  5
13218
102
{ACAD_REACTORS
330
13217
102
}
330
13217
100
DictionaryVariables
280
     0
  1
96
  0
DICTIONARYVAR
  5
15C09
102
{ACAD_REACTORS
330
13217
102
}
330
13217
100
DictionaryVariables
280
     0
  1
-1
  0
XRECORD
  5
15C16
102
{ACAD_REACTORS
330
15C15
102
}
330
15C15
100
AcDbXrecord
 90
        1
  0
XRECORD
  5
15C17
102
{ACAD_REACTORS
330
15C15
102
}
330
15C15
100
AcDbXrecord
 90
       70
  0
XRECORD
  5
15C18
102
{ACAD_REACTORS
330
15C15
102
}
330
15C15
100
AcDbXrecord
  1

  0
XRECORD
  5
15C19
102
{ACAD_REACTORS
330
15C15
102
}
330
15C15
100
AcDbXrecord
  1

  0
XRECORD
  5
15C1A
102
{ACAD_REACTORS
330
15C15
102
}
330
15C15
100
AcDbXrecord
340
5C7D
  0
XRECORD
  5
15C1B
102
{ACAD_REACTORS
330
15C15
102
}
330
15C15
100
AcDbXrecord
340
5C7E
  0
XRECORD
  5
15C1C
102
{ACAD_REACTORS
330
15C15
102
}
330
15C15
100
AcDbXrecord
340
5C7B
  0
XRECORD
  5
15C1D
102
{ACAD_REACTORS
330
15C15
102
}
330
15C15
100
AcDbXrecord
 90
    10781
  0
XRECORD
  5
15C1E
102
{ACAD_REACTORS
330
15C15
102
}
330
15C15
100
AcDbXrecord
 90
        0
  0
XRECORD
  5
15C1F
102
{ACAD_REACTORS
330
15C15
102
}
330
15C15
100
AcDbXrecord
 90
        0
  0
XRECORD
  5
15C20
102
{ACAD_REACTORS
330
15C15
102
}
330
15C15
100
AcDbXrecord
  1
{225A7F0D-DA29-11D8-946A-0000E2416295}
  0
XRECORD
  5
15C21
102
{ACAD_REACTORS
330
15C15
102
}
330
15C15
100
AcDbXrecord
  1
{78C55597-0DB4-4203-99A3-C8B0090E7774}
  0
XRECORD
  5
15C22
102
{ACAD_REACTORS
330
15C15
102
}
330
15C15
100
AcDbXrecord
 40
0.0
  0
XRECORD
  5
15C23
102
{ACAD_REACTORS
330
15C15
102
}
330
15C15
100
AcDbXrecord
340
0
  0
XRECORD
  5
15C24
102
{ACAD_REACTORS
330
15C15
102
}
330
15C15
100
AcDbXrecord
 70
     0
  0
XRECORD
  5
15C25
102
{ACAD_REACTORS
330
15C15
102
}
330
15C15
100
AcDbXrecord
340
0
  0
XRECORD
  5
15C26
102
{ACAD_REACTORS
330
15C15
102
}
330
15C15
100
AcDbXrecord
 10
0.0
 20
0.0
 30
0.0
  0
XRECORD
  5
15C27
102
{ACAD_REACTORS
330
15C15
102
}
330
15C15
100
AcDbXrecord
 10
0.0
 20
0.0
 30
0.0
  0
XRECORD
  5
15C28
102
{ACAD_REACTORS
330
15C15
102
}
330
15C15
100
AcDbXrecord
 10
0.0
 20
0.0
 30
0.0
  0
XRECORD
  5
15C29
102
{ACAD_REACTORS
330
15C15
102
}
330
15C15
100
AcDbXrecord
 10
0.0
 20
0.0
 30
0.0
  0
XRECORD
  5
15C2A
102
{ACAD_REACTORS
330
15C15
102
}
330
15C15
100
AcDbXrecord
 10
0.0
 20
0.0
 30
0.0
  0
XRECORD
  5
15C2B
102
{ACAD_REACTORS
330
15C15
102
}
330
15C15
100
AcDbXrecord
 10
0.0
 20
0.0
 30
0.0
  0
XRECORD
  5
15C2C
102
{ACAD_REACTORS
330
15C15
102
}
330
15C15
100
AcDbXrecord
340
0
  0
XRECORD
  5
15C2D
102
{ACAD_REACTORS
330
15C15
102
}
330
15C15
100
AcDbXrecord
 70
     0
  0
XRECORD
  5
15C2E
102
{ACAD_REACTORS
330
15C15
102
}
330
15C15
100
AcDbXrecord
340
0
  0
XRECORD
  5
15C2F
102
{ACAD_REACTORS
330
15C15
102
}
330
15C15
100
AcDbXrecord
 10
0.0
 20
0.0
 30
0.0
  0
XRECORD
  5
15C30
102
{ACAD_REACTORS
330
15C15
102
}
330
15C15
100
AcDbXrecord
 10
0.0
 20
0.0
 30
0.0
  0
XRECORD
  5
15C31
102
{ACAD_REACTORS
330
15C15
102
}
330
15C15
100
AcDbXrecord
 10
0.0
 20
0.0
 30
0.0
  0
XRECORD
  5
15C32
102
{ACAD_REACTORS
330
15C15
102
}
330
15C15
100
AcDbXrecord
 10
0.0
 20
0.0
 30
0.0
  0
XRECORD
  5
15C33
102
{ACAD_REACTORS
330
15C15
102
}
330
15C15
100
AcDbXrecord
 10
0.0
 20
0.0
 30
0.0
  0
XRECORD
  5
15C34
102
{ACAD_REACTORS
330
15C15
102
}
330
15C15
100
AcDbXrecord
 10
0.0
 20
0.0
 30
0.0
  0
ENDSEC
  0
EOF
