  0
SECTION
  2
HEADER
  9
$ACADVER
  1
AC1014
  9
$ACADMAINTVER
 70
     9
  9
$DWGCODEPAGE
  3
ANSI_932
  9
$INSBASE
 10
0.0
 20
0.0
 30
0.0
  9
$EXTMIN
 10
-1910.274592178371
 20
1695.670276045976
 30
0.0
  9
$EXTMAX
 10
-1671.307091228716
 20
1913.392132607379
 30
0.0
  9
$LIMMIN
 10
0.0
 20
0.0
  9
$LIMMAX
 10
420.0
 20
297.0
  9
$ORTHOMODE
 70
     0
  9
$REGENMODE
 70
     1
  9
$FILLMODE
 70
     1
  9
$QTEXTMODE
 70
     0
  9
$MIRRTEXT
 70
     1
  9
$DRAGMODE
 70
     2
  9
$LTSCALE
 40
1.0
  9
$OSMODE
 70
    37
  9
$ATTMODE
 70
     1
  9
$TEXTSIZE
 40
2.5
  9
$TRACEWID
 40
1.0
  9
$TEXTSTYLE
  7
ゴシック体
  9
$CLAYER
  8
ZISSEN1
  9
$CELTYPE
  6
BYLAYER
  9
$CECOLOR
 62
   256
  9
$CELTSCALE
 40
1.0
  9
$DELOBJ
 70
     1
  9
$DISPSILH
 70
     0
  9
$DIMSCALE
 40
0.0
  9
$DIMASZ
 40
3.0
  9
$DIMEXO
 40
0.5
  9
$DIMDLI
 40
0.5
  9
$DIMRND
 40
0.0
  9
$DIMDLE
 40
0.0
  9
$DIMEXE
 40
0.5
  9
$DIMTP
 40
0.0
  9
$DIMTM
 40
0.0
  9
$DIMTXT
 40
3.5
  9
$DIMCEN
 40
0.0
  9
$DIMTSZ
 40
0.0
  9
$DIMTOL
 70
     0
  9
$DIMLIM
 70
     0
  9
$DIMTIH
 70
     0
  9
$DIMTOH
 70
     0
  9
$DIMSE1
 70
     0
  9
$DIMSE2
 70
     0
  9
$DIMTAD
 70
     1
  9
$DIMZIN
 70
     8
  9
$DIMBLK
  1

  9
$DIMASO
 70
     1
  9
$DIMSHO
 70
     1
  9
$DIMPOST
  1

  9
$DIMAPOST
  1

  9
$DIMALT
 70
     0
  9
$DIMALTD
 70
     2
  9
$DIMALTF
 40
25.4
  9
$DIMLFAC
 40
1.0
  9
$DIMTOFL
 70
     1
  9
$DIMTVP
 40
0.0
  9
$DIMTIX
 70
     0
  9
$DIMSOXD
 70
     0
  9
$DIMSAH
 70
     0
  9
$DIMBLK1
  1

  9
$DIMBLK2
  1

  9
$DIMSTYLE
  2
標準スタイル
  9
$DIMCLRD
 70
     1
  9
$DIMCLRE
 70
     1
  9
$DIMCLRT
 70
     1
  9
$DIMTFAC
 40
1.0
  9
$DIMGAP
 40
1.0
  9
$DIMJUST
 70
     0
  9
$DIMSD1
 70
     0
  9
$DIMSD2
 70
     0
  9
$DIMTOLJ
 70
     1
  9
$DIMTZIN
 70
     8
  9
$DIMALTZ
 70
     0
  9
$DIMALTTZ
 70
     0
  9
$DIMFIT
 70
     3
  9
$DIMUPT
 70
     0
  9
$DIMUNIT
 70
     2
  9
$DIMDEC
 70
     2
  9
$DIMTDEC
 70
     2
  9
$DIMALTU
 70
     2
  9
$DIMALTTD
 70
     2
  9
$DIMTXSTY
  7
ゴシック体
  9
$DIMAUNIT
 70
     0
  9
$LUNITS
 70
     2
  9
$LUPREC
 70
     4
  9
$SKETCHINC
 40
1.0
  9
$FILLETRAD
 40
0.0
  9
$AUNITS
 70
     0
  9
$AUPREC
 70
     0
  9
$MENU
  1
.
  9
$ELEVATION
 40
0.0
  9
$PELEVATION
 40
0.0
  9
$THICKNESS
 40
0.0
  9
$LIMCHECK
 70
     0
  9
$BLIPMODE
 70
     0
  9
$CHAMFERA
 40
10.0
  9
$CHAMFERB
 40
10.0
  9
$CHAMFERC
 40
2.0
  9
$CHAMFERD
 40
0.7853981633974483
  9
$SKPOLY
 70
     0
  9
$TDCREATE
 40
2450495.493631365
  9
$TDUPDATE
 40
2453984.397270509
  9
$TDINDWG
 40
1.6284666667
  9
$TDUSRTIMER
 40
1.6284664352
  9
$USRTIMER
 70
     1
  9
$ANGBASE
 50
0.0
  9
$ANGDIR
 70
     0
  9
$PDMODE
 70
    99
  9
$PDSIZE
 40
0.0
  9
$PLINEWID
 40
0.0
  9
$COORDS
 70
     1
  9
$SPLFRAME
 70
     0
  9
$SPLINETYPE
 70
     6
  9
$SPLINESEGS
 70
     8
  9
$ATTDIA
 70
     0
  9
$ATTREQ
 70
     1
  9
$HANDLING
 70
 10241
  9
$HANDSEED
  5
1254F
  9
$SURFTAB1
 70
     6
  9
$SURFTAB2
 70
     6
  9
$SURFTYPE
 70
     6
  9
$SURFU
 70
     6
  9
$SURFV
 70
     6
  9
$UCSNAME
  2

  9
$UCSORG
 10
0.0
 20
0.0
 30
0.0
  9
$UCSXDIR
 10
1.0
 20
0.0
 30
0.0
  9
$UCSYDIR
 10
0.0
 20
1.0
 30
0.0
  9
$PUCSNAME
  2

  9
$PUCSORG
 10
0.0
 20
0.0
 30
0.0
  9
$PUCSXDIR
 10
1.0
 20
0.0
 30
0.0
  9
$PUCSYDIR
 10
0.0
 20
1.0
 30
0.0
  9
$USERI1
 70
     0
  9
$USERI2
 70
     0
  9
$USERI3
 70
     0
  9
$USERI4
 70
     0
  9
$USERI5
 70
     0
  9
$USERR1
 40
0.0
  9
$USERR2
 40
0.0
  9
$USERR3
 40
0.0
  9
$USERR4
 40
0.0
  9
$USERR5
 40
0.0
  9
$WORLDVIEW
 70
     1
  9
$SHADEDGE
 70
     3
  9
$SHADEDIF
 70
    70
  9
$TILEMODE
 70
     1
  9
$MAXACTVP
 70
    16
  9
$PINSBASE
 10
0.0
 20
0.0
 30
0.0
  9
$PLIMCHECK
 70
     0
  9
$PEXTMIN
 10
29.03619555254133
 20
27.69602733303884
 30
0.0
  9
$PEXTMAX
 10
414.536195552541
 20
287.6960273330388
 30
0.0
  9
$PLIMMIN
 10
11.13088392171084
 20
6.367460636892701
  9
$PLIMMAX
 10
431.0775391951483
 20
303.3781112716583
  9
$UNITMODE
 70
     0
  9
$VISRETAIN
 70
     0
  9
$PLINEGEN
 70
     0
  9
$PSLTSCALE
 70
     1
  9
$TREEDEPTH
 70
  3020
  9
$PICKSTYLE
 70
     1
  9
$CMLSTYLE
  2
STANDARD
  9
$CMLJUST
 70
     0
  9
$CMLSCALE
 40
1.0
  9
$PROXYGRAPHICS
 70
     1
  9
$MEASUREMENT
 70
     1
  0
ENDSEC
  0
SECTION
  2
CLASSES
  0
CLASS
  1
LWPOLYLINE
  2
AcDbPolyline
  3
AutoCAD 2000
 90
        0
280
     0
281
     1
  0
CLASS
  1
HATCH
  2
AcDbHatch
  3
AutoCAD 2000
 90
        0
280
     0
281
     1
  0
CLASS
  1
ACDBDICTIONARYWDFLT
  2
AcDbDictionaryWithDefault
  3
AutoCAD 2000
 90
        0
280
     0
281
     0
  0
CLASS
  1
ACDBPLACEHOLDER
  2
AcDbPlaceHolder
  3
AutoCAD 2000
 90
        0
280
     0
281
     0
  0
CLASS
  1
LAYOUT
  2
AcDbLayout
  3
AutoCAD 2000
 90
        0
280
     0
281
     0
  0
CLASS
  1
DICTIONARYVAR
  2
AcDbDictionaryVar
  3
AutoCAD 2000
 90
        0
280
     0
281
     0
  0
CLASS
  1
LONG_TRANSACTION
  2
AcDbLongTransaction
  3
AutoCAD 2000
 90
        0
280
     0
281
     0
  0
CLASS
  1
LWPOLYLINE
  2
AcDbPolyline
  3
AutoCAD 2000
 90
        0
280
     0
281
     1
  0
CLASS
  1
HATCH
  2
AcDbHatch
  3
AutoCAD 2000
 90
        0
280
     0
281
     1
  0
CLASS
  1
XRECORD
  2
AcDbXrecord
  3
AutoCAD 2000
 90
        0
280
     0
281
     0
  0
ENDSEC
  0
SECTION
  2
TABLES
  0
TABLE
  2
VPORT
  5
8
330
0
100
AcDbSymbolTable
 70
     3
  0
VPORT
  5
1252A
330
8
100
AcDbSymbolTableRecord
100
AcDbViewportTableRecord
  2
*ACTIVE
 70
     0
 10
0.0
 20
0.0
 11
1.0
 21
1.0
 12
-1737.833185557878
 22
1793.358097322539
 13
0.0
 23
0.0
 14
5.0
 24
5.0
 15
0.0
 25
0.0
 16
0.0
 26
0.0
 36
1.0
 17
0.0
 27
0.0
 37
0.0
 40
283.2626263087141
 41
2.192560175054704
 42
50.0
 43
0.0
 44
0.0
 50
0.0
 51
0.0
 71
     0
 72
   100
 73
     1
 74
     0
 75
     0
 76
     0
 77
     0
 78
     0
  0
ENDTAB
  0
TABLE
  2
LTYPE
  5
5
330
0
100
AcDbSymbolTable
 70
    13
  0
LTYPE
  5
14
330
5
100
AcDbSymbolTableRecord
100
AcDbLinetypeTableRecord
  2
BYBLOCK
 70
     0
  3

 72
    65
 73
     0
 40
0.0
  0
LTYPE
  5
15
330
5
100
AcDbSymbolTableRecord
100
AcDbLinetypeTableRecord
  2
BYLAYER
 70
     0
  3

 72
    65
 73
     0
 40
0.0
  0
LTYPE
  5
16
330
5
100
AcDbSymbolTableRecord
100
AcDbLinetypeTableRecord
  2
CONTINUOUS
 70
     0
  3
Solid line
 72
    65
 73
     0
 40
0.0
  0
LTYPE
  5
1956
330
5
100
AcDbSymbolTableRecord
100
AcDbLinetypeTableRecord
  2
CENTERX2
 70
     0
  3
________  __  ________  __  ________  __  _____
 72
    65
 73
     4
 40
4.0
 49
2.5
 74
     0
 49
-0.5
 74
     0
 49
0.5
 74
     0
 49
-0.5
 74
     0
  0
ENDTAB
  0
TABLE
  2
LAYER
  5
2
330
0
100
AcDbSymbolTable
 70
    34
  0
LAYER
  5
F
330
2
100
AcDbSymbolTableRecord
100
AcDbLayerTableRecord
  2
0
 70
     0
 62
     7
  6
CONTINUOUS
  0
LAYER
  5
18F
330
2
100
AcDbSymbolTableRecord
100
AcDbLayerTableRecord
  2
ZISSEN1
 70
     0
 62
     7
  6
CONTINUOUS
  0
LAYER
  5
191
330
2
100
AcDbSymbolTableRecord
100
AcDbLayerTableRecord
  2
SAISEN
 70
     0
 62
     1
  6
CONTINUOUS
  0
LAYER
  5
529
330
2
100
AcDbSymbolTableRecord
100
AcDbLayerTableRecord
  2
SUNPOU
 70
     0
 62
     1
  6
CONTINUOUS
  0
LAYER
  5
195A
330
2
100
AcDbSymbolTableRecord
100
AcDbLayerTableRecord
  2
CL1
 70
     0
 62
   210
  6
CENTERX2
  0
LAYER
  5
3A9B
330
2
100
AcDbSymbolTableRecord
100
AcDbLayerTableRecord
  2
DEFPOINTS
 70
     0
 62
     7
  6
CONTINUOUS
  0
ENDTAB
  0
TABLE
  2
STYLE
  5
3
330
0
100
AcDbSymbolTable
 70
     5
  0
STYLE
  5
10
330
3
100
AcDbSymbolTableRecord
100
AcDbTextStyleTableRecord
  2
STANDARD
 70
     0
 40
0.0
 41
1.0
 50
0.0
 71
     0
 42
3.0
  3
txt
  4
BigFont
  0
STYLE
  5
1960
330
3
100
AcDbSymbolTableRecord
100
AcDbTextStyleTableRecord
  2
ゴシック体
 70
     0
 40
0.0
 41
1.0
 50
0.0
 71
     0
 42
2.5
  3
MS Gothic.ttf
  4

1001
ACAD
1000
MS Gothic
1071
    32817
  0
ENDTAB
  0
TABLE
  2
VIEW
  5
6
330
0
100
AcDbSymbolTable
 70
     0
  0
ENDTAB
  0
TABLE
  2
UCS
  5
7
330
0
100
AcDbSymbolTable
 70
     0
  0
ENDTAB
  0
TABLE
  2
APPID
  5
9
330
0
100
AcDbSymbolTable
 70
     5
  0
APPID
  5
11
330
9
100
AcDbSymbolTableRecord
100
AcDbRegAppTableRecord
  2
ACAD
 70
     0
  0
APPID
  5
4005
330
9
100
AcDbSymbolTableRecord
100
AcDbRegAppTableRecord
  2
CONTENTTABDATA
 70
     0
  0
APPID
  5
4006
330
9
100
AcDbSymbolTableRecord
100
AcDbRegAppTableRecord
  2
CONTENTCURRENTTAB
 70
     0
  0
APPID
  5
477B
330
9
100
AcDbSymbolTableRecord
100
AcDbRegAppTableRecord
  2
CONTENTBLOCKDESCRIPTION
 70
     0
  0
APPID
  5
477C
330
9
100
AcDbSymbolTableRecord
100
AcDbRegAppTableRecord
  2
CONTENTBLOCKICON
 70
     0
  0
ENDTAB
  0
TABLE
  2
DIMSTYLE
  5
A
330
0
100
AcDbSymbolTable
 70
    12
  0
DIMSTYLE
105
1D
330
A
100
AcDbSymbolTableRecord
100
AcDbDimStyleTableRecord
  2
STANDARD
 70
     0
  3

  4

  5

  6

  7

 40
1.0
 41
0.18
 42
0.0625
 43
0.38
 44
0.18
 45
0.0
 46
0.0
 47
0.0
 48
0.0
140
0.18
141
0.09
142
0.0
143
25.4
144
1.0
145
0.0
146
1.0
147
0.09
 71
     0
 72
     0
 73
     1
 74
     1
 75
     0
 76
     0
 77
     0
 78
     0
170
     0
171
     2
172
     0
173
     0
174
     0
175
     0
176
     0
177
     0
178
     0
270
     2
271
     4
272
     4
273
     2
274
     2
340
10
275
     0
280
     0
281
     0
282
     0
283
     1
284
     0
285
     0
286
     0
287
     3
288
     0
  0
DIMSTYLE
105
52E
102
{ACAD_REACTORS
330
12311
330
1232D
330
1233C
330
12349
330
12356
330
12365
330
12374
330
12383
330
1238F
330
1239F
330
123B1
330
123C0
330
123DC
330
123EB
330
12407
330
12414
330
12423
330
12430
330
12486
330
12495
330
124A4
102
}
330
A
100
AcDbSymbolTableRecord
100
AcDbDimStyleTableRecord
  2
標準スタイル
 70
     0
  3

  4

  5

  6

  7

 40
0.0
 41
3.0
 42
0.5
 43
0.5
 44
0.5
 45
0.0
 46
0.0
 47
0.0
 48
0.0
140
3.5
141
0.0
142
0.0
143
25.4
144
1.0
145
0.0
146
1.0
147
1.0
 71
     0
 72
     0
 73
     0
 74
     0
 75
     0
 76
     0
 77
     1
 78
     8
170
     0
171
     2
172
     1
173
     0
174
     0
175
     0
176
     1
177
     1
178
     1
270
     2
271
     2
272
     2
273
     2
274
     2
340
1960
275
     0
280
     0
281
     0
282
     0
283
     1
284
     8
285
     0
286
     0
287
     3
288
     0
  0
ENDTAB
  0
TABLE
  2
BLOCK_RECORD
  5
1
330
0
100
AcDbSymbolTable
 70
    44
  0
BLOCK_RECORD
  5
1A
102
{ACAD_XDICTIONARY
360
1254B
102
}
330
1
100
AcDbSymbolTableRecord
100
AcDbBlockTableRecord
  2
*MODEL_SPACE
  0
BLOCK_RECORD
  5
5D8E
102
{ACAD_XDICTIONARY
360
1254D
102
}
330
1
100
AcDbSymbolTableRecord
100
AcDbBlockTableRecord
  2
*PAPER_SPACE
  0
BLOCK_RECORD
  5
12312
330
1
100
AcDbSymbolTableRecord
100
AcDbBlockTableRecord
  2
*D23
  0
BLOCK_RECORD
  5
1232E
330
1
100
AcDbSymbolTableRecord
100
AcDbBlockTableRecord
  2
*D24
  0
BLOCK_RECORD
  5
1233D
330
1
100
AcDbSymbolTableRecord
100
AcDbBlockTableRecord
  2
*D25
  0
BLOCK_RECORD
  5
1234A
330
1
100
AcDbSymbolTableRecord
100
AcDbBlockTableRecord
  2
*D26
  0
BLOCK_RECORD
  5
12357
330
1
100
AcDbSymbolTableRecord
100
AcDbBlockTableRecord
  2
*D27
  0
BLOCK_RECORD
  5
12366
330
1
100
AcDbSymbolTableRecord
100
AcDbBlockTableRecord
  2
*D28
  0
BLOCK_RECORD
  5
12375
330
1
100
AcDbSymbolTableRecord
100
AcDbBlockTableRecord
  2
*D29
  0
BLOCK_RECORD
  5
12384
330
1
100
AcDbSymbolTableRecord
100
AcDbBlockTableRecord
  2
*D30
  0
BLOCK_RECORD
  5
12390
330
1
100
AcDbSymbolTableRecord
100
AcDbBlockTableRecord
  2
*D31
  0
BLOCK_RECORD
  5
123A0
330
1
100
AcDbSymbolTableRecord
100
AcDbBlockTableRecord
  2
*D32
  0
BLOCK_RECORD
  5
123B2
330
1
100
AcDbSymbolTableRecord
100
AcDbBlockTableRecord
  2
*D33
  0
BLOCK_RECORD
  5
123C1
330
1
100
AcDbSymbolTableRecord
100
AcDbBlockTableRecord
  2
*D34
  0
BLOCK_RECORD
  5
123DD
330
1
100
AcDbSymbolTableRecord
100
AcDbBlockTableRecord
  2
*D35
  0
BLOCK_RECORD
  5
123EC
330
1
100
AcDbSymbolTableRecord
100
AcDbBlockTableRecord
  2
*D36
  0
BLOCK_RECORD
  5
12408
330
1
100
AcDbSymbolTableRecord
100
AcDbBlockTableRecord
  2
*D37
  0
BLOCK_RECORD
  5
12415
330
1
100
AcDbSymbolTableRecord
100
AcDbBlockTableRecord
  2
*D38
  0
BLOCK_RECORD
  5
12424
330
1
100
AcDbSymbolTableRecord
100
AcDbBlockTableRecord
  2
*D39
  0
BLOCK_RECORD
  5
12431
330
1
100
AcDbSymbolTableRecord
100
AcDbBlockTableRecord
  2
*D40
  0
BLOCK_RECORD
  5
12487
330
1
100
AcDbSymbolTableRecord
100
AcDbBlockTableRecord
  2
*D41
  0
BLOCK_RECORD
  5
12496
330
1
100
AcDbSymbolTableRecord
100
AcDbBlockTableRecord
  2
*D42
  0
BLOCK_RECORD
  5
124A5
330
1
100
AcDbSymbolTableRecord
100
AcDbBlockTableRecord
  2
*D43
  0
ENDTAB
  0
ENDSEC
  0
SECTION
  2
BLOCKS
  0
BLOCK
  5
1B
330
1A
100
AcDbEntity
  8
0
100
AcDbBlockBegin
  2
*MODEL_SPACE
 70
     0
 10
0.0
 20
0.0
 30
0.0
  3
*MODEL_SPACE
  1

  0
ENDBLK
  5
1C
330
1A
100
AcDbEntity
  8
0
100
AcDbBlockEnd
  0
BLOCK
  5
5E60
330
5D8E
100
AcDbEntity
 67
     1
  8
0
100
AcDbBlockBegin
  2
*PAPER_SPACE
 70
     0
 10
0.0
 20
0.0
 30
0.0
  3
*PAPER_SPACE
  1

  0
ENDBLK
  5
5E61
330
5D8E
100
AcDbEntity
 67
     1
  8
0
100
AcDbBlockEnd
  0
BLOCK
  5
1231C
330
12312
100
AcDbEntity
  8
0
100
AcDbBlockBegin
  2
*D23
 70
     1
 10
0.0
 20
0.0
 30
0.0
  3
*D23
  1

  0
LINE
  5
12313
330
12312
100
AcDbEntity
  8
ZISSEN1
 62
     1
100
AcDbLine
 10
-1876.455741228715
 20
1894.354776154489
 30
0.0
 11
-1888.178243873506
 21
1894.354776154489
 31
0.0
  0
LINE
  5
12314
330
12312
100
AcDbEntity
  8
ZISSEN1
 62
     1
100
AcDbLine
 10
-1872.455740228716
 20
1875.354786154489
 30
0.0
 11
-1888.178243873506
 21
1875.354786154489
 31
0.0
  0
LINE
  5
12315
330
12312
100
AcDbEntity
  8
ZISSEN1
 62
     1
100
AcDbLine
 10
-1887.678243873504
 20
1891.354776154489
 30
0.0
 11
-1887.678243873504
 21
1878.354786154489
 31
0.0
  0
SOLID
  5
12316
330
12312
100
AcDbEntity
  8
ZISSEN1
 62
     1
100
AcDbTrace
 10
-1888.178243873506
 20
1891.354776154489
 30
0.0
 11
-1887.178243873506
 21
1891.354776154489
 31
0.0
 12
-1887.678243873504
 22
1894.354776154489
 32
0.0
 13
-1887.678243873504
 23
1894.354776154489
 33
0.0
  0
SOLID
  5
12317
330
12312
100
AcDbEntity
  8
ZISSEN1
 62
     1
100
AcDbTrace
 10
-1888.178243873506
 20
1878.354786154489
 30
0.0
 11
-1887.178243873506
 21
1878.354786154489
 31
0.0
 12
-1887.678243873504
 22
1875.354786154489
 32
0.0
 13
-1887.678243873504
 23
1875.354786154489
 33
0.0
  0
MTEXT
  5
12318
330
12312
100
AcDbEntity
  8
ZISSEN1
 62
     1
100
AcDbMText
 10
-1890.428243873506
 20
1884.854781154489
 30
0.0
 40
3.5
 41
0.0
 71
     5
 72
     1
  1
\A1;19
  7
ゴシック体
 11
0.0000000000000001
 21
1.0
 31
0.0
1001
ACAD
1000
MTEXTBEGIN
1070
    73
1070
     1
1070
    44
1040
1.0
1070
    74
1070
     0
1000
MTEXTEND
  0
POINT
  5
12319
330
12312
100
AcDbEntity
  8
DEFPOINTS
 62
     0
100
AcDbPoint
 10
-1875.955741228716
 20
1894.354776154489
 30
0.0
  0
POINT
  5
1231A
330
12312
100
AcDbEntity
  8
DEFPOINTS
 62
     0
100
AcDbPoint
 10
-1871.955740228716
 20
1875.354786154489
 30
0.0
  0
POINT
  5
1231B
330
12312
100
AcDbEntity
  8
DEFPOINTS
 62
     0
100
AcDbPoint
 10
-1887.678243873504
 20
1875.354786154489
 30
0.0
  0
ENDBLK
  5
1231D
330
12312
100
AcDbEntity
  8
0
100
AcDbBlockEnd
  0
BLOCK
  5
1233A
330
1232E
100
AcDbEntity
  8
0
100
AcDbBlockBegin
  2
*D24
 70
     1
 10
0.0
 20
0.0
 30
0.0
  3
*D24
  1

  0
LINE
  5
1232F
330
1232E
100
AcDbEntity
  8
ZISSEN1
 62
     1
100
AcDbLine
 10
-1872.455740228716
 20
1875.354786154489
 30
0.0
 11
-1888.178243873506
 21
1875.354786154489
 31
0.0
  0
LINE
  5
12330
330
1232E
100
AcDbEntity
  8
ZISSEN1
 62
     1
100
AcDbLine
 10
-1872.455740228716
 20
1869.354766154489
 30
0.0
 11
-1888.178243873506
 21
1869.354766154489
 31
0.0
  0
LINE
  5
12331
330
1232E
100
AcDbEntity
  8
ZISSEN1
 62
     1
100
AcDbLine
 10
-1887.678243873504
 20
1878.354786154489
 30
0.0
 11
-1887.678243873504
 21
1881.354786154489
 31
0.0
  0
LINE
  5
12332
330
1232E
100
AcDbEntity
  8
ZISSEN1
 62
     1
100
AcDbLine
 10
-1887.678243873504
 20
1866.354766154489
 30
0.0
 11
-1887.678243873504
 21
1863.354766154489
 31
0.0
  0
LINE
  5
12333
330
1232E
100
AcDbEntity
  8
ZISSEN1
 62
     1
100
AcDbLine
 10
-1887.678243873504
 20
1875.354786154489
 30
0.0
 11
-1887.678243873504
 21
1869.354766154489
 31
0.0
  0
SOLID
  5
12334
330
1232E
100
AcDbEntity
  8
ZISSEN1
 62
     1
100
AcDbTrace
 10
-1888.178243873506
 20
1878.354786154489
 30
0.0
 11
-1887.178243873506
 21
1878.354786154489
 31
0.0
 12
-1887.678243873504
 22
1875.354786154489
 32
0.0
 13
-1887.678243873504
 23
1875.354786154489
 33
0.0
  0
SOLID
  5
12335
330
1232E
100
AcDbEntity
  8
ZISSEN1
 62
     1
100
AcDbTrace
 10
-1888.178243873506
 20
1866.354766154489
 30
0.0
 11
-1887.178243873506
 21
1866.354766154489
 31
0.0
 12
-1887.678243873504
 22
1869.354766154489
 32
0.0
 13
-1887.678243873504
 23
1869.354766154489
 33
0.0
  0
MTEXT
  5
12336
330
1232E
100
AcDbEntity
  8
ZISSEN1
 62
     1
100
AcDbMText
 10
-1890.428243873506
 20
1872.354776154489
 30
0.0
 40
3.5
 41
0.0
 71
     5
 72
     1
  1
\A1;6
  7
ゴシック体
 11
0.0000000000000001
 21
1.0
 31
0.0
1001
ACAD
1000
MTEXTBEGIN
1070
    73
1070
     1
1070
    44
1040
1.0
1070
    74
1070
     0
1000
MTEXTEND
  0
POINT
  5
12337
330
1232E
100
AcDbEntity
  8
DEFPOINTS
 62
     0
100
AcDbPoint
 10
-1871.955740228716
 20
1875.354786154489
 30
0.0
  0
POINT
  5
12338
330
1232E
100
AcDbEntity
  8
DEFPOINTS
 62
     0
100
AcDbPoint
 10
-1871.955740228716
 20
1869.354766154489
 30
0.0
  0
POINT
  5
12339
330
1232E
100
AcDbEntity
  8
DEFPOINTS
 62
     0
100
AcDbPoint
 10
-1887.678243873504
 20
1869.354766154489
 30
0.0
  0
ENDBLK
  5
1233B
330
1232E
100
AcDbEntity
  8
0
100
AcDbBlockEnd
  0
BLOCK
  5
12347
330
1233D
100
AcDbEntity
  8
0
100
AcDbBlockBegin
  2
*D25
 70
     1
 10
0.0
 20
0.0
 30
0.0
  3
*D25
  1

  0
LINE
  5
1233E
330
1233D
100
AcDbEntity
  8
ZISSEN1
 62
     1
100
AcDbLine
 10
-1872.455740228716
 20
1869.354766154489
 30
0.0
 11
-1888.178243873506
 21
1869.354766154489
 31
0.0
  0
LINE
  5
1233F
330
1233D
100
AcDbEntity
  8
ZISSEN1
 62
     1
100
AcDbLine
 10
-1868.455741228714
 20
1854.354766154489
 30
0.0
 11
-1888.178243873506
 21
1854.354766154489
 31
0.0
  0
LINE
  5
12340
330
1233D
100
AcDbEntity
  8
ZISSEN1
 62
     1
100
AcDbLine
 10
-1887.678243873504
 20
1866.354766154489
 30
0.0
 11
-1887.678243873504
 21
1857.354766154489
 31
0.0
  0
SOLID
  5
12341
330
1233D
100
AcDbEntity
  8
ZISSEN1
 62
     1
100
AcDbTrace
 10
-1888.178243873506
 20
1866.354766154489
 30
0.0
 11
-1887.178243873506
 21
1866.354766154489
 31
0.0
 12
-1887.678243873504
 22
1869.354766154489
 32
0.0
 13
-1887.678243873504
 23
1869.354766154489
 33
0.0
  0
SOLID
  5
12342
330
1233D
100
AcDbEntity
  8
ZISSEN1
 62
     1
100
AcDbTrace
 10
-1888.178243873506
 20
1857.354766154489
 30
0.0
 11
-1887.178243873506
 21
1857.354766154489
 31
0.0
 12
-1887.678243873504
 22
1854.354766154489
 32
0.0
 13
-1887.678243873504
 23
1854.354766154489
 33
0.0
  0
MTEXT
  5
12343
330
1233D
100
AcDbEntity
  8
ZISSEN1
 62
     1
100
AcDbMText
 10
-1890.428243873506
 20
1861.854766154489
 30
0.0
 40
3.5
 41
0.0
 71
     5
 72
     1
  1
\A1;15
  7
ゴシック体
 11
0.0000000000000001
 21
1.0
 31
0.0
1001
ACAD
1000
MTEXTBEGIN
1070
    73
1070
     1
1070
    44
1040
1.0
1070
    74
1070
     0
1000
MTEXTEND
  0
POINT
  5
12344
330
1233D
100
AcDbEntity
  8
DEFPOINTS
 62
     0
100
AcDbPoint
 10
-1871.955740228716
 20
1869.354766154489
 30
0.0
  0
POINT
  5
12345
330
1233D
100
AcDbEntity
  8
DEFPOINTS
 62
     0
100
AcDbPoint
 10
-1867.955741228715
 20
1854.354766154489
 30
0.0
  0
POINT
  5
12346
330
1233D
100
AcDbEntity
  8
DEFPOINTS
 62
     0
100
AcDbPoint
 10
-1887.678243873504
 20
1854.354766154489
 30
0.0
  0
ENDBLK
  5
12348
330
1233D
100
AcDbEntity
  8
0
100
AcDbBlockEnd
  0
BLOCK
  5
12354
330
1234A
100
AcDbEntity
  8
0
100
AcDbBlockBegin
  2
*D26
 70
     1
 10
0.0
 20
0.0
 30
0.0
  3
*D26
  1

  0
LINE
  5
1234B
330
1234A
100
AcDbEntity
  8
ZISSEN1
 62
     1
100
AcDbLine
 10
-1876.455741228715
 20
1894.354776154489
 30
0.0
 11
-1905.865962736745
 21
1894.354776154489
 31
0.0
  0
LINE
  5
1234C
330
1234A
100
AcDbEntity
  8
ZISSEN1
 62
     1
100
AcDbLine
 10
-1868.455741228714
 20
1854.354766154489
 30
0.0
 11
-1905.865962736745
 21
1854.354766154489
 31
0.0
  0
LINE
  5
1234D
330
1234A
100
AcDbEntity
  8
ZISSEN1
 62
     1
100
AcDbLine
 10
-1905.365962736746
 20
1891.354776154489
 30
0.0
 11
-1905.365962736746
 21
1857.354766154489
 31
0.0
  0
SOLID
  5
1234E
330
1234A
100
AcDbEntity
  8
ZISSEN1
 62
     1
100
AcDbTrace
 10
-1905.865962736745
 20
1891.354776154489
 30
0.0
 11
-1904.865962736747
 21
1891.354776154489
 31
0.0
 12
-1905.365962736746
 22
1894.354776154489
 32
0.0
 13
-1905.365962736746
 23
1894.354776154489
 33
0.0
  0
SOLID
  5
1234F
330
1234A
100
AcDbEntity
  8
ZISSEN1
 62
     1
100
AcDbTrace
 10
-1905.865962736745
 20
1857.354766154489
 30
0.0
 11
-1904.865962736747
 21
1857.354766154489
 31
0.0
 12
-1905.365962736746
 22
1854.354766154489
 32
0.0
 13
-1905.365962736746
 23
1854.354766154489
 33
0.0
  0
MTEXT
  5
12350
330
1234A
100
AcDbEntity
  8
ZISSEN1
 62
     1
100
AcDbMText
 10
-1908.115962736747
 20
1874.354771154489
 30
0.0
 40
3.5
 41
0.0
 71
     5
 72
     1
  1
\A1;40
  7
ゴシック体
 11
0.0000000000000001
 21
1.0
 31
0.0
1001
ACAD
1000
MTEXTBEGIN
1070
    73
1070
     1
1070
    44
1040
1.0
1070
    74
1070
     0
1000
MTEXTEND
  0
POINT
  5
12351
330
1234A
100
AcDbEntity
  8
DEFPOINTS
 62
     0
100
AcDbPoint
 10
-1875.955741228716
 20
1894.354776154489
 30
0.0
  0
POINT
  5
12352
330
1234A
100
AcDbEntity
  8
DEFPOINTS
 62
     0
100
AcDbPoint
 10
-1867.955741228715
 20
1854.354766154489
 30
0.0
  0
POINT
  5
12353
330
1234A
100
AcDbEntity
  8
DEFPOINTS
 62
     0
100
AcDbPoint
 10
-1905.365962736746
 20
1854.354766154489
 30
0.0
  0
ENDBLK
  5
12355
330
1234A
100
AcDbEntity
  8
0
100
AcDbBlockEnd
  0
BLOCK
  5
12363
330
12357
100
AcDbEntity
  8
0
100
AcDbBlockBegin
  2
*D27
 70
     1
 10
0.0
 20
0.0
 30
0.0
  3
*D27
  1

  0
LINE
  5
12358
330
12357
100
AcDbEntity
  8
ZISSEN1
 62
     1
100
AcDbLine
 10
-1868.455741228714
 20
1854.354766154489
 30
0.0
 11
-1905.865962736745
 21
1854.354766154489
 31
0.0
  0
LINE
  5
12359
330
12357
100
AcDbEntity
  8
ZISSEN1
 62
     1
100
AcDbLine
 10
-1849.455741228715
 20
1851.354756154489
 30
0.0
 11
-1905.865962736745
 21
1851.354756154489
 31
0.0
  0
LINE
  5
1235A
330
12357
100
AcDbEntity
  8
ZISSEN1
 62
     1
100
AcDbLine
 10
-1905.365962736746
 20
1857.354766154489
 30
0.0
 11
-1905.365962736746
 21
1860.354766154489
 31
0.0
  0
LINE
  5
1235B
330
12357
100
AcDbEntity
  8
ZISSEN1
 62
     1
100
AcDbLine
 10
-1905.365962736746
 20
1848.354756154489
 30
0.0
 11
-1905.365962736746
 21
1841.542573413372
 31
0.0
  0
LINE
  5
1235C
330
12357
100
AcDbEntity
  8
ZISSEN1
 62
     1
100
AcDbLine
 10
-1905.365962736746
 20
1854.354766154489
 30
0.0
 11
-1905.365962736746
 21
1851.354756154489
 31
0.0
  0
SOLID
  5
1235D
330
12357
100
AcDbEntity
  8
ZISSEN1
 62
     1
100
AcDbTrace
 10
-1905.865962736745
 20
1857.354766154489
 30
0.0
 11
-1904.865962736747
 21
1857.354766154489
 31
0.0
 12
-1905.365962736746
 22
1854.354766154489
 32
0.0
 13
-1905.365962736746
 23
1854.354766154489
 33
0.0
  0
SOLID
  5
1235E
330
12357
100
AcDbEntity
  8
ZISSEN1
 62
     1
100
AcDbTrace
 10
-1905.865962736745
 20
1848.354756154489
 30
0.0
 11
-1904.865962736747
 21
1848.354756154489
 31
0.0
 12
-1905.365962736746
 22
1851.354756154489
 32
0.0
 13
-1905.365962736746
 23
1851.354756154489
 33
0.0
  0
MTEXT
  5
1235F
330
12357
100
AcDbEntity
  8
ZISSEN1
 62
     1
100
AcDbMText
 10
-1908.115962736747
 20
1843.44866478393
 30
0.0
 40
3.5
 41
0.0
 71
     5
 72
     1
  1
\A1;3
  7
ゴシック体
 11
0.0000000000000001
 21
1.0
 31
0.0
1001
ACAD
1000
MTEXTBEGIN
1070
    73
1070
     1
1070
    44
1040
1.0
1070
    74
1070
     0
1000
MTEXTEND
  0
POINT
  5
12360
330
12357
100
AcDbEntity
  8
DEFPOINTS
 62
     0
100
AcDbPoint
 10
-1867.955741228715
 20
1854.354766154489
 30
0.0
  0
POINT
  5
12361
330
12357
100
AcDbEntity
  8
DEFPOINTS
 62
     0
100
AcDbPoint
 10
-1848.955741228715
 20
1851.354756154489
 30
0.0
  0
POINT
  5
12362
330
12357
100
AcDbEntity
  8
DEFPOINTS
 62
     0
100
AcDbPoint
 10
-1905.365962736746
 20
1851.354756154489
 30
0.0
  0
ENDBLK
  5
12364
330
12357
100
AcDbEntity
  8
0
100
AcDbBlockEnd
  0
BLOCK
  5
12372
330
12366
100
AcDbEntity
  8
0
100
AcDbBlockBegin
  2
*D28
 70
     1
 10
0.0
 20
0.0
 30
0.0
  3
*D28
  1

  0
LINE
  5
12367
330
12366
100
AcDbEntity
  8
ZISSEN1
 62
     1
100
AcDbLine
 10
-1775.455741228714
 20
1871.104756154489
 30
0.0
 11
-1762.687766207235
 21
1871.104756154489
 31
0.0
  0
LINE
  5
12368
330
12366
100
AcDbEntity
  8
ZISSEN1
 62
     1
100
AcDbLine
 10
-1775.455741228714
 20
1867.604776154489
 30
0.0
 11
-1762.687766207235
 21
1867.604776154489
 31
0.0
  0
LINE
  5
12369
330
12366
100
AcDbEntity
  8
ZISSEN1
 62
     1
100
AcDbLine
 10
-1763.187766207235
 20
1874.104756154489
 30
0.0
 11
-1763.187766207235
 21
1877.104756154489
 31
0.0
  0
LINE
  5
1236A
330
12366
100
AcDbEntity
  8
ZISSEN1
 62
     1
100
AcDbLine
 10
-1763.187766207235
 20
1864.604776154489
 30
0.0
 11
-1763.187766207235
 21
1853.244370063118
 31
0.0
  0
LINE
  5
1236B
330
12366
100
AcDbEntity
  8
ZISSEN1
 62
     1
100
AcDbLine
 10
-1763.187766207235
 20
1871.104756154489
 30
0.0
 11
-1763.187766207235
 21
1867.604776154489
 31
0.0
  0
SOLID
  5
1236C
330
12366
100
AcDbEntity
  8
ZISSEN1
 62
     1
100
AcDbTrace
 10
-1763.687766207235
 20
1874.104756154489
 30
0.0
 11
-1762.687766207235
 21
1874.104756154489
 31
0.0
 12
-1763.187766207235
 22
1871.104756154489
 32
0.0
 13
-1763.187766207235
 23
1871.104756154489
 33
0.0
  0
SOLID
  5
1236D
330
12366
100
AcDbEntity
  8
ZISSEN1
 62
     1
100
AcDbTrace
 10
-1763.687766207235
 20
1864.604776154489
 30
0.0
 11
-1762.687766207235
 21
1864.604776154489
 31
0.0
 12
-1763.187766207235
 22
1867.604776154489
 32
0.0
 13
-1763.187766207235
 23
1867.604776154489
 33
0.0
  0
MTEXT
  5
1236E
330
12366
100
AcDbEntity
  8
ZISSEN1
 62
     1
100
AcDbMText
 10
-1765.937766207236
 20
1857.424573108804
 30
0.0
 40
3.5
 41
0.0
 71
     5
 72
     1
  1
\A1;3.5
  7
ゴシック体
 11
0.0000000000000001
 21
1.0
 31
0.0
1001
ACAD
1000
MTEXTBEGIN
1070
    73
1070
     1
1070
    44
1040
1.0
1070
    74
1070
     0
1000
MTEXTEND
  0
POINT
  5
1236F
330
12366
100
AcDbEntity
  8
DEFPOINTS
 62
     0
100
AcDbPoint
 10
-1775.955741228715
 20
1871.104756154489
 30
0.0
  0
POINT
  5
12370
330
12366
100
AcDbEntity
  8
DEFPOINTS
 62
     0
100
AcDbPoint
 10
-1775.955741228715
 20
1867.604776154489
 30
0.0
  0
POINT
  5
12371
330
12366
100
AcDbEntity
  8
DEFPOINTS
 62
     0
100
AcDbPoint
 10
-1763.187766207235
 20
1867.604776154489
 30
0.0
  0
ENDBLK
  5
12373
330
12366
100
AcDbEntity
  8
0
100
AcDbBlockEnd
  0
BLOCK
  5
12381
330
12375
100
AcDbEntity
  8
0
100
AcDbBlockBegin
  2
*D29
 70
     1
 10
0.0
 20
0.0
 30
0.0
  3
*D29
  1

  0
LINE
  5
12376
330
12375
100
AcDbEntity
  8
ZISSEN1
 62
     1
100
AcDbLine
 10
-1875.955741228716
 20
1858.268996154489
 30
0.0
 11
-1875.955741228716
 21
1838.125021644596
 31
0.0
  0
LINE
  5
12377
330
12375
100
AcDbEntity
  8
ZISSEN1
 62
     1
100
AcDbLine
 10
-1871.955740228716
 20
1874.854786154489
 30
0.0
 11
-1871.955740228716
 21
1838.125021644596
 31
0.0
  0
LINE
  5
12378
330
12375
100
AcDbEntity
  8
ZISSEN1
 62
     1
100
AcDbLine
 10
-1878.955741228716
 20
1838.625021644596
 30
0.0
 11
-1881.955741228716
 21
1838.625021644596
 31
0.0
  0
LINE
  5
12379
330
12375
100
AcDbEntity
  8
ZISSEN1
 62
     1
100
AcDbLine
 10
-1868.955740228716
 20
1838.625021644596
 30
0.0
 11
-1865.955740228716
 21
1838.625021644596
 31
0.0
  0
LINE
  5
1237A
330
12375
100
AcDbEntity
  8
ZISSEN1
 62
     1
100
AcDbLine
 10
-1875.955741228716
 20
1838.625021644596
 30
0.0
 11
-1871.955740228716
 21
1838.625021644596
 31
0.0
  0
SOLID
  5
1237B
330
12375
100
AcDbEntity
  8
ZISSEN1
 62
     1
100
AcDbTrace
 10
-1878.955741228716
 20
1839.125021644596
 30
0.0
 11
-1878.955741228716
 21
1838.125021644596
 31
0.0
 12
-1875.955741228716
 22
1838.625021644596
 32
0.0
 13
-1875.955741228716
 23
1838.625021644596
 33
0.0
  0
SOLID
  5
1237C
330
12375
100
AcDbEntity
  8
ZISSEN1
 62
     1
100
AcDbTrace
 10
-1868.955740228716
 20
1839.125021644596
 30
0.0
 11
-1868.955740228716
 21
1838.125021644596
 31
0.0
 12
-1871.955740228716
 22
1838.625021644596
 32
0.0
 13
-1871.955740228716
 23
1838.625021644596
 33
0.0
  0
MTEXT
  5
1237D
330
12375
100
AcDbEntity
  8
ZISSEN1
 62
     1
100
AcDbMText
 10
-1873.955740728716
 20
1841.375021644596
 30
0.0
 40
3.5
 41
0.0
 71
     5
 72
     1
  1
\A1;4
  7
ゴシック体
1001
ACAD
1000
MTEXTBEGIN
1070
    73
1070
     1
1070
    44
1040
1.0
1070
    74
1070
     0
1000
MTEXTEND
  0
POINT
  5
1237E
330
12375
100
AcDbEntity
  8
DEFPOINTS
 62
     0
100
AcDbPoint
 10
-1875.955741228716
 20
1858.768996154489
 30
0.0
  0
POINT
  5
1237F
330
12375
100
AcDbEntity
  8
DEFPOINTS
 62
     0
100
AcDbPoint
 10
-1871.955740228716
 20
1875.354786154489
 30
0.0
  0
POINT
  5
12380
330
12375
100
AcDbEntity
  8
DEFPOINTS
 62
     0
100
AcDbPoint
 10
-1871.955740228716
 20
1838.625021644596
 30
0.0
  0
ENDBLK
  5
12382
330
12375
100
AcDbEntity
  8
0
100
AcDbBlockEnd
  0
BLOCK
  5
1238D
330
12384
100
AcDbEntity
  8
0
100
AcDbBlockBegin
  2
*D30
 70
     1
 10
0.0
 20
0.0
 30
0.0
  3
*D30
  1

  0
LINE
  5
1247C
330
12384
100
AcDbEntity
  8
ZISSEN1
 62
     1
100
AcDbLine
 10
-1779.955741228715
 20
1868.854766154489
 30
0.0
 11
-1779.955741228715
 21
1838.125021644596
 31
0.0
  0
LINE
  5
1247D
330
12384
100
AcDbEntity
  8
ZISSEN1
 62
     1
100
AcDbLine
 10
-1868.955740228716
 20
1838.625021644596
 30
0.0
 11
-1782.955741228716
 21
1838.625021644596
 31
0.0
  0
SOLID
  5
1247E
330
12384
100
AcDbEntity
  8
ZISSEN1
 62
     1
100
AcDbTrace
 10
-1868.955740228716
 20
1839.125021644596
 30
0.0
 11
-1868.955740228716
 21
1838.125021644596
 31
0.0
 12
-1871.955740228716
 22
1838.625021644596
 32
0.0
 13
-1871.955740228716
 23
1838.625021644596
 33
0.0
  0
SOLID
  5
1247F
330
12384
100
AcDbEntity
  8
ZISSEN1
 62
     1
100
AcDbTrace
 10
-1782.955741228716
 20
1839.125021644596
 30
0.0
 11
-1782.955741228716
 21
1838.125021644596
 31
0.0
 12
-1779.955741228715
 22
1838.625021644596
 32
0.0
 13
-1779.955741228715
 23
1838.625021644596
 33
0.0
  0
MTEXT
  5
12480
330
12384
100
AcDbEntity
  8
ZISSEN1
 62
     1
100
AcDbMText
 10
-1825.955740728715
 20
1841.59710286287
 30
0.0
 40
3.5
 41
0.0
 71
     5
 72
     1
  1
\A1;92（USER取付ﾋﾟｯﾁ）
  7
ゴシック体
1001
ACAD
1000
MTEXTBEGIN
1070
    73
1070
     1
1070
    44
1040
1.0
1070
    74
1070
     0
1000
MTEXTEND
  0
POINT
  5
12481
330
12384
100
AcDbEntity
  8
DEFPOINTS
 62
     0
100
AcDbPoint
 10
-1871.955740228716
 20
1838.625021644596
 30
0.0
  0
POINT
  5
12482
330
12384
100
AcDbEntity
  8
DEFPOINTS
 62
     0
100
AcDbPoint
 10
-1779.955741228715
 20
1869.354766154489
 30
0.0
  0
POINT
  5
12483
330
12384
100
AcDbEntity
  8
DEFPOINTS
 62
     0
100
AcDbPoint
 10
-1779.955741228715
 20
1838.625021644596
 30
0.0
  0
ENDBLK
  5
1238E
330
12384
100
AcDbEntity
  8
0
100
AcDbBlockEnd
  0
BLOCK
  5
1239B
330
12390
100
AcDbEntity
  8
0
100
AcDbBlockBegin
  2
*D31
 70
     1
 10
0.0
 20
0.0
 30
0.0
  3
*D31
  1

  0
LINE
  5
12391
330
12390
100
AcDbEntity
  8
ZISSEN1
 62
     1
100
AcDbLine
 10
-1775.955741228715
 20
1858.268996154489
 30
0.0
 11
-1775.955741228715
 21
1838.125021644596
 31
0.0
  0
LINE
  5
12392
330
12390
100
AcDbEntity
  8
ZISSEN1
 62
     1
100
AcDbLine
 10
-1782.955741228716
 20
1838.625021644596
 30
0.0
 11
-1785.955741228716
 21
1838.625021644596
 31
0.0
  0
LINE
  5
12393
330
12390
100
AcDbEntity
  8
ZISSEN1
 62
     1
100
AcDbLine
 10
-1772.955741228716
 20
1838.625021644596
 30
0.0
 11
-1769.955741228716
 21
1838.625021644596
 31
0.0
  0
LINE
  5
12394
330
12390
100
AcDbEntity
  8
ZISSEN1
 62
     1
100
AcDbLine
 10
-1779.955741228715
 20
1838.625021644596
 30
0.0
 11
-1775.955741228715
 21
1838.625021644596
 31
0.0
  0
SOLID
  5
12395
330
12390
100
AcDbEntity
  8
ZISSEN1
 62
     1
100
AcDbTrace
 10
-1782.955741228716
 20
1839.125021644596
 30
0.0
 11
-1782.955741228716
 21
1838.125021644596
 31
0.0
 12
-1779.955741228715
 22
1838.625021644596
 32
0.0
 13
-1779.955741228715
 23
1838.625021644596
 33
0.0
  0
SOLID
  5
12396
330
12390
100
AcDbEntity
  8
ZISSEN1
 62
     1
100
AcDbTrace
 10
-1772.955741228716
 20
1839.125021644596
 30
0.0
 11
-1772.955741228716
 21
1838.125021644596
 31
0.0
 12
-1775.955741228715
 22
1838.625021644596
 32
0.0
 13
-1775.955741228715
 23
1838.625021644596
 33
0.0
  0
MTEXT
  5
12397
330
12390
100
AcDbEntity
  8
ZISSEN1
 62
     1
100
AcDbMText
 10
-1777.955741228715
 20
1841.375021644596
 30
0.0
 40
3.5
 41
0.0
 71
     5
 72
     1
  1
\A1;4
  7
ゴシック体
1001
ACAD
1000
MTEXTBEGIN
1070
    73
1070
     1
1070
    44
1040
1.0
1070
    74
1070
     0
1000
MTEXTEND
  0
POINT
  5
12398
330
12390
100
AcDbEntity
  8
DEFPOINTS
 62
     0
100
AcDbPoint
 10
-1779.955741228715
 20
1838.625021644596
 30
0.0
  0
POINT
  5
12399
330
12390
100
AcDbEntity
  8
DEFPOINTS
 62
     0
100
AcDbPoint
 10
-1775.955741228715
 20
1858.768996154489
 30
0.0
  0
POINT
  5
1239A
330
12390
100
AcDbEntity
  8
DEFPOINTS
 62
     0
100
AcDbPoint
 10
-1775.955741228715
 20
1838.625021644596
 30
0.0
  0
ENDBLK
  5
1239C
330
12390
100
AcDbEntity
  8
0
100
AcDbBlockEnd
  0
BLOCK
  5
123AA
330
123A0
100
AcDbEntity
  8
0
100
AcDbBlockBegin
  2
*D32
 70
     1
 10
0.0
 20
0.0
 30
0.0
  3
*D32
  1

  0
LINE
  5
123A1
330
123A0
100
AcDbEntity
  8
ZISSEN1
 62
     1
100
AcDbLine
 10
-1875.955741228716
 20
1809.539256154489
 30
0.0
 11
-1875.955741228716
 21
1823.477919941267
 31
0.0
  0
LINE
  5
123A2
330
123A0
100
AcDbEntity
  8
ZISSEN1
 62
     1
100
AcDbLine
 10
-1775.955741228715
 20
1809.539256154489
 30
0.0
 11
-1775.955741228715
 21
1823.477919941267
 31
0.0
  0
LINE
  5
123A3
330
123A0
100
AcDbEntity
  8
ZISSEN1
 62
     1
100
AcDbLine
 10
-1872.955741228716
 20
1822.977919941267
 30
0.0
 11
-1778.955741228716
 21
1822.977919941267
 31
0.0
  0
SOLID
  5
123A4
330
123A0
100
AcDbEntity
  8
ZISSEN1
 62
     1
100
AcDbTrace
 10
-1872.955741228716
 20
1823.477919941267
 30
0.0
 11
-1872.955741228716
 21
1822.477919941268
 31
0.0
 12
-1875.955741228716
 22
1822.977919941267
 32
0.0
 13
-1875.955741228716
 23
1822.977919941267
 33
0.0
  0
SOLID
  5
123A5
330
123A0
100
AcDbEntity
  8
ZISSEN1
 62
     1
100
AcDbTrace
 10
-1778.955741228716
 20
1823.477919941267
 30
0.0
 11
-1778.955741228716
 21
1822.477919941268
 31
0.0
 12
-1775.955741228715
 22
1822.977919941267
 32
0.0
 13
-1775.955741228715
 23
1822.977919941267
 33
0.0
  0
MTEXT
  5
123A6
330
123A0
100
AcDbEntity
  8
ZISSEN1
 62
     1
100
AcDbMText
 10
-1825.955741228716
 20
1825.727919941267
 30
0.0
 40
3.5
 41
0.0
 71
     5
 72
     1
  1
\A1;100
  7
ゴシック体
1001
ACAD
1000
MTEXTBEGIN
1070
    73
1070
     1
1070
    44
1040
1.0
1070
    74
1070
     0
1000
MTEXTEND
  0
POINT
  5
123A7
330
123A0
100
AcDbEntity
  8
DEFPOINTS
 62
     0
100
AcDbPoint
 10
-1875.955741228716
 20
1809.039256154489
 30
0.0
  0
POINT
  5
123A8
330
123A0
100
AcDbEntity
  8
DEFPOINTS
 62
     0
100
AcDbPoint
 10
-1775.955741228715
 20
1809.039256154489
 30
0.0
  0
POINT
  5
123A9
330
123A0
100
AcDbEntity
  8
DEFPOINTS
 62
     0
100
AcDbPoint
 10
-1775.955741228715
 20
1822.977919941267
 30
0.0
  0
ENDBLK
  5
123AB
330
123A0
100
AcDbEntity
  8
0
100
AcDbBlockEnd
  0
BLOCK
  5
123BE
330
123B2
100
AcDbEntity
  8
0
100
AcDbBlockBegin
  2
*D33
 70
     1
 10
0.0
 20
0.0
 30
0.0
  3
*D33
  1

  0
LINE
  5
123B3
330
123B2
100
AcDbEntity
  8
ZISSEN1
 62
     1
100
AcDbLine
 10
-1875.955741228716
 20
1708.539266154489
 30
0.0
 11
-1875.955741228716
 21
1695.670276045976
 31
0.0
  0
LINE
  5
123B4
330
123B2
100
AcDbEntity
  8
ZISSEN1
 62
     1
100
AcDbLine
 10
-1871.955740228716
 20
1719.039256154489
 30
0.0
 11
-1871.955740228716
 21
1695.670276045976
 31
0.0
  0
LINE
  5
123B5
330
123B2
100
AcDbEntity
  8
ZISSEN1
 62
     1
100
AcDbLine
 10
-1878.955741228716
 20
1696.170276045975
 30
0.0
 11
-1881.955741228716
 21
1696.170276045975
 31
0.0
  0
LINE
  5
123B6
330
123B2
100
AcDbEntity
  8
ZISSEN1
 62
     1
100
AcDbLine
 10
-1868.955740228716
 20
1696.170276045975
 30
0.0
 11
-1865.955740228716
 21
1696.170276045975
 31
0.0
  0
LINE
  5
123B7
330
123B2
100
AcDbEntity
  8
ZISSEN1
 62
     1
100
AcDbLine
 10
-1875.955741228716
 20
1696.170276045975
 30
0.0
 11
-1871.955740228716
 21
1696.170276045975
 31
0.0
  0
SOLID
  5
123B8
330
123B2
100
AcDbEntity
  8
ZISSEN1
 62
     1
100
AcDbTrace
 10
-1878.955741228716
 20
1696.670276045976
 30
0.0
 11
-1878.955741228716
 21
1695.670276045976
 31
0.0
 12
-1875.955741228716
 22
1696.170276045975
 32
0.0
 13
-1875.955741228716
 23
1696.170276045975
 33
0.0
  0
SOLID
  5
123B9
330
123B2
100
AcDbEntity
  8
ZISSEN1
 62
     1
100
AcDbTrace
 10
-1868.955740228716
 20
1696.670276045976
 30
0.0
 11
-1868.955740228716
 21
1695.670276045976
 31
0.0
 12
-1871.955740228716
 22
1696.170276045975
 32
0.0
 13
-1871.955740228716
 23
1696.170276045975
 33
0.0
  0
MTEXT
  5
123BA
330
123B2
100
AcDbEntity
  8
ZISSEN1
 62
     1
100
AcDbMText
 10
-1873.955740728716
 20
1698.920276045975
 30
0.0
 40
3.5
 41
0.0
 71
     5
 72
     1
  1
\A1;4
  7
ゴシック体
1001
ACAD
1000
MTEXTBEGIN
1070
    73
1070
     1
1070
    44
1040
1.0
1070
    74
1070
     0
1000
MTEXTEND
  0
POINT
  5
123BB
330
123B2
100
AcDbEntity
  8
DEFPOINTS
 62
     0
100
AcDbPoint
 10
-1875.955741228716
 20
1709.039266154489
 30
0.0
  0
POINT
  5
123BC
330
123B2
100
AcDbEntity
  8
DEFPOINTS
 62
     0
100
AcDbPoint
 10
-1871.955740228716
 20
1719.539256154489
 30
0.0
  0
POINT
  5
123BD
330
123B2
100
AcDbEntity
  8
DEFPOINTS
 62
     0
100
AcDbPoint
 10
-1871.955740228716
 20
1696.170276045975
 30
0.0
  0
ENDBLK
  5
123BF
330
123B2
100
AcDbEntity
  8
0
100
AcDbBlockEnd
  0
BLOCK
  5
123CB
330
123C1
100
AcDbEntity
  8
0
100
AcDbBlockBegin
  2
*D34
 70
     1
 10
0.0
 20
0.0
 30
0.0
  3
*D34
  1

  0
LINE
  5
12473
330
123C1
100
AcDbEntity
  8
ZISSEN1
 62
     1
100
AcDbLine
 10
-1871.955740228716
 20
1719.039256154489
 30
0.0
 11
-1871.955740228716
 21
1695.670276045976
 31
0.0
  0
LINE
  5
12474
330
123C1
100
AcDbEntity
  8
ZISSEN1
 62
     1
100
AcDbLine
 10
-1779.955741228715
 20
1719.039256154489
 30
0.0
 11
-1779.955741228715
 21
1695.670276045976
 31
0.0
  0
LINE
  5
12475
330
123C1
100
AcDbEntity
  8
ZISSEN1
 62
     1
100
AcDbLine
 10
-1868.955740228716
 20
1696.170276045975
 30
0.0
 11
-1782.955741228716
 21
1696.170276045975
 31
0.0
  0
SOLID
  5
12476
330
123C1
100
AcDbEntity
  8
ZISSEN1
 62
     1
100
AcDbTrace
 10
-1868.955740228716
 20
1696.670276045976
 30
0.0
 11
-1868.955740228716
 21
1695.670276045976
 31
0.0
 12
-1871.955740228716
 22
1696.170276045975
 32
0.0
 13
-1871.955740228716
 23
1696.170276045975
 33
0.0
  0
SOLID
  5
12477
330
123C1
100
AcDbEntity
  8
ZISSEN1
 62
     1
100
AcDbTrace
 10
-1782.955741228716
 20
1696.670276045976
 30
0.0
 11
-1782.955741228716
 21
1695.670276045976
 31
0.0
 12
-1779.955741228715
 22
1696.170276045975
 32
0.0
 13
-1779.955741228715
 23
1696.170276045975
 33
0.0
  0
MTEXT
  5
12478
330
123C1
100
AcDbEntity
  8
ZISSEN1
 62
     1
100
AcDbMText
 10
-1825.955740728715
 20
1699.142357264249
 30
0.0
 40
3.5
 41
0.0
 71
     5
 72
     1
  1
\A1;92（USER取付ﾋﾟｯﾁ）
  7
ゴシック体
1001
ACAD
1000
MTEXTBEGIN
1070
    73
1070
     1
1070
    44
1040
1.0
1070
    74
1070
     0
1000
MTEXTEND
  0
POINT
  5
12479
330
123C1
100
AcDbEntity
  8
DEFPOINTS
 62
     0
100
AcDbPoint
 10
-1871.955740228716
 20
1719.539256154489
 30
0.0
  0
POINT
  5
1247A
330
123C1
100
AcDbEntity
  8
DEFPOINTS
 62
     0
100
AcDbPoint
 10
-1779.955741228715
 20
1719.539256154489
 30
0.0
  0
POINT
  5
1247B
330
123C1
100
AcDbEntity
  8
DEFPOINTS
 62
     0
100
AcDbPoint
 10
-1779.955741228715
 20
1696.170276045975
 30
0.0
  0
ENDBLK
  5
123CC
330
123C1
100
AcDbEntity
  8
0
100
AcDbBlockEnd
  0
BLOCK
  5
123E8
330
123DD
100
AcDbEntity
  8
0
100
AcDbBlockBegin
  2
*D35
 70
     1
 10
0.0
 20
0.0
 30
0.0
  3
*D35
  1

  0
LINE
  5
123DE
330
123DD
100
AcDbEntity
  8
ZISSEN1
 62
     1
100
AcDbLine
 10
-1775.955741228715
 20
1708.539266154489
 30
0.0
 11
-1775.955741228715
 21
1695.670276045976
 31
0.0
  0
LINE
  5
123DF
330
123DD
100
AcDbEntity
  8
ZISSEN1
 62
     1
100
AcDbLine
 10
-1782.955741228716
 20
1696.170276045975
 30
0.0
 11
-1785.955741228716
 21
1696.170276045975
 31
0.0
  0
LINE
  5
123E0
330
123DD
100
AcDbEntity
  8
ZISSEN1
 62
     1
100
AcDbLine
 10
-1772.955741228716
 20
1696.170276045975
 30
0.0
 11
-1769.955741228716
 21
1696.170276045975
 31
0.0
  0
LINE
  5
123E1
330
123DD
100
AcDbEntity
  8
ZISSEN1
 62
     1
100
AcDbLine
 10
-1779.955741228715
 20
1696.170276045975
 30
0.0
 11
-1775.955741228715
 21
1696.170276045975
 31
0.0
  0
SOLID
  5
123E2
330
123DD
100
AcDbEntity
  8
ZISSEN1
 62
     1
100
AcDbTrace
 10
-1782.955741228716
 20
1696.670276045976
 30
0.0
 11
-1782.955741228716
 21
1695.670276045976
 31
0.0
 12
-1779.955741228715
 22
1696.170276045975
 32
0.0
 13
-1779.955741228715
 23
1696.170276045975
 33
0.0
  0
SOLID
  5
123E3
330
123DD
100
AcDbEntity
  8
ZISSEN1
 62
     1
100
AcDbTrace
 10
-1772.955741228716
 20
1696.670276045976
 30
0.0
 11
-1772.955741228716
 21
1695.670276045976
 31
0.0
 12
-1775.955741228715
 22
1696.170276045975
 32
0.0
 13
-1775.955741228715
 23
1696.170276045975
 33
0.0
  0
MTEXT
  5
123E4
330
123DD
100
AcDbEntity
  8
ZISSEN1
 62
     1
100
AcDbMText
 10
-1777.955741228715
 20
1698.920276045975
 30
0.0
 40
3.5
 41
0.0
 71
     5
 72
     1
  1
\A1;4
  7
ゴシック体
1001
ACAD
1000
MTEXTBEGIN
1070
    73
1070
     1
1070
    44
1040
1.0
1070
    74
1070
     0
1000
MTEXTEND
  0
POINT
  5
123E5
330
123DD
100
AcDbEntity
  8
DEFPOINTS
 62
     0
100
AcDbPoint
 10
-1779.955741228715
 20
1696.170276045975
 30
0.0
  0
POINT
  5
123E6
330
123DD
100
AcDbEntity
  8
DEFPOINTS
 62
     0
100
AcDbPoint
 10
-1775.955741228715
 20
1709.039266154489
 30
0.0
  0
POINT
  5
123E7
330
123DD
100
AcDbEntity
  8
DEFPOINTS
 62
     0
100
AcDbPoint
 10
-1775.955741228715
 20
1696.170276045975
 30
0.0
  0
ENDBLK
  5
123E9
330
123DD
100
AcDbEntity
  8
0
100
AcDbBlockEnd
  0
BLOCK
  5
123F8
330
123EC
100
AcDbEntity
  8
0
100
AcDbBlockBegin
  2
*D36
 70
     1
 10
0.0
 20
0.0
 30
0.0
  3
*D36
  1

  0
LINE
  5
123ED
330
123EC
100
AcDbEntity
  8
ZISSEN1
 62
     1
100
AcDbLine
 10
-1775.455741228714
 20
1721.289256154489
 30
0.0
 11
-1762.687766207235
 21
1721.289256154489
 31
0.0
  0
LINE
  5
123EE
330
123EC
100
AcDbEntity
  8
ZISSEN1
 62
     1
100
AcDbLine
 10
-1775.455741228714
 20
1717.789266154489
 30
0.0
 11
-1762.687766207235
 21
1717.789266154489
 31
0.0
  0
LINE
  5
123EF
330
123EC
100
AcDbEntity
  8
ZISSEN1
 62
     1
100
AcDbLine
 10
-1763.187766207235
 20
1724.289256154489
 30
0.0
 11
-1763.187766207235
 21
1727.289256154489
 31
0.0
  0
LINE
  5
123F0
330
123EC
100
AcDbEntity
  8
ZISSEN1
 62
     1
100
AcDbLine
 10
-1763.187766207235
 20
1714.789266154489
 30
0.0
 11
-1763.187766207235
 21
1703.428860063119
 31
0.0
  0
LINE
  5
123F1
330
123EC
100
AcDbEntity
  8
ZISSEN1
 62
     1
100
AcDbLine
 10
-1763.187766207235
 20
1721.289256154489
 30
0.0
 11
-1763.187766207235
 21
1717.789266154489
 31
0.0
  0
SOLID
  5
123F2
330
123EC
100
AcDbEntity
  8
ZISSEN1
 62
     1
100
AcDbTrace
 10
-1763.687766207235
 20
1724.289256154489
 30
0.0
 11
-1762.687766207235
 21
1724.289256154489
 31
0.0
 12
-1763.187766207235
 22
1721.289256154489
 32
0.0
 13
-1763.187766207235
 23
1721.289256154489
 33
0.0
  0
SOLID
  5
123F3
330
123EC
100
AcDbEntity
  8
ZISSEN1
 62
     1
100
AcDbTrace
 10
-1763.687766207235
 20
1714.789266154489
 30
0.0
 11
-1762.687766207235
 21
1714.789266154489
 31
0.0
 12
-1763.187766207235
 22
1717.789266154489
 32
0.0
 13
-1763.187766207235
 23
1717.789266154489
 33
0.0
  0
MTEXT
  5
123F4
330
123EC
100
AcDbEntity
  8
ZISSEN1
 62
     1
100
AcDbMText
 10
-1765.937766207236
 20
1707.609063108804
 30
0.0
 40
3.5
 41
0.0
 71
     5
 72
     1
  1
\A1;3.5
  7
ゴシック体
 11
0.0000000000000001
 21
1.0
 31
0.0
1001
ACAD
1000
MTEXTBEGIN
1070
    73
1070
     1
1070
    44
1040
1.0
1070
    74
1070
     0
1000
MTEXTEND
  0
POINT
  5
123F5
330
123EC
100
AcDbEntity
  8
DEFPOINTS
 62
     0
100
AcDbPoint
 10
-1775.955741228715
 20
1721.289256154489
 30
0.0
  0
POINT
  5
123F6
330
123EC
100
AcDbEntity
  8
DEFPOINTS
 62
     0
100
AcDbPoint
 10
-1775.955741228715
 20
1717.789266154489
 30
0.0
  0
POINT
  5
123F7
330
123EC
100
AcDbEntity
  8
DEFPOINTS
 62
     0
100
AcDbPoint
 10
-1763.187766207235
 20
1717.789266154489
 30
0.0
  0
ENDBLK
  5
123F9
330
123EC
100
AcDbEntity
  8
0
100
AcDbBlockEnd
  0
BLOCK
  5
12412
330
12408
100
AcDbEntity
  8
0
100
AcDbBlockBegin
  2
*D37
 70
     1
 10
0.0
 20
0.0
 30
0.0
  3
*D37
  1

  0
LINE
  5
12409
330
12408
100
AcDbEntity
  8
ZISSEN1
 62
     1
100
AcDbLine
 10
-1677.307091228716
 20
1709.246366154489
 30
0.0
 11
-1677.307091228716
 21
1695.670276045976
 31
0.0
  0
LINE
  5
1240A
330
12408
100
AcDbEntity
  8
ZISSEN1
 62
     1
100
AcDbLine
 10
-1720.307101228716
 20
1730.539256154489
 30
0.0
 11
-1720.307101228716
 21
1695.670276045976
 31
0.0
  0
LINE
  5
1240B
330
12408
100
AcDbEntity
  8
ZISSEN1
 62
     1
100
AcDbLine
 10
-1680.307091228716
 20
1696.170276045975
 30
0.0
 11
-1717.307101228715
 21
1696.170276045975
 31
0.0
  0
SOLID
  5
1240C
330
12408
100
AcDbEntity
  8
ZISSEN1
 62
     1
100
AcDbTrace
 10
-1680.307091228716
 20
1696.670276045976
 30
0.0
 11
-1680.307091228716
 21
1695.670276045976
 31
0.0
 12
-1677.307091228716
 22
1696.170276045975
 32
0.0
 13
-1677.307091228716
 23
1696.170276045975
 33
0.0
  0
SOLID
  5
1240D
330
12408
100
AcDbEntity
  8
ZISSEN1
 62
     1
100
AcDbTrace
 10
-1717.307101228715
 20
1696.670276045976
 30
0.0
 11
-1717.307101228715
 21
1695.670276045976
 31
0.0
 12
-1720.307101228716
 22
1696.170276045975
 32
0.0
 13
-1720.307101228716
 23
1696.170276045975
 33
0.0
  0
MTEXT
  5
1240E
330
12408
100
AcDbEntity
  8
ZISSEN1
 62
     1
100
AcDbMText
 10
-1698.807096228716
 20
1698.920276045975
 30
0.0
 40
3.5
 41
0.0
 71
     5
 72
     1
  1
\A1;43
  7
ゴシック体
1001
ACAD
1000
MTEXTBEGIN
1070
    73
1070
     1
1070
    44
1040
1.0
1070
    74
1070
     0
1000
MTEXTEND
  0
POINT
  5
1240F
330
12408
100
AcDbEntity
  8
DEFPOINTS
 62
     0
100
AcDbPoint
 10
-1677.307091228716
 20
1709.746366154489
 30
0.0
  0
POINT
  5
12410
330
12408
100
AcDbEntity
  8
DEFPOINTS
 62
     0
100
AcDbPoint
 10
-1720.307101228716
 20
1731.039256154489
 30
0.0
  0
POINT
  5
12411
330
12408
100
AcDbEntity
  8
DEFPOINTS
 62
     0
100
AcDbPoint
 10
-1720.307101228716
 20
1696.170276045975
 30
0.0
  0
ENDBLK
  5
12413
330
12408
100
AcDbEntity
  8
0
100
AcDbBlockEnd
  0
BLOCK
  5
12421
330
12415
100
AcDbEntity
  8
0
100
AcDbBlockBegin
  2
*D38
 70
     1
 10
0.0
 20
0.0
 30
0.0
  3
*D38
  1

  0
LINE
  5
12416
330
12415
100
AcDbEntity
  8
ZISSEN1
 62
     1
100
AcDbLine
 10
-1717.099981228716
 20
1709.039266154489
 30
0.0
 11
-1733.211524178271
 21
1709.039266154489
 31
0.0
  0
LINE
  5
12417
330
12415
100
AcDbEntity
  8
ZISSEN1
 62
     1
100
AcDbLine
 10
-1714.807081228714
 20
1712.039256154489
 30
0.0
 11
-1733.211524178271
 21
1712.039256154489
 31
0.0
  0
LINE
  5
12418
330
12415
100
AcDbEntity
  8
ZISSEN1
 62
     1
100
AcDbLine
 10
-1732.71152417827
 20
1706.039266154489
 30
0.0
 11
-1732.71152417827
 21
1703.039266154489
 31
0.0
  0
LINE
  5
12419
330
12415
100
AcDbEntity
  8
ZISSEN1
 62
     1
100
AcDbLine
 10
-1732.71152417827
 20
1715.039256154489
 30
0.0
 11
-1732.71152417827
 21
1721.851438895606
 31
0.0
  0
LINE
  5
1241A
330
12415
100
AcDbEntity
  8
ZISSEN1
 62
     1
100
AcDbLine
 10
-1732.71152417827
 20
1709.039266154489
 30
0.0
 11
-1732.71152417827
 21
1712.039256154489
 31
0.0
  0
SOLID
  5
1241B
330
12415
100
AcDbEntity
  8
ZISSEN1
 62
     1
100
AcDbTrace
 10
-1733.211524178271
 20
1706.039266154489
 30
0.0
 11
-1732.21152417827
 21
1706.039266154489
 31
0.0
 12
-1732.71152417827
 22
1709.039266154489
 32
0.0
 13
-1732.71152417827
 23
1709.039266154489
 33
0.0
  0
SOLID
  5
1241C
330
12415
100
AcDbEntity
  8
ZISSEN1
 62
     1
100
AcDbTrace
 10
-1733.211524178271
 20
1715.039256154489
 30
0.0
 11
-1732.21152417827
 21
1715.039256154489
 31
0.0
 12
-1732.71152417827
 22
1712.039256154489
 32
0.0
 13
-1732.71152417827
 23
1712.039256154489
 33
0.0
  0
MTEXT
  5
1241D
330
12415
100
AcDbEntity
  8
ZISSEN1
 62
     1
100
AcDbMText
 10
-1735.46152417827
 20
1719.945347525047
 30
0.0
 40
3.5
 41
0.0
 71
     5
 72
     1
  1
\A1;3
  7
ゴシック体
 11
0.0000000000000001
 21
1.0
 31
0.0
1001
ACAD
1000
MTEXTBEGIN
1070
    73
1070
     1
1070
    44
1040
1.0
1070
    74
1070
     0
1000
MTEXTEND
  0
POINT
  5
1241E
330
12415
100
AcDbEntity
  8
DEFPOINTS
 62
     0
100
AcDbPoint
 10
-1716.599981228716
 20
1709.039266154489
 30
0.0
  0
POINT
  5
1241F
330
12415
100
AcDbEntity
  8
DEFPOINTS
 62
     0
100
AcDbPoint
 10
-1714.307081228716
 20
1712.039256154489
 30
0.0
  0
POINT
  5
12420
330
12415
100
AcDbEntity
  8
DEFPOINTS
 62
     0
100
AcDbPoint
 10
-1732.71152417827
 20
1712.039256154489
 30
0.0
  0
ENDBLK
  5
12422
330
12415
100
AcDbEntity
  8
0
100
AcDbBlockEnd
  0
BLOCK
  5
1242E
330
12424
100
AcDbEntity
  8
0
100
AcDbBlockBegin
  2
*D39
 70
     1
 10
0.0
 20
0.0
 30
0.0
  3
*D39
  1

  0
LINE
  5
12425
330
12424
100
AcDbEntity
  8
ZISSEN1
 62
     1
100
AcDbLine
 10
-1677.307091228716
 20
1808.832146154489
 30
0.0
 11
-1677.307091228716
 21
1823.477919941267
 31
0.0
  0
LINE
  5
12426
330
12424
100
AcDbEntity
  8
ZISSEN1
 62
     1
100
AcDbLine
 10
-1704.307081228716
 20
1807.033856154489
 30
0.0
 11
-1704.307081228716
 21
1823.477919941267
 31
0.0
  0
LINE
  5
12427
330
12424
100
AcDbEntity
  8
ZISSEN1
 62
     1
100
AcDbLine
 10
-1680.307091228716
 20
1822.977919941267
 30
0.0
 11
-1701.307081228716
 21
1822.977919941267
 31
0.0
  0
SOLID
  5
12428
330
12424
100
AcDbEntity
  8
ZISSEN1
 62
     1
100
AcDbTrace
 10
-1680.307091228716
 20
1823.477919941267
 30
0.0
 11
-1680.307091228716
 21
1822.477919941268
 31
0.0
 12
-1677.307091228716
 22
1822.977919941267
 32
0.0
 13
-1677.307091228716
 23
1822.977919941267
 33
0.0
  0
SOLID
  5
12429
330
12424
100
AcDbEntity
  8
ZISSEN1
 62
     1
100
AcDbTrace
 10
-1701.307081228716
 20
1823.477919941267
 30
0.0
 11
-1701.307081228716
 21
1822.477919941268
 31
0.0
 12
-1704.307081228716
 22
1822.977919941267
 32
0.0
 13
-1704.307081228716
 23
1822.977919941267
 33
0.0
  0
MTEXT
  5
1242A
330
12424
100
AcDbEntity
  8
ZISSEN1
 62
     1
100
AcDbMText
 10
-1690.807086228715
 20
1825.727919941267
 30
0.0
 40
3.5
 41
0.0
 71
     5
 72
     1
  1
\A1;27
  7
ゴシック体
1001
ACAD
1000
MTEXTBEGIN
1070
    73
1070
     1
1070
    44
1040
1.0
1070
    74
1070
     0
1000
MTEXTEND
  0
POINT
  5
1242B
330
12424
100
AcDbEntity
  8
DEFPOINTS
 62
     0
100
AcDbPoint
 10
-1677.307091228716
 20
1808.332146154489
 30
0.0
  0
POINT
  5
1242C
330
12424
100
AcDbEntity
  8
DEFPOINTS
 62
     0
100
AcDbPoint
 10
-1704.307081228716
 20
1806.533856154489
 30
0.0
  0
POINT
  5
1242D
330
12424
100
AcDbEntity
  8
DEFPOINTS
 62
     0
100
AcDbPoint
 10
-1704.307081228716
 20
1822.977919941267
 30
0.0
  0
ENDBLK
  5
1242F
330
12424
100
AcDbEntity
  8
0
100
AcDbBlockEnd
  0
BLOCK
  5
1243D
330
12431
100
AcDbEntity
  8
0
100
AcDbBlockBegin
  2
*D40
 70
     1
 10
0.0
 20
0.0
 30
0.0
  3
*D40
  1

  0
LINE
  5
12432
330
12431
100
AcDbEntity
  8
ZISSEN1
 62
     1
100
AcDbLine
 10
-1677.307091228716
 20
1808.832146154489
 30
0.0
 11
-1677.307091228716
 21
1815.446772333153
 31
0.0
  0
LINE
  5
12433
330
12431
100
AcDbEntity
  8
ZISSEN1
 62
     1
100
AcDbLine
 10
-1680.307101228716
 20
1806.539246154489
 30
0.0
 11
-1680.307101228716
 21
1815.446772333153
 31
0.0
  0
LINE
  5
12434
330
12431
100
AcDbEntity
  8
ZISSEN1
 62
     1
100
AcDbLine
 10
-1674.307091228715
 20
1814.946772333153
 30
0.0
 11
-1671.307091228716
 21
1814.946772333153
 31
0.0
  0
LINE
  5
12435
330
12431
100
AcDbEntity
  8
ZISSEN1
 62
     1
100
AcDbLine
 10
-1683.307101228716
 20
1814.946772333153
 30
0.0
 11
-1690.119283969831
 21
1814.946772333153
 31
0.0
  0
LINE
  5
12436
330
12431
100
AcDbEntity
  8
ZISSEN1
 62
     1
100
AcDbLine
 10
-1677.307091228716
 20
1814.946772333153
 30
0.0
 11
-1680.307101228716
 21
1814.946772333153
 31
0.0
  0
SOLID
  5
12437
330
12431
100
AcDbEntity
  8
ZISSEN1
 62
     1
100
AcDbTrace
 10
-1674.307091228715
 20
1815.446772333153
 30
0.0
 11
-1674.307091228715
 21
1814.446772333153
 31
0.0
 12
-1677.307091228716
 22
1814.946772333153
 32
0.0
 13
-1677.307091228716
 23
1814.946772333153
 33
0.0
  0
SOLID
  5
12438
330
12431
100
AcDbEntity
  8
ZISSEN1
 62
     1
100
AcDbTrace
 10
-1683.307101228716
 20
1815.446772333153
 30
0.0
 11
-1683.307101228716
 21
1814.446772333153
 31
0.0
 12
-1680.307101228716
 22
1814.946772333153
 32
0.0
 13
-1680.307101228716
 23
1814.946772333153
 33
0.0
  0
MTEXT
  5
12439
330
12431
100
AcDbEntity
  8
ZISSEN1
 62
     1
100
AcDbMText
 10
-1688.213192599274
 20
1817.696772333153
 30
0.0
 40
3.5
 41
0.0
 71
     5
 72
     1
  1
\A1;3
  7
ゴシック体
1001
ACAD
1000
MTEXTBEGIN
1070
    73
1070
     1
1070
    44
1040
1.0
1070
    74
1070
     0
1000
MTEXTEND
  0
POINT
  5
1243A
330
12431
100
AcDbEntity
  8
DEFPOINTS
 62
     0
100
AcDbPoint
 10
-1677.307091228716
 20
1808.332146154489
 30
0.0
  0
POINT
  5
1243B
330
12431
100
AcDbEntity
  8
DEFPOINTS
 62
     0
100
AcDbPoint
 10
-1680.307101228716
 20
1806.039246154488
 30
0.0
  0
POINT
  5
1243C
330
12431
100
AcDbEntity
  8
DEFPOINTS
 62
     0
100
AcDbPoint
 10
-1680.307101228716
 20
1814.946772333153
 30
0.0
  0
ENDBLK
  5
1243E
330
12431
100
AcDbEntity
  8
0
100
AcDbBlockEnd
  0
BLOCK
  5
12491
330
12487
100
AcDbEntity
  8
0
100
AcDbBlockBegin
  2
*D41
 70
     1
 10
0.0
 20
0.0
 30
0.0
  3
*D41
  1

  0
LINE
  5
12488
330
12487
100
AcDbEntity
  8
ZISSEN1
 62
     1
100
AcDbLine
 10
-1876.455741228715
 20
1809.039256154489
 30
0.0
 11
-1905.865962736745
 21
1809.039256154489
 31
0.0
  0
LINE
  5
12489
330
12487
100
AcDbEntity
  8
ZISSEN1
 62
     1
100
AcDbLine
 10
-1876.455741228715
 20
1709.039266154489
 30
0.0
 11
-1905.865962736745
 21
1709.039266154489
 31
0.0
  0
LINE
  5
1248A
330
12487
100
AcDbEntity
  8
ZISSEN1
 62
     1
100
AcDbLine
 10
-1905.365962736746
 20
1806.039256154489
 30
0.0
 11
-1905.365962736746
 21
1712.039266154489
 31
0.0
  0
SOLID
  5
1248B
330
12487
100
AcDbEntity
  8
ZISSEN1
 62
     1
100
AcDbTrace
 10
-1905.865962736745
 20
1806.039256154489
 30
0.0
 11
-1904.865962736747
 21
1806.039256154489
 31
0.0
 12
-1905.365962736746
 22
1809.039256154489
 32
0.0
 13
-1905.365962736746
 23
1809.039256154489
 33
0.0
  0
SOLID
  5
1248C
330
12487
100
AcDbEntity
  8
ZISSEN1
 62
     1
100
AcDbTrace
 10
-1905.865962736745
 20
1712.039266154489
 30
0.0
 11
-1904.865962736747
 21
1712.039266154489
 31
0.0
 12
-1905.365962736746
 22
1709.039266154489
 32
0.0
 13
-1905.365962736746
 23
1709.039266154489
 33
0.0
  0
MTEXT
  5
1248D
330
12487
100
AcDbEntity
  8
ZISSEN1
 62
     1
100
AcDbMText
 10
-1908.115962736747
 20
1759.039261154489
 30
0.0
 40
3.5
 41
0.0
 71
     5
 72
     1
  1
\A1;100
  7
ゴシック体
 11
0.0000000000000001
 21
1.0
 31
0.0
1001
ACAD
1000
MTEXTBEGIN
1070
    73
1070
     1
1070
    44
1040
1.0
1070
    74
1070
     0
1000
MTEXTEND
  0
POINT
  5
1248E
330
12487
100
AcDbEntity
  8
DEFPOINTS
 62
     0
100
AcDbPoint
 10
-1875.955741228716
 20
1809.039256154489
 30
0.0
  0
POINT
  5
1248F
330
12487
100
AcDbEntity
  8
DEFPOINTS
 62
     0
100
AcDbPoint
 10
-1875.955741228716
 20
1709.039266154489
 30
0.0
  0
POINT
  5
12490
330
12487
100
AcDbEntity
  8
DEFPOINTS
 62
     0
100
AcDbPoint
 10
-1905.365962736746
 20
1709.039266154489
 30
0.0
  0
ENDBLK
  5
12492
330
12487
100
AcDbEntity
  8
0
100
AcDbBlockEnd
  0
BLOCK
  5
124A2
330
12496
100
AcDbEntity
  8
0
100
AcDbBlockBegin
  2
*D42
 70
     1
 10
0.0
 20
0.0
 30
0.0
  3
*D42
  1

  0
LINE
  5
12497
330
12496
100
AcDbEntity
  8
ZISSEN1
 62
     1
100
AcDbLine
 10
-1872.455740228716
 20
1725.539276154489
 30
0.0
 11
-1888.178243873506
 21
1725.539276154489
 31
0.0
  0
LINE
  5
12498
330
12496
100
AcDbEntity
  8
ZISSEN1
 62
     1
100
AcDbLine
 10
-1872.455740228716
 20
1719.539256154489
 30
0.0
 11
-1888.178243873506
 21
1719.539256154489
 31
0.0
  0
LINE
  5
12499
330
12496
100
AcDbEntity
  8
ZISSEN1
 62
     1
100
AcDbLine
 10
-1887.678243873504
 20
1728.539276154489
 30
0.0
 11
-1887.678243873504
 21
1731.539276154489
 31
0.0
  0
LINE
  5
1249A
330
12496
100
AcDbEntity
  8
ZISSEN1
 62
     1
100
AcDbLine
 10
-1887.678243873504
 20
1716.539256154489
 30
0.0
 11
-1887.678243873504
 21
1713.539256154489
 31
0.0
  0
LINE
  5
1249B
330
12496
100
AcDbEntity
  8
ZISSEN1
 62
     1
100
AcDbLine
 10
-1887.678243873504
 20
1725.539276154489
 30
0.0
 11
-1887.678243873504
 21
1719.539256154489
 31
0.0
  0
SOLID
  5
1249C
330
12496
100
AcDbEntity
  8
ZISSEN1
 62
     1
100
AcDbTrace
 10
-1888.178243873506
 20
1728.539276154489
 30
0.0
 11
-1887.178243873506
 21
1728.539276154489
 31
0.0
 12
-1887.678243873504
 22
1725.539276154489
 32
0.0
 13
-1887.678243873504
 23
1725.539276154489
 33
0.0
  0
SOLID
  5
1249D
330
12496
100
AcDbEntity
  8
ZISSEN1
 62
     1
100
AcDbTrace
 10
-1888.178243873506
 20
1716.539256154489
 30
0.0
 11
-1887.178243873506
 21
1716.539256154489
 31
0.0
 12
-1887.678243873504
 22
1719.539256154489
 32
0.0
 13
-1887.678243873504
 23
1719.539256154489
 33
0.0
  0
MTEXT
  5
1249E
330
12496
100
AcDbEntity
  8
ZISSEN1
 62
     1
100
AcDbMText
 10
-1890.428243873506
 20
1722.539266154489
 30
0.0
 40
3.5
 41
0.0
 71
     5
 72
     1
  1
\A1;6
  7
ゴシック体
 11
0.0000000000000001
 21
1.0
 31
0.0
1001
ACAD
1000
MTEXTBEGIN
1070
    73
1070
     1
1070
    44
1040
1.0
1070
    74
1070
     0
1000
MTEXTEND
  0
POINT
  5
1249F
330
12496
100
AcDbEntity
  8
DEFPOINTS
 62
     0
100
AcDbPoint
 10
-1871.955740228716
 20
1725.539276154489
 30
0.0
  0
POINT
  5
124A0
330
12496
100
AcDbEntity
  8
DEFPOINTS
 62
     0
100
AcDbPoint
 10
-1871.955740228716
 20
1719.539256154489
 30
0.0
  0
POINT
  5
124A1
330
12496
100
AcDbEntity
  8
DEFPOINTS
 62
     0
100
AcDbPoint
 10
-1887.678243873504
 20
1719.539256154489
 30
0.0
  0
ENDBLK
  5
124A3
330
12496
100
AcDbEntity
  8
0
100
AcDbBlockEnd
  0
BLOCK
  5
124AF
330
124A5
100
AcDbEntity
  8
0
100
AcDbBlockBegin
  2
*D43
 70
     1
 10
0.0
 20
0.0
 30
0.0
  3
*D43
  1

  0
LINE
  5
124A6
330
124A5
100
AcDbEntity
  8
ZISSEN1
 62
     1
100
AcDbLine
 10
-1872.455740228716
 20
1719.539256154489
 30
0.0
 11
-1888.178243873506
 21
1719.539256154489
 31
0.0
  0
LINE
  5
124A7
330
124A5
100
AcDbEntity
  8
ZISSEN1
 62
     1
100
AcDbLine
 10
-1876.455741228715
 20
1709.039266154489
 30
0.0
 11
-1888.178243873506
 21
1709.039266154489
 31
0.0
  0
LINE
  5
124A8
330
124A5
100
AcDbEntity
  8
ZISSEN1
 62
     1
100
AcDbLine
 10
-1887.678243873504
 20
1716.539256154489
 30
0.0
 11
-1887.678243873504
 21
1712.039266154489
 31
0.0
  0
SOLID
  5
124A9
330
124A5
100
AcDbEntity
  8
ZISSEN1
 62
     1
100
AcDbTrace
 10
-1888.178243873506
 20
1716.539256154489
 30
0.0
 11
-1887.178243873506
 21
1716.539256154489
 31
0.0
 12
-1887.678243873504
 22
1719.539256154489
 32
0.0
 13
-1887.678243873504
 23
1719.539256154489
 33
0.0
  0
SOLID
  5
124AA
330
124A5
100
AcDbEntity
  8
ZISSEN1
 62
     1
100
AcDbTrace
 10
-1888.178243873506
 20
1712.039266154489
 30
0.0
 11
-1887.178243873506
 21
1712.039266154489
 31
0.0
 12
-1887.678243873504
 22
1709.039266154489
 32
0.0
 13
-1887.678243873504
 23
1709.039266154489
 33
0.0
  0
MTEXT
  5
124AB
330
124A5
100
AcDbEntity
  8
ZISSEN1
 62
     1
100
AcDbMText
 10
-1890.428243873506
 20
1714.289261154489
 30
0.0
 40
3.5
 41
0.0
 71
     5
 72
     1
  1
\A1;10.5
  7
ゴシック体
 11
0.0000000000000001
 21
1.0
 31
0.0
1001
ACAD
1000
MTEXTBEGIN
1070
    73
1070
     1
1070
    44
1040
1.0
1070
    74
1070
     0
1000
MTEXTEND
  0
POINT
  5
124AC
330
124A5
100
AcDbEntity
  8
DEFPOINTS
 62
     0
100
AcDbPoint
 10
-1871.955740228716
 20
1719.539256154489
 30
0.0
  0
POINT
  5
124AD
330
124A5
100
AcDbEntity
  8
DEFPOINTS
 62
     0
100
AcDbPoint
 10
-1875.955741228716
 20
1709.039266154489
 30
0.0
  0
POINT
  5
124AE
330
124A5
100
AcDbEntity
  8
DEFPOINTS
 62
     0
100
AcDbPoint
 10
-1887.678243873504
 20
1709.039266154489
 30
0.0
  0
ENDBLK
  5
124B0
330
124A5
100
AcDbEntity
  8
0
100
AcDbBlockEnd
  0
ENDSEC
  0
SECTION
  2
ENTITIES
  0
MTEXT
  5
5084
330
1A
100
AcDbEntity
  8
0
100
AcDbMText
 10
1985.239088685434
 20
-948.5420423450428
 30
0.0
 40
8.0
 41
0.0
 71
     7
 72
     5
  1

1001
ACAD
1000
MTEXTBEGIN
1070
    73
1070
     1
1070
    44
1040
1.0
1070
    74
1070
     0
1000
MTEXTEND
  0
MTEXT
  5
5085
330
1A
100
AcDbEntity
  8
0
100
AcDbMText
 10
4270.596778580329
 20
22.24825240601648
 30
0.0
 40
8.0
 41
0.0
 71
     7
 72
     5
  1

1001
ACAD
1000
MTEXTBEGIN
1070
    73
1070
     1
1070
    44
1040
1.0
1070
    74
1070
     0
1000
MTEXTEND
  0
MTEXT
  5
5343
330
1A
100
AcDbEntity
  8
SUNPOU
100
AcDbMText
 10
6936.493799262471
 20
9534.359644781137
 30
0.0
 40
10.5
 41
0.0
 71
     1
 72
     5
  1

1001
ACAD
1000
MTEXTBEGIN
1070
    73
1070
     1
1070
    44
1040
1.0
1070
    74
1070
     0
1000
MTEXTEND
  0
MTEXT
  5
544F
330
1A
100
AcDbEntity
  8
0
100
AcDbMText
 10
16317.2832773148
 20
12833.35428897674
 30
0.0
 40
8.0
 41
0.0
 71
     7
 72
     5
  1

1001
ACAD
1000
MTEXTBEGIN
1070
    73
1070
     1
1070
    44
1040
1.0
1070
    74
1070
     0
1000
MTEXTEND
  0
MTEXT
  5
5450
330
1A
100
AcDbEntity
  8
0
100
AcDbMText
 10
18602.64096720968
 20
13804.1445837278
 30
0.0
 40
8.0
 41
0.0
 71
     7
 72
     5
  1

1001
ACAD
1000
MTEXTBEGIN
1070
    73
1070
     1
1070
    44
1040
1.0
1070
    74
1070
     0
1000
MTEXTEND
  0
MTEXT
  5
5451
330
1A
100
AcDbEntity
  8
SUNPOU
100
AcDbMText
 10
21268.53798789184
 20
23316.25597610292
 30
0.0
 40
10.5
 41
0.0
 71
     1
 72
     5
  1

1001
ACAD
1000
MTEXTBEGIN
1070
    73
1070
     1
1070
    44
1040
1.0
1070
    74
1070
     0
1000
MTEXTEND
  0
MTEXT
  5
5452
330
1A
100
AcDbEntity
  8
SUNPOU
100
AcDbMText
 10
13337.6147919559
 20
22369.46284218996
 30
0.0
 40
10.5
 41
0.0
 71
     7
 72
     5
  1

1001
ACAD
1000
MTEXTBEGIN
1070
    73
1070
     1
1070
    44
1040
1.0
1070
    74
1070
     0
1000
MTEXTEND
  0
MTEXT
  5
5453
330
1A
100
AcDbEntity
  8
SUNPOU
100
AcDbMText
 10
16286.59845646867
 20
27270.1389140328
 30
0.0
 40
10.5
 41
0.0
 71
     7
 72
     5
  1

1001
ACAD
1000
MTEXTBEGIN
1070
    73
1070
     1
1070
    44
1040
1.0
1070
    74
1070
     0
1000
MTEXTEND
  0
MTEXT
  5
5454
330
1A
100
AcDbEntity
  8
SUNPOU
100
AcDbMText
 10
20795.67658441924
 20
29706.43966165288
 30
0.0
 40
10.5
 41
0.0
 71
     7
 72
     5
  1

1001
ACAD
1000
MTEXTBEGIN
1070
    73
1070
     1
1070
    44
1040
1.0
1070
    74
1070
     0
1000
MTEXTEND
  0
MTEXT
  5
5455
330
1A
100
AcDbEntity
  8
0
100
AcDbMText
 10
16611.93789220313
 20
14707.52144344448
 30
0.0
 40
8.0
 41
0.0
 71
     7
 72
     5
  1

1001
ACAD
1000
MTEXTBEGIN
1070
    73
1070
     1
1070
    44
1040
1.0
1070
    74
1070
     0
1000
MTEXTEND
  0
MTEXT
  5
5456
330
1A
100
AcDbEntity
  8
0
100
AcDbMText
 10
18897.29558209803
 20
15678.31173819554
 30
0.0
 40
8.0
 41
0.0
 71
     7
 72
     5
  1

1001
ACAD
1000
MTEXTBEGIN
1070
    73
1070
     1
1070
    44
1040
1.0
1070
    74
1070
     0
1000
MTEXTEND
  0
MTEXT
  5
5457
330
1A
100
AcDbEntity
  8
SUNPOU
100
AcDbMText
 10
21563.19260278019
 20
25190.42313057066
 30
0.0
 40
10.5
 41
0.0
 71
     1
 72
     5
  1

1001
ACAD
1000
MTEXTBEGIN
1070
    73
1070
     1
1070
    44
1040
1.0
1070
    74
1070
     0
1000
MTEXTEND
  0
MTEXT
  5
5458
330
1A
100
AcDbEntity
  8
SUNPOU
100
AcDbMText
 10
13632.26940684425
 20
24243.6299966577
 30
0.0
 40
10.5
 41
0.0
 71
     7
 72
     5
  1

1001
ACAD
1000
MTEXTBEGIN
1070
    73
1070
     1
1070
    44
1040
1.0
1070
    74
1070
     0
1000
MTEXTEND
  0
MTEXT
  5
5459
330
1A
100
AcDbEntity
  8
SUNPOU
100
AcDbMText
 10
16581.25307135702
 20
29144.30606850055
 30
0.0
 40
10.5
 41
0.0
 71
     7
 72
     5
  1

1001
ACAD
1000
MTEXTBEGIN
1070
    73
1070
     1
1070
    44
1040
1.0
1070
    74
1070
     0
1000
MTEXTEND
  0
MTEXT
  5
545A
330
1A
100
AcDbEntity
  8
SUNPOU
100
AcDbMText
 10
21090.33119930759
 20
31580.60681612062
 30
0.0
 40
10.5
 41
0.0
 71
     7
 72
     5
  1

1001
ACAD
1000
MTEXTBEGIN
1070
    73
1070
     1
1070
    44
1040
1.0
1070
    74
1070
     0
1000
MTEXTEND
  0
MTEXT
  5
545B
330
1A
100
AcDbEntity
  8
0
100
AcDbMText
 10
22871.60517627166
 20
23974.88367124799
 30
0.0
 40
8.0
 41
0.0
 71
     7
 72
     5
  1

1001
ACAD
1000
MTEXTBEGIN
1070
    73
1070
     1
1070
    44
1040
1.0
1070
    74
1070
     0
1000
MTEXTEND
  0
MTEXT
  5
545C
330
1A
100
AcDbEntity
  8
0
100
AcDbMText
 10
25156.96286616656
 20
24945.67396599905
 30
0.0
 40
8.0
 41
0.0
 71
     7
 72
     5
  1

1001
ACAD
1000
MTEXTBEGIN
1070
    73
1070
     1
1070
    44
1040
1.0
1070
    74
1070
     0
1000
MTEXTEND
  0
MTEXT
  5
545D
330
1A
100
AcDbEntity
  8
SUNPOU
100
AcDbMText
 10
27822.85988684871
 20
34457.78535837418
 30
0.0
 40
10.5
 41
0.0
 71
     1
 72
     5
  1

1001
ACAD
1000
MTEXTBEGIN
1070
    73
1070
     1
1070
    44
1040
1.0
1070
    74
1070
     0
1000
MTEXTEND
  0
MTEXT
  5
545E
330
1A
100
AcDbEntity
  8
SUNPOU
100
AcDbMText
 10
19891.93669091278
 20
33510.99222446122
 30
0.0
 40
10.5
 41
0.0
 71
     7
 72
     5
  1

1001
ACAD
1000
MTEXTBEGIN
1070
    73
1070
     1
1070
    44
1040
1.0
1070
    74
1070
     0
1000
MTEXTEND
  0
MTEXT
  5
545F
330
1A
100
AcDbEntity
  8
SUNPOU
100
AcDbMText
 10
22840.92035542555
 20
38411.66829630406
 30
0.0
 40
10.5
 41
0.0
 71
     7
 72
     5
  1

1001
ACAD
1000
MTEXTBEGIN
1070
    73
1070
     1
1070
    44
1040
1.0
1070
    74
1070
     0
1000
MTEXTEND
  0
MTEXT
  5
5460
330
1A
100
AcDbEntity
  8
SUNPOU
100
AcDbMText
 10
27349.99848337611
 20
40847.96904392415
 30
0.0
 40
10.5
 41
0.0
 71
     7
 72
     5
  1

1001
ACAD
1000
MTEXTBEGIN
1070
    73
1070
     1
1070
    44
1040
1.0
1070
    74
1070
     0
1000
MTEXTEND
  0
MTEXT
  5
55B7
330
1A
100
AcDbEntity
  8
SUNPOU
100
AcDbMText
 10
67424.23923338197
 20
64463.86602884816
 30
0.0
 40
10.5
 41
0.0
 71
     9
 72
     5
  1

1001
ACAD
1000
MTEXTBEGIN
1070
    73
1070
     1
1070
    44
1040
1.0
1070
    74
1070
     0
1000
MTEXTEND
  0
MTEXT
  5
55B8
330
1A
100
AcDbEntity
  8
SUNPOU
100
AcDbMText
 10
76146.40679929998
 20
71879.70056038563
 30
0.0
 40
10.5
 41
0.0
 71
     9
 72
     5
  1

1001
ACAD
1000
MTEXTBEGIN
1070
    73
1070
     1
1070
    44
1040
1.0
1070
    74
1070
     0
1000
MTEXTEND
  0
MTEXT
  5
55B9
330
1A
100
AcDbEntity
  8
SUNPOU
100
AcDbMText
 10
95100.16551662994
 20
89346.27661287766
 30
0.0
 40
10.5
 41
0.0
 71
     9
 72
     5
  1

1001
ACAD
1000
MTEXTBEGIN
1070
    73
1070
     1
1070
    44
1040
1.0
1070
    74
1070
     0
1000
MTEXTEND
  0
MTEXT
  5
55BA
330
1A
100
AcDbEntity
  8
SUNPOU
100
AcDbMText
 10
97043.57276333935
 20
87545.22753299966
 30
0.0
 40
3.5
 41
0.0
 71
     9
 72
     5
  1

1001
ACAD
1000
MTEXTBEGIN
1070
    73
1070
     1
1070
    44
1040
1.0
1070
    74
1070
     0
1000
MTEXTEND
  0
MTEXT
  5
55BB
330
1A
100
AcDbEntity
  8
SUNPOU
100
AcDbMText
 10
128169.7525959589
 20
130040.1732006569
 30
0.0
 40
10.5
 41
0.0
 71
     9
 72
     5
  1

1001
ACAD
1000
MTEXTBEGIN
1070
    73
1070
     1
1070
    44
1040
1.0
1070
    74
1070
     0
1000
MTEXTEND
  0
MTEXT
  5
55BC
330
1A
100
AcDbEntity
  8
SUNPOU
100
AcDbMText
 10
130113.1598426684
 20
128239.1241207789
 30
0.0
 40
3.5
 41
0.0
 71
     9
 72
     5
  1

1001
ACAD
1000
MTEXTBEGIN
1070
    73
1070
     1
1070
    44
1040
1.0
1070
    74
1070
     0
1000
MTEXTEND
  0
MTEXT
  5
55BD
330
1A
100
AcDbEntity
  8
SUNPOU
100
AcDbMText
 10
78610.02030175463
 20
75873.33835563206
 30
0.0
 40
10.5
 41
0.0
 71
     9
 72
     5
  1

1001
ACAD
1000
MTEXTBEGIN
1070
    73
1070
     1
1070
    44
1040
1.0
1070
    74
1070
     0
1000
MTEXTEND
  0
MTEXT
  5
55BE
330
1A
100
AcDbEntity
  8
SUNPOU
100
AcDbMText
 10
64662.02020137862
 20
56700.93921651987
 30
0.0
 40
3.5
 41
0.0
 71
     7
 72
     5
  1

1001
ACAD
1000
MTEXTBEGIN
1070
    73
1070
     1
1070
    44
1040
1.0
1070
    74
1070
     0
1000
MTEXTEND
  0
MTEXT
  5
55BF
330
1A
100
AcDbEntity
  8
SUNPOU
100
AcDbMText
 10
45647.18959837177
 20
44463.08794733806
 30
0.0
 40
10.5
 41
0.0
 71
     7
 72
     5
  1

1001
ACAD
1000
MTEXTBEGIN
1070
    73
1070
     1
1070
    44
1040
1.0
1070
    74
1070
     0
1000
MTEXTEND
  0
MTEXT
  5
55C0
330
1A
100
AcDbEntity
  8
SUNPOU
100
AcDbMText
 10
33189.96133342368
 20
28618.15636923965
 30
0.0
 40
35.0
 41
0.0
 71
     9
 72
     5
  1

1001
ACAD
1000
MTEXTBEGIN
1070
    73
1070
     1
1070
    44
1040
1.0
1070
    74
1070
     0
1000
MTEXTEND
  0
MTEXT
  5
55C1
330
1A
100
AcDbEntity
  8
SUNPOU
100
AcDbMText
 10
32098.44639099864
 20
29226.93177928834
 30
0.0
 40
350.0000004171781
 41
0.0
 71
     7
 72
     5
  1

1001
ACAD
1000
MTEXTBEGIN
1070
    73
1070
     1
1070
    44
1040
1.0
1070
    74
1070
     0
1000
MTEXTEND
  0
MTEXT
  5
55C2
330
1A
100
AcDbEntity
  8
0
100
AcDbMText
 10
38142.39714894154
 20
27206.85414142458
 30
0.0
 40
8.0
 41
0.0
 71
     7
 72
     5
  1

1001
ACAD
1000
MTEXTBEGIN
1070
    73
1070
     1
1070
    44
1040
1.0
1070
    74
1070
     0
1000
MTEXTEND
  0
MTEXT
  5
55C3
330
1A
100
AcDbEntity
  8
0
100
AcDbMText
 10
40427.75483883644
 20
28177.64443617564
 30
0.0
 40
8.0
 41
0.0
 71
     7
 72
     5
  1

1001
ACAD
1000
MTEXTBEGIN
1070
    73
1070
     1
1070
    44
1040
1.0
1070
    74
1070
     0
1000
MTEXTEND
  0
MTEXT
  5
55C4
330
1A
100
AcDbEntity
  8
SUNPOU
100
AcDbMText
 10
43093.65185951858
 20
37689.75582855077
 30
0.0
 40
10.5
 41
0.0
 71
     1
 72
     5
  1

1001
ACAD
1000
MTEXTBEGIN
1070
    73
1070
     1
1070
    44
1040
1.0
1070
    74
1070
     0
1000
MTEXTEND
  0
MTEXT
  5
55C5
330
1A
100
AcDbEntity
  8
SUNPOU
100
AcDbMText
 10
35162.72866358265
 20
36742.96269463781
 30
0.0
 40
10.5
 41
0.0
 71
     7
 72
     5
  1

1001
ACAD
1000
MTEXTBEGIN
1070
    73
1070
     1
1070
    44
1040
1.0
1070
    74
1070
     0
1000
MTEXTEND
  0
MTEXT
  5
55C6
330
1A
100
AcDbEntity
  8
SUNPOU
100
AcDbMText
 10
38111.71232809542
 20
41643.63876648065
 30
0.0
 40
10.5
 41
0.0
 71
     7
 72
     5
  1

1001
ACAD
1000
MTEXTBEGIN
1070
    73
1070
     1
1070
    44
1040
1.0
1070
    74
1070
     0
1000
MTEXTEND
  0
MTEXT
  5
55C7
330
1A
100
AcDbEntity
  8
SUNPOU
100
AcDbMText
 10
42620.79045604596
 20
44079.93951410074
 30
0.0
 40
10.5
 41
0.0
 71
     7
 72
     5
  1

1001
ACAD
1000
MTEXTBEGIN
1070
    73
1070
     1
1070
    44
1040
1.0
1070
    74
1070
     0
1000
MTEXTEND
  0
MTEXT
  5
55C8
330
1A
100
AcDbEntity
  8
SUNPOU
100
AcDbMText
 10
26221.62834281429
 20
23077.53566448964
 30
0.0
 40
10.5
 41
0.0
 71
     7
 72
     5
  1

1001
ACAD
1000
MTEXTBEGIN
1070
    73
1070
     1
1070
    44
1040
1.0
1070
    74
1070
     0
1000
MTEXTEND
  0
MTEXT
  5
55C9
330
1A
100
AcDbEntity
  8
SUNPOU
100
AcDbMText
 10
77413.14677671455
 20
68750.51622813789
 30
0.0
 40
10.5
 41
0.0
 71
     9
 72
     5
  1

1001
ACAD
1000
MTEXTBEGIN
1070
    73
1070
     1
1070
    44
1040
1.0
1070
    74
1070
     0
1000
MTEXTEND
  0
MTEXT
  5
55CA
330
1A
100
AcDbEntity
  8
SUNPOU
100
AcDbMText
 10
86135.31434263256
 20
76166.35075967536
 30
0.0
 40
10.5
 41
0.0
 71
     9
 72
     5
  1

1001
ACAD
1000
MTEXTBEGIN
1070
    73
1070
     1
1070
    44
1040
1.0
1070
    74
1070
     0
1000
MTEXTEND
  0
MTEXT
  5
55CB
330
1A
100
AcDbEntity
  8
SUNPOU
100
AcDbMText
 10
105089.0730599624
 20
93632.92681216739
 30
0.0
 40
10.5
 41
0.0
 71
     9
 72
     5
  1

1001
ACAD
1000
MTEXTBEGIN
1070
    73
1070
     1
1070
    44
1040
1.0
1070
    74
1070
     0
1000
MTEXTEND
  0
MTEXT
  5
55CC
330
1A
100
AcDbEntity
  8
SUNPOU
100
AcDbMText
 10
107032.4803066718
 20
91831.87773228938
 30
0.0
 40
3.5
 41
0.0
 71
     9
 72
     5
  1

1001
ACAD
1000
MTEXTBEGIN
1070
    73
1070
     1
1070
    44
1040
1.0
1070
    74
1070
     0
1000
MTEXTEND
  0
MTEXT
  5
55CD
330
1A
100
AcDbEntity
  8
SUNPOU
100
AcDbMText
 10
138158.6601392916
 20
134326.8233999467
 30
0.0
 40
10.5
 41
0.0
 71
     9
 72
     5
  1

1001
ACAD
1000
MTEXTBEGIN
1070
    73
1070
     1
1070
    44
1040
1.0
1070
    74
1070
     0
1000
MTEXTEND
  0
MTEXT
  5
55CE
330
1A
100
AcDbEntity
  8
SUNPOU
100
AcDbMText
 10
140102.067386001
 20
132525.7743200686
 30
0.0
 40
3.5
 41
0.0
 71
     9
 72
     5
  1

1001
ACAD
1000
MTEXTBEGIN
1070
    73
1070
     1
1070
    44
1040
1.0
1070
    74
1070
     0
1000
MTEXTEND
  0
MTEXT
  5
55CF
330
1A
100
AcDbEntity
  8
SUNPOU
100
AcDbMText
 10
88598.92784508721
 20
80159.98855492179
 30
0.0
 40
10.5
 41
0.0
 71
     9
 72
     5
  1

1001
ACAD
1000
MTEXTBEGIN
1070
    73
1070
     1
1070
    44
1040
1.0
1070
    74
1070
     0
1000
MTEXTEND
  0
MTEXT
  5
55D0
330
1A
100
AcDbEntity
  8
SUNPOU
100
AcDbMText
 10
74650.92774471121
 20
60987.58941580959
 30
0.0
 40
3.5
 41
0.0
 71
     7
 72
     5
  1

1001
ACAD
1000
MTEXTBEGIN
1070
    73
1070
     1
1070
    44
1040
1.0
1070
    74
1070
     0
1000
MTEXTEND
  0
MTEXT
  5
55D1
330
1A
100
AcDbEntity
  8
SUNPOU
100
AcDbMText
 10
55636.09714170436
 20
48749.73814662781
 30
0.0
 40
10.5
 41
0.0
 71
     7
 72
     5
  1

1001
ACAD
1000
MTEXTBEGIN
1070
    73
1070
     1
1070
    44
1040
1.0
1070
    74
1070
     0
1000
MTEXTEND
  0
MTEXT
  5
55D2
330
1A
100
AcDbEntity
  8
SUNPOU
100
AcDbMText
 10
43178.86887675626
 20
32904.80656852937
 30
0.0
 40
35.0
 41
0.0
 71
     9
 72
     5
  1

1001
ACAD
1000
MTEXTBEGIN
1070
    73
1070
     1
1070
    44
1040
1.0
1070
    74
1070
     0
1000
MTEXTEND
  0
MTEXT
  5
55D3
330
1A
100
AcDbEntity
  8
SUNPOU
100
AcDbMText
 10
42087.3539343312
 20
33513.58197857808
 30
0.0
 40
350.0000004171781
 41
0.0
 71
     7
 72
     5
  1

1001
ACAD
1000
MTEXTBEGIN
1070
    73
1070
     1
1070
    44
1040
1.0
1070
    74
1070
     0
1000
MTEXTEND
  0
MTEXT
  5
55D4
330
1A
100
AcDbEntity
  8
0
100
AcDbMText
 10
48131.30469227412
 20
31493.50434071431
 30
0.0
 40
8.0
 41
0.0
 71
     7
 72
     5
  1

1001
ACAD
1000
MTEXTBEGIN
1070
    73
1070
     1
1070
    44
1040
1.0
1070
    74
1070
     0
1000
MTEXTEND
  0
MTEXT
  5
55D5
330
1A
100
AcDbEntity
  8
0
100
AcDbMText
 10
50416.66238216901
 20
32464.29463546537
 30
0.0
 40
8.0
 41
0.0
 71
     7
 72
     5
  1

1001
ACAD
1000
MTEXTBEGIN
1070
    73
1070
     1
1070
    44
1040
1.0
1070
    74
1070
     0
1000
MTEXTEND
  0
MTEXT
  5
55D6
330
1A
100
AcDbEntity
  8
SUNPOU
100
AcDbMText
 10
53082.55940285115
 20
41976.4060278405
 30
0.0
 40
10.5
 41
0.0
 71
     1
 72
     5
  1

1001
ACAD
1000
MTEXTBEGIN
1070
    73
1070
     1
1070
    44
1040
1.0
1070
    74
1070
     0
1000
MTEXTEND
  0
MTEXT
  5
55D7
330
1A
100
AcDbEntity
  8
SUNPOU
100
AcDbMText
 10
45151.63620691521
 20
41029.61289392755
 30
0.0
 40
10.5
 41
0.0
 71
     7
 72
     5
  1

1001
ACAD
1000
MTEXTBEGIN
1070
    73
1070
     1
1070
    44
1040
1.0
1070
    74
1070
     0
1000
MTEXTEND
  0
MTEXT
  5
55D8
330
1A
100
AcDbEntity
  8
SUNPOU
100
AcDbMText
 10
48100.61987142798
 20
45930.28896577039
 30
0.0
 40
10.5
 41
0.0
 71
     7
 72
     5
  1

1001
ACAD
1000
MTEXTBEGIN
1070
    73
1070
     1
1070
    44
1040
1.0
1070
    74
1070
     0
1000
MTEXTEND
  0
MTEXT
  5
55D9
330
1A
100
AcDbEntity
  8
SUNPOU
100
AcDbMText
 10
52609.69799937853
 20
48366.58971339046
 30
0.0
 40
10.5
 41
0.0
 71
     7
 72
     5
  1

1001
ACAD
1000
MTEXTBEGIN
1070
    73
1070
     1
1070
    44
1040
1.0
1070
    74
1070
     0
1000
MTEXTEND
  0
MTEXT
  5
55DA
330
1A
100
AcDbEntity
  8
SUNPOU
100
AcDbMText
 10
36210.53588614687
 20
27364.18586377937
 30
0.0
 40
10.5
 41
0.0
 71
     7
 72
     5
  1

1001
ACAD
1000
MTEXTBEGIN
1070
    73
1070
     1
1070
    44
1040
1.0
1070
    74
1070
     0
1000
MTEXTEND
  0
MTEXT
  5
55DB
330
1A
100
AcDbEntity
  8
SUNPOU
100
AcDbMText
 10
38021.29879752181
 20
33691.59985125794
 30
0.0
 40
10.5
 41
0.0
 71
     9
 72
     5
  1

1001
ACAD
1000
MTEXTBEGIN
1070
    73
1070
     1
1070
    44
1040
1.0
1070
    74
1070
     0
1000
MTEXTEND
  0
MTEXT
  5
55DC
330
1A
100
AcDbEntity
  8
SUNPOU
100
AcDbMText
 10
46743.46636343979
 20
41107.4343827954
 30
0.0
 40
10.5
 41
0.0
 71
     9
 72
     5
  1

1001
ACAD
1000
MTEXTBEGIN
1070
    73
1070
     1
1070
    44
1040
1.0
1070
    74
1070
     0
1000
MTEXTEND
  0
MTEXT
  5
55DD
330
1A
100
AcDbEntity
  8
SUNPOU
100
AcDbMText
 10
65697.22508076974
 20
58574.01043528746
 30
0.0
 40
10.5
 41
0.0
 71
     9
 72
     5
  1

1001
ACAD
1000
MTEXTBEGIN
1070
    73
1070
     1
1070
    44
1040
1.0
1070
    74
1070
     0
1000
MTEXTEND
  0
MTEXT
  5
55DE
330
1A
100
AcDbEntity
  8
SUNPOU
100
AcDbMText
 10
67640.63232747917
 20
56772.96135540945
 30
0.0
 40
3.5
 41
0.0
 71
     9
 72
     5
  1

1001
ACAD
1000
MTEXTBEGIN
1070
    73
1070
     1
1070
    44
1040
1.0
1070
    74
1070
     0
1000
MTEXTEND
  0
MTEXT
  5
55DF
330
1A
100
AcDbEntity
  8
SUNPOU
100
AcDbMText
 10
98766.81216009886
 20
99267.9070230668
 30
0.0
 40
10.5
 41
0.0
 71
     9
 72
     5
  1

1001
ACAD
1000
MTEXTBEGIN
1070
    73
1070
     1
1070
    44
1040
1.0
1070
    74
1070
     0
1000
MTEXTEND
  0
MTEXT
  5
55E0
330
1A
100
AcDbEntity
  8
SUNPOU
100
AcDbMText
 10
100710.2194068083
 20
97466.85794318876
 30
0.0
 40
3.5
 41
0.0
 71
     9
 72
     5
  1

1001
ACAD
1000
MTEXTBEGIN
1070
    73
1070
     1
1070
    44
1040
1.0
1070
    74
1070
     0
1000
MTEXTEND
  0
MTEXT
  5
55E1
330
1A
100
AcDbEntity
  8
SUNPOU
100
AcDbMText
 10
49207.07986589443
 20
45101.07217804184
 30
0.0
 40
10.5
 41
0.0
 71
     9
 72
     5
  1

1001
ACAD
1000
MTEXTBEGIN
1070
    73
1070
     1
1070
    44
1040
1.0
1070
    74
1070
     0
1000
MTEXTEND
  0
MTEXT
  5
55E2
330
1A
100
AcDbEntity
  8
SUNPOU
100
AcDbMText
 10
35259.07976551845
 20
25928.67303892964
 30
0.0
 40
3.5
 41
0.0
 71
     7
 72
     5
  1

1001
ACAD
1000
MTEXTBEGIN
1070
    73
1070
     1
1070
    44
1040
1.0
1070
    74
1070
     0
1000
MTEXTEND
  0
MTEXT
  5
55E3
330
1A
100
AcDbEntity
  8
SUNPOU
100
AcDbMText
 10
48951.43044828905
 20
35287.73625995099
 30
0.0
 40
10.5
 41
0.0
 71
     9
 72
     5
  1

1001
ACAD
1000
MTEXTBEGIN
1070
    73
1070
     1
1070
    44
1040
1.0
1070
    74
1070
     0
1000
MTEXTEND
  0
MTEXT
  5
55E4
330
1A
100
AcDbEntity
  8
SUNPOU
100
AcDbMText
 10
57673.59801420702
 20
42703.57079148847
 30
0.0
 40
10.5
 41
0.0
 71
     9
 72
     5
  1

1001
ACAD
1000
MTEXTBEGIN
1070
    73
1070
     1
1070
    44
1040
1.0
1070
    74
1070
     0
1000
MTEXTEND
  0
MTEXT
  5
55E5
330
1A
100
AcDbEntity
  8
SUNPOU
100
AcDbMText
 10
76627.35673153699
 20
60170.14684398051
 30
0.0
 40
10.5
 41
0.0
 71
     9
 72
     5
  1

1001
ACAD
1000
MTEXTBEGIN
1070
    73
1070
     1
1070
    44
1040
1.0
1070
    74
1070
     0
1000
MTEXTEND
  0
MTEXT
  5
55E6
330
1A
100
AcDbEntity
  8
SUNPOU
100
AcDbMText
 10
78570.76397824641
 20
58369.09776410251
 30
0.0
 40
3.5
 41
0.0
 71
     9
 72
     5
  1

1001
ACAD
1000
MTEXTBEGIN
1070
    73
1070
     1
1070
    44
1040
1.0
1070
    74
1070
     0
1000
MTEXTEND
  0
MTEXT
  5
55E7
330
1A
100
AcDbEntity
  8
SUNPOU
100
AcDbMText
 10
109696.943810866
 20
100864.0434317598
 30
0.0
 40
10.5
 41
0.0
 71
     9
 72
     5
  1

1001
ACAD
1000
MTEXTBEGIN
1070
    73
1070
     1
1070
    44
1040
1.0
1070
    74
1070
     0
1000
MTEXTEND
  0
MTEXT
  5
55E8
330
1A
100
AcDbEntity
  8
SUNPOU
100
AcDbMText
 10
111640.3510575755
 20
99062.99435188183
 30
0.0
 40
3.5
 41
0.0
 71
     9
 72
     5
  1

1001
ACAD
1000
MTEXTBEGIN
1070
    73
1070
     1
1070
    44
1040
1.0
1070
    74
1070
     0
1000
MTEXTEND
  0
MTEXT
  5
55E9
330
1A
100
AcDbEntity
  8
SUNPOU
100
AcDbMText
 10
60137.21151666167
 20
46697.20858673491
 30
0.0
 40
10.5
 41
0.0
 71
     9
 72
     5
  1

1001
ACAD
1000
MTEXTBEGIN
1070
    73
1070
     1
1070
    44
1040
1.0
1070
    74
1070
     0
1000
MTEXTEND
  0
MTEXT
  5
55EA
330
1A
100
AcDbEntity
  8
SUNPOU
100
AcDbMText
 10
46189.21141628568
 20
27524.80944762269
 30
0.0
 40
3.5
 41
0.0
 71
     7
 72
     5
  1

1001
ACAD
1000
MTEXTBEGIN
1070
    73
1070
     1
1070
    44
1040
1.0
1070
    74
1070
     0
1000
MTEXTEND
  0
MTEXT
  5
55EB
330
1A
100
AcDbEntity
  8
SUNPOU
100
AcDbMText
 10
45007.68847015541
 20
38269.57947701873
 30
0.0
 40
10.5
 41
0.0
 71
     9
 72
     5
  1

1001
ACAD
1000
MTEXTBEGIN
1070
    73
1070
     1
1070
    44
1040
1.0
1070
    74
1070
     0
1000
MTEXTEND
  0
MTEXT
  5
55EC
330
1A
100
AcDbEntity
  8
SUNPOU
100
AcDbMText
 10
63961.44718748539
 20
55736.15552951081
 30
0.0
 40
10.5
 41
0.0
 71
     9
 72
     5
  1

1001
ACAD
1000
MTEXTBEGIN
1070
    73
1070
     1
1070
    44
1040
1.0
1070
    74
1070
     0
1000
MTEXTEND
  0
MTEXT
  5
55ED
330
1A
100
AcDbEntity
  8
SUNPOU
100
AcDbMText
 10
65904.85443419479
 20
53935.10644963278
 30
0.0
 40
3.5
 41
0.0
 71
     9
 72
     5
  1

1001
ACAD
1000
MTEXTBEGIN
1070
    73
1070
     1
1070
    44
1040
1.0
1070
    74
1070
     0
1000
MTEXTEND
  0
MTEXT
  5
55EE
330
1A
100
AcDbEntity
  8
SUNPOU
100
AcDbMText
 10
97031.03426681453
 20
96430.05211729015
 30
0.0
 40
10.5
 41
0.0
 71
     9
 72
     5
  1

1001
ACAD
1000
MTEXTBEGIN
1070
    73
1070
     1
1070
    44
1040
1.0
1070
    74
1070
     0
1000
MTEXTEND
  0
MTEXT
  5
55EF
330
1A
100
AcDbEntity
  8
SUNPOU
100
AcDbMText
 10
98974.44151352393
 20
94629.00303741212
 30
0.0
 40
3.5
 41
0.0
 71
     9
 72
     5
  1

1001
ACAD
1000
MTEXTBEGIN
1070
    73
1070
     1
1070
    44
1040
1.0
1070
    74
1070
     0
1000
MTEXTEND
  0
MTEXT
  5
55F0
330
1A
100
AcDbEntity
  8
SUNPOU
100
AcDbMText
 10
47471.30197261006
 20
42263.21727226519
 30
0.0
 40
10.5
 41
0.0
 71
     9
 72
     5
  1

1001
ACAD
1000
MTEXTBEGIN
1070
    73
1070
     1
1070
    44
1040
1.0
1070
    74
1070
     0
1000
MTEXTEND
  0
MTEXT
  5
55F1
330
1A
100
AcDbEntity
  8
SUNPOU
100
AcDbMText
 10
33523.30187223408
 20
23090.81813315298
 30
0.0
 40
3.5
 41
0.0
 71
     7
 72
     5
  1

1001
ACAD
1000
MTEXTBEGIN
1070
    73
1070
     1
1070
    44
1040
1.0
1070
    74
1070
     0
1000
MTEXTEND
  0
MTEXT
  5
55F2
330
1A
100
AcDbEntity
  8
SUNPOU
100
AcDbMText
 10
57959.46254102503
 20
50038.08111611014
 30
0.0
 40
10.5
 41
0.0
 71
     9
 72
     5
  1

1001
ACAD
1000
MTEXTBEGIN
1070
    73
1070
     1
1070
    44
1040
1.0
1070
    74
1070
     0
1000
MTEXTEND
  0
MTEXT
  5
55F3
330
1A
100
AcDbEntity
  8
SUNPOU
100
AcDbMText
 10
76913.22125835503
 20
67504.65716860222
 30
0.0
 40
10.5
 41
0.0
 71
     9
 72
     5
  1

1001
ACAD
1000
MTEXTBEGIN
1070
    73
1070
     1
1070
    44
1040
1.0
1070
    74
1070
     0
1000
MTEXTEND
  0
MTEXT
  5
55F4
330
1A
100
AcDbEntity
  8
SUNPOU
100
AcDbMText
 10
78856.62850506443
 20
65703.6080887242
 30
0.0
 40
3.5
 41
0.0
 71
     9
 72
     5
  1

1001
ACAD
1000
MTEXTBEGIN
1070
    73
1070
     1
1070
    44
1040
1.0
1070
    74
1070
     0
1000
MTEXTEND
  0
MTEXT
  5
55F5
330
1A
100
AcDbEntity
  8
SUNPOU
100
AcDbMText
 10
109982.8083376841
 20
108198.5537563815
 30
0.0
 40
10.5
 41
0.0
 71
     9
 72
     5
  1

1001
ACAD
1000
MTEXTBEGIN
1070
    73
1070
     1
1070
    44
1040
1.0
1070
    74
1070
     0
1000
MTEXTEND
  0
MTEXT
  5
55F6
330
1A
100
AcDbEntity
  8
SUNPOU
100
AcDbMText
 10
111926.2155843934
 20
106397.5046765035
 30
0.0
 40
3.5
 41
0.0
 71
     9
 72
     5
  1

1001
ACAD
1000
MTEXTBEGIN
1070
    73
1070
     1
1070
    44
1040
1.0
1070
    74
1070
     0
1000
MTEXTEND
  0
MTEXT
  5
55F7
330
1A
100
AcDbEntity
  8
SUNPOU
100
AcDbMText
 10
60423.07604347968
 20
54031.71891135658
 30
0.0
 40
10.5
 41
0.0
 71
     9
 72
     5
  1

1001
ACAD
1000
MTEXTBEGIN
1070
    73
1070
     1
1070
    44
1040
1.0
1070
    74
1070
     0
1000
MTEXTEND
  0
MTEXT
  5
55F8
330
1A
100
AcDbEntity
  8
SUNPOU
100
AcDbMText
 10
46475.07594310369
 20
34859.3197722444
 30
0.0
 40
3.5
 41
0.0
 71
     7
 72
     5
  1

1001
ACAD
1000
MTEXTBEGIN
1070
    73
1070
     1
1070
    44
1040
1.0
1070
    74
1070
     0
1000
MTEXTEND
  0
MTEXT
  5
55F9
330
1A
100
AcDbEntity
  8
SUNPOU
100
AcDbMText
 10
74027.35402123588
 20
68370.58278833383
 30
0.0
 40
10.5
 41
0.0
 71
     9
 72
     5
  1

1001
ACAD
1000
MTEXTBEGIN
1070
    73
1070
     1
1070
    44
1040
1.0
1070
    74
1070
     0
1000
MTEXTEND
  0
MTEXT
  5
55FA
330
1A
100
AcDbEntity
  8
SUNPOU
100
AcDbMText
 10
75970.7612679453
 20
66569.53370845583
 30
0.0
 40
3.5
 41
0.0
 71
     9
 72
     5
  1

1001
ACAD
1000
MTEXTBEGIN
1070
    73
1070
     1
1070
    44
1040
1.0
1070
    74
1070
     0
1000
MTEXTEND
  0
MTEXT
  5
55FB
330
1A
100
AcDbEntity
  8
SUNPOU
100
AcDbMText
 10
107096.941100565
 20
109064.4793761132
 30
0.0
 40
10.5
 41
0.0
 71
     9
 72
     5
  1

1001
ACAD
1000
MTEXTBEGIN
1070
    73
1070
     1
1070
    44
1040
1.0
1070
    74
1070
     0
1000
MTEXTEND
  0
MTEXT
  5
55FC
330
1A
100
AcDbEntity
  8
SUNPOU
100
AcDbMText
 10
109040.3483472744
 20
107263.430296235
 30
0.0
 40
3.5
 41
0.0
 71
     9
 72
     5
  1

1001
ACAD
1000
MTEXTBEGIN
1070
    73
1070
     1
1070
    44
1040
1.0
1070
    74
1070
     0
1000
MTEXTEND
  0
MTEXT
  5
55FD
330
1A
100
AcDbEntity
  8
SUNPOU
100
AcDbMText
 10
105709.1709283621
 20
108141.3777665285
 30
0.0
 40
10.5
 41
0.0
 71
     9
 72
     5
  1

1001
ACAD
1000
MTEXTBEGIN
1070
    73
1070
     1
1070
    44
1040
1.0
1070
    74
1070
     0
1000
MTEXTEND
  0
MTEXT
  5
55FE
330
1A
100
AcDbEntity
  8
SUNPOU
100
AcDbMText
 10
107652.5781750715
 20
106340.3286866505
 30
0.0
 40
3.5
 41
0.0
 71
     9
 72
     5
  1

1001
ACAD
1000
MTEXTBEGIN
1070
    73
1070
     1
1070
    44
1040
1.0
1070
    74
1070
     0
1000
MTEXTEND
  0
MTEXT
  5
55FF
330
1A
100
AcDbEntity
  8
SUNPOU
100
AcDbMText
 10
73193.09268743351
 20
66158.78082845057
 30
0.0
 40
10.5
 41
0.0
 71
     9
 72
     5
  1

1001
ACAD
1000
MTEXTBEGIN
1070
    73
1070
     1
1070
    44
1040
1.0
1070
    74
1070
     0
1000
MTEXTEND
  0
MTEXT
  5
5600
330
1A
100
AcDbEntity
  8
SUNPOU
100
AcDbMText
 10
75916.39889159807
 20
66563.46252003162
 30
0.0
 40
3.5
 41
0.0
 71
     9
 72
     5
  1

1001
ACAD
1000
MTEXTBEGIN
1070
    73
1070
     1
1070
    44
1040
1.0
1070
    74
1070
     0
1000
MTEXTEND
  0
MTEXT
  5
5601
330
1A
100
AcDbEntity
  8
SUNPOU
100
AcDbMText
 10
75124.04436649058
 20
63402.1566819768
 30
0.0
 40
10.5
 41
0.0
 71
     9
 72
     5
  1

1001
ACAD
1000
MTEXTBEGIN
1070
    73
1070
     1
1070
    44
1040
1.0
1070
    74
1070
     0
1000
MTEXTEND
  0
MTEXT
  5
5602
330
1A
100
AcDbEntity
  8
SUNPOU
100
AcDbMText
 10
77067.4516132
 20
61601.1076020988
 30
0.0
 40
3.5
 41
0.0
 71
     9
 72
     5
  1

1001
ACAD
1000
MTEXTBEGIN
1070
    73
1070
     1
1070
    44
1040
1.0
1070
    74
1070
     0
1000
MTEXTEND
  0
MTEXT
  5
5603
330
1A
100
AcDbEntity
  8
SUNPOU
100
AcDbMText
 10
77012.54710378659
 20
61488.33571981449
 30
0.0
 40
3.5
 41
0.0
 71
     9
 72
     5
  1

1001
ACAD
1000
MTEXTBEGIN
1070
    73
1070
     1
1070
    44
1040
1.0
1070
    74
1070
     0
1000
MTEXTEND
  0
MTEXT
  5
5604
330
1A
100
AcDbEntity
  8
SUNPOU
100
AcDbMText
 10
76376.61896736668
 20
60677.01447874798
 30
0.0
 40
3.5
 41
0.0
 71
     9
 72
     5
  1

1001
ACAD
1000
MTEXTBEGIN
1070
    73
1070
     1
1070
    44
1040
1.0
1070
    74
1070
     0
1000
MTEXTEND
  0
MTEXT
  5
5605
330
1A
100
AcDbEntity
  8
SUNPOU
100
AcDbMText
 10
76375.37854794595
 20
60676.76650181048
 30
0.0
 40
10.5
 41
0.0
 71
     9
 72
     5
  1

1001
ACAD
1000
MTEXTBEGIN
1070
    73
1070
     1
1070
    44
1040
1.0
1070
    74
1070
     0
1000
MTEXTEND
  0
MTEXT
  5
5606
330
1A
100
AcDbEntity
  8
SUNPOU
100
AcDbMText
 10
84709.93991079748
 20
78034.0328293557
 30
0.0
 40
10.5
 41
0.0
 71
     9
 72
     5
  1

1001
ACAD
1000
MTEXTBEGIN
1070
    73
1070
     1
1070
    44
1040
1.0
1070
    74
1070
     0
1000
MTEXTEND
  0
MTEXT
  5
5607
330
1A
100
AcDbEntity
  8
SUNPOU
100
AcDbMText
 10
93432.10747671546
 20
85449.86736089315
 30
0.0
 40
10.5
 41
0.0
 71
     9
 72
     5
  1

1001
ACAD
1000
MTEXTBEGIN
1070
    73
1070
     1
1070
    44
1040
1.0
1070
    74
1070
     0
1000
MTEXTEND
  0
MTEXT
  5
5608
330
1A
100
AcDbEntity
  8
SUNPOU
100
AcDbMText
 10
112385.8661940454
 20
102916.4434133851
 30
0.0
 40
10.5
 41
0.0
 71
     9
 72
     5
  1

1001
ACAD
1000
MTEXTBEGIN
1070
    73
1070
     1
1070
    44
1040
1.0
1070
    74
1070
     0
1000
MTEXTEND
  0
MTEXT
  5
5609
330
1A
100
AcDbEntity
  8
SUNPOU
100
AcDbMText
 10
114329.2734407548
 20
101115.3943335072
 30
0.0
 40
3.5
 41
0.0
 71
     9
 72
     5
  1

1001
ACAD
1000
MTEXTBEGIN
1070
    73
1070
     1
1070
    44
1040
1.0
1070
    74
1070
     0
1000
MTEXTEND
  0
MTEXT
  5
560A
330
1A
100
AcDbEntity
  8
SUNPOU
100
AcDbMText
 10
145455.4532733745
 20
143610.3400011645
 30
0.0
 40
10.5
 41
0.0
 71
     9
 72
     5
  1

1001
ACAD
1000
MTEXTBEGIN
1070
    73
1070
     1
1070
    44
1040
1.0
1070
    74
1070
     0
1000
MTEXTEND
  0
MTEXT
  5
560B
330
1A
100
AcDbEntity
  8
SUNPOU
100
AcDbMText
 10
147398.8605200839
 20
141809.2909212864
 30
0.0
 40
3.5
 41
0.0
 71
     9
 72
     5
  1

1001
ACAD
1000
MTEXTBEGIN
1070
    73
1070
     1
1070
    44
1040
1.0
1070
    74
1070
     0
1000
MTEXTEND
  0
MTEXT
  5
560C
330
1A
100
AcDbEntity
  8
SUNPOU
100
AcDbMText
 10
95895.72097917011
 20
89443.50515613962
 30
0.0
 40
10.5
 41
0.0
 71
     9
 72
     5
  1

1001
ACAD
1000
MTEXTBEGIN
1070
    73
1070
     1
1070
    44
1040
1.0
1070
    74
1070
     0
1000
MTEXTEND
  0
MTEXT
  5
560D
330
1A
100
AcDbEntity
  8
SUNPOU
100
AcDbMText
 10
81947.72087879414
 20
70271.1060170274
 30
0.0
 40
3.5
 41
0.0
 71
     7
 72
     5
  1

1001
ACAD
1000
MTEXTBEGIN
1070
    73
1070
     1
1070
    44
1040
1.0
1070
    74
1070
     0
1000
MTEXTEND
  0
MTEXT
  5
560E
330
1A
100
AcDbEntity
  8
SUNPOU
100
AcDbMText
 10
62932.89027578729
 20
58033.25474784561
 30
0.0
 40
10.5
 41
0.0
 71
     7
 72
     5
  1

1001
ACAD
1000
MTEXTBEGIN
1070
    73
1070
     1
1070
    44
1040
1.0
1070
    74
1070
     0
1000
MTEXTEND
  0
MTEXT
  5
560F
330
1A
100
AcDbEntity
  8
SUNPOU
100
AcDbMText
 10
50475.66201083918
 20
42188.32316974718
 30
0.0
 40
35.0
 41
0.0
 71
     9
 72
     5
  1

1001
ACAD
1000
MTEXTBEGIN
1070
    73
1070
     1
1070
    44
1040
1.0
1070
    74
1070
     0
1000
MTEXTEND
  0
MTEXT
  5
5610
330
1A
100
AcDbEntity
  8
SUNPOU
100
AcDbMText
 10
49384.14706841413
 20
42797.0985797959
 30
0.0
 40
350.0000004171781
 41
0.0
 71
     7
 72
     5
  1

1001
ACAD
1000
MTEXTBEGIN
1070
    73
1070
     1
1070
    44
1040
1.0
1070
    74
1070
     0
1000
MTEXTEND
  0
MTEXT
  5
5611
330
1A
100
AcDbEntity
  8
0
100
AcDbMText
 10
55428.09782635704
 20
40777.0209419321
 30
0.0
 40
8.0
 41
0.0
 71
     7
 72
     5
  1

1001
ACAD
1000
MTEXTBEGIN
1070
    73
1070
     1
1070
    44
1040
1.0
1070
    74
1070
     0
1000
MTEXTEND
  0
MTEXT
  5
5612
330
1A
100
AcDbEntity
  8
0
100
AcDbMText
 10
57713.45551625193
 20
41747.81123668316
 30
0.0
 40
8.0
 41
0.0
 71
     7
 72
     5
  1

1001
ACAD
1000
MTEXTBEGIN
1070
    73
1070
     1
1070
    44
1040
1.0
1070
    74
1070
     0
1000
MTEXTEND
  0
MTEXT
  5
5613
330
1A
100
AcDbEntity
  8
SUNPOU
100
AcDbMText
 10
60379.35253693407
 20
51259.9226290583
 30
0.0
 40
10.5
 41
0.0
 71
     1
 72
     5
  1

1001
ACAD
1000
MTEXTBEGIN
1070
    73
1070
     1
1070
    44
1040
1.0
1070
    74
1070
     0
1000
MTEXTEND
  0
MTEXT
  5
5614
330
1A
100
AcDbEntity
  8
SUNPOU
100
AcDbMText
 10
52448.42934099813
 20
50313.12949514535
 30
0.0
 40
10.5
 41
0.0
 71
     7
 72
     5
  1

1001
ACAD
1000
MTEXTBEGIN
1070
    73
1070
     1
1070
    44
1040
1.0
1070
    74
1070
     0
1000
MTEXTEND
  0
MTEXT
  5
5615
330
1A
100
AcDbEntity
  8
SUNPOU
100
AcDbMText
 10
55397.4130055109
 20
55213.80556698819
 30
0.0
 40
10.5
 41
0.0
 71
     7
 72
     5
  1

1001
ACAD
1000
MTEXTBEGIN
1070
    73
1070
     1
1070
    44
1040
1.0
1070
    74
1070
     0
1000
MTEXTEND
  0
MTEXT
  5
5616
330
1A
100
AcDbEntity
  8
SUNPOU
100
AcDbMText
 10
59906.49113346147
 20
57650.10631460826
 30
0.0
 40
10.5
 41
0.0
 71
     7
 72
     5
  1

1001
ACAD
1000
MTEXTBEGIN
1070
    73
1070
     1
1070
    44
1040
1.0
1070
    74
1070
     0
1000
MTEXTEND
  0
MTEXT
  5
5617
330
1A
100
AcDbEntity
  8
SUNPOU
100
AcDbMText
 10
43507.32902022978
 20
36647.70246499718
 30
0.0
 40
10.5
 41
0.0
 71
     7
 72
     5
  1

1001
ACAD
1000
MTEXTBEGIN
1070
    73
1070
     1
1070
    44
1040
1.0
1070
    74
1070
     0
1000
MTEXTEND
  0
MTEXT
  5
5618
330
1A
100
AcDbEntity
  8
SUNPOU
100
AcDbMText
 10
94698.84745413006
 20
82320.68302864544
 30
0.0
 40
10.5
 41
0.0
 71
     9
 72
     5
  1

1001
ACAD
1000
MTEXTBEGIN
1070
    73
1070
     1
1070
    44
1040
1.0
1070
    74
1070
     0
1000
MTEXTEND
  0
MTEXT
  5
5619
330
1A
100
AcDbEntity
  8
SUNPOU
100
AcDbMText
 10
103421.015020048
 20
89736.5175601829
 30
0.0
 40
10.5
 41
0.0
 71
     9
 72
     5
  1

1001
ACAD
1000
MTEXTBEGIN
1070
    73
1070
     1
1070
    44
1040
1.0
1070
    74
1070
     0
1000
MTEXTEND
  0
MTEXT
  5
561A
330
1A
100
AcDbEntity
  8
SUNPOU
100
AcDbMText
 10
122374.773737378
 20
107203.0936126749
 30
0.0
 40
10.5
 41
0.0
 71
     9
 72
     5
  1

1001
ACAD
1000
MTEXTBEGIN
1070
    73
1070
     1
1070
    44
1040
1.0
1070
    74
1070
     0
1000
MTEXTEND
  0
MTEXT
  5
561B
330
1A
100
AcDbEntity
  8
SUNPOU
100
AcDbMText
 10
124318.1809840874
 20
105402.0445327969
 30
0.0
 40
3.5
 41
0.0
 71
     9
 72
     5
  1

1001
ACAD
1000
MTEXTBEGIN
1070
    73
1070
     1
1070
    44
1040
1.0
1070
    74
1070
     0
1000
MTEXTEND
  0
MTEXT
  5
561C
330
1A
100
AcDbEntity
  8
SUNPOU
100
AcDbMText
 10
155444.3608167071
 20
147896.9902004542
 30
0.0
 40
10.5
 41
0.0
 71
     9
 72
     5
  1

1001
ACAD
1000
MTEXTBEGIN
1070
    73
1070
     1
1070
    44
1040
1.0
1070
    74
1070
     0
1000
MTEXTEND
  0
MTEXT
  5
561D
330
1A
100
AcDbEntity
  8
SUNPOU
100
AcDbMText
 10
157387.7680634165
 20
146095.9411205762
 30
0.0
 40
3.5
 41
0.0
 71
     9
 72
     5
  1

1001
ACAD
1000
MTEXTBEGIN
1070
    73
1070
     1
1070
    44
1040
1.0
1070
    74
1070
     0
1000
MTEXTEND
  0
MTEXT
  5
561E
330
1A
100
AcDbEntity
  8
SUNPOU
100
AcDbMText
 10
105884.6285225027
 20
93730.15535542933
 30
0.0
 40
10.5
 41
0.0
 71
     9
 72
     5
  1

1001
ACAD
1000
MTEXTBEGIN
1070
    73
1070
     1
1070
    44
1040
1.0
1070
    74
1070
     0
1000
MTEXTEND
  0
MTEXT
  5
561F
330
1A
100
AcDbEntity
  8
SUNPOU
100
AcDbMText
 10
91936.6284221267
 20
74557.75621631714
 30
0.0
 40
3.5
 41
0.0
 71
     7
 72
     5
  1

1001
ACAD
1000
MTEXTBEGIN
1070
    73
1070
     1
1070
    44
1040
1.0
1070
    74
1070
     0
1000
MTEXTEND
  0
MTEXT
  5
5620
330
1A
100
AcDbEntity
  8
SUNPOU
100
AcDbMText
 10
72921.79781911986
 20
62319.90494713532
 30
0.0
 40
10.5
 41
0.0
 71
     7
 72
     5
  1

1001
ACAD
1000
MTEXTBEGIN
1070
    73
1070
     1
1070
    44
1040
1.0
1070
    74
1070
     0
1000
MTEXTEND
  0
MTEXT
  5
5621
330
1A
100
AcDbEntity
  8
SUNPOU
100
AcDbMText
 10
60464.56955417175
 20
46474.97336903692
 30
0.0
 40
35.0
 41
0.0
 71
     9
 72
     5
  1

1001
ACAD
1000
MTEXTBEGIN
1070
    73
1070
     1
1070
    44
1040
1.0
1070
    74
1070
     0
1000
MTEXTEND
  0
MTEXT
  5
5622
330
1A
100
AcDbEntity
  8
SUNPOU
100
AcDbMText
 10
59373.05461174673
 20
47083.74877908561
 30
0.0
 40
350.0000004171781
 41
0.0
 71
     7
 72
     5
  1

1001
ACAD
1000
MTEXTBEGIN
1070
    73
1070
     1
1070
    44
1040
1.0
1070
    74
1070
     0
1000
MTEXTEND
  0
MTEXT
  5
5623
330
1A
100
AcDbEntity
  8
0
100
AcDbMText
 10
65417.00536968963
 20
45063.67114122186
 30
0.0
 40
8.0
 41
0.0
 71
     7
 72
     5
  1

1001
ACAD
1000
MTEXTBEGIN
1070
    73
1070
     1
1070
    44
1040
1.0
1070
    74
1070
     0
1000
MTEXTEND
  0
MTEXT
  5
5624
330
1A
100
AcDbEntity
  8
0
100
AcDbMText
 10
67702.36305958452
 20
46034.46143597292
 30
0.0
 40
8.0
 41
0.0
 71
     7
 72
     5
  1

1001
ACAD
1000
MTEXTBEGIN
1070
    73
1070
     1
1070
    44
1040
1.0
1070
    74
1070
     0
1000
MTEXTEND
  0
MTEXT
  5
5625
330
1A
100
AcDbEntity
  8
SUNPOU
100
AcDbMText
 10
70368.26008026666
 20
55546.57282834803
 30
0.0
 40
10.5
 41
0.0
 71
     1
 72
     5
  1

1001
ACAD
1000
MTEXTBEGIN
1070
    73
1070
     1
1070
    44
1040
1.0
1070
    74
1070
     0
1000
MTEXTEND
  0
MTEXT
  5
5626
330
1A
100
AcDbEntity
  8
SUNPOU
100
AcDbMText
 10
62437.33688433072
 20
54599.77969443507
 30
0.0
 40
10.5
 41
0.0
 71
     7
 72
     5
  1

1001
ACAD
1000
MTEXTBEGIN
1070
    73
1070
     1
1070
    44
1040
1.0
1070
    74
1070
     0
1000
MTEXTEND
  0
MTEXT
  5
5627
330
1A
100
AcDbEntity
  8
SUNPOU
100
AcDbMText
 10
65386.32054884348
 20
59500.45576627792
 30
0.0
 40
10.5
 41
0.0
 71
     7
 72
     5
  1

1001
ACAD
1000
MTEXTBEGIN
1070
    73
1070
     1
1070
    44
1040
1.0
1070
    74
1070
     0
1000
MTEXTEND
  0
MTEXT
  5
5628
330
1A
100
AcDbEntity
  8
SUNPOU
100
AcDbMText
 10
69895.39867679405
 20
61936.756513898
 30
0.0
 40
10.5
 41
0.0
 71
     7
 72
     5
  1

1001
ACAD
1000
MTEXTBEGIN
1070
    73
1070
     1
1070
    44
1040
1.0
1070
    74
1070
     0
1000
MTEXTEND
  0
MTEXT
  5
5629
330
1A
100
AcDbEntity
  8
SUNPOU
100
AcDbMText
 10
53496.23656356237
 20
40934.35266428691
 30
0.0
 40
10.5
 41
0.0
 71
     7
 72
     5
  1

1001
ACAD
1000
MTEXTBEGIN
1070
    73
1070
     1
1070
    44
1040
1.0
1070
    74
1070
     0
1000
MTEXTEND
  0
MTEXT
  5
562A
330
1A
100
AcDbEntity
  8
SUNPOU
100
AcDbMText
 10
55306.99947493731
 20
47261.76665176546
 30
0.0
 40
10.5
 41
0.0
 71
     9
 72
     5
  1

1001
ACAD
1000
MTEXTBEGIN
1070
    73
1070
     1
1070
    44
1040
1.0
1070
    74
1070
     0
1000
MTEXTEND
  0
MTEXT
  5
562B
330
1A
100
AcDbEntity
  8
SUNPOU
100
AcDbMText
 10
64029.16704085527
 20
54677.60118330295
 30
0.0
 40
10.5
 41
0.0
 71
     9
 72
     5
  1

1001
ACAD
1000
MTEXTBEGIN
1070
    73
1070
     1
1070
    44
1040
1.0
1070
    74
1070
     0
1000
MTEXTEND
  0
MTEXT
  5
562C
330
1A
100
AcDbEntity
  8
SUNPOU
100
AcDbMText
 10
82982.92575818527
 20
72144.17723579499
 30
0.0
 40
10.5
 41
0.0
 71
     9
 72
     5
  1

1001
ACAD
1000
MTEXTBEGIN
1070
    73
1070
     1
1070
    44
1040
1.0
1070
    74
1070
     0
1000
MTEXTEND
  0
MTEXT
  5
562D
330
1A
100
AcDbEntity
  8
SUNPOU
100
AcDbMText
 10
84926.33300489467
 20
70343.12815591697
 30
0.0
 40
3.5
 41
0.0
 71
     9
 72
     5
  1

1001
ACAD
1000
MTEXTBEGIN
1070
    73
1070
     1
1070
    44
1040
1.0
1070
    74
1070
     0
1000
MTEXTEND
  0
MTEXT
  5
562E
330
1A
100
AcDbEntity
  8
SUNPOU
100
AcDbMText
 10
116052.5128375142
 20
112838.0738235742
 30
0.0
 40
10.5
 41
0.0
 71
     9
 72
     5
  1

1001
ACAD
1000
MTEXTBEGIN
1070
    73
1070
     1
1070
    44
1040
1.0
1070
    74
1070
     0
1000
MTEXTEND
  0
MTEXT
  5
562F
330
1A
100
AcDbEntity
  8
SUNPOU
100
AcDbMText
 10
117995.9200842238
 20
111037.0247436963
 30
0.0
 40
3.5
 41
0.0
 71
     9
 72
     5
  1

1001
ACAD
1000
MTEXTBEGIN
1070
    73
1070
     1
1070
    44
1040
1.0
1070
    74
1070
     0
1000
MTEXTEND
  0
MTEXT
  5
5630
330
1A
100
AcDbEntity
  8
SUNPOU
100
AcDbMText
 10
66492.78054330994
 20
58671.23897854939
 30
0.0
 40
10.5
 41
0.0
 71
     9
 72
     5
  1

1001
ACAD
1000
MTEXTBEGIN
1070
    73
1070
     1
1070
    44
1040
1.0
1070
    74
1070
     0
1000
MTEXTEND
  0
MTEXT
  5
5631
330
1A
100
AcDbEntity
  8
SUNPOU
100
AcDbMText
 10
52544.78044293397
 20
39498.83983943717
 30
0.0
 40
3.5
 41
0.0
 71
     7
 72
     5
  1

1001
ACAD
1000
MTEXTBEGIN
1070
    73
1070
     1
1070
    44
1040
1.0
1070
    74
1070
     0
1000
MTEXTEND
  0
MTEXT
  5
5632
330
1A
100
AcDbEntity
  8
SUNPOU
100
AcDbMText
 10
66237.13112570454
 20
48857.90306045851
 30
0.0
 40
10.5
 41
0.0
 71
     9
 72
     5
  1

1001
ACAD
1000
MTEXTBEGIN
1070
    73
1070
     1
1070
    44
1040
1.0
1070
    74
1070
     0
1000
MTEXTEND
  0
MTEXT
  5
5633
330
1A
100
AcDbEntity
  8
SUNPOU
100
AcDbMText
 10
74959.29869162253
 20
56273.73759199599
 30
0.0
 40
10.5
 41
0.0
 71
     9
 72
     5
  1

1001
ACAD
1000
MTEXTBEGIN
1070
    73
1070
     1
1070
    44
1040
1.0
1070
    74
1070
     0
1000
MTEXTEND
  0
MTEXT
  5
5634
330
1A
100
AcDbEntity
  8
SUNPOU
100
AcDbMText
 10
93913.0574089525
 20
73740.31364448805
 30
0.0
 40
10.5
 41
0.0
 71
     9
 72
     5
  1

1001
ACAD
1000
MTEXTBEGIN
1070
    73
1070
     1
1070
    44
1040
1.0
1070
    74
1070
     0
1000
MTEXTEND
  0
MTEXT
  5
5635
330
1A
100
AcDbEntity
  8
SUNPOU
100
AcDbMText
 10
95856.46465566192
 20
71939.26456461004
 30
0.0
 40
3.5
 41
0.0
 71
     9
 72
     5
  1

1001
ACAD
1000
MTEXTBEGIN
1070
    73
1070
     1
1070
    44
1040
1.0
1070
    74
1070
     0
1000
MTEXTEND
  0
MTEXT
  5
5636
330
1A
100
AcDbEntity
  8
SUNPOU
100
AcDbMText
 10
126982.6444882816
 20
114434.2102322673
 30
0.0
 40
10.5
 41
0.0
 71
     9
 72
     5
  1

1001
ACAD
1000
MTEXTBEGIN
1070
    73
1070
     1
1070
    44
1040
1.0
1070
    74
1070
     0
1000
MTEXTEND
  0
MTEXT
  5
5637
330
1A
100
AcDbEntity
  8
SUNPOU
100
AcDbMText
 10
128926.051734991
 20
112633.1611523893
 30
0.0
 40
3.5
 41
0.0
 71
     9
 72
     5
  1

1001
ACAD
1000
MTEXTBEGIN
1070
    73
1070
     1
1070
    44
1040
1.0
1070
    74
1070
     0
1000
MTEXTEND
  0
MTEXT
  5
5638
330
1A
100
AcDbEntity
  8
SUNPOU
100
AcDbMText
 10
77422.91219407717
 20
60267.37538724244
 30
0.0
 40
10.5
 41
0.0
 71
     9
 72
     5
  1

1001
ACAD
1000
MTEXTBEGIN
1070
    73
1070
     1
1070
    44
1040
1.0
1070
    74
1070
     0
1000
MTEXTEND
  0
MTEXT
  5
5639
330
1A
100
AcDbEntity
  8
SUNPOU
100
AcDbMText
 10
63474.91209370119
 20
41094.97624813023
 30
0.0
 40
3.5
 41
0.0
 71
     7
 72
     5
  1

1001
ACAD
1000
MTEXTBEGIN
1070
    73
1070
     1
1070
    44
1040
1.0
1070
    74
1070
     0
1000
MTEXTEND
  0
MTEXT
  5
563A
330
1A
100
AcDbEntity
  8
SUNPOU
100
AcDbMText
 10
48117.65086229006
 20
40806.11043916631
 30
0.0
 40
10.5
 41
0.0
 71
     9
 72
     5
  1

1001
ACAD
1000
MTEXTBEGIN
1070
    73
1070
     1
1070
    44
1040
1.0
1070
    74
1070
     0
1000
MTEXTEND
  0
MTEXT
  5
563B
330
1A
100
AcDbEntity
  8
SUNPOU
100
AcDbMText
 10
67071.40957962004
 20
58272.68649165838
 30
0.0
 40
10.5
 41
0.0
 71
     9
 72
     5
  1

1001
ACAD
1000
MTEXTBEGIN
1070
    73
1070
     1
1070
    44
1040
1.0
1070
    74
1070
     0
1000
MTEXTEND
  0
MTEXT
  5
563C
330
1A
100
AcDbEntity
  8
SUNPOU
100
AcDbMText
 10
69014.81682632945
 20
56471.63741178035
 30
0.0
 40
3.5
 41
0.0
 71
     9
 72
     5
  1

1001
ACAD
1000
MTEXTBEGIN
1070
    73
1070
     1
1070
    44
1040
1.0
1070
    74
1070
     0
1000
MTEXTEND
  0
MTEXT
  5
563D
330
1A
100
AcDbEntity
  8
SUNPOU
100
AcDbMText
 10
100140.9966589491
 20
98966.58307943773
 30
0.0
 40
10.5
 41
0.0
 71
     9
 72
     5
  1

1001
ACAD
1000
MTEXTBEGIN
1070
    73
1070
     1
1070
    44
1040
1.0
1070
    74
1070
     0
1000
MTEXTEND
  0
MTEXT
  5
563E
330
1A
100
AcDbEntity
  8
SUNPOU
100
AcDbMText
 10
102084.4039056586
 20
97165.53399955968
 30
0.0
 40
3.5
 41
0.0
 71
     9
 72
     5
  1

1001
ACAD
1000
MTEXTBEGIN
1070
    73
1070
     1
1070
    44
1040
1.0
1070
    74
1070
     0
1000
MTEXTEND
  0
MTEXT
  5
563F
330
1A
100
AcDbEntity
  8
SUNPOU
100
AcDbMText
 10
50581.26436474472
 20
44799.74823441275
 30
0.0
 40
10.5
 41
0.0
 71
     9
 72
     5
  1

1001
ACAD
1000
MTEXTBEGIN
1070
    73
1070
     1
1070
    44
1040
1.0
1070
    74
1070
     0
1000
MTEXTEND
  0
MTEXT
  5
5640
330
1A
100
AcDbEntity
  8
SUNPOU
100
AcDbMText
 10
36633.26426436873
 20
25627.34909530054
 30
0.0
 40
3.5
 41
0.0
 71
     7
 72
     5
  1

1001
ACAD
1000
MTEXTBEGIN
1070
    73
1070
     1
1070
    44
1040
1.0
1070
    74
1070
     0
1000
MTEXTEND
  0
MTEXT
  5
5641
330
1A
100
AcDbEntity
  8
SUNPOU
100
AcDbMText
 10
61069.42493315968
 20
52574.61207825771
 30
0.0
 40
10.5
 41
0.0
 71
     9
 72
     5
  1

1001
ACAD
1000
MTEXTBEGIN
1070
    73
1070
     1
1070
    44
1040
1.0
1070
    74
1070
     0
1000
MTEXTEND
  0
MTEXT
  5
5642
330
1A
100
AcDbEntity
  8
SUNPOU
100
AcDbMText
 10
80023.18365048967
 20
70041.18813074978
 30
0.0
 40
10.5
 41
0.0
 71
     9
 72
     5
  1

1001
ACAD
1000
MTEXTBEGIN
1070
    73
1070
     1
1070
    44
1040
1.0
1070
    74
1070
     0
1000
MTEXTEND
  0
MTEXT
  5
5643
330
1A
100
AcDbEntity
  8
SUNPOU
100
AcDbMText
 10
81966.59089719908
 20
68240.13905087176
 30
0.0
 40
3.5
 41
0.0
 71
     9
 72
     5
  1

1001
ACAD
1000
MTEXTBEGIN
1070
    73
1070
     1
1070
    44
1040
1.0
1070
    74
1070
     0
1000
MTEXTEND
  0
MTEXT
  5
5644
330
1A
100
AcDbEntity
  8
SUNPOU
100
AcDbMText
 10
113092.7707298186
 20
110735.0847185291
 30
0.0
 40
10.5
 41
0.0
 71
     9
 72
     5
  1

1001
ACAD
1000
MTEXTBEGIN
1070
    73
1070
     1
1070
    44
1040
1.0
1070
    74
1070
     0
1000
MTEXTEND
  0
MTEXT
  5
5645
330
1A
100
AcDbEntity
  8
SUNPOU
100
AcDbMText
 10
115036.1779765282
 20
108934.0356386511
 30
0.0
 40
3.5
 41
0.0
 71
     9
 72
     5
  1

1001
ACAD
1000
MTEXTBEGIN
1070
    73
1070
     1
1070
    44
1040
1.0
1070
    74
1070
     0
1000
MTEXTEND
  0
MTEXT
  5
5646
330
1A
100
AcDbEntity
  8
SUNPOU
100
AcDbMText
 10
63533.03843561432
 20
56568.24987350415
 30
0.0
 40
10.5
 41
0.0
 71
     9
 72
     5
  1

1001
ACAD
1000
MTEXTBEGIN
1070
    73
1070
     1
1070
    44
1040
1.0
1070
    74
1070
     0
1000
MTEXTEND
  0
MTEXT
  5
5647
330
1A
100
AcDbEntity
  8
SUNPOU
100
AcDbMText
 10
49585.03833523835
 20
37395.85073439196
 30
0.0
 40
3.5
 41
0.0
 71
     7
 72
     5
  1

1001
ACAD
1000
MTEXTBEGIN
1070
    73
1070
     1
1070
    44
1040
1.0
1070
    74
1070
     0
1000
MTEXTEND
  0
MTEXT
  5
5648
330
1A
100
AcDbEntity
  8
SUNPOU
100
AcDbMText
 10
77137.31641337052
 20
70907.11375048141
 30
0.0
 40
10.5
 41
0.0
 71
     9
 72
     5
  1

1001
ACAD
1000
MTEXTBEGIN
1070
    73
1070
     1
1070
    44
1040
1.0
1070
    74
1070
     0
1000
MTEXTEND
  0
MTEXT
  5
5649
330
1A
100
AcDbEntity
  8
SUNPOU
100
AcDbMText
 10
79080.72366007995
 20
69106.06467060339
 30
0.0
 40
3.5
 41
0.0
 71
     9
 72
     5
  1

1001
ACAD
1000
MTEXTBEGIN
1070
    73
1070
     1
1070
    44
1040
1.0
1070
    74
1070
     0
1000
MTEXTEND
  0
MTEXT
  5
564A
330
1A
100
AcDbEntity
  8
SUNPOU
100
AcDbMText
 10
110206.9034926996
 20
111601.0103382607
 30
0.0
 40
10.5
 41
0.0
 71
     9
 72
     5
  1

1001
ACAD
1000
MTEXTBEGIN
1070
    73
1070
     1
1070
    44
1040
1.0
1070
    74
1070
     0
1000
MTEXTEND
  0
MTEXT
  5
564B
330
1A
100
AcDbEntity
  8
SUNPOU
100
AcDbMText
 10
112150.310739409
 20
109799.9612583826
 30
0.0
 40
3.5
 41
0.0
 71
     9
 72
     5
  1

1001
ACAD
1000
MTEXTBEGIN
1070
    73
1070
     1
1070
    44
1040
1.0
1070
    74
1070
     0
1000
MTEXTEND
  0
MTEXT
  5
564C
330
1A
100
AcDbEntity
  8
SUNPOU
100
AcDbMText
 10
108819.1333204967
 20
110677.9087286761
 30
0.0
 40
10.5
 41
0.0
 71
     9
 72
     5
  1

1001
ACAD
1000
MTEXTBEGIN
1070
    73
1070
     1
1070
    44
1040
1.0
1070
    74
1070
     0
1000
MTEXTEND
  0
MTEXT
  5
564D
330
1A
100
AcDbEntity
  8
SUNPOU
100
AcDbMText
 10
110762.5405672062
 20
108876.8596487981
 30
0.0
 40
3.5
 41
0.0
 71
     9
 72
     5
  1

1001
ACAD
1000
MTEXTBEGIN
1070
    73
1070
     1
1070
    44
1040
1.0
1070
    74
1070
     0
1000
MTEXTEND
  0
MTEXT
  5
564E
330
1A
100
AcDbEntity
  8
SUNPOU
100
AcDbMText
 10
76303.05507956816
 20
68695.31179059812
 30
0.0
 40
10.5
 41
0.0
 71
     9
 72
     5
  1

1001
ACAD
1000
MTEXTBEGIN
1070
    73
1070
     1
1070
    44
1040
1.0
1070
    74
1070
     0
1000
MTEXTEND
  0
MTEXT
  5
564F
330
1A
100
AcDbEntity
  8
SUNPOU
100
AcDbMText
 10
79026.36128373271
 20
69099.99348217918
 30
0.0
 40
3.5
 41
0.0
 71
     9
 72
     5
  1

1001
ACAD
1000
MTEXTBEGIN
1070
    73
1070
     1
1070
    44
1040
1.0
1070
    74
1070
     0
1000
MTEXTEND
  0
MTEXT
  5
5650
330
1A
100
AcDbEntity
  8
SUNPOU
100
AcDbMText
 10
78234.00675862522
 20
65938.68764412436
 30
0.0
 40
10.5
 41
0.0
 71
     9
 72
     5
  1

1001
ACAD
1000
MTEXTBEGIN
1070
    73
1070
     1
1070
    44
1040
1.0
1070
    74
1070
     0
1000
MTEXTEND
  0
MTEXT
  5
5651
330
1A
100
AcDbEntity
  8
SUNPOU
100
AcDbMText
 10
80177.41400533465
 20
64137.63856424636
 30
0.0
 40
3.5
 41
0.0
 71
     9
 72
     5
  1

1001
ACAD
1000
MTEXTBEGIN
1070
    73
1070
     1
1070
    44
1040
1.0
1070
    74
1070
     0
1000
MTEXTEND
  0
MTEXT
  5
5652
330
1A
100
AcDbEntity
  8
SUNPOU
100
AcDbMText
 10
80122.50949592122
 20
64024.86668196204
 30
0.0
 40
3.5
 41
0.0
 71
     9
 72
     5
  1

1001
ACAD
1000
MTEXTBEGIN
1070
    73
1070
     1
1070
    44
1040
1.0
1070
    74
1070
     0
1000
MTEXTEND
  0
MTEXT
  5
5653
330
1A
100
AcDbEntity
  8
SUNPOU
100
AcDbMText
 10
79486.58135950133
 20
63213.54544089553
 30
0.0
 40
3.5
 41
0.0
 71
     9
 72
     5
  1

1001
ACAD
1000
MTEXTBEGIN
1070
    73
1070
     1
1070
    44
1040
1.0
1070
    74
1070
     0
1000
MTEXTEND
  0
MTEXT
  5
5654
330
1A
100
AcDbEntity
  8
SUNPOU
100
AcDbMText
 10
79485.3409400806
 20
63213.29746395804
 30
0.0
 40
10.5
 41
0.0
 71
     9
 72
     5
  1

1001
ACAD
1000
MTEXTBEGIN
1070
    73
1070
     1
1070
    44
1040
1.0
1070
    74
1070
     0
1000
MTEXTEND
  0
MTEXT
  5
5655
330
1A
100
AcDbEntity
  8
SUNPOU
100
AcDbMText
 10
85473.63363627567
 20
80747.76348077064
 30
0.0
 40
10.5
 41
0.0
 71
     9
 72
     5
  1

1001
ACAD
1000
MTEXTBEGIN
1070
    73
1070
     1
1070
    44
1040
1.0
1070
    74
1070
     0
1000
MTEXTEND
  0
MTEXT
  5
5656
330
1A
100
AcDbEntity
  8
SUNPOU
100
AcDbMText
 10
94195.80120219368
 20
88163.59801230808
 30
0.0
 40
10.5
 41
0.0
 71
     9
 72
     5
  1

1001
ACAD
1000
MTEXTBEGIN
1070
    73
1070
     1
1070
    44
1040
1.0
1070
    74
1070
     0
1000
MTEXTEND
  0
MTEXT
  5
5657
330
1A
100
AcDbEntity
  8
SUNPOU
100
AcDbMText
 10
113149.5599195236
 20
105630.1740648001
 30
0.0
 40
10.5
 41
0.0
 71
     9
 72
     5
  1

1001
ACAD
1000
MTEXTBEGIN
1070
    73
1070
     1
1070
    44
1040
1.0
1070
    74
1070
     0
1000
MTEXTEND
  0
MTEXT
  5
5658
330
1A
100
AcDbEntity
  8
SUNPOU
100
AcDbMText
 10
115092.967166233
 20
103829.1249849221
 30
0.0
 40
3.5
 41
0.0
 71
     9
 72
     5
  1

1001
ACAD
1000
MTEXTBEGIN
1070
    73
1070
     1
1070
    44
1040
1.0
1070
    74
1070
     0
1000
MTEXTEND
  0
MTEXT
  5
5659
330
1A
100
AcDbEntity
  8
SUNPOU
100
AcDbMText
 10
146219.1469988527
 20
146324.0706525794
 30
0.0
 40
10.5
 41
0.0
 71
     9
 72
     5
  1

1001
ACAD
1000
MTEXTBEGIN
1070
    73
1070
     1
1070
    44
1040
1.0
1070
    74
1070
     0
1000
MTEXTEND
  0
MTEXT
  5
565A
330
1A
100
AcDbEntity
  8
SUNPOU
100
AcDbMText
 10
148162.5542455621
 20
144523.0215727014
 30
0.0
 40
3.5
 41
0.0
 71
     9
 72
     5
  1

1001
ACAD
1000
MTEXTBEGIN
1070
    73
1070
     1
1070
    44
1040
1.0
1070
    74
1070
     0
1000
MTEXTEND
  0
MTEXT
  5
565B
330
1A
100
AcDbEntity
  8
SUNPOU
100
AcDbMText
 10
96659.41470464833
 20
92157.23580755453
 30
0.0
 40
10.5
 41
0.0
 71
     9
 72
     5
  1

1001
ACAD
1000
MTEXTBEGIN
1070
    73
1070
     1
1070
    44
1040
1.0
1070
    74
1070
     0
1000
MTEXTEND
  0
MTEXT
  5
565C
330
1A
100
AcDbEntity
  8
SUNPOU
100
AcDbMText
 10
82711.41460427234
 20
72984.83666844234
 30
0.0
 40
3.5
 41
0.0
 71
     7
 72
     5
  1

1001
ACAD
1000
MTEXTBEGIN
1070
    73
1070
     1
1070
    44
1040
1.0
1070
    74
1070
     0
1000
MTEXTEND
  0
MTEXT
  5
565D
330
1A
100
AcDbEntity
  8
SUNPOU
100
AcDbMText
 10
63696.58400126548
 20
60746.98539926055
 30
0.0
 40
10.5
 41
0.0
 71
     7
 72
     5
  1

1001
ACAD
1000
MTEXTBEGIN
1070
    73
1070
     1
1070
    44
1040
1.0
1070
    74
1070
     0
1000
MTEXTEND
  0
MTEXT
  5
565E
330
1A
100
AcDbEntity
  8
SUNPOU
100
AcDbMText
 10
51239.35573631738
 20
44902.05382116213
 30
0.0
 40
35.0
 41
0.0
 71
     9
 72
     5
  1

1001
ACAD
1000
MTEXTBEGIN
1070
    73
1070
     1
1070
    44
1040
1.0
1070
    74
1070
     0
1000
MTEXTEND
  0
MTEXT
  5
565F
330
1A
100
AcDbEntity
  8
SUNPOU
100
AcDbMText
 10
50147.84079389233
 20
45510.82923121084
 30
0.0
 40
350.0000004171781
 41
0.0
 71
     7
 72
     5
  1

1001
ACAD
1000
MTEXTBEGIN
1070
    73
1070
     1
1070
    44
1040
1.0
1070
    74
1070
     0
1000
MTEXTEND
  0
MTEXT
  5
5660
330
1A
100
AcDbEntity
  8
0
100
AcDbMText
 10
56191.79155183523
 20
43490.75159334705
 30
0.0
 40
8.0
 41
0.0
 71
     7
 72
     5
  1

1001
ACAD
1000
MTEXTBEGIN
1070
    73
1070
     1
1070
    44
1040
1.0
1070
    74
1070
     0
1000
MTEXTEND
  0
MTEXT
  5
5661
330
1A
100
AcDbEntity
  8
0
100
AcDbMText
 10
58477.14924173012
 20
44461.54188809812
 30
0.0
 40
8.0
 41
0.0
 71
     7
 72
     5
  1

1001
ACAD
1000
MTEXTBEGIN
1070
    73
1070
     1
1070
    44
1040
1.0
1070
    74
1070
     0
1000
MTEXTEND
  0
MTEXT
  5
5662
330
1A
100
AcDbEntity
  8
SUNPOU
100
AcDbMText
 10
61143.04626241227
 20
53973.65328047324
 30
0.0
 40
10.5
 41
0.0
 71
     1
 72
     5
  1

1001
ACAD
1000
MTEXTBEGIN
1070
    73
1070
     1
1070
    44
1040
1.0
1070
    74
1070
     0
1000
MTEXTEND
  0
MTEXT
  5
5663
330
1A
100
AcDbEntity
  8
SUNPOU
100
AcDbMText
 10
53212.12306647633
 20
53026.86014656028
 30
0.0
 40
10.5
 41
0.0
 71
     7
 72
     5
  1

1001
ACAD
1000
MTEXTBEGIN
1070
    73
1070
     1
1070
    44
1040
1.0
1070
    74
1070
     0
1000
MTEXTEND
  0
MTEXT
  5
5664
330
1A
100
AcDbEntity
  8
SUNPOU
100
AcDbMText
 10
56161.10673098909
 20
57927.53621840312
 30
0.0
 40
10.5
 41
0.0
 71
     7
 72
     5
  1

1001
ACAD
1000
MTEXTBEGIN
1070
    73
1070
     1
1070
    44
1040
1.0
1070
    74
1070
     0
1000
MTEXTEND
  0
MTEXT
  5
5665
330
1A
100
AcDbEntity
  8
SUNPOU
100
AcDbMText
 10
60670.18485893966
 20
60363.8369660232
 30
0.0
 40
10.5
 41
0.0
 71
     7
 72
     5
  1

1001
ACAD
1000
MTEXTBEGIN
1070
    73
1070
     1
1070
    44
1040
1.0
1070
    74
1070
     0
1000
MTEXTEND
  0
MTEXT
  5
5666
330
1A
100
AcDbEntity
  8
SUNPOU
100
AcDbMText
 10
44271.02274570799
 20
39361.43311641211
 30
0.0
 40
10.5
 41
0.0
 71
     7
 72
     5
  1

1001
ACAD
1000
MTEXTBEGIN
1070
    73
1070
     1
1070
    44
1040
1.0
1070
    74
1070
     0
1000
MTEXTEND
  0
MTEXT
  5
5667
330
1A
100
AcDbEntity
  8
SUNPOU
100
AcDbMText
 10
95462.54117960824
 20
85034.41368006038
 30
0.0
 40
10.5
 41
0.0
 71
     9
 72
     5
  1

1001
ACAD
1000
MTEXTBEGIN
1070
    73
1070
     1
1070
    44
1040
1.0
1070
    74
1070
     0
1000
MTEXTEND
  0
MTEXT
  5
5668
330
1A
100
AcDbEntity
  8
SUNPOU
100
AcDbMText
 10
104184.7087455262
 20
92450.24821159784
 30
0.0
 40
10.5
 41
0.0
 71
     9
 72
     5
  1

1001
ACAD
1000
MTEXTBEGIN
1070
    73
1070
     1
1070
    44
1040
1.0
1070
    74
1070
     0
1000
MTEXTEND
  0
MTEXT
  5
5669
330
1A
100
AcDbEntity
  8
SUNPOU
100
AcDbMText
 10
123138.4674628562
 20
109916.8242640898
 30
0.0
 40
10.5
 41
0.0
 71
     9
 72
     5
  1

1001
ACAD
1000
MTEXTBEGIN
1070
    73
1070
     1
1070
    44
1040
1.0
1070
    74
1070
     0
1000
MTEXTEND
  0
MTEXT
  5
566A
330
1A
100
AcDbEntity
  8
SUNPOU
100
AcDbMText
 10
125081.8747095656
 20
108115.7751842118
 30
0.0
 40
3.5
 41
0.0
 71
     9
 72
     5
  1

1001
ACAD
1000
MTEXTBEGIN
1070
    73
1070
     1
1070
    44
1040
1.0
1070
    74
1070
     0
1000
MTEXTEND
  0
MTEXT
  5
566B
330
1A
100
AcDbEntity
  8
SUNPOU
100
AcDbMText
 10
156208.0545421853
 20
150610.7208518691
 30
0.0
 40
10.5
 41
0.0
 71
     9
 72
     5
  1

1001
ACAD
1000
MTEXTBEGIN
1070
    73
1070
     1
1070
    44
1040
1.0
1070
    74
1070
     0
1000
MTEXTEND
  0
MTEXT
  5
566C
330
1A
100
AcDbEntity
  8
SUNPOU
100
AcDbMText
 10
158151.4617888947
 20
148809.6717719911
 30
0.0
 40
3.5
 41
0.0
 71
     9
 72
     5
  1

1001
ACAD
1000
MTEXTBEGIN
1070
    73
1070
     1
1070
    44
1040
1.0
1070
    74
1070
     0
1000
MTEXTEND
  0
MTEXT
  5
566D
330
1A
100
AcDbEntity
  8
SUNPOU
100
AcDbMText
 10
106648.3222479809
 20
96443.88600684427
 30
0.0
 40
10.5
 41
0.0
 71
     9
 72
     5
  1

1001
ACAD
1000
MTEXTBEGIN
1070
    73
1070
     1
1070
    44
1040
1.0
1070
    74
1070
     0
1000
MTEXTEND
  0
MTEXT
  5
566E
330
1A
100
AcDbEntity
  8
SUNPOU
100
AcDbMText
 10
92700.3221476049
 20
77271.48686773207
 30
0.0
 40
3.5
 41
0.0
 71
     7
 72
     5
  1

1001
ACAD
1000
MTEXTBEGIN
1070
    73
1070
     1
1070
    44
1040
1.0
1070
    74
1070
     0
1000
MTEXTEND
  0
MTEXT
  5
566F
330
1A
100
AcDbEntity
  8
SUNPOU
100
AcDbMText
 10
73685.49154459807
 20
65033.63559855027
 30
0.0
 40
10.5
 41
0.0
 71
     7
 72
     5
  1

1001
ACAD
1000
MTEXTBEGIN
1070
    73
1070
     1
1070
    44
1040
1.0
1070
    74
1070
     0
1000
MTEXTEND
  0
MTEXT
  5
5670
330
1A
100
AcDbEntity
  8
SUNPOU
100
AcDbMText
 10
61228.26327964995
 20
49188.70402045184
 30
0.0
 40
35.0
 41
0.0
 71
     9
 72
     5
  1

1001
ACAD
1000
MTEXTBEGIN
1070
    73
1070
     1
1070
    44
1040
1.0
1070
    74
1070
     0
1000
MTEXTEND
  0
MTEXT
  5
5671
330
1A
100
AcDbEntity
  8
SUNPOU
100
AcDbMText
 10
60136.74833722491
 20
49797.47943050056
 30
0.0
 40
350.0000004171781
 41
0.0
 71
     7
 72
     5
  1

1001
ACAD
1000
MTEXTBEGIN
1070
    73
1070
     1
1070
    44
1040
1.0
1070
    74
1070
     0
1000
MTEXTEND
  0
MTEXT
  5
5672
330
1A
100
AcDbEntity
  8
0
100
AcDbMText
 10
66180.69909516782
 20
47777.40179263677
 30
0.0
 40
8.0
 41
0.0
 71
     7
 72
     5
  1

1001
ACAD
1000
MTEXTBEGIN
1070
    73
1070
     1
1070
    44
1040
1.0
1070
    74
1070
     0
1000
MTEXTEND
  0
MTEXT
  5
5673
330
1A
100
AcDbEntity
  8
0
100
AcDbMText
 10
68466.05678506271
 20
48748.19208738784
 30
0.0
 40
8.0
 41
0.0
 71
     7
 72
     5
  1

1001
ACAD
1000
MTEXTBEGIN
1070
    73
1070
     1
1070
    44
1040
1.0
1070
    74
1070
     0
1000
MTEXTEND
  0
MTEXT
  5
5674
330
1A
100
AcDbEntity
  8
SUNPOU
100
AcDbMText
 10
71131.95380574485
 20
58260.30347976296
 30
0.0
 40
10.5
 41
0.0
 71
     1
 72
     5
  1

1001
ACAD
1000
MTEXTBEGIN
1070
    73
1070
     1
1070
    44
1040
1.0
1070
    74
1070
     0
1000
MTEXTEND
  0
MTEXT
  5
5675
330
1A
100
AcDbEntity
  8
SUNPOU
100
AcDbMText
 10
63201.03060980891
 20
57313.51034585003
 30
0.0
 40
10.5
 41
0.0
 71
     7
 72
     5
  1

1001
ACAD
1000
MTEXTBEGIN
1070
    73
1070
     1
1070
    44
1040
1.0
1070
    74
1070
     0
1000
MTEXTEND
  0
MTEXT
  5
5676
330
1A
100
AcDbEntity
  8
SUNPOU
100
AcDbMText
 10
66150.01427432169
 20
62214.18641769286
 30
0.0
 40
10.5
 41
0.0
 71
     7
 72
     5
  1

1001
ACAD
1000
MTEXTBEGIN
1070
    73
1070
     1
1070
    44
1040
1.0
1070
    74
1070
     0
1000
MTEXTEND
  0
MTEXT
  5
5677
330
1A
100
AcDbEntity
  8
SUNPOU
100
AcDbMText
 10
70659.09240227225
 20
64650.48716531294
 30
0.0
 40
10.5
 41
0.0
 71
     7
 72
     5
  1

1001
ACAD
1000
MTEXTBEGIN
1070
    73
1070
     1
1070
    44
1040
1.0
1070
    74
1070
     0
1000
MTEXTEND
  0
MTEXT
  5
5678
330
1A
100
AcDbEntity
  8
SUNPOU
100
AcDbMText
 10
54259.93028904056
 20
43648.08331570185
 30
0.0
 40
10.5
 41
0.0
 71
     7
 72
     5
  1

1001
ACAD
1000
MTEXTBEGIN
1070
    73
1070
     1
1070
    44
1040
1.0
1070
    74
1070
     0
1000
MTEXTEND
  0
MTEXT
  5
5679
330
1A
100
AcDbEntity
  8
SUNPOU
100
AcDbMText
 10
56070.69320041551
 20
49975.4973031804
 30
0.0
 40
10.5
 41
0.0
 71
     9
 72
     5
  1

1001
ACAD
1000
MTEXTBEGIN
1070
    73
1070
     1
1070
    44
1040
1.0
1070
    74
1070
     0
1000
MTEXTEND
  0
MTEXT
  5
567A
330
1A
100
AcDbEntity
  8
SUNPOU
100
AcDbMText
 10
64792.86076633347
 20
57391.33183471787
 30
0.0
 40
10.5
 41
0.0
 71
     9
 72
     5
  1

1001
ACAD
1000
MTEXTBEGIN
1070
    73
1070
     1
1070
    44
1040
1.0
1070
    74
1070
     0
1000
MTEXTEND
  0
MTEXT
  5
567B
330
1A
100
AcDbEntity
  8
SUNPOU
100
AcDbMText
 10
83746.61948366345
 20
74857.90788720994
 30
0.0
 40
10.5
 41
0.0
 71
     9
 72
     5
  1

1001
ACAD
1000
MTEXTBEGIN
1070
    73
1070
     1
1070
    44
1040
1.0
1070
    74
1070
     0
1000
MTEXTEND
  0
MTEXT
  5
567C
330
1A
100
AcDbEntity
  8
SUNPOU
100
AcDbMText
 10
85690.02673037287
 20
73056.85880733192
 30
0.0
 40
3.5
 41
0.0
 71
     9
 72
     5
  1

1001
ACAD
1000
MTEXTBEGIN
1070
    73
1070
     1
1070
    44
1040
1.0
1070
    74
1070
     0
1000
MTEXTEND
  0
MTEXT
  5
567D
330
1A
100
AcDbEntity
  8
SUNPOU
100
AcDbMText
 10
116816.2065629925
 20
115551.8044749892
 30
0.0
 40
10.5
 41
0.0
 71
     9
 72
     5
  1

1001
ACAD
1000
MTEXTBEGIN
1070
    73
1070
     1
1070
    44
1040
1.0
1070
    74
1070
     0
1000
MTEXTEND
  0
MTEXT
  5
567E
330
1A
100
AcDbEntity
  8
SUNPOU
100
AcDbMText
 10
118759.6138097019
 20
113750.7553951111
 30
0.0
 40
3.5
 41
0.0
 71
     9
 72
     5
  1

1001
ACAD
1000
MTEXTBEGIN
1070
    73
1070
     1
1070
    44
1040
1.0
1070
    74
1070
     0
1000
MTEXTEND
  0
MTEXT
  5
567F
330
1A
100
AcDbEntity
  8
SUNPOU
100
AcDbMText
 10
67256.47426878814
 20
61384.96962996432
 30
0.0
 40
10.5
 41
0.0
 71
     9
 72
     5
  1

1001
ACAD
1000
MTEXTBEGIN
1070
    73
1070
     1
1070
    44
1040
1.0
1070
    74
1070
     0
1000
MTEXTEND
  0
MTEXT
  5
5680
330
1A
100
AcDbEntity
  8
SUNPOU
100
AcDbMText
 10
53308.47416841216
 20
42212.57049085211
 30
0.0
 40
3.5
 41
0.0
 71
     7
 72
     5
  1

1001
ACAD
1000
MTEXTBEGIN
1070
    73
1070
     1
1070
    44
1040
1.0
1070
    74
1070
     0
1000
MTEXTEND
  0
MTEXT
  5
5681
330
1A
100
AcDbEntity
  8
SUNPOU
100
AcDbMText
 10
67000.82485118274
 20
51571.63371187344
 30
0.0
 40
10.5
 41
0.0
 71
     9
 72
     5
  1

1001
ACAD
1000
MTEXTBEGIN
1070
    73
1070
     1
1070
    44
1040
1.0
1070
    74
1070
     0
1000
MTEXTEND
  0
MTEXT
  5
5682
330
1A
100
AcDbEntity
  8
SUNPOU
100
AcDbMText
 10
75722.99241710071
 20
58987.46824341094
 30
0.0
 40
10.5
 41
0.0
 71
     9
 72
     5
  1

1001
ACAD
1000
MTEXTBEGIN
1070
    73
1070
     1
1070
    44
1040
1.0
1070
    74
1070
     0
1000
MTEXTEND
  0
MTEXT
  5
5683
330
1A
100
AcDbEntity
  8
SUNPOU
100
AcDbMText
 10
94676.75113443068
 20
76454.04429590299
 30
0.0
 40
10.5
 41
0.0
 71
     9
 72
     5
  1

1001
ACAD
1000
MTEXTBEGIN
1070
    73
1070
     1
1070
    44
1040
1.0
1070
    74
1070
     0
1000
MTEXTEND
  0
MTEXT
  5
5684
330
1A
100
AcDbEntity
  8
SUNPOU
100
AcDbMText
 10
96620.1583811401
 20
74652.99521602497
 30
0.0
 40
3.5
 41
0.0
 71
     9
 72
     5
  1

1001
ACAD
1000
MTEXTBEGIN
1070
    73
1070
     1
1070
    44
1040
1.0
1070
    74
1070
     0
1000
MTEXTEND
  0
MTEXT
  5
5685
330
1A
100
AcDbEntity
  8
SUNPOU
100
AcDbMText
 10
127746.3382137598
 20
117147.9408836822
 30
0.0
 40
10.5
 41
0.0
 71
     9
 72
     5
  1

1001
ACAD
1000
MTEXTBEGIN
1070
    73
1070
     1
1070
    44
1040
1.0
1070
    74
1070
     0
1000
MTEXTEND
  0
MTEXT
  5
5686
330
1A
100
AcDbEntity
  8
SUNPOU
100
AcDbMText
 10
129689.7454604692
 20
115346.8918038042
 30
0.0
 40
3.5
 41
0.0
 71
     9
 72
     5
  1

1001
ACAD
1000
MTEXTBEGIN
1070
    73
1070
     1
1070
    44
1040
1.0
1070
    74
1070
     0
1000
MTEXTEND
  0
MTEXT
  5
5687
330
1A
100
AcDbEntity
  8
SUNPOU
100
AcDbMText
 10
78186.60591955537
 20
62981.10603865737
 30
0.0
 40
10.5
 41
0.0
 71
     9
 72
     5
  1

1001
ACAD
1000
MTEXTBEGIN
1070
    73
1070
     1
1070
    44
1040
1.0
1070
    74
1070
     0
1000
MTEXTEND
  0
MTEXT
  5
5688
330
1A
100
AcDbEntity
  8
SUNPOU
100
AcDbMText
 10
64238.60581917939
 20
43808.70689954517
 30
0.0
 40
3.5
 41
0.0
 71
     7
 72
     5
  1

1001
ACAD
1000
MTEXTBEGIN
1070
    73
1070
     1
1070
    44
1040
1.0
1070
    74
1070
     0
1000
MTEXTEND
  0
MTEXT
  5
5689
330
1A
100
AcDbEntity
  8
SUNPOU
100
AcDbMText
 10
33428.13481137435
 20
32770.04710035563
 30
0.0
 40
10.5
 41
0.0
 71
     9
 72
     5
  1

1001
ACAD
1000
MTEXTBEGIN
1070
    73
1070
     1
1070
    44
1040
1.0
1070
    74
1070
     0
1000
MTEXTEND
  0
MTEXT
  5
568A
330
1A
100
AcDbEntity
  8
SUNPOU
100
AcDbMText
 10
52381.89352870431
 20
50236.62315284768
 30
0.0
 40
10.5
 41
0.0
 71
     9
 72
     5
  1

1001
ACAD
1000
MTEXTBEGIN
1070
    73
1070
     1
1070
    44
1040
1.0
1070
    74
1070
     0
1000
MTEXTEND
  0
MTEXT
  5
568B
330
1A
100
AcDbEntity
  8
SUNPOU
100
AcDbMText
 10
54325.30077541374
 20
48435.57407296968
 30
0.0
 40
3.5
 41
0.0
 71
     9
 72
     5
  1

1001
ACAD
1000
MTEXTBEGIN
1070
    73
1070
     1
1070
    44
1040
1.0
1070
    74
1070
     0
1000
MTEXTEND
  0
MTEXT
  5
568C
330
1A
100
AcDbEntity
  8
SUNPOU
100
AcDbMText
 10
85451.48060803342
 20
90930.51974062703
 30
0.0
 40
10.5
 41
0.0
 71
     9
 72
     5
  1

1001
ACAD
1000
MTEXTBEGIN
1070
    73
1070
     1
1070
    44
1040
1.0
1070
    74
1070
     0
1000
MTEXTEND
  0
MTEXT
  5
568D
330
1A
100
AcDbEntity
  8
SUNPOU
100
AcDbMText
 10
87394.88785474286
 20
89129.47066074901
 30
0.0
 40
3.5
 41
0.0
 71
     9
 72
     5
  1

1001
ACAD
1000
MTEXTBEGIN
1070
    73
1070
     1
1070
    44
1040
1.0
1070
    74
1070
     0
1000
MTEXTEND
  0
MTEXT
  5
568E
330
1A
100
AcDbEntity
  8
SUNPOU
100
AcDbMText
 10
35891.74831382901
 20
36763.68489560208
 30
0.0
 40
10.5
 41
0.0
 71
     9
 72
     5
  1

1001
ACAD
1000
MTEXTBEGIN
1070
    73
1070
     1
1070
    44
1040
1.0
1070
    74
1070
     0
1000
MTEXTEND
  0
MTEXT
  5
568F
330
1A
100
AcDbEntity
  8
SUNPOU
100
AcDbMText
 10
21943.74821345303
 20
17591.28575648985
 30
0.0
 40
3.5
 41
0.0
 71
     7
 72
     5
  1

1001
ACAD
1000
MTEXTBEGIN
1070
    73
1070
     1
1070
    44
1040
1.0
1070
    74
1070
     0
1000
MTEXTEND
  0
MTEXT
  5
11D07
330
1A
100
AcDbEntity
  8
ZISSEN1
100
AcDbMText
 10
-1776.105031899954
 20
1912.808376262202
 30
0.0
 40
5.0
 41
171.8538
 71
     1
 72
     5
  1
DB-5410　　No.SS0001f34
  7
ゴシック体
1001
ACAD
1000
MTEXTBEGIN
1070
    73
1070
     1
1070
    44
1040
1.0
1070
    74
1070
     0
1000
MTEXTEND
  0
LINE
  5
12226
330
1A
100
AcDbEntity
  8
ZISSEN1
100
AcDbLine
 10
-1776.955741228714
 20
1803.564376154488
 30
0.0
 11
-1776.955741228714
 21
1727.539256154489
 31
0.0
  0
LINE
  5
12227
330
1A
100
AcDbEntity
  8
ZISSEN1
100
AcDbLine
 10
-1874.955738228716
 20
1809.039256154489
 30
0.0
 11
-1874.955738228716
 21
1727.539256154489
 31
0.0
  0
LINE
  5
12228
330
1A
100
AcDbEntity
  8
ZISSEN1
100
AcDbLine
 10
-1775.955741228715
 20
1809.039256154489
 30
0.0
 11
-1775.955741228715
 21
1721.289256154489
 31
0.0
  0
LINE
  5
12229
330
1A
100
AcDbEntity
  8
ZISSEN1
100
AcDbLine
 10
-1875.955741228716
 20
1709.039266154489
 30
0.0
 11
-1875.955741228716
 21
1717.789266154489
 31
0.0
  0
LINE
  5
1222A
330
1A
100
AcDbEntity
  8
ZISSEN1
100
AcDbLine
 10
-1785.369971228716
 20
1736.039266154489
 30
0.0
 11
-1866.541531228715
 21
1736.039266154489
 31
0.0
  0
LINE
  5
1222B
330
1A
100
AcDbEntity
  8
ZISSEN1
100
AcDbLine
 10
-1775.955741228715
 20
1709.039266154489
 30
0.0
 11
-1875.955741228716
 21
1709.039266154489
 31
0.0
  0
ARC
  5
1222C
330
1A
100
AcDbEntity
  8
ZISSEN1
100
AcDbCircle
 10
-1871.455739228716
 20
1719.539256154489
 30
0.0
 40
1.749999899999999
100
AcDbArc
 50
270.0
 51
90.0
  0
LINE
  5
1222D
330
1A
100
AcDbEntity
  8
ZISSEN1
100
AcDbLine
 10
-1867.955741228715
 20
1734.625046154489
 30
0.0
 11
-1867.955741228715
 21
1712.039256154489
 31
0.0
  0
LINE
  5
1222E
330
1A
100
AcDbEntity
  8
ZISSEN1
100
AcDbLine
 10
-1867.955741228715
 20
1725.064396154489
 30
0.0
 11
-1867.955741228715
 21
1709.039266154489
 31
0.0
  0
LINE
  5
1222F
330
1A
100
AcDbEntity
  8
CL1
100
AcDbLine
 10
-1871.955740228716
 20
1716.539246154489
 30
0.0
 11
-1871.955740228716
 21
1728.539286154489
 31
0.0
  0
LINE
  5
12230
330
1A
100
AcDbEntity
  8
ZISSEN1
100
AcDbLine
 10
-1871.455739228716
 20
1717.789266154489
 30
0.0
 11
-1875.955741228716
 21
1717.789266154489
 31
0.0
  0
LINE
  5
12231
330
1A
100
AcDbEntity
  8
ZISSEN1
100
AcDbLine
 10
-1867.955741228715
 20
1712.039256154489
 30
0.0
 11
-1875.955741228716
 21
1712.039256154489
 31
0.0
  0
LINE
  5
12232
330
1A
100
AcDbEntity
  8
ZISSEN1
100
AcDbLine
 10
-1874.541530228716
 20
1712.039256154489
 30
0.0
 11
-1874.541530228716
 21
1709.039276154489
 31
0.0
  0
LINE
  5
12233
330
1A
100
AcDbEntity
  8
ZISSEN1
100
AcDbLine
 10
-1871.455739228716
 20
1721.289256154489
 30
0.0
 11
-1875.955741228716
 21
1721.289256154489
 31
0.0
  0
CIRCLE
  5
12235
330
1A
100
AcDbEntity
  8
SAISEN
100
AcDbCircle
 10
-1871.955740228716
 20
1725.539276154489
 30
0.0
 40
1.5
  0
LINE
  5
12236
330
1A
100
AcDbEntity
  8
CL1
100
AcDbLine
 10
-1874.840876228716
 20
1719.539256154489
 30
0.0
 11
-1868.955751228716
 21
1719.539256154489
 31
0.0
  0
LINE
  5
12237
330
1A
100
AcDbEntity
  8
ZISSEN1
100
AcDbLine
 10
-1870.430621228716
 20
1727.539256154489
 30
0.0
 11
-1874.955738228716
 21
1727.539256154489
 31
0.0
  0
LINE
  5
12238
330
1A
100
AcDbEntity
  8
CL1
100
AcDbLine
 10
-1874.955738228716
 20
1725.539276154489
 30
0.0
 11
-1868.955751228716
 21
1725.539276154489
 31
0.0
  0
LINE
  5
12239
330
1A
100
AcDbEntity
  8
ZISSEN1
100
AcDbLine
 10
-1870.430621228716
 20
1727.539256154489
 30
0.0
 11
-1867.955741228715
 21
1725.064396154489
 31
0.0
  0
LINE
  5
1223A
330
1A
100
AcDbEntity
  8
ZISSEN1
100
AcDbLine
 10
-1867.955741228715
 20
1734.625046154489
 30
0.0
 11
-1866.541531228715
 21
1736.039266154489
 31
0.0
  0
CIRCLE
  5
1223B
330
1A
100
AcDbEntity
  8
ZISSEN1
100
AcDbCircle
 10
-1847.955741228716
 20
1732.039266154488
 30
0.0
 40
3.0
  0
CIRCLE
  5
1223C
330
1A
100
AcDbEntity
  8
ZISSEN1
100
AcDbCircle
 10
-1803.955761228716
 20
1732.039266154488
 30
0.0
 40
3.0
  0
ARC
  5
1223D
330
1A
100
AcDbEntity
  8
ZISSEN1
100
AcDbCircle
 10
-1780.455741228716
 20
1719.539256154489
 30
0.0
 40
1.749999899999999
100
AcDbArc
 50
90.0
 51
270.0
  0
LINE
  5
1223E
330
1A
100
AcDbEntity
  8
ZISSEN1
100
AcDbLine
 10
-1783.955741228716
 20
1725.064396154489
 30
0.0
 11
-1783.955741228716
 21
1712.039256154489
 31
0.0
  0
LINE
  5
1223F
330
1A
100
AcDbEntity
  8
ZISSEN1
100
AcDbLine
 10
-1783.955751228716
 20
1734.625046154489
 30
0.0
 11
-1783.955751228716
 21
1709.039266154489
 31
0.0
  0
LINE
  5
12240
330
1A
100
AcDbEntity
  8
CL1
100
AcDbLine
 10
-1779.955741228715
 20
1716.539246154489
 30
0.0
 11
-1779.955741228715
 21
1728.491956154489
 31
0.0
  0
LINE
  5
12241
330
1A
100
AcDbEntity
  8
ZISSEN1
100
AcDbLine
 10
-1780.455741228716
 20
1717.789266154489
 30
0.0
 11
-1775.955741228715
 21
1717.789266154489
 31
0.0
  0
LINE
  5
12242
330
1A
100
AcDbEntity
  8
ZISSEN1
100
AcDbLine
 10
-1775.955741228715
 20
1712.039256154489
 30
0.0
 11
-1783.955751228716
 21
1712.039256154489
 31
0.0
  0
LINE
  5
12243
330
1A
100
AcDbEntity
  8
ZISSEN1
100
AcDbLine
 10
-1777.369951228714
 20
1712.039256154489
 30
0.0
 11
-1777.369951228714
 21
1709.039266154489
 31
0.0
  0
LINE
  5
12244
330
1A
100
AcDbEntity
  8
ZISSEN1
100
AcDbLine
 10
-1781.480871228716
 20
1727.539256154489
 30
0.0
 11
-1776.955741228714
 21
1727.539256154489
 31
0.0
  0
LINE
  5
12245
330
1A
100
AcDbEntity
  8
CL1
100
AcDbLine
 10
-1782.955741228716
 20
1725.539276154489
 30
0.0
 11
-1776.955741228714
 21
1725.539276154489
 31
0.0
  0
LINE
  5
12246
330
1A
100
AcDbEntity
  8
CL1
100
AcDbLine
 10
-1782.955741228716
 20
1719.539256154489
 30
0.0
 11
-1776.955741228714
 21
1719.539256154489
 31
0.0
  0
LINE
  5
12247
330
1A
100
AcDbEntity
  8
ZISSEN1
100
AcDbLine
 10
-1780.455741228716
 20
1721.289256154489
 30
0.0
 11
-1775.955741228715
 21
1721.289256154489
 31
0.0
  0
CIRCLE
  5
12249
330
1A
100
AcDbEntity
  8
SAISEN
100
AcDbCircle
 10
-1779.955741228715
 20
1725.539276154489
 30
0.0
 40
1.5
  0
LINE
  5
1224A
330
1A
100
AcDbEntity
  8
ZISSEN1
100
AcDbLine
 10
-1783.955741228716
 20
1725.064396154489
 30
0.0
 11
-1781.480871228716
 21
1727.539256154489
 31
0.0
  0
LINE
  5
1224B
330
1A
100
AcDbEntity
  8
ZISSEN1
100
AcDbLine
 10
-1785.369971228716
 20
1736.039266154489
 30
0.0
 11
-1783.955751228716
 21
1734.625046154489
 31
0.0
  0
LINE
  5
1224C
330
1A
100
AcDbEntity
  8
ZISSEN1
100
AcDbLine
 10
-1829.405741228716
 20
1806.439256154489
 30
0.0
 11
-1815.005741228716
 21
1806.439256154489
 31
0.0
  0
LINE
  5
1224D
330
1A
100
AcDbEntity
  8
ZISSEN1
100
AcDbLine
 10
-1829.405741228716
 20
1800.639266154489
 30
0.0
 11
-1815.005741228716
 21
1800.639266154489
 31
0.0
  0
LINE
  5
1224E
330
1A
100
AcDbEntity
  8
ZISSEN1
100
AcDbLine
 10
-1828.455751228716
 20
1809.039256154489
 30
0.0
 11
-1781.455741228715
 21
1809.039256154489
 31
0.0
  0
LINE
  5
1224F
330
1A
100
AcDbEntity
  8
ZISSEN1
100
AcDbLine
 10
-1875.955741228716
 20
1809.039256154489
 30
0.0
 11
-1775.955741228715
 21
1809.039256154489
 31
0.0
  0
LINE
  5
12250
330
1A
100
AcDbEntity
  8
ZISSEN1
100
AcDbLine
 10
-1864.455741228716
 20
1790.539256154489
 30
0.0
 11
-1864.455741228716
 21
1782.539256154489
 31
0.0
  0
LINE
  5
12251
330
1A
100
AcDbEntity
  8
ZISSEN1
100
AcDbLine
 10
-1872.455742228716
 20
1782.539256154489
 30
0.0
 11
-1872.455742228716
 21
1790.539256154489
 31
0.0
  0
LINE
  5
12252
330
1A
100
AcDbEntity
  8
ZISSEN1
100
AcDbLine
 10
-1868.455741228714
 20
1769.039256154488
 30
0.0
 11
-1868.455741228714
 21
1763.039266154489
 31
0.0
  0
LINE
  5
12253
330
1A
100
AcDbEntity
  8
ZISSEN1
100
AcDbLine
 10
-1872.455742228716
 20
1769.039256154488
 30
0.0
 11
-1872.455742228716
 21
1763.039266154489
 31
0.0
  0
LINE
  5
12254
330
1A
100
AcDbEntity
  8
ZISSEN1
100
AcDbLine
 10
-1872.455742228716
 20
1763.039266154489
 30
0.0
 11
-1868.455741228714
 21
1763.039266154489
 31
0.0
  0
LINE
  5
12255
330
1A
100
AcDbEntity
  8
ZISSEN1
100
AcDbLine
 10
-1864.455741228716
 20
1780.039256154489
 30
0.0
 11
-1864.455741228716
 21
1772.039256154489
 31
0.0
  0
LINE
  5
12256
330
1A
100
AcDbEntity
  8
ZISSEN1
100
AcDbLine
 10
-1872.455742228716
 20
1772.039256154489
 30
0.0
 11
-1872.455742228716
 21
1780.039256154489
 31
0.0
  0
LINE
  5
12257
330
1A
100
AcDbEntity
  8
ZISSEN1
100
AcDbLine
 10
-1864.455741228716
 20
1772.039256154489
 30
0.0
 11
-1872.455742228716
 21
1772.039256154489
 31
0.0
  0
LINE
  5
12258
330
1A
100
AcDbEntity
  8
ZISSEN1
100
AcDbLine
 10
-1872.455742228716
 20
1769.039256154488
 30
0.0
 11
-1868.455741228714
 21
1769.039256154488
 31
0.0
  0
LINE
  5
12259
330
1A
100
AcDbEntity
  8
ZISSEN1
100
AcDbLine
 10
-1872.455742228716
 20
1780.039256154489
 30
0.0
 11
-1864.455741228716
 21
1780.039256154489
 31
0.0
  0
LINE
  5
1225A
330
1A
100
AcDbEntity
  8
ZISSEN1
100
AcDbLine
 10
-1864.455741228716
 20
1782.539256154489
 30
0.0
 11
-1872.455742228716
 21
1782.539256154489
 31
0.0
  0
LINE
  5
1225B
330
1A
100
AcDbEntity
  8
ZISSEN1
100
AcDbLine
 10
-1870.405731228715
 20
1806.464376154489
 30
0.0
 11
-1848.505721228716
 21
1806.464376154489
 31
0.0
  0
LINE
  5
1225C
330
1A
100
AcDbEntity
  8
ZISSEN1
100
AcDbLine
 10
-1870.405731228715
 20
1800.664386154489
 30
0.0
 11
-1848.505721228716
 21
1800.664386154489
 31
0.0
  0
LINE
  5
1225D
330
1A
100
AcDbEntity
  8
ZISSEN1
100
AcDbLine
 10
-1874.955738228716
 20
1809.039256154489
 30
0.0
 11
-1842.955751228716
 21
1809.039256154489
 31
0.0
  0
LINE
  5
1225E
330
1A
100
AcDbEntity
  8
ZISSEN1
100
AcDbLine
 10
-1875.955741228716
 20
1806.039246154488
 30
0.0
 11
-1874.840876228716
 21
1806.039246154488
 31
0.0
  0
LINE
  5
1225F
330
1A
100
AcDbEntity
  8
ZISSEN1
100
AcDbLine
 10
-1872.455742228716
 20
1798.539256154489
 30
0.0
 11
-1864.455741228716
 21
1798.539256154489
 31
0.0
  0
LINE
  5
12260
330
1A
100
AcDbEntity
  8
ZISSEN1
100
AcDbLine
 10
-1872.455742228716
 20
1793.539266154489
 30
0.0
 11
-1864.455741228716
 21
1793.539266154489
 31
0.0
  0
LINE
  5
12261
330
1A
100
AcDbEntity
  8
ZISSEN1
100
AcDbLine
 10
-1872.455742228716
 20
1790.539256154489
 30
0.0
 11
-1864.455741228716
 21
1790.539256154489
 31
0.0
  0
LINE
  5
12262
330
1A
100
AcDbEntity
  8
ZISSEN1
100
AcDbLine
 10
-1872.455742228716
 20
1793.539266154489
 30
0.0
 11
-1872.455742228716
 21
1798.539256154489
 31
0.0
  0
LINE
  5
12263
330
1A
100
AcDbEntity
  8
ZISSEN1
100
AcDbLine
 10
-1864.455741228716
 20
1793.539266154489
 30
0.0
 11
-1864.455741228716
 21
1798.539256154489
 31
0.0
  0
LINE
  5
12264
330
1A
100
AcDbEntity
  8
ZISSEN1
100
AcDbLine
 10
-1870.405731228715
 20
1806.464376154489
 30
0.0
 11
-1870.405731228715
 21
1800.664386154489
 31
0.0
  0
LINE
  5
12265
330
1A
100
AcDbEntity
  8
ZISSEN1
100
AcDbLine
 10
-1875.248632228715
 20
1809.039256154489
 30
0.0
 11
-1875.248632228715
 21
1806.039246154488
 31
0.0
  0
LINE
  5
12266
330
1A
100
AcDbEntity
  8
ZISSEN1
100
AcDbLine
 10
-1848.505721228716
 20
1806.464376154489
 30
0.0
 11
-1848.505721228716
 21
1800.664386154489
 31
0.0
  0
LINE
  5
12267
330
1A
100
AcDbEntity
  8
ZISSEN1
100
AcDbLine
 10
-1829.405741228716
 20
1806.039246154488
 30
0.0
 11
-1842.955751228716
 21
1806.039246154488
 31
0.0
  0
LINE
  5
12268
330
1A
100
AcDbEntity
  8
ZISSEN1
100
AcDbLine
 10
-1840.455751228716
 20
1804.539246154489
 30
0.0
 11
-1829.405741228716
 21
1804.539246154489
 31
0.0
  0
LINE
  5
12269
330
1A
100
AcDbEntity
  8
ZISSEN1
100
AcDbLine
 10
-1840.455751228716
 20
1806.039246154488
 30
0.0
 11
-1840.455751228716
 21
1804.539246154489
 31
0.0
  0
LINE
  5
1226A
330
1A
100
AcDbEntity
  8
ZISSEN1
100
AcDbLine
 10
-1842.955751228716
 20
1806.039246154488
 30
0.0
 11
-1840.455751228716
 21
1806.039246154488
 31
0.0
  0
LINE
  5
1226B
330
1A
100
AcDbEntity
  8
ZISSEN1
100
AcDbLine
 10
-1842.955751228716
 20
1809.039256154489
 30
0.0
 11
-1842.955751228716
 21
1806.039246154488
 31
0.0
  0
LINE
  5
1226C
330
1A
100
AcDbEntity
  8
ZISSEN1
100
AcDbLine
 10
-1837.455741228716
 20
1809.039256154489
 30
0.0
 11
-1837.455741228716
 21
1806.039246154488
 31
0.0
  0
LINE
  5
1226D
330
1A
100
AcDbEntity
  8
ZISSEN1
100
AcDbLine
 10
-1838.162851228716
 20
1809.039256154489
 30
0.0
 11
-1838.162851228716
 21
1806.039246154488
 31
0.0
  0
LINE
  5
1226E
330
1A
100
AcDbEntity
  8
ZISSEN1
100
AcDbLine
 10
-1829.405741228716
 20
1806.439256154489
 30
0.0
 11
-1829.405741228716
 21
1800.639266154489
 31
0.0
  0
CIRCLE
  5
1226F
330
1A
100
AcDbEntity
  8
ZISSEN1
100
AcDbCircle
 10
-1832.955741228715
 20
1802.539256154489
 30
0.0
 40
1.8999999
  0
LINE
  5
12270
330
1A
100
AcDbEntity
  8
ZISSEN1
100
AcDbLine
 10
-1828.455751228716
 20
1809.039256154489
 30
0.0
 11
-1828.455751228716
 21
1806.439256154489
 31
0.0
  0
LINE
  5
12271
330
1A
100
AcDbEntity
  8
ZISSEN1
100
AcDbLine
 10
-1814.540871228716
 20
1806.533856154489
 30
0.0
 11
-1787.640901228716
 21
1806.533856154489
 31
0.0
  0
LINE
  5
12272
330
1A
100
AcDbEntity
  8
ZISSEN1
100
AcDbLine
 10
-1814.540871228716
 20
1800.733866154489
 30
0.0
 11
-1787.640901228716
 21
1800.733866154489
 31
0.0
  0
LINE
  5
12273
330
1A
100
AcDbEntity
  8
ZISSEN1
100
AcDbLine
 10
-1814.540871228716
 20
1806.533856154489
 30
0.0
 11
-1814.540871228716
 21
1800.733866154489
 31
0.0
  0
LINE
  5
12274
330
1A
100
AcDbEntity
  8
ZISSEN1
100
AcDbLine
 10
-1815.005741228716
 20
1806.439256154489
 30
0.0
 11
-1815.005741228716
 21
1800.639266154489
 31
0.0
  0
LINE
  5
12275
330
1A
100
AcDbEntity
  8
ZISSEN1
100
AcDbLine
 10
-1779.430611228716
 20
1806.039246154488
 30
0.0
 11
-1776.955741228714
 21
1803.564376154488
 31
0.0
  0
LINE
  5
12276
330
1A
100
AcDbEntity
  8
ZISSEN1
100
AcDbLine
 10
-1775.955741228715
 20
1806.039246154488
 30
0.0
 11
-1781.455741228715
 21
1806.039246154488
 31
0.0
  0
LINE
  5
12277
330
1A
100
AcDbEntity
  8
ZISSEN1
100
AcDbLine
 10
-1787.640901228716
 20
1806.533856154489
 30
0.0
 11
-1787.640901228716
 21
1800.733866154489
 31
0.0
  0
LINE
  5
12278
330
1A
100
AcDbEntity
  8
ZISSEN1
100
AcDbLine
 10
-1779.430611228716
 20
1806.039246154488
 30
0.0
 11
-1781.455741228715
 21
1806.039246154488
 31
0.0
  0
LINE
  5
12279
330
1A
100
AcDbEntity
  8
ZISSEN1
100
AcDbLine
 10
-1781.455741228715
 20
1809.039256154489
 30
0.0
 11
-1781.455741228715
 21
1806.039246154488
 31
0.0
  0
LINE
  5
1227A
330
1A
100
AcDbEntity
  8
ZISSEN1
100
AcDbLine
 10
-1776.662851228715
 20
1809.039256154489
 30
0.0
 11
-1776.662851228715
 21
1806.039246154488
 31
0.0
  0
LINE
  5
1227B
330
1A
100
AcDbEntity
  8
ZISSEN1
100
AcDbLine
 10
-1815.005741228716
 20
1867.354786154489
 30
0.0
 11
-1829.405741228716
 21
1867.354786154489
 31
0.0
  0
LINE
  5
1227C
330
1A
100
AcDbEntity
  8
ZISSEN1
100
AcDbLine
 10
-1874.955738228716
 20
1885.854776154489
 30
0.0
 11
-1781.090881228716
 21
1885.854776154489
 31
0.0
  0
LINE
  5
1227D
330
1A
100
AcDbEntity
  8
ZISSEN1
100
AcDbLine
 10
-1837.455741228716
 20
1884.254776154488
 30
0.0
 11
-1780.955741228716
 21
1884.254776154488
 31
0.0
  0
LINE
  5
1227E
330
1A
100
AcDbEntity
  8
ZISSEN1
100
AcDbLine
 10
-1867.955741228715
 20
1857.354776154489
 30
0.0
 11
-1783.955751228716
 21
1857.354776154489
 31
0.0
  0
LINE
  5
1227F
330
1A
100
AcDbEntity
  8
ZISSEN1
100
AcDbLine
 10
-1867.955741228715
 20
1860.354786154489
 30
0.0
 11
-1783.955751228716
 21
1860.354786154489
 31
0.0
  0
LINE
  5
12280
330
1A
100
AcDbEntity
  8
ZISSEN1
100
AcDbLine
 10
-1777.369951228714
 20
1857.354776154489
 30
0.0
 11
-1874.541530228716
 21
1857.354776154489
 31
0.0
  0
LINE
  5
12281
330
1A
100
AcDbEntity
  8
ZISSEN1
100
AcDbLine
 10
-1837.455741228716
 20
1885.854776154489
 30
0.0
 11
-1780.955741228716
 21
1885.854776154489
 31
0.0
  0
LINE
  5
12282
330
1A
100
AcDbEntity
  8
ZISSEN1
100
AcDbLine
 10
-1867.955741228715
 20
1854.354766154489
 30
0.0
 11
-1783.955751228716
 21
1854.354766154489
 31
0.0
  0
LINE
  5
12283
330
1A
100
AcDbEntity
  8
ZISSEN1
100
AcDbLine
 10
-1875.955741228716
 20
1894.354776154489
 30
0.0
 11
-1775.955741228715
 21
1894.354776154489
 31
0.0
  0
LINE
  5
12284
330
1A
100
AcDbEntity
  8
ZISSEN1
100
AcDbLine
 10
-1829.405741228716
 20
1867.354786154489
 30
0.0
 11
-1829.405741228716
 21
1884.254776154488
 31
0.0
  0
LINE
  5
12285
330
1A
100
AcDbEntity
  8
ZISSEN1
100
AcDbLine
 10
-1831.705751228716
 20
1880.254786154489
 30
0.0
 11
-1831.705751228716
 21
1884.254776154488
 31
0.0
  0
LINE
  5
12286
330
1A
100
AcDbEntity
  8
ZISSEN1
100
AcDbLine
 10
-1834.205731228716
 20
1880.254786154489
 30
0.0
 11
-1834.205731228716
 21
1884.254776154488
 31
0.0
  0
LINE
  5
12287
330
1A
100
AcDbEntity
  8
ZISSEN1
100
AcDbLine
 10
-1848.505721228716
 20
1867.354786154489
 30
0.0
 11
-1848.505721228716
 21
1884.254776154488
 31
0.0
  0
LINE
  5
12288
330
1A
100
AcDbEntity
  8
ZISSEN1
100
AcDbLine
 10
-1870.405731228715
 20
1867.354786154489
 30
0.0
 11
-1870.405731228715
 21
1884.254776154488
 31
0.0
  0
LINE
  5
12289
330
1A
100
AcDbEntity
  8
ZISSEN1
100
AcDbLine
 10
-1875.955741228716
 20
1871.104756154489
 30
0.0
 11
-1875.955741228716
 21
1886.561876154489
 31
0.0
  0
LINE
  5
1228A
330
1A
100
AcDbEntity
  8
ZISSEN1
100
AcDbLine
 10
-1837.455741228716
 20
1880.061886154489
 30
0.0
 11
-1837.455741228716
 21
1885.854776154489
 31
0.0
  0
LINE
  5
1228B
330
1A
100
AcDbEntity
  8
ZISSEN1
100
AcDbLine
 10
-1847.455741228715
 20
1880.061886154489
 30
0.0
 11
-1847.455741228715
 21
1883.854766154489
 31
0.0
  0
LINE
  5
1228C
330
1A
100
AcDbEntity
  8
ZISSEN1
100
AcDbLine
 10
-1875.955741228716
 20
1867.354786154489
 30
0.0
 11
-1848.505721228716
 21
1867.354786154489
 31
0.0
  0
LINE
  5
1228D
330
1A
100
AcDbEntity
  8
ZISSEN1
100
AcDbLine
 10
-1867.955741228715
 20
1857.354776154489
 30
0.0
 11
-1867.955741228715
 21
1867.354786154489
 31
0.0
  0
LINE
  5
1228E
330
1A
100
AcDbEntity
  8
ZISSEN1
100
AcDbLine
 10
-1875.955741228716
 20
1858.768996154489
 30
0.0
 11
-1874.541530228716
 21
1857.354776154489
 31
0.0
  0
LINE
  5
1228F
330
1A
100
AcDbEntity
  8
ZISSEN1
100
AcDbLine
 10
-1867.955741228715
 20
1854.354766154489
 30
0.0
 11
-1867.955741228715
 21
1857.354776154489
 31
0.0
  0
LINE
  5
12290
330
1A
100
AcDbEntity
  8
ZISSEN1
100
AcDbLine
 10
-1866.541531228715
 20
1854.354766154489
 30
0.0
 11
-1866.541531228715
 21
1857.354776154489
 31
0.0
  0
LINE
  5
12291
330
1A
100
AcDbEntity
  8
ZISSEN1
100
AcDbLine
 10
-1871.455739228716
 20
1867.604776154489
 30
0.0
 11
-1875.955741228716
 21
1867.604776154489
 31
0.0
  0
LINE
  5
12292
330
1A
100
AcDbEntity
  8
ZISSEN1
100
AcDbLine
 10
-1871.455739228716
 20
1871.104756154489
 30
0.0
 11
-1875.955741228716
 21
1871.104756154489
 31
0.0
  0
LINE
  5
12293
330
1A
100
AcDbEntity
  8
ZISSEN1
100
AcDbLine
 10
-1875.955741228716
 20
1858.768996154489
 30
0.0
 11
-1875.955741228716
 21
1867.604776154489
 31
0.0
  0
ARC
  5
12294
330
1A
100
AcDbEntity
  8
ZISSEN1
100
AcDbCircle
 10
-1871.455739228716
 20
1869.354766154489
 30
0.0
 40
1.749999899999999
100
AcDbArc
 50
270.0
 51
90.0
  0
LINE
  5
12295
330
1A
100
AcDbEntity
  8
CL1
100
AcDbLine
 10
-1871.955740228716
 20
1866.354756154489
 30
0.0
 11
-1871.955740228716
 21
1878.354796154489
 31
0.0
  0
LINE
  5
12296
330
1A
100
AcDbEntity
  8
CL1
100
AcDbLine
 10
-1874.840876228716
 20
1869.354766154489
 30
0.0
 11
-1868.955751228716
 21
1869.354766154489
 31
0.0
  0
CIRCLE
  5
12298
330
1A
100
AcDbEntity
  8
SAISEN
100
AcDbCircle
 10
-1871.955740228716
 20
1875.354786154489
 30
0.0
 40
1.5
  0
LINE
  5
12299
330
1A
100
AcDbEntity
  8
CL1
100
AcDbLine
 10
-1874.955738228716
 20
1875.354786154489
 30
0.0
 11
-1868.955751228716
 21
1875.354786154489
 31
0.0
  0
ARC
  5
1229A
330
1A
100
AcDbEntity
  8
ZISSEN1
100
AcDbCircle
 10
-1848.955741228715
 20
1853.354766154489
 30
0.0
 40
2.0
100
AcDbArc
 50
180.0
 51
270.0
  0
ARC
  5
1229B
330
1A
100
AcDbEntity
  8
ZISSEN1
100
AcDbCircle
 10
-1846.955741228716
 20
1853.354766154489
 30
0.0
 40
2.0
100
AcDbArc
 50
270.0
 51
0.0
  0
LINE
  5
1229C
330
1A
100
AcDbEntity
  8
ZISSEN1
100
AcDbLine
 10
-1848.955741228715
 20
1851.354756154489
 30
0.0
 11
-1846.955741228716
 21
1851.354756154489
 31
0.0
  0
LINE
  5
1229D
330
1A
100
AcDbEntity
  8
ZISSEN1
100
AcDbLine
 10
-1844.955731228715
 20
1854.354766154489
 30
0.0
 11
-1850.955721228714
 21
1854.354766154489
 31
0.0
  0
LINE
  5
1229E
330
1A
100
AcDbEntity
  8
ZISSEN1
100
AcDbLine
 10
-1850.955721228714
 20
1853.354766154489
 30
0.0
 11
-1850.955721228714
 21
1854.354766154489
 31
0.0
  0
LINE
  5
1229F
330
1A
100
AcDbEntity
  8
ZISSEN1
100
AcDbLine
 10
-1844.955731228715
 20
1853.354766154489
 30
0.0
 11
-1844.955731228715
 21
1854.354766154489
 31
0.0
  0
LINE
  5
122A0
330
1A
100
AcDbEntity
  8
ZISSEN1
100
AcDbLine
 10
-1838.162851228716
 20
1879.354776154489
 30
0.0
 11
-1846.748631228716
 21
1879.354776154489
 31
0.0
  0
LINE
  5
122A1
330
1A
100
AcDbEntity
  8
ZISSEN1
100
AcDbLine
 10
-1847.455741228715
 20
1880.061886154489
 30
0.0
 11
-1846.748631228716
 21
1879.354776154489
 31
0.0
  0
LINE
  5
122A2
330
1A
100
AcDbEntity
  8
ZISSEN1
100
AcDbLine
 10
-1838.162851228716
 20
1879.354776154489
 30
0.0
 11
-1837.455741228716
 21
1880.061886154489
 31
0.0
  0
ARC
  5
122A3
330
1A
100
AcDbEntity
  8
ZISSEN1
100
AcDbCircle
 10
-1832.955741228715
 20
1876.954786154488
 30
0.0
 40
1.8999999
100
AcDbArc
 50
180.0000899999959
 51
0.0
  0
LINE
  5
122A4
330
1A
100
AcDbEntity
  8
ZISSEN1
100
AcDbLine
 10
-1834.855731228715
 20
1876.954786154488
 30
0.0
 11
-1834.855731228715
 21
1880.254786154489
 31
0.0
  0
LINE
  5
122A5
330
1A
100
AcDbEntity
  8
ZISSEN1
100
AcDbLine
 10
-1831.055751228716
 20
1876.954786154488
 30
0.0
 11
-1831.055751228716
 21
1880.254786154489
 31
0.0
  0
LINE
  5
122A6
330
1A
100
AcDbEntity
  8
ZISSEN1
100
AcDbLine
 10
-1831.055751228716
 20
1880.254786154489
 30
0.0
 11
-1834.855731228715
 21
1880.254786154489
 31
0.0
  0
LINE
  5
122A7
330
1A
100
AcDbEntity
  8
ZISSEN1
100
AcDbLine
 10
-1874.955738228716
 20
1884.254776154488
 30
0.0
 11
-1842.455751228716
 21
1884.254776154488
 31
0.0
  0
LINE
  5
122A8
330
1A
100
AcDbEntity
  8
ZISSEN1
100
AcDbLine
 10
-1875.248632228715
 20
1885.854776154489
 30
0.0
 11
-1842.455751228716
 21
1885.854776154489
 31
0.0
  0
LINE
  5
122A9
330
1A
100
AcDbEntity
  8
ZISSEN1
100
AcDbLine
 10
-1875.248632228715
 20
1885.854776154489
 30
0.0
 11
-1875.955741228716
 21
1886.561876154489
 31
0.0
  0
LINE
  5
122AA
330
1A
100
AcDbEntity
  8
ZISSEN1
100
AcDbLine
 10
-1875.955741228716
 20
1886.561876154489
 30
0.0
 11
-1875.955741228716
 21
1894.354776154489
 31
0.0
  0
LINE
  5
122AB
330
1A
100
AcDbEntity
  8
CL1
100
AcDbLine
 10
-1871.955740228716
 20
1891.354766154489
 30
0.0
 11
-1871.955740228716
 21
1897.354756154489
 31
0.0
  0
LINE
  5
122AC
330
1A
100
AcDbEntity
  8
ZISSEN1
100
AcDbLine
 10
-1874.955738228716
 20
1884.254776154488
 30
0.0
 11
-1874.955738228716
 21
1885.807456154489
 31
0.0
  0
LINE
  5
122AD
330
1A
100
AcDbEntity
  8
ZISSEN1
100
AcDbLine
 10
-1847.455741228715
 20
1883.854766154489
 30
0.0
 11
-1842.455751228716
 21
1883.854766154489
 31
0.0
  0
LINE
  5
122AE
330
1A
100
AcDbEntity
  8
ZISSEN1
100
AcDbLine
 10
-1847.455741228715
 20
1883.254776154489
 30
0.0
 11
-1848.505721228716
 21
1883.254776154489
 31
0.0
  0
LINE
  5
122AF
330
1A
100
AcDbEntity
  8
ZISSEN1
100
AcDbLine
 10
-1829.405741228716
 20
1883.254776154489
 30
0.0
 11
-1837.455741228716
 21
1883.254776154489
 31
0.0
  0
LINE
  5
122B0
330
1A
100
AcDbEntity
  8
ZISSEN1
100
AcDbLine
 10
-1842.955751228716
 20
1884.254776154488
 30
0.0
 11
-1842.955751228716
 21
1885.854776154489
 31
0.0
  0
LINE
  5
122B1
330
1A
100
AcDbEntity
  8
ZISSEN1
100
AcDbLine
 10
-1842.455751228716
 20
1883.854766154489
 30
0.0
 11
-1842.455751228716
 21
1885.854776154489
 31
0.0
  0
LINE
  5
122B2
330
1A
100
AcDbEntity
  8
ZISSEN1
100
AcDbLine
 10
-1828.455751228716
 20
1884.254776154488
 30
0.0
 11
-1828.455751228716
 21
1885.854776154489
 31
0.0
  0
LINE
  5
122B3
330
1A
100
AcDbEntity
  8
ZISSEN1
100
AcDbLine
 10
-1815.005741228716
 20
1867.354786154489
 30
0.0
 11
-1815.005741228716
 21
1884.254776154488
 31
0.0
  0
LINE
  5
122B4
330
1A
100
AcDbEntity
  8
ZISSEN1
100
AcDbLine
 10
-1785.955731228716
 20
1880.768996154489
 30
0.0
 11
-1785.955731228716
 21
1883.854766154489
 31
0.0
  0
LINE
  5
122B5
330
1A
100
AcDbEntity
  8
ZISSEN1
100
AcDbLine
 10
-1787.640901228716
 20
1867.354786154489
 30
0.0
 11
-1787.640901228716
 21
1884.254776154488
 31
0.0
  0
LINE
  5
122B6
330
1A
100
AcDbEntity
  8
ZISSEN1
100
AcDbLine
 10
-1814.540871228716
 20
1867.354786154489
 30
0.0
 11
-1814.540871228716
 21
1884.254776154488
 31
0.0
  0
LINE
  5
122B7
330
1A
100
AcDbEntity
  8
ZISSEN1
100
AcDbLine
 10
-1775.955741228715
 20
1880.061886154489
 30
0.0
 11
-1775.955741228715
 21
1894.354776154489
 31
0.0
  0
LINE
  5
122B8
330
1A
100
AcDbEntity
  8
ZISSEN1
100
AcDbLine
 10
-1814.540871228716
 20
1867.354786154489
 30
0.0
 11
-1787.640901228716
 21
1867.354786154489
 31
0.0
  0
ARC
  5
122B9
330
1A
100
AcDbEntity
  8
ZISSEN1
100
AcDbCircle
 10
-1802.955741228715
 20
1853.354766154489
 30
0.0
 40
2.0
100
AcDbArc
 50
270.0
 51
0.0
  0
LINE
  5
122BA
330
1A
100
AcDbEntity
  8
ZISSEN1
100
AcDbLine
 10
-1800.955731228716
 20
1854.354766154489
 30
0.0
 11
-1806.955731228716
 21
1854.354766154489
 31
0.0
  0
ARC
  5
122BB
330
1A
100
AcDbEntity
  8
ZISSEN1
100
AcDbCircle
 10
-1804.955751228716
 20
1853.354766154489
 30
0.0
 40
2.0
100
AcDbArc
 50
180.0
 51
270.0
  0
LINE
  5
122BC
330
1A
100
AcDbEntity
  8
ZISSEN1
100
AcDbLine
 10
-1804.955751228716
 20
1851.354756154489
 30
0.0
 11
-1802.955741228715
 21
1851.354756154489
 31
0.0
  0
LINE
  5
122BD
330
1A
100
AcDbEntity
  8
ZISSEN1
100
AcDbLine
 10
-1806.955731228716
 20
1853.354766154489
 30
0.0
 11
-1806.955731228716
 21
1854.354766154489
 31
0.0
  0
LINE
  5
122BE
330
1A
100
AcDbEntity
  8
ZISSEN1
100
AcDbLine
 10
-1800.955731228716
 20
1853.354766154489
 30
0.0
 11
-1800.955731228716
 21
1854.354766154489
 31
0.0
  0
LINE
  5
122BF
330
1A
100
AcDbEntity
  8
ZISSEN1
100
AcDbLine
 10
-1783.955751228716
 20
1857.354776154489
 30
0.0
 11
-1783.955751228716
 21
1867.354786154489
 31
0.0
  0
LINE
  5
122C0
330
1A
100
AcDbEntity
  8
ZISSEN1
100
AcDbLine
 10
-1777.369951228714
 20
1857.354776154489
 30
0.0
 11
-1775.955741228715
 21
1858.768996154489
 31
0.0
  0
LINE
  5
122C1
330
1A
100
AcDbEntity
  8
ZISSEN1
100
AcDbLine
 10
-1785.369971228716
 20
1854.354766154489
 30
0.0
 11
-1785.369971228716
 21
1857.354776154489
 31
0.0
  0
LINE
  5
122C2
330
1A
100
AcDbEntity
  8
ZISSEN1
100
AcDbLine
 10
-1783.955751228716
 20
1854.354766154489
 30
0.0
 11
-1783.955751228716
 21
1857.354776154489
 31
0.0
  0
LINE
  5
122C3
330
1A
100
AcDbEntity
  8
ZISSEN1
100
AcDbLine
 10
-1784.541521228716
 20
1879.354776154489
 30
0.0
 11
-1776.662851228715
 21
1879.354776154489
 31
0.0
  0
LINE
  5
122C4
330
1A
100
AcDbEntity
  8
CL1
100
AcDbLine
 10
-1782.955741228716
 20
1875.354786154489
 30
0.0
 11
-1776.955741228714
 21
1875.354786154489
 31
0.0
  0
LINE
  5
122C5
330
1A
100
AcDbEntity
  8
CL1
100
AcDbLine
 10
-1782.955741228716
 20
1869.354766154489
 30
0.0
 11
-1776.955741228714
 21
1869.354766154489
 31
0.0
  0
LINE
  5
122C6
330
1A
100
AcDbEntity
  8
ZISSEN1
100
AcDbLine
 10
-1780.455741228716
 20
1871.104756154489
 30
0.0
 11
-1775.955741228715
 21
1871.104756154489
 31
0.0
  0
LINE
  5
122C7
330
1A
100
AcDbEntity
  8
ZISSEN1
100
AcDbLine
 10
-1780.455741228716
 20
1867.604776154489
 30
0.0
 11
-1775.955741228715
 21
1867.604776154489
 31
0.0
  0
ARC
  5
122C8
330
1A
100
AcDbEntity
  8
ZISSEN1
100
AcDbCircle
 10
-1780.455741228716
 20
1869.354766154489
 30
0.0
 40
1.749999899999999
100
AcDbArc
 50
90.0
 51
270.0
  0
LINE
  5
122C9
330
1A
100
AcDbEntity
  8
ZISSEN1
100
AcDbLine
 10
-1783.955751228716
 20
1867.354786154489
 30
0.0
 11
-1783.955751228716
 21
1879.354776154489
 31
0.0
  0
LINE
  5
122CA
330
1A
100
AcDbEntity
  8
CL1
100
AcDbLine
 10
-1779.955741228715
 20
1866.354756154489
 30
0.0
 11
-1779.955741228715
 21
1878.307456154488
 31
0.0
  0
LINE
  5
122CB
330
1A
100
AcDbEntity
  8
ZISSEN1
100
AcDbLine
 10
-1785.955731228716
 20
1880.768996154489
 30
0.0
 11
-1784.541521228716
 21
1879.354776154489
 31
0.0
  0
CIRCLE
  5
122CD
330
1A
100
AcDbEntity
  8
SAISEN
100
AcDbCircle
 10
-1779.955741228715
 20
1875.354786154489
 30
0.0
 40
1.5
  0
LINE
  5
122CE
330
1A
100
AcDbEntity
  8
ZISSEN1
100
AcDbLine
 10
-1775.955741228715
 20
1858.768996154489
 30
0.0
 11
-1775.955741228715
 21
1867.604776154489
 31
0.0
  0
LINE
  5
122CF
330
1A
100
AcDbEntity
  8
ZISSEN1
100
AcDbLine
 10
-1775.955741228715
 20
1871.104756154489
 30
0.0
 11
-1775.955741228715
 21
1880.061886154489
 31
0.0
  0
LINE
  5
122D0
330
1A
100
AcDbEntity
  8
ZISSEN1
100
AcDbLine
 10
-1776.662851228715
 20
1879.354776154489
 30
0.0
 11
-1775.955741228715
 21
1880.061886154489
 31
0.0
  0
LINE
  5
122D1
330
1A
100
AcDbEntity
  8
ZISSEN1
100
AcDbLine
 10
-1814.540871228716
 20
1883.254776154489
 30
0.0
 11
-1815.005741228716
 21
1883.254776154489
 31
0.0
  0
LINE
  5
122D2
330
1A
100
AcDbEntity
  8
CL1
100
AcDbLine
 10
-1779.955741228715
 20
1891.354766154489
 30
0.0
 11
-1779.955741228715
 21
1897.354786154489
 31
0.0
  0
LINE
  5
122D3
330
1A
100
AcDbEntity
  8
ZISSEN1
100
AcDbLine
 10
-1780.955741228716
 20
1883.854766154489
 30
0.0
 11
-1785.955731228716
 21
1883.854766154489
 31
0.0
  0
LINE
  5
122D5
330
1A
100
AcDbEntity
  8
ZISSEN1
100
AcDbLine
 10
-1781.455741228715
 20
1884.254776154488
 30
0.0
 11
-1781.455741228715
 21
1885.854776154489
 31
0.0
  0
LINE
  5
122D6
330
1A
100
AcDbEntity
  8
ZISSEN1
100
AcDbLine
 10
-1780.955741228716
 20
1883.854766154489
 30
0.0
 11
-1780.955741228716
 21
1885.854776154489
 31
0.0
  0
LINE
  5
122D7
330
1A
100
AcDbEntity
  8
ZISSEN1
100
AcDbLine
 10
-1687.407081228715
 20
1806.039246154488
 30
0.0
 11
-1687.407081228715
 21
1712.039256154489
 31
0.0
  0
LINE
  5
122D8
330
1A
100
AcDbEntity
  8
ZISSEN1
100
AcDbLine
 10
-1685.807091228716
 20
1806.039246154488
 30
0.0
 11
-1685.807091228716
 21
1712.039256154489
 31
0.0
  0
LINE
  5
122D9
330
1A
100
AcDbEntity
  8
ZISSEN1
100
AcDbLine
 10
-1677.307091228716
 20
1808.332146154489
 30
0.0
 11
-1677.307091228716
 21
1709.746366154489
 31
0.0
  0
LINE
  5
122DA
330
1A
100
AcDbEntity
  8
ZISSEN1
100
AcDbLine
 10
-1680.307101228716
 20
1806.039246154488
 30
0.0
 11
-1680.307101228716
 21
1712.039256154489
 31
0.0
  0
LINE
  5
122DB
330
1A
100
AcDbEntity
  8
ZISSEN1
100
AcDbLine
 10
-1701.311591228716
 20
1716.939256154489
 30
0.0
 11
-1693.311591228716
 21
1716.939256154489
 31
0.0
  0
LINE
  5
122DC
330
1A
100
AcDbEntity
  8
ZISSEN1
100
AcDbLine
 10
-1714.307081228716
 20
1721.839266154489
 30
0.0
 11
-1688.407091228716
 21
1721.839266154489
 31
0.0
  0
LINE
  5
122DD
330
1A
100
AcDbEntity
  8
ZISSEN1
100
AcDbLine
 10
-1711.307071228716
 20
1724.839256154489
 30
0.0
 11
-1688.407091228716
 21
1724.839256154489
 31
0.0
  0
LINE
  5
122DE
330
1A
100
AcDbEntity
  8
ZISSEN1
100
AcDbLine
 10
-1678.014191228716
 20
1709.039266154489
 30
0.0
 11
-1716.599981228716
 21
1709.039266154489
 31
0.0
  0
LINE
  5
122DF
330
1A
100
AcDbEntity
  8
ZISSEN1
100
AcDbLine
 10
-1714.307081228716
 20
1712.039256154489
 30
0.0
 11
-1680.307101228716
 21
1712.039256154489
 31
0.0
  0
LINE
  5
122E0
330
1A
100
AcDbEntity
  8
ZISSEN1
100
AcDbLine
 10
-1701.311591228716
 20
1719.339266154489
 30
0.0
 11
-1701.311591228716
 21
1714.539256154489
 31
0.0
  0
LINE
  5
122E1
330
1A
100
AcDbEntity
  8
ZISSEN1
100
AcDbLine
 10
-1717.307091228716
 20
1709.746366154489
 30
0.0
 11
-1717.307091228716
 21
1736.039266154489
 31
0.0
  0
LINE
  5
122E2
330
1A
100
AcDbEntity
  8
ZISSEN1
100
AcDbLine
 10
-1714.307081228716
 20
1736.039266154489
 30
0.0
 11
-1714.307081228716
 21
1712.039256154489
 31
0.0
  0
LINE
  5
122E3
330
1A
100
AcDbEntity
  8
ZISSEN1
100
AcDbLine
 10
-1717.307091228716
 20
1709.746366154489
 30
0.0
 11
-1716.599981228716
 21
1709.039266154489
 31
0.0
  0
LINE
  5
122E4
330
1A
100
AcDbEntity
  8
ZISSEN1
100
AcDbLine
 10
-1714.307081228716
 20
1712.039256154489
 30
0.0
 11
-1714.307081228716
 21
1709.039266154489
 31
0.0
  0
LINE
  5
122E5
330
1A
100
AcDbEntity
  8
CL1
100
AcDbLine
 10
-1696.307071228716
 20
1706.039266154489
 30
0.0
 11
-1696.307071228716
 21
1715.039256154489
 31
0.0
  0
LINE
  5
122E6
330
1A
100
AcDbEntity
  8
CL1
100
AcDbLine
 10
-1702.307071228716
 20
1706.039266154489
 30
0.0
 11
-1702.307071228716
 21
1715.039256154489
 31
0.0
  0
LINE
  5
122E7
330
1A
100
AcDbEntity
  8
ZISSEN1
100
AcDbLine
 10
-1709.311601228716
 20
1714.539256154489
 30
0.0
 11
-1701.311591228716
 21
1714.539256154489
 31
0.0
  0
LINE
  5
122E8
330
1A
100
AcDbEntity
  8
ZISSEN1
100
AcDbLine
 10
-1709.311601228716
 20
1714.539256154489
 30
0.0
 11
-1709.311601228716
 21
1712.039256154489
 31
0.0
  0
LINE
  5
122E9
330
1A
100
AcDbEntity
  8
ZISSEN1
100
AcDbLine
 10
-1704.057091228714
 20
1712.039256154489
 30
0.0
 11
-1704.057091228714
 21
1709.039266154489
 31
0.0
  0
LINE
  5
122EA
330
1A
100
AcDbEntity
  8
ZISSEN1
100
AcDbLine
 10
-1700.557081228716
 20
1712.039256154489
 30
0.0
 11
-1700.557081228716
 21
1709.039266154489
 31
0.0
  0
LINE
  5
122EB
330
1A
100
AcDbEntity
  8
ZISSEN1
100
AcDbLine
 10
-1714.307081228716
 20
1736.039266154489
 30
0.0
 11
-1711.307071228716
 21
1736.039266154489
 31
0.0
  0
ARC
  5
122EC
330
1A
100
AcDbEntity
  8
ZISSEN1
100
AcDbCircle
 10
-1718.307101228716
 20
1731.039256154489
 30
0.0
 40
2.0
100
AcDbArc
 50
180.0
 51
270.0
  0
LINE
  5
122ED
330
1A
100
AcDbEntity
  8
ZISSEN1
100
AcDbLine
 10
-1717.307091228716
 20
1729.039256154489
 30
0.0
 11
-1717.307091228716
 21
1735.039246154489
 31
0.0
  0
LINE
  5
122EE
330
1A
100
AcDbEntity
  8
ZISSEN1
100
AcDbLine
 10
-1718.307101228716
 20
1729.039256154489
 30
0.0
 11
-1717.307091228716
 21
1729.039256154489
 31
0.0
  0
ARC
  5
122EF
330
1A
100
AcDbEntity
  8
ZISSEN1
100
AcDbCircle
 10
-1718.307101228716
 20
1733.039266154489
 30
0.0
 40
2.0
100
AcDbArc
 50
90.0
 51
180.0
  0
LINE
  5
122F0
330
1A
100
AcDbEntity
  8
ZISSEN1
100
AcDbLine
 10
-1720.307101228716
 20
1733.039266154489
 30
0.0
 11
-1720.307101228716
 21
1731.039256154489
 31
0.0
  0
LINE
  5
122F1
330
1A
100
AcDbEntity
  8
ZISSEN1
100
AcDbLine
 10
-1717.307091228716
 20
1734.625046154489
 30
0.0
 11
-1714.307081228716
 21
1734.625046154489
 31
0.0
  0
LINE
  5
122F2
330
1A
100
AcDbEntity
  8
ZISSEN1
100
AcDbLine
 10
-1717.307091228716
 20
1736.039266154489
 30
0.0
 11
-1714.307081228716
 21
1736.039266154489
 31
0.0
  0
LINE
  5
122F3
330
1A
100
AcDbEntity
  8
ZISSEN1
100
AcDbLine
 10
-1718.307101228716
 20
1735.039246154489
 30
0.0
 11
-1717.307091228716
 21
1735.039246154489
 31
0.0
  0
LINE
  5
122F4
330
1A
100
AcDbEntity
  8
ZISSEN1
100
AcDbLine
 10
-1711.307071228716
 20
1736.039266154489
 30
0.0
 11
-1711.307071228716
 21
1724.839256154489
 31
0.0
  0
LINE
  5
122F5
330
1A
100
AcDbEntity
  8
ZISSEN1
100
AcDbLine
 10
-1709.311601228716
 20
1719.339266154489
 30
0.0
 11
-1701.311591228716
 21
1719.339266154489
 31
0.0
  0
LINE
  5
122F6
330
1A
100
AcDbEntity
  8
ZISSEN1
100
AcDbLine
 10
-1709.311601228716
 20
1721.839266154489
 30
0.0
 11
-1709.311601228716
 21
1719.339266154489
 31
0.0
  0
LINE
  5
122F7
330
1A
100
AcDbEntity
  8
ZISSEN1
100
AcDbLine
 10
-1693.311591228716
 20
1721.839266154489
 30
0.0
 11
-1693.311591228716
 21
1712.039256154489
 31
0.0
  0
LINE
  5
122F8
330
1A
100
AcDbEntity
  8
ZISSEN1
100
AcDbLine
 10
-1680.307101228716
 20
1717.789266154489
 30
0.0
 11
-1677.307091228716
 21
1717.789266154489
 31
0.0
  0
LINE
  5
122F9
330
1A
100
AcDbEntity
  8
ZISSEN1
100
AcDbLine
 10
-1678.014191228716
 20
1709.039266154489
 30
0.0
 11
-1677.307091228716
 21
1709.746366154489
 31
0.0
  0
LINE
  5
122FA
330
1A
100
AcDbEntity
  8
ZISSEN1
100
AcDbLine
 10
-1680.307101228716
 20
1721.289256154489
 30
0.0
 11
-1677.307091228716
 21
1721.289256154489
 31
0.0
  0
LINE
  5
122FB
330
1A
100
AcDbEntity
  8
CL1
100
AcDbLine
 10
-1683.307111228716
 20
1719.539256154489
 30
0.0
 11
-1674.307081228716
 21
1719.539256154489
 31
0.0
  0
LINE
  5
122FC
330
1A
100
AcDbEntity
  8
CL1
100
AcDbLine
 10
-1683.307111228716
 20
1725.539276154489
 30
0.0
 11
-1674.307081228716
 21
1725.539276154489
 31
0.0
  0
LINE
  5
122FD
330
1A
100
AcDbEntity
  8
ZISSEN1
100
AcDbLine
 10
-1688.407091228716
 20
1724.839256154489
 30
0.0
 11
-1688.407091228716
 21
1721.839266154489
 31
0.0
  0
LINE
  5
122FE
330
1A
100
AcDbEntity
  8
ZISSEN1
100
AcDbLine
 10
-1704.307081228716
 20
1800.733866154489
 30
0.0
 11
-1687.407081228715
 21
1800.733866154489
 31
0.0
  0
LINE
  5
122FF
330
1A
100
AcDbEntity
  8
ZISSEN1
100
AcDbLine
 10
-1704.307081228716
 20
1806.533856154489
 30
0.0
 11
-1692.307091228714
 21
1806.533856154489
 31
0.0
  0
LINE
  5
12300
330
1A
100
AcDbEntity
  8
ZISSEN1
100
AcDbLine
 10
-1704.307081228716
 20
1806.533856154489
 30
0.0
 11
-1704.307081228716
 21
1800.733866154489
 31
0.0
  0
LINE
  5
12301
330
1A
100
AcDbEntity
  8
ZISSEN1
100
AcDbLine
 10
-1678.014191228716
 20
1809.039256154489
 30
0.0
 11
-1692.307091228714
 21
1809.039256154489
 31
0.0
  0
LINE
  5
12302
330
1A
100
AcDbEntity
  8
ZISSEN1
100
AcDbLine
 10
-1692.307091228714
 20
1806.039246154488
 30
0.0
 11
-1680.307101228716
 21
1806.039246154488
 31
0.0
  0
LINE
  5
12303
330
1A
100
AcDbEntity
  8
ZISSEN1
100
AcDbLine
 10
-1692.307091228714
 20
1809.039256154489
 30
0.0
 11
-1692.307091228714
 21
1806.039246154488
 31
0.0
  0
LINE
  5
12304
330
1A
100
AcDbEntity
  8
ZISSEN1
100
AcDbLine
 10
-1690.897071228716
 20
1809.039256154489
 30
0.0
 11
-1690.897071228716
 21
1806.039246154488
 31
0.0
  0
LINE
  5
12305
330
1A
100
AcDbEntity
  8
ZISSEN1
100
AcDbLine
 10
-1677.307091228716
 20
1808.332146154489
 30
0.0
 11
-1678.014191228716
 21
1809.039256154489
 31
0.0
  0
LINE
  5
1230F
330
1A
100
AcDbEntity
  8
SUNPOU
 62
     1
100
AcDbLine
 10
-1766.077243805986
 20
1734.832548954943
 30
0.0
 11
-1750.836127270217
 21
1734.832548954943
 31
0.0
  0
MTEXT
  5
12310
330
1A
100
AcDbEntity
  8
ZISSEN1
 62
     1
100
AcDbMText
 10
-1763.656596152903
 20
1739.132076992816
 30
0.0
 40
3.5
 41
12.5515
 71
     1
 72
     5
  1
2-M3
  7
ゴシック体
1001
ACAD
1000
MTEXTBEGIN
1070
    73
1070
     1
1070
    44
1040
1.0
1070
    74
1070
     0
1000
MTEXTEND
  0
DIMENSION
  5
12311
330
1A
100
AcDbEntity
  8
ZISSEN1
100
AcDbDimension
  2
*D23
 10
-1887.678243873504
 20
1875.354786154489
 30
0.0
 11
-1890.428243873506
 21
1884.854781154489
 31
0.0
 70
    32
  3
標準スタイル
100
AcDbAlignedDimension
 13
-1875.955741228716
 23
1894.354776154489
 33
0.0
 14
-1871.955740228716
 24
1875.354786154489
 34
0.0
 50
90.0
100
AcDbRotatedDimension
1001
ACAD
1000
DSTYLE
1002
{
1070
    40
1040
1.0
1002
}
  0
DIMENSION
  5
1232D
330
1A
100
AcDbEntity
  8
ZISSEN1
100
AcDbDimension
  2
*D24
 10
-1887.678243873504
 20
1869.354766154489
 30
0.0
 11
-1890.428243873506
 21
1872.354776154489
 31
0.0
 70
    32
  3
標準スタイル
100
AcDbAlignedDimension
 13
-1871.955740228716
 23
1875.354786154489
 33
0.0
 14
-1871.955740228716
 24
1869.354766154489
 34
0.0
 50
90.0
100
AcDbRotatedDimension
1001
ACAD
1000
DSTYLE
1002
{
1070
    40
1040
1.0
1002
}
  0
DIMENSION
  5
1233C
330
1A
100
AcDbEntity
  8
ZISSEN1
100
AcDbDimension
  2
*D25
 10
-1887.678243873504
 20
1854.354766154489
 30
0.0
 11
-1890.428243873506
 21
1861.854766154489
 31
0.0
 70
    32
  3
標準スタイル
100
AcDbAlignedDimension
 13
-1871.955740228716
 23
1869.354766154489
 33
0.0
 14
-1867.955741228715
 24
1854.354766154489
 34
0.0
 50
90.0
100
AcDbRotatedDimension
1001
ACAD
1000
DSTYLE
1002
{
1070
    40
1040
1.0
1002
}
  0
DIMENSION
  5
12349
330
1A
100
AcDbEntity
  8
ZISSEN1
100
AcDbDimension
  2
*D26
 10
-1905.365962736746
 20
1854.354766154489
 30
0.0
 11
-1908.115962736747
 21
1874.354771154489
 31
0.0
 70
    32
  3
標準スタイル
100
AcDbAlignedDimension
 13
-1875.955741228716
 23
1894.354776154489
 33
0.0
 14
-1867.955741228715
 24
1854.354766154489
 34
0.0
 50
90.0
100
AcDbRotatedDimension
1001
ACAD
1000
DSTYLE
1002
{
1070
    40
1040
1.0
1002
}
  0
DIMENSION
  5
12356
330
1A
100
AcDbEntity
  8
ZISSEN1
100
AcDbDimension
  2
*D27
 10
-1905.365962736746
 20
1851.354756154489
 30
0.0
 11
-1908.115962736747
 21
1843.44866478393
 31
0.0
 70
    32
  3
標準スタイル
100
AcDbAlignedDimension
 13
-1867.955741228715
 23
1854.354766154489
 33
0.0
 14
-1848.955741228715
 24
1851.354756154489
 34
0.0
 50
90.0
100
AcDbRotatedDimension
1001
ACAD
1000
DSTYLE
1002
{
1070
    40
1040
1.0
1002
}
  0
DIMENSION
  5
12365
330
1A
100
AcDbEntity
  8
ZISSEN1
100
AcDbDimension
  2
*D28
 10
-1763.187766207235
 20
1867.604776154489
 30
0.0
 11
-1765.937766207236
 21
1857.424573108804
 31
0.0
 70
    32
  3
標準スタイル
100
AcDbAlignedDimension
 13
-1775.955741228715
 23
1871.104756154489
 33
0.0
 14
-1775.955741228715
 24
1867.604776154489
 34
0.0
 50
90.0
100
AcDbRotatedDimension
1001
ACAD
1000
DSTYLE
1002
{
1070
    40
1040
1.0
1002
}
  0
DIMENSION
  5
12374
330
1A
100
AcDbEntity
  8
ZISSEN1
100
AcDbDimension
  2
*D29
 10
-1871.955740228716
 20
1838.625021644596
 30
0.0
 11
-1873.955740728716
 21
1841.375021644596
 31
0.0
 70
    32
  3
標準スタイル
100
AcDbAlignedDimension
 13
-1875.955741228716
 23
1858.768996154489
 33
0.0
 14
-1871.955740228716
 24
1875.354786154489
 34
0.0
100
AcDbRotatedDimension
1001
ACAD
1000
DSTYLE
1002
{
1070
    40
1040
1.0
1002
}
  0
DIMENSION
  5
12383
330
1A
100
AcDbEntity
  8
ZISSEN1
100
AcDbDimension
  2
*D30
 10
-1779.955741228715
 20
1838.625021644596
 30
0.0
 11
-1825.955740728715
 21
1841.59710286287
 31
0.0
 70
    32
  1
92（USER取付ﾋﾟｯﾁ）
  3
標準スタイル
100
AcDbAlignedDimension
 13
-1871.955740228716
 23
1838.625021644596
 33
0.0
 14
-1779.955741228715
 24
1869.354766154489
 34
0.0
100
AcDbRotatedDimension
1001
ACAD
1000
DSTYLE
1002
{
1070
    40
1040
1.0
1002
}
  0
DIMENSION
  5
1238F
330
1A
100
AcDbEntity
  8
ZISSEN1
100
AcDbDimension
  2
*D31
 10
-1775.955741228715
 20
1838.625021644596
 30
0.0
 11
-1777.955741228715
 21
1841.375021644596
 31
0.0
 70
    32
  3
標準スタイル
100
AcDbAlignedDimension
 13
-1779.955741228715
 23
1838.625021644596
 33
0.0
 14
-1775.955741228715
 24
1858.768996154489
 34
0.0
100
AcDbRotatedDimension
1001
ACAD
1000
DSTYLE
1002
{
1070
    40
1040
1.0
1002
}
  0
DIMENSION
  5
1239F
330
1A
100
AcDbEntity
  8
ZISSEN1
100
AcDbDimension
  2
*D32
 10
-1775.955741228715
 20
1822.977919941267
 30
0.0
 11
-1825.955741228716
 21
1825.727919941267
 31
0.0
 70
    32
  3
標準スタイル
100
AcDbAlignedDimension
 13
-1875.955741228716
 23
1809.039256154489
 33
0.0
 14
-1775.955741228715
 24
1809.039256154489
 34
0.0
100
AcDbRotatedDimension
1001
ACAD
1000
DSTYLE
1002
{
1070
    40
1040
1.0
1002
}
  0
DIMENSION
  5
123B1
330
1A
100
AcDbEntity
  8
ZISSEN1
100
AcDbDimension
  2
*D33
 10
-1871.955740228716
 20
1696.170276045975
 30
0.0
 11
-1873.955740728716
 21
1698.920276045975
 31
0.0
 70
    32
  3
標準スタイル
100
AcDbAlignedDimension
 13
-1875.955741228716
 23
1709.039266154489
 33
0.0
 14
-1871.955740228716
 24
1719.539256154489
 34
0.0
100
AcDbRotatedDimension
1001
ACAD
1000
DSTYLE
1002
{
1070
    40
1040
1.0
1002
}
  0
DIMENSION
  5
123C0
330
1A
100
AcDbEntity
  8
ZISSEN1
100
AcDbDimension
  2
*D34
 10
-1779.955741228715
 20
1696.170276045975
 30
0.0
 11
-1825.955740728715
 21
1699.142357264249
 31
0.0
 70
    32
  1
92（USER取付ﾋﾟｯﾁ）
  3
標準スタイル
100
AcDbAlignedDimension
 13
-1871.955740228716
 23
1719.539256154489
 33
0.0
 14
-1779.955741228715
 24
1719.539256154489
 34
0.0
100
AcDbRotatedDimension
1001
ACAD
1000
DSTYLE
1002
{
1070
    40
1040
1.0
1002
}
  0
DIMENSION
  5
123DC
330
1A
100
AcDbEntity
  8
ZISSEN1
100
AcDbDimension
  2
*D35
 10
-1775.955741228715
 20
1696.170276045975
 30
0.0
 11
-1777.955741228715
 21
1698.920276045975
 31
0.0
 70
    32
  3
標準スタイル
100
AcDbAlignedDimension
 13
-1779.955741228715
 23
1696.170276045975
 33
0.0
 14
-1775.955741228715
 24
1709.039266154489
 34
0.0
100
AcDbRotatedDimension
1001
ACAD
1000
DSTYLE
1002
{
1070
    40
1040
1.0
1002
}
  0
LINE
  5
123EA
330
1A
100
AcDbEntity
  8
ZISSEN1
100
AcDbLine
 10
-1775.955741228715
 20
1717.789266154489
 30
0.0
 11
-1775.955741228715
 21
1709.039266154489
 31
0.0
  0
DIMENSION
  5
123EB
330
1A
100
AcDbEntity
  8
ZISSEN1
100
AcDbDimension
  2
*D36
 10
-1763.187766207235
 20
1717.789266154489
 30
0.0
 11
-1765.937766207236
 21
1707.609063108804
 31
0.0
 70
    32
  3
標準スタイル
100
AcDbAlignedDimension
 13
-1775.955741228715
 23
1721.289256154489
 33
0.0
 14
-1775.955741228715
 24
1717.789266154489
 34
0.0
 50
90.0
100
AcDbRotatedDimension
1001
ACAD
1000
DSTYLE
1002
{
1070
    40
1040
1.0
1002
}
  0
DIMENSION
  5
12407
330
1A
100
AcDbEntity
  8
ZISSEN1
100
AcDbDimension
  2
*D37
 10
-1720.307101228716
 20
1696.170276045975
 30
0.0
 11
-1698.807096228716
 21
1698.920276045975
 31
0.0
 70
    32
  3
標準スタイル
100
AcDbAlignedDimension
 13
-1677.307091228716
 23
1709.746366154489
 33
0.0
 14
-1720.307101228716
 24
1731.039256154489
 34
0.0
100
AcDbRotatedDimension
1001
ACAD
1000
DSTYLE
1002
{
1070
    40
1040
1.0
1002
}
  0
DIMENSION
  5
12414
330
1A
100
AcDbEntity
  8
ZISSEN1
100
AcDbDimension
  2
*D38
 10
-1732.71152417827
 20
1712.039256154489
 30
0.0
 11
-1735.46152417827
 21
1719.945347525047
 31
0.0
 70
    32
  3
標準スタイル
100
AcDbAlignedDimension
 13
-1716.599981228716
 23
1709.039266154489
 33
0.0
 14
-1714.307081228716
 24
1712.039256154489
 34
0.0
 50
90.0
100
AcDbRotatedDimension
1001
ACAD
1000
DSTYLE
1002
{
1070
    40
1040
1.0
1002
}
  0
DIMENSION
  5
12423
330
1A
100
AcDbEntity
  8
ZISSEN1
100
AcDbDimension
  2
*D39
 10
-1704.307081228716
 20
1822.977919941267
 30
0.0
 11
-1690.807086228715
 21
1825.727919941267
 31
0.0
 70
    32
  3
標準スタイル
100
AcDbAlignedDimension
 13
-1677.307091228716
 23
1808.332146154489
 33
0.0
 14
-1704.307081228716
 24
1806.533856154489
 34
0.0
100
AcDbRotatedDimension
1001
ACAD
1000
DSTYLE
1002
{
1070
    40
1040
1.0
1002
}
  0
DIMENSION
  5
12430
330
1A
100
AcDbEntity
  8
ZISSEN1
100
AcDbDimension
  2
*D40
 10
-1680.307101228716
 20
1814.946772333153
 30
0.0
 11
-1688.213192599274
 21
1817.696772333153
 31
0.0
 70
    32
  3
標準スタイル
100
AcDbAlignedDimension
 13
-1677.307091228716
 23
1808.332146154489
 33
0.0
 14
-1680.307101228716
 24
1806.039246154488
 34
0.0
100
AcDbRotatedDimension
1001
ACAD
1000
DSTYLE
1002
{
1070
    40
1040
1.0
1002
}
  0
CIRCLE
  5
1245E
330
1A
100
AcDbEntity
  8
ZISSEN1
100
AcDbCircle
 10
-1871.955740228716
 20
1875.354786154489
 30
0.0
 40
1.0
  0
CIRCLE
  5
1245F
330
1A
100
AcDbEntity
  8
ZISSEN1
100
AcDbCircle
 10
-1779.955741228715
 20
1875.354786154489
 30
0.0
 40
1.0
  0
LINE
  5
12468
330
1A
100
AcDbEntity
  8
SUNPOU
100
AcDbLine
 10
-1765.927569224247
 20
1885.100776914896
 30
0.0
 11
-1750.686452688479
 21
1885.100776914896
 31
0.0
  0
MTEXT
  5
12469
330
1A
100
AcDbEntity
  8
CL1
 62
     1
100
AcDbMText
 10
-1763.506921571163
 20
1889.400304952769
 30
0.0
 40
3.5
 41
12.5515
 71
     1
 72
     5
  1
2-M3
  7
ゴシック体
1001
ACAD
1000
MTEXTBEGIN
1070
    73
1070
     1
1070
    44
1040
1.0
1070
    74
1070
     0
1000
MTEXTEND
  0
CIRCLE
  5
12484
330
1A
100
AcDbEntity
  8
ZISSEN1
100
AcDbCircle
 10
-1871.955740228716
 20
1725.539276154489
 30
0.0
 40
1.0
  0
CIRCLE
  5
12485
330
1A
100
AcDbEntity
  8
ZISSEN1
100
AcDbCircle
 10
-1779.955741228715
 20
1725.539276154489
 30
0.0
 40
1.0
  0
DIMENSION
  5
12486
330
1A
100
AcDbEntity
  8
ZISSEN1
100
AcDbDimension
  2
*D41
 10
-1905.365962736746
 20
1709.039266154489
 30
0.0
 11
-1908.115962736747
 21
1759.039261154489
 31
0.0
 70
    32
  3
標準スタイル
100
AcDbAlignedDimension
 13
-1875.955741228716
 23
1809.039256154489
 33
0.0
 14
-1875.955741228716
 24
1709.039266154489
 34
0.0
 50
90.0
100
AcDbRotatedDimension
1001
ACAD
1000
DSTYLE
1002
{
1070
    40
1040
1.0
1002
}
  0
LINE
  5
12493
330
1A
100
AcDbEntity
  8
ZISSEN1
100
AcDbLine
 10
-1875.955741228716
 20
1721.289256154489
 30
0.0
 11
-1875.955741228716
 21
1809.039256154489
 31
0.0
  0
DIMENSION
  5
12495
330
1A
100
AcDbEntity
  8
ZISSEN1
100
AcDbDimension
  2
*D42
 10
-1887.678243873504
 20
1719.539256154489
 30
0.0
 11
-1890.428243873506
 21
1722.539266154489
 31
0.0
 70
    32
  3
標準スタイル
100
AcDbAlignedDimension
 13
-1871.955740228716
 23
1725.539276154489
 33
0.0
 14
-1871.955740228716
 24
1719.539256154489
 34
0.0
 50
90.0
100
AcDbRotatedDimension
1001
ACAD
1000
DSTYLE
1002
{
1070
    40
1040
1.0
1002
}
  0
DIMENSION
  5
124A4
330
1A
100
AcDbEntity
  8
ZISSEN1
100
AcDbDimension
  2
*D43
 10
-1887.678243873504
 20
1709.039266154489
 30
0.0
 11
-1890.428243873506
 21
1714.289261154489
 31
0.0
 70
    32
  3
標準スタイル
100
AcDbAlignedDimension
 13
-1871.955740228716
 23
1719.539256154489
 33
0.0
 14
-1875.955741228716
 24
1709.039266154489
 34
0.0
 50
90.0
100
AcDbRotatedDimension
1001
ACAD
1000
DSTYLE
1002
{
1070
    40
1040
1.0
1002
}
  0
LEADER
  5
124E1
330
1A
100
AcDbEntity
  8
ZISSEN1
100
AcDbLeader
  3
標準スタイル
 76
     2
 10
-1778.723859292045
 20
1876.210628952031
 30
0.0
 10
-1765.927569224247
 20
1885.100776914896
 30
0.0
1001
ACAD
1000
DSTYLE
1002
{
1070
     5
1000

1070
    77
1070
     0
1070
   147
1040
1.0
1002
}
  0
LEADER
  5
124E5
330
1A
100
AcDbEntity
  8
ZISSEN1
100
AcDbLeader
  3
標準スタイル
 76
     2
 10
-1778.706889391842
 20
1726.370160676873
 30
0.0
 10
-1765.987589825306
 20
1734.832548954943
 30
0.0
1001
ACAD
1000
DSTYLE
1002
{
1070
     5
1000

1070
    77
1070
     0
1070
   147
1040
1.0
1002
}
  0
VIEWPORT
  5
5D8F
330
5D8E
100
AcDbEntity
 67
     1
  8
0
100
AcDbViewport
 10
282.9740405675794
 20
487.8054867482331
 30
0.0
 40
836.3391509937537
 41
954.2273823838307
 68
     1
 69
     1
1001
ACAD
1000
MVIEW
1002
{
1070
    16
1010
0.0
1020
0.0
1030
0.0
1010
0.0
1020
0.0
1030
1.0
1040
0.0
1040
954.2273823838307
1040
282.9740405675794
1040
487.8054867482331
1040
50.0
1040
0.0
1040
0.0
1070
     0
1070
   100
1070
     1
1070
     0
1070
     0
1070
     0
1070
     0
1070
     0
1040
0.0
1040
0.0
1040
0.0
1040
1.0
1040
1.0
1040
10.0
1040
10.0
1070
     0
1002
{
1002
}
1002
}
  0
VIEWPORT
  5
6001
330
5D8E
100
AcDbEntity
 67
     1
  8
ZISSEN1
100
AcDbViewport
 10
221.7861955525411
 20
157.6960273330388
 30
0.0
 40
385.4999999999997
 41
259.9999999999999
 68
     2
 69
     2
1001
ACAD
1000
MVIEW
1002
{
1070
    16
1010
0.0
1020
0.0
1030
0.0
1010
0.0
1020
0.0
1030
1.0
1040
0.0
1040
259.9999999999999
1040
-1790.790841703542
1040
1804.531204326678
1040
50.0
1040
0.0
1040
0.0
1070
     0
1070
   100
1070
     1
1070
     0
1070
     0
1070
     0
1070
     0
1070
     0
1040
0.0
1040
0.0
1040
0.0
1040
1.0
1040
1.0
1040
10.0
1040
10.0
1070
     0
1002
{
1002
}
1002
}
  0
TEXT
  5
716F
330
5D8E
100
AcDbEntity
 67
     1
  8
SUNPOU
 62
     0
100
AcDbText
 10
374.1863124306943
 20
60.86794705907585
 30
0.0
 40
3.5
  1
縮尺 1/1
  7
ゴシック体
100
AcDbText
  0
ENDSEC
  0
SECTION
  2
OBJECTS
  0
DICTIONARY
  5
C
330
0
100
AcDbDictionary
  3
ACAD_GROUP
350
D
  3
ACAD_LAYOUT
350
5C7D
  3
ACAD_MLINESTYLE
350
E
  3
ACAD_PLOTSETTINGS
350
5C7E
  3
ACAD_PLOTSTYLENAME
350
5C7B
  3
ACADDIM
350
124DF
  3
DWGPROPS
350
5E8E
  3
ACDBVARIABLEDICTIONARY
350
124FB
  3
ACDBHEADERROUNDTRIPXREC
350
1252B
  0
DICTIONARY
  5
1254B
330
1A
100
AcDbDictionary
280
     1
  3
ACAD_LAYOUTSELFREF
360
1254C
  0
DICTIONARY
  5
1254D
330
5D8E
100
AcDbDictionary
280
     1
  3
ACAD_LAYOUTSELFREF
360
1254E
  0
DICTIONARY
  5
D
102
{ACAD_REACTORS
330
C
102
}
330
C
100
AcDbDictionary
  3
*A1
350
477D
  3
*A2
350
4C16
  3
*A3
350
4C17
  3
*A4
350
477E
  3
*A5
350
477F
  3
*A6
350
4780
  3
*A7
350
4781
  3
*A8
350
4C0E
  3
*A9
350
4C0F
  3
*A10
350
4C10
  3
*A11
350
4C11
  3
*A12
350
4C12
  3
*A13
350
4C13
  3
*A14
350
4C14
  3
*A15
350
4C15
  0
DICTIONARY
  5
5C7D
102
{ACAD_REACTORS
330
C
102
}
330
C
100
AcDbDictionary
  0
DICTIONARY
  5
E
102
{ACAD_REACTORS
330
C
102
}
330
C
100
AcDbDictionary
  3
STANDARD
350
13
  0
DICTIONARY
  5
5C7E
102
{ACAD_REACTORS
330
C
102
}
330
C
100
AcDbDictionary
  0
ACDBDICTIONARYWDFLT
  5
5C7B
102
{ACAD_REACTORS
330
C
102
}
330
C
100
AcDbDictionary
281
     1
  3
Normal
350
5C7C
100
AcDbDictionaryWithDefault
340
5C7C
  0
XRECORD
  5
124DF
102
{ACAD_REACTORS
330
C
102
}
330
C
100
AcDbXrecord
 90
   990106
  3

 60
     0
 61
     0
 62
     1
 63
     3
 64
     0
 65
     0
 66
     0
 67
     3
 68
     1
 69
     0
 70
     0
 71
     0
 72
     0
 40
0.0
170
     0
  0
XRECORD
  5
5E8E
102
{ACAD_REACTORS
330
C
102
}
330
C
100
AcDbXrecord
  1
DWGPROPS COOKIE
  2

  3

  4

  6

  7

  8

  9

300
=
301
=
302
=
303
=
304
=
305
=
306
=
307
=
308
=
309
=
 40
0.586753587962963
 41
2450495.493631364
 42
2453208.662277431
  1

 90
        0
  0
DICTIONARY
  5
124FB
102
{ACAD_REACTORS
330
C
102
}
330
C
100
AcDbDictionary
  3
INDEXCTL
350
124FC
  0
DICTIONARY
  5
1252B
102
{ACAD_REACTORS
330
C
102
}
330
C
100
AcDbDictionary
  3
TSTACKALIGN
350
1252C
  3
TSTACKSIZE
350
1252D
  3
HYPERLINKBASE
350
1252E
  3
STYLESHEET
350
1252F
  3
LAYOUTDICT
350
12530
  3
PLOTSETDICT
350
12531
  3
PLOTSTYLNAMDICT
350
12532
  3
LWETCUNION
350
12533
  3
INSUNITS
350
12534
  3
CEPSNTYPE
350
12535
  3
FINGERPRINTGUID
350
12536
  3
VERSIONGUID
350
12537
  3
PSVPSCALE
350
12538
  3
PUCSORTHOREF
350
12539
  3
PUCSORTHOVIEW
350
1253A
  3
PUCSBASE
350
1253B
  3
PUCSORGTOP
350
1253C
  3
PUCSORGBOTTOM
350
1253D
  3
PUCSORGLEFT
350
1253E
  3
PUCSORGRIGHT
350
1253F
  3
PUCSORGFRONT
350
12540
  3
PUCSORGBACK
350
12541
  3
UCSORTHOREF
350
12542
  3
UCSORTHOVIEW
350
12543
  3
UCSBASE
350
12544
  3
UCSORGTOP
350
12545
  3
UCSORGBOTTOM
350
12546
  3
UCSORGLEFT
350
12547
  3
UCSORGRIGHT
350
12548
  3
UCSORGFRONT
350
12549
  3
UCSORGBACK
350
1254A
  0
XRECORD
  5
1254C
102
{ACAD_REACTORS
330
1254B
102
}
330
1254B
100
AcDbXrecord
340
1A
  0
XRECORD
  5
1254E
102
{ACAD_REACTORS
330
1254D
102
}
330
1254D
100
AcDbXrecord
340
5D8E
  0
GROUP
  5
477D
102
{ACAD_REACTORS
330
D
102
}
330
D
100
AcDbGroup
300

 70
     1
 71
     1
  0
GROUP
  5
4C16
102
{ACAD_REACTORS
330
D
102
}
330
D
100
AcDbGroup
300

 70
     1
 71
     1
  0
GROUP
  5
4C17
102
{ACAD_REACTORS
330
D
102
}
330
D
100
AcDbGroup
300

 70
     1
 71
     1
  0
GROUP
  5
477E
102
{ACAD_REACTORS
330
D
102
}
330
D
100
AcDbGroup
300

 70
     1
 71
     1
  0
GROUP
  5
477F
102
{ACAD_REACTORS
330
D
102
}
330
D
100
AcDbGroup
300

 70
     1
 71
     1
  0
GROUP
  5
4780
102
{ACAD_REACTORS
330
D
102
}
330
D
100
AcDbGroup
300

 70
     1
 71
     1
  0
GROUP
  5
4781
102
{ACAD_REACTORS
330
D
102
}
330
D
100
AcDbGroup
300

 70
     1
 71
     1
  0
GROUP
  5
4C0E
102
{ACAD_REACTORS
330
D
102
}
330
D
100
AcDbGroup
300

 70
     1
 71
     1
  0
GROUP
  5
4C0F
102
{ACAD_REACTORS
330
D
102
}
330
D
100
AcDbGroup
300

 70
     1
 71
     1
  0
GROUP
  5
4C10
102
{ACAD_REACTORS
330
D
102
}
330
D
100
AcDbGroup
300

 70
     1
 71
     1
  0
GROUP
  5
4C11
102
{ACAD_REACTORS
330
D
102
}
330
D
100
AcDbGroup
300

 70
     1
 71
     1
  0
GROUP
  5
4C12
102
{ACAD_REACTORS
330
D
102
}
330
D
100
AcDbGroup
300

 70
     1
 71
     1
  0
GROUP
  5
4C13
102
{ACAD_REACTORS
330
D
102
}
330
D
100
AcDbGroup
300

 70
     1
 71
     1
  0
GROUP
  5
4C14
102
{ACAD_REACTORS
330
D
102
}
330
D
100
AcDbGroup
300

 70
     1
 71
     1
  0
GROUP
  5
4C15
102
{ACAD_REACTORS
330
D
102
}
330
D
100
AcDbGroup
300

 70
     1
 71
     1
  0
MLINESTYLE
  5
13
102
{ACAD_REACTORS
330
E
102
}
330
E
100
AcDbMlineStyle
  2
STANDARD
 70
     0
  3

 62
     0
 51
90.0
 52
90.0
 71
     2
 49
0.5
 62
   256
  6
BYLAYER
 49
-0.5
 62
   256
  6
BYLAYER
  0
ACDBPLACEHOLDER
  5
5C7C
102
{ACAD_REACTORS
330
5C7B
102
}
330
5C7B
100
AcDbPlaceHolder
280
     0
  0
DICTIONARYVAR
  5
124FC
102
{ACAD_REACTORS
330
124FB
102
}
330
124FB
100
DictionaryVariables
280
     0
  1
-1
  0
XRECORD
  5
1252C
102
{ACAD_REACTORS
330
1252B
102
}
330
1252B
100
AcDbXrecord
 90
        1
  0
XRECORD
  5
1252D
102
{ACAD_REACTORS
330
1252B
102
}
330
1252B
100
AcDbXrecord
 90
       70
  0
XRECORD
  5
1252E
102
{ACAD_REACTORS
330
1252B
102
}
330
1252B
100
AcDbXrecord
  1

  0
XRECORD
  5
1252F
102
{ACAD_REACTORS
330
1252B
102
}
330
1252B
100
AcDbXrecord
  1

  0
XRECORD
  5
12530
102
{ACAD_REACTORS
330
1252B
102
}
330
1252B
100
AcDbXrecord
340
5C7D
  0
XRECORD
  5
12531
102
{ACAD_REACTORS
330
1252B
102
}
330
1252B
100
AcDbXrecord
340
5C7E
  0
XRECORD
  5
12532
102
{ACAD_REACTORS
330
1252B
102
}
330
1252B
100
AcDbXrecord
340
5C7B
  0
XRECORD
  5
12533
102
{ACAD_REACTORS
330
1252B
102
}
330
1252B
100
AcDbXrecord
 90
    10781
  0
XRECORD
  5
12534
102
{ACAD_REACTORS
330
1252B
102
}
330
1252B
100
AcDbXrecord
 90
        0
  0
XRECORD
  5
12535
102
{ACAD_REACTORS
330
1252B
102
}
330
1252B
100
AcDbXrecord
 90
        0
  0
XRECORD
  5
12536
102
{ACAD_REACTORS
330
1252B
102
}
330
1252B
100
AcDbXrecord
  1
{225A7F0D-DA29-11D8-946A-0000E2416295}
  0
XRECORD
  5
12537
102
{ACAD_REACTORS
330
1252B
102
}
330
1252B
100
AcDbXrecord
  1
{136633E9-7128-4A6C-AF8B-73F226885A63}
  0
XRECORD
  5
12538
102
{ACAD_REACTORS
330
1252B
102
}
330
1252B
100
AcDbXrecord
 40
0.0
  0
XRECORD
  5
12539
102
{ACAD_REACTORS
330
1252B
102
}
330
1252B
100
AcDbXrecord
340
0
  0
XRECORD
  5
1253A
102
{ACAD_REACTORS
330
1252B
102
}
330
1252B
100
AcDbXrecord
 70
     0
  0
XRECORD
  5
1253B
102
{ACAD_REACTORS
330
1252B
102
}
330
1252B
100
AcDbXrecord
340
0
  0
XRECORD
  5
1253C
102
{ACAD_REACTORS
330
1252B
102
}
330
1252B
100
AcDbXrecord
 10
0.0
 20
0.0
 30
0.0
  0
XRECORD
  5
1253D
102
{ACAD_REACTORS
330
1252B
102
}
330
1252B
100
AcDbXrecord
 10
0.0
 20
0.0
 30
0.0
  0
XRECORD
  5
1253E
102
{ACAD_REACTORS
330
1252B
102
}
330
1252B
100
AcDbXrecord
 10
0.0
 20
0.0
 30
0.0
  0
XRECORD
  5
1253F
102
{ACAD_REACTORS
330
1252B
102
}
330
1252B
100
AcDbXrecord
 10
0.0
 20
0.0
 30
0.0
  0
XRECORD
  5
12540
102
{ACAD_REACTORS
330
1252B
102
}
330
1252B
100
AcDbXrecord
 10
0.0
 20
0.0
 30
0.0
  0
XRECORD
  5
12541
102
{ACAD_REACTORS
330
1252B
102
}
330
1252B
100
AcDbXrecord
 10
0.0
 20
0.0
 30
0.0
  0
XRECORD
  5
12542
102
{ACAD_REACTORS
330
1252B
102
}
330
1252B
100
AcDbXrecord
340
0
  0
XRECORD
  5
12543
102
{ACAD_REACTORS
330
1252B
102
}
330
1252B
100
AcDbXrecord
 70
     0
  0
XRECORD
  5
12544
102
{ACAD_REACTORS
330
1252B
102
}
330
1252B
100
AcDbXrecord
340
0
  0
XRECORD
  5
12545
102
{ACAD_REACTORS
330
1252B
102
}
330
1252B
100
AcDbXrecord
 10
0.0
 20
0.0
 30
0.0
  0
XRECORD
  5
12546
102
{ACAD_REACTORS
330
1252B
102
}
330
1252B
100
AcDbXrecord
 10
0.0
 20
0.0
 30
0.0
  0
XRECORD
  5
12547
102
{ACAD_REACTORS
330
1252B
102
}
330
1252B
100
AcDbXrecord
 10
0.0
 20
0.0
 30
0.0
  0
XRECORD
  5
12548
102
{ACAD_REACTORS
330
1252B
102
}
330
1252B
100
AcDbXrecord
 10
0.0
 20
0.0
 30
0.0
  0
XRECORD
  5
12549
102
{ACAD_REACTORS
330
1252B
102
}
330
1252B
100
AcDbXrecord
 10
0.0
 20
0.0
 30
0.0
  0
XRECORD
  5
1254A
102
{ACAD_REACTORS
330
1252B
102
}
330
1252B
100
AcDbXrecord
 10
0.0
 20
0.0
 30
0.0
  0
ENDSEC
  0
EOF
