  0
SECTION
  2
HEADER
  9
$ACADVER
  1
AC1014
  9
$ACADMAINTVER
 70
     9
  9
$DWGCODEPAGE
  3
ANSI_932
  9
$INSBASE
 10
0.0
 20
0.0
 30
0.0
  9
$EXTMIN
 10
-1882.720842667296
 20
1694.779892364413
 30
0.0
  9
$EXTMAX
 10
-1646.319417164738
 20
1913.392132607379
 30
0.0
  9
$LIMMIN
 10
0.0
 20
0.0
  9
$LIMMAX
 10
420.0
 20
297.0
  9
$ORTHOMODE
 70
     0
  9
$REGENMODE
 70
     1
  9
$FILLMODE
 70
     1
  9
$QTEXTMODE
 70
     0
  9
$MIRRTEXT
 70
     1
  9
$DRAGMODE
 70
     2
  9
$LTSCALE
 40
1.0
  9
$OSMODE
 70
    37
  9
$ATTMODE
 70
     1
  9
$TEXTSIZE
 40
2.5
  9
$TRACEWID
 40
1.0
  9
$TEXTSTYLE
  7
ゴシック体
  9
$CLAYER
  8
ZISSEN1
  9
$CELTYPE
  6
BYLAYER
  9
$CECOLOR
 62
   256
  9
$CELTSCALE
 40
1.0
  9
$DELOBJ
 70
     1
  9
$DISPSILH
 70
     0
  9
$DIMSCALE
 40
0.0
  9
$DIMASZ
 40
3.0
  9
$DIMEXO
 40
0.5
  9
$DIMDLI
 40
0.5
  9
$DIMRND
 40
0.0
  9
$DIMDLE
 40
0.0
  9
$DIMEXE
 40
0.5
  9
$DIMTP
 40
0.0
  9
$DIMTM
 40
0.0
  9
$DIMTXT
 40
3.5
  9
$DIMCEN
 40
0.0
  9
$DIMTSZ
 40
0.0
  9
$DIMTOL
 70
     0
  9
$DIMLIM
 70
     0
  9
$DIMTIH
 70
     0
  9
$DIMTOH
 70
     0
  9
$DIMSE1
 70
     0
  9
$DIMSE2
 70
     0
  9
$DIMTAD
 70
     1
  9
$DIMZIN
 70
     8
  9
$DIMBLK
  1

  9
$DIMASO
 70
     1
  9
$DIMSHO
 70
     1
  9
$DIMPOST
  1

  9
$DIMAPOST
  1

  9
$DIMALT
 70
     0
  9
$DIMALTD
 70
     2
  9
$DIMALTF
 40
25.4
  9
$DIMLFAC
 40
1.0
  9
$DIMTOFL
 70
     1
  9
$DIMTVP
 40
0.0
  9
$DIMTIX
 70
     0
  9
$DIMSOXD
 70
     0
  9
$DIMSAH
 70
     0
  9
$DIMBLK1
  1

  9
$DIMBLK2
  1

  9
$DIMSTYLE
  2
標準スタイル
  9
$DIMCLRD
 70
     1
  9
$DIMCLRE
 70
     1
  9
$DIMCLRT
 70
     1
  9
$DIMTFAC
 40
1.0
  9
$DIMGAP
 40
1.0
  9
$DIMJUST
 70
     0
  9
$DIMSD1
 70
     0
  9
$DIMSD2
 70
     0
  9
$DIMTOLJ
 70
     1
  9
$DIMTZIN
 70
     8
  9
$DIMALTZ
 70
     0
  9
$DIMALTTZ
 70
     0
  9
$DIMFIT
 70
     3
  9
$DIMUPT
 70
     0
  9
$DIMUNIT
 70
     2
  9
$DIMDEC
 70
     2
  9
$DIMTDEC
 70
     2
  9
$DIMALTU
 70
     2
  9
$DIMALTTD
 70
     2
  9
$DIMTXSTY
  7
ゴシック体
  9
$DIMAUNIT
 70
     0
  9
$LUNITS
 70
     2
  9
$LUPREC
 70
     4
  9
$SKETCHINC
 40
1.0
  9
$FILLETRAD
 40
0.0
  9
$AUNITS
 70
     0
  9
$AUPREC
 70
     0
  9
$MENU
  1
.
  9
$ELEVATION
 40
0.0
  9
$PELEVATION
 40
0.0
  9
$THICKNESS
 40
0.0
  9
$LIMCHECK
 70
     0
  9
$BLIPMODE
 70
     0
  9
$CHAMFERA
 40
10.0
  9
$CHAMFERB
 40
10.0
  9
$CHAMFERC
 40
2.0
  9
$CHAMFERD
 40
0.7853981633974483
  9
$SKPOLY
 70
     0
  9
$TDCREATE
 40
2450495.493631365
  9
$TDUPDATE
 40
2453984.404380382
  9
$TDINDWG
 40
1.7117080324
  9
$TDUSRTIMER
 40
1.7117080324
  9
$USRTIMER
 70
     1
  9
$ANGBASE
 50
0.0
  9
$ANGDIR
 70
     0
  9
$PDMODE
 70
    99
  9
$PDSIZE
 40
0.0
  9
$PLINEWID
 40
0.0
  9
$COORDS
 70
     1
  9
$SPLFRAME
 70
     0
  9
$SPLINETYPE
 70
     6
  9
$SPLINESEGS
 70
     8
  9
$ATTDIA
 70
     0
  9
$ATTREQ
 70
     1
  9
$HANDLING
 70
 10241
  9
$HANDSEED
  5
12E90
  9
$SURFTAB1
 70
     6
  9
$SURFTAB2
 70
     6
  9
$SURFTYPE
 70
     6
  9
$SURFU
 70
     6
  9
$SURFV
 70
     6
  9
$UCSNAME
  2

  9
$UCSORG
 10
0.0
 20
0.0
 30
0.0
  9
$UCSXDIR
 10
1.0
 20
0.0
 30
0.0
  9
$UCSYDIR
 10
0.0
 20
1.0
 30
0.0
  9
$PUCSNAME
  2

  9
$PUCSORG
 10
0.0
 20
0.0
 30
0.0
  9
$PUCSXDIR
 10
1.0
 20
0.0
 30
0.0
  9
$PUCSYDIR
 10
0.0
 20
1.0
 30
0.0
  9
$USERI1
 70
     0
  9
$USERI2
 70
     0
  9
$USERI3
 70
     0
  9
$USERI4
 70
     0
  9
$USERI5
 70
     0
  9
$USERR1
 40
0.0
  9
$USERR2
 40
0.0
  9
$USERR3
 40
0.0
  9
$USERR4
 40
0.0
  9
$USERR5
 40
0.0
  9
$WORLDVIEW
 70
     1
  9
$SHADEDGE
 70
     3
  9
$SHADEDIF
 70
    70
  9
$TILEMODE
 70
     1
  9
$MAXACTVP
 70
    16
  9
$PINSBASE
 10
0.0
 20
0.0
 30
0.0
  9
$PLIMCHECK
 70
     0
  9
$PEXTMIN
 10
29.03619555254133
 20
27.69602733303884
 30
0.0
  9
$PEXTMAX
 10
414.536195552541
 20
287.6960273330388
 30
0.0
  9
$PLIMMIN
 10
15.15433780389673
 20
13.80781516542163
  9
$PLIMMAX
 10
435.2703351183499
 20
310.7338100384683
  9
$UNITMODE
 70
     0
  9
$VISRETAIN
 70
     0
  9
$PLINEGEN
 70
     0
  9
$PSLTSCALE
 70
     1
  9
$TREEDEPTH
 70
  3020
  9
$PICKSTYLE
 70
     1
  9
$CMLSTYLE
  2
STANDARD
  9
$CMLJUST
 70
     0
  9
$CMLSCALE
 40
1.0
  9
$PROXYGRAPHICS
 70
     1
  9
$MEASUREMENT
 70
     1
  0
ENDSEC
  0
SECTION
  2
CLASSES
  0
CLASS
  1
LWPOLYLINE
  2
AcDbPolyline
  3
AutoCAD 2000
 90
        0
280
     0
281
     1
  0
CLASS
  1
HATCH
  2
AcDbHatch
  3
AutoCAD 2000
 90
        0
280
     0
281
     1
  0
CLASS
  1
ACDBDICTIONARYWDFLT
  2
AcDbDictionaryWithDefault
  3
AutoCAD 2000
 90
        0
280
     0
281
     0
  0
CLASS
  1
ACDBPLACEHOLDER
  2
AcDbPlaceHolder
  3
AutoCAD 2000
 90
        0
280
     0
281
     0
  0
CLASS
  1
LAYOUT
  2
AcDbLayout
  3
AutoCAD 2000
 90
        0
280
     0
281
     0
  0
CLASS
  1
DICTIONARYVAR
  2
AcDbDictionaryVar
  3
AutoCAD 2000
 90
        0
280
     0
281
     0
  0
CLASS
  1
LONG_TRANSACTION
  2
AcDbLongTransaction
  3
AutoCAD 2000
 90
        0
280
     0
281
     0
  0
CLASS
  1
LWPOLYLINE
  2
AcDbPolyline
  3
AutoCAD 2000
 90
        0
280
     0
281
     1
  0
CLASS
  1
HATCH
  2
AcDbHatch
  3
AutoCAD 2000
 90
        0
280
     0
281
     1
  0
CLASS
  1
XRECORD
  2
AcDbXrecord
  3
AutoCAD 2000
 90
        0
280
     0
281
     0
  0
ENDSEC
  0
SECTION
  2
TABLES
  0
TABLE
  2
VPORT
  5
8
330
0
100
AcDbSymbolTable
 70
     2
  0
VPORT
  5
12E6B
330
8
100
AcDbSymbolTableRecord
100
AcDbViewportTableRecord
  2
*ACTIVE
 70
     0
 10
0.0
 20
0.0
 11
1.0
 21
1.0
 12
-1669.128108336743
 22
1810.153065315481
 13
0.0
 23
0.0
 14
5.0
 24
5.0
 15
0.0
 25
0.0
 16
0.0
 26
0.0
 36
1.0
 17
0.0
 27
0.0
 37
0.0
 40
275.4530755376786
 41
2.192560175054704
 42
50.0
 43
0.0
 44
0.0
 50
0.0
 51
0.0
 71
     0
 72
   100
 73
     1
 74
     0
 75
     0
 76
     0
 77
     0
 78
     0
  0
ENDTAB
  0
TABLE
  2
LTYPE
  5
5
330
0
100
AcDbSymbolTable
 70
    13
  0
LTYPE
  5
14
330
5
100
AcDbSymbolTableRecord
100
AcDbLinetypeTableRecord
  2
BYBLOCK
 70
     0
  3

 72
    65
 73
     0
 40
0.0
  0
LTYPE
  5
15
330
5
100
AcDbSymbolTableRecord
100
AcDbLinetypeTableRecord
  2
BYLAYER
 70
     0
  3

 72
    65
 73
     0
 40
0.0
  0
LTYPE
  5
16
330
5
100
AcDbSymbolTableRecord
100
AcDbLinetypeTableRecord
  2
CONTINUOUS
 70
     0
  3
Solid line
 72
    65
 73
     0
 40
0.0
  0
LTYPE
  5
329
330
5
100
AcDbSymbolTableRecord
100
AcDbLinetypeTableRecord
  2
DASHEDX2
 70
     0
  3
____  ____  ____  ____  ____  ____  ____  ____ 
 72
    65
 73
     2
 40
1.5
 49
1.0
 74
     0
 49
-0.5
 74
     0
  0
LTYPE
  5
1956
330
5
100
AcDbSymbolTableRecord
100
AcDbLinetypeTableRecord
  2
CENTERX2
 70
     0
  3
________  __  ________  __  ________  __  _____
 72
    65
 73
     4
 40
4.0
 49
2.5
 74
     0
 49
-0.5
 74
     0
 49
0.5
 74
     0
 49
-0.5
 74
     0
  0
ENDTAB
  0
TABLE
  2
LAYER
  5
2
330
0
100
AcDbSymbolTable
 70
    34
  0
LAYER
  5
F
330
2
100
AcDbSymbolTableRecord
100
AcDbLayerTableRecord
  2
0
 70
     0
 62
     7
  6
CONTINUOUS
  0
LAYER
  5
18F
330
2
100
AcDbSymbolTableRecord
100
AcDbLayerTableRecord
  2
ZISSEN1
 70
     0
 62
     7
  6
CONTINUOUS
  0
LAYER
  5
191
330
2
100
AcDbSymbolTableRecord
100
AcDbLayerTableRecord
  2
SAISEN
 70
     0
 62
     1
  6
CONTINUOUS
  0
LAYER
  5
529
330
2
100
AcDbSymbolTableRecord
100
AcDbLayerTableRecord
  2
SUNPOU
 70
     0
 62
     1
  6
CONTINUOUS
  0
LAYER
  5
1959
330
2
100
AcDbSymbolTableRecord
100
AcDbLayerTableRecord
  2
KAKURESEN1
 70
     0
 62
     3
  6
DASHEDX2
  0
LAYER
  5
195A
330
2
100
AcDbSymbolTableRecord
100
AcDbLayerTableRecord
  2
CL1
 70
     0
 62
   210
  6
CENTERX2
  0
LAYER
  5
3A9B
330
2
100
AcDbSymbolTableRecord
100
AcDbLayerTableRecord
  2
DEFPOINTS
 70
     0
 62
     7
  6
CONTINUOUS
  0
ENDTAB
  0
TABLE
  2
STYLE
  5
3
330
0
100
AcDbSymbolTable
 70
     5
  0
STYLE
  5
10
330
3
100
AcDbSymbolTableRecord
100
AcDbTextStyleTableRecord
  2
STANDARD
 70
     0
 40
0.0
 41
1.0
 50
0.0
 71
     0
 42
3.0
  3
txt
  4
BigFont
  0
STYLE
  5
1960
330
3
100
AcDbSymbolTableRecord
100
AcDbTextStyleTableRecord
  2
ゴシック体
 70
     0
 40
0.0
 41
1.0
 50
0.0
 71
     0
 42
2.5
  3
MS Gothic.ttf
  4

1001
ACAD
1000
MS Gothic
1071
    32817
  0
ENDTAB
  0
TABLE
  2
VIEW
  5
6
330
0
100
AcDbSymbolTable
 70
     0
  0
ENDTAB
  0
TABLE
  2
UCS
  5
7
330
0
100
AcDbSymbolTable
 70
     0
  0
ENDTAB
  0
TABLE
  2
APPID
  5
9
330
0
100
AcDbSymbolTable
 70
     5
  0
APPID
  5
11
330
9
100
AcDbSymbolTableRecord
100
AcDbRegAppTableRecord
  2
ACAD
 70
     0
  0
APPID
  5
4005
330
9
100
AcDbSymbolTableRecord
100
AcDbRegAppTableRecord
  2
CONTENTTABDATA
 70
     0
  0
APPID
  5
4006
330
9
100
AcDbSymbolTableRecord
100
AcDbRegAppTableRecord
  2
CONTENTCURRENTTAB
 70
     0
  0
APPID
  5
477B
330
9
100
AcDbSymbolTableRecord
100
AcDbRegAppTableRecord
  2
CONTENTBLOCKDESCRIPTION
 70
     0
  0
APPID
  5
477C
330
9
100
AcDbSymbolTableRecord
100
AcDbRegAppTableRecord
  2
CONTENTBLOCKICON
 70
     0
  0
ENDTAB
  0
TABLE
  2
DIMSTYLE
  5
A
330
0
100
AcDbSymbolTable
 70
    12
  0
DIMSTYLE
105
1D
330
A
100
AcDbSymbolTableRecord
100
AcDbDimStyleTableRecord
  2
STANDARD
 70
     0
  3

  4

  5

  6

  7

 40
1.0
 41
0.18
 42
0.0625
 43
0.38
 44
0.18
 45
0.0
 46
0.0
 47
0.0
 48
0.0
140
0.18
141
0.09
142
0.0
143
25.4
144
1.0
145
0.0
146
1.0
147
0.09
 71
     0
 72
     0
 73
     1
 74
     1
 75
     0
 76
     0
 77
     0
 78
     0
170
     0
171
     2
172
     0
173
     0
174
     0
175
     0
176
     0
177
     0
178
     0
270
     2
271
     4
272
     4
273
     2
274
     2
340
10
275
     0
280
     0
281
     0
282
     0
283
     1
284
     0
285
     0
286
     0
287
     3
288
     0
  0
DIMSTYLE
105
52E
102
{ACAD_REACTORS
330
12A20
330
12A2F
330
12A3B
330
12A4A
330
12A58
330
12A65
330
12A74
330
12A83
330
12A90
330
12A9F
330
12ABA
330
12AC6
330
12AD4
330
12AE1
330
12AEE
330
12DDC
330
12DE9
330
12DF8
330
12E17
102
}
330
A
100
AcDbSymbolTableRecord
100
AcDbDimStyleTableRecord
  2
標準スタイル
 70
     0
  3

  4

  5

  6

  7

 40
0.0
 41
3.0
 42
0.5
 43
0.5
 44
0.5
 45
0.0
 46
0.0
 47
0.0
 48
0.0
140
3.5
141
0.0
142
0.0
143
25.4
144
1.0
145
0.0
146
1.0
147
1.0
 71
     0
 72
     0
 73
     0
 74
     0
 75
     0
 76
     0
 77
     1
 78
     8
170
     0
171
     2
172
     1
173
     0
174
     0
175
     0
176
     1
177
     1
178
     1
270
     2
271
     2
272
     2
273
     2
274
     2
340
1960
275
     0
280
     0
281
     0
282
     0
283
     1
284
     8
285
     0
286
     0
287
     3
288
     0
  0
ENDTAB
  0
TABLE
  2
BLOCK_RECORD
  5
1
330
0
100
AcDbSymbolTable
 70
    43
  0
BLOCK_RECORD
  5
1A
102
{ACAD_XDICTIONARY
360
12E8C
102
}
330
1
100
AcDbSymbolTableRecord
100
AcDbBlockTableRecord
  2
*MODEL_SPACE
  0
BLOCK_RECORD
  5
5D8E
102
{ACAD_XDICTIONARY
360
12E8E
102
}
330
1
100
AcDbSymbolTableRecord
100
AcDbBlockTableRecord
  2
*PAPER_SPACE
  0
BLOCK_RECORD
  5
12A21
330
1
100
AcDbSymbolTableRecord
100
AcDbBlockTableRecord
  2
*D24
  0
BLOCK_RECORD
  5
12A30
330
1
100
AcDbSymbolTableRecord
100
AcDbBlockTableRecord
  2
*D25
  0
BLOCK_RECORD
  5
12A3C
330
1
100
AcDbSymbolTableRecord
100
AcDbBlockTableRecord
  2
*D26
  0
BLOCK_RECORD
  5
12A4B
330
1
100
AcDbSymbolTableRecord
100
AcDbBlockTableRecord
  2
*D27
  0
BLOCK_RECORD
  5
12A59
330
1
100
AcDbSymbolTableRecord
100
AcDbBlockTableRecord
  2
*D28
  0
BLOCK_RECORD
  5
12A66
330
1
100
AcDbSymbolTableRecord
100
AcDbBlockTableRecord
  2
*D29
  0
BLOCK_RECORD
  5
12A75
330
1
100
AcDbSymbolTableRecord
100
AcDbBlockTableRecord
  2
*D30
  0
BLOCK_RECORD
  5
12A84
330
1
100
AcDbSymbolTableRecord
100
AcDbBlockTableRecord
  2
*D31
  0
BLOCK_RECORD
  5
12A91
330
1
100
AcDbSymbolTableRecord
100
AcDbBlockTableRecord
  2
*D32
  0
BLOCK_RECORD
  5
12AA0
330
1
100
AcDbSymbolTableRecord
100
AcDbBlockTableRecord
  2
*D33
  0
BLOCK_RECORD
  5
12ABB
330
1
100
AcDbSymbolTableRecord
100
AcDbBlockTableRecord
  2
*D34
  0
BLOCK_RECORD
  5
12AC7
330
1
100
AcDbSymbolTableRecord
100
AcDbBlockTableRecord
  2
*D35
  0
BLOCK_RECORD
  5
12AD5
330
1
100
AcDbSymbolTableRecord
100
AcDbBlockTableRecord
  2
*D36
  0
BLOCK_RECORD
  5
12AE2
330
1
100
AcDbSymbolTableRecord
100
AcDbBlockTableRecord
  2
*D37
  0
BLOCK_RECORD
  5
12AEF
330
1
100
AcDbSymbolTableRecord
100
AcDbBlockTableRecord
  2
*D38
  0
BLOCK_RECORD
  5
12DDD
330
1
100
AcDbSymbolTableRecord
100
AcDbBlockTableRecord
  2
*D39
  0
BLOCK_RECORD
  5
12DEA
330
1
100
AcDbSymbolTableRecord
100
AcDbBlockTableRecord
  2
*D40
  0
BLOCK_RECORD
  5
12DF9
330
1
100
AcDbSymbolTableRecord
100
AcDbBlockTableRecord
  2
*D41
  0
BLOCK_RECORD
  5
12E18
330
1
100
AcDbSymbolTableRecord
100
AcDbBlockTableRecord
  2
*D42
  0
ENDTAB
  0
ENDSEC
  0
SECTION
  2
BLOCKS
  0
BLOCK
  5
1B
330
1A
100
AcDbEntity
  8
0
100
AcDbBlockBegin
  2
*MODEL_SPACE
 70
     0
 10
0.0
 20
0.0
 30
0.0
  3
*MODEL_SPACE
  1

  0
ENDBLK
  5
1C
330
1A
100
AcDbEntity
  8
0
100
AcDbBlockEnd
  0
BLOCK
  5
5E60
330
5D8E
100
AcDbEntity
 67
     1
  8
0
100
AcDbBlockBegin
  2
*PAPER_SPACE
 70
     0
 10
0.0
 20
0.0
 30
0.0
  3
*PAPER_SPACE
  1

  0
ENDBLK
  5
5E61
330
5D8E
100
AcDbEntity
 67
     1
  8
0
100
AcDbBlockEnd
  0
BLOCK
  5
12A2D
330
12A21
100
AcDbEntity
  8
0
100
AcDbBlockBegin
  2
*D24
 70
     1
 10
0.0
 20
0.0
 30
0.0
  3
*D24
  1

  0
LINE
  5
12A22
330
12A21
100
AcDbEntity
  8
ZISSEN1
 62
     1
100
AcDbLine
 10
-1848.073835578144
 20
1894.321795105528
 30
0.0
 11
-1863.072781731831
 21
1894.321795105528
 31
0.0
  0
LINE
  5
12A23
330
12A21
100
AcDbEntity
  8
ZISSEN1
 62
     1
100
AcDbLine
 10
-1837.573850578143
 20
1890.321815105528
 30
0.0
 11
-1863.072781731831
 21
1890.321815105528
 31
0.0
  0
LINE
  5
12A24
330
12A21
100
AcDbEntity
  8
ZISSEN1
 62
     1
100
AcDbLine
 10
-1862.572781731832
 20
1897.321795105528
 30
0.0
 11
-1862.572781731832
 21
1900.321795105529
 31
0.0
  0
LINE
  5
12A25
330
12A21
100
AcDbEntity
  8
ZISSEN1
 62
     1
100
AcDbLine
 10
-1862.572781731832
 20
1887.321815105529
 30
0.0
 11
-1862.572781731832
 21
1884.321815105528
 31
0.0
  0
LINE
  5
12A26
330
12A21
100
AcDbEntity
  8
ZISSEN1
 62
     1
100
AcDbLine
 10
-1862.572781731832
 20
1894.321795105528
 30
0.0
 11
-1862.572781731832
 21
1890.321815105528
 31
0.0
  0
SOLID
  5
12A27
330
12A21
100
AcDbEntity
  8
ZISSEN1
 62
     1
100
AcDbTrace
 10
-1863.072781731831
 20
1897.321795105528
 30
0.0
 11
-1862.072781731832
 21
1897.321795105528
 31
0.0
 12
-1862.572781731832
 22
1894.321795105528
 32
0.0
 13
-1862.572781731832
 23
1894.321795105528
 33
0.0
  0
SOLID
  5
12A28
330
12A21
100
AcDbEntity
  8
ZISSEN1
 62
     1
100
AcDbTrace
 10
-1863.072781731831
 20
1887.321815105529
 30
0.0
 11
-1862.072781731832
 21
1887.321815105529
 31
0.0
 12
-1862.572781731832
 22
1890.321815105528
 32
0.0
 13
-1862.572781731832
 23
1890.321815105528
 33
0.0
  0
MTEXT
  5
12A29
330
12A21
100
AcDbEntity
  8
ZISSEN1
 62
     1
100
AcDbMText
 10
-1865.322781731832
 20
1892.321805105529
 30
0.0
 40
3.5
 41
0.0
 71
     5
 72
     1
  1
\A1;4
  7
ゴシック体
 11
0.0000000000000001
 21
1.0
 31
0.0
1001
ACAD
1000
MTEXTBEGIN
1070
    73
1070
     1
1070
    44
1040
1.0
1070
    74
1070
     0
1000
MTEXTEND
  0
POINT
  5
12A2A
330
12A21
100
AcDbEntity
  8
DEFPOINTS
 62
     0
100
AcDbPoint
 10
-1847.573835578143
 20
1894.321795105528
 30
0.0
  0
POINT
  5
12A2B
330
12A21
100
AcDbEntity
  8
DEFPOINTS
 62
     0
100
AcDbPoint
 10
-1837.073850578144
 20
1890.321815105528
 30
0.0
  0
POINT
  5
12A2C
330
12A21
100
AcDbEntity
  8
DEFPOINTS
 62
     0
100
AcDbPoint
 10
-1862.572781731832
 20
1890.321815105528
 30
0.0
  0
ENDBLK
  5
12A2E
330
12A21
100
AcDbEntity
  8
0
100
AcDbBlockEnd
  0
BLOCK
  5
12A39
330
12A30
100
AcDbEntity
  8
0
100
AcDbBlockBegin
  2
*D25
 70
     1
 10
0.0
 20
0.0
 30
0.0
  3
*D25
  1

  0
LINE
  5
12A31
330
12A30
100
AcDbEntity
  8
ZISSEN1
 62
     1
100
AcDbLine
 10
-1837.573850578143
 20
1810.321795105529
 30
0.0
 11
-1863.072781731831
 21
1810.321795105529
 31
0.0
  0
LINE
  5
12A32
330
12A30
100
AcDbEntity
  8
ZISSEN1
 62
     1
100
AcDbLine
 10
-1862.572781731832
 20
1887.321815105529
 30
0.0
 11
-1862.572781731832
 21
1813.321795105529
 31
0.0
  0
SOLID
  5
12A33
330
12A30
100
AcDbEntity
  8
ZISSEN1
 62
     1
100
AcDbTrace
 10
-1863.072781731831
 20
1887.321815105529
 30
0.0
 11
-1862.072781731832
 21
1887.321815105529
 31
0.0
 12
-1862.572781731832
 22
1890.321815105528
 32
0.0
 13
-1862.572781731832
 23
1890.321815105528
 33
0.0
  0
SOLID
  5
12A34
330
12A30
100
AcDbEntity
  8
ZISSEN1
 62
     1
100
AcDbTrace
 10
-1863.072781731831
 20
1813.321795105529
 30
0.0
 11
-1862.072781731832
 21
1813.321795105529
 31
0.0
 12
-1862.572781731832
 22
1810.321795105529
 32
0.0
 13
-1862.572781731832
 23
1810.321795105529
 33
0.0
  0
MTEXT
  5
12A35
330
12A30
100
AcDbEntity
  8
ZISSEN1
 62
     1
100
AcDbMText
 10
-1865.322781731832
 20
1850.321805105529
 30
0.0
 40
3.5
 41
0.0
 71
     5
 72
     1
  1
\A1;80
  7
ゴシック体
 11
0.0000000000000001
 21
1.0
 31
0.0
1001
ACAD
1000
MTEXTBEGIN
1070
    73
1070
     1
1070
    44
1040
1.0
1070
    74
1070
     0
1000
MTEXTEND
  0
POINT
  5
12A36
330
12A30
100
AcDbEntity
  8
DEFPOINTS
 62
     0
100
AcDbPoint
 10
-1862.572781731832
 20
1890.321815105528
 30
0.0
  0
POINT
  5
12A37
330
12A30
100
AcDbEntity
  8
DEFPOINTS
 62
     0
100
AcDbPoint
 10
-1837.073850578144
 20
1810.321795105529
 30
0.0
  0
POINT
  5
12A38
330
12A30
100
AcDbEntity
  8
DEFPOINTS
 62
     0
100
AcDbPoint
 10
-1862.572781731832
 20
1810.321795105529
 30
0.0
  0
ENDBLK
  5
12A3A
330
12A30
100
AcDbEntity
  8
0
100
AcDbBlockEnd
  0
BLOCK
  5
12A48
330
12A3C
100
AcDbEntity
  8
0
100
AcDbBlockBegin
  2
*D26
 70
     1
 10
0.0
 20
0.0
 30
0.0
  3
*D26
  1

  0
LINE
  5
12A3D
330
12A3C
100
AcDbEntity
  8
ZISSEN1
 62
     1
100
AcDbLine
 10
-1837.573850578143
 20
1810.321795105529
 30
0.0
 11
-1863.072781731831
 21
1810.321795105529
 31
0.0
  0
LINE
  5
12A3E
330
12A3C
100
AcDbEntity
  8
ZISSEN1
 62
     1
100
AcDbLine
 10
-1848.073835578144
 20
1806.321805105529
 30
0.0
 11
-1863.072781731831
 21
1806.321805105529
 31
0.0
  0
LINE
  5
12A3F
330
12A3C
100
AcDbEntity
  8
ZISSEN1
 62
     1
100
AcDbLine
 10
-1862.572781731832
 20
1813.321795105529
 30
0.0
 11
-1862.572781731832
 21
1816.321795105529
 31
0.0
  0
LINE
  5
12A40
330
12A3C
100
AcDbEntity
  8
ZISSEN1
 62
     1
100
AcDbLine
 10
-1862.572781731832
 20
1803.321805105529
 30
0.0
 11
-1862.572781731832
 21
1800.321805105529
 31
0.0
  0
LINE
  5
12A41
330
12A3C
100
AcDbEntity
  8
ZISSEN1
 62
     1
100
AcDbLine
 10
-1862.572781731832
 20
1810.321795105529
 30
0.0
 11
-1862.572781731832
 21
1806.321805105529
 31
0.0
  0
SOLID
  5
12A42
330
12A3C
100
AcDbEntity
  8
ZISSEN1
 62
     1
100
AcDbTrace
 10
-1863.072781731831
 20
1813.321795105529
 30
0.0
 11
-1862.072781731832
 21
1813.321795105529
 31
0.0
 12
-1862.572781731832
 22
1810.321795105529
 32
0.0
 13
-1862.572781731832
 23
1810.321795105529
 33
0.0
  0
SOLID
  5
12A43
330
12A3C
100
AcDbEntity
  8
ZISSEN1
 62
     1
100
AcDbTrace
 10
-1863.072781731831
 20
1803.321805105529
 30
0.0
 11
-1862.072781731832
 21
1803.321805105529
 31
0.0
 12
-1862.572781731832
 22
1806.321805105529
 32
0.0
 13
-1862.572781731832
 23
1806.321805105529
 33
0.0
  0
MTEXT
  5
12A44
330
12A3C
100
AcDbEntity
  8
ZISSEN1
 62
     1
100
AcDbMText
 10
-1865.322781731832
 20
1808.321800105527
 30
0.0
 40
3.5
 41
0.0
 71
     5
 72
     1
  1
\A1;4
  7
ゴシック体
 11
0.0000000000000001
 21
1.0
 31
0.0
1001
ACAD
1000
MTEXTBEGIN
1070
    73
1070
     1
1070
    44
1040
1.0
1070
    74
1070
     0
1000
MTEXTEND
  0
POINT
  5
12A45
330
12A3C
100
AcDbEntity
  8
DEFPOINTS
 62
     0
100
AcDbPoint
 10
-1837.073850578144
 20
1810.321795105529
 30
0.0
  0
POINT
  5
12A46
330
12A3C
100
AcDbEntity
  8
DEFPOINTS
 62
     0
100
AcDbPoint
 10
-1847.573835578143
 20
1806.321805105529
 30
0.0
  0
POINT
  5
12A47
330
12A3C
100
AcDbEntity
  8
DEFPOINTS
 62
     0
100
AcDbPoint
 10
-1862.572781731832
 20
1806.321805105529
 30
0.0
  0
ENDBLK
  5
12A49
330
12A3C
100
AcDbEntity
  8
0
100
AcDbBlockEnd
  0
BLOCK
  5
12A55
330
12A4B
100
AcDbEntity
  8
0
100
AcDbBlockBegin
  2
*D27
 70
     1
 10
0.0
 20
0.0
 30
0.0
  3
*D27
  1

  0
LINE
  5
12A4C
330
12A4B
100
AcDbEntity
  8
ZISSEN1
 62
     1
100
AcDbLine
 10
-1863.072781731831
 20
1894.321795105528
 30
0.0
 11
-1878.312213225671
 21
1894.321795105528
 31
0.0
  0
LINE
  5
12A4D
330
12A4B
100
AcDbEntity
  8
ZISSEN1
 62
     1
100
AcDbLine
 10
-1863.072781731831
 20
1806.321805105529
 30
0.0
 11
-1878.312213225671
 21
1806.321805105529
 31
0.0
  0
LINE
  5
12A4E
330
12A4B
100
AcDbEntity
  8
ZISSEN1
 62
     1
100
AcDbLine
 10
-1877.812213225671
 20
1891.321795105529
 30
0.0
 11
-1877.812213225671
 21
1809.321805105528
 31
0.0
  0
SOLID
  5
12A4F
330
12A4B
100
AcDbEntity
  8
ZISSEN1
 62
     1
100
AcDbTrace
 10
-1878.312213225671
 20
1891.321795105529
 30
0.0
 11
-1877.31221322567
 21
1891.321795105529
 31
0.0
 12
-1877.812213225671
 22
1894.321795105528
 32
0.0
 13
-1877.812213225671
 23
1894.321795105528
 33
0.0
  0
SOLID
  5
12A50
330
12A4B
100
AcDbEntity
  8
ZISSEN1
 62
     1
100
AcDbTrace
 10
-1878.312213225671
 20
1809.321805105528
 30
0.0
 11
-1877.31221322567
 21
1809.321805105528
 31
0.0
 12
-1877.812213225671
 22
1806.321805105529
 32
0.0
 13
-1877.812213225671
 23
1806.321805105529
 33
0.0
  0
MTEXT
  5
12A51
330
12A4B
100
AcDbEntity
  8
ZISSEN1
 62
     1
100
AcDbMText
 10
-1880.562213225672
 20
1850.321800105528
 30
0.0
 40
3.5
 41
0.0
 71
     5
 72
     1
  1
\A1;88
  7
ゴシック体
 11
0.0000000000000001
 21
1.0
 31
0.0
1001
ACAD
1000
MTEXTBEGIN
1070
    73
1070
     1
1070
    44
1040
1.0
1070
    74
1070
     0
1000
MTEXTEND
  0
POINT
  5
12A52
330
12A4B
100
AcDbEntity
  8
DEFPOINTS
 62
     0
100
AcDbPoint
 10
-1862.572781731832
 20
1894.321795105528
 30
0.0
  0
POINT
  5
12A53
330
12A4B
100
AcDbEntity
  8
DEFPOINTS
 62
     0
100
AcDbPoint
 10
-1862.572781731832
 20
1806.321805105529
 30
0.0
  0
POINT
  5
12A54
330
12A4B
100
AcDbEntity
  8
DEFPOINTS
 62
     0
100
AcDbPoint
 10
-1877.812213225671
 20
1806.321805105529
 30
0.0
  0
ENDBLK
  5
12A56
330
12A4B
100
AcDbEntity
  8
0
100
AcDbBlockEnd
  0
BLOCK
  5
12A63
330
12A59
100
AcDbEntity
  8
0
100
AcDbBlockBegin
  2
*D28
 70
     1
 10
0.0
 20
0.0
 30
0.0
  3
*D28
  1

  0
LINE
  5
12DD3
330
12A59
100
AcDbEntity
  8
ZISSEN1
 62
     1
100
AcDbLine
 10
-1848.073835578144
 20
1742.592075105529
 30
0.0
 11
-1878.312213225671
 21
1742.592075105529
 31
0.0
  0
LINE
  5
12DD4
330
12A59
100
AcDbEntity
  8
ZISSEN1
 62
     1
100
AcDbLine
 10
-1848.073835578144
 20
1704.592075105528
 30
0.0
 11
-1878.312213225671
 21
1704.592075105528
 31
0.0
  0
LINE
  5
12DD5
330
12A59
100
AcDbEntity
  8
ZISSEN1
 62
     1
100
AcDbLine
 10
-1877.812213225671
 20
1739.592075105528
 30
0.0
 11
-1877.812213225671
 21
1707.592075105528
 31
0.0
  0
SOLID
  5
12DD6
330
12A59
100
AcDbEntity
  8
ZISSEN1
 62
     1
100
AcDbTrace
 10
-1878.312213225671
 20
1739.592075105528
 30
0.0
 11
-1877.31221322567
 21
1739.592075105528
 31
0.0
 12
-1877.812213225671
 22
1742.592075105529
 32
0.0
 13
-1877.812213225671
 23
1742.592075105529
 33
0.0
  0
SOLID
  5
12DD7
330
12A59
100
AcDbEntity
  8
ZISSEN1
 62
     1
100
AcDbTrace
 10
-1878.312213225671
 20
1707.592075105528
 30
0.0
 11
-1877.31221322567
 21
1707.592075105528
 31
0.0
 12
-1877.812213225671
 22
1704.592075105528
 32
0.0
 13
-1877.812213225671
 23
1704.592075105528
 33
0.0
  0
MTEXT
  5
12DD8
330
12A59
100
AcDbEntity
  8
ZISSEN1
 62
     1
100
AcDbMText
 10
-1880.562213225672
 20
1723.592075105528
 30
0.0
 40
3.5
 41
0.0
 71
     5
 72
     1
  1
\A1;38
  7
ゴシック体
 11
0.0000000000000001
 21
1.0
 31
0.0
1001
ACAD
1000
MTEXTBEGIN
1070
    73
1070
     1
1070
    44
1040
1.0
1070
    74
1070
     0
1000
MTEXTEND
  0
POINT
  5
12DD9
330
12A59
100
AcDbEntity
  8
DEFPOINTS
 62
     0
100
AcDbPoint
 10
-1847.573835578143
 20
1742.592075105529
 30
0.0
  0
POINT
  5
12DDA
330
12A59
100
AcDbEntity
  8
DEFPOINTS
 62
     0
100
AcDbPoint
 10
-1847.573835578143
 20
1704.592075105528
 30
0.0
  0
POINT
  5
12DDB
330
12A59
100
AcDbEntity
  8
DEFPOINTS
 62
     0
100
AcDbPoint
 10
-1877.812213225671
 20
1704.592075105528
 30
0.0
  0
ENDBLK
  5
12A64
330
12A59
100
AcDbEntity
  8
0
100
AcDbBlockEnd
  0
BLOCK
  5
12A72
330
12A66
100
AcDbEntity
  8
0
100
AcDbBlockBegin
  2
*D29
 70
     1
 10
0.0
 20
0.0
 30
0.0
  3
*D29
  1

  0
LINE
  5
12DB6
330
12A66
100
AcDbEntity
  8
ZISSEN1
 62
     1
100
AcDbLine
 10
-1847.573835578143
 20
1742.384965105529
 30
0.0
 11
-1847.573835578143
 21
1755.567967382886
 31
0.0
  0
LINE
  5
12DB7
330
12A66
100
AcDbEntity
  8
ZISSEN1
 62
     1
100
AcDbLine
 10
-1844.573850578143
 20
1743.092075105528
 30
0.0
 11
-1844.573850578143
 21
1755.567967382886
 31
0.0
  0
LINE
  5
12DB8
330
12A66
100
AcDbEntity
  8
ZISSEN1
 62
     1
100
AcDbLine
 10
-1850.573835578144
 20
1755.067967382886
 30
0.0
 11
-1853.573835578144
 21
1755.067967382886
 31
0.0
  0
LINE
  5
12DB9
330
12A66
100
AcDbEntity
  8
ZISSEN1
 62
     1
100
AcDbLine
 10
-1841.573850578144
 20
1755.067967382886
 30
0.0
 11
-1834.761667837027
 21
1755.067967382886
 31
0.0
  0
LINE
  5
12DBA
330
12A66
100
AcDbEntity
  8
ZISSEN1
 62
     1
100
AcDbLine
 10
-1847.573835578143
 20
1755.067967382886
 30
0.0
 11
-1844.573850578143
 21
1755.067967382886
 31
0.0
  0
SOLID
  5
12DBB
330
12A66
100
AcDbEntity
  8
ZISSEN1
 62
     1
100
AcDbTrace
 10
-1850.573835578144
 20
1755.567967382886
 30
0.0
 11
-1850.573835578144
 21
1754.567967382886
 31
0.0
 12
-1847.573835578143
 22
1755.067967382886
 32
0.0
 13
-1847.573835578143
 23
1755.067967382886
 33
0.0
  0
SOLID
  5
12DBC
330
12A66
100
AcDbEntity
  8
ZISSEN1
 62
     1
100
AcDbTrace
 10
-1841.573850578144
 20
1755.567967382886
 30
0.0
 11
-1841.573850578144
 21
1754.567967382886
 31
0.0
 12
-1844.573850578143
 22
1755.067967382886
 32
0.0
 13
-1844.573850578143
 23
1755.067967382886
 33
0.0
  0
MTEXT
  5
12DBD
330
12A66
100
AcDbEntity
  8
ZISSEN1
 62
     1
100
AcDbMText
 10
-1836.667759207585
 20
1757.817967382885
 30
0.0
 40
3.5
 41
0.0
 71
     5
 72
     1
  1
\A1;3
  7
ゴシック体
1001
ACAD
1000
MTEXTBEGIN
1070
    73
1070
     1
1070
    44
1040
1.0
1070
    74
1070
     0
1000
MTEXTEND
  0
POINT
  5
12DBE
330
12A66
100
AcDbEntity
  8
DEFPOINTS
 62
     0
100
AcDbPoint
 10
-1847.573835578143
 20
1741.884965105529
 30
0.0
  0
POINT
  5
12DBF
330
12A66
100
AcDbEntity
  8
DEFPOINTS
 62
     0
100
AcDbPoint
 10
-1844.573850578143
 20
1742.592075105529
 30
0.0
  0
POINT
  5
12DC0
330
12A66
100
AcDbEntity
  8
DEFPOINTS
 62
     0
100
AcDbPoint
 10
-1844.573850578143
 20
1755.067967382886
 30
0.0
  0
ENDBLK
  5
12A73
330
12A66
100
AcDbEntity
  8
0
100
AcDbBlockEnd
  0
BLOCK
  5
12A81
330
12A75
100
AcDbEntity
  8
0
100
AcDbBlockBegin
  2
*D30
 70
     1
 10
0.0
 20
0.0
 30
0.0
  3
*D30
  1

  0
LINE
  5
12A76
330
12A75
100
AcDbEntity
  8
ZISSEN1
 62
     1
100
AcDbLine
 10
-1770.073835578144
 20
1707.592073105529
 30
0.0
 11
-1753.274331979055
 21
1707.592073105529
 31
0.0
  0
LINE
  5
12A77
330
12A75
100
AcDbEntity
  8
ZISSEN1
 62
     1
100
AcDbLine
 10
-1770.073835578144
 20
1704.592075105528
 30
0.0
 11
-1753.274331979055
 21
1704.592075105528
 31
0.0
  0
LINE
  5
12A78
330
12A75
100
AcDbEntity
  8
ZISSEN1
 62
     1
100
AcDbLine
 10
-1753.774331979055
 20
1710.592073105528
 30
0.0
 11
-1753.774331979055
 21
1713.592073105528
 31
0.0
  0
LINE
  5
12A79
330
12A75
100
AcDbEntity
  8
ZISSEN1
 62
     1
100
AcDbLine
 10
-1753.774331979055
 20
1701.592075105529
 30
0.0
 11
-1753.774331979055
 21
1694.779892364413
 31
0.0
  0
LINE
  5
12A7A
330
12A75
100
AcDbEntity
  8
ZISSEN1
 62
     1
100
AcDbLine
 10
-1753.774331979055
 20
1707.592073105529
 30
0.0
 11
-1753.774331979055
 21
1704.592075105528
 31
0.0
  0
SOLID
  5
12A7B
330
12A75
100
AcDbEntity
  8
ZISSEN1
 62
     1
100
AcDbTrace
 10
-1754.274331979055
 20
1710.592073105528
 30
0.0
 11
-1753.274331979055
 21
1710.592073105528
 31
0.0
 12
-1753.774331979055
 22
1707.592073105529
 32
0.0
 13
-1753.774331979055
 23
1707.592073105529
 33
0.0
  0
SOLID
  5
12A7C
330
12A75
100
AcDbEntity
  8
ZISSEN1
 62
     1
100
AcDbTrace
 10
-1754.274331979055
 20
1701.592075105529
 30
0.0
 11
-1753.274331979055
 21
1701.592075105529
 31
0.0
 12
-1753.774331979055
 22
1704.592075105528
 32
0.0
 13
-1753.774331979055
 23
1704.592075105528
 33
0.0
  0
MTEXT
  5
12A7D
330
12A75
100
AcDbEntity
  8
ZISSEN1
 62
     1
100
AcDbMText
 10
-1756.524331979056
 20
1696.685983734969
 30
0.0
 40
3.5
 41
0.0
 71
     5
 72
     1
  1
\A1;3
  7
ゴシック体
 11
0.0000000000000001
 21
1.0
 31
0.0
1001
ACAD
1000
MTEXTBEGIN
1070
    73
1070
     1
1070
    44
1040
1.0
1070
    74
1070
     0
1000
MTEXTEND
  0
POINT
  5
12A7E
330
12A75
100
AcDbEntity
  8
DEFPOINTS
 62
     0
100
AcDbPoint
 10
-1770.573835578144
 20
1707.592073105529
 30
0.0
  0
POINT
  5
12A7F
330
12A75
100
AcDbEntity
  8
DEFPOINTS
 62
     0
100
AcDbPoint
 10
-1770.573835578144
 20
1704.592075105528
 30
0.0
  0
POINT
  5
12A80
330
12A75
100
AcDbEntity
  8
DEFPOINTS
 62
     0
100
AcDbPoint
 10
-1753.774331979055
 20
1704.592075105528
 30
0.0
  0
ENDBLK
  5
12A82
330
12A75
100
AcDbEntity
  8
0
100
AcDbBlockEnd
  0
BLOCK
  5
12A8E
330
12A84
100
AcDbEntity
  8
0
100
AcDbBlockBegin
  2
*D31
 70
     1
 10
0.0
 20
0.0
 30
0.0
  3
*D31
  1

  0
LINE
  5
12A85
330
12A84
100
AcDbEntity
  8
ZISSEN1
 62
     1
100
AcDbLine
 10
-1770.073835578144
 20
1734.592075105529
 30
0.0
 11
-1743.053983066558
 21
1734.592075105529
 31
0.0
  0
LINE
  5
12A86
330
12A84
100
AcDbEntity
  8
ZISSEN1
 62
     1
100
AcDbLine
 10
-1769.573835578144
 20
1704.592075105528
 30
0.0
 11
-1743.053983066558
 21
1704.592075105528
 31
0.0
  0
LINE
  5
12A87
330
12A84
100
AcDbEntity
  8
ZISSEN1
 62
     1
100
AcDbLine
 10
-1743.553983066558
 20
1731.592075105529
 30
0.0
 11
-1743.553983066558
 21
1707.592075105528
 31
0.0
  0
SOLID
  5
12A88
330
12A84
100
AcDbEntity
  8
ZISSEN1
 62
     1
100
AcDbTrace
 10
-1744.053983066558
 20
1731.592075105529
 30
0.0
 11
-1743.053983066558
 21
1731.592075105529
 31
0.0
 12
-1743.553983066558
 22
1734.592075105529
 32
0.0
 13
-1743.553983066558
 23
1734.592075105529
 33
0.0
  0
SOLID
  5
12A89
330
12A84
100
AcDbEntity
  8
ZISSEN1
 62
     1
100
AcDbTrace
 10
-1744.053983066558
 20
1707.592075105528
 30
0.0
 11
-1743.053983066558
 21
1707.592075105528
 31
0.0
 12
-1743.553983066558
 22
1704.592075105528
 32
0.0
 13
-1743.553983066558
 23
1704.592075105528
 33
0.0
  0
MTEXT
  5
12A8A
330
12A84
100
AcDbEntity
  8
ZISSEN1
 62
     1
100
AcDbMText
 10
-1746.303983066558
 20
1719.592075105529
 30
0.0
 40
3.5
 41
0.0
 71
     5
 72
     1
  1
\A1;30
  7
ゴシック体
 11
0.0000000000000001
 21
1.0
 31
0.0
1001
ACAD
1000
MTEXTBEGIN
1070
    73
1070
     1
1070
    44
1040
1.0
1070
    74
1070
     0
1000
MTEXTEND
  0
POINT
  5
12A8B
330
12A84
100
AcDbEntity
  8
DEFPOINTS
 62
     0
100
AcDbPoint
 10
-1770.573835578144
 20
1734.592075105529
 30
0.0
  0
POINT
  5
12A8C
330
12A84
100
AcDbEntity
  8
DEFPOINTS
 62
     0
100
AcDbPoint
 10
-1770.073835578144
 20
1704.592075105528
 30
0.0
  0
POINT
  5
12A8D
330
12A84
100
AcDbEntity
  8
DEFPOINTS
 62
     0
100
AcDbPoint
 10
-1743.553983066558
 20
1704.592075105528
 30
0.0
  0
ENDBLK
  5
12A8F
330
12A84
100
AcDbEntity
  8
0
100
AcDbBlockEnd
  0
BLOCK
  5
12A9D
330
12A91
100
AcDbEntity
  8
0
100
AcDbBlockBegin
  2
*D32
 70
     1
 10
0.0
 20
0.0
 30
0.0
  3
*D32
  1

  0
LINE
  5
12A92
330
12A91
100
AcDbEntity
  8
ZISSEN1
 62
     1
100
AcDbLine
 10
-1683.161655578143
 20
1894.821795105529
 30
0.0
 11
-1683.161655578143
 21
1905.358066070288
 31
0.0
  0
LINE
  5
12A93
330
12A91
100
AcDbEntity
  8
ZISSEN1
 62
     1
100
AcDbLine
 10
-1679.661675578143
 20
1894.821795105529
 30
0.0
 11
-1679.661675578143
 21
1905.358066070288
 31
0.0
  0
LINE
  5
12A94
330
12A91
100
AcDbEntity
  8
ZISSEN1
 62
     1
100
AcDbLine
 10
-1686.161655578144
 20
1904.858066070288
 30
0.0
 11
-1689.161655578144
 21
1904.858066070288
 31
0.0
  0
LINE
  5
12A95
330
12A91
100
AcDbEntity
  8
ZISSEN1
 62
     1
100
AcDbLine
 10
-1676.661675578144
 20
1904.858066070288
 30
0.0
 11
-1665.301269486772
 21
1904.858066070288
 31
0.0
  0
LINE
  5
12A96
330
12A91
100
AcDbEntity
  8
ZISSEN1
 62
     1
100
AcDbLine
 10
-1683.161655578143
 20
1904.858066070288
 30
0.0
 11
-1679.661675578143
 21
1904.858066070288
 31
0.0
  0
SOLID
  5
12A97
330
12A91
100
AcDbEntity
  8
ZISSEN1
 62
     1
100
AcDbTrace
 10
-1686.161655578144
 20
1905.358066070288
 30
0.0
 11
-1686.161655578144
 21
1904.358066070289
 31
0.0
 12
-1683.161655578143
 22
1904.858066070288
 32
0.0
 13
-1683.161655578143
 23
1904.858066070288
 33
0.0
  0
SOLID
  5
12A98
330
12A91
100
AcDbEntity
  8
ZISSEN1
 62
     1
100
AcDbTrace
 10
-1676.661675578144
 20
1905.358066070288
 30
0.0
 11
-1676.661675578144
 21
1904.358066070289
 31
0.0
 12
-1679.661675578143
 22
1904.858066070288
 32
0.0
 13
-1679.661675578143
 23
1904.858066070288
 33
0.0
  0
MTEXT
  5
12A99
330
12A91
100
AcDbEntity
  8
ZISSEN1
 62
     1
100
AcDbMText
 10
-1669.481472532459
 20
1907.608066070288
 30
0.0
 40
3.5
 41
0.0
 71
     5
 72
     1
  1
\A1;3.5
  7
ゴシック体
1001
ACAD
1000
MTEXTBEGIN
1070
    73
1070
     1
1070
    44
1040
1.0
1070
    74
1070
     0
1000
MTEXTEND
  0
POINT
  5
12A9A
330
12A91
100
AcDbEntity
  8
DEFPOINTS
 62
     0
100
AcDbPoint
 10
-1683.161655578143
 20
1894.321795105528
 30
0.0
  0
POINT
  5
12A9B
330
12A91
100
AcDbEntity
  8
DEFPOINTS
 62
     0
100
AcDbPoint
 10
-1679.661675578143
 20
1894.321795105528
 30
0.0
  0
POINT
  5
12A9C
330
12A91
100
AcDbEntity
  8
DEFPOINTS
 62
     0
100
AcDbPoint
 10
-1679.661675578143
 20
1904.858066070288
 30
0.0
  0
ENDBLK
  5
12A9E
330
12A91
100
AcDbEntity
  8
0
100
AcDbBlockEnd
  0
BLOCK
  5
12AAC
330
12AA0
100
AcDbEntity
  8
0
100
AcDbBlockBegin
  2
*D33
 70
     1
 10
0.0
 20
0.0
 30
0.0
  3
*D33
  1

  0
LINE
  5
12DA8
330
12AA0
100
AcDbEntity
  8
ZISSEN1
 62
     1
100
AcDbLine
 10
-1693.911675578144
 20
1894.321795105528
 30
0.0
 11
-1711.179187793529
 21
1894.321795105528
 31
0.0
  0
LINE
  5
12DA9
330
12AA0
100
AcDbEntity
  8
ZISSEN1
 62
     1
100
AcDbLine
 10
-1684.911665578143
 20
1890.321815105528
 30
0.0
 11
-1711.179187793529
 21
1890.321815105528
 31
0.0
  0
LINE
  5
12DAA
330
12AA0
100
AcDbEntity
  8
ZISSEN1
 62
     1
100
AcDbLine
 10
-1710.679187793529
 20
1897.321795105528
 30
0.0
 11
-1710.679187793529
 21
1900.321795105529
 31
0.0
  0
LINE
  5
12DAB
330
12AA0
100
AcDbEntity
  8
ZISSEN1
 62
     1
100
AcDbLine
 10
-1710.679187793529
 20
1887.321815105529
 30
0.0
 11
-1710.679187793529
 21
1884.321815105528
 31
0.0
  0
LINE
  5
12DAC
330
12AA0
100
AcDbEntity
  8
ZISSEN1
 62
     1
100
AcDbLine
 10
-1710.679187793529
 20
1894.321795105528
 30
0.0
 11
-1710.679187793529
 21
1890.321815105528
 31
0.0
  0
SOLID
  5
12DAD
330
12AA0
100
AcDbEntity
  8
ZISSEN1
 62
     1
100
AcDbTrace
 10
-1711.179187793529
 20
1897.321795105528
 30
0.0
 11
-1710.179187793529
 21
1897.321795105528
 31
0.0
 12
-1710.679187793529
 22
1894.321795105528
 32
0.0
 13
-1710.679187793529
 23
1894.321795105528
 33
0.0
  0
SOLID
  5
12DAE
330
12AA0
100
AcDbEntity
  8
ZISSEN1
 62
     1
100
AcDbTrace
 10
-1711.179187793529
 20
1887.321815105529
 30
0.0
 11
-1710.179187793529
 21
1887.321815105529
 31
0.0
 12
-1710.679187793529
 22
1890.321815105528
 32
0.0
 13
-1710.679187793529
 23
1890.321815105528
 33
0.0
  0
MTEXT
  5
12DAF
330
12AA0
100
AcDbEntity
  8
ZISSEN1
 62
     1
100
AcDbMText
 10
-1713.429187793528
 20
1892.321805105529
 30
0.0
 40
3.5
 41
0.0
 71
     5
 72
     1
  1
\A1;4
  7
ゴシック体
 11
0.0000000000000001
 21
1.0
 31
0.0
1001
ACAD
1000
MTEXTBEGIN
1070
    73
1070
     1
1070
    44
1040
1.0
1070
    74
1070
     0
1000
MTEXTEND
  0
POINT
  5
12DB0
330
12AA0
100
AcDbEntity
  8
DEFPOINTS
 62
     0
100
AcDbPoint
 10
-1693.411675578143
 20
1894.321795105528
 30
0.0
  0
POINT
  5
12DB1
330
12AA0
100
AcDbEntity
  8
DEFPOINTS
 62
     0
100
AcDbPoint
 10
-1684.411665578143
 20
1890.321815105528
 30
0.0
  0
POINT
  5
12DB2
330
12AA0
100
AcDbEntity
  8
DEFPOINTS
 62
     0
100
AcDbPoint
 10
-1710.679187793529
 20
1890.321815105528
 30
0.0
  0
ENDBLK
  5
12AAD
330
12AA0
100
AcDbEntity
  8
0
100
AcDbBlockEnd
  0
BLOCK
  5
12AC4
330
12ABB
100
AcDbEntity
  8
0
100
AcDbBlockBegin
  2
*D34
 70
     1
 10
0.0
 20
0.0
 30
0.0
  3
*D34
  1

  0
LINE
  5
12D78
330
12ABB
100
AcDbEntity
  8
ZISSEN1
 62
     1
100
AcDbLine
 10
-1684.911665578143
 20
1810.321805105528
 30
0.0
 11
-1711.179187793529
 21
1810.321805105528
 31
0.0
  0
LINE
  5
12D79
330
12ABB
100
AcDbEntity
  8
ZISSEN1
 62
     1
100
AcDbLine
 10
-1710.679187793529
 20
1887.321815105529
 30
0.0
 11
-1710.679187793529
 21
1813.321805105529
 31
0.0
  0
SOLID
  5
12D7A
330
12ABB
100
AcDbEntity
  8
ZISSEN1
 62
     1
100
AcDbTrace
 10
-1711.179187793529
 20
1887.321815105529
 30
0.0
 11
-1710.179187793529
 21
1887.321815105529
 31
0.0
 12
-1710.679187793529
 22
1890.321815105528
 32
0.0
 13
-1710.679187793529
 23
1890.321815105528
 33
0.0
  0
SOLID
  5
12D7B
330
12ABB
100
AcDbEntity
  8
ZISSEN1
 62
     1
100
AcDbTrace
 10
-1711.179187793529
 20
1813.321805105529
 30
0.0
 11
-1710.179187793529
 21
1813.321805105529
 31
0.0
 12
-1710.679187793529
 22
1810.321805105528
 32
0.0
 13
-1710.679187793529
 23
1810.321805105528
 33
0.0
  0
MTEXT
  5
12D7C
330
12ABB
100
AcDbEntity
  8
ZISSEN1
 62
     1
100
AcDbMText
 10
-1713.429187793528
 20
1850.321810105528
 30
0.0
 40
3.5
 41
0.0
 71
     5
 72
     1
  1
\A1;80
  7
ゴシック体
 11
0.0000000000000001
 21
1.0
 31
0.0
1001
ACAD
1000
MTEXTBEGIN
1070
    73
1070
     1
1070
    44
1040
1.0
1070
    74
1070
     0
1000
MTEXTEND
  0
POINT
  5
12D7D
330
12ABB
100
AcDbEntity
  8
DEFPOINTS
 62
     0
100
AcDbPoint
 10
-1710.679187793529
 20
1890.321815105528
 30
0.0
  0
POINT
  5
12D7E
330
12ABB
100
AcDbEntity
  8
DEFPOINTS
 62
     0
100
AcDbPoint
 10
-1684.411665578143
 20
1810.321805105528
 30
0.0
  0
POINT
  5
12D7F
330
12ABB
100
AcDbEntity
  8
DEFPOINTS
 62
     0
100
AcDbPoint
 10
-1710.679187793529
 20
1810.321805105528
 30
0.0
  0
ENDBLK
  5
12AC5
330
12ABB
100
AcDbEntity
  8
0
100
AcDbBlockEnd
  0
BLOCK
  5
12AD2
330
12AC7
100
AcDbEntity
  8
0
100
AcDbBlockBegin
  2
*D35
 70
     1
 10
0.0
 20
0.0
 30
0.0
  3
*D35
  1

  0
LINE
  5
12D9E
330
12AC7
100
AcDbEntity
  8
ZISSEN1
 62
     1
100
AcDbLine
 10
-1693.911675578144
 20
1806.321805105529
 30
0.0
 11
-1711.179187793529
 21
1806.321805105529
 31
0.0
  0
LINE
  5
12D9F
330
12AC7
100
AcDbEntity
  8
ZISSEN1
 62
     1
100
AcDbLine
 10
-1710.679187793529
 20
1813.321805105529
 30
0.0
 11
-1710.679187793529
 21
1816.321805105529
 31
0.0
  0
LINE
  5
12DA0
330
12AC7
100
AcDbEntity
  8
ZISSEN1
 62
     1
100
AcDbLine
 10
-1710.679187793529
 20
1803.321805105529
 30
0.0
 11
-1710.679187793529
 21
1800.321805105529
 31
0.0
  0
LINE
  5
12DA1
330
12AC7
100
AcDbEntity
  8
ZISSEN1
 62
     1
100
AcDbLine
 10
-1710.679187793529
 20
1810.321805105528
 30
0.0
 11
-1710.679187793529
 21
1806.321805105529
 31
0.0
  0
SOLID
  5
12DA2
330
12AC7
100
AcDbEntity
  8
ZISSEN1
 62
     1
100
AcDbTrace
 10
-1711.179187793529
 20
1813.321805105529
 30
0.0
 11
-1710.179187793529
 21
1813.321805105529
 31
0.0
 12
-1710.679187793529
 22
1810.321805105528
 32
0.0
 13
-1710.679187793529
 23
1810.321805105528
 33
0.0
  0
SOLID
  5
12DA3
330
12AC7
100
AcDbEntity
  8
ZISSEN1
 62
     1
100
AcDbTrace
 10
-1711.179187793529
 20
1803.321805105529
 30
0.0
 11
-1710.179187793529
 21
1803.321805105529
 31
0.0
 12
-1710.679187793529
 22
1806.321805105529
 32
0.0
 13
-1710.679187793529
 23
1806.321805105529
 33
0.0
  0
MTEXT
  5
12DA4
330
12AC7
100
AcDbEntity
  8
ZISSEN1
 62
     1
100
AcDbMText
 10
-1713.429187793528
 20
1808.321805105529
 30
0.0
 40
3.5
 41
0.0
 71
     5
 72
     1
  1
\A1;4
  7
ゴシック体
 11
0.0000000000000001
 21
1.0
 31
0.0
1001
ACAD
1000
MTEXTBEGIN
1070
    73
1070
     1
1070
    44
1040
1.0
1070
    74
1070
     0
1000
MTEXTEND
  0
POINT
  5
12DA5
330
12AC7
100
AcDbEntity
  8
DEFPOINTS
 62
     0
100
AcDbPoint
 10
-1710.679187793529
 20
1810.321805105528
 30
0.0
  0
POINT
  5
12DA6
330
12AC7
100
AcDbEntity
  8
DEFPOINTS
 62
     0
100
AcDbPoint
 10
-1693.411675578143
 20
1806.321805105529
 30
0.0
  0
POINT
  5
12DA7
330
12AC7
100
AcDbEntity
  8
DEFPOINTS
 62
     0
100
AcDbPoint
 10
-1710.679187793529
 20
1806.321805105529
 30
0.0
  0
ENDBLK
  5
12AD3
330
12AC7
100
AcDbEntity
  8
0
100
AcDbBlockEnd
  0
BLOCK
  5
12ADF
330
12AD5
100
AcDbEntity
  8
0
100
AcDbBlockBegin
  2
*D36
 70
     1
 10
0.0
 20
0.0
 30
0.0
  3
*D36
  1

  0
LINE
  5
12AD6
330
12AD5
100
AcDbEntity
  8
ZISSEN1
 62
     1
100
AcDbLine
 10
-1847.573835578143
 20
1805.821805105528
 30
0.0
 11
-1847.573835578143
 21
1780.969467265713
 31
0.0
  0
LINE
  5
12AD7
330
12AD5
100
AcDbEntity
  8
ZISSEN1
 62
     1
100
AcDbLine
 10
-1770.573835578144
 20
1806.528915105529
 30
0.0
 11
-1770.573835578144
 21
1780.969467265713
 31
0.0
  0
LINE
  5
12AD8
330
12AD5
100
AcDbEntity
  8
ZISSEN1
 62
     1
100
AcDbLine
 10
-1844.573835578144
 20
1781.469467265712
 30
0.0
 11
-1773.573835578144
 21
1781.469467265712
 31
0.0
  0
SOLID
  5
12AD9
330
12AD5
100
AcDbEntity
  8
ZISSEN1
 62
     1
100
AcDbTrace
 10
-1844.573835578144
 20
1781.969467265714
 30
0.0
 11
-1844.573835578144
 21
1780.969467265713
 31
0.0
 12
-1847.573835578143
 22
1781.469467265712
 32
0.0
 13
-1847.573835578143
 23
1781.469467265712
 33
0.0
  0
SOLID
  5
12ADA
330
12AD5
100
AcDbEntity
  8
ZISSEN1
 62
     1
100
AcDbTrace
 10
-1773.573835578144
 20
1781.969467265714
 30
0.0
 11
-1773.573835578144
 21
1780.969467265713
 31
0.0
 12
-1770.573835578144
 22
1781.469467265712
 32
0.0
 13
-1770.573835578144
 23
1781.469467265712
 33
0.0
  0
MTEXT
  5
12ADB
330
12AD5
100
AcDbEntity
  8
ZISSEN1
 62
     1
100
AcDbMText
 10
-1809.073835578144
 20
1784.219467265714
 30
0.0
 40
3.5
 41
0.0
 71
     5
 72
     1
  1
\A1;77
  7
ゴシック体
1001
ACAD
1000
MTEXTBEGIN
1070
    73
1070
     1
1070
    44
1040
1.0
1070
    74
1070
     0
1000
MTEXTEND
  0
POINT
  5
12ADC
330
12AD5
100
AcDbEntity
  8
DEFPOINTS
 62
     0
100
AcDbPoint
 10
-1847.573835578143
 20
1806.321805105529
 30
0.0
  0
POINT
  5
12ADD
330
12AD5
100
AcDbEntity
  8
DEFPOINTS
 62
     0
100
AcDbPoint
 10
-1770.573835578144
 20
1807.028915105528
 30
0.0
  0
POINT
  5
12ADE
330
12AD5
100
AcDbEntity
  8
DEFPOINTS
 62
     0
100
AcDbPoint
 10
-1770.573835578144
 20
1781.469467265712
 30
0.0
  0
ENDBLK
  5
12AE0
330
12AD5
100
AcDbEntity
  8
0
100
AcDbBlockEnd
  0
BLOCK
  5
12AEC
330
12AE2
100
AcDbEntity
  8
0
100
AcDbBlockBegin
  2
*D37
 70
     1
 10
0.0
 20
0.0
 30
0.0
  3
*D37
  1

  0
LINE
  5
12AE3
330
12AE2
100
AcDbEntity
  8
ZISSEN1
 62
     1
100
AcDbLine
 10
-1655.411675578144
 20
1805.821805105528
 30
0.0
 11
-1655.411675578144
 21
1789.556170428663
 31
0.0
  0
LINE
  5
12AE4
330
12AE2
100
AcDbEntity
  8
ZISSEN1
 62
     1
100
AcDbLine
 10
-1675.411675578144
 20
1809.821805105529
 30
0.0
 11
-1675.411675578144
 21
1789.556170428663
 31
0.0
  0
LINE
  5
12AE5
330
12AE2
100
AcDbEntity
  8
ZISSEN1
 62
     1
100
AcDbLine
 10
-1658.411675578144
 20
1790.056170428663
 30
0.0
 11
-1672.411675578144
 21
1790.056170428663
 31
0.0
  0
SOLID
  5
12AE6
330
12AE2
100
AcDbEntity
  8
ZISSEN1
 62
     1
100
AcDbTrace
 10
-1658.411675578144
 20
1790.556170428663
 30
0.0
 11
-1658.411675578144
 21
1789.556170428663
 31
0.0
 12
-1655.411675578144
 22
1790.056170428663
 32
0.0
 13
-1655.411675578144
 23
1790.056170428663
 33
0.0
  0
SOLID
  5
12AE7
330
12AE2
100
AcDbEntity
  8
ZISSEN1
 62
     1
100
AcDbTrace
 10
-1672.411675578144
 20
1790.556170428663
 30
0.0
 11
-1672.411675578144
 21
1789.556170428663
 31
0.0
 12
-1675.411675578144
 22
1790.056170428663
 32
0.0
 13
-1675.411675578144
 23
1790.056170428663
 33
0.0
  0
MTEXT
  5
12AE8
330
12AE2
100
AcDbEntity
  8
ZISSEN1
 62
     1
100
AcDbMText
 10
-1665.411675578144
 20
1792.806170428663
 30
0.0
 40
3.5
 41
0.0
 71
     5
 72
     1
  1
\A1;20
  7
ゴシック体
1001
ACAD
1000
MTEXTBEGIN
1070
    73
1070
     1
1070
    44
1040
1.0
1070
    74
1070
     0
1000
MTEXTEND
  0
POINT
  5
12AE9
330
12AE2
100
AcDbEntity
  8
DEFPOINTS
 62
     0
100
AcDbPoint
 10
-1655.411675578144
 20
1806.321805105529
 30
0.0
  0
POINT
  5
12AEA
330
12AE2
100
AcDbEntity
  8
DEFPOINTS
 62
     0
100
AcDbPoint
 10
-1675.411675578144
 20
1810.321805105528
 30
0.0
  0
POINT
  5
12AEB
330
12AE2
100
AcDbEntity
  8
DEFPOINTS
 62
     0
100
AcDbPoint
 10
-1675.411675578144
 20
1790.056170428663
 30
0.0
  0
ENDBLK
  5
12AED
330
12AE2
100
AcDbEntity
  8
0
100
AcDbBlockEnd
  0
BLOCK
  5
12AFB
330
12AEF
100
AcDbEntity
  8
0
100
AcDbBlockBegin
  2
*D38
 70
     1
 10
0.0
 20
0.0
 30
0.0
  3
*D38
  1

  0
LINE
  5
12AF0
330
12AEF
100
AcDbEntity
  8
ZISSEN1
 62
     1
100
AcDbLine
 10
-1675.411675578144
 20
1809.821805105529
 30
0.0
 11
-1675.411675578144
 21
1789.556170428663
 31
0.0
  0
LINE
  5
12AF1
330
12AEF
100
AcDbEntity
  8
ZISSEN1
 62
     1
100
AcDbLine
 10
-1681.411665578144
 20
1809.821805105529
 30
0.0
 11
-1681.411665578144
 21
1789.556170428663
 31
0.0
  0
LINE
  5
12AF2
330
12AEF
100
AcDbEntity
  8
ZISSEN1
 62
     1
100
AcDbLine
 10
-1672.411675578144
 20
1790.056170428663
 30
0.0
 11
-1669.411675578144
 21
1790.056170428663
 31
0.0
  0
LINE
  5
12AF3
330
12AEF
100
AcDbEntity
  8
ZISSEN1
 62
     1
100
AcDbLine
 10
-1684.411665578143
 20
1790.056170428663
 30
0.0
 11
-1687.411665578143
 21
1790.056170428663
 31
0.0
  0
LINE
  5
12AF4
330
12AEF
100
AcDbEntity
  8
ZISSEN1
 62
     1
100
AcDbLine
 10
-1675.411675578144
 20
1790.056170428663
 30
0.0
 11
-1681.411665578144
 21
1790.056170428663
 31
0.0
  0
SOLID
  5
12AF5
330
12AEF
100
AcDbEntity
  8
ZISSEN1
 62
     1
100
AcDbTrace
 10
-1672.411675578144
 20
1790.556170428663
 30
0.0
 11
-1672.411675578144
 21
1789.556170428663
 31
0.0
 12
-1675.411675578144
 22
1790.056170428663
 32
0.0
 13
-1675.411675578144
 23
1790.056170428663
 33
0.0
  0
SOLID
  5
12AF6
330
12AEF
100
AcDbEntity
  8
ZISSEN1
 62
     1
100
AcDbTrace
 10
-1684.411665578143
 20
1790.556170428663
 30
0.0
 11
-1684.411665578143
 21
1789.556170428663
 31
0.0
 12
-1681.411665578144
 22
1790.056170428663
 32
0.0
 13
-1681.411665578144
 23
1790.056170428663
 33
0.0
  0
MTEXT
  5
12AF7
330
12AEF
100
AcDbEntity
  8
ZISSEN1
 62
     1
100
AcDbMText
 10
-1678.411670578143
 20
1792.806170428663
 30
0.0
 40
3.5
 41
0.0
 71
     5
 72
     1
  1
\A1;6
  7
ゴシック体
1001
ACAD
1000
MTEXTBEGIN
1070
    73
1070
     1
1070
    44
1040
1.0
1070
    74
1070
     0
1000
MTEXTEND
  0
POINT
  5
12AF8
330
12AEF
100
AcDbEntity
  8
DEFPOINTS
 62
     0
100
AcDbPoint
 10
-1675.411675578144
 20
1810.321805105528
 30
0.0
  0
POINT
  5
12AF9
330
12AEF
100
AcDbEntity
  8
DEFPOINTS
 62
     0
100
AcDbPoint
 10
-1681.411665578144
 20
1810.321805105528
 30
0.0
  0
POINT
  5
12AFA
330
12AEF
100
AcDbEntity
  8
DEFPOINTS
 62
     0
100
AcDbPoint
 10
-1681.411665578144
 20
1790.056170428663
 30
0.0
  0
ENDBLK
  5
12AFC
330
12AEF
100
AcDbEntity
  8
0
100
AcDbBlockEnd
  0
BLOCK
  5
12DE7
330
12DDD
100
AcDbEntity
  8
0
100
AcDbBlockBegin
  2
*D39
 70
     1
 10
0.0
 20
0.0
 30
0.0
  3
*D39
  1

  0
LINE
  5
12DDE
330
12DDD
100
AcDbEntity
  8
ZISSEN1
 62
     1
100
AcDbLine
 10
-1847.573835578143
 20
1805.321805105529
 30
0.0
 11
-1847.573835578143
 21
1795.705492767099
 31
0.0
  0
LINE
  5
12DDF
330
12DDD
100
AcDbEntity
  8
ZISSEN1
 62
     1
100
AcDbLine
 10
-1837.073850578144
 20
1807.321795105529
 30
0.0
 11
-1837.073850578144
 21
1795.705492767099
 31
0.0
  0
LINE
  5
12DE0
330
12DDD
100
AcDbEntity
  8
ZISSEN1
 62
     1
100
AcDbLine
 10
-1844.573835578144
 20
1796.205492767098
 30
0.0
 11
-1840.073850578144
 21
1796.205492767098
 31
0.0
  0
SOLID
  5
12DE1
330
12DDD
100
AcDbEntity
  8
ZISSEN1
 62
     1
100
AcDbTrace
 10
-1844.573835578144
 20
1796.705492767099
 30
0.0
 11
-1844.573835578144
 21
1795.705492767099
 31
0.0
 12
-1847.573835578143
 22
1796.205492767098
 32
0.0
 13
-1847.573835578143
 23
1796.205492767098
 33
0.0
  0
SOLID
  5
12DE2
330
12DDD
100
AcDbEntity
  8
ZISSEN1
 62
     1
100
AcDbTrace
 10
-1840.073850578144
 20
1796.705492767099
 30
0.0
 11
-1840.073850578144
 21
1795.705492767099
 31
0.0
 12
-1837.073850578144
 22
1796.205492767098
 32
0.0
 13
-1837.073850578144
 23
1796.205492767098
 33
0.0
  0
MTEXT
  5
12DE3
330
12DDD
100
AcDbEntity
  8
ZISSEN1
 62
     1
100
AcDbMText
 10
-1842.323843078143
 20
1798.955492767098
 30
0.0
 40
3.5
 41
0.0
 71
     5
 72
     1
  1
\A1;10.5
  7
ゴシック体
1001
ACAD
1000
MTEXTBEGIN
1070
    73
1070
     1
1070
    44
1040
1.0
1070
    74
1070
     0
1000
MTEXTEND
  0
POINT
  5
12DE4
330
12DDD
100
AcDbEntity
  8
DEFPOINTS
 62
     0
100
AcDbPoint
 10
-1847.573835578143
 20
1805.821805105528
 30
0.0
  0
POINT
  5
12DE5
330
12DDD
100
AcDbEntity
  8
DEFPOINTS
 62
     0
100
AcDbPoint
 10
-1837.073850578144
 20
1807.821795105529
 30
0.0
  0
POINT
  5
12DE6
330
12DDD
100
AcDbEntity
  8
DEFPOINTS
 62
     0
100
AcDbPoint
 10
-1837.073850578144
 20
1796.205492767098
 30
0.0
  0
ENDBLK
  5
12DE8
330
12DDD
100
AcDbEntity
  8
0
100
AcDbBlockEnd
  0
BLOCK
  5
12DF6
330
12DEA
100
AcDbEntity
  8
0
100
AcDbBlockBegin
  2
*D40
 70
     1
 10
0.0
 20
0.0
 30
0.0
  3
*D40
  1

  0
LINE
  5
12DEB
330
12DEA
100
AcDbEntity
  8
ZISSEN1
 62
     1
100
AcDbLine
 10
-1837.073850578144
 20
1806.821795105529
 30
0.0
 11
-1837.073850578144
 21
1795.705492767099
 31
0.0
  0
LINE
  5
12DEC
330
12DEA
100
AcDbEntity
  8
ZISSEN1
 62
     1
100
AcDbLine
 10
-1831.073855578143
 20
1806.821795105529
 30
0.0
 11
-1831.073855578143
 21
1795.705492767099
 31
0.0
  0
LINE
  5
12DED
330
12DEA
100
AcDbEntity
  8
ZISSEN1
 62
     1
100
AcDbLine
 10
-1840.073850578144
 20
1796.205492767098
 30
0.0
 11
-1843.073850578144
 21
1796.205492767098
 31
0.0
  0
LINE
  5
12DEE
330
12DEA
100
AcDbEntity
  8
ZISSEN1
 62
     1
100
AcDbLine
 10
-1828.073855578144
 20
1796.205492767098
 30
0.0
 11
-1825.073855578144
 21
1796.205492767098
 31
0.0
  0
LINE
  5
12DEF
330
12DEA
100
AcDbEntity
  8
ZISSEN1
 62
     1
100
AcDbLine
 10
-1837.073850578144
 20
1796.205492767098
 30
0.0
 11
-1831.073855578143
 21
1796.205492767098
 31
0.0
  0
SOLID
  5
12DF0
330
12DEA
100
AcDbEntity
  8
ZISSEN1
 62
     1
100
AcDbTrace
 10
-1840.073850578144
 20
1796.705492767099
 30
0.0
 11
-1840.073850578144
 21
1795.705492767099
 31
0.0
 12
-1837.073850578144
 22
1796.205492767098
 32
0.0
 13
-1837.073850578144
 23
1796.205492767098
 33
0.0
  0
SOLID
  5
12DF1
330
12DEA
100
AcDbEntity
  8
ZISSEN1
 62
     1
100
AcDbTrace
 10
-1828.073855578144
 20
1796.705492767099
 30
0.0
 11
-1828.073855578144
 21
1795.705492767099
 31
0.0
 12
-1831.073855578143
 22
1796.205492767098
 32
0.0
 13
-1831.073855578143
 23
1796.205492767098
 33
0.0
  0
MTEXT
  5
12DF2
330
12DEA
100
AcDbEntity
  8
ZISSEN1
 62
     1
100
AcDbMText
 10
-1834.073853078144
 20
1798.955492767098
 30
0.0
 40
3.5
 41
0.0
 71
     5
 72
     1
  1
\A1;6
  7
ゴシック体
1001
ACAD
1000
MTEXTBEGIN
1070
    73
1070
     1
1070
    44
1040
1.0
1070
    74
1070
     0
1000
MTEXTEND
  0
POINT
  5
12DF3
330
12DEA
100
AcDbEntity
  8
DEFPOINTS
 62
     0
100
AcDbPoint
 10
-1837.073850578144
 20
1807.321795105529
 30
0.0
  0
POINT
  5
12DF4
330
12DEA
100
AcDbEntity
  8
DEFPOINTS
 62
     0
100
AcDbPoint
 10
-1831.073855578143
 20
1807.321795105529
 30
0.0
  0
POINT
  5
12DF5
330
12DEA
100
AcDbEntity
  8
DEFPOINTS
 62
     0
100
AcDbPoint
 10
-1831.073855578143
 20
1796.205492767098
 30
0.0
  0
ENDBLK
  5
12DF7
330
12DEA
100
AcDbEntity
  8
0
100
AcDbBlockEnd
  0
BLOCK
  5
12E05
330
12DF9
100
AcDbEntity
  8
0
100
AcDbBlockBegin
  2
*D41
 70
     1
 10
0.0
 20
0.0
 30
0.0
  3
*D41
  1

  0
LINE
  5
12DFA
330
12DF9
100
AcDbEntity
  8
ZISSEN1
 62
     1
100
AcDbLine
 10
-1835.323832578144
 20
1894.821795105529
 30
0.0
 11
-1835.323832578144
 21
1904.487618416716
 31
0.0
  0
LINE
  5
12DFB
330
12DF9
100
AcDbEntity
  8
ZISSEN1
 62
     1
100
AcDbLine
 10
-1838.823843578143
 20
1894.821795105529
 30
0.0
 11
-1838.823843578143
 21
1904.487618416716
 31
0.0
  0
LINE
  5
12DFC
330
12DF9
100
AcDbEntity
  8
ZISSEN1
 62
     1
100
AcDbLine
 10
-1832.323832578143
 20
1903.987618416715
 30
0.0
 11
-1829.323832578144
 21
1903.987618416715
 31
0.0
  0
LINE
  5
12DFD
330
12DF9
100
AcDbEntity
  8
ZISSEN1
 62
     1
100
AcDbLine
 10
-1841.823843578143
 20
1903.987618416715
 30
0.0
 11
-1853.184249669515
 21
1903.987618416715
 31
0.0
  0
LINE
  5
12DFE
330
12DF9
100
AcDbEntity
  8
ZISSEN1
 62
     1
100
AcDbLine
 10
-1835.323832578144
 20
1903.987618416715
 30
0.0
 11
-1838.823843578143
 21
1903.987618416715
 31
0.0
  0
SOLID
  5
12DFF
330
12DF9
100
AcDbEntity
  8
ZISSEN1
 62
     1
100
AcDbTrace
 10
-1832.323832578143
 20
1904.487618416716
 30
0.0
 11
-1832.323832578143
 21
1903.487618416716
 31
0.0
 12
-1835.323832578144
 22
1903.987618416715
 32
0.0
 13
-1835.323832578144
 23
1903.987618416715
 33
0.0
  0
SOLID
  5
12E00
330
12DF9
100
AcDbEntity
  8
ZISSEN1
 62
     1
100
AcDbTrace
 10
-1841.823843578143
 20
1904.487618416716
 30
0.0
 11
-1841.823843578143
 21
1903.487618416716
 31
0.0
 12
-1838.823843578143
 22
1903.987618416715
 32
0.0
 13
-1838.823843578143
 23
1903.987618416715
 33
0.0
  0
MTEXT
  5
12E01
330
12DF9
100
AcDbEntity
  8
ZISSEN1
 62
     1
100
AcDbMText
 10
-1849.004046623829
 20
1906.737618416715
 30
0.0
 40
3.5
 41
0.0
 71
     5
 72
     1
  1
\A1;3.5
  7
ゴシック体
1001
ACAD
1000
MTEXTBEGIN
1070
    73
1070
     1
1070
    44
1040
1.0
1070
    74
1070
     0
1000
MTEXTEND
  0
POINT
  5
12E02
330
12DF9
100
AcDbEntity
  8
DEFPOINTS
 62
     0
100
AcDbPoint
 10
-1835.323832578144
 20
1894.321795105528
 30
0.0
  0
POINT
  5
12E03
330
12DF9
100
AcDbEntity
  8
DEFPOINTS
 62
     0
100
AcDbPoint
 10
-1838.823843578143
 20
1894.321795105528
 30
0.0
  0
POINT
  5
12E04
330
12DF9
100
AcDbEntity
  8
DEFPOINTS
 62
     0
100
AcDbPoint
 10
-1838.823843578143
 20
1903.987618416715
 30
0.0
  0
ENDBLK
  5
12E06
330
12DF9
100
AcDbEntity
  8
0
100
AcDbBlockEnd
  0
BLOCK
  5
12E22
330
12E18
100
AcDbEntity
  8
0
100
AcDbBlockBegin
  2
*D42
 70
     1
 10
0.0
 20
0.0
 30
0.0
  3
*D42
  1

  0
LINE
  5
12E25
330
12E18
100
AcDbEntity
  8
ZISSEN1
 62
     1
100
AcDbLine
 10
-1693.411675578143
 20
1805.821805105528
 30
0.0
 11
-1693.411675578143
 21
1780.917334380103
 31
0.0
  0
LINE
  5
12E26
330
12E18
100
AcDbEntity
  8
ZISSEN1
 62
     1
100
AcDbLine
 10
-1655.411675578144
 20
1804.821805105529
 30
0.0
 11
-1655.411675578144
 21
1780.917334380103
 31
0.0
  0
LINE
  5
12E27
330
12E18
100
AcDbEntity
  8
ZISSEN1
 62
     1
100
AcDbLine
 10
-1690.411675578144
 20
1781.417334380103
 30
0.0
 11
-1658.411675578144
 21
1781.417334380103
 31
0.0
  0
SOLID
  5
12E28
330
12E18
100
AcDbEntity
  8
ZISSEN1
 62
     1
100
AcDbTrace
 10
-1690.411675578144
 20
1781.917334380103
 30
0.0
 11
-1690.411675578144
 21
1780.917334380103
 31
0.0
 12
-1693.411675578143
 22
1781.417334380103
 32
0.0
 13
-1693.411675578143
 23
1781.417334380103
 33
0.0
  0
SOLID
  5
12E29
330
12E18
100
AcDbEntity
  8
ZISSEN1
 62
     1
100
AcDbTrace
 10
-1658.411675578144
 20
1781.917334380103
 30
0.0
 11
-1658.411675578144
 21
1780.917334380103
 31
0.0
 12
-1655.411675578144
 22
1781.417334380103
 32
0.0
 13
-1655.411675578144
 23
1781.417334380103
 33
0.0
  0
MTEXT
  5
12E2A
330
12E18
100
AcDbEntity
  8
ZISSEN1
 62
     1
100
AcDbMText
 10
-1674.411675578144
 20
1784.167334380103
 30
0.0
 40
3.5
 41
0.0
 71
     5
 72
     1
  1
\A1;38
  7
ゴシック体
1001
ACAD
1000
MTEXTBEGIN
1070
    73
1070
     1
1070
    44
1040
1.0
1070
    74
1070
     0
1000
MTEXTEND
  0
POINT
  5
12E2B
330
12E18
100
AcDbEntity
  8
DEFPOINTS
 62
     0
100
AcDbPoint
 10
-1693.411675578143
 20
1806.321805105529
 30
0.0
  0
POINT
  5
12E2C
330
12E18
100
AcDbEntity
  8
DEFPOINTS
 62
     0
100
AcDbPoint
 10
-1655.411675578144
 20
1805.321805105529
 30
0.0
  0
POINT
  5
12E2D
330
12E18
100
AcDbEntity
  8
DEFPOINTS
 62
     0
100
AcDbPoint
 10
-1655.411675578144
 20
1781.417334380103
 30
0.0
  0
ENDBLK
  5
12E23
330
12E18
100
AcDbEntity
  8
0
100
AcDbBlockEnd
  0
ENDSEC
  0
SECTION
  2
ENTITIES
  0
MTEXT
  5
5084
330
1A
100
AcDbEntity
  8
0
100
AcDbMText
 10
1985.239088685434
 20
-948.5420423450428
 30
0.0
 40
8.0
 41
0.0
 71
     7
 72
     5
  1

1001
ACAD
1000
MTEXTBEGIN
1070
    73
1070
     1
1070
    44
1040
1.0
1070
    74
1070
     0
1000
MTEXTEND
  0
MTEXT
  5
5085
330
1A
100
AcDbEntity
  8
0
100
AcDbMText
 10
4270.596778580329
 20
22.24825240601648
 30
0.0
 40
8.0
 41
0.0
 71
     7
 72
     5
  1

1001
ACAD
1000
MTEXTBEGIN
1070
    73
1070
     1
1070
    44
1040
1.0
1070
    74
1070
     0
1000
MTEXTEND
  0
MTEXT
  5
5343
330
1A
100
AcDbEntity
  8
SUNPOU
100
AcDbMText
 10
6936.493799262471
 20
9534.359644781137
 30
0.0
 40
10.5
 41
0.0
 71
     1
 72
     5
  1

1001
ACAD
1000
MTEXTBEGIN
1070
    73
1070
     1
1070
    44
1040
1.0
1070
    74
1070
     0
1000
MTEXTEND
  0
MTEXT
  5
544F
330
1A
100
AcDbEntity
  8
0
100
AcDbMText
 10
16317.2832773148
 20
12833.35428897674
 30
0.0
 40
8.0
 41
0.0
 71
     7
 72
     5
  1

1001
ACAD
1000
MTEXTBEGIN
1070
    73
1070
     1
1070
    44
1040
1.0
1070
    74
1070
     0
1000
MTEXTEND
  0
MTEXT
  5
5450
330
1A
100
AcDbEntity
  8
0
100
AcDbMText
 10
18602.64096720968
 20
13804.1445837278
 30
0.0
 40
8.0
 41
0.0
 71
     7
 72
     5
  1

1001
ACAD
1000
MTEXTBEGIN
1070
    73
1070
     1
1070
    44
1040
1.0
1070
    74
1070
     0
1000
MTEXTEND
  0
MTEXT
  5
5451
330
1A
100
AcDbEntity
  8
SUNPOU
100
AcDbMText
 10
21268.53798789184
 20
23316.25597610292
 30
0.0
 40
10.5
 41
0.0
 71
     1
 72
     5
  1

1001
ACAD
1000
MTEXTBEGIN
1070
    73
1070
     1
1070
    44
1040
1.0
1070
    74
1070
     0
1000
MTEXTEND
  0
MTEXT
  5
5452
330
1A
100
AcDbEntity
  8
SUNPOU
100
AcDbMText
 10
13337.6147919559
 20
22369.46284218996
 30
0.0
 40
10.5
 41
0.0
 71
     7
 72
     5
  1

1001
ACAD
1000
MTEXTBEGIN
1070
    73
1070
     1
1070
    44
1040
1.0
1070
    74
1070
     0
1000
MTEXTEND
  0
MTEXT
  5
5453
330
1A
100
AcDbEntity
  8
SUNPOU
100
AcDbMText
 10
16286.59845646867
 20
27270.1389140328
 30
0.0
 40
10.5
 41
0.0
 71
     7
 72
     5
  1

1001
ACAD
1000
MTEXTBEGIN
1070
    73
1070
     1
1070
    44
1040
1.0
1070
    74
1070
     0
1000
MTEXTEND
  0
MTEXT
  5
5454
330
1A
100
AcDbEntity
  8
SUNPOU
100
AcDbMText
 10
20795.67658441924
 20
29706.43966165288
 30
0.0
 40
10.5
 41
0.0
 71
     7
 72
     5
  1

1001
ACAD
1000
MTEXTBEGIN
1070
    73
1070
     1
1070
    44
1040
1.0
1070
    74
1070
     0
1000
MTEXTEND
  0
MTEXT
  5
5455
330
1A
100
AcDbEntity
  8
0
100
AcDbMText
 10
16611.93789220313
 20
14707.52144344448
 30
0.0
 40
8.0
 41
0.0
 71
     7
 72
     5
  1

1001
ACAD
1000
MTEXTBEGIN
1070
    73
1070
     1
1070
    44
1040
1.0
1070
    74
1070
     0
1000
MTEXTEND
  0
MTEXT
  5
5456
330
1A
100
AcDbEntity
  8
0
100
AcDbMText
 10
18897.29558209803
 20
15678.31173819554
 30
0.0
 40
8.0
 41
0.0
 71
     7
 72
     5
  1

1001
ACAD
1000
MTEXTBEGIN
1070
    73
1070
     1
1070
    44
1040
1.0
1070
    74
1070
     0
1000
MTEXTEND
  0
MTEXT
  5
5457
330
1A
100
AcDbEntity
  8
SUNPOU
100
AcDbMText
 10
21563.19260278019
 20
25190.42313057066
 30
0.0
 40
10.5
 41
0.0
 71
     1
 72
     5
  1

1001
ACAD
1000
MTEXTBEGIN
1070
    73
1070
     1
1070
    44
1040
1.0
1070
    74
1070
     0
1000
MTEXTEND
  0
MTEXT
  5
5458
330
1A
100
AcDbEntity
  8
SUNPOU
100
AcDbMText
 10
13632.26940684425
 20
24243.6299966577
 30
0.0
 40
10.5
 41
0.0
 71
     7
 72
     5
  1

1001
ACAD
1000
MTEXTBEGIN
1070
    73
1070
     1
1070
    44
1040
1.0
1070
    74
1070
     0
1000
MTEXTEND
  0
MTEXT
  5
5459
330
1A
100
AcDbEntity
  8
SUNPOU
100
AcDbMText
 10
16581.25307135702
 20
29144.30606850055
 30
0.0
 40
10.5
 41
0.0
 71
     7
 72
     5
  1

1001
ACAD
1000
MTEXTBEGIN
1070
    73
1070
     1
1070
    44
1040
1.0
1070
    74
1070
     0
1000
MTEXTEND
  0
MTEXT
  5
545A
330
1A
100
AcDbEntity
  8
SUNPOU
100
AcDbMText
 10
21090.33119930759
 20
31580.60681612062
 30
0.0
 40
10.5
 41
0.0
 71
     7
 72
     5
  1

1001
ACAD
1000
MTEXTBEGIN
1070
    73
1070
     1
1070
    44
1040
1.0
1070
    74
1070
     0
1000
MTEXTEND
  0
MTEXT
  5
545B
330
1A
100
AcDbEntity
  8
0
100
AcDbMText
 10
22871.60517627166
 20
23974.88367124799
 30
0.0
 40
8.0
 41
0.0
 71
     7
 72
     5
  1

1001
ACAD
1000
MTEXTBEGIN
1070
    73
1070
     1
1070
    44
1040
1.0
1070
    74
1070
     0
1000
MTEXTEND
  0
MTEXT
  5
545C
330
1A
100
AcDbEntity
  8
0
100
AcDbMText
 10
25156.96286616656
 20
24945.67396599905
 30
0.0
 40
8.0
 41
0.0
 71
     7
 72
     5
  1

1001
ACAD
1000
MTEXTBEGIN
1070
    73
1070
     1
1070
    44
1040
1.0
1070
    74
1070
     0
1000
MTEXTEND
  0
MTEXT
  5
545D
330
1A
100
AcDbEntity
  8
SUNPOU
100
AcDbMText
 10
27822.85988684871
 20
34457.78535837418
 30
0.0
 40
10.5
 41
0.0
 71
     1
 72
     5
  1

1001
ACAD
1000
MTEXTBEGIN
1070
    73
1070
     1
1070
    44
1040
1.0
1070
    74
1070
     0
1000
MTEXTEND
  0
MTEXT
  5
545E
330
1A
100
AcDbEntity
  8
SUNPOU
100
AcDbMText
 10
19891.93669091278
 20
33510.99222446122
 30
0.0
 40
10.5
 41
0.0
 71
     7
 72
     5
  1

1001
ACAD
1000
MTEXTBEGIN
1070
    73
1070
     1
1070
    44
1040
1.0
1070
    74
1070
     0
1000
MTEXTEND
  0
MTEXT
  5
545F
330
1A
100
AcDbEntity
  8
SUNPOU
100
AcDbMText
 10
22840.92035542555
 20
38411.66829630406
 30
0.0
 40
10.5
 41
0.0
 71
     7
 72
     5
  1

1001
ACAD
1000
MTEXTBEGIN
1070
    73
1070
     1
1070
    44
1040
1.0
1070
    74
1070
     0
1000
MTEXTEND
  0
MTEXT
  5
5460
330
1A
100
AcDbEntity
  8
SUNPOU
100
AcDbMText
 10
27349.99848337611
 20
40847.96904392415
 30
0.0
 40
10.5
 41
0.0
 71
     7
 72
     5
  1

1001
ACAD
1000
MTEXTBEGIN
1070
    73
1070
     1
1070
    44
1040
1.0
1070
    74
1070
     0
1000
MTEXTEND
  0
MTEXT
  5
55B7
330
1A
100
AcDbEntity
  8
SUNPOU
100
AcDbMText
 10
67424.23923338197
 20
64463.86602884816
 30
0.0
 40
10.5
 41
0.0
 71
     9
 72
     5
  1

1001
ACAD
1000
MTEXTBEGIN
1070
    73
1070
     1
1070
    44
1040
1.0
1070
    74
1070
     0
1000
MTEXTEND
  0
MTEXT
  5
55B8
330
1A
100
AcDbEntity
  8
SUNPOU
100
AcDbMText
 10
76146.40679929998
 20
71879.70056038563
 30
0.0
 40
10.5
 41
0.0
 71
     9
 72
     5
  1

1001
ACAD
1000
MTEXTBEGIN
1070
    73
1070
     1
1070
    44
1040
1.0
1070
    74
1070
     0
1000
MTEXTEND
  0
MTEXT
  5
55B9
330
1A
100
AcDbEntity
  8
SUNPOU
100
AcDbMText
 10
95100.16551662994
 20
89346.27661287766
 30
0.0
 40
10.5
 41
0.0
 71
     9
 72
     5
  1

1001
ACAD
1000
MTEXTBEGIN
1070
    73
1070
     1
1070
    44
1040
1.0
1070
    74
1070
     0
1000
MTEXTEND
  0
MTEXT
  5
55BA
330
1A
100
AcDbEntity
  8
SUNPOU
100
AcDbMText
 10
97043.57276333935
 20
87545.22753299966
 30
0.0
 40
3.5
 41
0.0
 71
     9
 72
     5
  1

1001
ACAD
1000
MTEXTBEGIN
1070
    73
1070
     1
1070
    44
1040
1.0
1070
    74
1070
     0
1000
MTEXTEND
  0
MTEXT
  5
55BB
330
1A
100
AcDbEntity
  8
SUNPOU
100
AcDbMText
 10
128169.7525959589
 20
130040.1732006569
 30
0.0
 40
10.5
 41
0.0
 71
     9
 72
     5
  1

1001
ACAD
1000
MTEXTBEGIN
1070
    73
1070
     1
1070
    44
1040
1.0
1070
    74
1070
     0
1000
MTEXTEND
  0
MTEXT
  5
55BC
330
1A
100
AcDbEntity
  8
SUNPOU
100
AcDbMText
 10
130113.1598426684
 20
128239.1241207789
 30
0.0
 40
3.5
 41
0.0
 71
     9
 72
     5
  1

1001
ACAD
1000
MTEXTBEGIN
1070
    73
1070
     1
1070
    44
1040
1.0
1070
    74
1070
     0
1000
MTEXTEND
  0
MTEXT
  5
55BD
330
1A
100
AcDbEntity
  8
SUNPOU
100
AcDbMText
 10
78610.02030175463
 20
75873.33835563206
 30
0.0
 40
10.5
 41
0.0
 71
     9
 72
     5
  1

1001
ACAD
1000
MTEXTBEGIN
1070
    73
1070
     1
1070
    44
1040
1.0
1070
    74
1070
     0
1000
MTEXTEND
  0
MTEXT
  5
55BE
330
1A
100
AcDbEntity
  8
SUNPOU
100
AcDbMText
 10
64662.02020137862
 20
56700.93921651987
 30
0.0
 40
3.5
 41
0.0
 71
     7
 72
     5
  1

1001
ACAD
1000
MTEXTBEGIN
1070
    73
1070
     1
1070
    44
1040
1.0
1070
    74
1070
     0
1000
MTEXTEND
  0
MTEXT
  5
55BF
330
1A
100
AcDbEntity
  8
SUNPOU
100
AcDbMText
 10
45647.18959837177
 20
44463.08794733806
 30
0.0
 40
10.5
 41
0.0
 71
     7
 72
     5
  1

1001
ACAD
1000
MTEXTBEGIN
1070
    73
1070
     1
1070
    44
1040
1.0
1070
    74
1070
     0
1000
MTEXTEND
  0
MTEXT
  5
55C0
330
1A
100
AcDbEntity
  8
SUNPOU
100
AcDbMText
 10
33189.96133342368
 20
28618.15636923965
 30
0.0
 40
35.0
 41
0.0
 71
     9
 72
     5
  1

1001
ACAD
1000
MTEXTBEGIN
1070
    73
1070
     1
1070
    44
1040
1.0
1070
    74
1070
     0
1000
MTEXTEND
  0
MTEXT
  5
55C1
330
1A
100
AcDbEntity
  8
SUNPOU
100
AcDbMText
 10
32098.44639099864
 20
29226.93177928834
 30
0.0
 40
350.0000004171781
 41
0.0
 71
     7
 72
     5
  1

1001
ACAD
1000
MTEXTBEGIN
1070
    73
1070
     1
1070
    44
1040
1.0
1070
    74
1070
     0
1000
MTEXTEND
  0
MTEXT
  5
55C2
330
1A
100
AcDbEntity
  8
0
100
AcDbMText
 10
38142.39714894154
 20
27206.85414142458
 30
0.0
 40
8.0
 41
0.0
 71
     7
 72
     5
  1

1001
ACAD
1000
MTEXTBEGIN
1070
    73
1070
     1
1070
    44
1040
1.0
1070
    74
1070
     0
1000
MTEXTEND
  0
MTEXT
  5
55C3
330
1A
100
AcDbEntity
  8
0
100
AcDbMText
 10
40427.75483883644
 20
28177.64443617564
 30
0.0
 40
8.0
 41
0.0
 71
     7
 72
     5
  1

1001
ACAD
1000
MTEXTBEGIN
1070
    73
1070
     1
1070
    44
1040
1.0
1070
    74
1070
     0
1000
MTEXTEND
  0
MTEXT
  5
55C4
330
1A
100
AcDbEntity
  8
SUNPOU
100
AcDbMText
 10
43093.65185951858
 20
37689.75582855077
 30
0.0
 40
10.5
 41
0.0
 71
     1
 72
     5
  1

1001
ACAD
1000
MTEXTBEGIN
1070
    73
1070
     1
1070
    44
1040
1.0
1070
    74
1070
     0
1000
MTEXTEND
  0
MTEXT
  5
55C5
330
1A
100
AcDbEntity
  8
SUNPOU
100
AcDbMText
 10
35162.72866358265
 20
36742.96269463781
 30
0.0
 40
10.5
 41
0.0
 71
     7
 72
     5
  1

1001
ACAD
1000
MTEXTBEGIN
1070
    73
1070
     1
1070
    44
1040
1.0
1070
    74
1070
     0
1000
MTEXTEND
  0
MTEXT
  5
55C6
330
1A
100
AcDbEntity
  8
SUNPOU
100
AcDbMText
 10
38111.71232809542
 20
41643.63876648065
 30
0.0
 40
10.5
 41
0.0
 71
     7
 72
     5
  1

1001
ACAD
1000
MTEXTBEGIN
1070
    73
1070
     1
1070
    44
1040
1.0
1070
    74
1070
     0
1000
MTEXTEND
  0
MTEXT
  5
55C7
330
1A
100
AcDbEntity
  8
SUNPOU
100
AcDbMText
 10
42620.79045604596
 20
44079.93951410074
 30
0.0
 40
10.5
 41
0.0
 71
     7
 72
     5
  1

1001
ACAD
1000
MTEXTBEGIN
1070
    73
1070
     1
1070
    44
1040
1.0
1070
    74
1070
     0
1000
MTEXTEND
  0
MTEXT
  5
55C8
330
1A
100
AcDbEntity
  8
SUNPOU
100
AcDbMText
 10
26221.62834281429
 20
23077.53566448964
 30
0.0
 40
10.5
 41
0.0
 71
     7
 72
     5
  1

1001
ACAD
1000
MTEXTBEGIN
1070
    73
1070
     1
1070
    44
1040
1.0
1070
    74
1070
     0
1000
MTEXTEND
  0
MTEXT
  5
55C9
330
1A
100
AcDbEntity
  8
SUNPOU
100
AcDbMText
 10
77413.14677671455
 20
68750.51622813789
 30
0.0
 40
10.5
 41
0.0
 71
     9
 72
     5
  1

1001
ACAD
1000
MTEXTBEGIN
1070
    73
1070
     1
1070
    44
1040
1.0
1070
    74
1070
     0
1000
MTEXTEND
  0
MTEXT
  5
55CA
330
1A
100
AcDbEntity
  8
SUNPOU
100
AcDbMText
 10
86135.31434263256
 20
76166.35075967536
 30
0.0
 40
10.5
 41
0.0
 71
     9
 72
     5
  1

1001
ACAD
1000
MTEXTBEGIN
1070
    73
1070
     1
1070
    44
1040
1.0
1070
    74
1070
     0
1000
MTEXTEND
  0
MTEXT
  5
55CB
330
1A
100
AcDbEntity
  8
SUNPOU
100
AcDbMText
 10
105089.0730599624
 20
93632.92681216739
 30
0.0
 40
10.5
 41
0.0
 71
     9
 72
     5
  1

1001
ACAD
1000
MTEXTBEGIN
1070
    73
1070
     1
1070
    44
1040
1.0
1070
    74
1070
     0
1000
MTEXTEND
  0
MTEXT
  5
55CC
330
1A
100
AcDbEntity
  8
SUNPOU
100
AcDbMText
 10
107032.4803066718
 20
91831.87773228938
 30
0.0
 40
3.5
 41
0.0
 71
     9
 72
     5
  1

1001
ACAD
1000
MTEXTBEGIN
1070
    73
1070
     1
1070
    44
1040
1.0
1070
    74
1070
     0
1000
MTEXTEND
  0
MTEXT
  5
55CD
330
1A
100
AcDbEntity
  8
SUNPOU
100
AcDbMText
 10
138158.6601392916
 20
134326.8233999467
 30
0.0
 40
10.5
 41
0.0
 71
     9
 72
     5
  1

1001
ACAD
1000
MTEXTBEGIN
1070
    73
1070
     1
1070
    44
1040
1.0
1070
    74
1070
     0
1000
MTEXTEND
  0
MTEXT
  5
55CE
330
1A
100
AcDbEntity
  8
SUNPOU
100
AcDbMText
 10
140102.067386001
 20
132525.7743200686
 30
0.0
 40
3.5
 41
0.0
 71
     9
 72
     5
  1

1001
ACAD
1000
MTEXTBEGIN
1070
    73
1070
     1
1070
    44
1040
1.0
1070
    74
1070
     0
1000
MTEXTEND
  0
MTEXT
  5
55CF
330
1A
100
AcDbEntity
  8
SUNPOU
100
AcDbMText
 10
88598.92784508721
 20
80159.98855492179
 30
0.0
 40
10.5
 41
0.0
 71
     9
 72
     5
  1

1001
ACAD
1000
MTEXTBEGIN
1070
    73
1070
     1
1070
    44
1040
1.0
1070
    74
1070
     0
1000
MTEXTEND
  0
MTEXT
  5
55D0
330
1A
100
AcDbEntity
  8
SUNPOU
100
AcDbMText
 10
74650.92774471121
 20
60987.58941580959
 30
0.0
 40
3.5
 41
0.0
 71
     7
 72
     5
  1

1001
ACAD
1000
MTEXTBEGIN
1070
    73
1070
     1
1070
    44
1040
1.0
1070
    74
1070
     0
1000
MTEXTEND
  0
MTEXT
  5
55D1
330
1A
100
AcDbEntity
  8
SUNPOU
100
AcDbMText
 10
55636.09714170436
 20
48749.73814662781
 30
0.0
 40
10.5
 41
0.0
 71
     7
 72
     5
  1

1001
ACAD
1000
MTEXTBEGIN
1070
    73
1070
     1
1070
    44
1040
1.0
1070
    74
1070
     0
1000
MTEXTEND
  0
MTEXT
  5
55D2
330
1A
100
AcDbEntity
  8
SUNPOU
100
AcDbMText
 10
43178.86887675626
 20
32904.80656852937
 30
0.0
 40
35.0
 41
0.0
 71
     9
 72
     5
  1

1001
ACAD
1000
MTEXTBEGIN
1070
    73
1070
     1
1070
    44
1040
1.0
1070
    74
1070
     0
1000
MTEXTEND
  0
MTEXT
  5
55D3
330
1A
100
AcDbEntity
  8
SUNPOU
100
AcDbMText
 10
42087.3539343312
 20
33513.58197857808
 30
0.0
 40
350.0000004171781
 41
0.0
 71
     7
 72
     5
  1

1001
ACAD
1000
MTEXTBEGIN
1070
    73
1070
     1
1070
    44
1040
1.0
1070
    74
1070
     0
1000
MTEXTEND
  0
MTEXT
  5
55D4
330
1A
100
AcDbEntity
  8
0
100
AcDbMText
 10
48131.30469227412
 20
31493.50434071431
 30
0.0
 40
8.0
 41
0.0
 71
     7
 72
     5
  1

1001
ACAD
1000
MTEXTBEGIN
1070
    73
1070
     1
1070
    44
1040
1.0
1070
    74
1070
     0
1000
MTEXTEND
  0
MTEXT
  5
55D5
330
1A
100
AcDbEntity
  8
0
100
AcDbMText
 10
50416.66238216901
 20
32464.29463546537
 30
0.0
 40
8.0
 41
0.0
 71
     7
 72
     5
  1

1001
ACAD
1000
MTEXTBEGIN
1070
    73
1070
     1
1070
    44
1040
1.0
1070
    74
1070
     0
1000
MTEXTEND
  0
MTEXT
  5
55D6
330
1A
100
AcDbEntity
  8
SUNPOU
100
AcDbMText
 10
53082.55940285115
 20
41976.4060278405
 30
0.0
 40
10.5
 41
0.0
 71
     1
 72
     5
  1

1001
ACAD
1000
MTEXTBEGIN
1070
    73
1070
     1
1070
    44
1040
1.0
1070
    74
1070
     0
1000
MTEXTEND
  0
MTEXT
  5
55D7
330
1A
100
AcDbEntity
  8
SUNPOU
100
AcDbMText
 10
45151.63620691521
 20
41029.61289392755
 30
0.0
 40
10.5
 41
0.0
 71
     7
 72
     5
  1

1001
ACAD
1000
MTEXTBEGIN
1070
    73
1070
     1
1070
    44
1040
1.0
1070
    74
1070
     0
1000
MTEXTEND
  0
MTEXT
  5
55D8
330
1A
100
AcDbEntity
  8
SUNPOU
100
AcDbMText
 10
48100.61987142798
 20
45930.28896577039
 30
0.0
 40
10.5
 41
0.0
 71
     7
 72
     5
  1

1001
ACAD
1000
MTEXTBEGIN
1070
    73
1070
     1
1070
    44
1040
1.0
1070
    74
1070
     0
1000
MTEXTEND
  0
MTEXT
  5
55D9
330
1A
100
AcDbEntity
  8
SUNPOU
100
AcDbMText
 10
52609.69799937853
 20
48366.58971339046
 30
0.0
 40
10.5
 41
0.0
 71
     7
 72
     5
  1

1001
ACAD
1000
MTEXTBEGIN
1070
    73
1070
     1
1070
    44
1040
1.0
1070
    74
1070
     0
1000
MTEXTEND
  0
MTEXT
  5
55DA
330
1A
100
AcDbEntity
  8
SUNPOU
100
AcDbMText
 10
36210.53588614687
 20
27364.18586377937
 30
0.0
 40
10.5
 41
0.0
 71
     7
 72
     5
  1

1001
ACAD
1000
MTEXTBEGIN
1070
    73
1070
     1
1070
    44
1040
1.0
1070
    74
1070
     0
1000
MTEXTEND
  0
MTEXT
  5
55DB
330
1A
100
AcDbEntity
  8
SUNPOU
100
AcDbMText
 10
38021.29879752181
 20
33691.59985125794
 30
0.0
 40
10.5
 41
0.0
 71
     9
 72
     5
  1

1001
ACAD
1000
MTEXTBEGIN
1070
    73
1070
     1
1070
    44
1040
1.0
1070
    74
1070
     0
1000
MTEXTEND
  0
MTEXT
  5
55DC
330
1A
100
AcDbEntity
  8
SUNPOU
100
AcDbMText
 10
46743.46636343979
 20
41107.4343827954
 30
0.0
 40
10.5
 41
0.0
 71
     9
 72
     5
  1

1001
ACAD
1000
MTEXTBEGIN
1070
    73
1070
     1
1070
    44
1040
1.0
1070
    74
1070
     0
1000
MTEXTEND
  0
MTEXT
  5
55DD
330
1A
100
AcDbEntity
  8
SUNPOU
100
AcDbMText
 10
65697.22508076974
 20
58574.01043528746
 30
0.0
 40
10.5
 41
0.0
 71
     9
 72
     5
  1

1001
ACAD
1000
MTEXTBEGIN
1070
    73
1070
     1
1070
    44
1040
1.0
1070
    74
1070
     0
1000
MTEXTEND
  0
MTEXT
  5
55DE
330
1A
100
AcDbEntity
  8
SUNPOU
100
AcDbMText
 10
67640.63232747917
 20
56772.96135540945
 30
0.0
 40
3.5
 41
0.0
 71
     9
 72
     5
  1

1001
ACAD
1000
MTEXTBEGIN
1070
    73
1070
     1
1070
    44
1040
1.0
1070
    74
1070
     0
1000
MTEXTEND
  0
MTEXT
  5
55DF
330
1A
100
AcDbEntity
  8
SUNPOU
100
AcDbMText
 10
98766.81216009886
 20
99267.9070230668
 30
0.0
 40
10.5
 41
0.0
 71
     9
 72
     5
  1

1001
ACAD
1000
MTEXTBEGIN
1070
    73
1070
     1
1070
    44
1040
1.0
1070
    74
1070
     0
1000
MTEXTEND
  0
MTEXT
  5
55E0
330
1A
100
AcDbEntity
  8
SUNPOU
100
AcDbMText
 10
100710.2194068083
 20
97466.85794318876
 30
0.0
 40
3.5
 41
0.0
 71
     9
 72
     5
  1

1001
ACAD
1000
MTEXTBEGIN
1070
    73
1070
     1
1070
    44
1040
1.0
1070
    74
1070
     0
1000
MTEXTEND
  0
MTEXT
  5
55E1
330
1A
100
AcDbEntity
  8
SUNPOU
100
AcDbMText
 10
49207.07986589443
 20
45101.07217804184
 30
0.0
 40
10.5
 41
0.0
 71
     9
 72
     5
  1

1001
ACAD
1000
MTEXTBEGIN
1070
    73
1070
     1
1070
    44
1040
1.0
1070
    74
1070
     0
1000
MTEXTEND
  0
MTEXT
  5
55E2
330
1A
100
AcDbEntity
  8
SUNPOU
100
AcDbMText
 10
35259.07976551845
 20
25928.67303892964
 30
0.0
 40
3.5
 41
0.0
 71
     7
 72
     5
  1

1001
ACAD
1000
MTEXTBEGIN
1070
    73
1070
     1
1070
    44
1040
1.0
1070
    74
1070
     0
1000
MTEXTEND
  0
MTEXT
  5
55E3
330
1A
100
AcDbEntity
  8
SUNPOU
100
AcDbMText
 10
48951.43044828905
 20
35287.73625995099
 30
0.0
 40
10.5
 41
0.0
 71
     9
 72
     5
  1

1001
ACAD
1000
MTEXTBEGIN
1070
    73
1070
     1
1070
    44
1040
1.0
1070
    74
1070
     0
1000
MTEXTEND
  0
MTEXT
  5
55E4
330
1A
100
AcDbEntity
  8
SUNPOU
100
AcDbMText
 10
57673.59801420702
 20
42703.57079148847
 30
0.0
 40
10.5
 41
0.0
 71
     9
 72
     5
  1

1001
ACAD
1000
MTEXTBEGIN
1070
    73
1070
     1
1070
    44
1040
1.0
1070
    74
1070
     0
1000
MTEXTEND
  0
MTEXT
  5
55E5
330
1A
100
AcDbEntity
  8
SUNPOU
100
AcDbMText
 10
76627.35673153699
 20
60170.14684398051
 30
0.0
 40
10.5
 41
0.0
 71
     9
 72
     5
  1

1001
ACAD
1000
MTEXTBEGIN
1070
    73
1070
     1
1070
    44
1040
1.0
1070
    74
1070
     0
1000
MTEXTEND
  0
MTEXT
  5
55E6
330
1A
100
AcDbEntity
  8
SUNPOU
100
AcDbMText
 10
78570.76397824641
 20
58369.09776410251
 30
0.0
 40
3.5
 41
0.0
 71
     9
 72
     5
  1

1001
ACAD
1000
MTEXTBEGIN
1070
    73
1070
     1
1070
    44
1040
1.0
1070
    74
1070
     0
1000
MTEXTEND
  0
MTEXT
  5
55E7
330
1A
100
AcDbEntity
  8
SUNPOU
100
AcDbMText
 10
109696.943810866
 20
100864.0434317598
 30
0.0
 40
10.5
 41
0.0
 71
     9
 72
     5
  1

1001
ACAD
1000
MTEXTBEGIN
1070
    73
1070
     1
1070
    44
1040
1.0
1070
    74
1070
     0
1000
MTEXTEND
  0
MTEXT
  5
55E8
330
1A
100
AcDbEntity
  8
SUNPOU
100
AcDbMText
 10
111640.3510575755
 20
99062.99435188183
 30
0.0
 40
3.5
 41
0.0
 71
     9
 72
     5
  1

1001
ACAD
1000
MTEXTBEGIN
1070
    73
1070
     1
1070
    44
1040
1.0
1070
    74
1070
     0
1000
MTEXTEND
  0
MTEXT
  5
55E9
330
1A
100
AcDbEntity
  8
SUNPOU
100
AcDbMText
 10
60137.21151666167
 20
46697.20858673491
 30
0.0
 40
10.5
 41
0.0
 71
     9
 72
     5
  1

1001
ACAD
1000
MTEXTBEGIN
1070
    73
1070
     1
1070
    44
1040
1.0
1070
    74
1070
     0
1000
MTEXTEND
  0
MTEXT
  5
55EA
330
1A
100
AcDbEntity
  8
SUNPOU
100
AcDbMText
 10
46189.21141628568
 20
27524.80944762269
 30
0.0
 40
3.5
 41
0.0
 71
     7
 72
     5
  1

1001
ACAD
1000
MTEXTBEGIN
1070
    73
1070
     1
1070
    44
1040
1.0
1070
    74
1070
     0
1000
MTEXTEND
  0
MTEXT
  5
55EB
330
1A
100
AcDbEntity
  8
SUNPOU
100
AcDbMText
 10
45007.68847015541
 20
38269.57947701873
 30
0.0
 40
10.5
 41
0.0
 71
     9
 72
     5
  1

1001
ACAD
1000
MTEXTBEGIN
1070
    73
1070
     1
1070
    44
1040
1.0
1070
    74
1070
     0
1000
MTEXTEND
  0
MTEXT
  5
55EC
330
1A
100
AcDbEntity
  8
SUNPOU
100
AcDbMText
 10
63961.44718748539
 20
55736.15552951081
 30
0.0
 40
10.5
 41
0.0
 71
     9
 72
     5
  1

1001
ACAD
1000
MTEXTBEGIN
1070
    73
1070
     1
1070
    44
1040
1.0
1070
    74
1070
     0
1000
MTEXTEND
  0
MTEXT
  5
55ED
330
1A
100
AcDbEntity
  8
SUNPOU
100
AcDbMText
 10
65904.85443419479
 20
53935.10644963278
 30
0.0
 40
3.5
 41
0.0
 71
     9
 72
     5
  1

1001
ACAD
1000
MTEXTBEGIN
1070
    73
1070
     1
1070
    44
1040
1.0
1070
    74
1070
     0
1000
MTEXTEND
  0
MTEXT
  5
55EE
330
1A
100
AcDbEntity
  8
SUNPOU
100
AcDbMText
 10
97031.03426681453
 20
96430.05211729015
 30
0.0
 40
10.5
 41
0.0
 71
     9
 72
     5
  1

1001
ACAD
1000
MTEXTBEGIN
1070
    73
1070
     1
1070
    44
1040
1.0
1070
    74
1070
     0
1000
MTEXTEND
  0
MTEXT
  5
55EF
330
1A
100
AcDbEntity
  8
SUNPOU
100
AcDbMText
 10
98974.44151352393
 20
94629.00303741212
 30
0.0
 40
3.5
 41
0.0
 71
     9
 72
     5
  1

1001
ACAD
1000
MTEXTBEGIN
1070
    73
1070
     1
1070
    44
1040
1.0
1070
    74
1070
     0
1000
MTEXTEND
  0
MTEXT
  5
55F0
330
1A
100
AcDbEntity
  8
SUNPOU
100
AcDbMText
 10
47471.30197261006
 20
42263.21727226519
 30
0.0
 40
10.5
 41
0.0
 71
     9
 72
     5
  1

1001
ACAD
1000
MTEXTBEGIN
1070
    73
1070
     1
1070
    44
1040
1.0
1070
    74
1070
     0
1000
MTEXTEND
  0
MTEXT
  5
55F1
330
1A
100
AcDbEntity
  8
SUNPOU
100
AcDbMText
 10
33523.30187223408
 20
23090.81813315298
 30
0.0
 40
3.5
 41
0.0
 71
     7
 72
     5
  1

1001
ACAD
1000
MTEXTBEGIN
1070
    73
1070
     1
1070
    44
1040
1.0
1070
    74
1070
     0
1000
MTEXTEND
  0
MTEXT
  5
55F2
330
1A
100
AcDbEntity
  8
SUNPOU
100
AcDbMText
 10
57959.46254102503
 20
50038.08111611014
 30
0.0
 40
10.5
 41
0.0
 71
     9
 72
     5
  1

1001
ACAD
1000
MTEXTBEGIN
1070
    73
1070
     1
1070
    44
1040
1.0
1070
    74
1070
     0
1000
MTEXTEND
  0
MTEXT
  5
55F3
330
1A
100
AcDbEntity
  8
SUNPOU
100
AcDbMText
 10
76913.22125835503
 20
67504.65716860222
 30
0.0
 40
10.5
 41
0.0
 71
     9
 72
     5
  1

1001
ACAD
1000
MTEXTBEGIN
1070
    73
1070
     1
1070
    44
1040
1.0
1070
    74
1070
     0
1000
MTEXTEND
  0
MTEXT
  5
55F4
330
1A
100
AcDbEntity
  8
SUNPOU
100
AcDbMText
 10
78856.62850506443
 20
65703.6080887242
 30
0.0
 40
3.5
 41
0.0
 71
     9
 72
     5
  1

1001
ACAD
1000
MTEXTBEGIN
1070
    73
1070
     1
1070
    44
1040
1.0
1070
    74
1070
     0
1000
MTEXTEND
  0
MTEXT
  5
55F5
330
1A
100
AcDbEntity
  8
SUNPOU
100
AcDbMText
 10
109982.8083376841
 20
108198.5537563815
 30
0.0
 40
10.5
 41
0.0
 71
     9
 72
     5
  1

1001
ACAD
1000
MTEXTBEGIN
1070
    73
1070
     1
1070
    44
1040
1.0
1070
    74
1070
     0
1000
MTEXTEND
  0
MTEXT
  5
55F6
330
1A
100
AcDbEntity
  8
SUNPOU
100
AcDbMText
 10
111926.2155843934
 20
106397.5046765035
 30
0.0
 40
3.5
 41
0.0
 71
     9
 72
     5
  1

1001
ACAD
1000
MTEXTBEGIN
1070
    73
1070
     1
1070
    44
1040
1.0
1070
    74
1070
     0
1000
MTEXTEND
  0
MTEXT
  5
55F7
330
1A
100
AcDbEntity
  8
SUNPOU
100
AcDbMText
 10
60423.07604347968
 20
54031.71891135658
 30
0.0
 40
10.5
 41
0.0
 71
     9
 72
     5
  1

1001
ACAD
1000
MTEXTBEGIN
1070
    73
1070
     1
1070
    44
1040
1.0
1070
    74
1070
     0
1000
MTEXTEND
  0
MTEXT
  5
55F8
330
1A
100
AcDbEntity
  8
SUNPOU
100
AcDbMText
 10
46475.07594310369
 20
34859.3197722444
 30
0.0
 40
3.5
 41
0.0
 71
     7
 72
     5
  1

1001
ACAD
1000
MTEXTBEGIN
1070
    73
1070
     1
1070
    44
1040
1.0
1070
    74
1070
     0
1000
MTEXTEND
  0
MTEXT
  5
55F9
330
1A
100
AcDbEntity
  8
SUNPOU
100
AcDbMText
 10
74027.35402123588
 20
68370.58278833383
 30
0.0
 40
10.5
 41
0.0
 71
     9
 72
     5
  1

1001
ACAD
1000
MTEXTBEGIN
1070
    73
1070
     1
1070
    44
1040
1.0
1070
    74
1070
     0
1000
MTEXTEND
  0
MTEXT
  5
55FA
330
1A
100
AcDbEntity
  8
SUNPOU
100
AcDbMText
 10
75970.7612679453
 20
66569.53370845583
 30
0.0
 40
3.5
 41
0.0
 71
     9
 72
     5
  1

1001
ACAD
1000
MTEXTBEGIN
1070
    73
1070
     1
1070
    44
1040
1.0
1070
    74
1070
     0
1000
MTEXTEND
  0
MTEXT
  5
55FB
330
1A
100
AcDbEntity
  8
SUNPOU
100
AcDbMText
 10
107096.941100565
 20
109064.4793761132
 30
0.0
 40
10.5
 41
0.0
 71
     9
 72
     5
  1

1001
ACAD
1000
MTEXTBEGIN
1070
    73
1070
     1
1070
    44
1040
1.0
1070
    74
1070
     0
1000
MTEXTEND
  0
MTEXT
  5
55FC
330
1A
100
AcDbEntity
  8
SUNPOU
100
AcDbMText
 10
109040.3483472744
 20
107263.430296235
 30
0.0
 40
3.5
 41
0.0
 71
     9
 72
     5
  1

1001
ACAD
1000
MTEXTBEGIN
1070
    73
1070
     1
1070
    44
1040
1.0
1070
    74
1070
     0
1000
MTEXTEND
  0
MTEXT
  5
55FD
330
1A
100
AcDbEntity
  8
SUNPOU
100
AcDbMText
 10
105709.1709283621
 20
108141.3777665285
 30
0.0
 40
10.5
 41
0.0
 71
     9
 72
     5
  1

1001
ACAD
1000
MTEXTBEGIN
1070
    73
1070
     1
1070
    44
1040
1.0
1070
    74
1070
     0
1000
MTEXTEND
  0
MTEXT
  5
55FE
330
1A
100
AcDbEntity
  8
SUNPOU
100
AcDbMText
 10
107652.5781750715
 20
106340.3286866505
 30
0.0
 40
3.5
 41
0.0
 71
     9
 72
     5
  1

1001
ACAD
1000
MTEXTBEGIN
1070
    73
1070
     1
1070
    44
1040
1.0
1070
    74
1070
     0
1000
MTEXTEND
  0
MTEXT
  5
55FF
330
1A
100
AcDbEntity
  8
SUNPOU
100
AcDbMText
 10
73193.09268743351
 20
66158.78082845057
 30
0.0
 40
10.5
 41
0.0
 71
     9
 72
     5
  1

1001
ACAD
1000
MTEXTBEGIN
1070
    73
1070
     1
1070
    44
1040
1.0
1070
    74
1070
     0
1000
MTEXTEND
  0
MTEXT
  5
5600
330
1A
100
AcDbEntity
  8
SUNPOU
100
AcDbMText
 10
75916.39889159807
 20
66563.46252003162
 30
0.0
 40
3.5
 41
0.0
 71
     9
 72
     5
  1

1001
ACAD
1000
MTEXTBEGIN
1070
    73
1070
     1
1070
    44
1040
1.0
1070
    74
1070
     0
1000
MTEXTEND
  0
MTEXT
  5
5601
330
1A
100
AcDbEntity
  8
SUNPOU
100
AcDbMText
 10
75124.04436649058
 20
63402.1566819768
 30
0.0
 40
10.5
 41
0.0
 71
     9
 72
     5
  1

1001
ACAD
1000
MTEXTBEGIN
1070
    73
1070
     1
1070
    44
1040
1.0
1070
    74
1070
     0
1000
MTEXTEND
  0
MTEXT
  5
5602
330
1A
100
AcDbEntity
  8
SUNPOU
100
AcDbMText
 10
77067.4516132
 20
61601.1076020988
 30
0.0
 40
3.5
 41
0.0
 71
     9
 72
     5
  1

1001
ACAD
1000
MTEXTBEGIN
1070
    73
1070
     1
1070
    44
1040
1.0
1070
    74
1070
     0
1000
MTEXTEND
  0
MTEXT
  5
5603
330
1A
100
AcDbEntity
  8
SUNPOU
100
AcDbMText
 10
77012.54710378659
 20
61488.33571981449
 30
0.0
 40
3.5
 41
0.0
 71
     9
 72
     5
  1

1001
ACAD
1000
MTEXTBEGIN
1070
    73
1070
     1
1070
    44
1040
1.0
1070
    74
1070
     0
1000
MTEXTEND
  0
MTEXT
  5
5604
330
1A
100
AcDbEntity
  8
SUNPOU
100
AcDbMText
 10
76376.61896736668
 20
60677.01447874798
 30
0.0
 40
3.5
 41
0.0
 71
     9
 72
     5
  1

1001
ACAD
1000
MTEXTBEGIN
1070
    73
1070
     1
1070
    44
1040
1.0
1070
    74
1070
     0
1000
MTEXTEND
  0
MTEXT
  5
5605
330
1A
100
AcDbEntity
  8
SUNPOU
100
AcDbMText
 10
76375.37854794595
 20
60676.76650181048
 30
0.0
 40
10.5
 41
0.0
 71
     9
 72
     5
  1

1001
ACAD
1000
MTEXTBEGIN
1070
    73
1070
     1
1070
    44
1040
1.0
1070
    74
1070
     0
1000
MTEXTEND
  0
MTEXT
  5
5606
330
1A
100
AcDbEntity
  8
SUNPOU
100
AcDbMText
 10
84709.93991079748
 20
78034.0328293557
 30
0.0
 40
10.5
 41
0.0
 71
     9
 72
     5
  1

1001
ACAD
1000
MTEXTBEGIN
1070
    73
1070
     1
1070
    44
1040
1.0
1070
    74
1070
     0
1000
MTEXTEND
  0
MTEXT
  5
5607
330
1A
100
AcDbEntity
  8
SUNPOU
100
AcDbMText
 10
93432.10747671546
 20
85449.86736089315
 30
0.0
 40
10.5
 41
0.0
 71
     9
 72
     5
  1

1001
ACAD
1000
MTEXTBEGIN
1070
    73
1070
     1
1070
    44
1040
1.0
1070
    74
1070
     0
1000
MTEXTEND
  0
MTEXT
  5
5608
330
1A
100
AcDbEntity
  8
SUNPOU
100
AcDbMText
 10
112385.8661940454
 20
102916.4434133851
 30
0.0
 40
10.5
 41
0.0
 71
     9
 72
     5
  1

1001
ACAD
1000
MTEXTBEGIN
1070
    73
1070
     1
1070
    44
1040
1.0
1070
    74
1070
     0
1000
MTEXTEND
  0
MTEXT
  5
5609
330
1A
100
AcDbEntity
  8
SUNPOU
100
AcDbMText
 10
114329.2734407548
 20
101115.3943335072
 30
0.0
 40
3.5
 41
0.0
 71
     9
 72
     5
  1

1001
ACAD
1000
MTEXTBEGIN
1070
    73
1070
     1
1070
    44
1040
1.0
1070
    74
1070
     0
1000
MTEXTEND
  0
MTEXT
  5
560A
330
1A
100
AcDbEntity
  8
SUNPOU
100
AcDbMText
 10
145455.4532733745
 20
143610.3400011645
 30
0.0
 40
10.5
 41
0.0
 71
     9
 72
     5
  1

1001
ACAD
1000
MTEXTBEGIN
1070
    73
1070
     1
1070
    44
1040
1.0
1070
    74
1070
     0
1000
MTEXTEND
  0
MTEXT
  5
560B
330
1A
100
AcDbEntity
  8
SUNPOU
100
AcDbMText
 10
147398.8605200839
 20
141809.2909212864
 30
0.0
 40
3.5
 41
0.0
 71
     9
 72
     5
  1

1001
ACAD
1000
MTEXTBEGIN
1070
    73
1070
     1
1070
    44
1040
1.0
1070
    74
1070
     0
1000
MTEXTEND
  0
MTEXT
  5
560C
330
1A
100
AcDbEntity
  8
SUNPOU
100
AcDbMText
 10
95895.72097917011
 20
89443.50515613962
 30
0.0
 40
10.5
 41
0.0
 71
     9
 72
     5
  1

1001
ACAD
1000
MTEXTBEGIN
1070
    73
1070
     1
1070
    44
1040
1.0
1070
    74
1070
     0
1000
MTEXTEND
  0
MTEXT
  5
560D
330
1A
100
AcDbEntity
  8
SUNPOU
100
AcDbMText
 10
81947.72087879414
 20
70271.1060170274
 30
0.0
 40
3.5
 41
0.0
 71
     7
 72
     5
  1

1001
ACAD
1000
MTEXTBEGIN
1070
    73
1070
     1
1070
    44
1040
1.0
1070
    74
1070
     0
1000
MTEXTEND
  0
MTEXT
  5
560E
330
1A
100
AcDbEntity
  8
SUNPOU
100
AcDbMText
 10
62932.89027578729
 20
58033.25474784561
 30
0.0
 40
10.5
 41
0.0
 71
     7
 72
     5
  1

1001
ACAD
1000
MTEXTBEGIN
1070
    73
1070
     1
1070
    44
1040
1.0
1070
    74
1070
     0
1000
MTEXTEND
  0
MTEXT
  5
560F
330
1A
100
AcDbEntity
  8
SUNPOU
100
AcDbMText
 10
50475.66201083918
 20
42188.32316974718
 30
0.0
 40
35.0
 41
0.0
 71
     9
 72
     5
  1

1001
ACAD
1000
MTEXTBEGIN
1070
    73
1070
     1
1070
    44
1040
1.0
1070
    74
1070
     0
1000
MTEXTEND
  0
MTEXT
  5
5610
330
1A
100
AcDbEntity
  8
SUNPOU
100
AcDbMText
 10
49384.14706841413
 20
42797.0985797959
 30
0.0
 40
350.0000004171781
 41
0.0
 71
     7
 72
     5
  1

1001
ACAD
1000
MTEXTBEGIN
1070
    73
1070
     1
1070
    44
1040
1.0
1070
    74
1070
     0
1000
MTEXTEND
  0
MTEXT
  5
5611
330
1A
100
AcDbEntity
  8
0
100
AcDbMText
 10
55428.09782635704
 20
40777.0209419321
 30
0.0
 40
8.0
 41
0.0
 71
     7
 72
     5
  1

1001
ACAD
1000
MTEXTBEGIN
1070
    73
1070
     1
1070
    44
1040
1.0
1070
    74
1070
     0
1000
MTEXTEND
  0
MTEXT
  5
5612
330
1A
100
AcDbEntity
  8
0
100
AcDbMText
 10
57713.45551625193
 20
41747.81123668316
 30
0.0
 40
8.0
 41
0.0
 71
     7
 72
     5
  1

1001
ACAD
1000
MTEXTBEGIN
1070
    73
1070
     1
1070
    44
1040
1.0
1070
    74
1070
     0
1000
MTEXTEND
  0
MTEXT
  5
5613
330
1A
100
AcDbEntity
  8
SUNPOU
100
AcDbMText
 10
60379.35253693407
 20
51259.9226290583
 30
0.0
 40
10.5
 41
0.0
 71
     1
 72
     5
  1

1001
ACAD
1000
MTEXTBEGIN
1070
    73
1070
     1
1070
    44
1040
1.0
1070
    74
1070
     0
1000
MTEXTEND
  0
MTEXT
  5
5614
330
1A
100
AcDbEntity
  8
SUNPOU
100
AcDbMText
 10
52448.42934099813
 20
50313.12949514535
 30
0.0
 40
10.5
 41
0.0
 71
     7
 72
     5
  1

1001
ACAD
1000
MTEXTBEGIN
1070
    73
1070
     1
1070
    44
1040
1.0
1070
    74
1070
     0
1000
MTEXTEND
  0
MTEXT
  5
5615
330
1A
100
AcDbEntity
  8
SUNPOU
100
AcDbMText
 10
55397.4130055109
 20
55213.80556698819
 30
0.0
 40
10.5
 41
0.0
 71
     7
 72
     5
  1

1001
ACAD
1000
MTEXTBEGIN
1070
    73
1070
     1
1070
    44
1040
1.0
1070
    74
1070
     0
1000
MTEXTEND
  0
MTEXT
  5
5616
330
1A
100
AcDbEntity
  8
SUNPOU
100
AcDbMText
 10
59906.49113346147
 20
57650.10631460826
 30
0.0
 40
10.5
 41
0.0
 71
     7
 72
     5
  1

1001
ACAD
1000
MTEXTBEGIN
1070
    73
1070
     1
1070
    44
1040
1.0
1070
    74
1070
     0
1000
MTEXTEND
  0
MTEXT
  5
5617
330
1A
100
AcDbEntity
  8
SUNPOU
100
AcDbMText
 10
43507.32902022978
 20
36647.70246499718
 30
0.0
 40
10.5
 41
0.0
 71
     7
 72
     5
  1

1001
ACAD
1000
MTEXTBEGIN
1070
    73
1070
     1
1070
    44
1040
1.0
1070
    74
1070
     0
1000
MTEXTEND
  0
MTEXT
  5
5618
330
1A
100
AcDbEntity
  8
SUNPOU
100
AcDbMText
 10
94698.84745413006
 20
82320.68302864544
 30
0.0
 40
10.5
 41
0.0
 71
     9
 72
     5
  1

1001
ACAD
1000
MTEXTBEGIN
1070
    73
1070
     1
1070
    44
1040
1.0
1070
    74
1070
     0
1000
MTEXTEND
  0
MTEXT
  5
5619
330
1A
100
AcDbEntity
  8
SUNPOU
100
AcDbMText
 10
103421.015020048
 20
89736.5175601829
 30
0.0
 40
10.5
 41
0.0
 71
     9
 72
     5
  1

1001
ACAD
1000
MTEXTBEGIN
1070
    73
1070
     1
1070
    44
1040
1.0
1070
    74
1070
     0
1000
MTEXTEND
  0
MTEXT
  5
561A
330
1A
100
AcDbEntity
  8
SUNPOU
100
AcDbMText
 10
122374.773737378
 20
107203.0936126749
 30
0.0
 40
10.5
 41
0.0
 71
     9
 72
     5
  1

1001
ACAD
1000
MTEXTBEGIN
1070
    73
1070
     1
1070
    44
1040
1.0
1070
    74
1070
     0
1000
MTEXTEND
  0
MTEXT
  5
561B
330
1A
100
AcDbEntity
  8
SUNPOU
100
AcDbMText
 10
124318.1809840874
 20
105402.0445327969
 30
0.0
 40
3.5
 41
0.0
 71
     9
 72
     5
  1

1001
ACAD
1000
MTEXTBEGIN
1070
    73
1070
     1
1070
    44
1040
1.0
1070
    74
1070
     0
1000
MTEXTEND
  0
MTEXT
  5
561C
330
1A
100
AcDbEntity
  8
SUNPOU
100
AcDbMText
 10
155444.3608167071
 20
147896.9902004542
 30
0.0
 40
10.5
 41
0.0
 71
     9
 72
     5
  1

1001
ACAD
1000
MTEXTBEGIN
1070
    73
1070
     1
1070
    44
1040
1.0
1070
    74
1070
     0
1000
MTEXTEND
  0
MTEXT
  5
561D
330
1A
100
AcDbEntity
  8
SUNPOU
100
AcDbMText
 10
157387.7680634165
 20
146095.9411205762
 30
0.0
 40
3.5
 41
0.0
 71
     9
 72
     5
  1

1001
ACAD
1000
MTEXTBEGIN
1070
    73
1070
     1
1070
    44
1040
1.0
1070
    74
1070
     0
1000
MTEXTEND
  0
MTEXT
  5
561E
330
1A
100
AcDbEntity
  8
SUNPOU
100
AcDbMText
 10
105884.6285225027
 20
93730.15535542933
 30
0.0
 40
10.5
 41
0.0
 71
     9
 72
     5
  1

1001
ACAD
1000
MTEXTBEGIN
1070
    73
1070
     1
1070
    44
1040
1.0
1070
    74
1070
     0
1000
MTEXTEND
  0
MTEXT
  5
561F
330
1A
100
AcDbEntity
  8
SUNPOU
100
AcDbMText
 10
91936.6284221267
 20
74557.75621631714
 30
0.0
 40
3.5
 41
0.0
 71
     7
 72
     5
  1

1001
ACAD
1000
MTEXTBEGIN
1070
    73
1070
     1
1070
    44
1040
1.0
1070
    74
1070
     0
1000
MTEXTEND
  0
MTEXT
  5
5620
330
1A
100
AcDbEntity
  8
SUNPOU
100
AcDbMText
 10
72921.79781911986
 20
62319.90494713532
 30
0.0
 40
10.5
 41
0.0
 71
     7
 72
     5
  1

1001
ACAD
1000
MTEXTBEGIN
1070
    73
1070
     1
1070
    44
1040
1.0
1070
    74
1070
     0
1000
MTEXTEND
  0
MTEXT
  5
5621
330
1A
100
AcDbEntity
  8
SUNPOU
100
AcDbMText
 10
60464.56955417175
 20
46474.97336903692
 30
0.0
 40
35.0
 41
0.0
 71
     9
 72
     5
  1

1001
ACAD
1000
MTEXTBEGIN
1070
    73
1070
     1
1070
    44
1040
1.0
1070
    74
1070
     0
1000
MTEXTEND
  0
MTEXT
  5
5622
330
1A
100
AcDbEntity
  8
SUNPOU
100
AcDbMText
 10
59373.05461174673
 20
47083.74877908561
 30
0.0
 40
350.0000004171781
 41
0.0
 71
     7
 72
     5
  1

1001
ACAD
1000
MTEXTBEGIN
1070
    73
1070
     1
1070
    44
1040
1.0
1070
    74
1070
     0
1000
MTEXTEND
  0
MTEXT
  5
5623
330
1A
100
AcDbEntity
  8
0
100
AcDbMText
 10
65417.00536968963
 20
45063.67114122186
 30
0.0
 40
8.0
 41
0.0
 71
     7
 72
     5
  1

1001
ACAD
1000
MTEXTBEGIN
1070
    73
1070
     1
1070
    44
1040
1.0
1070
    74
1070
     0
1000
MTEXTEND
  0
MTEXT
  5
5624
330
1A
100
AcDbEntity
  8
0
100
AcDbMText
 10
67702.36305958452
 20
46034.46143597292
 30
0.0
 40
8.0
 41
0.0
 71
     7
 72
     5
  1

1001
ACAD
1000
MTEXTBEGIN
1070
    73
1070
     1
1070
    44
1040
1.0
1070
    74
1070
     0
1000
MTEXTEND
  0
MTEXT
  5
5625
330
1A
100
AcDbEntity
  8
SUNPOU
100
AcDbMText
 10
70368.26008026666
 20
55546.57282834803
 30
0.0
 40
10.5
 41
0.0
 71
     1
 72
     5
  1

1001
ACAD
1000
MTEXTBEGIN
1070
    73
1070
     1
1070
    44
1040
1.0
1070
    74
1070
     0
1000
MTEXTEND
  0
MTEXT
  5
5626
330
1A
100
AcDbEntity
  8
SUNPOU
100
AcDbMText
 10
62437.33688433072
 20
54599.77969443507
 30
0.0
 40
10.5
 41
0.0
 71
     7
 72
     5
  1

1001
ACAD
1000
MTEXTBEGIN
1070
    73
1070
     1
1070
    44
1040
1.0
1070
    74
1070
     0
1000
MTEXTEND
  0
MTEXT
  5
5627
330
1A
100
AcDbEntity
  8
SUNPOU
100
AcDbMText
 10
65386.32054884348
 20
59500.45576627792
 30
0.0
 40
10.5
 41
0.0
 71
     7
 72
     5
  1

1001
ACAD
1000
MTEXTBEGIN
1070
    73
1070
     1
1070
    44
1040
1.0
1070
    74
1070
     0
1000
MTEXTEND
  0
MTEXT
  5
5628
330
1A
100
AcDbEntity
  8
SUNPOU
100
AcDbMText
 10
69895.39867679405
 20
61936.756513898
 30
0.0
 40
10.5
 41
0.0
 71
     7
 72
     5
  1

1001
ACAD
1000
MTEXTBEGIN
1070
    73
1070
     1
1070
    44
1040
1.0
1070
    74
1070
     0
1000
MTEXTEND
  0
MTEXT
  5
5629
330
1A
100
AcDbEntity
  8
SUNPOU
100
AcDbMText
 10
53496.23656356237
 20
40934.35266428691
 30
0.0
 40
10.5
 41
0.0
 71
     7
 72
     5
  1

1001
ACAD
1000
MTEXTBEGIN
1070
    73
1070
     1
1070
    44
1040
1.0
1070
    74
1070
     0
1000
MTEXTEND
  0
MTEXT
  5
562A
330
1A
100
AcDbEntity
  8
SUNPOU
100
AcDbMText
 10
55306.99947493731
 20
47261.76665176546
 30
0.0
 40
10.5
 41
0.0
 71
     9
 72
     5
  1

1001
ACAD
1000
MTEXTBEGIN
1070
    73
1070
     1
1070
    44
1040
1.0
1070
    74
1070
     0
1000
MTEXTEND
  0
MTEXT
  5
562B
330
1A
100
AcDbEntity
  8
SUNPOU
100
AcDbMText
 10
64029.16704085527
 20
54677.60118330295
 30
0.0
 40
10.5
 41
0.0
 71
     9
 72
     5
  1

1001
ACAD
1000
MTEXTBEGIN
1070
    73
1070
     1
1070
    44
1040
1.0
1070
    74
1070
     0
1000
MTEXTEND
  0
MTEXT
  5
562C
330
1A
100
AcDbEntity
  8
SUNPOU
100
AcDbMText
 10
82982.92575818527
 20
72144.17723579499
 30
0.0
 40
10.5
 41
0.0
 71
     9
 72
     5
  1

1001
ACAD
1000
MTEXTBEGIN
1070
    73
1070
     1
1070
    44
1040
1.0
1070
    74
1070
     0
1000
MTEXTEND
  0
MTEXT
  5
562D
330
1A
100
AcDbEntity
  8
SUNPOU
100
AcDbMText
 10
84926.33300489467
 20
70343.12815591697
 30
0.0
 40
3.5
 41
0.0
 71
     9
 72
     5
  1

1001
ACAD
1000
MTEXTBEGIN
1070
    73
1070
     1
1070
    44
1040
1.0
1070
    74
1070
     0
1000
MTEXTEND
  0
MTEXT
  5
562E
330
1A
100
AcDbEntity
  8
SUNPOU
100
AcDbMText
 10
116052.5128375142
 20
112838.0738235742
 30
0.0
 40
10.5
 41
0.0
 71
     9
 72
     5
  1

1001
ACAD
1000
MTEXTBEGIN
1070
    73
1070
     1
1070
    44
1040
1.0
1070
    74
1070
     0
1000
MTEXTEND
  0
MTEXT
  5
562F
330
1A
100
AcDbEntity
  8
SUNPOU
100
AcDbMText
 10
117995.9200842238
 20
111037.0247436963
 30
0.0
 40
3.5
 41
0.0
 71
     9
 72
     5
  1

1001
ACAD
1000
MTEXTBEGIN
1070
    73
1070
     1
1070
    44
1040
1.0
1070
    74
1070
     0
1000
MTEXTEND
  0
MTEXT
  5
5630
330
1A
100
AcDbEntity
  8
SUNPOU
100
AcDbMText
 10
66492.78054330994
 20
58671.23897854939
 30
0.0
 40
10.5
 41
0.0
 71
     9
 72
     5
  1

1001
ACAD
1000
MTEXTBEGIN
1070
    73
1070
     1
1070
    44
1040
1.0
1070
    74
1070
     0
1000
MTEXTEND
  0
MTEXT
  5
5631
330
1A
100
AcDbEntity
  8
SUNPOU
100
AcDbMText
 10
52544.78044293397
 20
39498.83983943717
 30
0.0
 40
3.5
 41
0.0
 71
     7
 72
     5
  1

1001
ACAD
1000
MTEXTBEGIN
1070
    73
1070
     1
1070
    44
1040
1.0
1070
    74
1070
     0
1000
MTEXTEND
  0
MTEXT
  5
5632
330
1A
100
AcDbEntity
  8
SUNPOU
100
AcDbMText
 10
66237.13112570454
 20
48857.90306045851
 30
0.0
 40
10.5
 41
0.0
 71
     9
 72
     5
  1

1001
ACAD
1000
MTEXTBEGIN
1070
    73
1070
     1
1070
    44
1040
1.0
1070
    74
1070
     0
1000
MTEXTEND
  0
MTEXT
  5
5633
330
1A
100
AcDbEntity
  8
SUNPOU
100
AcDbMText
 10
74959.29869162253
 20
56273.73759199599
 30
0.0
 40
10.5
 41
0.0
 71
     9
 72
     5
  1

1001
ACAD
1000
MTEXTBEGIN
1070
    73
1070
     1
1070
    44
1040
1.0
1070
    74
1070
     0
1000
MTEXTEND
  0
MTEXT
  5
5634
330
1A
100
AcDbEntity
  8
SUNPOU
100
AcDbMText
 10
93913.0574089525
 20
73740.31364448805
 30
0.0
 40
10.5
 41
0.0
 71
     9
 72
     5
  1

1001
ACAD
1000
MTEXTBEGIN
1070
    73
1070
     1
1070
    44
1040
1.0
1070
    74
1070
     0
1000
MTEXTEND
  0
MTEXT
  5
5635
330
1A
100
AcDbEntity
  8
SUNPOU
100
AcDbMText
 10
95856.46465566192
 20
71939.26456461004
 30
0.0
 40
3.5
 41
0.0
 71
     9
 72
     5
  1

1001
ACAD
1000
MTEXTBEGIN
1070
    73
1070
     1
1070
    44
1040
1.0
1070
    74
1070
     0
1000
MTEXTEND
  0
MTEXT
  5
5636
330
1A
100
AcDbEntity
  8
SUNPOU
100
AcDbMText
 10
126982.6444882816
 20
114434.2102322673
 30
0.0
 40
10.5
 41
0.0
 71
     9
 72
     5
  1

1001
ACAD
1000
MTEXTBEGIN
1070
    73
1070
     1
1070
    44
1040
1.0
1070
    74
1070
     0
1000
MTEXTEND
  0
MTEXT
  5
5637
330
1A
100
AcDbEntity
  8
SUNPOU
100
AcDbMText
 10
128926.051734991
 20
112633.1611523893
 30
0.0
 40
3.5
 41
0.0
 71
     9
 72
     5
  1

1001
ACAD
1000
MTEXTBEGIN
1070
    73
1070
     1
1070
    44
1040
1.0
1070
    74
1070
     0
1000
MTEXTEND
  0
MTEXT
  5
5638
330
1A
100
AcDbEntity
  8
SUNPOU
100
AcDbMText
 10
77422.91219407717
 20
60267.37538724244
 30
0.0
 40
10.5
 41
0.0
 71
     9
 72
     5
  1

1001
ACAD
1000
MTEXTBEGIN
1070
    73
1070
     1
1070
    44
1040
1.0
1070
    74
1070
     0
1000
MTEXTEND
  0
MTEXT
  5
5639
330
1A
100
AcDbEntity
  8
SUNPOU
100
AcDbMText
 10
63474.91209370119
 20
41094.97624813023
 30
0.0
 40
3.5
 41
0.0
 71
     7
 72
     5
  1

1001
ACAD
1000
MTEXTBEGIN
1070
    73
1070
     1
1070
    44
1040
1.0
1070
    74
1070
     0
1000
MTEXTEND
  0
MTEXT
  5
563A
330
1A
100
AcDbEntity
  8
SUNPOU
100
AcDbMText
 10
48117.65086229006
 20
40806.11043916631
 30
0.0
 40
10.5
 41
0.0
 71
     9
 72
     5
  1

1001
ACAD
1000
MTEXTBEGIN
1070
    73
1070
     1
1070
    44
1040
1.0
1070
    74
1070
     0
1000
MTEXTEND
  0
MTEXT
  5
563B
330
1A
100
AcDbEntity
  8
SUNPOU
100
AcDbMText
 10
67071.40957962004
 20
58272.68649165838
 30
0.0
 40
10.5
 41
0.0
 71
     9
 72
     5
  1

1001
ACAD
1000
MTEXTBEGIN
1070
    73
1070
     1
1070
    44
1040
1.0
1070
    74
1070
     0
1000
MTEXTEND
  0
MTEXT
  5
563C
330
1A
100
AcDbEntity
  8
SUNPOU
100
AcDbMText
 10
69014.81682632945
 20
56471.63741178035
 30
0.0
 40
3.5
 41
0.0
 71
     9
 72
     5
  1

1001
ACAD
1000
MTEXTBEGIN
1070
    73
1070
     1
1070
    44
1040
1.0
1070
    74
1070
     0
1000
MTEXTEND
  0
MTEXT
  5
563D
330
1A
100
AcDbEntity
  8
SUNPOU
100
AcDbMText
 10
100140.9966589491
 20
98966.58307943773
 30
0.0
 40
10.5
 41
0.0
 71
     9
 72
     5
  1

1001
ACAD
1000
MTEXTBEGIN
1070
    73
1070
     1
1070
    44
1040
1.0
1070
    74
1070
     0
1000
MTEXTEND
  0
MTEXT
  5
563E
330
1A
100
AcDbEntity
  8
SUNPOU
100
AcDbMText
 10
102084.4039056586
 20
97165.53399955968
 30
0.0
 40
3.5
 41
0.0
 71
     9
 72
     5
  1

1001
ACAD
1000
MTEXTBEGIN
1070
    73
1070
     1
1070
    44
1040
1.0
1070
    74
1070
     0
1000
MTEXTEND
  0
MTEXT
  5
563F
330
1A
100
AcDbEntity
  8
SUNPOU
100
AcDbMText
 10
50581.26436474472
 20
44799.74823441275
 30
0.0
 40
10.5
 41
0.0
 71
     9
 72
     5
  1

1001
ACAD
1000
MTEXTBEGIN
1070
    73
1070
     1
1070
    44
1040
1.0
1070
    74
1070
     0
1000
MTEXTEND
  0
MTEXT
  5
5640
330
1A
100
AcDbEntity
  8
SUNPOU
100
AcDbMText
 10
36633.26426436873
 20
25627.34909530054
 30
0.0
 40
3.5
 41
0.0
 71
     7
 72
     5
  1

1001
ACAD
1000
MTEXTBEGIN
1070
    73
1070
     1
1070
    44
1040
1.0
1070
    74
1070
     0
1000
MTEXTEND
  0
MTEXT
  5
5641
330
1A
100
AcDbEntity
  8
SUNPOU
100
AcDbMText
 10
61069.42493315968
 20
52574.61207825771
 30
0.0
 40
10.5
 41
0.0
 71
     9
 72
     5
  1

1001
ACAD
1000
MTEXTBEGIN
1070
    73
1070
     1
1070
    44
1040
1.0
1070
    74
1070
     0
1000
MTEXTEND
  0
MTEXT
  5
5642
330
1A
100
AcDbEntity
  8
SUNPOU
100
AcDbMText
 10
80023.18365048967
 20
70041.18813074978
 30
0.0
 40
10.5
 41
0.0
 71
     9
 72
     5
  1

1001
ACAD
1000
MTEXTBEGIN
1070
    73
1070
     1
1070
    44
1040
1.0
1070
    74
1070
     0
1000
MTEXTEND
  0
MTEXT
  5
5643
330
1A
100
AcDbEntity
  8
SUNPOU
100
AcDbMText
 10
81966.59089719908
 20
68240.13905087176
 30
0.0
 40
3.5
 41
0.0
 71
     9
 72
     5
  1

1001
ACAD
1000
MTEXTBEGIN
1070
    73
1070
     1
1070
    44
1040
1.0
1070
    74
1070
     0
1000
MTEXTEND
  0
MTEXT
  5
5644
330
1A
100
AcDbEntity
  8
SUNPOU
100
AcDbMText
 10
113092.7707298186
 20
110735.0847185291
 30
0.0
 40
10.5
 41
0.0
 71
     9
 72
     5
  1

1001
ACAD
1000
MTEXTBEGIN
1070
    73
1070
     1
1070
    44
1040
1.0
1070
    74
1070
     0
1000
MTEXTEND
  0
MTEXT
  5
5645
330
1A
100
AcDbEntity
  8
SUNPOU
100
AcDbMText
 10
115036.1779765282
 20
108934.0356386511
 30
0.0
 40
3.5
 41
0.0
 71
     9
 72
     5
  1

1001
ACAD
1000
MTEXTBEGIN
1070
    73
1070
     1
1070
    44
1040
1.0
1070
    74
1070
     0
1000
MTEXTEND
  0
MTEXT
  5
5646
330
1A
100
AcDbEntity
  8
SUNPOU
100
AcDbMText
 10
63533.03843561432
 20
56568.24987350415
 30
0.0
 40
10.5
 41
0.0
 71
     9
 72
     5
  1

1001
ACAD
1000
MTEXTBEGIN
1070
    73
1070
     1
1070
    44
1040
1.0
1070
    74
1070
     0
1000
MTEXTEND
  0
MTEXT
  5
5647
330
1A
100
AcDbEntity
  8
SUNPOU
100
AcDbMText
 10
49585.03833523835
 20
37395.85073439196
 30
0.0
 40
3.5
 41
0.0
 71
     7
 72
     5
  1

1001
ACAD
1000
MTEXTBEGIN
1070
    73
1070
     1
1070
    44
1040
1.0
1070
    74
1070
     0
1000
MTEXTEND
  0
MTEXT
  5
5648
330
1A
100
AcDbEntity
  8
SUNPOU
100
AcDbMText
 10
77137.31641337052
 20
70907.11375048141
 30
0.0
 40
10.5
 41
0.0
 71
     9
 72
     5
  1

1001
ACAD
1000
MTEXTBEGIN
1070
    73
1070
     1
1070
    44
1040
1.0
1070
    74
1070
     0
1000
MTEXTEND
  0
MTEXT
  5
5649
330
1A
100
AcDbEntity
  8
SUNPOU
100
AcDbMText
 10
79080.72366007995
 20
69106.06467060339
 30
0.0
 40
3.5
 41
0.0
 71
     9
 72
     5
  1

1001
ACAD
1000
MTEXTBEGIN
1070
    73
1070
     1
1070
    44
1040
1.0
1070
    74
1070
     0
1000
MTEXTEND
  0
MTEXT
  5
564A
330
1A
100
AcDbEntity
  8
SUNPOU
100
AcDbMText
 10
110206.9034926996
 20
111601.0103382607
 30
0.0
 40
10.5
 41
0.0
 71
     9
 72
     5
  1

1001
ACAD
1000
MTEXTBEGIN
1070
    73
1070
     1
1070
    44
1040
1.0
1070
    74
1070
     0
1000
MTEXTEND
  0
MTEXT
  5
564B
330
1A
100
AcDbEntity
  8
SUNPOU
100
AcDbMText
 10
112150.310739409
 20
109799.9612583826
 30
0.0
 40
3.5
 41
0.0
 71
     9
 72
     5
  1

1001
ACAD
1000
MTEXTBEGIN
1070
    73
1070
     1
1070
    44
1040
1.0
1070
    74
1070
     0
1000
MTEXTEND
  0
MTEXT
  5
564C
330
1A
100
AcDbEntity
  8
SUNPOU
100
AcDbMText
 10
108819.1333204967
 20
110677.9087286761
 30
0.0
 40
10.5
 41
0.0
 71
     9
 72
     5
  1

1001
ACAD
1000
MTEXTBEGIN
1070
    73
1070
     1
1070
    44
1040
1.0
1070
    74
1070
     0
1000
MTEXTEND
  0
MTEXT
  5
564D
330
1A
100
AcDbEntity
  8
SUNPOU
100
AcDbMText
 10
110762.5405672062
 20
108876.8596487981
 30
0.0
 40
3.5
 41
0.0
 71
     9
 72
     5
  1

1001
ACAD
1000
MTEXTBEGIN
1070
    73
1070
     1
1070
    44
1040
1.0
1070
    74
1070
     0
1000
MTEXTEND
  0
MTEXT
  5
564E
330
1A
100
AcDbEntity
  8
SUNPOU
100
AcDbMText
 10
76303.05507956816
 20
68695.31179059812
 30
0.0
 40
10.5
 41
0.0
 71
     9
 72
     5
  1

1001
ACAD
1000
MTEXTBEGIN
1070
    73
1070
     1
1070
    44
1040
1.0
1070
    74
1070
     0
1000
MTEXTEND
  0
MTEXT
  5
564F
330
1A
100
AcDbEntity
  8
SUNPOU
100
AcDbMText
 10
79026.36128373271
 20
69099.99348217918
 30
0.0
 40
3.5
 41
0.0
 71
     9
 72
     5
  1

1001
ACAD
1000
MTEXTBEGIN
1070
    73
1070
     1
1070
    44
1040
1.0
1070
    74
1070
     0
1000
MTEXTEND
  0
MTEXT
  5
5650
330
1A
100
AcDbEntity
  8
SUNPOU
100
AcDbMText
 10
78234.00675862522
 20
65938.68764412436
 30
0.0
 40
10.5
 41
0.0
 71
     9
 72
     5
  1

1001
ACAD
1000
MTEXTBEGIN
1070
    73
1070
     1
1070
    44
1040
1.0
1070
    74
1070
     0
1000
MTEXTEND
  0
MTEXT
  5
5651
330
1A
100
AcDbEntity
  8
SUNPOU
100
AcDbMText
 10
80177.41400533465
 20
64137.63856424636
 30
0.0
 40
3.5
 41
0.0
 71
     9
 72
     5
  1

1001
ACAD
1000
MTEXTBEGIN
1070
    73
1070
     1
1070
    44
1040
1.0
1070
    74
1070
     0
1000
MTEXTEND
  0
MTEXT
  5
5652
330
1A
100
AcDbEntity
  8
SUNPOU
100
AcDbMText
 10
80122.50949592122
 20
64024.86668196204
 30
0.0
 40
3.5
 41
0.0
 71
     9
 72
     5
  1

1001
ACAD
1000
MTEXTBEGIN
1070
    73
1070
     1
1070
    44
1040
1.0
1070
    74
1070
     0
1000
MTEXTEND
  0
MTEXT
  5
5653
330
1A
100
AcDbEntity
  8
SUNPOU
100
AcDbMText
 10
79486.58135950133
 20
63213.54544089553
 30
0.0
 40
3.5
 41
0.0
 71
     9
 72
     5
  1

1001
ACAD
1000
MTEXTBEGIN
1070
    73
1070
     1
1070
    44
1040
1.0
1070
    74
1070
     0
1000
MTEXTEND
  0
MTEXT
  5
5654
330
1A
100
AcDbEntity
  8
SUNPOU
100
AcDbMText
 10
79485.3409400806
 20
63213.29746395804
 30
0.0
 40
10.5
 41
0.0
 71
     9
 72
     5
  1

1001
ACAD
1000
MTEXTBEGIN
1070
    73
1070
     1
1070
    44
1040
1.0
1070
    74
1070
     0
1000
MTEXTEND
  0
MTEXT
  5
5655
330
1A
100
AcDbEntity
  8
SUNPOU
100
AcDbMText
 10
85473.63363627567
 20
80747.76348077064
 30
0.0
 40
10.5
 41
0.0
 71
     9
 72
     5
  1

1001
ACAD
1000
MTEXTBEGIN
1070
    73
1070
     1
1070
    44
1040
1.0
1070
    74
1070
     0
1000
MTEXTEND
  0
MTEXT
  5
5656
330
1A
100
AcDbEntity
  8
SUNPOU
100
AcDbMText
 10
94195.80120219368
 20
88163.59801230808
 30
0.0
 40
10.5
 41
0.0
 71
     9
 72
     5
  1

1001
ACAD
1000
MTEXTBEGIN
1070
    73
1070
     1
1070
    44
1040
1.0
1070
    74
1070
     0
1000
MTEXTEND
  0
MTEXT
  5
5657
330
1A
100
AcDbEntity
  8
SUNPOU
100
AcDbMText
 10
113149.5599195236
 20
105630.1740648001
 30
0.0
 40
10.5
 41
0.0
 71
     9
 72
     5
  1

1001
ACAD
1000
MTEXTBEGIN
1070
    73
1070
     1
1070
    44
1040
1.0
1070
    74
1070
     0
1000
MTEXTEND
  0
MTEXT
  5
5658
330
1A
100
AcDbEntity
  8
SUNPOU
100
AcDbMText
 10
115092.967166233
 20
103829.1249849221
 30
0.0
 40
3.5
 41
0.0
 71
     9
 72
     5
  1

1001
ACAD
1000
MTEXTBEGIN
1070
    73
1070
     1
1070
    44
1040
1.0
1070
    74
1070
     0
1000
MTEXTEND
  0
MTEXT
  5
5659
330
1A
100
AcDbEntity
  8
SUNPOU
100
AcDbMText
 10
146219.1469988527
 20
146324.0706525794
 30
0.0
 40
10.5
 41
0.0
 71
     9
 72
     5
  1

1001
ACAD
1000
MTEXTBEGIN
1070
    73
1070
     1
1070
    44
1040
1.0
1070
    74
1070
     0
1000
MTEXTEND
  0
MTEXT
  5
565A
330
1A
100
AcDbEntity
  8
SUNPOU
100
AcDbMText
 10
148162.5542455621
 20
144523.0215727014
 30
0.0
 40
3.5
 41
0.0
 71
     9
 72
     5
  1

1001
ACAD
1000
MTEXTBEGIN
1070
    73
1070
     1
1070
    44
1040
1.0
1070
    74
1070
     0
1000
MTEXTEND
  0
MTEXT
  5
565B
330
1A
100
AcDbEntity
  8
SUNPOU
100
AcDbMText
 10
96659.41470464833
 20
92157.23580755453
 30
0.0
 40
10.5
 41
0.0
 71
     9
 72
     5
  1

1001
ACAD
1000
MTEXTBEGIN
1070
    73
1070
     1
1070
    44
1040
1.0
1070
    74
1070
     0
1000
MTEXTEND
  0
MTEXT
  5
565C
330
1A
100
AcDbEntity
  8
SUNPOU
100
AcDbMText
 10
82711.41460427234
 20
72984.83666844234
 30
0.0
 40
3.5
 41
0.0
 71
     7
 72
     5
  1

1001
ACAD
1000
MTEXTBEGIN
1070
    73
1070
     1
1070
    44
1040
1.0
1070
    74
1070
     0
1000
MTEXTEND
  0
MTEXT
  5
565D
330
1A
100
AcDbEntity
  8
SUNPOU
100
AcDbMText
 10
63696.58400126548
 20
60746.98539926055
 30
0.0
 40
10.5
 41
0.0
 71
     7
 72
     5
  1

1001
ACAD
1000
MTEXTBEGIN
1070
    73
1070
     1
1070
    44
1040
1.0
1070
    74
1070
     0
1000
MTEXTEND
  0
MTEXT
  5
565E
330
1A
100
AcDbEntity
  8
SUNPOU
100
AcDbMText
 10
51239.35573631738
 20
44902.05382116213
 30
0.0
 40
35.0
 41
0.0
 71
     9
 72
     5
  1

1001
ACAD
1000
MTEXTBEGIN
1070
    73
1070
     1
1070
    44
1040
1.0
1070
    74
1070
     0
1000
MTEXTEND
  0
MTEXT
  5
565F
330
1A
100
AcDbEntity
  8
SUNPOU
100
AcDbMText
 10
50147.84079389233
 20
45510.82923121084
 30
0.0
 40
350.0000004171781
 41
0.0
 71
     7
 72
     5
  1

1001
ACAD
1000
MTEXTBEGIN
1070
    73
1070
     1
1070
    44
1040
1.0
1070
    74
1070
     0
1000
MTEXTEND
  0
MTEXT
  5
5660
330
1A
100
AcDbEntity
  8
0
100
AcDbMText
 10
56191.79155183523
 20
43490.75159334705
 30
0.0
 40
8.0
 41
0.0
 71
     7
 72
     5
  1

1001
ACAD
1000
MTEXTBEGIN
1070
    73
1070
     1
1070
    44
1040
1.0
1070
    74
1070
     0
1000
MTEXTEND
  0
MTEXT
  5
5661
330
1A
100
AcDbEntity
  8
0
100
AcDbMText
 10
58477.14924173012
 20
44461.54188809812
 30
0.0
 40
8.0
 41
0.0
 71
     7
 72
     5
  1

1001
ACAD
1000
MTEXTBEGIN
1070
    73
1070
     1
1070
    44
1040
1.0
1070
    74
1070
     0
1000
MTEXTEND
  0
MTEXT
  5
5662
330
1A
100
AcDbEntity
  8
SUNPOU
100
AcDbMText
 10
61143.04626241227
 20
53973.65328047324
 30
0.0
 40
10.5
 41
0.0
 71
     1
 72
     5
  1

1001
ACAD
1000
MTEXTBEGIN
1070
    73
1070
     1
1070
    44
1040
1.0
1070
    74
1070
     0
1000
MTEXTEND
  0
MTEXT
  5
5663
330
1A
100
AcDbEntity
  8
SUNPOU
100
AcDbMText
 10
53212.12306647633
 20
53026.86014656028
 30
0.0
 40
10.5
 41
0.0
 71
     7
 72
     5
  1

1001
ACAD
1000
MTEXTBEGIN
1070
    73
1070
     1
1070
    44
1040
1.0
1070
    74
1070
     0
1000
MTEXTEND
  0
MTEXT
  5
5664
330
1A
100
AcDbEntity
  8
SUNPOU
100
AcDbMText
 10
56161.10673098909
 20
57927.53621840312
 30
0.0
 40
10.5
 41
0.0
 71
     7
 72
     5
  1

1001
ACAD
1000
MTEXTBEGIN
1070
    73
1070
     1
1070
    44
1040
1.0
1070
    74
1070
     0
1000
MTEXTEND
  0
MTEXT
  5
5665
330
1A
100
AcDbEntity
  8
SUNPOU
100
AcDbMText
 10
60670.18485893966
 20
60363.8369660232
 30
0.0
 40
10.5
 41
0.0
 71
     7
 72
     5
  1

1001
ACAD
1000
MTEXTBEGIN
1070
    73
1070
     1
1070
    44
1040
1.0
1070
    74
1070
     0
1000
MTEXTEND
  0
MTEXT
  5
5666
330
1A
100
AcDbEntity
  8
SUNPOU
100
AcDbMText
 10
44271.02274570799
 20
39361.43311641211
 30
0.0
 40
10.5
 41
0.0
 71
     7
 72
     5
  1

1001
ACAD
1000
MTEXTBEGIN
1070
    73
1070
     1
1070
    44
1040
1.0
1070
    74
1070
     0
1000
MTEXTEND
  0
MTEXT
  5
5667
330
1A
100
AcDbEntity
  8
SUNPOU
100
AcDbMText
 10
95462.54117960824
 20
85034.41368006038
 30
0.0
 40
10.5
 41
0.0
 71
     9
 72
     5
  1

1001
ACAD
1000
MTEXTBEGIN
1070
    73
1070
     1
1070
    44
1040
1.0
1070
    74
1070
     0
1000
MTEXTEND
  0
MTEXT
  5
5668
330
1A
100
AcDbEntity
  8
SUNPOU
100
AcDbMText
 10
104184.7087455262
 20
92450.24821159784
 30
0.0
 40
10.5
 41
0.0
 71
     9
 72
     5
  1

1001
ACAD
1000
MTEXTBEGIN
1070
    73
1070
     1
1070
    44
1040
1.0
1070
    74
1070
     0
1000
MTEXTEND
  0
MTEXT
  5
5669
330
1A
100
AcDbEntity
  8
SUNPOU
100
AcDbMText
 10
123138.4674628562
 20
109916.8242640898
 30
0.0
 40
10.5
 41
0.0
 71
     9
 72
     5
  1

1001
ACAD
1000
MTEXTBEGIN
1070
    73
1070
     1
1070
    44
1040
1.0
1070
    74
1070
     0
1000
MTEXTEND
  0
MTEXT
  5
566A
330
1A
100
AcDbEntity
  8
SUNPOU
100
AcDbMText
 10
125081.8747095656
 20
108115.7751842118
 30
0.0
 40
3.5
 41
0.0
 71
     9
 72
     5
  1

1001
ACAD
1000
MTEXTBEGIN
1070
    73
1070
     1
1070
    44
1040
1.0
1070
    74
1070
     0
1000
MTEXTEND
  0
MTEXT
  5
566B
330
1A
100
AcDbEntity
  8
SUNPOU
100
AcDbMText
 10
156208.0545421853
 20
150610.7208518691
 30
0.0
 40
10.5
 41
0.0
 71
     9
 72
     5
  1

1001
ACAD
1000
MTEXTBEGIN
1070
    73
1070
     1
1070
    44
1040
1.0
1070
    74
1070
     0
1000
MTEXTEND
  0
MTEXT
  5
566C
330
1A
100
AcDbEntity
  8
SUNPOU
100
AcDbMText
 10
158151.4617888947
 20
148809.6717719911
 30
0.0
 40
3.5
 41
0.0
 71
     9
 72
     5
  1

1001
ACAD
1000
MTEXTBEGIN
1070
    73
1070
     1
1070
    44
1040
1.0
1070
    74
1070
     0
1000
MTEXTEND
  0
MTEXT
  5
566D
330
1A
100
AcDbEntity
  8
SUNPOU
100
AcDbMText
 10
106648.3222479809
 20
96443.88600684427
 30
0.0
 40
10.5
 41
0.0
 71
     9
 72
     5
  1

1001
ACAD
1000
MTEXTBEGIN
1070
    73
1070
     1
1070
    44
1040
1.0
1070
    74
1070
     0
1000
MTEXTEND
  0
MTEXT
  5
566E
330
1A
100
AcDbEntity
  8
SUNPOU
100
AcDbMText
 10
92700.3221476049
 20
77271.48686773207
 30
0.0
 40
3.5
 41
0.0
 71
     7
 72
     5
  1

1001
ACAD
1000
MTEXTBEGIN
1070
    73
1070
     1
1070
    44
1040
1.0
1070
    74
1070
     0
1000
MTEXTEND
  0
MTEXT
  5
566F
330
1A
100
AcDbEntity
  8
SUNPOU
100
AcDbMText
 10
73685.49154459807
 20
65033.63559855027
 30
0.0
 40
10.5
 41
0.0
 71
     7
 72
     5
  1

1001
ACAD
1000
MTEXTBEGIN
1070
    73
1070
     1
1070
    44
1040
1.0
1070
    74
1070
     0
1000
MTEXTEND
  0
MTEXT
  5
5670
330
1A
100
AcDbEntity
  8
SUNPOU
100
AcDbMText
 10
61228.26327964995
 20
49188.70402045184
 30
0.0
 40
35.0
 41
0.0
 71
     9
 72
     5
  1

1001
ACAD
1000
MTEXTBEGIN
1070
    73
1070
     1
1070
    44
1040
1.0
1070
    74
1070
     0
1000
MTEXTEND
  0
MTEXT
  5
5671
330
1A
100
AcDbEntity
  8
SUNPOU
100
AcDbMText
 10
60136.74833722491
 20
49797.47943050056
 30
0.0
 40
350.0000004171781
 41
0.0
 71
     7
 72
     5
  1

1001
ACAD
1000
MTEXTBEGIN
1070
    73
1070
     1
1070
    44
1040
1.0
1070
    74
1070
     0
1000
MTEXTEND
  0
MTEXT
  5
5672
330
1A
100
AcDbEntity
  8
0
100
AcDbMText
 10
66180.69909516782
 20
47777.40179263677
 30
0.0
 40
8.0
 41
0.0
 71
     7
 72
     5
  1

1001
ACAD
1000
MTEXTBEGIN
1070
    73
1070
     1
1070
    44
1040
1.0
1070
    74
1070
     0
1000
MTEXTEND
  0
MTEXT
  5
5673
330
1A
100
AcDbEntity
  8
0
100
AcDbMText
 10
68466.05678506271
 20
48748.19208738784
 30
0.0
 40
8.0
 41
0.0
 71
     7
 72
     5
  1

1001
ACAD
1000
MTEXTBEGIN
1070
    73
1070
     1
1070
    44
1040
1.0
1070
    74
1070
     0
1000
MTEXTEND
  0
MTEXT
  5
5674
330
1A
100
AcDbEntity
  8
SUNPOU
100
AcDbMText
 10
71131.95380574485
 20
58260.30347976296
 30
0.0
 40
10.5
 41
0.0
 71
     1
 72
     5
  1

1001
ACAD
1000
MTEXTBEGIN
1070
    73
1070
     1
1070
    44
1040
1.0
1070
    74
1070
     0
1000
MTEXTEND
  0
MTEXT
  5
5675
330
1A
100
AcDbEntity
  8
SUNPOU
100
AcDbMText
 10
63201.03060980891
 20
57313.51034585003
 30
0.0
 40
10.5
 41
0.0
 71
     7
 72
     5
  1

1001
ACAD
1000
MTEXTBEGIN
1070
    73
1070
     1
1070
    44
1040
1.0
1070
    74
1070
     0
1000
MTEXTEND
  0
MTEXT
  5
5676
330
1A
100
AcDbEntity
  8
SUNPOU
100
AcDbMText
 10
66150.01427432169
 20
62214.18641769286
 30
0.0
 40
10.5
 41
0.0
 71
     7
 72
     5
  1

1001
ACAD
1000
MTEXTBEGIN
1070
    73
1070
     1
1070
    44
1040
1.0
1070
    74
1070
     0
1000
MTEXTEND
  0
MTEXT
  5
5677
330
1A
100
AcDbEntity
  8
SUNPOU
100
AcDbMText
 10
70659.09240227225
 20
64650.48716531294
 30
0.0
 40
10.5
 41
0.0
 71
     7
 72
     5
  1

1001
ACAD
1000
MTEXTBEGIN
1070
    73
1070
     1
1070
    44
1040
1.0
1070
    74
1070
     0
1000
MTEXTEND
  0
MTEXT
  5
5678
330
1A
100
AcDbEntity
  8
SUNPOU
100
AcDbMText
 10
54259.93028904056
 20
43648.08331570185
 30
0.0
 40
10.5
 41
0.0
 71
     7
 72
     5
  1

1001
ACAD
1000
MTEXTBEGIN
1070
    73
1070
     1
1070
    44
1040
1.0
1070
    74
1070
     0
1000
MTEXTEND
  0
MTEXT
  5
5679
330
1A
100
AcDbEntity
  8
SUNPOU
100
AcDbMText
 10
56070.69320041551
 20
49975.4973031804
 30
0.0
 40
10.5
 41
0.0
 71
     9
 72
     5
  1

1001
ACAD
1000
MTEXTBEGIN
1070
    73
1070
     1
1070
    44
1040
1.0
1070
    74
1070
     0
1000
MTEXTEND
  0
MTEXT
  5
567A
330
1A
100
AcDbEntity
  8
SUNPOU
100
AcDbMText
 10
64792.86076633347
 20
57391.33183471787
 30
0.0
 40
10.5
 41
0.0
 71
     9
 72
     5
  1

1001
ACAD
1000
MTEXTBEGIN
1070
    73
1070
     1
1070
    44
1040
1.0
1070
    74
1070
     0
1000
MTEXTEND
  0
MTEXT
  5
567B
330
1A
100
AcDbEntity
  8
SUNPOU
100
AcDbMText
 10
83746.61948366345
 20
74857.90788720994
 30
0.0
 40
10.5
 41
0.0
 71
     9
 72
     5
  1

1001
ACAD
1000
MTEXTBEGIN
1070
    73
1070
     1
1070
    44
1040
1.0
1070
    74
1070
     0
1000
MTEXTEND
  0
MTEXT
  5
567C
330
1A
100
AcDbEntity
  8
SUNPOU
100
AcDbMText
 10
85690.02673037287
 20
73056.85880733192
 30
0.0
 40
3.5
 41
0.0
 71
     9
 72
     5
  1

1001
ACAD
1000
MTEXTBEGIN
1070
    73
1070
     1
1070
    44
1040
1.0
1070
    74
1070
     0
1000
MTEXTEND
  0
MTEXT
  5
567D
330
1A
100
AcDbEntity
  8
SUNPOU
100
AcDbMText
 10
116816.2065629925
 20
115551.8044749892
 30
0.0
 40
10.5
 41
0.0
 71
     9
 72
     5
  1

1001
ACAD
1000
MTEXTBEGIN
1070
    73
1070
     1
1070
    44
1040
1.0
1070
    74
1070
     0
1000
MTEXTEND
  0
MTEXT
  5
567E
330
1A
100
AcDbEntity
  8
SUNPOU
100
AcDbMText
 10
118759.6138097019
 20
113750.7553951111
 30
0.0
 40
3.5
 41
0.0
 71
     9
 72
     5
  1

1001
ACAD
1000
MTEXTBEGIN
1070
    73
1070
     1
1070
    44
1040
1.0
1070
    74
1070
     0
1000
MTEXTEND
  0
MTEXT
  5
567F
330
1A
100
AcDbEntity
  8
SUNPOU
100
AcDbMText
 10
67256.47426878814
 20
61384.96962996432
 30
0.0
 40
10.5
 41
0.0
 71
     9
 72
     5
  1

1001
ACAD
1000
MTEXTBEGIN
1070
    73
1070
     1
1070
    44
1040
1.0
1070
    74
1070
     0
1000
MTEXTEND
  0
MTEXT
  5
5680
330
1A
100
AcDbEntity
  8
SUNPOU
100
AcDbMText
 10
53308.47416841216
 20
42212.57049085211
 30
0.0
 40
3.5
 41
0.0
 71
     7
 72
     5
  1

1001
ACAD
1000
MTEXTBEGIN
1070
    73
1070
     1
1070
    44
1040
1.0
1070
    74
1070
     0
1000
MTEXTEND
  0
MTEXT
  5
5681
330
1A
100
AcDbEntity
  8
SUNPOU
100
AcDbMText
 10
67000.82485118274
 20
51571.63371187344
 30
0.0
 40
10.5
 41
0.0
 71
     9
 72
     5
  1

1001
ACAD
1000
MTEXTBEGIN
1070
    73
1070
     1
1070
    44
1040
1.0
1070
    74
1070
     0
1000
MTEXTEND
  0
MTEXT
  5
5682
330
1A
100
AcDbEntity
  8
SUNPOU
100
AcDbMText
 10
75722.99241710071
 20
58987.46824341094
 30
0.0
 40
10.5
 41
0.0
 71
     9
 72
     5
  1

1001
ACAD
1000
MTEXTBEGIN
1070
    73
1070
     1
1070
    44
1040
1.0
1070
    74
1070
     0
1000
MTEXTEND
  0
MTEXT
  5
5683
330
1A
100
AcDbEntity
  8
SUNPOU
100
AcDbMText
 10
94676.75113443068
 20
76454.04429590299
 30
0.0
 40
10.5
 41
0.0
 71
     9
 72
     5
  1

1001
ACAD
1000
MTEXTBEGIN
1070
    73
1070
     1
1070
    44
1040
1.0
1070
    74
1070
     0
1000
MTEXTEND
  0
MTEXT
  5
5684
330
1A
100
AcDbEntity
  8
SUNPOU
100
AcDbMText
 10
96620.1583811401
 20
74652.99521602497
 30
0.0
 40
3.5
 41
0.0
 71
     9
 72
     5
  1

1001
ACAD
1000
MTEXTBEGIN
1070
    73
1070
     1
1070
    44
1040
1.0
1070
    74
1070
     0
1000
MTEXTEND
  0
MTEXT
  5
5685
330
1A
100
AcDbEntity
  8
SUNPOU
100
AcDbMText
 10
127746.3382137598
 20
117147.9408836822
 30
0.0
 40
10.5
 41
0.0
 71
     9
 72
     5
  1

1001
ACAD
1000
MTEXTBEGIN
1070
    73
1070
     1
1070
    44
1040
1.0
1070
    74
1070
     0
1000
MTEXTEND
  0
MTEXT
  5
5686
330
1A
100
AcDbEntity
  8
SUNPOU
100
AcDbMText
 10
129689.7454604692
 20
115346.8918038042
 30
0.0
 40
3.5
 41
0.0
 71
     9
 72
     5
  1

1001
ACAD
1000
MTEXTBEGIN
1070
    73
1070
     1
1070
    44
1040
1.0
1070
    74
1070
     0
1000
MTEXTEND
  0
MTEXT
  5
5687
330
1A
100
AcDbEntity
  8
SUNPOU
100
AcDbMText
 10
78186.60591955537
 20
62981.10603865737
 30
0.0
 40
10.5
 41
0.0
 71
     9
 72
     5
  1

1001
ACAD
1000
MTEXTBEGIN
1070
    73
1070
     1
1070
    44
1040
1.0
1070
    74
1070
     0
1000
MTEXTEND
  0
MTEXT
  5
5688
330
1A
100
AcDbEntity
  8
SUNPOU
100
AcDbMText
 10
64238.60581917939
 20
43808.70689954517
 30
0.0
 40
3.5
 41
0.0
 71
     7
 72
     5
  1

1001
ACAD
1000
MTEXTBEGIN
1070
    73
1070
     1
1070
    44
1040
1.0
1070
    74
1070
     0
1000
MTEXTEND
  0
MTEXT
  5
5689
330
1A
100
AcDbEntity
  8
SUNPOU
100
AcDbMText
 10
33428.13481137435
 20
32770.04710035563
 30
0.0
 40
10.5
 41
0.0
 71
     9
 72
     5
  1

1001
ACAD
1000
MTEXTBEGIN
1070
    73
1070
     1
1070
    44
1040
1.0
1070
    74
1070
     0
1000
MTEXTEND
  0
MTEXT
  5
568A
330
1A
100
AcDbEntity
  8
SUNPOU
100
AcDbMText
 10
52381.89352870431
 20
50236.62315284768
 30
0.0
 40
10.5
 41
0.0
 71
     9
 72
     5
  1

1001
ACAD
1000
MTEXTBEGIN
1070
    73
1070
     1
1070
    44
1040
1.0
1070
    74
1070
     0
1000
MTEXTEND
  0
MTEXT
  5
568B
330
1A
100
AcDbEntity
  8
SUNPOU
100
AcDbMText
 10
54325.30077541374
 20
48435.57407296968
 30
0.0
 40
3.5
 41
0.0
 71
     9
 72
     5
  1

1001
ACAD
1000
MTEXTBEGIN
1070
    73
1070
     1
1070
    44
1040
1.0
1070
    74
1070
     0
1000
MTEXTEND
  0
MTEXT
  5
568C
330
1A
100
AcDbEntity
  8
SUNPOU
100
AcDbMText
 10
85451.48060803342
 20
90930.51974062703
 30
0.0
 40
10.5
 41
0.0
 71
     9
 72
     5
  1

1001
ACAD
1000
MTEXTBEGIN
1070
    73
1070
     1
1070
    44
1040
1.0
1070
    74
1070
     0
1000
MTEXTEND
  0
MTEXT
  5
568D
330
1A
100
AcDbEntity
  8
SUNPOU
100
AcDbMText
 10
87394.88785474286
 20
89129.47066074901
 30
0.0
 40
3.5
 41
0.0
 71
     9
 72
     5
  1

1001
ACAD
1000
MTEXTBEGIN
1070
    73
1070
     1
1070
    44
1040
1.0
1070
    74
1070
     0
1000
MTEXTEND
  0
MTEXT
  5
568E
330
1A
100
AcDbEntity
  8
SUNPOU
100
AcDbMText
 10
35891.74831382901
 20
36763.68489560208
 30
0.0
 40
10.5
 41
0.0
 71
     9
 72
     5
  1

1001
ACAD
1000
MTEXTBEGIN
1070
    73
1070
     1
1070
    44
1040
1.0
1070
    74
1070
     0
1000
MTEXTEND
  0
MTEXT
  5
568F
330
1A
100
AcDbEntity
  8
SUNPOU
100
AcDbMText
 10
21943.74821345303
 20
17591.28575648985
 30
0.0
 40
3.5
 41
0.0
 71
     7
 72
     5
  1

1001
ACAD
1000
MTEXTBEGIN
1070
    73
1070
     1
1070
    44
1040
1.0
1070
    74
1070
     0
1000
MTEXTEND
  0
MTEXT
  5
11D07
330
1A
100
AcDbEntity
  8
ZISSEN1
100
AcDbMText
 10
-1776.105031899954
 20
1912.808376262202
 30
0.0
 40
5.0
 41
171.8538
 71
     1
 72
     5
  1
DB-2620A　　No.SS0001f25
  7
ゴシック体
1001
ACAD
1000
MTEXTBEGIN
1070
    73
1070
     1
1070
    44
1040
1.0
1070
    74
1070
     0
1000
MTEXTEND
  0
LINE
  5
128CF
330
1A
100
AcDbEntity
  8
CL1
100
AcDbLine
 10
-1841.573840578144
 20
1724.592073105529
 30
0.0
 11
-1850.573833578144
 21
1724.592073105529
 31
0.0
  0
LINE
  5
128D0
330
1A
100
AcDbEntity
  8
CL1
100
AcDbLine
 10
-1841.573840578144
 20
1730.592065105528
 30
0.0
 11
-1850.573833578144
 21
1730.592065105528
 31
0.0
  0
LINE
  5
128D2
330
1A
100
AcDbEntity
  8
ZISSEN1
100
AcDbLine
 10
-1846.866726578144
 20
1704.592075105528
 30
0.0
 11
-1770.573835578144
 21
1704.592075105528
 31
0.0
  0
LINE
  5
128D3
330
1A
100
AcDbEntity
  8
ZISSEN1
100
AcDbLine
 10
-1844.573850578143
 20
1715.192075105528
 30
0.0
 11
-1771.573835578144
 21
1715.192075105528
 31
0.0
  0
LINE
  5
128D4
330
1A
100
AcDbEntity
  8
ZISSEN1
100
AcDbLine
 10
-1844.573850578143
 20
1713.592074105528
 30
0.0
 11
-1771.573835578144
 21
1713.592074105528
 31
0.0
  0
LINE
  5
128D5
330
1A
100
AcDbEntity
  8
ZISSEN1
100
AcDbLine
 10
-1844.573850578143
 20
1707.592073105529
 30
0.0
 11
-1770.573835578144
 21
1707.592073105529
 31
0.0
  0
LINE
  5
128D6
330
1A
100
AcDbEntity
  8
ZISSEN1
100
AcDbLine
 10
-1844.573850578143
 20
1742.592075105529
 30
0.0
 11
-1844.573850578143
 21
1707.592073105529
 31
0.0
  0
LINE
  5
128D7
330
1A
100
AcDbEntity
  8
ZISSEN1
100
AcDbLine
 10
-1847.573835578143
 20
1705.299184105528
 30
0.0
 11
-1847.573835578143
 21
1742.592075105529
 31
0.0
  0
LINE
  5
128D8
330
1A
100
AcDbEntity
  8
CL1
100
AcDbLine
 10
-1837.073850578144
 20
1710.592064105528
 30
0.0
 11
-1837.073850578144
 21
1701.592078105528
 31
0.0
  0
LINE
  5
128D9
330
1A
100
AcDbEntity
  8
CL1
100
AcDbLine
 10
-1831.073855578143
 20
1710.592064105528
 30
0.0
 11
-1831.073855578143
 21
1701.592078105528
 31
0.0
  0
LINE
  5
128DA
330
1A
100
AcDbEntity
  8
ZISSEN1
100
AcDbLine
 10
-1846.866726578144
 20
1704.592075105528
 30
0.0
 11
-1847.573835578143
 21
1705.299184105528
 31
0.0
  0
LINE
  5
128DB
330
1A
100
AcDbEntity
  8
ZISSEN1
100
AcDbLine
 10
-1840.573824578143
 20
1715.192075105528
 30
0.0
 11
-1840.573824578143
 21
1713.592074105528
 31
0.0
  0
LINE
  5
128DC
330
1A
100
AcDbEntity
  8
ZISSEN1
100
AcDbLine
 10
-1839.159619578143
 20
1715.192075105528
 30
0.0
 11
-1839.159619578143
 21
1713.592074105528
 31
0.0
  0
LINE
  5
128DD
330
1A
100
AcDbEntity
  8
ZISSEN1
100
AcDbLine
 10
-1829.280943578144
 20
1715.192075105528
 30
0.0
 11
-1829.280943578144
 21
1713.592068105528
 31
0.0
  0
LINE
  5
128DE
330
1A
100
AcDbEntity
  8
ZISSEN1
100
AcDbLine
 10
-1827.159635578144
 20
1715.192075105528
 30
0.0
 11
-1827.159635578144
 21
1713.592074105528
 31
0.0
  0
LINE
  5
128DF
330
1A
100
AcDbEntity
  8
ZISSEN1
100
AcDbLine
 10
-1825.745415578143
 20
1715.192075105528
 30
0.0
 11
-1825.745415578143
 21
1713.592074105528
 31
0.0
  0
LINE
  5
128E0
330
1A
100
AcDbEntity
  8
ZISSEN1
100
AcDbLine
 10
-1844.573850578143
 20
1741.884965105529
 30
0.0
 11
-1847.573835578143
 21
1741.884965105529
 31
0.0
  0
LINE
  5
128E1
330
1A
100
AcDbEntity
  8
ZISSEN1
100
AcDbLine
 10
-1847.573835578143
 20
1742.592075105529
 30
0.0
 11
-1844.573850578143
 21
1742.592075105529
 31
0.0
  0
LINE
  5
128E2
330
1A
100
AcDbEntity
  8
ZISSEN1
100
AcDbLine
 10
-1774.673815578144
 20
1734.592065105529
 30
0.0
 11
-1774.673815578144
 21
1715.192075105528
 31
0.0
  0
LINE
  5
128E3
330
1A
100
AcDbEntity
  8
ZISSEN1
100
AcDbLine
 10
-1780.473825578144
 20
1734.592065105529
 30
0.0
 11
-1780.473825578144
 21
1715.192075105528
 31
0.0
  0
LINE
  5
128E4
330
1A
100
AcDbEntity
  8
ZISSEN1
100
AcDbLine
 10
-1779.073825578143
 20
1707.592079105529
 30
0.0
 11
-1779.073825578143
 21
1713.592074105528
 31
0.0
  0
LINE
  5
128E5
330
1A
100
AcDbEntity
  8
ZISSEN1
100
AcDbLine
 10
-1774.073835578144
 20
1707.592079105529
 30
0.0
 11
-1774.073835578144
 21
1713.592074105528
 31
0.0
  0
LINE
  5
128E6
330
1A
100
AcDbEntity
  8
ZISSEN1
100
AcDbLine
 10
-1771.280945578143
 20
1707.592079105529
 30
0.0
 11
-1771.280945578143
 21
1704.592075105528
 31
0.0
  0
LINE
  5
128E7
330
1A
100
AcDbEntity
  8
ZISSEN1
100
AcDbLine
 10
-1770.573835578144
 20
1707.592079105529
 30
0.0
 11
-1770.573835578144
 21
1704.592069105529
 31
0.0
  0
LINE
  5
128E8
330
1A
100
AcDbEntity
  8
ZISSEN1
100
AcDbLine
 10
-1772.280945578144
 20
1715.192075105528
 30
0.0
 11
-1772.280945578144
 21
1713.592074105528
 31
0.0
  0
LINE
  5
128E9
330
1A
100
AcDbEntity
  8
ZISSEN1
100
AcDbLine
 10
-1771.573835578144
 20
1713.592074105528
 30
0.0
 11
-1771.573835578144
 21
1715.192075105528
 31
0.0
  0
LINE
  5
128EB
330
1A
100
AcDbEntity
  8
CL1
100
AcDbLine
 10
-1841.573852578143
 20
1810.321805105528
 30
0.0
 11
-1850.573833578144
 21
1810.321805105528
 31
0.0
  0
LINE
  5
128EC
330
1A
100
AcDbEntity
  8
CL1
100
AcDbLine
 10
-1841.573852578143
 20
1890.321815105528
 30
0.0
 11
-1850.573833578144
 21
1890.321815105528
 31
0.0
  0
LINE
  5
128EF
330
1A
100
AcDbEntity
  8
ZISSEN1
100
AcDbLine
 10
-1770.573835578144
 20
1807.028915105528
 30
0.0
 11
-1770.573835578144
 21
1893.614695105529
 31
0.0
  0
LINE
  5
128F0
330
1A
100
AcDbEntity
  8
ZISSEN1
100
AcDbLine
 10
-1771.573835578144
 20
1808.028915105529
 30
0.0
 11
-1771.573835578144
 21
1892.614685105528
 31
0.0
  0
LINE
  5
128F1
330
1A
100
AcDbEntity
  8
ZISSEN1
100
AcDbLine
 10
-1844.073836578143
 20
1817.321815105529
 30
0.0
 11
-1844.073836578143
 21
1883.321815105528
 31
0.0
  0
LINE
  5
128F2
330
1A
100
AcDbEntity
  8
ZISSEN1
100
AcDbLine
 10
-1844.573850578143
 20
1883.321815105528
 30
0.0
 11
-1844.573850578143
 21
1817.321815105529
 31
0.0
  0
LINE
  5
128F3
330
1A
100
AcDbEntity
  8
ZISSEN1
100
AcDbLine
 10
-1847.573835578143
 20
1894.321795105528
 30
0.0
 11
-1847.573835578143
 21
1806.321805105529
 31
0.0
  0
LINE
  5
128F4
330
1A
100
AcDbEntity
  8
ZISSEN1
100
AcDbLine
 10
-1771.280945578143
 20
1806.321805105529
 30
0.0
 11
-1835.323832578144
 21
1806.321805105529
 31
0.0
  0
LINE
  5
128F5
330
1A
100
AcDbEntity
  8
ZISSEN1
100
AcDbLine
 10
-1772.280945578144
 20
1807.321805105528
 30
0.0
 11
-1825.745415578143
 21
1807.321805105528
 31
0.0
  0
LINE
  5
128F6
330
1A
100
AcDbEntity
  8
CL1
100
AcDbLine
 10
-1834.073840578144
 20
1810.321795105529
 30
0.0
 11
-1828.073845578144
 21
1810.321795105529
 31
0.0
  0
LINE
  5
128F7
330
1A
100
AcDbEntity
  8
ZISSEN1
100
AcDbLine
 10
-1829.280943578144
 20
1814.821805105529
 30
0.0
 11
-1839.159619578143
 21
1814.821805105529
 31
0.0
  0
ARC
  5
128F8
330
1A
100
AcDbEntity
  8
ZISSEN1
100
AcDbCircle
 10
-1837.073850578144
 20
1810.821825105528
 30
0.0
 40
1.749999899999999
100
AcDbArc
 50
359.9995799999967
 51
180.000410000002
  0
LINE
  5
128F9
330
1A
100
AcDbEntity
  8
ZISSEN1
100
AcDbLine
 10
-1844.573850578143
 20
1817.321815105529
 30
0.0
 11
-1844.573850578143
 21
1806.321805105529
 31
0.0
  0
LINE
  5
128FA
330
1A
100
AcDbEntity
  8
CL1
100
AcDbLine
 10
-1837.073850578144
 20
1813.821805105528
 30
0.0
 11
-1837.073850578144
 21
1807.821795105529
 31
0.0
  0
LINE
  5
128FB
330
1A
100
AcDbEntity
  8
ZISSEN1
100
AcDbLine
 10
-1847.573835578143
 20
1806.321805105529
 30
0.0
 11
-1838.823843578143
 21
1806.321805105529
 31
0.0
  0
LINE
  5
128FC
330
1A
100
AcDbEntity
  8
ZISSEN1
100
AcDbLine
 10
-1844.573850578143
 20
1807.028915105528
 30
0.0
 11
-1847.573835578143
 21
1807.028915105528
 31
0.0
  0
LINE
  5
128FD
330
1A
100
AcDbEntity
  8
CL1
100
AcDbLine
 10
-1834.073840578144
 20
1810.321795105529
 30
0.0
 11
-1840.073835578143
 21
1810.321795105529
 31
0.0
  0
LINE
  5
128FE
330
1A
100
AcDbEntity
  8
ZISSEN1
100
AcDbLine
 10
-1838.823843578143
 20
1810.821805105528
 30
0.0
 11
-1838.823843578143
 21
1806.321805105529
 31
0.0
  0
LINE
  5
128FF
330
1A
100
AcDbEntity
  8
ZISSEN1
100
AcDbLine
 10
-1835.323832578144
 20
1810.821805105528
 30
0.0
 11
-1835.323832578144
 21
1806.321805105529
 31
0.0
  0
LINE
  5
12900
330
1A
100
AcDbEntity
  8
ZISSEN1
100
AcDbLine
 10
-1840.573824578143
 20
1812.321815105529
 30
0.0
 11
-1844.573850578143
 21
1812.321815105529
 31
0.0
  0
LINE
  5
12901
330
1A
100
AcDbEntity
  8
ZISSEN1
100
AcDbLine
 10
-1844.073836578143
 20
1817.321815105529
 30
0.0
 11
-1844.573850578143
 21
1817.321815105529
 31
0.0
  0
LINE
  5
12902
330
1A
100
AcDbEntity
  8
ZISSEN1
100
AcDbLine
 10
-1840.573824578143
 20
1813.407595105528
 30
0.0
 11
-1839.159619578143
 21
1814.821805105529
 31
0.0
  0
LINE
  5
12903
330
1A
100
AcDbEntity
  8
ZISSEN1
100
AcDbLine
 10
-1840.573824578143
 20
1813.407595105528
 30
0.0
 11
-1840.573824578143
 21
1812.321815105529
 31
0.0
  0
LINE
  5
12905
330
1A
100
AcDbEntity
  8
CL1
100
AcDbLine
 10
-1831.073855578143
 20
1813.821805105528
 30
0.0
 11
-1831.073855578143
 21
1807.821785105528
 31
0.0
  0
LINE
  5
12906
330
1A
100
AcDbEntity
  8
ZISSEN1
100
AcDbLine
 10
-1827.159635578144
 20
1812.700485105528
 30
0.0
 11
-1827.159635578144
 21
1808.736025105528
 31
0.0
  0
CIRCLE
  5
12907
330
1A
100
AcDbEntity
  8
SAISEN
100
AcDbCircle
 10
-1831.073855578143
 20
1810.321795105529
 30
0.0
 40
1.5
  0
LINE
  5
12908
330
1A
100
AcDbEntity
  8
ZISSEN1
100
AcDbLine
 10
-1827.159635578144
 20
1808.736025105528
 30
0.0
 11
-1825.745415578143
 21
1807.321805105528
 31
0.0
  0
LINE
  5
12909
330
1A
100
AcDbEntity
  8
ZISSEN1
100
AcDbLine
 10
-1829.280943578144
 20
1814.821805105529
 30
0.0
 11
-1827.159635578144
 21
1812.700485105528
 31
0.0
  0
LINE
  5
1290D
330
1A
100
AcDbEntity
  8
ZISSEN1
100
AcDbLine
 10
-1771.573835578144
 20
1808.028915105529
 30
0.0
 11
-1772.280945578144
 21
1807.321805105528
 31
0.0
  0
LINE
  5
1290E
330
1A
100
AcDbEntity
  8
ZISSEN1
100
AcDbLine
 10
-1770.573835578144
 20
1807.028915105528
 30
0.0
 11
-1771.280945578143
 21
1806.321805105529
 31
0.0
  0
LINE
  5
12918
330
1A
100
AcDbEntity
  8
ZISSEN1
100
AcDbLine
 10
-1772.280945578144
 20
1893.321795105529
 30
0.0
 11
-1825.745415578143
 21
1893.321795105529
 31
0.0
  0
LINE
  5
12919
330
1A
100
AcDbEntity
  8
ZISSEN1
100
AcDbLine
 10
-1771.280945578143
 20
1894.321795105528
 30
0.0
 11
-1835.323832578144
 21
1894.321795105528
 31
0.0
  0
LINE
  5
1291A
330
1A
100
AcDbEntity
  8
ZISSEN1
100
AcDbLine
 10
-1827.159635578144
 20
1891.907575105529
 30
0.0
 11
-1825.745415578143
 21
1893.321795105529
 31
0.0
  0
LINE
  5
1291B
330
1A
100
AcDbEntity
  8
ZISSEN1
100
AcDbLine
 10
-1844.573850578143
 20
1894.321795105528
 30
0.0
 11
-1844.573850578143
 21
1883.321815105528
 31
0.0
  0
LINE
  5
1291C
330
1A
100
AcDbEntity
  8
CL1
100
AcDbLine
 10
-1831.073855578143
 20
1893.321825105529
 30
0.0
 11
-1831.073855578143
 21
1887.321805105528
 31
0.0
  0
LINE
  5
1291D
330
1A
100
AcDbEntity
  8
CL1
100
AcDbLine
 10
-1837.073850578144
 20
1893.321825105529
 30
0.0
 11
-1837.073850578144
 21
1887.321805105528
 31
0.0
  0
LINE
  5
1291E
330
1A
100
AcDbEntity
  8
ZISSEN1
100
AcDbLine
 10
-1835.323832578144
 20
1889.821805105529
 30
0.0
 11
-1835.323832578144
 21
1894.321795105528
 31
0.0
  0
LINE
  5
1291F
330
1A
100
AcDbEntity
  8
ZISSEN1
100
AcDbLine
 10
-1838.823843578143
 20
1889.821805105529
 30
0.0
 11
-1838.823843578143
 21
1894.321795105528
 31
0.0
  0
LINE
  5
12920
330
1A
100
AcDbEntity
  8
ZISSEN1
100
AcDbLine
 10
-1829.280943578144
 20
1885.821825105528
 30
0.0
 11
-1839.159619578143
 21
1885.821825105528
 31
0.0
  0
LINE
  5
12921
330
1A
100
AcDbEntity
  8
CL1
100
AcDbLine
 10
-1834.073840578144
 20
1890.321815105528
 30
0.0
 11
-1828.073845578144
 21
1890.321815105528
 31
0.0
  0
LINE
  5
12922
330
1A
100
AcDbEntity
  8
ZISSEN1
100
AcDbLine
 10
-1840.573824578143
 20
1888.321805105529
 30
0.0
 11
-1844.573850578143
 21
1888.321805105529
 31
0.0
  0
LINE
  5
12923
330
1A
100
AcDbEntity
  8
ZISSEN1
100
AcDbLine
 10
-1840.573824578143
 20
1888.321805105529
 30
0.0
 11
-1844.573850578143
 21
1888.321805105529
 31
0.0
  0
LINE
  5
12924
330
1A
100
AcDbEntity
  8
ZISSEN1
100
AcDbLine
 10
-1844.073836578143
 20
1883.321815105528
 30
0.0
 11
-1844.573850578143
 21
1883.321815105528
 31
0.0
  0
LINE
  5
12925
330
1A
100
AcDbEntity
  8
ZISSEN1
100
AcDbLine
 10
-1840.573824578143
 20
1887.236035105528
 30
0.0
 11
-1840.573824578143
 21
1888.321805105529
 31
0.0
  0
LINE
  5
12926
330
1A
100
AcDbEntity
  8
ZISSEN1
100
AcDbLine
 10
-1840.573824578143
 20
1887.236035105528
 30
0.0
 11
-1839.159619578143
 21
1885.821825105528
 31
0.0
  0
ARC
  5
12927
330
1A
100
AcDbEntity
  8
ZISSEN1
100
AcDbCircle
 10
-1837.073850578144
 20
1889.821805105529
 30
0.0
 40
1.749999899999999
100
AcDbArc
 50
180.0
 51
0.0
  0
LINE
  5
12928
330
1A
100
AcDbEntity
  8
CL1
100
AcDbLine
 10
-1834.073840578144
 20
1890.321815105528
 30
0.0
 11
-1840.073835578143
 21
1890.321815105528
 31
0.0
  0
LINE
  5
12929
330
1A
100
AcDbEntity
  8
ZISSEN1
100
AcDbLine
 10
-1829.280943578144
 20
1885.821825105528
 30
0.0
 11
-1827.159635578144
 21
1887.943145105529
 31
0.0
  0
CIRCLE
  5
1292B
330
1A
100
AcDbEntity
  8
SAISEN
100
AcDbCircle
 10
-1831.073855578143
 20
1890.321815105528
 30
0.0
 40
1.5
  0
LINE
  5
1292C
330
1A
100
AcDbEntity
  8
ZISSEN1
100
AcDbLine
 10
-1827.159635578144
 20
1887.943145105529
 30
0.0
 11
-1827.159635578144
 21
1891.907575105529
 31
0.0
  0
LINE
  5
1292D
330
1A
100
AcDbEntity
  8
ZISSEN1
100
AcDbLine
 10
-1847.573835578143
 20
1894.321795105528
 30
0.0
 11
-1838.823843578143
 21
1894.321795105528
 31
0.0
  0
LINE
  5
1292E
330
1A
100
AcDbEntity
  8
ZISSEN1
100
AcDbLine
 10
-1844.573850578143
 20
1893.614695105529
 30
0.0
 11
-1847.573835578143
 21
1893.614695105529
 31
0.0
  0
LINE
  5
12930
330
1A
100
AcDbEntity
  8
ZISSEN1
100
AcDbLine
 10
-1772.280945578144
 20
1893.321795105529
 30
0.0
 11
-1771.573835578144
 21
1892.614685105528
 31
0.0
  0
LINE
  5
12937
330
1A
100
AcDbEntity
  8
ZISSEN1
100
AcDbLine
 10
-1771.280945578143
 20
1894.321795105528
 30
0.0
 11
-1770.573835578144
 21
1893.614695105529
 31
0.0
  0
LINE
  5
12939
330
1A
100
AcDbEntity
  8
ZISSEN1
100
AcDbLine
 10
-1693.411675578143
 20
1807.028915105528
 30
0.0
 11
-1693.411675578143
 21
1893.614695105529
 31
0.0
  0
LINE
  5
1293A
330
1A
100
AcDbEntity
  8
ZISSEN1
100
AcDbLine
 10
-1666.011675578143
 20
1893.321795105529
 30
0.0
 11
-1666.011675578143
 21
1807.321805105528
 31
0.0
  0
LINE
  5
1293B
330
1A
100
AcDbEntity
  8
ZISSEN1
100
AcDbLine
 10
-1664.411685578144
 20
1893.321795105529
 30
0.0
 11
-1664.411685578144
 21
1807.321805105528
 31
0.0
  0
LINE
  5
1293C
330
1A
100
AcDbEntity
  8
ZISSEN1
100
AcDbLine
 10
-1658.411685578143
 20
1894.321795105528
 30
0.0
 11
-1658.411685578143
 21
1806.321805105529
 31
0.0
  0
LINE
  5
1293D
330
1A
100
AcDbEntity
  8
ZISSEN1
100
AcDbLine
 10
-1655.411675578144
 20
1894.321795105528
 30
0.0
 11
-1655.411675578144
 21
1806.321805105529
 31
0.0
  0
LINE
  5
1293E
330
1A
100
AcDbEntity
  8
CL1
100
AcDbLine
 10
-1661.411695578144
 20
1810.321805105528
 30
0.0
 11
-1652.411665578143
 21
1810.321805105528
 31
0.0
  0
LINE
  5
12940
330
1A
100
AcDbEntity
  8
ZISSEN1
100
AcDbLine
 10
-1692.704565578144
 20
1806.321805105529
 30
0.0
 11
-1683.161655578143
 21
1806.321805105529
 31
0.0
  0
LINE
  5
12941
330
1A
100
AcDbEntity
  8
ZISSEN1
100
AcDbLine
 10
-1693.411675578143
 20
1807.028915105528
 30
0.0
 11
-1692.704565578144
 21
1806.321805105529
 31
0.0
  0
LINE
  5
12943
330
1A
100
AcDbEntity
  8
ZISSEN1
100
AcDbLine
 10
-1679.661675578143
 20
1806.321805105529
 30
0.0
 11
-1666.411695578144
 21
1806.321805105529
 31
0.0
  0
ARC
  5
12945
330
1A
100
AcDbEntity
  8
ZISSEN1
100
AcDbCircle
 10
-1681.411665578144
 20
1810.821795105529
 30
0.0
 40
1.749999899999999
100
AcDbArc
 50
0.0004119000055023
 51
179.9995799999968
  0
LINE
  5
12946
330
1A
100
AcDbEntity
  8
CL1
100
AcDbLine
 10
-1675.411675578144
 20
1813.821805105528
 30
0.0
 11
-1675.411675578144
 21
1807.821815105528
 31
0.0
  0
LINE
  5
12947
330
1A
100
AcDbEntity
  8
CL1
100
AcDbLine
 10
-1681.411665578144
 20
1813.821805105528
 30
0.0
 11
-1681.411665578144
 21
1807.821815105528
 31
0.0
  0
LINE
  5
12948
330
1A
100
AcDbEntity
  8
CL1
100
AcDbLine
 10
-1678.411655578143
 20
1810.321805105528
 30
0.0
 11
-1672.411665578143
 21
1810.321805105528
 31
0.0
  0
LINE
  5
12949
330
1A
100
AcDbEntity
  8
CL1
100
AcDbLine
 10
-1684.411675578143
 20
1810.321805105528
 30
0.0
 11
-1678.411655578143
 21
1810.321805105528
 31
0.0
  0
LINE
  5
1294A
330
1A
100
AcDbEntity
  8
ZISSEN1
100
AcDbLine
 10
-1683.161655578143
 20
1810.821805105528
 30
0.0
 11
-1683.161655578143
 21
1806.321805105529
 31
0.0
  0
LINE
  5
1294B
330
1A
100
AcDbEntity
  8
ZISSEN1
100
AcDbLine
 10
-1679.661675578143
 20
1810.821805105528
 30
0.0
 11
-1679.661675578143
 21
1806.321805105529
 31
0.0
  0
CIRCLE
  5
1294C
330
1A
100
AcDbEntity
  8
KAKURESEN1
100
AcDbCircle
 10
-1675.411675578144
 20
1810.321805105528
 30
0.0
 40
1.5
  0
LINE
  5
1294D
330
1A
100
AcDbEntity
  8
ZISSEN1
100
AcDbLine
 10
-1664.411685578144
 20
1806.321805105529
 30
0.0
 11
-1655.411675578144
 21
1806.321805105529
 31
0.0
  0
LINE
  5
1294E
330
1A
100
AcDbEntity
  8
ZISSEN1
100
AcDbLine
 10
-1666.011675578143
 20
1808.028915105529
 30
0.0
 11
-1664.411685578144
 21
1808.028915105529
 31
0.0
  0
LINE
  5
1294F
330
1A
100
AcDbEntity
  8
ZISSEN1
100
AcDbLine
 10
-1666.011675578143
 20
1807.321805105528
 30
0.0
 11
-1664.411685578144
 21
1807.321805105528
 31
0.0
  0
LINE
  5
12950
330
1A
100
AcDbEntity
  8
ZISSEN1
100
AcDbLine
 10
-1666.411695578144
 20
1808.871825105529
 30
0.0
 11
-1666.411695578144
 21
1806.321805105529
 31
0.0
  0
LINE
  5
12951
330
1A
100
AcDbEntity
  8
ZISSEN1
100
AcDbLine
 10
-1664.411685578144
 20
1807.321805105528
 30
0.0
 11
-1664.411685578144
 21
1806.321805105529
 31
0.0
  0
LINE
  5
12952
330
1A
100
AcDbEntity
  8
ZISSEN1
100
AcDbLine
 10
-1658.411685578143
 20
1807.028915105528
 30
0.0
 11
-1655.411675578144
 21
1807.028915105528
 31
0.0
  0
LINE
  5
1295A
330
1A
100
AcDbEntity
  8
CL1
100
AcDbLine
 10
-1661.411695578144
 20
1890.321815105528
 30
0.0
 11
-1652.411665578143
 21
1890.321815105528
 31
0.0
  0
LINE
  5
1295B
330
1A
100
AcDbEntity
  8
ZISSEN1
100
AcDbLine
 10
-1692.704565578144
 20
1894.321795105528
 30
0.0
 11
-1683.161655578143
 21
1894.321795105528
 31
0.0
  0
LINE
  5
1295C
330
1A
100
AcDbEntity
  8
ZISSEN1
100
AcDbLine
 10
-1692.704565578144
 20
1894.321795105528
 30
0.0
 11
-1693.411675578143
 21
1893.614695105529
 31
0.0
  0
LINE
  5
1295D
330
1A
100
AcDbEntity
  8
ZISSEN1
100
AcDbLine
 10
-1666.411695578144
 20
1893.181815105529
 30
0.0
 11
-1666.411695578144
 21
1894.321795105528
 31
0.0
  0
LINE
  5
1295E
330
1A
100
AcDbEntity
  8
ZISSEN1
100
AcDbLine
 10
-1664.411685578144
 20
1892.614685105528
 30
0.0
 11
-1664.411685578144
 21
1894.321795105528
 31
0.0
  0
LINE
  5
1295F
330
1A
100
AcDbEntity
  8
CL1
100
AcDbLine
 10
-1675.411675578144
 20
1893.321825105529
 30
0.0
 11
-1675.411675578144
 21
1887.321805105528
 31
0.0
  0
LINE
  5
12960
330
1A
100
AcDbEntity
  8
CL1
100
AcDbLine
 10
-1681.411665578144
 20
1893.321825105529
 30
0.0
 11
-1681.411665578144
 21
1887.321805105528
 31
0.0
  0
LINE
  5
12961
330
1A
100
AcDbEntity
  8
ZISSEN1
100
AcDbLine
 10
-1683.161655578143
 20
1889.821805105529
 30
0.0
 11
-1683.161655578143
 21
1894.321795105528
 31
0.0
  0
LINE
  5
12962
330
1A
100
AcDbEntity
  8
ZISSEN1
100
AcDbLine
 10
-1679.661675578143
 20
1889.821805105529
 30
0.0
 11
-1679.661675578143
 21
1894.321795105528
 31
0.0
  0
LINE
  5
1296A
330
1A
100
AcDbEntity
  8
CL1
100
AcDbLine
 10
-1678.411655578143
 20
1890.321815105528
 30
0.0
 11
-1672.411665578143
 21
1890.321815105528
 31
0.0
  0
ARC
  5
1296B
330
1A
100
AcDbEntity
  8
ZISSEN1
100
AcDbCircle
 10
-1681.411665578144
 20
1889.821805105529
 30
0.0
 40
1.749999899999999
100
AcDbArc
 50
180.0
 51
0.0
  0
LINE
  5
1296C
330
1A
100
AcDbEntity
  8
CL1
100
AcDbLine
 10
-1684.411675578143
 20
1890.321815105528
 30
0.0
 11
-1678.411655578143
 21
1890.321815105528
 31
0.0
  0
LINE
  5
1296F
330
1A
100
AcDbEntity
  8
ZISSEN1
100
AcDbLine
 10
-1664.411685578144
 20
1892.614685105528
 30
0.0
 11
-1666.011675578143
 21
1892.614685105528
 31
0.0
  0
LINE
  5
12970
330
1A
100
AcDbEntity
  8
ZISSEN1
100
AcDbLine
 10
-1666.411695578144
 20
1893.181815105529
 30
0.0
 11
-1666.411695578144
 21
1892.181815105528
 31
0.0
  0
LINE
  5
12971
330
1A
100
AcDbEntity
  8
ZISSEN1
100
AcDbLine
 10
-1679.661675578143
 20
1894.321795105528
 30
0.0
 11
-1666.411695578144
 21
1894.321795105528
 31
0.0
  0
LINE
  5
12972
330
1A
100
AcDbEntity
  8
ZISSEN1
100
AcDbLine
 10
-1664.411685578144
 20
1894.321795105528
 30
0.0
 11
-1658.411685578143
 21
1894.321795105528
 31
0.0
  0
LINE
  5
12973
330
1A
100
AcDbEntity
  8
ZISSEN1
100
AcDbLine
 10
-1666.011675578143
 20
1893.321795105529
 30
0.0
 11
-1664.411685578144
 21
1893.321795105529
 31
0.0
  0
LINE
  5
12974
330
1A
100
AcDbEntity
  8
ZISSEN1
100
AcDbLine
 10
-1658.411685578143
 20
1894.321795105528
 30
0.0
 11
-1655.411675578144
 21
1894.321795105528
 31
0.0
  0
LINE
  5
12975
330
1A
100
AcDbEntity
  8
ZISSEN1
100
AcDbLine
 10
-1658.411685578143
 20
1893.614695105529
 30
0.0
 11
-1655.411675578144
 21
1893.614695105529
 31
0.0
  0
DIMENSION
  5
12A20
330
1A
100
AcDbEntity
  8
ZISSEN1
100
AcDbDimension
  2
*D24
 10
-1862.572781731832
 20
1890.321815105528
 30
0.0
 11
-1865.322781731832
 21
1892.321805105529
 31
0.0
 70
    32
  3
標準スタイル
100
AcDbAlignedDimension
 13
-1847.573835578143
 23
1894.321795105528
 33
0.0
 14
-1837.073850578144
 24
1890.321815105528
 34
0.0
 50
90.0
100
AcDbRotatedDimension
1001
ACAD
1000
DSTYLE
1002
{
1070
    40
1040
1.0
1002
}
  0
DIMENSION
  5
12A2F
330
1A
100
AcDbEntity
  8
ZISSEN1
100
AcDbDimension
  2
*D25
 10
-1862.572781731832
 20
1810.321795105529
 30
0.0
 11
-1865.322781731832
 21
1850.321805105529
 31
0.0
 70
    32
  3
標準スタイル
100
AcDbAlignedDimension
 13
-1862.572781731832
 23
1890.321815105528
 33
0.0
 14
-1837.073850578144
 24
1810.321795105529
 34
0.0
 50
90.0
100
AcDbRotatedDimension
1001
ACAD
1000
DSTYLE
1002
{
1070
    40
1040
1.0
1002
}
  0
DIMENSION
  5
12A3B
330
1A
100
AcDbEntity
  8
ZISSEN1
100
AcDbDimension
  2
*D26
 10
-1862.572781731832
 20
1806.321805105529
 30
0.0
 11
-1865.322781731832
 21
1808.321800105527
 31
0.0
 70
    32
  3
標準スタイル
100
AcDbAlignedDimension
 13
-1837.073850578144
 23
1810.321795105529
 33
0.0
 14
-1847.573835578143
 24
1806.321805105529
 34
0.0
 50
90.0
100
AcDbRotatedDimension
1001
ACAD
1000
DSTYLE
1002
{
1070
    40
1040
1.0
1002
}
  0
DIMENSION
  5
12A4A
330
1A
100
AcDbEntity
  8
ZISSEN1
100
AcDbDimension
  2
*D27
 10
-1877.812213225671
 20
1806.321805105529
 30
0.0
 11
-1880.562213225672
 21
1850.321800105528
 31
0.0
 70
    32
  3
標準スタイル
100
AcDbAlignedDimension
 13
-1862.572781731832
 23
1894.321795105528
 33
0.0
 14
-1862.572781731832
 24
1806.321805105529
 34
0.0
 50
90.0
100
AcDbRotatedDimension
1001
ACAD
1000
DSTYLE
1002
{
1070
    40
1040
1.0
1002
}
  0
DIMENSION
  5
12A58
330
1A
100
AcDbEntity
  8
ZISSEN1
100
AcDbDimension
  2
*D28
 10
-1877.812213225671
 20
1704.592075105528
 30
0.0
 11
-1880.562213225672
 21
1723.592075105528
 31
0.0
 70
    32
  3
標準スタイル
100
AcDbAlignedDimension
 13
-1847.573835578143
 23
1742.592075105529
 33
0.0
 14
-1847.573835578143
 24
1704.592075105528
 34
0.0
 50
90.0
100
AcDbRotatedDimension
1001
ACAD
1000
DSTYLE
1002
{
1070
    40
1040
1.0
1002
}
  0
DIMENSION
  5
12A65
330
1A
100
AcDbEntity
  8
ZISSEN1
100
AcDbDimension
  2
*D29
 10
-1844.573850578143
 20
1755.067967382886
 30
0.0
 11
-1836.667759207585
 21
1757.817967382885
 31
0.0
 70
    32
  3
標準スタイル
100
AcDbAlignedDimension
 13
-1847.573835578143
 23
1741.884965105529
 33
0.0
 14
-1844.573850578143
 24
1742.592075105529
 34
0.0
100
AcDbRotatedDimension
1001
ACAD
1000
DSTYLE
1002
{
1070
    40
1040
1.0
1002
}
  0
DIMENSION
  5
12A74
330
1A
100
AcDbEntity
  8
ZISSEN1
100
AcDbDimension
  2
*D30
 10
-1753.774331979055
 20
1704.592075105528
 30
0.0
 11
-1756.524331979056
 21
1696.685983734969
 31
0.0
 70
    32
  3
標準スタイル
100
AcDbAlignedDimension
 13
-1770.573835578144
 23
1707.592073105529
 33
0.0
 14
-1770.573835578144
 24
1704.592075105528
 34
0.0
 50
90.0
100
AcDbRotatedDimension
1001
ACAD
1000
DSTYLE
1002
{
1070
    40
1040
1.0
1002
}
  0
DIMENSION
  5
12A83
330
1A
100
AcDbEntity
  8
ZISSEN1
100
AcDbDimension
  2
*D31
 10
-1743.553983066558
 20
1704.592075105528
 30
0.0
 11
-1746.303983066558
 21
1719.592075105529
 31
0.0
 70
    32
  3
標準スタイル
100
AcDbAlignedDimension
 13
-1770.573835578144
 23
1734.592075105529
 33
0.0
 14
-1770.073835578144
 24
1704.592075105528
 34
0.0
 50
90.0
100
AcDbRotatedDimension
1001
ACAD
1000
DSTYLE
1002
{
1070
    40
1040
1.0
1002
}
  0
DIMENSION
  5
12A90
330
1A
100
AcDbEntity
  8
ZISSEN1
100
AcDbDimension
  2
*D32
 10
-1679.661675578143
 20
1904.858066070288
 30
0.0
 11
-1669.481472532459
 21
1907.608066070288
 31
0.0
 70
    32
  3
標準スタイル
100
AcDbAlignedDimension
 13
-1683.161655578143
 23
1894.321795105528
 33
0.0
 14
-1679.661675578143
 24
1894.321795105528
 34
0.0
100
AcDbRotatedDimension
1001
ACAD
1000
DSTYLE
1002
{
1070
    40
1040
1.0
1002
}
  0
DIMENSION
  5
12A9F
330
1A
100
AcDbEntity
  8
ZISSEN1
100
AcDbDimension
  2
*D33
 10
-1710.679187793529
 20
1890.321815105528
 30
0.0
 11
-1713.429187793528
 21
1892.321805105529
 31
0.0
 70
    32
  3
標準スタイル
100
AcDbAlignedDimension
 13
-1693.411675578143
 23
1894.321795105528
 33
0.0
 14
-1684.411665578143
 24
1890.321815105528
 34
0.0
 50
90.0
100
AcDbRotatedDimension
1001
ACAD
1000
DSTYLE
1002
{
1070
    40
1040
1.0
1002
}
  0
DIMENSION
  5
12ABA
330
1A
100
AcDbEntity
  8
ZISSEN1
100
AcDbDimension
  2
*D34
 10
-1710.679187793529
 20
1810.321805105528
 30
0.0
 11
-1713.429187793528
 21
1850.321810105528
 31
0.0
 70
    32
  3
標準スタイル
100
AcDbAlignedDimension
 13
-1710.679187793529
 23
1890.321815105528
 33
0.0
 14
-1684.411665578143
 24
1810.321805105528
 34
0.0
 50
90.0
100
AcDbRotatedDimension
1001
ACAD
1000
DSTYLE
1002
{
1070
    40
1040
1.0
1002
}
  0
DIMENSION
  5
12AC6
330
1A
100
AcDbEntity
  8
ZISSEN1
100
AcDbDimension
  2
*D35
 10
-1710.679187793529
 20
1806.321805105529
 30
0.0
 11
-1713.429187793528
 21
1808.321805105529
 31
0.0
 70
    32
  3
標準スタイル
100
AcDbAlignedDimension
 13
-1710.679187793529
 23
1810.321805105528
 33
0.0
 14
-1693.411675578143
 24
1806.321805105529
 34
0.0
 50
90.0
100
AcDbRotatedDimension
1001
ACAD
1000
DSTYLE
1002
{
1070
    40
1040
1.0
1002
}
  0
DIMENSION
  5
12AD4
330
1A
100
AcDbEntity
  8
ZISSEN1
100
AcDbDimension
  2
*D36
 10
-1770.573835578144
 20
1781.469467265712
 30
0.0
 11
-1809.073835578144
 21
1784.219467265714
 31
0.0
 70
    32
  3
標準スタイル
100
AcDbAlignedDimension
 13
-1847.573835578143
 23
1806.321805105529
 33
0.0
 14
-1770.573835578144
 24
1807.028915105528
 34
0.0
100
AcDbRotatedDimension
1001
ACAD
1000
DSTYLE
1002
{
1070
    40
1040
1.0
1002
}
  0
DIMENSION
  5
12AE1
330
1A
100
AcDbEntity
  8
ZISSEN1
100
AcDbDimension
  2
*D37
 10
-1675.411675578144
 20
1790.056170428663
 30
0.0
 11
-1665.411675578144
 21
1792.806170428663
 31
0.0
 70
    32
  3
標準スタイル
100
AcDbAlignedDimension
 13
-1655.411675578144
 23
1806.321805105529
 33
0.0
 14
-1675.411675578144
 24
1810.321805105528
 34
0.0
100
AcDbRotatedDimension
1001
ACAD
1000
DSTYLE
1002
{
1070
    40
1040
1.0
1002
}
  0
DIMENSION
  5
12AEE
330
1A
100
AcDbEntity
  8
ZISSEN1
100
AcDbDimension
  2
*D38
 10
-1681.411665578144
 20
1790.056170428663
 30
0.0
 11
-1678.411670578143
 21
1792.806170428663
 31
0.0
 70
    32
  3
標準スタイル
100
AcDbAlignedDimension
 13
-1675.411675578144
 23
1810.321805105528
 33
0.0
 14
-1681.411665578144
 24
1810.321805105528
 34
0.0
100
AcDbRotatedDimension
1001
ACAD
1000
DSTYLE
1002
{
1070
    40
1040
1.0
1002
}
  0
LINE
  5
12B12
330
1A
100
AcDbEntity
  8
SUNPOU
 62
     1
100
AcDbLine
 10
-1817.036057959934
 20
1900.183425966767
 30
0.0
 11
-1801.794941424166
 21
1900.183425966767
 31
0.0
  0
MTEXT
  5
12B13
330
1A
100
AcDbEntity
  8
ZISSEN1
 62
     1
100
AcDbMText
 10
-1814.61541030685
 20
1904.48295400464
 30
0.0
 40
3.5
 41
12.5515
 71
     1
 72
     5
  1
2-M3
  7
ゴシック体
1001
ACAD
1000
MTEXTBEGIN
1070
    73
1070
     1
1070
    44
1040
1.0
1070
    74
1070
     0
1000
MTEXTEND
  0
LINE
  5
12B1C
330
1A
100
AcDbEntity
  8
SUNPOU
 62
     1
100
AcDbLine
 10
-1661.560533700506
 20
1899.676516465286
 30
0.0
 11
-1646.319417164738
 21
1899.676516465286
 31
0.0
  0
MTEXT
  5
12B1D
330
1A
100
AcDbEntity
  8
ZISSEN1
 62
     1
100
AcDbMText
 10
-1659.139886047423
 20
1903.97604450316
 30
0.0
 40
3.5
 41
12.5515
 71
     1
 72
     5
  1
2-M3
  7
ゴシック体
1001
ACAD
1000
MTEXTBEGIN
1070
    73
1070
     1
1070
    44
1040
1.0
1070
    74
1070
     0
1000
MTEXTEND
  0
LINE
  5
12BF2
330
1A
100
AcDbEntity
  8
ZISSEN1
100
AcDbLine
 10
-1781.523854578144
 20
1868.321795105529
 30
0.0
 11
-1781.523854578144
 21
1878.321825105528
 31
0.0
  0
LINE
  5
12BF3
330
1A
100
AcDbEntity
  8
ZISSEN1
100
AcDbLine
 10
-1774.623844578144
 20
1868.321795105529
 30
0.0
 11
-1774.623844578144
 21
1878.321825105528
 31
0.0
  0
LINE
  5
12BF8
330
1A
100
AcDbEntity
  8
ZISSEN1
100
AcDbLine
 10
-1774.623844578144
 20
1868.321795105529
 30
0.0
 11
-1781.523854578144
 21
1868.321795105529
 31
0.0
  0
LINE
  5
12C0D
330
1A
100
AcDbEntity
  8
ZISSEN1
100
AcDbLine
 10
-1780.473834578143
 20
1808.871815105528
 30
0.0
 11
-1780.473834578143
 21
1830.771825105528
 31
0.0
  0
LINE
  5
12C0E
330
1A
100
AcDbEntity
  8
ZISSEN1
100
AcDbLine
 10
-1774.673854578144
 20
1808.871815105528
 30
0.0
 11
-1774.673854578144
 21
1830.771825105528
 31
0.0
  0
LINE
  5
12C0F
330
1A
100
AcDbEntity
  8
ZISSEN1
100
AcDbLine
 10
-1780.473834578143
 20
1808.871815105528
 30
0.0
 11
-1774.673854578144
 21
1808.871815105528
 31
0.0
  0
LINE
  5
12C13
330
1A
100
AcDbEntity
  8
ZISSEN1
100
AcDbLine
 10
-1780.473834578143
 20
1831.871825105528
 30
0.0
 11
-1780.473834578143
 21
1841.271815105529
 31
0.0
  0
LINE
  5
12C14
330
1A
100
AcDbEntity
  8
ZISSEN1
100
AcDbLine
 10
-1774.673824578144
 20
1831.871825105528
 30
0.0
 11
-1774.673824578144
 21
1841.271815105529
 31
0.0
  0
LINE
  5
12C15
330
1A
100
AcDbEntity
  8
ZISSEN1
100
AcDbLine
 10
-1780.473834578143
 20
1830.771825105528
 30
0.0
 11
-1774.673854578144
 21
1830.771825105528
 31
0.0
  0
LINE
  5
12C16
330
1A
100
AcDbEntity
  8
ZISSEN1
100
AcDbLine
 10
-1774.673824578144
 20
1831.871825105528
 30
0.0
 11
-1780.473834578143
 21
1831.871825105528
 31
0.0
  0
LINE
  5
12C17
330
1A
100
AcDbEntity
  8
ZISSEN1
100
AcDbLine
 10
-1774.673824578144
 20
1841.271815105529
 30
0.0
 11
-1780.473834578143
 21
1841.271815105529
 31
0.0
  0
LINE
  5
12C18
330
1A
100
AcDbEntity
  8
ZISSEN1
100
AcDbLine
 10
-1780.473834578143
 20
1850.371785105529
 30
0.0
 11
-1780.473834578143
 21
1867.271825105529
 31
0.0
  0
LINE
  5
12C19
330
1A
100
AcDbEntity
  8
ZISSEN1
100
AcDbLine
 10
-1774.673824578144
 20
1850.371785105529
 30
0.0
 11
-1774.673824578144
 21
1867.271825105529
 31
0.0
  0
LINE
  5
12C1A
330
1A
100
AcDbEntity
  8
ZISSEN1
100
AcDbLine
 10
-1780.473834578143
 20
1850.371785105529
 30
0.0
 11
-1774.673824578144
 21
1850.371785105529
 31
0.0
  0
LINE
  5
12C1B
330
1A
100
AcDbEntity
  8
ZISSEN1
100
AcDbLine
 10
-1780.473834578143
 20
1867.271825105529
 30
0.0
 11
-1774.673824578144
 21
1867.271825105529
 31
0.0
  0
LINE
  5
12C1C
330
1A
100
AcDbEntity
  8
ZISSEN1
100
AcDbLine
 10
-1774.623844578144
 20
1878.321825105528
 30
0.0
 11
-1781.523854578144
 21
1878.321825105528
 31
0.0
  0
LINE
  5
12C1D
330
1A
100
AcDbEntity
  8
ZISSEN1
100
AcDbLine
 10
-1774.673834578143
 20
1878.961825105528
 30
0.0
 11
-1785.473844578143
 21
1878.961825105528
 31
0.0
  0
LINE
  5
12C1E
330
1A
100
AcDbEntity
  8
ZISSEN1
100
AcDbLine
 10
-1774.673834578143
 20
1890.681815105528
 30
0.0
 11
-1785.473844578143
 21
1890.681815105528
 31
0.0
  0
LINE
  5
12C34
330
1A
100
AcDbEntity
  8
ZISSEN1
100
AcDbLine
 10
-1786.173834578144
 20
1887.871815105528
 30
0.0
 11
-1786.173834578144
 21
1881.771805105528
 31
0.0
  0
LINE
  5
12C35
330
1A
100
AcDbEntity
  8
ZISSEN1
100
AcDbLine
 10
-1792.973834578143
 20
1887.871815105528
 30
0.0
 11
-1792.973834578143
 21
1881.771805105528
 31
0.0
  0
LINE
  5
12C36
330
1A
100
AcDbEntity
  8
ZISSEN1
100
AcDbLine
 10
-1785.473844578143
 20
1878.961825105528
 30
0.0
 11
-1785.473844578143
 21
1890.681815105528
 31
0.0
  0
LINE
  5
12C37
330
1A
100
AcDbEntity
  8
ZISSEN1
100
AcDbLine
 10
-1792.973834578143
 20
1881.771805105528
 30
0.0
 11
-1786.173834578144
 21
1881.771805105528
 31
0.0
  0
LINE
  5
12C38
330
1A
100
AcDbEntity
  8
ZISSEN1
100
AcDbLine
 10
-1792.973834578143
 20
1887.871815105528
 30
0.0
 11
-1786.173834578144
 21
1887.871815105528
 31
0.0
  0
LINE
  5
12C39
330
1A
100
AcDbEntity
  8
ZISSEN1
100
AcDbLine
 10
-1774.673834578143
 20
1878.961825105528
 30
0.0
 11
-1774.673834578143
 21
1890.681815105528
 31
0.0
  0
LINE
  5
12CD9
330
1A
100
AcDbEntity
  8
ZISSEN1
100
AcDbLine
 10
-1683.411675578144
 20
1867.271825105529
 30
0.0
 11
-1683.411675578144
 21
1850.371785105529
 31
0.0
  0
LINE
  5
12CDF
330
1A
100
AcDbEntity
  8
ZISSEN1
100
AcDbLine
 10
-1683.411675578144
 20
1830.771825105528
 30
0.0
 11
-1666.011685578143
 21
1830.771825105528
 31
0.0
  0
LINE
  5
12CE0
330
1A
100
AcDbEntity
  8
ZISSEN1
100
AcDbLine
 10
-1683.411675578144
 20
1831.871825105528
 30
0.0
 11
-1666.011685578143
 21
1831.871825105528
 31
0.0
  0
LINE
  5
12CE1
330
1A
100
AcDbEntity
  8
ZISSEN1
100
AcDbLine
 10
-1683.411675578144
 20
1841.271815105529
 30
0.0
 11
-1666.011685578143
 21
1841.271815105529
 31
0.0
  0
LINE
  5
12CE2
330
1A
100
AcDbEntity
  8
ZISSEN1
100
AcDbLine
 10
-1683.411675578144
 20
1850.371785105529
 30
0.0
 11
-1666.011685578143
 21
1850.371785105529
 31
0.0
  0
LINE
  5
12CE5
330
1A
100
AcDbEntity
  8
ZISSEN1
100
AcDbLine
 10
-1683.411675578144
 20
1808.871815105528
 30
0.0
 11
-1666.011685578143
 21
1808.871815105528
 31
0.0
  0
LINE
  5
12CE6
330
1A
100
AcDbEntity
  8
ZISSEN1
100
AcDbLine
 10
-1683.411675578144
 20
1830.771825105528
 30
0.0
 11
-1683.411675578144
 21
1808.871815105528
 31
0.0
  0
LINE
  5
12CF1
330
1A
100
AcDbEntity
  8
ZISSEN1
100
AcDbLine
 10
-1683.411675578144
 20
1841.271815105529
 30
0.0
 11
-1683.411675578144
 21
1831.871825105528
 31
0.0
  0
LINE
  5
12CF8
330
1A
100
AcDbEntity
  8
ZISSEN1
100
AcDbLine
 10
-1664.411685578144
 20
1848.321825105528
 30
0.0
 11
-1658.411695578144
 21
1848.321825105528
 31
0.0
  0
LINE
  5
12CF9
330
1A
100
AcDbEntity
  8
ZISSEN1
100
AcDbLine
 10
-1664.411685578144
 20
1843.321805105528
 30
0.0
 11
-1658.411695578144
 21
1843.321805105528
 31
0.0
  0
LINE
  5
12CFC
330
1A
100
AcDbEntity
  8
ZISSEN1
100
AcDbLine
 10
-1676.011695578143
 20
1878.321825105528
 30
0.0
 11
-1666.011685578143
 21
1878.321825105528
 31
0.0
  0
LINE
  5
12CFD
330
1A
100
AcDbEntity
  8
ZISSEN1
100
AcDbLine
 10
-1676.211675578144
 20
1890.681815105528
 30
0.0
 11
-1666.011685578143
 21
1890.681815105528
 31
0.0
  0
LINE
  5
12CFE
330
1A
100
AcDbEntity
  8
ZISSEN1
100
AcDbLine
 10
-1676.211675578144
 20
1878.961825105528
 30
0.0
 11
-1666.011685578143
 21
1878.961825105528
 31
0.0
  0
LINE
  5
12CFF
330
1A
100
AcDbEntity
  8
ZISSEN1
100
AcDbLine
 10
-1676.011695578143
 20
1868.321795105529
 30
0.0
 11
-1666.011685578143
 21
1868.321795105529
 31
0.0
  0
LINE
  5
12D00
330
1A
100
AcDbEntity
  8
ZISSEN1
100
AcDbLine
 10
-1683.411675578144
 20
1867.271825105529
 30
0.0
 11
-1666.011685578143
 21
1867.271825105529
 31
0.0
  0
ARC
  5
12D06
330
1A
100
AcDbEntity
  8
SAISEN
100
AcDbCircle
 10
-1675.411675578144
 20
1890.321815105528
 30
0.0
 40
1.5
100
AcDbArc
 50
13.89027066994416
 51
237.8773462840318
  0
LINE
  5
12D07
330
1A
100
AcDbEntity
  8
ZISSEN1
100
AcDbLine
 10
-1676.211675578144
 20
1890.681815105528
 30
0.0
 11
-1676.211675578144
 21
1878.961825105528
 31
0.0
  0
LINE
  5
12D0D
330
1A
100
AcDbEntity
  8
ZISSEN1
100
AcDbLine
 10
-1676.011695578143
 20
1878.321825105528
 30
0.0
 11
-1676.011695578143
 21
1868.321795105529
 31
0.0
  0
CIRCLE
  5
12D2E
330
1A
100
AcDbEntity
  8
ZISSEN1
100
AcDbCircle
 10
-1831.073855578143
 20
1890.321815105528
 30
0.0
 40
1.0
  0
CIRCLE
  5
12D31
330
1A
100
AcDbEntity
  8
ZISSEN1
100
AcDbCircle
 10
-1831.073855578143
 20
1810.321795105529
 30
0.0
 40
1.0
  0
ARC
  5
12D35
330
1A
100
AcDbEntity
  8
ZISSEN1
100
AcDbCircle
 10
-1675.411675578144
 20
1890.321815105528
 30
0.0
 40
1.0
100
AcDbArc
 50
21.03964614616185
 51
217.2956308219613
  0
LINE
  5
12D37
330
1A
100
AcDbEntity
  8
ZISSEN1
100
AcDbLine
 10
-1676.211675578144
 20
1890.681815105528
 30
0.0
 11
-1676.211675578144
 21
1890.681815105528
 31
0.0
  0
LINE
  5
12D38
330
1A
100
AcDbEntity
  8
ZISSEN1
100
AcDbLine
 10
-1676.211675578144
 20
1890.681815105528
 30
0.0
 11
-1676.211675578144
 21
1890.681815105528
 31
0.0
  0
LINE
  5
12D39
330
1A
100
AcDbEntity
  8
ZISSEN1
100
AcDbLine
 10
-1676.211675578144
 20
1890.681815105528
 30
0.0
 11
-1676.211675578144
 21
1890.681815105528
 31
0.0
  0
LINE
  5
12D3A
330
1A
100
AcDbEntity
  8
ZISSEN1
100
AcDbLine
 10
-1676.211675578144
 20
1890.681815105528
 30
0.0
 11
-1676.211675578144
 21
1890.681815105528
 31
0.0
  0
ARC
  5
12D40
330
1A
100
AcDbEntity
  8
KAKURESEN1
100
AcDbCircle
 10
-1675.411675578144
 20
1890.321815105528
 30
0.0
 40
1.0
100
AcDbArc
 50
217.6374613765591
 51
20.51958956223287
  0
ARC
  5
12D41
330
1A
100
AcDbEntity
  8
KAKURESEN1
100
AcDbCircle
 10
-1675.411675578144
 20
1890.321815105528
 30
0.0
 40
1.5
100
AcDbArc
 50
238.1953220821849
 51
13.69392206479146
  0
CIRCLE
  5
12D44
330
1A
100
AcDbEntity
  8
KAKURESEN1
100
AcDbCircle
 10
-1675.411675578144
 20
1810.321805105528
 30
0.0
 40
1.0
  0
LINE
  5
12DB4
330
1A
100
AcDbEntity
  8
ZISSEN1
100
AcDbLine
 10
-1780.473825578144
 20
1734.592065105529
 30
0.0
 11
-1774.673815578144
 21
1734.592065105529
 31
0.0
  0
DIMENSION
  5
12DDC
330
1A
100
AcDbEntity
  8
ZISSEN1
100
AcDbDimension
  2
*D39
 10
-1837.073850578144
 20
1796.205492767098
 30
0.0
 11
-1842.323843078143
 21
1798.955492767098
 31
0.0
 70
    32
  3
標準スタイル
100
AcDbAlignedDimension
 13
-1847.573835578143
 23
1805.821805105528
 33
0.0
 14
-1837.073850578144
 24
1807.821795105529
 34
0.0
100
AcDbRotatedDimension
1001
ACAD
1000
DSTYLE
1002
{
1070
    40
1040
1.0
1002
}
  0
DIMENSION
  5
12DE9
330
1A
100
AcDbEntity
  8
ZISSEN1
100
AcDbDimension
  2
*D40
 10
-1831.073855578143
 20
1796.205492767098
 30
0.0
 11
-1834.073853078144
 21
1798.955492767098
 31
0.0
 70
    32
  3
標準スタイル
100
AcDbAlignedDimension
 13
-1837.073850578144
 23
1807.321795105529
 33
0.0
 14
-1831.073855578143
 24
1807.321795105529
 34
0.0
100
AcDbRotatedDimension
1001
ACAD
1000
DSTYLE
1002
{
1070
    40
1040
1.0
1002
}
  0
DIMENSION
  5
12DF8
330
1A
100
AcDbEntity
  8
ZISSEN1
100
AcDbDimension
  2
*D41
 10
-1838.823843578143
 20
1903.987618416715
 30
0.0
 11
-1849.004046623829
 21
1906.737618416715
 31
0.0
 70
    32
  3
標準スタイル
100
AcDbAlignedDimension
 13
-1835.323832578144
 23
1894.321795105528
 33
0.0
 14
-1838.823843578143
 24
1894.321795105528
 34
0.0
100
AcDbRotatedDimension
1001
ACAD
1000
DSTYLE
1002
{
1070
    40
1040
1.0
1002
}
  0
DIMENSION
  5
12E17
330
1A
100
AcDbEntity
  8
ZISSEN1
100
AcDbDimension
  2
*D42
 10
-1655.411675578144
 20
1781.417334380103
 30
0.0
 11
-1674.411675578144
 21
1784.167334380103
 31
0.0
 70
    32
  3
標準スタイル
100
AcDbAlignedDimension
 13
-1693.411675578143
 23
1806.321805105529
 33
0.0
 14
-1655.411675578144
 24
1805.321805105529
 34
0.0
100
AcDbRotatedDimension
1001
ACAD
1000
DSTYLE
1002
{
1070
    40
1040
1.0
1002
}
  0
LEADER
  5
12E44
330
1A
100
AcDbEntity
  8
ZISSEN1
100
AcDbLeader
  3
標準スタイル
 76
     2
 10
-1829.846453392365
 20
1891.184070215311
 30
0.0
 10
-1817.036057959934
 20
1900.183425966767
 30
0.0
1001
ACAD
1000
DSTYLE
1002
{
1070
     5
1000

1070
    77
1070
     0
1070
   147
1040
1.0
1002
}
  0
LEADER
  5
12E4B
330
1A
100
AcDbEntity
  8
ZISSEN1
100
AcDbLeader
  3
標準スタイル
 76
     2
 10
-1674.168613926328
 20
1891.161337427915
 30
0.0
 10
-1661.560533700506
 20
1899.676516465286
 30
0.0
1001
ACAD
1000
DSTYLE
1002
{
1070
     5
1000

1070
    77
1070
     0
1070
   147
1040
1.0
1002
}
  0
VIEWPORT
  5
5D8F
330
5D8E
100
AcDbEntity
 67
     1
  8
0
100
AcDbViewport
 10
276.7915894831097
 20
395.576200444983
 30
0.0
 40
684.4796658036407
 41
780.9621718876646
 68
     1
 69
     1
1001
ACAD
1000
MVIEW
1002
{
1070
    16
1010
0.0
1020
0.0
1030
0.0
1010
0.0
1020
0.0
1030
1.0
1040
0.0
1040
780.9621718876646
1040
276.7915894831097
1040
395.576200444983
1040
50.0
1040
0.0
1040
0.0
1070
     0
1070
   100
1070
     1
1070
     0
1070
     0
1070
     0
1070
     0
1070
     0
1040
0.0
1040
0.0
1040
0.0
1040
1.0
1040
1.0
1040
10.0
1040
10.0
1070
     0
1002
{
1002
}
1002
}
  0
VIEWPORT
  5
6001
330
5D8E
100
AcDbEntity
 67
     1
  8
ZISSEN1
100
AcDbViewport
 10
221.7861955525411
 20
157.6960273330388
 30
0.0
 40
385.4999999999997
 41
259.9999999999999
 68
     2
 69
     2
1001
ACAD
1000
MVIEW
1002
{
1070
    16
1010
0.0
1020
0.0
1030
0.0
1010
0.0
1020
0.0
1030
1.0
1040
0.0
1040
259.9999999999999
1040
-1764.520129916017
1040
1804.086012485895
1040
50.0
1040
0.0
1040
0.0
1070
     0
1070
   100
1070
     1
1070
     0
1070
     0
1070
     0
1070
     0
1070
     0
1040
0.0
1040
0.0
1040
0.0
1040
1.0
1040
1.0
1040
10.0
1040
10.0
1070
     0
1002
{
1002
}
1002
}
  0
TEXT
  5
716F
330
5D8E
100
AcDbEntity
 67
     1
  8
SUNPOU
 62
     0
100
AcDbText
 10
374.1863124306943
 20
60.86794705907585
 30
0.0
 40
3.5
  1
縮尺 1/1
  7
ゴシック体
100
AcDbText
  0
ENDSEC
  0
SECTION
  2
OBJECTS
  0
DICTIONARY
  5
C
330
0
100
AcDbDictionary
  3
ACAD_GROUP
350
D
  3
ACAD_LAYOUT
350
5C7D
  3
ACAD_MLINESTYLE
350
E
  3
ACAD_PLOTSETTINGS
350
5C7E
  3
ACAD_PLOTSTYLENAME
350
5C7B
  3
ACADDIM
350
12E35
  3
DWGPROPS
350
5E8E
  3
ACDBVARIABLEDICTIONARY
350
12E61
  3
ACDBHEADERROUNDTRIPXREC
350
12E6C
  0
DICTIONARY
  5
12E8C
330
1A
100
AcDbDictionary
280
     1
  3
ACAD_LAYOUTSELFREF
360
12E8D
  0
DICTIONARY
  5
12E8E
330
5D8E
100
AcDbDictionary
280
     1
  3
ACAD_LAYOUTSELFREF
360
12E8F
  0
DICTIONARY
  5
D
102
{ACAD_REACTORS
330
C
102
}
330
C
100
AcDbDictionary
  3
*A1
350
477D
  3
*A2
350
4C0E
  3
*A3
350
4C0F
  3
*A4
350
4C10
  3
*A5
350
4C11
  3
*A6
350
4C12
  3
*A7
350
4C13
  3
*A8
350
4C14
  3
*A9
350
4C15
  3
*A10
350
4C16
  3
*A11
350
4C17
  3
*A12
350
477E
  3
*A13
350
477F
  3
*A14
350
4780
  3
*A15
350
4781
  0
DICTIONARY
  5
5C7D
102
{ACAD_REACTORS
330
C
102
}
330
C
100
AcDbDictionary
  0
DICTIONARY
  5
E
102
{ACAD_REACTORS
330
C
102
}
330
C
100
AcDbDictionary
  3
STANDARD
350
13
  0
DICTIONARY
  5
5C7E
102
{ACAD_REACTORS
330
C
102
}
330
C
100
AcDbDictionary
  0
ACDBDICTIONARYWDFLT
  5
5C7B
102
{ACAD_REACTORS
330
C
102
}
330
C
100
AcDbDictionary
281
     1
  3
Normal
350
5C7C
100
AcDbDictionaryWithDefault
340
5C7C
  0
XRECORD
  5
12E35
102
{ACAD_REACTORS
330
C
102
}
330
C
100
AcDbXrecord
 90
   990106
  3

 60
     0
 61
     0
 62
     1
 63
     3
 64
     0
 65
     0
 66
     0
 67
     3
 68
     1
 69
     0
 70
     0
 71
     0
 72
     0
 40
0.0
170
     0
  0
XRECORD
  5
5E8E
102
{ACAD_REACTORS
330
C
102
}
330
C
100
AcDbXrecord
  1
DWGPROPS COOKIE
  2

  3

  4

  6

  7

  8

  9

300
=
301
=
302
=
303
=
304
=
305
=
306
=
307
=
308
=
309
=
 40
0.586753587962963
 41
2450495.493631364
 42
2453208.662277431
  1

 90
        0
  0
DICTIONARY
  5
12E61
102
{ACAD_REACTORS
330
C
102
}
330
C
100
AcDbDictionary
  3
INDEXCTL
350
12E62
  0
DICTIONARY
  5
12E6C
102
{ACAD_REACTORS
330
C
102
}
330
C
100
AcDbDictionary
  3
TSTACKALIGN
350
12E6D
  3
TSTACKSIZE
350
12E6E
  3
HYPERLINKBASE
350
12E6F
  3
STYLESHEET
350
12E70
  3
LAYOUTDICT
350
12E71
  3
PLOTSETDICT
350
12E72
  3
PLOTSTYLNAMDICT
350
12E73
  3
LWETCUNION
350
12E74
  3
INSUNITS
350
12E75
  3
CEPSNTYPE
350
12E76
  3
FINGERPRINTGUID
350
12E77
  3
VERSIONGUID
350
12E78
  3
PSVPSCALE
350
12E79
  3
PUCSORTHOREF
350
12E7A
  3
PUCSORTHOVIEW
350
12E7B
  3
PUCSBASE
350
12E7C
  3
PUCSORGTOP
350
12E7D
  3
PUCSORGBOTTOM
350
12E7E
  3
PUCSORGLEFT
350
12E7F
  3
PUCSORGRIGHT
350
12E80
  3
PUCSORGFRONT
350
12E81
  3
PUCSORGBACK
350
12E82
  3
UCSORTHOREF
350
12E83
  3
UCSORTHOVIEW
350
12E84
  3
UCSBASE
350
12E85
  3
UCSORGTOP
350
12E86
  3
UCSORGBOTTOM
350
12E87
  3
UCSORGLEFT
350
12E88
  3
UCSORGRIGHT
350
12E89
  3
UCSORGFRONT
350
12E8A
  3
UCSORGBACK
350
12E8B
  0
XRECORD
  5
12E8D
102
{ACAD_REACTORS
330
12E8C
102
}
330
12E8C
100
AcDbXrecord
340
1A
  0
XRECORD
  5
12E8F
102
{ACAD_REACTORS
330
12E8E
102
}
330
12E8E
100
AcDbXrecord
340
5D8E
  0
GROUP
  5
477D
102
{ACAD_REACTORS
330
D
102
}
330
D
100
AcDbGroup
300

 70
     1
 71
     1
  0
GROUP
  5
4C0E
102
{ACAD_REACTORS
330
D
102
}
330
D
100
AcDbGroup
300

 70
     1
 71
     1
  0
GROUP
  5
4C0F
102
{ACAD_REACTORS
330
D
102
}
330
D
100
AcDbGroup
300

 70
     1
 71
     1
  0
GROUP
  5
4C10
102
{ACAD_REACTORS
330
D
102
}
330
D
100
AcDbGroup
300

 70
     1
 71
     1
  0
GROUP
  5
4C11
102
{ACAD_REACTORS
330
D
102
}
330
D
100
AcDbGroup
300

 70
     1
 71
     1
  0
GROUP
  5
4C12
102
{ACAD_REACTORS
330
D
102
}
330
D
100
AcDbGroup
300

 70
     1
 71
     1
  0
GROUP
  5
4C13
102
{ACAD_REACTORS
330
D
102
}
330
D
100
AcDbGroup
300

 70
     1
 71
     1
  0
GROUP
  5
4C14
102
{ACAD_REACTORS
330
D
102
}
330
D
100
AcDbGroup
300

 70
     1
 71
     1
  0
GROUP
  5
4C15
102
{ACAD_REACTORS
330
D
102
}
330
D
100
AcDbGroup
300

 70
     1
 71
     1
  0
GROUP
  5
4C16
102
{ACAD_REACTORS
330
D
102
}
330
D
100
AcDbGroup
300

 70
     1
 71
     1
  0
GROUP
  5
4C17
102
{ACAD_REACTORS
330
D
102
}
330
D
100
AcDbGroup
300

 70
     1
 71
     1
  0
GROUP
  5
477E
102
{ACAD_REACTORS
330
D
102
}
330
D
100
AcDbGroup
300

 70
     1
 71
     1
  0
GROUP
  5
477F
102
{ACAD_REACTORS
330
D
102
}
330
D
100
AcDbGroup
300

 70
     1
 71
     1
  0
GROUP
  5
4780
102
{ACAD_REACTORS
330
D
102
}
330
D
100
AcDbGroup
300

 70
     1
 71
     1
  0
GROUP
  5
4781
102
{ACAD_REACTORS
330
D
102
}
330
D
100
AcDbGroup
300

 70
     1
 71
     1
  0
MLINESTYLE
  5
13
102
{ACAD_REACTORS
330
E
102
}
330
E
100
AcDbMlineStyle
  2
STANDARD
 70
     0
  3

 62
     0
 51
90.0
 52
90.0
 71
     2
 49
0.5
 62
   256
  6
BYLAYER
 49
-0.5
 62
   256
  6
BYLAYER
  0
ACDBPLACEHOLDER
  5
5C7C
102
{ACAD_REACTORS
330
5C7B
102
}
330
5C7B
100
AcDbPlaceHolder
280
     0
  0
DICTIONARYVAR
  5
12E62
102
{ACAD_REACTORS
330
12E61
102
}
330
12E61
100
DictionaryVariables
280
     0
  1
-1
  0
XRECORD
  5
12E6D
102
{ACAD_REACTORS
330
12E6C
102
}
330
12E6C
100
AcDbXrecord
 90
        1
  0
XRECORD
  5
12E6E
102
{ACAD_REACTORS
330
12E6C
102
}
330
12E6C
100
AcDbXrecord
 90
       70
  0
XRECORD
  5
12E6F
102
{ACAD_REACTORS
330
12E6C
102
}
330
12E6C
100
AcDbXrecord
  1

  0
XRECORD
  5
12E70
102
{ACAD_REACTORS
330
12E6C
102
}
330
12E6C
100
AcDbXrecord
  1

  0
XRECORD
  5
12E71
102
{ACAD_REACTORS
330
12E6C
102
}
330
12E6C
100
AcDbXrecord
340
5C7D
  0
XRECORD
  5
12E72
102
{ACAD_REACTORS
330
12E6C
102
}
330
12E6C
100
AcDbXrecord
340
5C7E
  0
XRECORD
  5
12E73
102
{ACAD_REACTORS
330
12E6C
102
}
330
12E6C
100
AcDbXrecord
340
5C7B
  0
XRECORD
  5
12E74
102
{ACAD_REACTORS
330
12E6C
102
}
330
12E6C
100
AcDbXrecord
 90
    10781
  0
XRECORD
  5
12E75
102
{ACAD_REACTORS
330
12E6C
102
}
330
12E6C
100
AcDbXrecord
 90
        0
  0
XRECORD
  5
12E76
102
{ACAD_REACTORS
330
12E6C
102
}
330
12E6C
100
AcDbXrecord
 90
        0
  0
XRECORD
  5
12E77
102
{ACAD_REACTORS
330
12E6C
102
}
330
12E6C
100
AcDbXrecord
  1
{225A7F0D-DA29-11D8-946A-0000E2416295}
  0
XRECORD
  5
12E78
102
{ACAD_REACTORS
330
12E6C
102
}
330
12E6C
100
AcDbXrecord
  1
{2BA8647E-15BD-4B16-90E2-D771A2FE831A}
  0
XRECORD
  5
12E79
102
{ACAD_REACTORS
330
12E6C
102
}
330
12E6C
100
AcDbXrecord
 40
0.0
  0
XRECORD
  5
12E7A
102
{ACAD_REACTORS
330
12E6C
102
}
330
12E6C
100
AcDbXrecord
340
0
  0
XRECORD
  5
12E7B
102
{ACAD_REACTORS
330
12E6C
102
}
330
12E6C
100
AcDbXrecord
 70
     0
  0
XRECORD
  5
12E7C
102
{ACAD_REACTORS
330
12E6C
102
}
330
12E6C
100
AcDbXrecord
340
0
  0
XRECORD
  5
12E7D
102
{ACAD_REACTORS
330
12E6C
102
}
330
12E6C
100
AcDbXrecord
 10
0.0
 20
0.0
 30
0.0
  0
XRECORD
  5
12E7E
102
{ACAD_REACTORS
330
12E6C
102
}
330
12E6C
100
AcDbXrecord
 10
0.0
 20
0.0
 30
0.0
  0
XRECORD
  5
12E7F
102
{ACAD_REACTORS
330
12E6C
102
}
330
12E6C
100
AcDbXrecord
 10
0.0
 20
0.0
 30
0.0
  0
XRECORD
  5
12E80
102
{ACAD_REACTORS
330
12E6C
102
}
330
12E6C
100
AcDbXrecord
 10
0.0
 20
0.0
 30
0.0
  0
XRECORD
  5
12E81
102
{ACAD_REACTORS
330
12E6C
102
}
330
12E6C
100
AcDbXrecord
 10
0.0
 20
0.0
 30
0.0
  0
XRECORD
  5
12E82
102
{ACAD_REACTORS
330
12E6C
102
}
330
12E6C
100
AcDbXrecord
 10
0.0
 20
0.0
 30
0.0
  0
XRECORD
  5
12E83
102
{ACAD_REACTORS
330
12E6C
102
}
330
12E6C
100
AcDbXrecord
340
0
  0
XRECORD
  5
12E84
102
{ACAD_REACTORS
330
12E6C
102
}
330
12E6C
100
AcDbXrecord
 70
     0
  0
XRECORD
  5
12E85
102
{ACAD_REACTORS
330
12E6C
102
}
330
12E6C
100
AcDbXrecord
340
0
  0
XRECORD
  5
12E86
102
{ACAD_REACTORS
330
12E6C
102
}
330
12E6C
100
AcDbXrecord
 10
0.0
 20
0.0
 30
0.0
  0
XRECORD
  5
12E87
102
{ACAD_REACTORS
330
12E6C
102
}
330
12E6C
100
AcDbXrecord
 10
0.0
 20
0.0
 30
0.0
  0
XRECORD
  5
12E88
102
{ACAD_REACTORS
330
12E6C
102
}
330
12E6C
100
AcDbXrecord
 10
0.0
 20
0.0
 30
0.0
  0
XRECORD
  5
12E89
102
{ACAD_REACTORS
330
12E6C
102
}
330
12E6C
100
AcDbXrecord
 10
0.0
 20
0.0
 30
0.0
  0
XRECORD
  5
12E8A
102
{ACAD_REACTORS
330
12E6C
102
}
330
12E6C
100
AcDbXrecord
 10
0.0
 20
0.0
 30
0.0
  0
XRECORD
  5
12E8B
102
{ACAD_REACTORS
330
12E6C
102
}
330
12E6C
100
AcDbXrecord
 10
0.0
 20
0.0
 30
0.0
  0
ENDSEC
  0
EOF
