  0
SECTION
  2
HEADER
  9
$ACADVER
  1
AC1014
  9
$ACADMAINTVER
 70
     9
  9
$DWGCODEPAGE
  3
ANSI_932
  9
$INSBASE
 10
0.0
 20
0.0
 30
0.0
  9
$EXTMIN
 10
-2009.566391158958
 20
1792.287407244361
 30
0.0
  9
$EXTMAX
 10
-1816.430451177213
 20
1885.485133988131
 30
0.0
  9
$LIMMIN
 10
0.0
 20
0.0
  9
$LIMMAX
 10
420.0
 20
297.0
  9
$ORTHOMODE
 70
     1
  9
$REGENMODE
 70
     1
  9
$FILLMODE
 70
     1
  9
$QTEXTMODE
 70
     0
  9
$MIRRTEXT
 70
     1
  9
$DRAGMODE
 70
     2
  9
$LTSCALE
 40
1.0
  9
$OSMODE
 70
    37
  9
$ATTMODE
 70
     1
  9
$TEXTSIZE
 40
2.5
  9
$TRACEWID
 40
1.0
  9
$TEXTSTYLE
  7
ゴシック体
  9
$CLAYER
  8
SUNPOU
  9
$CELTYPE
  6
BYLAYER
  9
$CECOLOR
 62
   256
  9
$CELTSCALE
 40
1.0
  9
$DELOBJ
 70
     1
  9
$DISPSILH
 70
     0
  9
$DIMSCALE
 40
0.0
  9
$DIMASZ
 40
3.0
  9
$DIMEXO
 40
0.5
  9
$DIMDLI
 40
0.5
  9
$DIMRND
 40
0.0
  9
$DIMDLE
 40
0.0
  9
$DIMEXE
 40
0.5
  9
$DIMTP
 40
0.2
  9
$DIMTM
 40
0.2
  9
$DIMTXT
 40
3.5
  9
$DIMCEN
 40
0.0
  9
$DIMTSZ
 40
0.0
  9
$DIMTOL
 70
     0
  9
$DIMLIM
 70
     0
  9
$DIMTIH
 70
     0
  9
$DIMTOH
 70
     0
  9
$DIMSE1
 70
     0
  9
$DIMSE2
 70
     0
  9
$DIMTAD
 70
     1
  9
$DIMZIN
 70
     8
  9
$DIMBLK
  1

  9
$DIMASO
 70
     1
  9
$DIMSHO
 70
     1
  9
$DIMPOST
  1

  9
$DIMAPOST
  1

  9
$DIMALT
 70
     0
  9
$DIMALTD
 70
     2
  9
$DIMALTF
 40
25.4
  9
$DIMLFAC
 40
1.0
  9
$DIMTOFL
 70
     1
  9
$DIMTVP
 40
0.0
  9
$DIMTIX
 70
     0
  9
$DIMSOXD
 70
     0
  9
$DIMSAH
 70
     0
  9
$DIMBLK1
  1

  9
$DIMBLK2
  1

  9
$DIMSTYLE
  2
標準スタイル
  9
$DIMCLRD
 70
     1
  9
$DIMCLRE
 70
     1
  9
$DIMCLRT
 70
     1
  9
$DIMTFAC
 40
0.7
  9
$DIMGAP
 40
1.0
  9
$DIMJUST
 70
     0
  9
$DIMSD1
 70
     0
  9
$DIMSD2
 70
     0
  9
$DIMTOLJ
 70
     1
  9
$DIMTZIN
 70
     8
  9
$DIMALTZ
 70
     0
  9
$DIMALTTZ
 70
     0
  9
$DIMFIT
 70
     3
  9
$DIMUPT
 70
     0
  9
$DIMUNIT
 70
     2
  9
$DIMDEC
 70
     2
  9
$DIMTDEC
 70
     2
  9
$DIMALTU
 70
     2
  9
$DIMALTTD
 70
     2
  9
$DIMTXSTY
  7
ゴシック体
  9
$DIMAUNIT
 70
     0
  9
$LUNITS
 70
     2
  9
$LUPREC
 70
     4
  9
$SKETCHINC
 40
1.0
  9
$FILLETRAD
 40
0.0
  9
$AUNITS
 70
     0
  9
$AUPREC
 70
     0
  9
$MENU
  1
.
  9
$ELEVATION
 40
0.0
  9
$PELEVATION
 40
0.0
  9
$THICKNESS
 40
0.0
  9
$LIMCHECK
 70
     0
  9
$BLIPMODE
 70
     0
  9
$CHAMFERA
 40
10.0
  9
$CHAMFERB
 40
10.0
  9
$CHAMFERC
 40
2.0
  9
$CHAMFERD
 40
0.7853981633974483
  9
$SKPOLY
 70
     0
  9
$TDCREATE
 40
2450495.493631365
  9
$TDUPDATE
 40
2453984.424424363
  9
$TDINDWG
 40
1.5389484722
  9
$TDUSRTIMER
 40
1.5389482407
  9
$USRTIMER
 70
     1
  9
$ANGBASE
 50
0.0
  9
$ANGDIR
 70
     0
  9
$PDMODE
 70
    99
  9
$PDSIZE
 40
0.0
  9
$PLINEWID
 40
0.0
  9
$COORDS
 70
     1
  9
$SPLFRAME
 70
     0
  9
$SPLINETYPE
 70
     6
  9
$SPLINESEGS
 70
     8
  9
$ATTDIA
 70
     0
  9
$ATTREQ
 70
     1
  9
$HANDLING
 70
 10241
  9
$HANDSEED
  5
12809
  9
$SURFTAB1
 70
     6
  9
$SURFTAB2
 70
     6
  9
$SURFTYPE
 70
     6
  9
$SURFU
 70
     6
  9
$SURFV
 70
     6
  9
$UCSNAME
  2

  9
$UCSORG
 10
0.0
 20
0.0
 30
0.0
  9
$UCSXDIR
 10
1.0
 20
0.0
 30
0.0
  9
$UCSYDIR
 10
0.0
 20
1.0
 30
0.0
  9
$PUCSNAME
  2

  9
$PUCSORG
 10
0.0
 20
0.0
 30
0.0
  9
$PUCSXDIR
 10
1.0
 20
0.0
 30
0.0
  9
$PUCSYDIR
 10
0.0
 20
1.0
 30
0.0
  9
$USERI1
 70
     0
  9
$USERI2
 70
     0
  9
$USERI3
 70
     0
  9
$USERI4
 70
     0
  9
$USERI5
 70
     0
  9
$USERR1
 40
0.0
  9
$USERR2
 40
0.0
  9
$USERR3
 40
0.0
  9
$USERR4
 40
0.0
  9
$USERR5
 40
0.0
  9
$WORLDVIEW
 70
     1
  9
$SHADEDGE
 70
     3
  9
$SHADEDIF
 70
    70
  9
$TILEMODE
 70
     1
  9
$MAXACTVP
 70
    16
  9
$PINSBASE
 10
0.0
 20
0.0
 30
0.0
  9
$PLIMCHECK
 70
     0
  9
$PEXTMIN
 10
29.03619555254121
 20
27.69602733303884
 30
0.0
  9
$PEXTMAX
 10
414.5361955525409
 20
287.6960273330388
 30
0.0
  9
$PLIMMIN
 10
15.14082890028157
 20
13.81565218284106
  9
$PLIMMAX
 10
435.0874841737191
 20
310.8263028176066
  9
$UNITMODE
 70
     0
  9
$VISRETAIN
 70
     0
  9
$PLINEGEN
 70
     0
  9
$PSLTSCALE
 70
     1
  9
$TREEDEPTH
 70
  3020
  9
$PICKSTYLE
 70
     1
  9
$CMLSTYLE
  2
STANDARD
  9
$CMLJUST
 70
     0
  9
$CMLSCALE
 40
1.0
  9
$PROXYGRAPHICS
 70
     1
  9
$MEASUREMENT
 70
     1
  0
ENDSEC
  0
SECTION
  2
CLASSES
  0
CLASS
  1
LWPOLYLINE
  2
AcDbPolyline
  3
AutoCAD 2000
 90
        0
280
     0
281
     1
  0
CLASS
  1
HATCH
  2
AcDbHatch
  3
AutoCAD 2000
 90
        0
280
     0
281
     1
  0
CLASS
  1
ACDBDICTIONARYWDFLT
  2
AcDbDictionaryWithDefault
  3
AutoCAD 2000
 90
        0
280
     0
281
     0
  0
CLASS
  1
ACDBPLACEHOLDER
  2
AcDbPlaceHolder
  3
AutoCAD 2000
 90
        0
280
     0
281
     0
  0
CLASS
  1
LAYOUT
  2
AcDbLayout
  3
AutoCAD 2000
 90
        0
280
     0
281
     0
  0
CLASS
  1
DICTIONARYVAR
  2
AcDbDictionaryVar
  3
AutoCAD 2000
 90
        0
280
     0
281
     0
  0
CLASS
  1
LONG_TRANSACTION
  2
AcDbLongTransaction
  3
AutoCAD 2000
 90
        0
280
     0
281
     0
  0
CLASS
  1
LWPOLYLINE
  2
AcDbPolyline
  3
AutoCAD 2000
 90
        0
280
     0
281
     1
  0
CLASS
  1
HATCH
  2
AcDbHatch
  3
AutoCAD 2000
 90
        0
280
     0
281
     1
  0
CLASS
  1
XRECORD
  2
AcDbXrecord
  3
AutoCAD 2000
 90
        0
280
     0
281
     0
  0
ENDSEC
  0
SECTION
  2
TABLES
  0
TABLE
  2
VPORT
  5
8
330
0
100
AcDbSymbolTable
 70
     2
  0
VPORT
  5
127E4
330
8
100
AcDbSymbolTableRecord
100
AcDbViewportTableRecord
  2
*ACTIVE
 70
     0
 10
0.0
 20
0.0
 11
1.0
 21
1.0
 12
-1853.480772250758
 22
1848.155033229724
 13
0.0
 23
0.0
 14
5.0
 24
5.0
 15
0.0
 25
0.0
 16
0.0
 26
0.0
 36
1.0
 17
0.0
 27
0.0
 37
0.0
 40
196.76395353513
 41
2.192560175054704
 42
50.0
 43
0.0
 44
0.0
 50
0.0
 51
0.0
 71
     0
 72
   100
 73
     1
 74
     0
 75
     0
 76
     0
 77
     0
 78
     0
  0
ENDTAB
  0
TABLE
  2
LTYPE
  5
5
330
0
100
AcDbSymbolTable
 70
    13
  0
LTYPE
  5
14
330
5
100
AcDbSymbolTableRecord
100
AcDbLinetypeTableRecord
  2
BYBLOCK
 70
     0
  3

 72
    65
 73
     0
 40
0.0
  0
LTYPE
  5
15
330
5
100
AcDbSymbolTableRecord
100
AcDbLinetypeTableRecord
  2
BYLAYER
 70
     0
  3

 72
    65
 73
     0
 40
0.0
  0
LTYPE
  5
16
330
5
100
AcDbSymbolTableRecord
100
AcDbLinetypeTableRecord
  2
CONTINUOUS
 70
     0
  3
Solid line
 72
    65
 73
     0
 40
0.0
  0
LTYPE
  5
329
330
5
100
AcDbSymbolTableRecord
100
AcDbLinetypeTableRecord
  2
DASHEDX2
 70
     0
  3
____  ____  ____  ____  ____  ____  ____  ____ 
 72
    65
 73
     2
 40
1.5
 49
1.0
 74
     0
 49
-0.5
 74
     0
  0
LTYPE
  5
1956
330
5
100
AcDbSymbolTableRecord
100
AcDbLinetypeTableRecord
  2
CENTERX2
 70
     0
  3
________  __  ________  __  ________  __  _____
 72
    65
 73
     4
 40
4.0
 49
2.5
 74
     0
 49
-0.5
 74
     0
 49
0.5
 74
     0
 49
-0.5
 74
     0
  0
ENDTAB
  0
TABLE
  2
LAYER
  5
2
330
0
100
AcDbSymbolTable
 70
    35
  0
LAYER
  5
F
330
2
100
AcDbSymbolTableRecord
100
AcDbLayerTableRecord
  2
0
 70
     0
 62
     7
  6
CONTINUOUS
  0
LAYER
  5
18F
330
2
100
AcDbSymbolTableRecord
100
AcDbLayerTableRecord
  2
ZISSEN1
 70
     0
 62
     7
  6
CONTINUOUS
  0
LAYER
  5
529
330
2
100
AcDbSymbolTableRecord
100
AcDbLayerTableRecord
  2
SUNPOU
 70
     0
 62
     1
  6
CONTINUOUS
  0
LAYER
  5
1959
330
2
100
AcDbSymbolTableRecord
100
AcDbLayerTableRecord
  2
KAKURESEN1
 70
     0
 62
     3
  6
DASHEDX2
  0
LAYER
  5
195A
330
2
100
AcDbSymbolTableRecord
100
AcDbLayerTableRecord
  2
CL1
 70
     0
 62
   210
  6
CENTERX2
  0
LAYER
  5
3A9B
330
2
100
AcDbSymbolTableRecord
100
AcDbLayerTableRecord
  2
DEFPOINTS
 70
     0
 62
     7
  6
CONTINUOUS
  0
ENDTAB
  0
TABLE
  2
STYLE
  5
3
330
0
100
AcDbSymbolTable
 70
     5
  0
STYLE
  5
10
330
3
100
AcDbSymbolTableRecord
100
AcDbTextStyleTableRecord
  2
STANDARD
 70
     0
 40
0.0
 41
1.0
 50
0.0
 71
     0
 42
3.0
  3
txt
  4
BigFont
  0
STYLE
  5
1960
330
3
100
AcDbSymbolTableRecord
100
AcDbTextStyleTableRecord
  2
ゴシック体
 70
     0
 40
0.0
 41
1.0
 50
0.0
 71
     0
 42
2.5
  3
MS Gothic.ttf
  4

1001
ACAD
1000
MS Gothic
1071
    32817
  0
ENDTAB
  0
TABLE
  2
VIEW
  5
6
330
0
100
AcDbSymbolTable
 70
     0
  0
ENDTAB
  0
TABLE
  2
UCS
  5
7
330
0
100
AcDbSymbolTable
 70
     0
  0
ENDTAB
  0
TABLE
  2
APPID
  5
9
330
0
100
AcDbSymbolTable
 70
     5
  0
APPID
  5
11
330
9
100
AcDbSymbolTableRecord
100
AcDbRegAppTableRecord
  2
ACAD
 70
     0
  0
APPID
  5
4005
330
9
100
AcDbSymbolTableRecord
100
AcDbRegAppTableRecord
  2
CONTENTTABDATA
 70
     0
  0
APPID
  5
4006
330
9
100
AcDbSymbolTableRecord
100
AcDbRegAppTableRecord
  2
CONTENTCURRENTTAB
 70
     0
  0
APPID
  5
477B
330
9
100
AcDbSymbolTableRecord
100
AcDbRegAppTableRecord
  2
CONTENTBLOCKDESCRIPTION
 70
     0
  0
APPID
  5
477C
330
9
100
AcDbSymbolTableRecord
100
AcDbRegAppTableRecord
  2
CONTENTBLOCKICON
 70
     0
  0
ENDTAB
  0
TABLE
  2
DIMSTYLE
  5
A
330
0
100
AcDbSymbolTable
 70
    12
  0
DIMSTYLE
105
1D
330
A
100
AcDbSymbolTableRecord
100
AcDbDimStyleTableRecord
  2
STANDARD
 70
     0
  3

  4

  5

  6

  7

 40
1.0
 41
0.18
 42
0.0625
 43
0.38
 44
0.18
 45
0.0
 46
0.0
 47
0.0
 48
0.0
140
0.18
141
0.09
142
0.0
143
25.4
144
1.0
145
0.0
146
1.0
147
0.09
 71
     0
 72
     0
 73
     1
 74
     1
 75
     0
 76
     0
 77
     0
 78
     0
170
     0
171
     2
172
     0
173
     0
174
     0
175
     0
176
     0
177
     0
178
     0
270
     2
271
     4
272
     4
273
     2
274
     2
340
10
275
     0
280
     0
281
     0
282
     0
283
     1
284
     0
285
     0
286
     0
287
     3
288
     0
  0
DIMSTYLE
105
52E
102
{ACAD_REACTORS
330
12709
330
12728
330
12735
330
12742
330
1274F
330
1275C
330
1276B
330
127A7
102
}
330
A
100
AcDbSymbolTableRecord
100
AcDbDimStyleTableRecord
  2
標準スタイル
 70
     0
  3

  4

  5

  6

  7

 40
0.0
 41
3.0
 42
0.5
 43
0.5
 44
0.5
 45
0.0
 46
0.0
 47
0.2
 48
0.2
140
3.5
141
0.0
142
0.0
143
25.4
144
1.0
145
0.0
146
0.7
147
1.0
 71
     0
 72
     0
 73
     0
 74
     0
 75
     0
 76
     0
 77
     1
 78
     8
170
     0
171
     2
172
     1
173
     0
174
     0
175
     0
176
     1
177
     1
178
     1
270
     2
271
     2
272
     2
273
     2
274
     2
340
1960
275
     0
280
     0
281
     0
282
     0
283
     1
284
     8
285
     0
286
     0
287
     3
288
     0
  0
DIMSTYLE
105
1962
102
{ACAD_REACTORS
330
1246C
330
12479
102
}
330
A
100
AcDbSymbolTableRecord
100
AcDbDimStyleTableRecord
  2
公差付き寸法
 70
     0
  3

  4

  5

  6

  7

 40
0.0
 41
3.0
 42
0.5
 43
0.5
 44
0.5
 45
0.0
 46
0.0
 47
0.2
 48
0.2
140
3.5
141
0.0
142
0.0
143
25.4
144
1.0
145
0.0
146
0.7
147
1.0
 71
     1
 72
     0
 73
     0
 74
     0
 75
     0
 76
     0
 77
     1
 78
     8
170
     0
171
     2
172
     1
173
     0
174
     0
175
     0
176
     0
177
     0
178
     0
270
     2
271
     2
272
     2
273
     2
274
     2
340
10
275
     0
280
     0
281
     0
282
     0
283
     2
284
     8
285
     0
286
     0
287
     3
288
     0
  0
ENDTAB
  0
TABLE
  2
BLOCK_RECORD
  5
1
330
0
100
AcDbSymbolTable
 70
    33
  0
BLOCK_RECORD
  5
1A
102
{ACAD_XDICTIONARY
360
12805
102
}
330
1
100
AcDbSymbolTableRecord
100
AcDbBlockTableRecord
  2
*MODEL_SPACE
  0
BLOCK_RECORD
  5
5D8E
102
{ACAD_XDICTIONARY
360
12807
102
}
330
1
100
AcDbSymbolTableRecord
100
AcDbBlockTableRecord
  2
*PAPER_SPACE
  0
BLOCK_RECORD
  5
1246D
330
1
100
AcDbSymbolTableRecord
100
AcDbBlockTableRecord
  2
*D23
  0
BLOCK_RECORD
  5
1247A
330
1
100
AcDbSymbolTableRecord
100
AcDbBlockTableRecord
  2
*D24
  0
BLOCK_RECORD
  5
1270A
330
1
100
AcDbSymbolTableRecord
100
AcDbBlockTableRecord
  2
*D25
  0
BLOCK_RECORD
  5
12729
330
1
100
AcDbSymbolTableRecord
100
AcDbBlockTableRecord
  2
*D26
  0
BLOCK_RECORD
  5
12736
330
1
100
AcDbSymbolTableRecord
100
AcDbBlockTableRecord
  2
*D27
  0
BLOCK_RECORD
  5
12743
330
1
100
AcDbSymbolTableRecord
100
AcDbBlockTableRecord
  2
*D28
  0
BLOCK_RECORD
  5
12750
330
1
100
AcDbSymbolTableRecord
100
AcDbBlockTableRecord
  2
*D29
  0
BLOCK_RECORD
  5
1275D
330
1
100
AcDbSymbolTableRecord
100
AcDbBlockTableRecord
  2
*D30
  0
BLOCK_RECORD
  5
1276C
330
1
100
AcDbSymbolTableRecord
100
AcDbBlockTableRecord
  2
*D31
  0
BLOCK_RECORD
  5
127A8
330
1
100
AcDbSymbolTableRecord
100
AcDbBlockTableRecord
  2
*D32
  0
ENDTAB
  0
ENDSEC
  0
SECTION
  2
BLOCKS
  0
BLOCK
  5
1B
330
1A
100
AcDbEntity
  8
0
100
AcDbBlockBegin
  2
*MODEL_SPACE
 70
     0
 10
0.0
 20
0.0
 30
0.0
  3
*MODEL_SPACE
  1

  0
ENDBLK
  5
1C
330
1A
100
AcDbEntity
  8
0
100
AcDbBlockEnd
  0
BLOCK
  5
5E60
330
5D8E
100
AcDbEntity
 67
     1
  8
0
100
AcDbBlockBegin
  2
*PAPER_SPACE
 70
     0
 10
0.0
 20
0.0
 30
0.0
  3
*PAPER_SPACE
  1

  0
ENDBLK
  5
5E61
330
5D8E
100
AcDbEntity
 67
     1
  8
0
100
AcDbBlockEnd
  0
BLOCK
  5
12477
330
1246D
100
AcDbEntity
  8
0
100
AcDbBlockBegin
  2
*D23
 70
     1
 10
0.0
 20
0.0
 30
0.0
  3
*D23
  1

  0
LINE
  5
12583
330
1246D
100
AcDbEntity
  8
SUNPOU
 62
     0
100
AcDbLine
 10
-1821.430449177213
 20
1856.473318118619
 30
0.0
 11
-1853.46402020337
 21
1856.473318118619
 31
0.0
  0
LINE
  5
12584
330
1246D
100
AcDbEntity
  8
SUNPOU
 62
     0
100
AcDbLine
 10
-1841.930447177213
 20
1818.473308118619
 30
0.0
 11
-1853.46402020337
 21
1818.473308118619
 31
0.0
  0
LINE
  5
12585
330
1246D
100
AcDbEntity
  8
SUNPOU
 62
     0
100
AcDbLine
 10
-1852.96402020337
 20
1853.473318118619
 30
0.0
 11
-1852.96402020337
 21
1821.473308118619
 31
0.0
  0
SOLID
  5
12586
330
1246D
100
AcDbEntity
  8
SUNPOU
 62
     0
100
AcDbTrace
 10
-1853.46402020337
 20
1853.473318118619
 30
0.0
 11
-1852.46402020337
 21
1853.473318118619
 31
0.0
 12
-1852.96402020337
 22
1856.473318118619
 32
0.0
 13
-1852.96402020337
 23
1856.473318118619
 33
0.0
  0
SOLID
  5
12587
330
1246D
100
AcDbEntity
  8
SUNPOU
 62
     0
100
AcDbTrace
 10
-1853.46402020337
 20
1821.473308118619
 30
0.0
 11
-1852.46402020337
 21
1821.473308118619
 31
0.0
 12
-1852.96402020337
 22
1818.473308118619
 32
0.0
 13
-1852.96402020337
 23
1818.473308118619
 33
0.0
  0
MTEXT
  5
12588
330
1246D
100
AcDbEntity
  8
SUNPOU
 62
     0
100
AcDbMText
 10
-1855.71402020337
 20
1837.473313118618
 30
0.0
 40
3.5
 41
0.0
 71
     5
 72
     1
  1
\A2;38{\H2.450000;±0.2}
  7
ゴシック体
 11
0.0000000000000001
 21
1.0
 31
0.0
1001
ACAD
1000
MTEXTBEGIN
1070
    73
1070
     1
1070
    44
1040
1.0
1070
    74
1070
     0
1000
MTEXTEND
  0
POINT
  5
12589
330
1246D
100
AcDbEntity
  8
DEFPOINTS
 62
     0
100
AcDbPoint
 10
-1820.930449177213
 20
1856.473318118619
 30
0.0
  0
POINT
  5
1258A
330
1246D
100
AcDbEntity
  8
DEFPOINTS
 62
     0
100
AcDbPoint
 10
-1841.430447177213
 20
1818.473308118619
 30
0.0
  0
POINT
  5
1258B
330
1246D
100
AcDbEntity
  8
DEFPOINTS
 62
     0
100
AcDbPoint
 10
-1852.96402020337
 20
1818.473308118619
 30
0.0
  0
ENDBLK
  5
12478
330
1246D
100
AcDbEntity
  8
0
100
AcDbBlockEnd
  0
BLOCK
  5
12484
330
1247A
100
AcDbEntity
  8
0
100
AcDbBlockBegin
  2
*D24
 70
     1
 10
0.0
 20
0.0
 30
0.0
  3
*D24
  1

  0
LINE
  5
125DA
330
1247A
100
AcDbEntity
  8
SUNPOU
 62
     0
100
AcDbLine
 10
-1841.430447177213
 20
1818.973308118619
 30
0.0
 11
-1841.430447177213
 21
1868.714436423185
 31
0.0
  0
LINE
  5
125DB
330
1247A
100
AcDbEntity
  8
SUNPOU
 62
     0
100
AcDbLine
 10
-1819.430449177213
 20
1856.973318118619
 30
0.0
 11
-1819.430449177213
 21
1868.714436423185
 31
0.0
  0
LINE
  5
125DC
330
1247A
100
AcDbEntity
  8
SUNPOU
 62
     0
100
AcDbLine
 10
-1838.430447177213
 20
1868.214436423185
 30
0.0
 11
-1822.430449177213
 21
1868.214436423185
 31
0.0
  0
SOLID
  5
125DD
330
1247A
100
AcDbEntity
  8
SUNPOU
 62
     0
100
AcDbTrace
 10
-1838.430447177213
 20
1868.714436423185
 30
0.0
 11
-1838.430447177213
 21
1867.714436423185
 31
0.0
 12
-1841.430447177213
 22
1868.214436423185
 32
0.0
 13
-1841.430447177213
 23
1868.214436423185
 33
0.0
  0
SOLID
  5
125DE
330
1247A
100
AcDbEntity
  8
SUNPOU
 62
     0
100
AcDbTrace
 10
-1822.430449177213
 20
1868.714436423185
 30
0.0
 11
-1822.430449177213
 21
1867.714436423185
 31
0.0
 12
-1819.430449177213
 22
1868.214436423185
 32
0.0
 13
-1819.430449177213
 23
1868.214436423185
 33
0.0
  0
MTEXT
  5
125DF
330
1247A
100
AcDbEntity
  8
SUNPOU
 62
     0
100
AcDbMText
 10
-1830.430448177213
 20
1870.964436423185
 30
0.0
 40
3.5
 41
0.0
 71
     5
 72
     1
  1
\A2;22{\H2.450000;±0.2}
  7
ゴシック体
1001
ACAD
1000
MTEXTBEGIN
1070
    73
1070
     1
1070
    44
1040
1.0
1070
    74
1070
     0
1000
MTEXTEND
  0
POINT
  5
125E0
330
1247A
100
AcDbEntity
  8
DEFPOINTS
 62
     0
100
AcDbPoint
 10
-1841.430447177213
 20
1818.473308118619
 30
0.0
  0
POINT
  5
125E1
330
1247A
100
AcDbEntity
  8
DEFPOINTS
 62
     0
100
AcDbPoint
 10
-1819.430449177213
 20
1856.473318118619
 30
0.0
  0
POINT
  5
125E2
330
1247A
100
AcDbEntity
  8
DEFPOINTS
 62
     0
100
AcDbPoint
 10
-1819.430449177213
 20
1868.214436423185
 30
0.0
  0
ENDBLK
  5
12485
330
1247A
100
AcDbEntity
  8
0
100
AcDbBlockEnd
  0
BLOCK
  5
12714
330
1270A
100
AcDbEntity
  8
0
100
AcDbBlockBegin
  2
*D25
 70
     1
 10
0.0
 20
0.0
 30
0.0
  3
*D25
  1

  0
LINE
  5
1271F
330
1270A
100
AcDbEntity
  8
SUNPOU
 62
     1
100
AcDbLine
 10
-1984.047432814293
 20
1841.916790601386
 30
0.0
 11
-1984.047432814293
 21
1867.569985695878
 31
0.0
  0
LINE
  5
12720
330
1270A
100
AcDbEntity
  8
SUNPOU
 62
     1
100
AcDbLine
 10
-1964.047432814292
 20
1841.916790601386
 30
0.0
 11
-1964.047432814292
 21
1867.569985695878
 31
0.0
  0
LINE
  5
12721
330
1270A
100
AcDbEntity
  8
SUNPOU
 62
     1
100
AcDbLine
 10
-1981.047432814292
 20
1867.069985695878
 30
0.0
 11
-1967.047432814291
 21
1867.069985695878
 31
0.0
  0
SOLID
  5
12722
330
1270A
100
AcDbEntity
  8
SUNPOU
 62
     1
100
AcDbTrace
 10
-1981.047432814292
 20
1867.569985695878
 30
0.0
 11
-1981.047432814292
 21
1866.569985695877
 31
0.0
 12
-1984.047432814293
 22
1867.069985695878
 32
0.0
 13
-1984.047432814293
 23
1867.069985695878
 33
0.0
  0
SOLID
  5
12723
330
1270A
100
AcDbEntity
  8
SUNPOU
 62
     1
100
AcDbTrace
 10
-1967.047432814291
 20
1867.569985695878
 30
0.0
 11
-1967.047432814291
 21
1866.569985695877
 31
0.0
 12
-1964.047432814292
 22
1867.069985695878
 32
0.0
 13
-1964.047432814292
 23
1867.069985695878
 33
0.0
  0
MTEXT
  5
12724
330
1270A
100
AcDbEntity
  8
SUNPOU
 62
     1
100
AcDbMText
 10
-1974.047432814291
 20
1869.819985695878
 30
0.0
 40
3.5
 41
0.0
 71
     5
 72
     1
  1
\A1;20
  7
ゴシック体
1001
ACAD
1000
MTEXTBEGIN
1070
    73
1070
     1
1070
    44
1040
1.0
1070
    74
1070
     0
1000
MTEXTEND
  0
POINT
  5
12725
330
1270A
100
AcDbEntity
  8
DEFPOINTS
 62
     0
100
AcDbPoint
 10
-1984.047432814293
 20
1841.416790601386
 30
0.0
  0
POINT
  5
12726
330
1270A
100
AcDbEntity
  8
DEFPOINTS
 62
     0
100
AcDbPoint
 10
-1964.047432814292
 20
1841.416790601386
 30
0.0
  0
POINT
  5
12727
330
1270A
100
AcDbEntity
  8
DEFPOINTS
 62
     0
100
AcDbPoint
 10
-1964.047432814292
 20
1867.069985695878
 30
0.0
  0
ENDBLK
  5
12715
330
1270A
100
AcDbEntity
  8
0
100
AcDbBlockEnd
  0
BLOCK
  5
12733
330
12729
100
AcDbEntity
  8
0
100
AcDbBlockBegin
  2
*D26
 70
     1
 10
0.0
 20
0.0
 30
0.0
  3
*D26
  1

  0
LINE
  5
1272A
330
12729
100
AcDbEntity
  8
SUNPOU
 62
     1
100
AcDbLine
 10
-1966.544100785769
 20
1856.416872535708
 30
0.0
 11
-1997.025861318546
 21
1856.416872535708
 31
0.0
  0
LINE
  5
1272B
330
12729
100
AcDbEntity
  8
SUNPOU
 62
     1
100
AcDbLine
 10
-1988.544098785768
 20
1818.416862535709
 30
0.0
 11
-1997.025861318546
 21
1818.416862535709
 31
0.0
  0
LINE
  5
1272C
330
12729
100
AcDbEntity
  8
SUNPOU
 62
     1
100
AcDbLine
 10
-1996.525861318546
 20
1853.416872535709
 30
0.0
 11
-1996.525861318546
 21
1821.416862535708
 31
0.0
  0
SOLID
  5
1272D
330
12729
100
AcDbEntity
  8
SUNPOU
 62
     1
100
AcDbTrace
 10
-1997.025861318546
 20
1853.416872535709
 30
0.0
 11
-1996.025861318544
 21
1853.416872535709
 31
0.0
 12
-1996.525861318546
 22
1856.416872535708
 32
0.0
 13
-1996.525861318546
 23
1856.416872535708
 33
0.0
  0
SOLID
  5
1272E
330
12729
100
AcDbEntity
  8
SUNPOU
 62
     1
100
AcDbTrace
 10
-1997.025861318546
 20
1821.416862535708
 30
0.0
 11
-1996.025861318544
 21
1821.416862535708
 31
0.0
 12
-1996.525861318546
 22
1818.416862535709
 32
0.0
 13
-1996.525861318546
 23
1818.416862535709
 33
0.0
  0
MTEXT
  5
1272F
330
12729
100
AcDbEntity
  8
SUNPOU
 62
     1
100
AcDbMText
 10
-1999.275861318547
 20
1837.416867535709
 30
0.0
 40
3.5
 41
0.0
 71
     5
 72
     1
  1
\A1;38
  7
ゴシック体
 11
0.0000000000000001
 21
1.0
 31
0.0
1001
ACAD
1000
MTEXTBEGIN
1070
    73
1070
     1
1070
    44
1040
1.0
1070
    74
1070
     0
1000
MTEXTEND
  0
POINT
  5
12730
330
12729
100
AcDbEntity
  8
DEFPOINTS
 62
     0
100
AcDbPoint
 10
-1966.044100785769
 20
1856.416872535708
 30
0.0
  0
POINT
  5
12731
330
12729
100
AcDbEntity
  8
DEFPOINTS
 62
     0
100
AcDbPoint
 10
-1988.044098785769
 20
1818.416862535709
 30
0.0
  0
POINT
  5
12732
330
12729
100
AcDbEntity
  8
DEFPOINTS
 62
     0
100
AcDbPoint
 10
-1996.525861318546
 20
1818.416862535709
 30
0.0
  0
ENDBLK
  5
12734
330
12729
100
AcDbEntity
  8
0
100
AcDbBlockEnd
  0
BLOCK
  5
12740
330
12736
100
AcDbEntity
  8
0
100
AcDbBlockBegin
  2
*D27
 70
     1
 10
0.0
 20
0.0
 30
0.0
  3
*D27
  1

  0
LINE
  5
12737
330
12736
100
AcDbEntity
  8
SUNPOU
 62
     1
100
AcDbLine
 10
-1988.836993785769
 20
1860.416862535709
 30
0.0
 11
-2005.157761717331
 21
1860.416862535709
 31
0.0
  0
LINE
  5
12738
330
12736
100
AcDbEntity
  8
SUNPOU
 62
     1
100
AcDbLine
 10
-1988.836993785769
 20
1814.416852535708
 30
0.0
 11
-2005.157761717331
 21
1814.416852535708
 31
0.0
  0
LINE
  5
12739
330
12736
100
AcDbEntity
  8
SUNPOU
 62
     1
100
AcDbLine
 10
-2004.657761717333
 20
1857.416862535709
 30
0.0
 11
-2004.657761717333
 21
1817.416852535709
 31
0.0
  0
SOLID
  5
1273A
330
12736
100
AcDbEntity
  8
SUNPOU
 62
     1
100
AcDbTrace
 10
-2005.157761717331
 20
1857.416862535709
 30
0.0
 11
-2004.157761717333
 21
1857.416862535709
 31
0.0
 12
-2004.657761717333
 22
1860.416862535709
 32
0.0
 13
-2004.657761717333
 23
1860.416862535709
 33
0.0
  0
SOLID
  5
1273B
330
12736
100
AcDbEntity
  8
SUNPOU
 62
     1
100
AcDbTrace
 10
-2005.157761717331
 20
1817.416852535709
 30
0.0
 11
-2004.157761717333
 21
1817.416852535709
 31
0.0
 12
-2004.657761717333
 22
1814.416852535708
 32
0.0
 13
-2004.657761717333
 23
1814.416852535708
 33
0.0
  0
MTEXT
  5
1273C
330
12736
100
AcDbEntity
  8
SUNPOU
 62
     1
100
AcDbMText
 10
-2007.407761717334
 20
1837.416857535709
 30
0.0
 40
3.5
 41
0.0
 71
     5
 72
     1
  1
\A1;46
  7
ゴシック体
 11
0.0000000000000001
 21
1.0
 31
0.0
1001
ACAD
1000
MTEXTBEGIN
1070
    73
1070
     1
1070
    44
1040
1.0
1070
    74
1070
     0
1000
MTEXTEND
  0
POINT
  5
1273D
330
12736
100
AcDbEntity
  8
DEFPOINTS
 62
     0
100
AcDbPoint
 10
-1988.336993785769
 20
1860.416862535709
 30
0.0
  0
POINT
  5
1273E
330
12736
100
AcDbEntity
  8
DEFPOINTS
 62
     0
100
AcDbPoint
 10
-1988.336993785769
 20
1814.416852535708
 30
0.0
  0
POINT
  5
1273F
330
12736
100
AcDbEntity
  8
DEFPOINTS
 62
     0
100
AcDbPoint
 10
-2004.657761717333
 20
1814.416852535708
 30
0.0
  0
ENDBLK
  5
12741
330
12736
100
AcDbEntity
  8
0
100
AcDbBlockEnd
  0
BLOCK
  5
1274D
330
12743
100
AcDbEntity
  8
0
100
AcDbBlockBegin
  2
*D28
 70
     1
 10
0.0
 20
0.0
 30
0.0
  3
*D28
  1

  0
LINE
  5
12744
330
12743
100
AcDbEntity
  8
SUNPOU
 62
     1
100
AcDbLine
 10
-1985.044101785769
 20
1814.916862535709
 30
0.0
 11
-1985.044101785769
 21
1807.347591717853
 31
0.0
  0
LINE
  5
12745
330
12743
100
AcDbEntity
  8
SUNPOU
 62
     1
100
AcDbLine
 10
-1963.044103785769
 20
1852.916872535709
 30
0.0
 11
-1963.044103785769
 21
1807.347591717853
 31
0.0
  0
LINE
  5
12746
330
12743
100
AcDbEntity
  8
SUNPOU
 62
     1
100
AcDbLine
 10
-1982.044101785769
 20
1807.847591717853
 30
0.0
 11
-1966.044103785769
 21
1807.847591717853
 31
0.0
  0
SOLID
  5
12747
330
12743
100
AcDbEntity
  8
SUNPOU
 62
     1
100
AcDbTrace
 10
-1982.044101785769
 20
1808.347591717851
 30
0.0
 11
-1982.044101785769
 21
1807.347591717853
 31
0.0
 12
-1985.044101785769
 22
1807.847591717853
 32
0.0
 13
-1985.044101785769
 23
1807.847591717853
 33
0.0
  0
SOLID
  5
12748
330
12743
100
AcDbEntity
  8
SUNPOU
 62
     1
100
AcDbTrace
 10
-1966.044103785769
 20
1808.347591717851
 30
0.0
 11
-1966.044103785769
 21
1807.347591717853
 31
0.0
 12
-1963.044103785769
 22
1807.847591717853
 32
0.0
 13
-1963.044103785769
 23
1807.847591717853
 33
0.0
  0
MTEXT
  5
12749
330
12743
100
AcDbEntity
  8
SUNPOU
 62
     1
100
AcDbMText
 10
-1974.044102785769
 20
1810.597591717852
 30
0.0
 40
3.5
 41
0.0
 71
     5
 72
     1
  1
\A1;22
  7
ゴシック体
1001
ACAD
1000
MTEXTBEGIN
1070
    73
1070
     1
1070
    44
1040
1.0
1070
    74
1070
     0
1000
MTEXTEND
  0
POINT
  5
1274A
330
12743
100
AcDbEntity
  8
DEFPOINTS
 62
     0
100
AcDbPoint
 10
-1985.044101785769
 20
1815.416862535709
 30
0.0
  0
POINT
  5
1274B
330
12743
100
AcDbEntity
  8
DEFPOINTS
 62
     0
100
AcDbPoint
 10
-1963.044103785769
 20
1853.416872535709
 30
0.0
  0
POINT
  5
1274C
330
12743
100
AcDbEntity
  8
DEFPOINTS
 62
     0
100
AcDbPoint
 10
-1963.044103785769
 20
1807.847591717853
 30
0.0
  0
ENDBLK
  5
1274E
330
12743
100
AcDbEntity
  8
0
100
AcDbBlockEnd
  0
BLOCK
  5
1275A
330
12750
100
AcDbEntity
  8
0
100
AcDbBlockBegin
  2
*D29
 70
     1
 10
0.0
 20
0.0
 30
0.0
  3
*D29
  1

  0
LINE
  5
12751
330
12750
100
AcDbEntity
  8
SUNPOU
 62
     1
100
AcDbLine
 10
-1989.044102785769
 20
1814.623962535709
 30
0.0
 11
-1989.044102785769
 21
1799.960028753818
 31
0.0
  0
LINE
  5
12752
330
12750
100
AcDbEntity
  8
SUNPOU
 62
     1
100
AcDbLine
 10
-1959.044102785769
 20
1814.623962535709
 30
0.0
 11
-1959.044102785769
 21
1799.960028753818
 31
0.0
  0
LINE
  5
12753
330
12750
100
AcDbEntity
  8
SUNPOU
 62
     1
100
AcDbLine
 10
-1986.044102785769
 20
1800.460028753818
 30
0.0
 11
-1962.044102785769
 21
1800.460028753818
 31
0.0
  0
SOLID
  5
12754
330
12750
100
AcDbEntity
  8
SUNPOU
 62
     1
100
AcDbTrace
 10
-1986.044102785769
 20
1800.960028753818
 30
0.0
 11
-1986.044102785769
 21
1799.960028753818
 31
0.0
 12
-1989.044102785769
 22
1800.460028753818
 32
0.0
 13
-1989.044102785769
 23
1800.460028753818
 33
0.0
  0
SOLID
  5
12755
330
12750
100
AcDbEntity
  8
SUNPOU
 62
     1
100
AcDbTrace
 10
-1962.044102785769
 20
1800.960028753818
 30
0.0
 11
-1962.044102785769
 21
1799.960028753818
 31
0.0
 12
-1959.044102785769
 22
1800.460028753818
 32
0.0
 13
-1959.044102785769
 23
1800.460028753818
 33
0.0
  0
MTEXT
  5
12756
330
12750
100
AcDbEntity
  8
SUNPOU
 62
     1
100
AcDbMText
 10
-1974.044102785769
 20
1803.210028753818
 30
0.0
 40
3.5
 41
0.0
 71
     5
 72
     1
  1
\A1;30
  7
ゴシック体
1001
ACAD
1000
MTEXTBEGIN
1070
    73
1070
     1
1070
    44
1040
1.0
1070
    74
1070
     0
1000
MTEXTEND
  0
POINT
  5
12757
330
12750
100
AcDbEntity
  8
DEFPOINTS
 62
     0
100
AcDbPoint
 10
-1989.044102785769
 20
1815.123962535707
 30
0.0
  0
POINT
  5
12758
330
12750
100
AcDbEntity
  8
DEFPOINTS
 62
     0
100
AcDbPoint
 10
-1959.044102785769
 20
1815.123962535707
 30
0.0
  0
POINT
  5
12759
330
12750
100
AcDbEntity
  8
DEFPOINTS
 62
     0
100
AcDbPoint
 10
-1959.044102785769
 20
1800.460028753818
 30
0.0
  0
ENDBLK
  5
1275B
330
12750
100
AcDbEntity
  8
0
100
AcDbBlockEnd
  0
BLOCK
  5
12769
330
1275D
100
AcDbEntity
  8
0
100
AcDbBlockBegin
  2
*D30
 70
     1
 10
0.0
 20
0.0
 30
0.0
  3
*D30
  1

  0
LINE
  5
1275E
330
1275D
100
AcDbEntity
  8
SUNPOU
 62
     1
100
AcDbLine
 10
-1910.395454785769
 20
1813.916852535707
 30
0.0
 11
-1910.395454785769
 21
1807.347591717853
 31
0.0
  0
LINE
  5
1275F
330
1275D
100
AcDbEntity
  8
SUNPOU
 62
     1
100
AcDbLine
 10
-1908.395464785769
 20
1813.916852535707
 30
0.0
 11
-1908.395464785769
 21
1807.347591717853
 31
0.0
  0
LINE
  5
12760
330
1275D
100
AcDbEntity
  8
SUNPOU
 62
     1
100
AcDbLine
 10
-1913.395454785769
 20
1807.847591717853
 30
0.0
 11
-1916.395454785769
 21
1807.847591717853
 31
0.0
  0
LINE
  5
12761
330
1275D
100
AcDbEntity
  8
SUNPOU
 62
     1
100
AcDbLine
 10
-1905.395464785769
 20
1807.847591717853
 30
0.0
 11
-1898.583282044652
 21
1807.847591717853
 31
0.0
  0
LINE
  5
12762
330
1275D
100
AcDbEntity
  8
SUNPOU
 62
     1
100
AcDbLine
 10
-1910.395454785769
 20
1807.847591717853
 30
0.0
 11
-1908.395464785769
 21
1807.847591717853
 31
0.0
  0
SOLID
  5
12763
330
1275D
100
AcDbEntity
  8
SUNPOU
 62
     1
100
AcDbTrace
 10
-1913.395454785769
 20
1808.347591717851
 30
0.0
 11
-1913.395454785769
 21
1807.347591717853
 31
0.0
 12
-1910.395454785769
 22
1807.847591717853
 32
0.0
 13
-1910.395454785769
 23
1807.847591717853
 33
0.0
  0
SOLID
  5
12764
330
1275D
100
AcDbEntity
  8
SUNPOU
 62
     1
100
AcDbTrace
 10
-1905.395464785769
 20
1808.347591717851
 30
0.0
 11
-1905.395464785769
 21
1807.347591717853
 31
0.0
 12
-1908.395464785769
 22
1807.847591717853
 32
0.0
 13
-1908.395464785769
 23
1807.847591717853
 33
0.0
  0
MTEXT
  5
12765
330
1275D
100
AcDbEntity
  8
SUNPOU
 62
     1
100
AcDbMText
 10
-1900.48937341521
 20
1810.597591717852
 30
0.0
 40
3.5
 41
0.0
 71
     5
 72
     1
  1
\A1;2
  7
ゴシック体
1001
ACAD
1000
MTEXTBEGIN
1070
    73
1070
     1
1070
    44
1040
1.0
1070
    74
1070
     0
1000
MTEXTEND
  0
POINT
  5
12766
330
1275D
100
AcDbEntity
  8
DEFPOINTS
 62
     0
100
AcDbPoint
 10
-1910.395454785769
 20
1814.416852535708
 30
0.0
  0
POINT
  5
12767
330
1275D
100
AcDbEntity
  8
DEFPOINTS
 62
     0
100
AcDbPoint
 10
-1908.395464785769
 20
1814.416852535708
 30
0.0
  0
POINT
  5
12768
330
1275D
100
AcDbEntity
  8
DEFPOINTS
 62
     0
100
AcDbPoint
 10
-1908.395464785769
 20
1807.847591717853
 30
0.0
  0
ENDBLK
  5
1276A
330
1275D
100
AcDbEntity
  8
0
100
AcDbBlockEnd
  0
BLOCK
  5
12776
330
1276C
100
AcDbEntity
  8
0
100
AcDbBlockBegin
  2
*D31
 70
     1
 10
0.0
 20
0.0
 30
0.0
  3
*D31
  1

  0
LINE
  5
1279E
330
1276C
100
AcDbEntity
  8
SUNPOU
 62
     1
100
AcDbLine
 10
-1929.395454785769
 20
1821.966852535709
 30
0.0
 11
-1929.395454785769
 21
1792.287407244361
 31
0.0
  0
LINE
  5
1279F
330
1276C
100
AcDbEntity
  8
SUNPOU
 62
     1
100
AcDbLine
 10
-1903.397924785769
 20
1820.667262535708
 30
0.0
 11
-1903.397924785769
 21
1792.287407244361
 31
0.0
  0
LINE
  5
127A0
330
1276C
100
AcDbEntity
  8
SUNPOU
 62
     1
100
AcDbLine
 10
-1926.395454785769
 20
1792.787407244361
 30
0.0
 11
-1906.397924785769
 21
1792.787407244361
 31
0.0
  0
SOLID
  5
127A1
330
1276C
100
AcDbEntity
  8
SUNPOU
 62
     1
100
AcDbTrace
 10
-1926.395454785769
 20
1793.287407244362
 30
0.0
 11
-1926.395454785769
 21
1792.287407244361
 31
0.0
 12
-1929.395454785769
 22
1792.787407244361
 32
0.0
 13
-1929.395454785769
 23
1792.787407244361
 33
0.0
  0
SOLID
  5
127A2
330
1276C
100
AcDbEntity
  8
SUNPOU
 62
     1
100
AcDbTrace
 10
-1906.397924785769
 20
1793.287407244362
 30
0.0
 11
-1906.397924785769
 21
1792.287407244361
 31
0.0
 12
-1903.397924785769
 22
1792.787407244361
 32
0.0
 13
-1903.397924785769
 23
1792.787407244361
 33
0.0
  0
MTEXT
  5
127A3
330
1276C
100
AcDbEntity
  8
SUNPOU
 62
     1
100
AcDbMText
 10
-1916.396689785769
 20
1795.537407244361
 30
0.0
 40
3.5
 41
0.0
 71
     5
 72
     1
  1
\A1;26
  7
ゴシック体
1001
ACAD
1000
MTEXTBEGIN
1070
    73
1070
     1
1070
    44
1040
1.0
1070
    74
1070
     0
1000
MTEXTEND
  0
POINT
  5
127A4
330
1276C
100
AcDbEntity
  8
DEFPOINTS
 62
     0
100
AcDbPoint
 10
-1929.395454785769
 20
1822.466852535709
 30
0.0
  0
POINT
  5
127A5
330
1276C
100
AcDbEntity
  8
DEFPOINTS
 62
     0
100
AcDbPoint
 10
-1903.397924785769
 20
1821.167262535708
 30
0.0
  0
POINT
  5
127A6
330
1276C
100
AcDbEntity
  8
DEFPOINTS
 62
     0
100
AcDbPoint
 10
-1903.397924785769
 20
1792.787407244361
 30
0.0
  0
ENDBLK
  5
12777
330
1276C
100
AcDbEntity
  8
0
100
AcDbBlockEnd
  0
BLOCK
  5
127B2
330
127A8
100
AcDbEntity
  8
0
100
AcDbBlockBegin
  2
*D32
 70
     1
 10
0.0
 20
0.0
 30
0.0
  3
*D32
  1

  0
LINE
  5
127A9
330
127A8
100
AcDbEntity
  8
SUNPOU
 62
     1
100
AcDbLine
 10
-1929.395454785769
 20
1821.466852535709
 30
0.0
 11
-1929.395454785769
 21
1799.454317521067
 31
0.0
  0
LINE
  5
127AA
330
127A8
100
AcDbEntity
  8
SUNPOU
 62
     1
100
AcDbLine
 10
-1908.395464785769
 20
1813.916852535707
 30
0.0
 11
-1908.395464785769
 21
1799.454317521067
 31
0.0
  0
LINE
  5
127AB
330
127A8
100
AcDbEntity
  8
SUNPOU
 62
     1
100
AcDbLine
 10
-1926.395454785769
 20
1799.954317521067
 30
0.0
 11
-1911.395464785769
 21
1799.954317521067
 31
0.0
  0
SOLID
  5
127AC
330
127A8
100
AcDbEntity
  8
SUNPOU
 62
     1
100
AcDbTrace
 10
-1926.395454785769
 20
1800.454317521067
 30
0.0
 11
-1926.395454785769
 21
1799.454317521067
 31
0.0
 12
-1929.395454785769
 22
1799.954317521067
 32
0.0
 13
-1929.395454785769
 23
1799.954317521067
 33
0.0
  0
SOLID
  5
127AD
330
127A8
100
AcDbEntity
  8
SUNPOU
 62
     1
100
AcDbTrace
 10
-1911.395464785769
 20
1800.454317521067
 30
0.0
 11
-1911.395464785769
 21
1799.454317521067
 31
0.0
 12
-1908.395464785769
 22
1799.954317521067
 32
0.0
 13
-1908.395464785769
 23
1799.954317521067
 33
0.0
  0
MTEXT
  5
127AE
330
127A8
100
AcDbEntity
  8
SUNPOU
 62
     1
100
AcDbMText
 10
-1918.895459785769
 20
1802.704317521067
 30
0.0
 40
3.5
 41
0.0
 71
     5
 72
     1
  1
\A1;21
  7
ゴシック体
1001
ACAD
1000
MTEXTBEGIN
1070
    73
1070
     1
1070
    44
1040
1.0
1070
    74
1070
     0
1000
MTEXTEND
  0
POINT
  5
127AF
330
127A8
100
AcDbEntity
  8
DEFPOINTS
 62
     0
100
AcDbPoint
 10
-1929.395454785769
 20
1821.966852535709
 30
0.0
  0
POINT
  5
127B0
330
127A8
100
AcDbEntity
  8
DEFPOINTS
 62
     0
100
AcDbPoint
 10
-1908.395464785769
 20
1814.416852535708
 30
0.0
  0
POINT
  5
127B1
330
127A8
100
AcDbEntity
  8
DEFPOINTS
 62
     0
100
AcDbPoint
 10
-1908.395464785769
 20
1799.954317521067
 30
0.0
  0
ENDBLK
  5
127B3
330
127A8
100
AcDbEntity
  8
0
100
AcDbBlockEnd
  0
ENDSEC
  0
SECTION
  2
ENTITIES
  0
MTEXT
  5
5084
330
1A
100
AcDbEntity
  8
0
100
AcDbMText
 10
1985.239088685434
 20
-948.5420423450428
 30
0.0
 40
8.0
 41
0.0
 71
     7
 72
     5
  1

1001
ACAD
1000
MTEXTBEGIN
1070
    73
1070
     1
1070
    44
1040
1.0
1070
    74
1070
     0
1000
MTEXTEND
  0
MTEXT
  5
5085
330
1A
100
AcDbEntity
  8
0
100
AcDbMText
 10
4270.596778580329
 20
22.24825240601647
 30
0.0
 40
8.0
 41
0.0
 71
     7
 72
     5
  1

1001
ACAD
1000
MTEXTBEGIN
1070
    73
1070
     1
1070
    44
1040
1.0
1070
    74
1070
     0
1000
MTEXTEND
  0
MTEXT
  5
5343
330
1A
100
AcDbEntity
  8
SUNPOU
100
AcDbMText
 10
6936.493799262471
 20
9534.359644781137
 30
0.0
 40
10.5
 41
0.0
 71
     1
 72
     5
  1

1001
ACAD
1000
MTEXTBEGIN
1070
    73
1070
     1
1070
    44
1040
1.0
1070
    74
1070
     0
1000
MTEXTEND
  0
MTEXT
  5
544F
330
1A
100
AcDbEntity
  8
0
100
AcDbMText
 10
16317.2832773148
 20
12833.35428897674
 30
0.0
 40
8.0
 41
0.0
 71
     7
 72
     5
  1

1001
ACAD
1000
MTEXTBEGIN
1070
    73
1070
     1
1070
    44
1040
1.0
1070
    74
1070
     0
1000
MTEXTEND
  0
MTEXT
  5
5450
330
1A
100
AcDbEntity
  8
0
100
AcDbMText
 10
18602.64096720968
 20
13804.1445837278
 30
0.0
 40
8.0
 41
0.0
 71
     7
 72
     5
  1

1001
ACAD
1000
MTEXTBEGIN
1070
    73
1070
     1
1070
    44
1040
1.0
1070
    74
1070
     0
1000
MTEXTEND
  0
MTEXT
  5
5451
330
1A
100
AcDbEntity
  8
SUNPOU
100
AcDbMText
 10
21268.53798789184
 20
23316.25597610292
 30
0.0
 40
10.5
 41
0.0
 71
     1
 72
     5
  1

1001
ACAD
1000
MTEXTBEGIN
1070
    73
1070
     1
1070
    44
1040
1.0
1070
    74
1070
     0
1000
MTEXTEND
  0
MTEXT
  5
5452
330
1A
100
AcDbEntity
  8
SUNPOU
100
AcDbMText
 10
13337.6147919559
 20
22369.46284218996
 30
0.0
 40
10.5
 41
0.0
 71
     7
 72
     5
  1

1001
ACAD
1000
MTEXTBEGIN
1070
    73
1070
     1
1070
    44
1040
1.0
1070
    74
1070
     0
1000
MTEXTEND
  0
MTEXT
  5
5453
330
1A
100
AcDbEntity
  8
SUNPOU
100
AcDbMText
 10
16286.59845646867
 20
27270.13891403279
 30
0.0
 40
10.5
 41
0.0
 71
     7
 72
     5
  1

1001
ACAD
1000
MTEXTBEGIN
1070
    73
1070
     1
1070
    44
1040
1.0
1070
    74
1070
     0
1000
MTEXTEND
  0
MTEXT
  5
5454
330
1A
100
AcDbEntity
  8
SUNPOU
100
AcDbMText
 10
20795.67658441924
 20
29706.43966165288
 30
0.0
 40
10.5
 41
0.0
 71
     7
 72
     5
  1

1001
ACAD
1000
MTEXTBEGIN
1070
    73
1070
     1
1070
    44
1040
1.0
1070
    74
1070
     0
1000
MTEXTEND
  0
MTEXT
  5
5455
330
1A
100
AcDbEntity
  8
0
100
AcDbMText
 10
16611.93789220313
 20
14707.52144344448
 30
0.0
 40
8.0
 41
0.0
 71
     7
 72
     5
  1

1001
ACAD
1000
MTEXTBEGIN
1070
    73
1070
     1
1070
    44
1040
1.0
1070
    74
1070
     0
1000
MTEXTEND
  0
MTEXT
  5
5456
330
1A
100
AcDbEntity
  8
0
100
AcDbMText
 10
18897.29558209803
 20
15678.31173819554
 30
0.0
 40
8.0
 41
0.0
 71
     7
 72
     5
  1

1001
ACAD
1000
MTEXTBEGIN
1070
    73
1070
     1
1070
    44
1040
1.0
1070
    74
1070
     0
1000
MTEXTEND
  0
MTEXT
  5
5457
330
1A
100
AcDbEntity
  8
SUNPOU
100
AcDbMText
 10
21563.19260278019
 20
25190.42313057066
 30
0.0
 40
10.5
 41
0.0
 71
     1
 72
     5
  1

1001
ACAD
1000
MTEXTBEGIN
1070
    73
1070
     1
1070
    44
1040
1.0
1070
    74
1070
     0
1000
MTEXTEND
  0
MTEXT
  5
5458
330
1A
100
AcDbEntity
  8
SUNPOU
100
AcDbMText
 10
13632.26940684425
 20
24243.6299966577
 30
0.0
 40
10.5
 41
0.0
 71
     7
 72
     5
  1

1001
ACAD
1000
MTEXTBEGIN
1070
    73
1070
     1
1070
    44
1040
1.0
1070
    74
1070
     0
1000
MTEXTEND
  0
MTEXT
  5
5459
330
1A
100
AcDbEntity
  8
SUNPOU
100
AcDbMText
 10
16581.25307135702
 20
29144.30606850055
 30
0.0
 40
10.5
 41
0.0
 71
     7
 72
     5
  1

1001
ACAD
1000
MTEXTBEGIN
1070
    73
1070
     1
1070
    44
1040
1.0
1070
    74
1070
     0
1000
MTEXTEND
  0
MTEXT
  5
545A
330
1A
100
AcDbEntity
  8
SUNPOU
100
AcDbMText
 10
21090.33119930759
 20
31580.60681612062
 30
0.0
 40
10.5
 41
0.0
 71
     7
 72
     5
  1

1001
ACAD
1000
MTEXTBEGIN
1070
    73
1070
     1
1070
    44
1040
1.0
1070
    74
1070
     0
1000
MTEXTEND
  0
MTEXT
  5
545B
330
1A
100
AcDbEntity
  8
0
100
AcDbMText
 10
22871.60517627166
 20
23974.88367124799
 30
0.0
 40
8.0
 41
0.0
 71
     7
 72
     5
  1

1001
ACAD
1000
MTEXTBEGIN
1070
    73
1070
     1
1070
    44
1040
1.0
1070
    74
1070
     0
1000
MTEXTEND
  0
MTEXT
  5
545C
330
1A
100
AcDbEntity
  8
0
100
AcDbMText
 10
25156.96286616655
 20
24945.67396599904
 30
0.0
 40
8.0
 41
0.0
 71
     7
 72
     5
  1

1001
ACAD
1000
MTEXTBEGIN
1070
    73
1070
     1
1070
    44
1040
1.0
1070
    74
1070
     0
1000
MTEXTEND
  0
MTEXT
  5
545D
330
1A
100
AcDbEntity
  8
SUNPOU
100
AcDbMText
 10
27822.85988684871
 20
34457.78535837418
 30
0.0
 40
10.5
 41
0.0
 71
     1
 72
     5
  1

1001
ACAD
1000
MTEXTBEGIN
1070
    73
1070
     1
1070
    44
1040
1.0
1070
    74
1070
     0
1000
MTEXTEND
  0
MTEXT
  5
545E
330
1A
100
AcDbEntity
  8
SUNPOU
100
AcDbMText
 10
19891.93669091278
 20
33510.99222446122
 30
0.0
 40
10.5
 41
0.0
 71
     7
 72
     5
  1

1001
ACAD
1000
MTEXTBEGIN
1070
    73
1070
     1
1070
    44
1040
1.0
1070
    74
1070
     0
1000
MTEXTEND
  0
MTEXT
  5
545F
330
1A
100
AcDbEntity
  8
SUNPOU
100
AcDbMText
 10
22840.92035542555
 20
38411.66829630406
 30
0.0
 40
10.5
 41
0.0
 71
     7
 72
     5
  1

1001
ACAD
1000
MTEXTBEGIN
1070
    73
1070
     1
1070
    44
1040
1.0
1070
    74
1070
     0
1000
MTEXTEND
  0
MTEXT
  5
5460
330
1A
100
AcDbEntity
  8
SUNPOU
100
AcDbMText
 10
27349.99848337611
 20
40847.96904392415
 30
0.0
 40
10.5
 41
0.0
 71
     7
 72
     5
  1

1001
ACAD
1000
MTEXTBEGIN
1070
    73
1070
     1
1070
    44
1040
1.0
1070
    74
1070
     0
1000
MTEXTEND
  0
MTEXT
  5
55B7
330
1A
100
AcDbEntity
  8
SUNPOU
100
AcDbMText
 10
67424.23923338197
 20
64463.86602884816
 30
0.0
 40
10.5
 41
0.0
 71
     9
 72
     5
  1

1001
ACAD
1000
MTEXTBEGIN
1070
    73
1070
     1
1070
    44
1040
1.0
1070
    74
1070
     0
1000
MTEXTEND
  0
MTEXT
  5
55B8
330
1A
100
AcDbEntity
  8
SUNPOU
100
AcDbMText
 10
76146.40679929998
 20
71879.70056038563
 30
0.0
 40
10.5
 41
0.0
 71
     9
 72
     5
  1

1001
ACAD
1000
MTEXTBEGIN
1070
    73
1070
     1
1070
    44
1040
1.0
1070
    74
1070
     0
1000
MTEXTEND
  0
MTEXT
  5
55B9
330
1A
100
AcDbEntity
  8
SUNPOU
100
AcDbMText
 10
95100.16551662994
 20
89346.27661287766
 30
0.0
 40
10.5
 41
0.0
 71
     9
 72
     5
  1

1001
ACAD
1000
MTEXTBEGIN
1070
    73
1070
     1
1070
    44
1040
1.0
1070
    74
1070
     0
1000
MTEXTEND
  0
MTEXT
  5
55BA
330
1A
100
AcDbEntity
  8
SUNPOU
100
AcDbMText
 10
97043.57276333935
 20
87545.22753299966
 30
0.0
 40
3.5
 41
0.0
 71
     9
 72
     5
  1

1001
ACAD
1000
MTEXTBEGIN
1070
    73
1070
     1
1070
    44
1040
1.0
1070
    74
1070
     0
1000
MTEXTEND
  0
MTEXT
  5
55BB
330
1A
100
AcDbEntity
  8
SUNPOU
100
AcDbMText
 10
128169.7525959589
 20
130040.1732006569
 30
0.0
 40
10.5
 41
0.0
 71
     9
 72
     5
  1

1001
ACAD
1000
MTEXTBEGIN
1070
    73
1070
     1
1070
    44
1040
1.0
1070
    74
1070
     0
1000
MTEXTEND
  0
MTEXT
  5
55BC
330
1A
100
AcDbEntity
  8
SUNPOU
100
AcDbMText
 10
130113.1598426684
 20
128239.1241207789
 30
0.0
 40
3.5
 41
0.0
 71
     9
 72
     5
  1

1001
ACAD
1000
MTEXTBEGIN
1070
    73
1070
     1
1070
    44
1040
1.0
1070
    74
1070
     0
1000
MTEXTEND
  0
MTEXT
  5
55BD
330
1A
100
AcDbEntity
  8
SUNPOU
100
AcDbMText
 10
78610.02030175463
 20
75873.33835563206
 30
0.0
 40
10.5
 41
0.0
 71
     9
 72
     5
  1

1001
ACAD
1000
MTEXTBEGIN
1070
    73
1070
     1
1070
    44
1040
1.0
1070
    74
1070
     0
1000
MTEXTEND
  0
MTEXT
  5
55BE
330
1A
100
AcDbEntity
  8
SUNPOU
100
AcDbMText
 10
64662.02020137862
 20
56700.93921651987
 30
0.0
 40
3.5
 41
0.0
 71
     7
 72
     5
  1

1001
ACAD
1000
MTEXTBEGIN
1070
    73
1070
     1
1070
    44
1040
1.0
1070
    74
1070
     0
1000
MTEXTEND
  0
MTEXT
  5
55BF
330
1A
100
AcDbEntity
  8
SUNPOU
100
AcDbMText
 10
45647.18959837176
 20
44463.08794733806
 30
0.0
 40
10.5
 41
0.0
 71
     7
 72
     5
  1

1001
ACAD
1000
MTEXTBEGIN
1070
    73
1070
     1
1070
    44
1040
1.0
1070
    74
1070
     0
1000
MTEXTEND
  0
MTEXT
  5
55C0
330
1A
100
AcDbEntity
  8
SUNPOU
100
AcDbMText
 10
33189.96133342368
 20
28618.15636923965
 30
0.0
 40
35.0
 41
0.0
 71
     9
 72
     5
  1

1001
ACAD
1000
MTEXTBEGIN
1070
    73
1070
     1
1070
    44
1040
1.0
1070
    74
1070
     0
1000
MTEXTEND
  0
MTEXT
  5
55C1
330
1A
100
AcDbEntity
  8
SUNPOU
100
AcDbMText
 10
32098.44639099864
 20
29226.93177928834
 30
0.0
 40
350.0000004171781
 41
0.0
 71
     7
 72
     5
  1

1001
ACAD
1000
MTEXTBEGIN
1070
    73
1070
     1
1070
    44
1040
1.0
1070
    74
1070
     0
1000
MTEXTEND
  0
MTEXT
  5
55C2
330
1A
100
AcDbEntity
  8
0
100
AcDbMText
 10
38142.39714894154
 20
27206.85414142458
 30
0.0
 40
8.0
 41
0.0
 71
     7
 72
     5
  1

1001
ACAD
1000
MTEXTBEGIN
1070
    73
1070
     1
1070
    44
1040
1.0
1070
    74
1070
     0
1000
MTEXTEND
  0
MTEXT
  5
55C3
330
1A
100
AcDbEntity
  8
0
100
AcDbMText
 10
40427.75483883644
 20
28177.64443617564
 30
0.0
 40
8.0
 41
0.0
 71
     7
 72
     5
  1

1001
ACAD
1000
MTEXTBEGIN
1070
    73
1070
     1
1070
    44
1040
1.0
1070
    74
1070
     0
1000
MTEXTEND
  0
MTEXT
  5
55C4
330
1A
100
AcDbEntity
  8
SUNPOU
100
AcDbMText
 10
43093.65185951858
 20
37689.75582855077
 30
0.0
 40
10.5
 41
0.0
 71
     1
 72
     5
  1

1001
ACAD
1000
MTEXTBEGIN
1070
    73
1070
     1
1070
    44
1040
1.0
1070
    74
1070
     0
1000
MTEXTEND
  0
MTEXT
  5
55C5
330
1A
100
AcDbEntity
  8
SUNPOU
100
AcDbMText
 10
35162.72866358265
 20
36742.96269463781
 30
0.0
 40
10.5
 41
0.0
 71
     7
 72
     5
  1

1001
ACAD
1000
MTEXTBEGIN
1070
    73
1070
     1
1070
    44
1040
1.0
1070
    74
1070
     0
1000
MTEXTEND
  0
MTEXT
  5
55C6
330
1A
100
AcDbEntity
  8
SUNPOU
100
AcDbMText
 10
38111.71232809542
 20
41643.63876648065
 30
0.0
 40
10.5
 41
0.0
 71
     7
 72
     5
  1

1001
ACAD
1000
MTEXTBEGIN
1070
    73
1070
     1
1070
    44
1040
1.0
1070
    74
1070
     0
1000
MTEXTEND
  0
MTEXT
  5
55C7
330
1A
100
AcDbEntity
  8
SUNPOU
100
AcDbMText
 10
42620.79045604596
 20
44079.93951410074
 30
0.0
 40
10.5
 41
0.0
 71
     7
 72
     5
  1

1001
ACAD
1000
MTEXTBEGIN
1070
    73
1070
     1
1070
    44
1040
1.0
1070
    74
1070
     0
1000
MTEXTEND
  0
MTEXT
  5
55C8
330
1A
100
AcDbEntity
  8
SUNPOU
100
AcDbMText
 10
26221.62834281429
 20
23077.53566448964
 30
0.0
 40
10.5
 41
0.0
 71
     7
 72
     5
  1

1001
ACAD
1000
MTEXTBEGIN
1070
    73
1070
     1
1070
    44
1040
1.0
1070
    74
1070
     0
1000
MTEXTEND
  0
MTEXT
  5
55C9
330
1A
100
AcDbEntity
  8
SUNPOU
100
AcDbMText
 10
77413.14677671455
 20
68750.51622813789
 30
0.0
 40
10.5
 41
0.0
 71
     9
 72
     5
  1

1001
ACAD
1000
MTEXTBEGIN
1070
    73
1070
     1
1070
    44
1040
1.0
1070
    74
1070
     0
1000
MTEXTEND
  0
MTEXT
  5
55CA
330
1A
100
AcDbEntity
  8
SUNPOU
100
AcDbMText
 10
86135.31434263256
 20
76166.35075967536
 30
0.0
 40
10.5
 41
0.0
 71
     9
 72
     5
  1

1001
ACAD
1000
MTEXTBEGIN
1070
    73
1070
     1
1070
    44
1040
1.0
1070
    74
1070
     0
1000
MTEXTEND
  0
MTEXT
  5
55CB
330
1A
100
AcDbEntity
  8
SUNPOU
100
AcDbMText
 10
105089.0730599624
 20
93632.92681216739
 30
0.0
 40
10.5
 41
0.0
 71
     9
 72
     5
  1

1001
ACAD
1000
MTEXTBEGIN
1070
    73
1070
     1
1070
    44
1040
1.0
1070
    74
1070
     0
1000
MTEXTEND
  0
MTEXT
  5
55CC
330
1A
100
AcDbEntity
  8
SUNPOU
100
AcDbMText
 10
107032.4803066718
 20
91831.87773228937
 30
0.0
 40
3.5
 41
0.0
 71
     9
 72
     5
  1

1001
ACAD
1000
MTEXTBEGIN
1070
    73
1070
     1
1070
    44
1040
1.0
1070
    74
1070
     0
1000
MTEXTEND
  0
MTEXT
  5
55CD
330
1A
100
AcDbEntity
  8
SUNPOU
100
AcDbMText
 10
138158.6601392916
 20
134326.8233999467
 30
0.0
 40
10.5
 41
0.0
 71
     9
 72
     5
  1

1001
ACAD
1000
MTEXTBEGIN
1070
    73
1070
     1
1070
    44
1040
1.0
1070
    74
1070
     0
1000
MTEXTEND
  0
MTEXT
  5
55CE
330
1A
100
AcDbEntity
  8
SUNPOU
100
AcDbMText
 10
140102.067386001
 20
132525.7743200686
 30
0.0
 40
3.5
 41
0.0
 71
     9
 72
     5
  1

1001
ACAD
1000
MTEXTBEGIN
1070
    73
1070
     1
1070
    44
1040
1.0
1070
    74
1070
     0
1000
MTEXTEND
  0
MTEXT
  5
55CF
330
1A
100
AcDbEntity
  8
SUNPOU
100
AcDbMText
 10
88598.92784508721
 20
80159.98855492179
 30
0.0
 40
10.5
 41
0.0
 71
     9
 72
     5
  1

1001
ACAD
1000
MTEXTBEGIN
1070
    73
1070
     1
1070
    44
1040
1.0
1070
    74
1070
     0
1000
MTEXTEND
  0
MTEXT
  5
55D0
330
1A
100
AcDbEntity
  8
SUNPOU
100
AcDbMText
 10
74650.92774471121
 20
60987.58941580959
 30
0.0
 40
3.5
 41
0.0
 71
     7
 72
     5
  1

1001
ACAD
1000
MTEXTBEGIN
1070
    73
1070
     1
1070
    44
1040
1.0
1070
    74
1070
     0
1000
MTEXTEND
  0
MTEXT
  5
55D1
330
1A
100
AcDbEntity
  8
SUNPOU
100
AcDbMText
 10
55636.09714170436
 20
48749.73814662781
 30
0.0
 40
10.5
 41
0.0
 71
     7
 72
     5
  1

1001
ACAD
1000
MTEXTBEGIN
1070
    73
1070
     1
1070
    44
1040
1.0
1070
    74
1070
     0
1000
MTEXTEND
  0
MTEXT
  5
55D2
330
1A
100
AcDbEntity
  8
SUNPOU
100
AcDbMText
 10
43178.86887675626
 20
32904.80656852937
 30
0.0
 40
35.0
 41
0.0
 71
     9
 72
     5
  1

1001
ACAD
1000
MTEXTBEGIN
1070
    73
1070
     1
1070
    44
1040
1.0
1070
    74
1070
     0
1000
MTEXTEND
  0
MTEXT
  5
55D3
330
1A
100
AcDbEntity
  8
SUNPOU
100
AcDbMText
 10
42087.3539343312
 20
33513.58197857808
 30
0.0
 40
350.0000004171781
 41
0.0
 71
     7
 72
     5
  1

1001
ACAD
1000
MTEXTBEGIN
1070
    73
1070
     1
1070
    44
1040
1.0
1070
    74
1070
     0
1000
MTEXTEND
  0
MTEXT
  5
55D4
330
1A
100
AcDbEntity
  8
0
100
AcDbMText
 10
48131.30469227412
 20
31493.50434071431
 30
0.0
 40
8.0
 41
0.0
 71
     7
 72
     5
  1

1001
ACAD
1000
MTEXTBEGIN
1070
    73
1070
     1
1070
    44
1040
1.0
1070
    74
1070
     0
1000
MTEXTEND
  0
MTEXT
  5
55D5
330
1A
100
AcDbEntity
  8
0
100
AcDbMText
 10
50416.66238216901
 20
32464.29463546537
 30
0.0
 40
8.0
 41
0.0
 71
     7
 72
     5
  1

1001
ACAD
1000
MTEXTBEGIN
1070
    73
1070
     1
1070
    44
1040
1.0
1070
    74
1070
     0
1000
MTEXTEND
  0
MTEXT
  5
55D6
330
1A
100
AcDbEntity
  8
SUNPOU
100
AcDbMText
 10
53082.55940285115
 20
41976.4060278405
 30
0.0
 40
10.5
 41
0.0
 71
     1
 72
     5
  1

1001
ACAD
1000
MTEXTBEGIN
1070
    73
1070
     1
1070
    44
1040
1.0
1070
    74
1070
     0
1000
MTEXTEND
  0
MTEXT
  5
55D7
330
1A
100
AcDbEntity
  8
SUNPOU
100
AcDbMText
 10
45151.63620691521
 20
41029.61289392755
 30
0.0
 40
10.5
 41
0.0
 71
     7
 72
     5
  1

1001
ACAD
1000
MTEXTBEGIN
1070
    73
1070
     1
1070
    44
1040
1.0
1070
    74
1070
     0
1000
MTEXTEND
  0
MTEXT
  5
55D8
330
1A
100
AcDbEntity
  8
SUNPOU
100
AcDbMText
 10
48100.61987142798
 20
45930.28896577039
 30
0.0
 40
10.5
 41
0.0
 71
     7
 72
     5
  1

1001
ACAD
1000
MTEXTBEGIN
1070
    73
1070
     1
1070
    44
1040
1.0
1070
    74
1070
     0
1000
MTEXTEND
  0
MTEXT
  5
55D9
330
1A
100
AcDbEntity
  8
SUNPOU
100
AcDbMText
 10
52609.69799937853
 20
48366.58971339046
 30
0.0
 40
10.5
 41
0.0
 71
     7
 72
     5
  1

1001
ACAD
1000
MTEXTBEGIN
1070
    73
1070
     1
1070
    44
1040
1.0
1070
    74
1070
     0
1000
MTEXTEND
  0
MTEXT
  5
55DA
330
1A
100
AcDbEntity
  8
SUNPOU
100
AcDbMText
 10
36210.53588614687
 20
27364.18586377937
 30
0.0
 40
10.5
 41
0.0
 71
     7
 72
     5
  1

1001
ACAD
1000
MTEXTBEGIN
1070
    73
1070
     1
1070
    44
1040
1.0
1070
    74
1070
     0
1000
MTEXTEND
  0
MTEXT
  5
55DB
330
1A
100
AcDbEntity
  8
SUNPOU
100
AcDbMText
 10
38021.29879752181
 20
33691.59985125794
 30
0.0
 40
10.5
 41
0.0
 71
     9
 72
     5
  1

1001
ACAD
1000
MTEXTBEGIN
1070
    73
1070
     1
1070
    44
1040
1.0
1070
    74
1070
     0
1000
MTEXTEND
  0
MTEXT
  5
55DC
330
1A
100
AcDbEntity
  8
SUNPOU
100
AcDbMText
 10
46743.46636343979
 20
41107.4343827954
 30
0.0
 40
10.5
 41
0.0
 71
     9
 72
     5
  1

1001
ACAD
1000
MTEXTBEGIN
1070
    73
1070
     1
1070
    44
1040
1.0
1070
    74
1070
     0
1000
MTEXTEND
  0
MTEXT
  5
55DD
330
1A
100
AcDbEntity
  8
SUNPOU
100
AcDbMText
 10
65697.22508076974
 20
58574.01043528746
 30
0.0
 40
10.5
 41
0.0
 71
     9
 72
     5
  1

1001
ACAD
1000
MTEXTBEGIN
1070
    73
1070
     1
1070
    44
1040
1.0
1070
    74
1070
     0
1000
MTEXTEND
  0
MTEXT
  5
55DE
330
1A
100
AcDbEntity
  8
SUNPOU
100
AcDbMText
 10
67640.63232747917
 20
56772.96135540945
 30
0.0
 40
3.5
 41
0.0
 71
     9
 72
     5
  1

1001
ACAD
1000
MTEXTBEGIN
1070
    73
1070
     1
1070
    44
1040
1.0
1070
    74
1070
     0
1000
MTEXTEND
  0
MTEXT
  5
55DF
330
1A
100
AcDbEntity
  8
SUNPOU
100
AcDbMText
 10
98766.81216009886
 20
99267.9070230668
 30
0.0
 40
10.5
 41
0.0
 71
     9
 72
     5
  1

1001
ACAD
1000
MTEXTBEGIN
1070
    73
1070
     1
1070
    44
1040
1.0
1070
    74
1070
     0
1000
MTEXTEND
  0
MTEXT
  5
55E0
330
1A
100
AcDbEntity
  8
SUNPOU
100
AcDbMText
 10
100710.2194068083
 20
97466.85794318876
 30
0.0
 40
3.5
 41
0.0
 71
     9
 72
     5
  1

1001
ACAD
1000
MTEXTBEGIN
1070
    73
1070
     1
1070
    44
1040
1.0
1070
    74
1070
     0
1000
MTEXTEND
  0
MTEXT
  5
55E1
330
1A
100
AcDbEntity
  8
SUNPOU
100
AcDbMText
 10
49207.07986589443
 20
45101.07217804184
 30
0.0
 40
10.5
 41
0.0
 71
     9
 72
     5
  1

1001
ACAD
1000
MTEXTBEGIN
1070
    73
1070
     1
1070
    44
1040
1.0
1070
    74
1070
     0
1000
MTEXTEND
  0
MTEXT
  5
55E2
330
1A
100
AcDbEntity
  8
SUNPOU
100
AcDbMText
 10
35259.07976551845
 20
25928.67303892964
 30
0.0
 40
3.5
 41
0.0
 71
     7
 72
     5
  1

1001
ACAD
1000
MTEXTBEGIN
1070
    73
1070
     1
1070
    44
1040
1.0
1070
    74
1070
     0
1000
MTEXTEND
  0
MTEXT
  5
55E3
330
1A
100
AcDbEntity
  8
SUNPOU
100
AcDbMText
 10
48951.43044828905
 20
35287.73625995099
 30
0.0
 40
10.5
 41
0.0
 71
     9
 72
     5
  1

1001
ACAD
1000
MTEXTBEGIN
1070
    73
1070
     1
1070
    44
1040
1.0
1070
    74
1070
     0
1000
MTEXTEND
  0
MTEXT
  5
55E4
330
1A
100
AcDbEntity
  8
SUNPOU
100
AcDbMText
 10
57673.59801420702
 20
42703.57079148847
 30
0.0
 40
10.5
 41
0.0
 71
     9
 72
     5
  1

1001
ACAD
1000
MTEXTBEGIN
1070
    73
1070
     1
1070
    44
1040
1.0
1070
    74
1070
     0
1000
MTEXTEND
  0
MTEXT
  5
55E5
330
1A
100
AcDbEntity
  8
SUNPOU
100
AcDbMText
 10
76627.35673153699
 20
60170.14684398051
 30
0.0
 40
10.5
 41
0.0
 71
     9
 72
     5
  1

1001
ACAD
1000
MTEXTBEGIN
1070
    73
1070
     1
1070
    44
1040
1.0
1070
    74
1070
     0
1000
MTEXTEND
  0
MTEXT
  5
55E6
330
1A
100
AcDbEntity
  8
SUNPOU
100
AcDbMText
 10
78570.76397824641
 20
58369.09776410251
 30
0.0
 40
3.5
 41
0.0
 71
     9
 72
     5
  1

1001
ACAD
1000
MTEXTBEGIN
1070
    73
1070
     1
1070
    44
1040
1.0
1070
    74
1070
     0
1000
MTEXTEND
  0
MTEXT
  5
55E7
330
1A
100
AcDbEntity
  8
SUNPOU
100
AcDbMText
 10
109696.943810866
 20
100864.0434317598
 30
0.0
 40
10.5
 41
0.0
 71
     9
 72
     5
  1

1001
ACAD
1000
MTEXTBEGIN
1070
    73
1070
     1
1070
    44
1040
1.0
1070
    74
1070
     0
1000
MTEXTEND
  0
MTEXT
  5
55E8
330
1A
100
AcDbEntity
  8
SUNPOU
100
AcDbMText
 10
111640.3510575755
 20
99062.99435188183
 30
0.0
 40
3.5
 41
0.0
 71
     9
 72
     5
  1

1001
ACAD
1000
MTEXTBEGIN
1070
    73
1070
     1
1070
    44
1040
1.0
1070
    74
1070
     0
1000
MTEXTEND
  0
MTEXT
  5
55E9
330
1A
100
AcDbEntity
  8
SUNPOU
100
AcDbMText
 10
60137.21151666167
 20
46697.20858673491
 30
0.0
 40
10.5
 41
0.0
 71
     9
 72
     5
  1

1001
ACAD
1000
MTEXTBEGIN
1070
    73
1070
     1
1070
    44
1040
1.0
1070
    74
1070
     0
1000
MTEXTEND
  0
MTEXT
  5
55EA
330
1A
100
AcDbEntity
  8
SUNPOU
100
AcDbMText
 10
46189.21141628568
 20
27524.80944762269
 30
0.0
 40
3.5
 41
0.0
 71
     7
 72
     5
  1

1001
ACAD
1000
MTEXTBEGIN
1070
    73
1070
     1
1070
    44
1040
1.0
1070
    74
1070
     0
1000
MTEXTEND
  0
MTEXT
  5
55EB
330
1A
100
AcDbEntity
  8
SUNPOU
100
AcDbMText
 10
45007.68847015541
 20
38269.57947701873
 30
0.0
 40
10.5
 41
0.0
 71
     9
 72
     5
  1

1001
ACAD
1000
MTEXTBEGIN
1070
    73
1070
     1
1070
    44
1040
1.0
1070
    74
1070
     0
1000
MTEXTEND
  0
MTEXT
  5
55EC
330
1A
100
AcDbEntity
  8
SUNPOU
100
AcDbMText
 10
63961.44718748539
 20
55736.15552951081
 30
0.0
 40
10.5
 41
0.0
 71
     9
 72
     5
  1

1001
ACAD
1000
MTEXTBEGIN
1070
    73
1070
     1
1070
    44
1040
1.0
1070
    74
1070
     0
1000
MTEXTEND
  0
MTEXT
  5
55ED
330
1A
100
AcDbEntity
  8
SUNPOU
100
AcDbMText
 10
65904.85443419479
 20
53935.10644963278
 30
0.0
 40
3.5
 41
0.0
 71
     9
 72
     5
  1

1001
ACAD
1000
MTEXTBEGIN
1070
    73
1070
     1
1070
    44
1040
1.0
1070
    74
1070
     0
1000
MTEXTEND
  0
MTEXT
  5
55EE
330
1A
100
AcDbEntity
  8
SUNPOU
100
AcDbMText
 10
97031.03426681453
 20
96430.05211729015
 30
0.0
 40
10.5
 41
0.0
 71
     9
 72
     5
  1

1001
ACAD
1000
MTEXTBEGIN
1070
    73
1070
     1
1070
    44
1040
1.0
1070
    74
1070
     0
1000
MTEXTEND
  0
MTEXT
  5
55EF
330
1A
100
AcDbEntity
  8
SUNPOU
100
AcDbMText
 10
98974.44151352393
 20
94629.00303741212
 30
0.0
 40
3.5
 41
0.0
 71
     9
 72
     5
  1

1001
ACAD
1000
MTEXTBEGIN
1070
    73
1070
     1
1070
    44
1040
1.0
1070
    74
1070
     0
1000
MTEXTEND
  0
MTEXT
  5
55F0
330
1A
100
AcDbEntity
  8
SUNPOU
100
AcDbMText
 10
47471.30197261006
 20
42263.21727226519
 30
0.0
 40
10.5
 41
0.0
 71
     9
 72
     5
  1

1001
ACAD
1000
MTEXTBEGIN
1070
    73
1070
     1
1070
    44
1040
1.0
1070
    74
1070
     0
1000
MTEXTEND
  0
MTEXT
  5
55F1
330
1A
100
AcDbEntity
  8
SUNPOU
100
AcDbMText
 10
33523.30187223408
 20
23090.81813315298
 30
0.0
 40
3.5
 41
0.0
 71
     7
 72
     5
  1

1001
ACAD
1000
MTEXTBEGIN
1070
    73
1070
     1
1070
    44
1040
1.0
1070
    74
1070
     0
1000
MTEXTEND
  0
MTEXT
  5
55F2
330
1A
100
AcDbEntity
  8
SUNPOU
100
AcDbMText
 10
57959.46254102503
 20
50038.08111611014
 30
0.0
 40
10.5
 41
0.0
 71
     9
 72
     5
  1

1001
ACAD
1000
MTEXTBEGIN
1070
    73
1070
     1
1070
    44
1040
1.0
1070
    74
1070
     0
1000
MTEXTEND
  0
MTEXT
  5
55F3
330
1A
100
AcDbEntity
  8
SUNPOU
100
AcDbMText
 10
76913.22125835503
 20
67504.65716860222
 30
0.0
 40
10.5
 41
0.0
 71
     9
 72
     5
  1

1001
ACAD
1000
MTEXTBEGIN
1070
    73
1070
     1
1070
    44
1040
1.0
1070
    74
1070
     0
1000
MTEXTEND
  0
MTEXT
  5
55F4
330
1A
100
AcDbEntity
  8
SUNPOU
100
AcDbMText
 10
78856.62850506443
 20
65703.6080887242
 30
0.0
 40
3.5
 41
0.0
 71
     9
 72
     5
  1

1001
ACAD
1000
MTEXTBEGIN
1070
    73
1070
     1
1070
    44
1040
1.0
1070
    74
1070
     0
1000
MTEXTEND
  0
MTEXT
  5
55F5
330
1A
100
AcDbEntity
  8
SUNPOU
100
AcDbMText
 10
109982.8083376841
 20
108198.5537563815
 30
0.0
 40
10.5
 41
0.0
 71
     9
 72
     5
  1

1001
ACAD
1000
MTEXTBEGIN
1070
    73
1070
     1
1070
    44
1040
1.0
1070
    74
1070
     0
1000
MTEXTEND
  0
MTEXT
  5
55F6
330
1A
100
AcDbEntity
  8
SUNPOU
100
AcDbMText
 10
111926.2155843933
 20
106397.5046765035
 30
0.0
 40
3.5
 41
0.0
 71
     9
 72
     5
  1

1001
ACAD
1000
MTEXTBEGIN
1070
    73
1070
     1
1070
    44
1040
1.0
1070
    74
1070
     0
1000
MTEXTEND
  0
MTEXT
  5
55F7
330
1A
100
AcDbEntity
  8
SUNPOU
100
AcDbMText
 10
60423.07604347968
 20
54031.71891135658
 30
0.0
 40
10.5
 41
0.0
 71
     9
 72
     5
  1

1001
ACAD
1000
MTEXTBEGIN
1070
    73
1070
     1
1070
    44
1040
1.0
1070
    74
1070
     0
1000
MTEXTEND
  0
MTEXT
  5
55F8
330
1A
100
AcDbEntity
  8
SUNPOU
100
AcDbMText
 10
46475.07594310369
 20
34859.3197722444
 30
0.0
 40
3.5
 41
0.0
 71
     7
 72
     5
  1

1001
ACAD
1000
MTEXTBEGIN
1070
    73
1070
     1
1070
    44
1040
1.0
1070
    74
1070
     0
1000
MTEXTEND
  0
MTEXT
  5
55F9
330
1A
100
AcDbEntity
  8
SUNPOU
100
AcDbMText
 10
74027.35402123588
 20
68370.58278833383
 30
0.0
 40
10.5
 41
0.0
 71
     9
 72
     5
  1

1001
ACAD
1000
MTEXTBEGIN
1070
    73
1070
     1
1070
    44
1040
1.0
1070
    74
1070
     0
1000
MTEXTEND
  0
MTEXT
  5
55FA
330
1A
100
AcDbEntity
  8
SUNPOU
100
AcDbMText
 10
75970.7612679453
 20
66569.53370845583
 30
0.0
 40
3.5
 41
0.0
 71
     9
 72
     5
  1

1001
ACAD
1000
MTEXTBEGIN
1070
    73
1070
     1
1070
    44
1040
1.0
1070
    74
1070
     0
1000
MTEXTEND
  0
MTEXT
  5
55FB
330
1A
100
AcDbEntity
  8
SUNPOU
100
AcDbMText
 10
107096.941100565
 20
109064.4793761132
 30
0.0
 40
10.5
 41
0.0
 71
     9
 72
     5
  1

1001
ACAD
1000
MTEXTBEGIN
1070
    73
1070
     1
1070
    44
1040
1.0
1070
    74
1070
     0
1000
MTEXTEND
  0
MTEXT
  5
55FC
330
1A
100
AcDbEntity
  8
SUNPOU
100
AcDbMText
 10
109040.3483472744
 20
107263.430296235
 30
0.0
 40
3.5
 41
0.0
 71
     9
 72
     5
  1

1001
ACAD
1000
MTEXTBEGIN
1070
    73
1070
     1
1070
    44
1040
1.0
1070
    74
1070
     0
1000
MTEXTEND
  0
MTEXT
  5
55FD
330
1A
100
AcDbEntity
  8
SUNPOU
100
AcDbMText
 10
105709.1709283621
 20
108141.3777665285
 30
0.0
 40
10.5
 41
0.0
 71
     9
 72
     5
  1

1001
ACAD
1000
MTEXTBEGIN
1070
    73
1070
     1
1070
    44
1040
1.0
1070
    74
1070
     0
1000
MTEXTEND
  0
MTEXT
  5
55FE
330
1A
100
AcDbEntity
  8
SUNPOU
100
AcDbMText
 10
107652.5781750715
 20
106340.3286866505
 30
0.0
 40
3.5
 41
0.0
 71
     9
 72
     5
  1

1001
ACAD
1000
MTEXTBEGIN
1070
    73
1070
     1
1070
    44
1040
1.0
1070
    74
1070
     0
1000
MTEXTEND
  0
MTEXT
  5
55FF
330
1A
100
AcDbEntity
  8
SUNPOU
100
AcDbMText
 10
73193.09268743351
 20
66158.78082845057
 30
0.0
 40
10.5
 41
0.0
 71
     9
 72
     5
  1

1001
ACAD
1000
MTEXTBEGIN
1070
    73
1070
     1
1070
    44
1040
1.0
1070
    74
1070
     0
1000
MTEXTEND
  0
MTEXT
  5
5600
330
1A
100
AcDbEntity
  8
SUNPOU
100
AcDbMText
 10
75916.39889159807
 20
66563.46252003162
 30
0.0
 40
3.5
 41
0.0
 71
     9
 72
     5
  1

1001
ACAD
1000
MTEXTBEGIN
1070
    73
1070
     1
1070
    44
1040
1.0
1070
    74
1070
     0
1000
MTEXTEND
  0
MTEXT
  5
5601
330
1A
100
AcDbEntity
  8
SUNPOU
100
AcDbMText
 10
75124.04436649058
 20
63402.1566819768
 30
0.0
 40
10.5
 41
0.0
 71
     9
 72
     5
  1

1001
ACAD
1000
MTEXTBEGIN
1070
    73
1070
     1
1070
    44
1040
1.0
1070
    74
1070
     0
1000
MTEXTEND
  0
MTEXT
  5
5602
330
1A
100
AcDbEntity
  8
SUNPOU
100
AcDbMText
 10
77067.4516132
 20
61601.1076020988
 30
0.0
 40
3.5
 41
0.0
 71
     9
 72
     5
  1

1001
ACAD
1000
MTEXTBEGIN
1070
    73
1070
     1
1070
    44
1040
1.0
1070
    74
1070
     0
1000
MTEXTEND
  0
MTEXT
  5
5603
330
1A
100
AcDbEntity
  8
SUNPOU
100
AcDbMText
 10
77012.54710378659
 20
61488.33571981449
 30
0.0
 40
3.5
 41
0.0
 71
     9
 72
     5
  1

1001
ACAD
1000
MTEXTBEGIN
1070
    73
1070
     1
1070
    44
1040
1.0
1070
    74
1070
     0
1000
MTEXTEND
  0
MTEXT
  5
5604
330
1A
100
AcDbEntity
  8
SUNPOU
100
AcDbMText
 10
76376.61896736668
 20
60677.01447874798
 30
0.0
 40
3.5
 41
0.0
 71
     9
 72
     5
  1

1001
ACAD
1000
MTEXTBEGIN
1070
    73
1070
     1
1070
    44
1040
1.0
1070
    74
1070
     0
1000
MTEXTEND
  0
MTEXT
  5
5605
330
1A
100
AcDbEntity
  8
SUNPOU
100
AcDbMText
 10
76375.37854794595
 20
60676.76650181048
 30
0.0
 40
10.5
 41
0.0
 71
     9
 72
     5
  1

1001
ACAD
1000
MTEXTBEGIN
1070
    73
1070
     1
1070
    44
1040
1.0
1070
    74
1070
     0
1000
MTEXTEND
  0
MTEXT
  5
5606
330
1A
100
AcDbEntity
  8
SUNPOU
100
AcDbMText
 10
84709.93991079748
 20
78034.0328293557
 30
0.0
 40
10.5
 41
0.0
 71
     9
 72
     5
  1

1001
ACAD
1000
MTEXTBEGIN
1070
    73
1070
     1
1070
    44
1040
1.0
1070
    74
1070
     0
1000
MTEXTEND
  0
MTEXT
  5
5607
330
1A
100
AcDbEntity
  8
SUNPOU
100
AcDbMText
 10
93432.10747671546
 20
85449.86736089315
 30
0.0
 40
10.5
 41
0.0
 71
     9
 72
     5
  1

1001
ACAD
1000
MTEXTBEGIN
1070
    73
1070
     1
1070
    44
1040
1.0
1070
    74
1070
     0
1000
MTEXTEND
  0
MTEXT
  5
5608
330
1A
100
AcDbEntity
  8
SUNPOU
100
AcDbMText
 10
112385.8661940454
 20
102916.4434133851
 30
0.0
 40
10.5
 41
0.0
 71
     9
 72
     5
  1

1001
ACAD
1000
MTEXTBEGIN
1070
    73
1070
     1
1070
    44
1040
1.0
1070
    74
1070
     0
1000
MTEXTEND
  0
MTEXT
  5
5609
330
1A
100
AcDbEntity
  8
SUNPOU
100
AcDbMText
 10
114329.2734407548
 20
101115.3943335072
 30
0.0
 40
3.5
 41
0.0
 71
     9
 72
     5
  1

1001
ACAD
1000
MTEXTBEGIN
1070
    73
1070
     1
1070
    44
1040
1.0
1070
    74
1070
     0
1000
MTEXTEND
  0
MTEXT
  5
560A
330
1A
100
AcDbEntity
  8
SUNPOU
100
AcDbMText
 10
145455.4532733745
 20
143610.3400011645
 30
0.0
 40
10.5
 41
0.0
 71
     9
 72
     5
  1

1001
ACAD
1000
MTEXTBEGIN
1070
    73
1070
     1
1070
    44
1040
1.0
1070
    74
1070
     0
1000
MTEXTEND
  0
MTEXT
  5
560B
330
1A
100
AcDbEntity
  8
SUNPOU
100
AcDbMText
 10
147398.8605200839
 20
141809.2909212864
 30
0.0
 40
3.5
 41
0.0
 71
     9
 72
     5
  1

1001
ACAD
1000
MTEXTBEGIN
1070
    73
1070
     1
1070
    44
1040
1.0
1070
    74
1070
     0
1000
MTEXTEND
  0
MTEXT
  5
560C
330
1A
100
AcDbEntity
  8
SUNPOU
100
AcDbMText
 10
95895.72097917011
 20
89443.50515613962
 30
0.0
 40
10.5
 41
0.0
 71
     9
 72
     5
  1

1001
ACAD
1000
MTEXTBEGIN
1070
    73
1070
     1
1070
    44
1040
1.0
1070
    74
1070
     0
1000
MTEXTEND
  0
MTEXT
  5
560D
330
1A
100
AcDbEntity
  8
SUNPOU
100
AcDbMText
 10
81947.72087879414
 20
70271.1060170274
 30
0.0
 40
3.5
 41
0.0
 71
     7
 72
     5
  1

1001
ACAD
1000
MTEXTBEGIN
1070
    73
1070
     1
1070
    44
1040
1.0
1070
    74
1070
     0
1000
MTEXTEND
  0
MTEXT
  5
560E
330
1A
100
AcDbEntity
  8
SUNPOU
100
AcDbMText
 10
62932.89027578729
 20
58033.25474784561
 30
0.0
 40
10.5
 41
0.0
 71
     7
 72
     5
  1

1001
ACAD
1000
MTEXTBEGIN
1070
    73
1070
     1
1070
    44
1040
1.0
1070
    74
1070
     0
1000
MTEXTEND
  0
MTEXT
  5
560F
330
1A
100
AcDbEntity
  8
SUNPOU
100
AcDbMText
 10
50475.66201083918
 20
42188.32316974718
 30
0.0
 40
35.0
 41
0.0
 71
     9
 72
     5
  1

1001
ACAD
1000
MTEXTBEGIN
1070
    73
1070
     1
1070
    44
1040
1.0
1070
    74
1070
     0
1000
MTEXTEND
  0
MTEXT
  5
5610
330
1A
100
AcDbEntity
  8
SUNPOU
100
AcDbMText
 10
49384.14706841413
 20
42797.0985797959
 30
0.0
 40
350.0000004171781
 41
0.0
 71
     7
 72
     5
  1

1001
ACAD
1000
MTEXTBEGIN
1070
    73
1070
     1
1070
    44
1040
1.0
1070
    74
1070
     0
1000
MTEXTEND
  0
MTEXT
  5
5611
330
1A
100
AcDbEntity
  8
0
100
AcDbMText
 10
55428.09782635704
 20
40777.0209419321
 30
0.0
 40
8.0
 41
0.0
 71
     7
 72
     5
  1

1001
ACAD
1000
MTEXTBEGIN
1070
    73
1070
     1
1070
    44
1040
1.0
1070
    74
1070
     0
1000
MTEXTEND
  0
MTEXT
  5
5612
330
1A
100
AcDbEntity
  8
0
100
AcDbMText
 10
57713.45551625192
 20
41747.81123668316
 30
0.0
 40
8.0
 41
0.0
 71
     7
 72
     5
  1

1001
ACAD
1000
MTEXTBEGIN
1070
    73
1070
     1
1070
    44
1040
1.0
1070
    74
1070
     0
1000
MTEXTEND
  0
MTEXT
  5
5613
330
1A
100
AcDbEntity
  8
SUNPOU
100
AcDbMText
 10
60379.35253693407
 20
51259.9226290583
 30
0.0
 40
10.5
 41
0.0
 71
     1
 72
     5
  1

1001
ACAD
1000
MTEXTBEGIN
1070
    73
1070
     1
1070
    44
1040
1.0
1070
    74
1070
     0
1000
MTEXTEND
  0
MTEXT
  5
5614
330
1A
100
AcDbEntity
  8
SUNPOU
100
AcDbMText
 10
52448.42934099813
 20
50313.12949514535
 30
0.0
 40
10.5
 41
0.0
 71
     7
 72
     5
  1

1001
ACAD
1000
MTEXTBEGIN
1070
    73
1070
     1
1070
    44
1040
1.0
1070
    74
1070
     0
1000
MTEXTEND
  0
MTEXT
  5
5615
330
1A
100
AcDbEntity
  8
SUNPOU
100
AcDbMText
 10
55397.4130055109
 20
55213.80556698819
 30
0.0
 40
10.5
 41
0.0
 71
     7
 72
     5
  1

1001
ACAD
1000
MTEXTBEGIN
1070
    73
1070
     1
1070
    44
1040
1.0
1070
    74
1070
     0
1000
MTEXTEND
  0
MTEXT
  5
5616
330
1A
100
AcDbEntity
  8
SUNPOU
100
AcDbMText
 10
59906.49113346147
 20
57650.10631460826
 30
0.0
 40
10.5
 41
0.0
 71
     7
 72
     5
  1

1001
ACAD
1000
MTEXTBEGIN
1070
    73
1070
     1
1070
    44
1040
1.0
1070
    74
1070
     0
1000
MTEXTEND
  0
MTEXT
  5
5617
330
1A
100
AcDbEntity
  8
SUNPOU
100
AcDbMText
 10
43507.32902022977
 20
36647.70246499718
 30
0.0
 40
10.5
 41
0.0
 71
     7
 72
     5
  1

1001
ACAD
1000
MTEXTBEGIN
1070
    73
1070
     1
1070
    44
1040
1.0
1070
    74
1070
     0
1000
MTEXTEND
  0
MTEXT
  5
5618
330
1A
100
AcDbEntity
  8
SUNPOU
100
AcDbMText
 10
94698.84745413006
 20
82320.68302864544
 30
0.0
 40
10.5
 41
0.0
 71
     9
 72
     5
  1

1001
ACAD
1000
MTEXTBEGIN
1070
    73
1070
     1
1070
    44
1040
1.0
1070
    74
1070
     0
1000
MTEXTEND
  0
MTEXT
  5
5619
330
1A
100
AcDbEntity
  8
SUNPOU
100
AcDbMText
 10
103421.015020048
 20
89736.5175601829
 30
0.0
 40
10.5
 41
0.0
 71
     9
 72
     5
  1

1001
ACAD
1000
MTEXTBEGIN
1070
    73
1070
     1
1070
    44
1040
1.0
1070
    74
1070
     0
1000
MTEXTEND
  0
MTEXT
  5
561A
330
1A
100
AcDbEntity
  8
SUNPOU
100
AcDbMText
 10
122374.773737378
 20
107203.0936126749
 30
0.0
 40
10.5
 41
0.0
 71
     9
 72
     5
  1

1001
ACAD
1000
MTEXTBEGIN
1070
    73
1070
     1
1070
    44
1040
1.0
1070
    74
1070
     0
1000
MTEXTEND
  0
MTEXT
  5
561B
330
1A
100
AcDbEntity
  8
SUNPOU
100
AcDbMText
 10
124318.1809840874
 20
105402.0445327969
 30
0.0
 40
3.5
 41
0.0
 71
     9
 72
     5
  1

1001
ACAD
1000
MTEXTBEGIN
1070
    73
1070
     1
1070
    44
1040
1.0
1070
    74
1070
     0
1000
MTEXTEND
  0
MTEXT
  5
561C
330
1A
100
AcDbEntity
  8
SUNPOU
100
AcDbMText
 10
155444.3608167071
 20
147896.9902004542
 30
0.0
 40
10.5
 41
0.0
 71
     9
 72
     5
  1

1001
ACAD
1000
MTEXTBEGIN
1070
    73
1070
     1
1070
    44
1040
1.0
1070
    74
1070
     0
1000
MTEXTEND
  0
MTEXT
  5
561D
330
1A
100
AcDbEntity
  8
SUNPOU
100
AcDbMText
 10
157387.7680634165
 20
146095.9411205762
 30
0.0
 40
3.5
 41
0.0
 71
     9
 72
     5
  1

1001
ACAD
1000
MTEXTBEGIN
1070
    73
1070
     1
1070
    44
1040
1.0
1070
    74
1070
     0
1000
MTEXTEND
  0
MTEXT
  5
561E
330
1A
100
AcDbEntity
  8
SUNPOU
100
AcDbMText
 10
105884.6285225027
 20
93730.15535542933
 30
0.0
 40
10.5
 41
0.0
 71
     9
 72
     5
  1

1001
ACAD
1000
MTEXTBEGIN
1070
    73
1070
     1
1070
    44
1040
1.0
1070
    74
1070
     0
1000
MTEXTEND
  0
MTEXT
  5
561F
330
1A
100
AcDbEntity
  8
SUNPOU
100
AcDbMText
 10
91936.6284221267
 20
74557.75621631714
 30
0.0
 40
3.5
 41
0.0
 71
     7
 72
     5
  1

1001
ACAD
1000
MTEXTBEGIN
1070
    73
1070
     1
1070
    44
1040
1.0
1070
    74
1070
     0
1000
MTEXTEND
  0
MTEXT
  5
5620
330
1A
100
AcDbEntity
  8
SUNPOU
100
AcDbMText
 10
72921.79781911986
 20
62319.90494713532
 30
0.0
 40
10.5
 41
0.0
 71
     7
 72
     5
  1

1001
ACAD
1000
MTEXTBEGIN
1070
    73
1070
     1
1070
    44
1040
1.0
1070
    74
1070
     0
1000
MTEXTEND
  0
MTEXT
  5
5621
330
1A
100
AcDbEntity
  8
SUNPOU
100
AcDbMText
 10
60464.56955417175
 20
46474.97336903692
 30
0.0
 40
35.0
 41
0.0
 71
     9
 72
     5
  1

1001
ACAD
1000
MTEXTBEGIN
1070
    73
1070
     1
1070
    44
1040
1.0
1070
    74
1070
     0
1000
MTEXTEND
  0
MTEXT
  5
5622
330
1A
100
AcDbEntity
  8
SUNPOU
100
AcDbMText
 10
59373.05461174673
 20
47083.74877908561
 30
0.0
 40
350.0000004171781
 41
0.0
 71
     7
 72
     5
  1

1001
ACAD
1000
MTEXTBEGIN
1070
    73
1070
     1
1070
    44
1040
1.0
1070
    74
1070
     0
1000
MTEXTEND
  0
MTEXT
  5
5623
330
1A
100
AcDbEntity
  8
0
100
AcDbMText
 10
65417.00536968963
 20
45063.67114122186
 30
0.0
 40
8.0
 41
0.0
 71
     7
 72
     5
  1

1001
ACAD
1000
MTEXTBEGIN
1070
    73
1070
     1
1070
    44
1040
1.0
1070
    74
1070
     0
1000
MTEXTEND
  0
MTEXT
  5
5624
330
1A
100
AcDbEntity
  8
0
100
AcDbMText
 10
67702.36305958452
 20
46034.46143597292
 30
0.0
 40
8.0
 41
0.0
 71
     7
 72
     5
  1

1001
ACAD
1000
MTEXTBEGIN
1070
    73
1070
     1
1070
    44
1040
1.0
1070
    74
1070
     0
1000
MTEXTEND
  0
MTEXT
  5
5625
330
1A
100
AcDbEntity
  8
SUNPOU
100
AcDbMText
 10
70368.26008026666
 20
55546.57282834803
 30
0.0
 40
10.5
 41
0.0
 71
     1
 72
     5
  1

1001
ACAD
1000
MTEXTBEGIN
1070
    73
1070
     1
1070
    44
1040
1.0
1070
    74
1070
     0
1000
MTEXTEND
  0
MTEXT
  5
5626
330
1A
100
AcDbEntity
  8
SUNPOU
100
AcDbMText
 10
62437.33688433072
 20
54599.77969443507
 30
0.0
 40
10.5
 41
0.0
 71
     7
 72
     5
  1

1001
ACAD
1000
MTEXTBEGIN
1070
    73
1070
     1
1070
    44
1040
1.0
1070
    74
1070
     0
1000
MTEXTEND
  0
MTEXT
  5
5627
330
1A
100
AcDbEntity
  8
SUNPOU
100
AcDbMText
 10
65386.32054884347
 20
59500.45576627792
 30
0.0
 40
10.5
 41
0.0
 71
     7
 72
     5
  1

1001
ACAD
1000
MTEXTBEGIN
1070
    73
1070
     1
1070
    44
1040
1.0
1070
    74
1070
     0
1000
MTEXTEND
  0
MTEXT
  5
5628
330
1A
100
AcDbEntity
  8
SUNPOU
100
AcDbMText
 10
69895.39867679405
 20
61936.756513898
 30
0.0
 40
10.5
 41
0.0
 71
     7
 72
     5
  1

1001
ACAD
1000
MTEXTBEGIN
1070
    73
1070
     1
1070
    44
1040
1.0
1070
    74
1070
     0
1000
MTEXTEND
  0
MTEXT
  5
5629
330
1A
100
AcDbEntity
  8
SUNPOU
100
AcDbMText
 10
53496.23656356237
 20
40934.35266428691
 30
0.0
 40
10.5
 41
0.0
 71
     7
 72
     5
  1

1001
ACAD
1000
MTEXTBEGIN
1070
    73
1070
     1
1070
    44
1040
1.0
1070
    74
1070
     0
1000
MTEXTEND
  0
MTEXT
  5
562A
330
1A
100
AcDbEntity
  8
SUNPOU
100
AcDbMText
 10
55306.99947493731
 20
47261.76665176546
 30
0.0
 40
10.5
 41
0.0
 71
     9
 72
     5
  1

1001
ACAD
1000
MTEXTBEGIN
1070
    73
1070
     1
1070
    44
1040
1.0
1070
    74
1070
     0
1000
MTEXTEND
  0
MTEXT
  5
562B
330
1A
100
AcDbEntity
  8
SUNPOU
100
AcDbMText
 10
64029.16704085527
 20
54677.60118330295
 30
0.0
 40
10.5
 41
0.0
 71
     9
 72
     5
  1

1001
ACAD
1000
MTEXTBEGIN
1070
    73
1070
     1
1070
    44
1040
1.0
1070
    74
1070
     0
1000
MTEXTEND
  0
MTEXT
  5
562C
330
1A
100
AcDbEntity
  8
SUNPOU
100
AcDbMText
 10
82982.92575818527
 20
72144.17723579499
 30
0.0
 40
10.5
 41
0.0
 71
     9
 72
     5
  1

1001
ACAD
1000
MTEXTBEGIN
1070
    73
1070
     1
1070
    44
1040
1.0
1070
    74
1070
     0
1000
MTEXTEND
  0
MTEXT
  5
562D
330
1A
100
AcDbEntity
  8
SUNPOU
100
AcDbMText
 10
84926.33300489467
 20
70343.12815591697
 30
0.0
 40
3.5
 41
0.0
 71
     9
 72
     5
  1

1001
ACAD
1000
MTEXTBEGIN
1070
    73
1070
     1
1070
    44
1040
1.0
1070
    74
1070
     0
1000
MTEXTEND
  0
MTEXT
  5
562E
330
1A
100
AcDbEntity
  8
SUNPOU
100
AcDbMText
 10
116052.5128375142
 20
112838.0738235742
 30
0.0
 40
10.5
 41
0.0
 71
     9
 72
     5
  1

1001
ACAD
1000
MTEXTBEGIN
1070
    73
1070
     1
1070
    44
1040
1.0
1070
    74
1070
     0
1000
MTEXTEND
  0
MTEXT
  5
562F
330
1A
100
AcDbEntity
  8
SUNPOU
100
AcDbMText
 10
117995.9200842238
 20
111037.0247436963
 30
0.0
 40
3.5
 41
0.0
 71
     9
 72
     5
  1

1001
ACAD
1000
MTEXTBEGIN
1070
    73
1070
     1
1070
    44
1040
1.0
1070
    74
1070
     0
1000
MTEXTEND
  0
MTEXT
  5
5630
330
1A
100
AcDbEntity
  8
SUNPOU
100
AcDbMText
 10
66492.78054330994
 20
58671.23897854939
 30
0.0
 40
10.5
 41
0.0
 71
     9
 72
     5
  1

1001
ACAD
1000
MTEXTBEGIN
1070
    73
1070
     1
1070
    44
1040
1.0
1070
    74
1070
     0
1000
MTEXTEND
  0
MTEXT
  5
5631
330
1A
100
AcDbEntity
  8
SUNPOU
100
AcDbMText
 10
52544.78044293397
 20
39498.83983943717
 30
0.0
 40
3.5
 41
0.0
 71
     7
 72
     5
  1

1001
ACAD
1000
MTEXTBEGIN
1070
    73
1070
     1
1070
    44
1040
1.0
1070
    74
1070
     0
1000
MTEXTEND
  0
MTEXT
  5
5632
330
1A
100
AcDbEntity
  8
SUNPOU
100
AcDbMText
 10
66237.13112570454
 20
48857.90306045851
 30
0.0
 40
10.5
 41
0.0
 71
     9
 72
     5
  1

1001
ACAD
1000
MTEXTBEGIN
1070
    73
1070
     1
1070
    44
1040
1.0
1070
    74
1070
     0
1000
MTEXTEND
  0
MTEXT
  5
5633
330
1A
100
AcDbEntity
  8
SUNPOU
100
AcDbMText
 10
74959.29869162253
 20
56273.73759199598
 30
0.0
 40
10.5
 41
0.0
 71
     9
 72
     5
  1

1001
ACAD
1000
MTEXTBEGIN
1070
    73
1070
     1
1070
    44
1040
1.0
1070
    74
1070
     0
1000
MTEXTEND
  0
MTEXT
  5
5634
330
1A
100
AcDbEntity
  8
SUNPOU
100
AcDbMText
 10
93913.0574089525
 20
73740.31364448805
 30
0.0
 40
10.5
 41
0.0
 71
     9
 72
     5
  1

1001
ACAD
1000
MTEXTBEGIN
1070
    73
1070
     1
1070
    44
1040
1.0
1070
    74
1070
     0
1000
MTEXTEND
  0
MTEXT
  5
5635
330
1A
100
AcDbEntity
  8
SUNPOU
100
AcDbMText
 10
95856.46465566192
 20
71939.26456461004
 30
0.0
 40
3.5
 41
0.0
 71
     9
 72
     5
  1

1001
ACAD
1000
MTEXTBEGIN
1070
    73
1070
     1
1070
    44
1040
1.0
1070
    74
1070
     0
1000
MTEXTEND
  0
MTEXT
  5
5636
330
1A
100
AcDbEntity
  8
SUNPOU
100
AcDbMText
 10
126982.6444882816
 20
114434.2102322673
 30
0.0
 40
10.5
 41
0.0
 71
     9
 72
     5
  1

1001
ACAD
1000
MTEXTBEGIN
1070
    73
1070
     1
1070
    44
1040
1.0
1070
    74
1070
     0
1000
MTEXTEND
  0
MTEXT
  5
5637
330
1A
100
AcDbEntity
  8
SUNPOU
100
AcDbMText
 10
128926.051734991
 20
112633.1611523893
 30
0.0
 40
3.5
 41
0.0
 71
     9
 72
     5
  1

1001
ACAD
1000
MTEXTBEGIN
1070
    73
1070
     1
1070
    44
1040
1.0
1070
    74
1070
     0
1000
MTEXTEND
  0
MTEXT
  5
5638
330
1A
100
AcDbEntity
  8
SUNPOU
100
AcDbMText
 10
77422.91219407717
 20
60267.37538724244
 30
0.0
 40
10.5
 41
0.0
 71
     9
 72
     5
  1

1001
ACAD
1000
MTEXTBEGIN
1070
    73
1070
     1
1070
    44
1040
1.0
1070
    74
1070
     0
1000
MTEXTEND
  0
MTEXT
  5
5639
330
1A
100
AcDbEntity
  8
SUNPOU
100
AcDbMText
 10
63474.91209370119
 20
41094.97624813023
 30
0.0
 40
3.5
 41
0.0
 71
     7
 72
     5
  1

1001
ACAD
1000
MTEXTBEGIN
1070
    73
1070
     1
1070
    44
1040
1.0
1070
    74
1070
     0
1000
MTEXTEND
  0
MTEXT
  5
563A
330
1A
100
AcDbEntity
  8
SUNPOU
100
AcDbMText
 10
48117.65086229006
 20
40806.11043916631
 30
0.0
 40
10.5
 41
0.0
 71
     9
 72
     5
  1

1001
ACAD
1000
MTEXTBEGIN
1070
    73
1070
     1
1070
    44
1040
1.0
1070
    74
1070
     0
1000
MTEXTEND
  0
MTEXT
  5
563B
330
1A
100
AcDbEntity
  8
SUNPOU
100
AcDbMText
 10
67071.40957962004
 20
58272.68649165838
 30
0.0
 40
10.5
 41
0.0
 71
     9
 72
     5
  1

1001
ACAD
1000
MTEXTBEGIN
1070
    73
1070
     1
1070
    44
1040
1.0
1070
    74
1070
     0
1000
MTEXTEND
  0
MTEXT
  5
563C
330
1A
100
AcDbEntity
  8
SUNPOU
100
AcDbMText
 10
69014.81682632945
 20
56471.63741178035
 30
0.0
 40
3.5
 41
0.0
 71
     9
 72
     5
  1

1001
ACAD
1000
MTEXTBEGIN
1070
    73
1070
     1
1070
    44
1040
1.0
1070
    74
1070
     0
1000
MTEXTEND
  0
MTEXT
  5
563D
330
1A
100
AcDbEntity
  8
SUNPOU
100
AcDbMText
 10
100140.9966589491
 20
98966.58307943773
 30
0.0
 40
10.5
 41
0.0
 71
     9
 72
     5
  1

1001
ACAD
1000
MTEXTBEGIN
1070
    73
1070
     1
1070
    44
1040
1.0
1070
    74
1070
     0
1000
MTEXTEND
  0
MTEXT
  5
563E
330
1A
100
AcDbEntity
  8
SUNPOU
100
AcDbMText
 10
102084.4039056586
 20
97165.53399955968
 30
0.0
 40
3.5
 41
0.0
 71
     9
 72
     5
  1

1001
ACAD
1000
MTEXTBEGIN
1070
    73
1070
     1
1070
    44
1040
1.0
1070
    74
1070
     0
1000
MTEXTEND
  0
MTEXT
  5
563F
330
1A
100
AcDbEntity
  8
SUNPOU
100
AcDbMText
 10
50581.26436474472
 20
44799.74823441275
 30
0.0
 40
10.5
 41
0.0
 71
     9
 72
     5
  1

1001
ACAD
1000
MTEXTBEGIN
1070
    73
1070
     1
1070
    44
1040
1.0
1070
    74
1070
     0
1000
MTEXTEND
  0
MTEXT
  5
5640
330
1A
100
AcDbEntity
  8
SUNPOU
100
AcDbMText
 10
36633.26426436873
 20
25627.34909530054
 30
0.0
 40
3.5
 41
0.0
 71
     7
 72
     5
  1

1001
ACAD
1000
MTEXTBEGIN
1070
    73
1070
     1
1070
    44
1040
1.0
1070
    74
1070
     0
1000
MTEXTEND
  0
MTEXT
  5
5641
330
1A
100
AcDbEntity
  8
SUNPOU
100
AcDbMText
 10
61069.42493315968
 20
52574.61207825771
 30
0.0
 40
10.5
 41
0.0
 71
     9
 72
     5
  1

1001
ACAD
1000
MTEXTBEGIN
1070
    73
1070
     1
1070
    44
1040
1.0
1070
    74
1070
     0
1000
MTEXTEND
  0
MTEXT
  5
5642
330
1A
100
AcDbEntity
  8
SUNPOU
100
AcDbMText
 10
80023.18365048967
 20
70041.18813074978
 30
0.0
 40
10.5
 41
0.0
 71
     9
 72
     5
  1

1001
ACAD
1000
MTEXTBEGIN
1070
    73
1070
     1
1070
    44
1040
1.0
1070
    74
1070
     0
1000
MTEXTEND
  0
MTEXT
  5
5643
330
1A
100
AcDbEntity
  8
SUNPOU
100
AcDbMText
 10
81966.59089719908
 20
68240.13905087176
 30
0.0
 40
3.5
 41
0.0
 71
     9
 72
     5
  1

1001
ACAD
1000
MTEXTBEGIN
1070
    73
1070
     1
1070
    44
1040
1.0
1070
    74
1070
     0
1000
MTEXTEND
  0
MTEXT
  5
5644
330
1A
100
AcDbEntity
  8
SUNPOU
100
AcDbMText
 10
113092.7707298186
 20
110735.0847185291
 30
0.0
 40
10.5
 41
0.0
 71
     9
 72
     5
  1

1001
ACAD
1000
MTEXTBEGIN
1070
    73
1070
     1
1070
    44
1040
1.0
1070
    74
1070
     0
1000
MTEXTEND
  0
MTEXT
  5
5645
330
1A
100
AcDbEntity
  8
SUNPOU
100
AcDbMText
 10
115036.1779765282
 20
108934.0356386511
 30
0.0
 40
3.5
 41
0.0
 71
     9
 72
     5
  1

1001
ACAD
1000
MTEXTBEGIN
1070
    73
1070
     1
1070
    44
1040
1.0
1070
    74
1070
     0
1000
MTEXTEND
  0
MTEXT
  5
5646
330
1A
100
AcDbEntity
  8
SUNPOU
100
AcDbMText
 10
63533.03843561432
 20
56568.24987350415
 30
0.0
 40
10.5
 41
0.0
 71
     9
 72
     5
  1

1001
ACAD
1000
MTEXTBEGIN
1070
    73
1070
     1
1070
    44
1040
1.0
1070
    74
1070
     0
1000
MTEXTEND
  0
MTEXT
  5
5647
330
1A
100
AcDbEntity
  8
SUNPOU
100
AcDbMText
 10
49585.03833523835
 20
37395.85073439196
 30
0.0
 40
3.5
 41
0.0
 71
     7
 72
     5
  1

1001
ACAD
1000
MTEXTBEGIN
1070
    73
1070
     1
1070
    44
1040
1.0
1070
    74
1070
     0
1000
MTEXTEND
  0
MTEXT
  5
5648
330
1A
100
AcDbEntity
  8
SUNPOU
100
AcDbMText
 10
77137.31641337052
 20
70907.11375048141
 30
0.0
 40
10.5
 41
0.0
 71
     9
 72
     5
  1

1001
ACAD
1000
MTEXTBEGIN
1070
    73
1070
     1
1070
    44
1040
1.0
1070
    74
1070
     0
1000
MTEXTEND
  0
MTEXT
  5
5649
330
1A
100
AcDbEntity
  8
SUNPOU
100
AcDbMText
 10
79080.72366007995
 20
69106.06467060339
 30
0.0
 40
3.5
 41
0.0
 71
     9
 72
     5
  1

1001
ACAD
1000
MTEXTBEGIN
1070
    73
1070
     1
1070
    44
1040
1.0
1070
    74
1070
     0
1000
MTEXTEND
  0
MTEXT
  5
564A
330
1A
100
AcDbEntity
  8
SUNPOU
100
AcDbMText
 10
110206.9034926996
 20
111601.0103382607
 30
0.0
 40
10.5
 41
0.0
 71
     9
 72
     5
  1

1001
ACAD
1000
MTEXTBEGIN
1070
    73
1070
     1
1070
    44
1040
1.0
1070
    74
1070
     0
1000
MTEXTEND
  0
MTEXT
  5
564B
330
1A
100
AcDbEntity
  8
SUNPOU
100
AcDbMText
 10
112150.310739409
 20
109799.9612583826
 30
0.0
 40
3.5
 41
0.0
 71
     9
 72
     5
  1

1001
ACAD
1000
MTEXTBEGIN
1070
    73
1070
     1
1070
    44
1040
1.0
1070
    74
1070
     0
1000
MTEXTEND
  0
MTEXT
  5
564C
330
1A
100
AcDbEntity
  8
SUNPOU
100
AcDbMText
 10
108819.1333204967
 20
110677.9087286761
 30
0.0
 40
10.5
 41
0.0
 71
     9
 72
     5
  1

1001
ACAD
1000
MTEXTBEGIN
1070
    73
1070
     1
1070
    44
1040
1.0
1070
    74
1070
     0
1000
MTEXTEND
  0
MTEXT
  5
564D
330
1A
100
AcDbEntity
  8
SUNPOU
100
AcDbMText
 10
110762.5405672062
 20
108876.8596487981
 30
0.0
 40
3.5
 41
0.0
 71
     9
 72
     5
  1

1001
ACAD
1000
MTEXTBEGIN
1070
    73
1070
     1
1070
    44
1040
1.0
1070
    74
1070
     0
1000
MTEXTEND
  0
MTEXT
  5
564E
330
1A
100
AcDbEntity
  8
SUNPOU
100
AcDbMText
 10
76303.05507956816
 20
68695.31179059812
 30
0.0
 40
10.5
 41
0.0
 71
     9
 72
     5
  1

1001
ACAD
1000
MTEXTBEGIN
1070
    73
1070
     1
1070
    44
1040
1.0
1070
    74
1070
     0
1000
MTEXTEND
  0
MTEXT
  5
564F
330
1A
100
AcDbEntity
  8
SUNPOU
100
AcDbMText
 10
79026.36128373271
 20
69099.99348217918
 30
0.0
 40
3.5
 41
0.0
 71
     9
 72
     5
  1

1001
ACAD
1000
MTEXTBEGIN
1070
    73
1070
     1
1070
    44
1040
1.0
1070
    74
1070
     0
1000
MTEXTEND
  0
MTEXT
  5
5650
330
1A
100
AcDbEntity
  8
SUNPOU
100
AcDbMText
 10
78234.00675862522
 20
65938.68764412436
 30
0.0
 40
10.5
 41
0.0
 71
     9
 72
     5
  1

1001
ACAD
1000
MTEXTBEGIN
1070
    73
1070
     1
1070
    44
1040
1.0
1070
    74
1070
     0
1000
MTEXTEND
  0
MTEXT
  5
5651
330
1A
100
AcDbEntity
  8
SUNPOU
100
AcDbMText
 10
80177.41400533465
 20
64137.63856424636
 30
0.0
 40
3.5
 41
0.0
 71
     9
 72
     5
  1

1001
ACAD
1000
MTEXTBEGIN
1070
    73
1070
     1
1070
    44
1040
1.0
1070
    74
1070
     0
1000
MTEXTEND
  0
MTEXT
  5
5652
330
1A
100
AcDbEntity
  8
SUNPOU
100
AcDbMText
 10
80122.50949592122
 20
64024.86668196204
 30
0.0
 40
3.5
 41
0.0
 71
     9
 72
     5
  1

1001
ACAD
1000
MTEXTBEGIN
1070
    73
1070
     1
1070
    44
1040
1.0
1070
    74
1070
     0
1000
MTEXTEND
  0
MTEXT
  5
5653
330
1A
100
AcDbEntity
  8
SUNPOU
100
AcDbMText
 10
79486.58135950133
 20
63213.54544089553
 30
0.0
 40
3.5
 41
0.0
 71
     9
 72
     5
  1

1001
ACAD
1000
MTEXTBEGIN
1070
    73
1070
     1
1070
    44
1040
1.0
1070
    74
1070
     0
1000
MTEXTEND
  0
MTEXT
  5
5654
330
1A
100
AcDbEntity
  8
SUNPOU
100
AcDbMText
 10
79485.3409400806
 20
63213.29746395804
 30
0.0
 40
10.5
 41
0.0
 71
     9
 72
     5
  1

1001
ACAD
1000
MTEXTBEGIN
1070
    73
1070
     1
1070
    44
1040
1.0
1070
    74
1070
     0
1000
MTEXTEND
  0
MTEXT
  5
5655
330
1A
100
AcDbEntity
  8
SUNPOU
100
AcDbMText
 10
85473.63363627567
 20
80747.76348077064
 30
0.0
 40
10.5
 41
0.0
 71
     9
 72
     5
  1

1001
ACAD
1000
MTEXTBEGIN
1070
    73
1070
     1
1070
    44
1040
1.0
1070
    74
1070
     0
1000
MTEXTEND
  0
MTEXT
  5
5656
330
1A
100
AcDbEntity
  8
SUNPOU
100
AcDbMText
 10
94195.80120219368
 20
88163.59801230806
 30
0.0
 40
10.5
 41
0.0
 71
     9
 72
     5
  1

1001
ACAD
1000
MTEXTBEGIN
1070
    73
1070
     1
1070
    44
1040
1.0
1070
    74
1070
     0
1000
MTEXTEND
  0
MTEXT
  5
5657
330
1A
100
AcDbEntity
  8
SUNPOU
100
AcDbMText
 10
113149.5599195236
 20
105630.1740648001
 30
0.0
 40
10.5
 41
0.0
 71
     9
 72
     5
  1

1001
ACAD
1000
MTEXTBEGIN
1070
    73
1070
     1
1070
    44
1040
1.0
1070
    74
1070
     0
1000
MTEXTEND
  0
MTEXT
  5
5658
330
1A
100
AcDbEntity
  8
SUNPOU
100
AcDbMText
 10
115092.967166233
 20
103829.1249849221
 30
0.0
 40
3.5
 41
0.0
 71
     9
 72
     5
  1

1001
ACAD
1000
MTEXTBEGIN
1070
    73
1070
     1
1070
    44
1040
1.0
1070
    74
1070
     0
1000
MTEXTEND
  0
MTEXT
  5
5659
330
1A
100
AcDbEntity
  8
SUNPOU
100
AcDbMText
 10
146219.1469988527
 20
146324.0706525794
 30
0.0
 40
10.5
 41
0.0
 71
     9
 72
     5
  1

1001
ACAD
1000
MTEXTBEGIN
1070
    73
1070
     1
1070
    44
1040
1.0
1070
    74
1070
     0
1000
MTEXTEND
  0
MTEXT
  5
565A
330
1A
100
AcDbEntity
  8
SUNPOU
100
AcDbMText
 10
148162.5542455621
 20
144523.0215727014
 30
0.0
 40
3.5
 41
0.0
 71
     9
 72
     5
  1

1001
ACAD
1000
MTEXTBEGIN
1070
    73
1070
     1
1070
    44
1040
1.0
1070
    74
1070
     0
1000
MTEXTEND
  0
MTEXT
  5
565B
330
1A
100
AcDbEntity
  8
SUNPOU
100
AcDbMText
 10
96659.41470464833
 20
92157.23580755453
 30
0.0
 40
10.5
 41
0.0
 71
     9
 72
     5
  1

1001
ACAD
1000
MTEXTBEGIN
1070
    73
1070
     1
1070
    44
1040
1.0
1070
    74
1070
     0
1000
MTEXTEND
  0
MTEXT
  5
565C
330
1A
100
AcDbEntity
  8
SUNPOU
100
AcDbMText
 10
82711.41460427234
 20
72984.83666844234
 30
0.0
 40
3.5
 41
0.0
 71
     7
 72
     5
  1

1001
ACAD
1000
MTEXTBEGIN
1070
    73
1070
     1
1070
    44
1040
1.0
1070
    74
1070
     0
1000
MTEXTEND
  0
MTEXT
  5
565D
330
1A
100
AcDbEntity
  8
SUNPOU
100
AcDbMText
 10
63696.58400126548
 20
60746.98539926055
 30
0.0
 40
10.5
 41
0.0
 71
     7
 72
     5
  1

1001
ACAD
1000
MTEXTBEGIN
1070
    73
1070
     1
1070
    44
1040
1.0
1070
    74
1070
     0
1000
MTEXTEND
  0
MTEXT
  5
565E
330
1A
100
AcDbEntity
  8
SUNPOU
100
AcDbMText
 10
51239.35573631738
 20
44902.05382116213
 30
0.0
 40
35.0
 41
0.0
 71
     9
 72
     5
  1

1001
ACAD
1000
MTEXTBEGIN
1070
    73
1070
     1
1070
    44
1040
1.0
1070
    74
1070
     0
1000
MTEXTEND
  0
MTEXT
  5
565F
330
1A
100
AcDbEntity
  8
SUNPOU
100
AcDbMText
 10
50147.84079389233
 20
45510.82923121084
 30
0.0
 40
350.0000004171781
 41
0.0
 71
     7
 72
     5
  1

1001
ACAD
1000
MTEXTBEGIN
1070
    73
1070
     1
1070
    44
1040
1.0
1070
    74
1070
     0
1000
MTEXTEND
  0
MTEXT
  5
5660
330
1A
100
AcDbEntity
  8
0
100
AcDbMText
 10
56191.79155183523
 20
43490.75159334705
 30
0.0
 40
8.0
 41
0.0
 71
     7
 72
     5
  1

1001
ACAD
1000
MTEXTBEGIN
1070
    73
1070
     1
1070
    44
1040
1.0
1070
    74
1070
     0
1000
MTEXTEND
  0
MTEXT
  5
5661
330
1A
100
AcDbEntity
  8
0
100
AcDbMText
 10
58477.14924173012
 20
44461.54188809812
 30
0.0
 40
8.0
 41
0.0
 71
     7
 72
     5
  1

1001
ACAD
1000
MTEXTBEGIN
1070
    73
1070
     1
1070
    44
1040
1.0
1070
    74
1070
     0
1000
MTEXTEND
  0
MTEXT
  5
5662
330
1A
100
AcDbEntity
  8
SUNPOU
100
AcDbMText
 10
61143.04626241227
 20
53973.65328047324
 30
0.0
 40
10.5
 41
0.0
 71
     1
 72
     5
  1

1001
ACAD
1000
MTEXTBEGIN
1070
    73
1070
     1
1070
    44
1040
1.0
1070
    74
1070
     0
1000
MTEXTEND
  0
MTEXT
  5
5663
330
1A
100
AcDbEntity
  8
SUNPOU
100
AcDbMText
 10
53212.12306647632
 20
53026.86014656028
 30
0.0
 40
10.5
 41
0.0
 71
     7
 72
     5
  1

1001
ACAD
1000
MTEXTBEGIN
1070
    73
1070
     1
1070
    44
1040
1.0
1070
    74
1070
     0
1000
MTEXTEND
  0
MTEXT
  5
5664
330
1A
100
AcDbEntity
  8
SUNPOU
100
AcDbMText
 10
56161.10673098909
 20
57927.53621840312
 30
0.0
 40
10.5
 41
0.0
 71
     7
 72
     5
  1

1001
ACAD
1000
MTEXTBEGIN
1070
    73
1070
     1
1070
    44
1040
1.0
1070
    74
1070
     0
1000
MTEXTEND
  0
MTEXT
  5
5665
330
1A
100
AcDbEntity
  8
SUNPOU
100
AcDbMText
 10
60670.18485893966
 20
60363.8369660232
 30
0.0
 40
10.5
 41
0.0
 71
     7
 72
     5
  1

1001
ACAD
1000
MTEXTBEGIN
1070
    73
1070
     1
1070
    44
1040
1.0
1070
    74
1070
     0
1000
MTEXTEND
  0
MTEXT
  5
5666
330
1A
100
AcDbEntity
  8
SUNPOU
100
AcDbMText
 10
44271.02274570799
 20
39361.43311641211
 30
0.0
 40
10.5
 41
0.0
 71
     7
 72
     5
  1

1001
ACAD
1000
MTEXTBEGIN
1070
    73
1070
     1
1070
    44
1040
1.0
1070
    74
1070
     0
1000
MTEXTEND
  0
MTEXT
  5
5667
330
1A
100
AcDbEntity
  8
SUNPOU
100
AcDbMText
 10
95462.54117960824
 20
85034.41368006038
 30
0.0
 40
10.5
 41
0.0
 71
     9
 72
     5
  1

1001
ACAD
1000
MTEXTBEGIN
1070
    73
1070
     1
1070
    44
1040
1.0
1070
    74
1070
     0
1000
MTEXTEND
  0
MTEXT
  5
5668
330
1A
100
AcDbEntity
  8
SUNPOU
100
AcDbMText
 10
104184.7087455262
 20
92450.24821159784
 30
0.0
 40
10.5
 41
0.0
 71
     9
 72
     5
  1

1001
ACAD
1000
MTEXTBEGIN
1070
    73
1070
     1
1070
    44
1040
1.0
1070
    74
1070
     0
1000
MTEXTEND
  0
MTEXT
  5
5669
330
1A
100
AcDbEntity
  8
SUNPOU
100
AcDbMText
 10
123138.4674628562
 20
109916.8242640898
 30
0.0
 40
10.5
 41
0.0
 71
     9
 72
     5
  1

1001
ACAD
1000
MTEXTBEGIN
1070
    73
1070
     1
1070
    44
1040
1.0
1070
    74
1070
     0
1000
MTEXTEND
  0
MTEXT
  5
566A
330
1A
100
AcDbEntity
  8
SUNPOU
100
AcDbMText
 10
125081.8747095656
 20
108115.7751842118
 30
0.0
 40
3.5
 41
0.0
 71
     9
 72
     5
  1

1001
ACAD
1000
MTEXTBEGIN
1070
    73
1070
     1
1070
    44
1040
1.0
1070
    74
1070
     0
1000
MTEXTEND
  0
MTEXT
  5
566B
330
1A
100
AcDbEntity
  8
SUNPOU
100
AcDbMText
 10
156208.0545421853
 20
150610.7208518691
 30
0.0
 40
10.5
 41
0.0
 71
     9
 72
     5
  1

1001
ACAD
1000
MTEXTBEGIN
1070
    73
1070
     1
1070
    44
1040
1.0
1070
    74
1070
     0
1000
MTEXTEND
  0
MTEXT
  5
566C
330
1A
100
AcDbEntity
  8
SUNPOU
100
AcDbMText
 10
158151.4617888947
 20
148809.6717719911
 30
0.0
 40
3.5
 41
0.0
 71
     9
 72
     5
  1

1001
ACAD
1000
MTEXTBEGIN
1070
    73
1070
     1
1070
    44
1040
1.0
1070
    74
1070
     0
1000
MTEXTEND
  0
MTEXT
  5
566D
330
1A
100
AcDbEntity
  8
SUNPOU
100
AcDbMText
 10
106648.3222479809
 20
96443.88600684427
 30
0.0
 40
10.5
 41
0.0
 71
     9
 72
     5
  1

1001
ACAD
1000
MTEXTBEGIN
1070
    73
1070
     1
1070
    44
1040
1.0
1070
    74
1070
     0
1000
MTEXTEND
  0
MTEXT
  5
566E
330
1A
100
AcDbEntity
  8
SUNPOU
100
AcDbMText
 10
92700.3221476049
 20
77271.48686773207
 30
0.0
 40
3.5
 41
0.0
 71
     7
 72
     5
  1

1001
ACAD
1000
MTEXTBEGIN
1070
    73
1070
     1
1070
    44
1040
1.0
1070
    74
1070
     0
1000
MTEXTEND
  0
MTEXT
  5
566F
330
1A
100
AcDbEntity
  8
SUNPOU
100
AcDbMText
 10
73685.49154459807
 20
65033.63559855027
 30
0.0
 40
10.5
 41
0.0
 71
     7
 72
     5
  1

1001
ACAD
1000
MTEXTBEGIN
1070
    73
1070
     1
1070
    44
1040
1.0
1070
    74
1070
     0
1000
MTEXTEND
  0
MTEXT
  5
5670
330
1A
100
AcDbEntity
  8
SUNPOU
100
AcDbMText
 10
61228.26327964995
 20
49188.70402045183
 30
0.0
 40
35.0
 41
0.0
 71
     9
 72
     5
  1

1001
ACAD
1000
MTEXTBEGIN
1070
    73
1070
     1
1070
    44
1040
1.0
1070
    74
1070
     0
1000
MTEXTEND
  0
MTEXT
  5
5671
330
1A
100
AcDbEntity
  8
SUNPOU
100
AcDbMText
 10
60136.74833722491
 20
49797.47943050056
 30
0.0
 40
350.0000004171781
 41
0.0
 71
     7
 72
     5
  1

1001
ACAD
1000
MTEXTBEGIN
1070
    73
1070
     1
1070
    44
1040
1.0
1070
    74
1070
     0
1000
MTEXTEND
  0
MTEXT
  5
5672
330
1A
100
AcDbEntity
  8
0
100
AcDbMText
 10
66180.69909516782
 20
47777.40179263677
 30
0.0
 40
8.0
 41
0.0
 71
     7
 72
     5
  1

1001
ACAD
1000
MTEXTBEGIN
1070
    73
1070
     1
1070
    44
1040
1.0
1070
    74
1070
     0
1000
MTEXTEND
  0
MTEXT
  5
5673
330
1A
100
AcDbEntity
  8
0
100
AcDbMText
 10
68466.05678506271
 20
48748.19208738784
 30
0.0
 40
8.0
 41
0.0
 71
     7
 72
     5
  1

1001
ACAD
1000
MTEXTBEGIN
1070
    73
1070
     1
1070
    44
1040
1.0
1070
    74
1070
     0
1000
MTEXTEND
  0
MTEXT
  5
5674
330
1A
100
AcDbEntity
  8
SUNPOU
100
AcDbMText
 10
71131.95380574485
 20
58260.30347976296
 30
0.0
 40
10.5
 41
0.0
 71
     1
 72
     5
  1

1001
ACAD
1000
MTEXTBEGIN
1070
    73
1070
     1
1070
    44
1040
1.0
1070
    74
1070
     0
1000
MTEXTEND
  0
MTEXT
  5
5675
330
1A
100
AcDbEntity
  8
SUNPOU
100
AcDbMText
 10
63201.03060980891
 20
57313.51034585003
 30
0.0
 40
10.5
 41
0.0
 71
     7
 72
     5
  1

1001
ACAD
1000
MTEXTBEGIN
1070
    73
1070
     1
1070
    44
1040
1.0
1070
    74
1070
     0
1000
MTEXTEND
  0
MTEXT
  5
5676
330
1A
100
AcDbEntity
  8
SUNPOU
100
AcDbMText
 10
66150.01427432169
 20
62214.18641769286
 30
0.0
 40
10.5
 41
0.0
 71
     7
 72
     5
  1

1001
ACAD
1000
MTEXTBEGIN
1070
    73
1070
     1
1070
    44
1040
1.0
1070
    74
1070
     0
1000
MTEXTEND
  0
MTEXT
  5
5677
330
1A
100
AcDbEntity
  8
SUNPOU
100
AcDbMText
 10
70659.09240227225
 20
64650.48716531294
 30
0.0
 40
10.5
 41
0.0
 71
     7
 72
     5
  1

1001
ACAD
1000
MTEXTBEGIN
1070
    73
1070
     1
1070
    44
1040
1.0
1070
    74
1070
     0
1000
MTEXTEND
  0
MTEXT
  5
5678
330
1A
100
AcDbEntity
  8
SUNPOU
100
AcDbMText
 10
54259.93028904056
 20
43648.08331570185
 30
0.0
 40
10.5
 41
0.0
 71
     7
 72
     5
  1

1001
ACAD
1000
MTEXTBEGIN
1070
    73
1070
     1
1070
    44
1040
1.0
1070
    74
1070
     0
1000
MTEXTEND
  0
MTEXT
  5
5679
330
1A
100
AcDbEntity
  8
SUNPOU
100
AcDbMText
 10
56070.69320041551
 20
49975.4973031804
 30
0.0
 40
10.5
 41
0.0
 71
     9
 72
     5
  1

1001
ACAD
1000
MTEXTBEGIN
1070
    73
1070
     1
1070
    44
1040
1.0
1070
    74
1070
     0
1000
MTEXTEND
  0
MTEXT
  5
567A
330
1A
100
AcDbEntity
  8
SUNPOU
100
AcDbMText
 10
64792.86076633347
 20
57391.33183471787
 30
0.0
 40
10.5
 41
0.0
 71
     9
 72
     5
  1

1001
ACAD
1000
MTEXTBEGIN
1070
    73
1070
     1
1070
    44
1040
1.0
1070
    74
1070
     0
1000
MTEXTEND
  0
MTEXT
  5
567B
330
1A
100
AcDbEntity
  8
SUNPOU
100
AcDbMText
 10
83746.61948366345
 20
74857.90788720994
 30
0.0
 40
10.5
 41
0.0
 71
     9
 72
     5
  1

1001
ACAD
1000
MTEXTBEGIN
1070
    73
1070
     1
1070
    44
1040
1.0
1070
    74
1070
     0
1000
MTEXTEND
  0
MTEXT
  5
567C
330
1A
100
AcDbEntity
  8
SUNPOU
100
AcDbMText
 10
85690.02673037287
 20
73056.85880733192
 30
0.0
 40
3.5
 41
0.0
 71
     9
 72
     5
  1

1001
ACAD
1000
MTEXTBEGIN
1070
    73
1070
     1
1070
    44
1040
1.0
1070
    74
1070
     0
1000
MTEXTEND
  0
MTEXT
  5
567D
330
1A
100
AcDbEntity
  8
SUNPOU
100
AcDbMText
 10
116816.2065629925
 20
115551.8044749892
 30
0.0
 40
10.5
 41
0.0
 71
     9
 72
     5
  1

1001
ACAD
1000
MTEXTBEGIN
1070
    73
1070
     1
1070
    44
1040
1.0
1070
    74
1070
     0
1000
MTEXTEND
  0
MTEXT
  5
567E
330
1A
100
AcDbEntity
  8
SUNPOU
100
AcDbMText
 10
118759.6138097019
 20
113750.7553951111
 30
0.0
 40
3.5
 41
0.0
 71
     9
 72
     5
  1

1001
ACAD
1000
MTEXTBEGIN
1070
    73
1070
     1
1070
    44
1040
1.0
1070
    74
1070
     0
1000
MTEXTEND
  0
MTEXT
  5
567F
330
1A
100
AcDbEntity
  8
SUNPOU
100
AcDbMText
 10
67256.47426878814
 20
61384.96962996432
 30
0.0
 40
10.5
 41
0.0
 71
     9
 72
     5
  1

1001
ACAD
1000
MTEXTBEGIN
1070
    73
1070
     1
1070
    44
1040
1.0
1070
    74
1070
     0
1000
MTEXTEND
  0
MTEXT
  5
5680
330
1A
100
AcDbEntity
  8
SUNPOU
100
AcDbMText
 10
53308.47416841216
 20
42212.57049085211
 30
0.0
 40
3.5
 41
0.0
 71
     7
 72
     5
  1

1001
ACAD
1000
MTEXTBEGIN
1070
    73
1070
     1
1070
    44
1040
1.0
1070
    74
1070
     0
1000
MTEXTEND
  0
MTEXT
  5
5681
330
1A
100
AcDbEntity
  8
SUNPOU
100
AcDbMText
 10
67000.82485118274
 20
51571.63371187343
 30
0.0
 40
10.5
 41
0.0
 71
     9
 72
     5
  1

1001
ACAD
1000
MTEXTBEGIN
1070
    73
1070
     1
1070
    44
1040
1.0
1070
    74
1070
     0
1000
MTEXTEND
  0
MTEXT
  5
5682
330
1A
100
AcDbEntity
  8
SUNPOU
100
AcDbMText
 10
75722.99241710071
 20
58987.46824341094
 30
0.0
 40
10.5
 41
0.0
 71
     9
 72
     5
  1

1001
ACAD
1000
MTEXTBEGIN
1070
    73
1070
     1
1070
    44
1040
1.0
1070
    74
1070
     0
1000
MTEXTEND
  0
MTEXT
  5
5683
330
1A
100
AcDbEntity
  8
SUNPOU
100
AcDbMText
 10
94676.75113443068
 20
76454.04429590299
 30
0.0
 40
10.5
 41
0.0
 71
     9
 72
     5
  1

1001
ACAD
1000
MTEXTBEGIN
1070
    73
1070
     1
1070
    44
1040
1.0
1070
    74
1070
     0
1000
MTEXTEND
  0
MTEXT
  5
5684
330
1A
100
AcDbEntity
  8
SUNPOU
100
AcDbMText
 10
96620.1583811401
 20
74652.99521602497
 30
0.0
 40
3.5
 41
0.0
 71
     9
 72
     5
  1

1001
ACAD
1000
MTEXTBEGIN
1070
    73
1070
     1
1070
    44
1040
1.0
1070
    74
1070
     0
1000
MTEXTEND
  0
MTEXT
  5
5685
330
1A
100
AcDbEntity
  8
SUNPOU
100
AcDbMText
 10
127746.3382137598
 20
117147.9408836822
 30
0.0
 40
10.5
 41
0.0
 71
     9
 72
     5
  1

1001
ACAD
1000
MTEXTBEGIN
1070
    73
1070
     1
1070
    44
1040
1.0
1070
    74
1070
     0
1000
MTEXTEND
  0
MTEXT
  5
5686
330
1A
100
AcDbEntity
  8
SUNPOU
100
AcDbMText
 10
129689.7454604692
 20
115346.8918038041
 30
0.0
 40
3.5
 41
0.0
 71
     9
 72
     5
  1

1001
ACAD
1000
MTEXTBEGIN
1070
    73
1070
     1
1070
    44
1040
1.0
1070
    74
1070
     0
1000
MTEXTEND
  0
MTEXT
  5
5687
330
1A
100
AcDbEntity
  8
SUNPOU
100
AcDbMText
 10
78186.60591955537
 20
62981.10603865737
 30
0.0
 40
10.5
 41
0.0
 71
     9
 72
     5
  1

1001
ACAD
1000
MTEXTBEGIN
1070
    73
1070
     1
1070
    44
1040
1.0
1070
    74
1070
     0
1000
MTEXTEND
  0
MTEXT
  5
5688
330
1A
100
AcDbEntity
  8
SUNPOU
100
AcDbMText
 10
64238.60581917939
 20
43808.70689954517
 30
0.0
 40
3.5
 41
0.0
 71
     7
 72
     5
  1

1001
ACAD
1000
MTEXTBEGIN
1070
    73
1070
     1
1070
    44
1040
1.0
1070
    74
1070
     0
1000
MTEXTEND
  0
MTEXT
  5
5689
330
1A
100
AcDbEntity
  8
SUNPOU
100
AcDbMText
 10
33428.13481137435
 20
32770.04710035563
 30
0.0
 40
10.5
 41
0.0
 71
     9
 72
     5
  1

1001
ACAD
1000
MTEXTBEGIN
1070
    73
1070
     1
1070
    44
1040
1.0
1070
    74
1070
     0
1000
MTEXTEND
  0
MTEXT
  5
568A
330
1A
100
AcDbEntity
  8
SUNPOU
100
AcDbMText
 10
52381.89352870431
 20
50236.62315284768
 30
0.0
 40
10.5
 41
0.0
 71
     9
 72
     5
  1

1001
ACAD
1000
MTEXTBEGIN
1070
    73
1070
     1
1070
    44
1040
1.0
1070
    74
1070
     0
1000
MTEXTEND
  0
MTEXT
  5
568B
330
1A
100
AcDbEntity
  8
SUNPOU
100
AcDbMText
 10
54325.30077541374
 20
48435.57407296968
 30
0.0
 40
3.5
 41
0.0
 71
     9
 72
     5
  1

1001
ACAD
1000
MTEXTBEGIN
1070
    73
1070
     1
1070
    44
1040
1.0
1070
    74
1070
     0
1000
MTEXTEND
  0
MTEXT
  5
568C
330
1A
100
AcDbEntity
  8
SUNPOU
100
AcDbMText
 10
85451.48060803342
 20
90930.51974062703
 30
0.0
 40
10.5
 41
0.0
 71
     9
 72
     5
  1

1001
ACAD
1000
MTEXTBEGIN
1070
    73
1070
     1
1070
    44
1040
1.0
1070
    74
1070
     0
1000
MTEXTEND
  0
MTEXT
  5
568D
330
1A
100
AcDbEntity
  8
SUNPOU
100
AcDbMText
 10
87394.88785474286
 20
89129.47066074901
 30
0.0
 40
3.5
 41
0.0
 71
     9
 72
     5
  1

1001
ACAD
1000
MTEXTBEGIN
1070
    73
1070
     1
1070
    44
1040
1.0
1070
    74
1070
     0
1000
MTEXTEND
  0
MTEXT
  5
568E
330
1A
100
AcDbEntity
  8
SUNPOU
100
AcDbMText
 10
35891.74831382901
 20
36763.68489560208
 30
0.0
 40
10.5
 41
0.0
 71
     9
 72
     5
  1

1001
ACAD
1000
MTEXTBEGIN
1070
    73
1070
     1
1070
    44
1040
1.0
1070
    74
1070
     0
1000
MTEXTEND
  0
MTEXT
  5
568F
330
1A
100
AcDbEntity
  8
SUNPOU
100
AcDbMText
 10
21943.74821345303
 20
17591.28575648985
 30
0.0
 40
3.5
 41
0.0
 71
     7
 72
     5
  1

1001
ACAD
1000
MTEXTBEGIN
1070
    73
1070
     1
1070
    44
1040
1.0
1070
    74
1070
     0
1000
MTEXTEND
  0
LINE
  5
12345
330
1A
100
AcDbEntity
  8
ZISSEN1
100
AcDbLine
 10
-1980.836993785769
 20
1814.416852535708
 30
0.0
 11
-1959.751211785769
 21
1814.416852535708
 31
0.0
  0
LINE
  5
12346
330
1A
100
AcDbEntity
  8
ZISSEN1
100
AcDbLine
 10
-1967.251211785769
 20
1860.416862535709
 30
0.0
 11
-1988.336993785769
 21
1860.416862535709
 31
0.0
  0
LINE
  5
12347
330
1A
100
AcDbEntity
  8
ZISSEN1
100
AcDbLine
 10
-1981.844092785769
 20
1822.466852535709
 30
0.0
 11
-1981.844092785769
 21
1852.366862535707
 31
0.0
  0
LINE
  5
12348
330
1A
100
AcDbEntity
  8
ZISSEN1
100
AcDbLine
 10
-1989.444082785769
 20
1822.466852535709
 30
0.0
 11
-1989.444082785769
 21
1852.366862535707
 31
0.0
  0
CIRCLE
  5
12349
330
1A
100
AcDbEntity
  8
ZISSEN1
100
AcDbCircle
 10
-1985.044101785769
 20
1818.416862535709
 30
0.0
 40
1.749999899999999
  0
LINE
  5
1234A
330
1A
100
AcDbEntity
  8
ZISSEN1
100
AcDbLine
 10
-1981.544102785769
 20
1815.123962535707
 30
0.0
 11
-1981.544102785769
 21
1821.916852535708
 31
0.0
  0
LINE
  5
1234B
330
1A
100
AcDbEntity
  8
ZISSEN1
100
AcDbLine
 10
-1989.044102785769
 20
1822.623962535709
 30
0.0
 11
-1989.044102785769
 21
1815.123962535707
 31
0.0
  0
LINE
  5
1234C
330
1A
100
AcDbEntity
  8
CL1
100
AcDbLine
 10
-1985.044101785769
 20
1821.416852535707
 30
0.0
 11
-1985.044101785769
 21
1815.416862535709
 31
0.0
  0
LINE
  5
1234D
330
1A
100
AcDbEntity
  8
ZISSEN1
100
AcDbLine
 10
-1980.836993785769
 20
1814.416852535708
 30
0.0
 11
-1988.336993785769
 21
1814.416852535708
 31
0.0
  0
LINE
  5
1234E
330
1A
100
AcDbEntity
  8
ZISSEN1
100
AcDbLine
 10
-1988.336993785769
 20
1814.416852535708
 30
0.0
 11
-1989.044102785769
 21
1815.123962535707
 31
0.0
  0
LINE
  5
1234F
330
1A
100
AcDbEntity
  8
ZISSEN1
100
AcDbLine
 10
-1980.836993785769
 20
1814.416852535708
 30
0.0
 11
-1981.544102785769
 21
1815.123962535707
 31
0.0
  0
LINE
  5
12350
330
1A
100
AcDbEntity
  8
ZISSEN1
100
AcDbLine
 10
-1988.336993785769
 20
1821.916852535708
 30
0.0
 11
-1981.544102785769
 21
1821.916852535708
 31
0.0
  0
LINE
  5
12351
330
1A
100
AcDbEntity
  8
ZISSEN1
100
AcDbLine
 10
-1981.844092785769
 20
1822.466852535709
 30
0.0
 11
-1989.444082785769
 21
1822.466852535709
 31
0.0
  0
LINE
  5
12352
330
1A
100
AcDbEntity
  8
CL1
100
AcDbLine
 10
-1988.044098785769
 20
1818.416862535709
 30
0.0
 11
-1982.044103785769
 21
1818.416862535709
 31
0.0
  0
LINE
  5
12353
330
1A
100
AcDbEntity
  8
ZISSEN1
100
AcDbLine
 10
-1989.044102785769
 20
1822.623962535709
 30
0.0
 11
-1988.336993785769
 21
1821.916852535708
 31
0.0
  0
LINE
  5
12354
330
1A
100
AcDbEntity
  8
ZISSEN1
100
AcDbLine
 10
-1989.044102785769
 20
1852.366862535707
 30
0.0
 11
-1989.044102785769
 21
1859.709752535708
 31
0.0
  0
LINE
  5
12355
330
1A
100
AcDbEntity
  8
ZISSEN1
100
AcDbLine
 10
-1981.844092785769
 20
1852.366862535707
 30
0.0
 11
-1989.444082785769
 21
1852.366862535707
 31
0.0
  0
LINE
  5
12357
330
1A
100
AcDbEntity
  8
ZISSEN1
100
AcDbLine
 10
-1989.044102785769
 20
1859.709752535708
 30
0.0
 11
-1988.336993785769
 21
1860.416862535709
 31
0.0
  0
ARC
  5
12358
330
1A
100
AcDbEntity
  8
ZISSEN1
100
AcDbCircle
 10
-1905.479464785769
 20
1854.32563253571
 30
0.0
 40
2.081532899999999
100
AcDbArc
 50
104.9999799999933
 51
180.0
  0
ARC
  5
12359
330
1A
100
AcDbEntity
  8
ZISSEN1
100
AcDbCircle
 10
-1909.122124785769
 20
1853.132432535709
 30
0.0
 40
1.5611496
100
AcDbArc
 50
306.8697900000027
 51
0.0
  0
ARC
  5
1235A
330
1A
100
AcDbEntity
  8
ZISSEN1
100
AcDbCircle
 10
-1909.122124785769
 20
1821.701282535709
 30
0.0
 40
1.5611496
100
AcDbArc
 50
0.0
 51
53.1301869999975
  0
ARC
  5
1235B
330
1A
100
AcDbEntity
  8
ZISSEN1
100
AcDbCircle
 10
-1905.479464785769
 20
1820.508082535709
 30
0.0
 40
2.081532899999999
100
AcDbArc
 50
180.0
 51
255.0000000000055
  0
LINE
  5
1235C
330
1A
100
AcDbEntity
  8
CL1
100
AcDbLine
 10
-1913.395454785769
 20
1818.416862535709
 30
0.0
 11
-1905.395464785769
 21
1818.416862535709
 31
0.0
  0
LINE
  5
1235D
330
1A
100
AcDbEntity
  8
CL1
100
AcDbLine
 10
-1913.395454785769
 20
1856.416872535708
 30
0.0
 11
-1905.927244785769
 21
1856.416872535708
 31
0.0
  0
LINE
  5
1235E
330
1A
100
AcDbEntity
  8
KAKURESEN1
100
AcDbLine
 10
-1910.395454785769
 20
1838.978002535708
 30
0.0
 11
-1904.261114785769
 21
1838.978002535708
 31
0.0
  0
LINE
  5
1235F
330
1A
100
AcDbEntity
  8
KAKURESEN1
100
AcDbLine
 10
-1910.395454785769
 20
1838.457612535709
 30
0.0
 11
-1904.482274785769
 21
1838.457612535709
 31
0.0
  0
LINE
  5
12360
330
1A
100
AcDbEntity
  8
KAKURESEN1
100
AcDbLine
 10
-1910.395454785769
 20
1836.376072535708
 30
0.0
 11
-1904.482274785769
 21
1836.376072535708
 31
0.0
  0
LINE
  5
12361
330
1A
100
AcDbEntity
  8
KAKURESEN1
100
AcDbLine
 10
-1910.395454785769
 20
1835.85571253571
 30
0.0
 11
-1904.261114785769
 21
1835.85571253571
 31
0.0
  0
LINE
  5
12362
330
1A
100
AcDbEntity
  8
ZISSEN1
100
AcDbLine
 10
-1908.185464785768
 20
1851.883502535708
 30
0.0
 11
-1908.185464785768
 21
1822.950212535709
 31
0.0
  0
LINE
  5
12364
330
1A
100
AcDbEntity
  8
ZISSEN1
100
AcDbLine
 10
-1958.644097785769
 20
1822.466852535709
 30
0.0
 11
-1958.644097785769
 21
1852.366862535707
 31
0.0
  0
LINE
  5
12365
330
1A
100
AcDbEntity
  8
ZISSEN1
100
AcDbLine
 10
-1966.244087785769
 20
1822.466852535709
 30
0.0
 11
-1966.244087785769
 21
1852.366862535707
 31
0.0
  0
LINE
  5
12366
330
1A
100
AcDbEntity
  8
ZISSEN1
100
AcDbLine
 10
-1916.995454785769
 20
1860.416862535709
 30
0.0
 11
-1916.995454785769
 21
1814.416852535708
 31
0.0
  0
LINE
  5
12367
330
1A
100
AcDbEntity
  8
ZISSEN1
100
AcDbLine
 10
-1915.395464785769
 20
1860.416862535709
 30
0.0
 11
-1915.395464785769
 21
1814.416852535708
 31
0.0
  0
LINE
  5
12368
330
1A
100
AcDbEntity
  8
ZISSEN1
100
AcDbLine
 10
-1908.395464785769
 20
1860.416862535709
 30
0.0
 11
-1908.395464785769
 21
1814.416852535708
 31
0.0
  0
LINE
  5
12369
330
1A
100
AcDbEntity
  8
ZISSEN1
100
AcDbLine
 10
-1910.395454785769
 20
1860.416862535709
 30
0.0
 11
-1910.395454785769
 21
1814.416852535708
 31
0.0
  0
LINE
  5
1236B
330
1A
100
AcDbEntity
  8
ZISSEN1
100
AcDbLine
 10
-1959.044102785769
 20
1822.466852535709
 30
0.0
 11
-1959.044102785769
 21
1815.123962535707
 31
0.0
  0
LINE
  5
1236C
330
1A
100
AcDbEntity
  8
ZISSEN1
100
AcDbLine
 10
-1959.044102785769
 20
1815.123962535707
 30
0.0
 11
-1959.751211785769
 21
1814.416852535708
 31
0.0
  0
LINE
  5
1236D
330
1A
100
AcDbEntity
  8
ZISSEN1
100
AcDbLine
 10
-1958.644097785769
 20
1822.466852535709
 30
0.0
 11
-1966.244087785769
 21
1822.466852535709
 31
0.0
  0
LINE
  5
1236E
330
1A
100
AcDbEntity
  8
ZISSEN1
100
AcDbLine
 10
-1916.995454785769
 20
1814.416852535708
 30
0.0
 11
-1915.395464785769
 21
1814.416852535708
 31
0.0
  0
LINE
  5
1236F
330
1A
100
AcDbEntity
  8
ZISSEN1
100
AcDbLine
 10
-1916.995454785769
 20
1815.123962535707
 30
0.0
 11
-1915.395464785769
 21
1815.123962535707
 31
0.0
  0
LINE
  5
12370
330
1A
100
AcDbEntity
  8
ZISSEN1
100
AcDbLine
 10
-1915.395464785769
 20
1815.916862535709
 30
0.0
 11
-1910.395454785769
 21
1815.916862535709
 31
0.0
  0
LINE
  5
12371
330
1A
100
AcDbEntity
  8
ZISSEN1
100
AcDbLine
 10
-1910.395454785769
 20
1815.123962535707
 30
0.0
 11
-1908.395464785769
 21
1815.123962535707
 31
0.0
  0
LINE
  5
12372
330
1A
100
AcDbEntity
  8
ZISSEN1
100
AcDbLine
 10
-1910.395454785769
 20
1814.416852535708
 30
0.0
 11
-1908.395464785769
 21
1814.416852535708
 31
0.0
  0
LINE
  5
12373
330
1A
100
AcDbEntity
  8
ZISSEN1
100
AcDbLine
 10
-1929.395454785769
 20
1822.466852535709
 30
0.0
 11
-1916.995454785769
 21
1822.466852535709
 31
0.0
  0
LINE
  5
12374
330
1A
100
AcDbEntity
  8
ZISSEN1
100
AcDbLine
 10
-1915.395464785769
 20
1820.916852535709
 30
0.0
 11
-1910.395454785769
 21
1820.916852535709
 31
0.0
  0
LINE
  5
12375
330
1A
100
AcDbEntity
  8
ZISSEN1
100
AcDbLine
 10
-1959.044102785769
 20
1859.709752535708
 30
0.0
 11
-1959.044102785769
 21
1852.209752535707
 31
0.0
  0
LINE
  5
12376
330
1A
100
AcDbEntity
  8
ZISSEN1
100
AcDbLine
 10
-1959.044102785769
 20
1852.209752535707
 30
0.0
 11
-1959.751211785769
 21
1852.916862535709
 31
0.0
  0
LINE
  5
12377
330
1A
100
AcDbEntity
  8
ZISSEN1
100
AcDbLine
 10
-1958.644097785769
 20
1852.366862535707
 30
0.0
 11
-1966.244087785769
 21
1852.366862535707
 31
0.0
  0
LINE
  5
12378
330
1A
100
AcDbEntity
  8
ZISSEN1
100
AcDbLine
 10
-1967.251211785769
 20
1860.416862535709
 30
0.0
 11
-1959.751211785769
 21
1860.416862535709
 31
0.0
  0
LINE
  5
12379
330
1A
100
AcDbEntity
  8
ZISSEN1
100
AcDbLine
 10
-1959.751211785769
 20
1852.916862535709
 30
0.0
 11
-1966.544102785769
 21
1852.916862535709
 31
0.0
  0
LINE
  5
1237A
330
1A
100
AcDbEntity
  8
CL1
100
AcDbLine
 10
-1966.044100785769
 20
1856.416872535708
 30
0.0
 11
-1960.044105785769
 21
1856.416872535708
 31
0.0
  0
LINE
  5
1237B
330
1A
100
AcDbEntity
  8
ZISSEN1
100
AcDbLine
 10
-1966.544102785769
 20
1859.709752535708
 30
0.0
 11
-1966.544102785769
 21
1852.916862535709
 31
0.0
  0
LINE
  5
1237C
330
1A
100
AcDbEntity
  8
ZISSEN1
100
AcDbLine
 10
-1967.251211785769
 20
1860.416862535709
 30
0.0
 11
-1966.544102785769
 21
1859.709752535708
 31
0.0
  0
LINE
  5
1237D
330
1A
100
AcDbEntity
  8
CL1
100
AcDbLine
 10
-1963.044103785769
 20
1859.416882535709
 30
0.0
 11
-1963.044103785769
 21
1853.416872535709
 31
0.0
  0
CIRCLE
  5
1237E
330
1A
100
AcDbEntity
  8
ZISSEN1
100
AcDbCircle
 10
-1963.044103785769
 20
1856.416872535708
 30
0.0
 40
1.749999899999999
  0
LINE
  5
1237F
330
1A
100
AcDbEntity
  8
ZISSEN1
100
AcDbLine
 10
-1959.751211785769
 20
1860.416862535709
 30
0.0
 11
-1959.044102785769
 21
1859.709752535708
 31
0.0
  0
LINE
  5
12380
330
1A
100
AcDbEntity
  8
ZISSEN1
100
AcDbLine
 10
-1929.395454785769
 20
1852.366862535707
 30
0.0
 11
-1916.995454785769
 21
1852.366862535707
 31
0.0
  0
LINE
  5
12381
330
1A
100
AcDbEntity
  8
ZISSEN1
100
AcDbLine
 10
-1916.995454785769
 20
1852.209752535707
 30
0.0
 11
-1915.395464785769
 21
1852.209752535707
 31
0.0
  0
LINE
  5
12382
330
1A
100
AcDbEntity
  8
ZISSEN1
100
AcDbLine
 10
-1916.995454785769
 20
1852.916862535709
 30
0.0
 11
-1915.395464785769
 21
1852.916862535709
 31
0.0
  0
LINE
  5
12383
330
1A
100
AcDbEntity
  8
ZISSEN1
100
AcDbLine
 10
-1915.395464785769
 20
1859.709752535708
 30
0.0
 11
-1916.995454785769
 21
1859.709752535708
 31
0.0
  0
LINE
  5
12384
330
1A
100
AcDbEntity
  8
ZISSEN1
100
AcDbLine
 10
-1916.995454785769
 20
1860.416862535709
 30
0.0
 11
-1915.395464785769
 21
1860.416862535709
 31
0.0
  0
LINE
  5
12385
330
1A
100
AcDbEntity
  8
ZISSEN1
100
AcDbLine
 10
-1915.395464785769
 20
1853.916872535709
 30
0.0
 11
-1910.395454785769
 21
1853.916872535709
 31
0.0
  0
LINE
  5
12386
330
1A
100
AcDbEntity
  8
ZISSEN1
100
AcDbLine
 10
-1915.395464785769
 20
1858.916882535709
 30
0.0
 11
-1910.395454785769
 21
1858.916882535709
 31
0.0
  0
LINE
  5
12387
330
1A
100
AcDbEntity
  8
ZISSEN1
100
AcDbLine
 10
-1910.395454785769
 20
1859.709752535708
 30
0.0
 11
-1908.395464785769
 21
1859.709752535708
 31
0.0
  0
LINE
  5
12388
330
1A
100
AcDbEntity
  8
ZISSEN1
100
AcDbLine
 10
-1910.395454785769
 20
1860.416862535709
 30
0.0
 11
-1908.395464785769
 21
1860.416862535709
 31
0.0
  0
LINE
  5
12389
330
1A
100
AcDbEntity
  8
ZISSEN1
100
AcDbLine
 10
-1903.397924785769
 20
1839.498392535708
 30
0.0
 11
-1903.397924785769
 21
1853.666452535708
 31
0.0
  0
LINE
  5
1238A
330
1A
100
AcDbEntity
  8
ZISSEN1
100
AcDbLine
 10
-1897.311494785769
 20
1818.032672535709
 30
0.0
 11
-1897.456624785769
 21
1818.177772535709
 31
0.0
  0
LINE
  5
1238B
330
1A
100
AcDbEntity
  8
ZISSEN1
100
AcDbLine
 10
-1897.456624785769
 20
1818.758242535707
 30
0.0
 11
-1897.456624785769
 21
1818.032672535709
 31
0.0
  0
LINE
  5
1238C
330
1A
100
AcDbEntity
  8
ZISSEN1
100
AcDbLine
 10
-1903.603444785769
 20
1817.850472535709
 30
0.0
 11
-1906.018184785769
 21
1818.497462535709
 31
0.0
  0
LINE
  5
1238D
330
1A
100
AcDbEntity
  8
ZISSEN1
100
AcDbLine
 10
-1903.603444785769
 20
1817.850472535709
 30
0.0
 11
-1898.853124785769
 21
1817.850472535709
 31
0.0
  0
LINE
  5
1238E
330
1A
100
AcDbEntity
  8
ZISSEN1
100
AcDbLine
 10
-1898.443384785769
 20
1815.867922535709
 30
0.0
 11
-1901.312034785769
 21
1815.362102535709
 31
0.0
  0
LINE
  5
1238F
330
1A
100
AcDbEntity
  8
ZISSEN1
100
AcDbLine
 10
-1902.044944785768
 20
1816.501032535708
 30
0.0
 11
-1898.785344785769
 21
1817.075812535708
 31
0.0
  0
ARC
  5
12390
330
1A
100
AcDbEntity
  8
ZISSEN1
100
AcDbCircle
 10
-1901.420464785769
 20
1815.977062535709
 30
0.0
 40
0.6244598000000004
100
AcDbArc
 50
179.9999799999978
 51
279.9999500000018
  0
LINE
  5
12391
330
1A
100
AcDbEntity
  8
ZISSEN1
100
AcDbLine
 10
-1902.044944785768
 20
1815.977062535709
 30
0.0
 11
-1902.044944785768
 21
1817.850472535709
 31
0.0
  0
ARC
  5
12392
330
1A
100
AcDbEntity
  8
ZISSEN1
100
AcDbCircle
 10
-1898.853124785769
 20
1817.460172535708
 30
0.0
 40
0.3902874
100
AcDbArc
 50
280.0000000000038
 51
89.99998400000361
  0
ARC
  5
12393
330
1A
100
AcDbEntity
  8
ZISSEN1
100
AcDbCircle
 10
-1898.714454785769
 20
1817.405332535709
 30
0.0
 40
1.5611496
100
AcDbArc
 50
280.0000000000038
 51
0.0
  0
LINE
  5
12394
330
1A
100
AcDbEntity
  8
ZISSEN1
100
AcDbLine
 10
-1897.166374785768
 20
1817.307102535709
 30
0.0
 11
-1897.311494785769
 21
1818.032672535709
 31
0.0
  0
LINE
  5
12395
330
1A
100
AcDbEntity
  8
ZISSEN1
100
AcDbLine
 10
-1897.456624785769
 20
1818.032672535709
 30
0.0
 11
-1897.456624785769
 21
1817.88757253571
 31
0.0
  0
LINE
  5
12396
330
1A
100
AcDbEntity
  8
ZISSEN1
100
AcDbLine
 10
-1903.397924785769
 20
1821.167262535708
 30
0.0
 11
-1903.397924785769
 21
1835.335322535708
 31
0.0
  0
LINE
  5
12397
330
1A
100
AcDbEntity
  8
ZISSEN1
100
AcDbLine
 10
-1899.778404785768
 20
1820.064222535709
 30
0.0
 11
-1899.197954785769
 21
1820.064222535709
 31
0.0
  0
ARC
  5
12398
330
1A
100
AcDbEntity
  8
ZISSEN1
100
AcDbCircle
 10
-1903.918314785769
 20
1821.167262535708
 30
0.0
 40
0.5203832000000001
100
AcDbArc
 50
255.0000000000055
 51
359.9999799999979
  0
LINE
  5
12399
330
1A
100
AcDbEntity
  8
ZISSEN1
100
AcDbLine
 10
-1903.397924785769
 20
1819.411602535708
 30
0.0
 11
-1905.510074785769
 21
1819.97754253571
 31
0.0
  0
ARC
  5
1239A
330
1A
100
AcDbEntity
  8
ZISSEN1
100
AcDbCircle
 10
-1905.375384785769
 20
1820.480192535709
 30
0.0
 40
0.5203829000000001
100
AcDbArc
 50
75.00000000000555
 51
254.9999800000044
  0
LINE
  5
1239B
330
1A
100
AcDbEntity
  8
ZISSEN1
100
AcDbLine
 10
-1907.560974785769
 20
1821.701282535709
 30
0.0
 11
-1907.560974785769
 21
1820.508082535709
 31
0.0
  0
LINE
  5
1239C
330
1A
100
AcDbEntity
  8
ZISSEN1
100
AcDbLine
 10
-1904.052974785768
 20
1820.664612535709
 30
0.0
 11
-1905.240684785768
 21
1820.982842535708
 31
0.0
  0
LINE
  5
1239D
330
1A
100
AcDbEntity
  8
ZISSEN1
100
AcDbLine
 10
-1900.358844785769
 20
1820.064222535709
 30
0.0
 11
-1899.778404785768
 21
1820.064222535709
 31
0.0
  0
LINE
  5
1239E
330
1A
100
AcDbEntity
  8
ZISSEN1
100
AcDbLine
 10
-1900.939284785769
 20
1820.064222535709
 30
0.0
 11
-1900.358844785769
 21
1820.064222535709
 31
0.0
  0
LINE
  5
1239F
330
1A
100
AcDbEntity
  8
ZISSEN1
100
AcDbLine
 10
-1901.519734785768
 20
1820.064222535709
 30
0.0
 11
-1900.939284785769
 21
1820.064222535709
 31
0.0
  0
LINE
  5
123A0
330
1A
100
AcDbEntity
  8
ZISSEN1
100
AcDbLine
 10
-1901.955074785768
 20
1820.064222535709
 30
0.0
 11
-1901.519734785768
 21
1820.064222535709
 31
0.0
  0
LINE
  5
123A1
330
1A
100
AcDbEntity
  8
ZISSEN1
100
AcDbLine
 10
-1903.397924785769
 20
1819.411602535708
 30
0.0
 11
-1902.148994785769
 21
1819.411602535708
 31
0.0
  0
LINE
  5
123A2
330
1A
100
AcDbEntity
  8
ZISSEN1
100
AcDbLine
 10
-1902.148994785769
 20
1819.411602535708
 30
0.0
 11
-1901.982004785769
 21
1820.034792535707
 31
0.0
  0
LINE
  5
123A3
330
1A
100
AcDbEntity
  8
ZISSEN1
100
AcDbLine
 10
-1898.037064785769
 20
1819.338682535708
 30
0.0
 11
-1897.456624785769
 21
1818.758242535707
 31
0.0
  0
LINE
  5
123A4
330
1A
100
AcDbEntity
  8
ZISSEN1
100
AcDbLine
 10
-1898.617514785769
 20
1819.774002535709
 30
0.0
 11
-1898.037064785769
 21
1819.338682535708
 31
0.0
  0
LINE
  5
123A5
330
1A
100
AcDbEntity
  8
ZISSEN1
100
AcDbLine
 10
-1899.197954785769
 20
1820.064222535709
 30
0.0
 11
-1898.617514785769
 21
1819.774002535709
 31
0.0
  0
ARC
  5
123A6
330
1A
100
AcDbEntity
  8
ZISSEN1
100
AcDbCircle
 10
-1901.100814785769
 20
1837.416862535708
 30
0.0
 40
3.3378866
100
AcDbArc
 50
141.4199000000041
 51
218.5800700000011
  0
LINE
  5
123A7
330
1A
100
AcDbEntity
  8
ZISSEN1
100
AcDbLine
 10
-1903.397924785769
 20
1835.335322535708
 30
0.0
 11
-1903.710144785769
 21
1835.335322535708
 31
0.0
  0
LINE
  5
123A8
330
1A
100
AcDbEntity
  8
ZISSEN1
100
AcDbLine
 10
-1903.397924785769
 20
1839.498392535708
 30
0.0
 11
-1903.710144785769
 21
1839.498392535708
 31
0.0
  0
LINE
  5
123A9
330
1A
100
AcDbEntity
  8
ZISSEN1
100
AcDbLine
 10
-1899.923494785769
 20
1854.600782535709
 30
0.0
 11
-1899.343054785769
 21
1854.600782535709
 31
0.0
  0
LINE
  5
123AA
330
1A
100
AcDbEntity
  8
ZISSEN1
100
AcDbLine
 10
-1898.443384785769
 20
1858.965802535708
 30
0.0
 11
-1901.312034785769
 21
1859.47161253571
 31
0.0
  0
LINE
  5
123AB
330
1A
100
AcDbEntity
  8
ZISSEN1
100
AcDbLine
 10
-1903.603444785769
 20
1856.983262535709
 30
0.0
 11
-1898.853124785769
 21
1856.983262535709
 31
0.0
  0
LINE
  5
123AC
330
1A
100
AcDbEntity
  8
ZISSEN1
100
AcDbLine
 10
-1902.044944785768
 20
1858.332672535708
 30
0.0
 11
-1898.785344785769
 21
1857.757922535709
 31
0.0
  0
LINE
  5
123AD
330
1A
100
AcDbEntity
  8
ZISSEN1
100
AcDbLine
 10
-1902.044944785768
 20
1858.856652535709
 30
0.0
 11
-1902.044944785768
 21
1856.983262535709
 31
0.0
  0
ARC
  5
123AE
330
1A
100
AcDbEntity
  8
ZISSEN1
100
AcDbCircle
 10
-1903.918314785769
 20
1853.666452535708
 30
0.0
 40
0.5203832000000001
100
AcDbArc
 50
0.0
 51
104.9999799999933
  0
LINE
  5
123AF
330
1A
100
AcDbEntity
  8
ZISSEN1
100
AcDbLine
 10
-1903.397924785769
 20
1855.422112535708
 30
0.0
 11
-1905.510074785769
 21
1854.856172535709
 31
0.0
  0
ARC
  5
123B0
330
1A
100
AcDbEntity
  8
ZISSEN1
100
AcDbCircle
 10
-1905.375384785769
 20
1854.353522535707
 30
0.0
 40
0.5203829000000001
100
AcDbArc
 50
104.9999999999944
 51
284.9999799999933
  0
LINE
  5
123B1
330
1A
100
AcDbEntity
  8
ZISSEN1
100
AcDbLine
 10
-1904.052974785768
 20
1854.169132535709
 30
0.0
 11
-1905.240684785768
 21
1853.850872535709
 31
0.0
  0
LINE
  5
123B2
330
1A
100
AcDbEntity
  8
ZISSEN1
100
AcDbLine
 10
-1903.603444785769
 20
1856.983262535709
 30
0.0
 11
-1906.018184785769
 21
1856.336232535709
 31
0.0
  0
LINE
  5
123B3
330
1A
100
AcDbEntity
  8
ZISSEN1
100
AcDbLine
 10
-1907.560974785769
 20
1853.132432535709
 30
0.0
 11
-1907.560974785769
 21
1854.32563253571
 31
0.0
  0
LINE
  5
123B4
330
1A
100
AcDbEntity
  8
ZISSEN1
100
AcDbLine
 10
-1901.664834785768
 20
1854.600782535709
 30
0.0
 11
-1901.982004785769
 21
1854.798932535707
 31
0.0
  0
LINE
  5
123B5
330
1A
100
AcDbEntity
  8
ZISSEN1
100
AcDbLine
 10
-1902.100174785769
 20
1854.891012535708
 30
0.0
 11
-1901.664834785768
 21
1854.600782535709
 31
0.0
  0
LINE
  5
123B6
330
1A
100
AcDbEntity
  8
ZISSEN1
100
AcDbLine
 10
-1900.503944785769
 20
1854.600782535709
 30
0.0
 11
-1899.923494785769
 21
1854.600782535709
 31
0.0
  0
LINE
  5
123B7
330
1A
100
AcDbEntity
  8
ZISSEN1
100
AcDbLine
 10
-1901.084384785769
 20
1854.600782535709
 30
0.0
 11
-1900.503944785769
 21
1854.600782535709
 31
0.0
  0
LINE
  5
123B8
330
1A
100
AcDbEntity
  8
ZISSEN1
100
AcDbLine
 10
-1901.664834785768
 20
1854.600782535709
 30
0.0
 11
-1901.084384785769
 21
1854.600782535709
 31
0.0
  0
LINE
  5
123B9
330
1A
100
AcDbEntity
  8
ZISSEN1
100
AcDbLine
 10
-1903.397924785769
 20
1855.422112535708
 30
0.0
 11
-1902.148994785769
 21
1855.422112535708
 31
0.0
  0
LINE
  5
123BA
330
1A
100
AcDbEntity
  8
ZISSEN1
100
AcDbLine
 10
-1902.148994785769
 20
1855.422112535708
 30
0.0
 11
-1901.982004785769
 21
1854.798932535707
 31
0.0
  0
ARC
  5
123BB
330
1A
100
AcDbEntity
  8
ZISSEN1
100
AcDbCircle
 10
-1901.420464785769
 20
1858.856652535709
 30
0.0
 40
0.6244598000000004
100
AcDbArc
 50
80.00002999999518
 51
180.0
  0
ARC
  5
123BC
330
1A
100
AcDbEntity
  8
ZISSEN1
100
AcDbCircle
 10
-1898.714454785769
 20
1857.428402535709
 30
0.0
 40
1.5611496
100
AcDbArc
 50
0.0
 51
79.99998400000435
  0
ARC
  5
123BD
330
1A
100
AcDbEntity
  8
ZISSEN1
100
AcDbCircle
 10
-1898.853124785769
 20
1857.373552535709
 30
0.0
 40
0.3902874
100
AcDbArc
 50
270.0
 51
79.99998400000435
  0
LINE
  5
123BE
330
1A
100
AcDbEntity
  8
ZISSEN1
100
AcDbLine
 10
-1897.601724785769
 20
1856.487242535709
 30
0.0
 11
-1897.311494785769
 21
1856.487242535709
 31
0.0
  0
LINE
  5
123BF
330
1A
100
AcDbEntity
  8
ZISSEN1
100
AcDbLine
 10
-1897.021274785769
 20
1856.777462535708
 30
0.0
 11
-1897.601724785769
 21
1856.487242535709
 31
0.0
  0
LINE
  5
123C0
330
1A
100
AcDbEntity
  8
ZISSEN1
100
AcDbLine
 10
-1897.166374785768
 20
1857.357912535708
 30
0.0
 11
-1897.021274785769
 21
1856.777462535708
 31
0.0
  0
LINE
  5
123C1
330
1A
100
AcDbEntity
  8
ZISSEN1
100
AcDbLine
 10
-1897.166374785768
 20
1857.357912535708
 30
0.0
 11
-1897.153314785769
 21
1857.428402535709
 31
0.0
  0
LINE
  5
123C2
330
1A
100
AcDbEntity
  8
ZISSEN1
100
AcDbLine
 10
-1897.166374785768
 20
1855.906802535709
 30
0.0
 11
-1897.166374785768
 21
1856.487242535709
 31
0.0
  0
LINE
  5
123C3
330
1A
100
AcDbEntity
  8
ZISSEN1
100
AcDbLine
 10
-1897.601724785769
 20
1855.181232535709
 30
0.0
 11
-1897.166374785768
 21
1855.906802535709
 31
0.0
  0
LINE
  5
123C4
330
1A
100
AcDbEntity
  8
ZISSEN1
100
AcDbLine
 10
-1898.182164785769
 20
1854.745912535707
 30
0.0
 11
-1897.601724785769
 21
1855.181232535709
 31
0.0
  0
LINE
  5
123C5
330
1A
100
AcDbEntity
  8
ZISSEN1
100
AcDbLine
 10
-1898.762614785769
 20
1854.600782535709
 30
0.0
 11
-1898.182164785769
 21
1854.745912535707
 31
0.0
  0
LINE
  5
123C6
330
1A
100
AcDbEntity
  8
ZISSEN1
100
AcDbLine
 10
-1899.343054785769
 20
1854.600782535709
 30
0.0
 11
-1898.762614785769
 21
1854.600782535709
 31
0.0
  0
MTEXT
  5
123CD
330
1A
100
AcDbEntity
  8
ZISSEN1
100
AcDbMText
 10
-1979.051341494276
 20
1885.256707592192
 30
0.0
 40
5.0
 41
77.94165228668423
 71
     1
 72
     5
  1
CB-36/BUF　No.SS0001f22
  7
ゴシック体
1001
ACAD
1000
MTEXTBEGIN
1070
    73
1070
     1
1070
    44
1040
1.0
1070
    74
1070
     0
1000
MTEXTEND
  0
LINE
  5
12400
330
1A
100
AcDbEntity
  8
CL1
100
AcDbLine
 10
-1841.430447177213
 20
1821.473298118617
 30
0.0
 11
-1841.430447177213
 21
1815.473308118619
 31
0.0
  0
LINE
  5
12409
330
1A
100
AcDbEntity
  8
CL1
100
AcDbLine
 10
-1822.430446177213
 20
1856.473318118619
 30
0.0
 11
-1816.430451177213
 21
1856.473318118619
 31
0.0
  0
LINE
  5
1240F
330
1A
100
AcDbEntity
  8
CL1
100
AcDbLine
 10
-1819.430449177213
 20
1859.473328118619
 30
0.0
 11
-1819.430449177213
 21
1853.473318118619
 31
0.0
  0
LINE
  5
12413
330
1A
100
AcDbEntity
  8
CL1
100
AcDbLine
 10
-1844.430444177213
 20
1818.473308118619
 30
0.0
 11
-1838.430449177213
 21
1818.473308118619
 31
0.0
  0
CIRCLE
  5
1243E
330
1A
100
AcDbEntity
  8
ZISSEN1
100
AcDbCircle
 10
-1819.430449177213
 20
1856.473318118619
 30
0.0
 40
1.5
  0
CIRCLE
  5
1244F
330
1A
100
AcDbEntity
  8
ZISSEN1
100
AcDbCircle
 10
-1841.430447177213
 20
1818.473308118619
 30
0.0
 40
1.5
  0
DIMENSION
  5
1246C
330
1A
100
AcDbEntity
  8
SUNPOU
100
AcDbDimension
  2
*D23
 10
-1852.96402020337
 20
1818.473308118619
 30
0.0
 11
-1855.71402020337
 21
1837.473313118618
 31
0.0
 70
    32
  3
公差付き寸法
100
AcDbAlignedDimension
 13
-1820.930449177213
 23
1856.473318118619
 33
0.0
 14
-1841.430447177213
 24
1818.473308118619
 34
0.0
 50
90.0
100
AcDbRotatedDimension
1001
ACAD
1000
DSTYLE
1002
{
1070
   340
1005
1960
1070
    40
1040
1.0
1002
}
  0
DIMENSION
  5
12479
330
1A
100
AcDbEntity
  8
SUNPOU
100
AcDbDimension
  2
*D24
 10
-1819.430449177213
 20
1868.214436423185
 30
0.0
 11
-1830.430448177213
 21
1870.964436423185
 31
0.0
 70
    32
  3
公差付き寸法
100
AcDbAlignedDimension
 13
-1841.430447177213
 23
1818.473308118619
 33
0.0
 14
-1819.430449177213
 24
1856.473318118619
 34
0.0
100
AcDbRotatedDimension
1001
ACAD
1000
DSTYLE
1002
{
1070
    73
1070
     0
1070
   280
1070
     0
1070
    77
1070
     1
1070
   340
1005
1960
1070
    40
1040
1.0
1002
}
  0
LINE
  5
125FE
330
1A
100
AcDbEntity
  8
CL1
100
AcDbLine
 10
-1984.047432814293
 20
1837.416790601386
 30
0.0
 11
-1984.047432814293
 21
1833.416790601386
 31
0.0
  0
LINE
  5
125FF
330
1A
100
AcDbEntity
  8
CL1
100
AcDbLine
 10
-1984.047432814293
 20
1833.416790601386
 30
0.0
 11
-1984.047432814293
 21
1837.416790601386
 31
0.0
  0
LINE
  5
12600
330
1A
100
AcDbEntity
  8
CL1
100
AcDbLine
 10
-1984.047432814293
 20
1837.416790601386
 30
0.0
 11
-1984.047432814293
 21
1841.416790601386
 31
0.0
  0
LINE
  5
12601
330
1A
100
AcDbEntity
  8
CL1
100
AcDbLine
 10
-1984.047432814293
 20
1837.416790601386
 30
0.0
 11
-1980.047432814292
 21
1837.416790601386
 31
0.0
  0
CIRCLE
  5
12602
330
1A
100
AcDbEntity
  8
KAKURESEN1
100
AcDbCircle
 10
-1984.047432814293
 20
1837.416790601386
 30
0.0
 40
1.0
  0
LINE
  5
12603
330
1A
100
AcDbEntity
  8
CL1
100
AcDbLine
 10
-1984.047432814293
 20
1837.416790601386
 30
0.0
 11
-1988.047432814292
 21
1837.416790601386
 31
0.0
  0
LINE
  5
12604
330
1A
100
AcDbEntity
  8
CL1
100
AcDbLine
 10
-1988.047432814292
 20
1837.416790601386
 30
0.0
 11
-1984.047432814293
 21
1837.416790601386
 31
0.0
  0
CIRCLE
  5
12605
330
1A
100
AcDbEntity
  8
KAKURESEN1
100
AcDbCircle
 10
-1984.047432814293
 20
1837.416790601386
 30
0.0
 40
1.5
  0
LINE
  5
12606
330
1A
100
AcDbEntity
  8
CL1
100
AcDbLine
 10
-1964.047432814292
 20
1837.416790601386
 30
0.0
 11
-1964.047432814292
 21
1841.416790601386
 31
0.0
  0
LINE
  5
12607
330
1A
100
AcDbEntity
  8
CL1
100
AcDbLine
 10
-1964.047432814292
 20
1837.416790601386
 30
0.0
 11
-1964.047432814292
 21
1833.416790601386
 31
0.0
  0
LINE
  5
12608
330
1A
100
AcDbEntity
  8
CL1
100
AcDbLine
 10
-1964.047432814292
 20
1837.416790601386
 30
0.0
 11
-1968.047432814292
 21
1837.416790601386
 31
0.0
  0
CIRCLE
  5
12609
330
1A
100
AcDbEntity
  8
KAKURESEN1
100
AcDbCircle
 10
-1964.047432814292
 20
1837.416790601386
 30
0.0
 40
1.0
  0
CIRCLE
  5
1260A
330
1A
100
AcDbEntity
  8
KAKURESEN1
100
AcDbCircle
 10
-1964.047432814292
 20
1837.416790601386
 30
0.0
 40
1.5
  0
LINE
  5
1260B
330
1A
100
AcDbEntity
  8
CL1
100
AcDbLine
 10
-1964.047432814292
 20
1837.416790601386
 30
0.0
 11
-1960.047432814292
 21
1837.416790601386
 31
0.0
  0
LINE
  5
12683
330
1A
100
AcDbEntity
  8
CL1
100
AcDbLine
 10
-1907.170151457667
 20
1837.416858447823
 30
0.0
 11
-1903.170151457666
 21
1837.416858447823
 31
0.0
  0
LINE
  5
12684
330
1A
100
AcDbEntity
  8
CL1
100
AcDbLine
 10
-1907.380151457666
 20
1837.416858447823
 30
0.0
 11
-1911.380151457668
 21
1837.416858447823
 31
0.0
  0
LINE
  5
126BA
330
1A
100
AcDbEntity
  8
ZISSEN1
100
AcDbLine
 10
-1929.395454785769
 20
1852.366862535707
 30
0.0
 11
-1929.395454785769
 21
1822.466852535709
 31
0.0
  0
DIMENSION
  5
12709
330
1A
100
AcDbEntity
  8
SUNPOU
100
AcDbDimension
  2
*D25
 10
-1964.047432814292
 20
1867.069985695878
 30
0.0
 11
-1974.047432814291
 21
1869.819985695878
 31
0.0
 70
    32
  3
標準スタイル
100
AcDbAlignedDimension
 13
-1984.047432814293
 23
1841.416790601386
 33
0.0
 14
-1964.047432814292
 24
1841.416790601386
 34
0.0
100
AcDbRotatedDimension
1001
ACAD
1000
DSTYLE
1002
{
1070
    40
1040
1.0
1002
}
  0
DIMENSION
  5
12728
330
1A
100
AcDbEntity
  8
SUNPOU
100
AcDbDimension
  2
*D26
 10
-1996.525861318546
 20
1818.416862535709
 30
0.0
 11
-1999.275861318547
 21
1837.416867535709
 31
0.0
 70
    32
  3
標準スタイル
100
AcDbAlignedDimension
 13
-1966.044100785769
 23
1856.416872535708
 33
0.0
 14
-1988.044098785769
 24
1818.416862535709
 34
0.0
 50
90.0
100
AcDbRotatedDimension
1001
ACAD
1000
DSTYLE
1002
{
1070
    40
1040
1.0
1002
}
  0
DIMENSION
  5
12735
330
1A
100
AcDbEntity
  8
SUNPOU
100
AcDbDimension
  2
*D27
 10
-2004.657761717333
 20
1814.416852535708
 30
0.0
 11
-2007.407761717334
 21
1837.416857535709
 31
0.0
 70
    32
  3
標準スタイル
100
AcDbAlignedDimension
 13
-1988.336993785769
 23
1860.416862535709
 33
0.0
 14
-1988.336993785769
 24
1814.416852535708
 34
0.0
 50
90.0
100
AcDbRotatedDimension
1001
ACAD
1000
DSTYLE
1002
{
1070
    40
1040
1.0
1002
}
  0
DIMENSION
  5
12742
330
1A
100
AcDbEntity
  8
SUNPOU
100
AcDbDimension
  2
*D28
 10
-1963.044103785769
 20
1807.847591717853
 30
0.0
 11
-1974.044102785769
 21
1810.597591717852
 31
0.0
 70
    32
  3
標準スタイル
100
AcDbAlignedDimension
 13
-1985.044101785769
 23
1815.416862535709
 33
0.0
 14
-1963.044103785769
 24
1853.416872535709
 34
0.0
100
AcDbRotatedDimension
1001
ACAD
1000
DSTYLE
1002
{
1070
    40
1040
1.0
1002
}
  0
DIMENSION
  5
1274F
330
1A
100
AcDbEntity
  8
SUNPOU
100
AcDbDimension
  2
*D29
 10
-1959.044102785769
 20
1800.460028753818
 30
0.0
 11
-1974.044102785769
 21
1803.210028753818
 31
0.0
 70
    32
  3
標準スタイル
100
AcDbAlignedDimension
 13
-1989.044102785769
 23
1815.123962535707
 33
0.0
 14
-1959.044102785769
 24
1815.123962535707
 34
0.0
100
AcDbRotatedDimension
1001
ACAD
1000
DSTYLE
1002
{
1070
    40
1040
1.0
1002
}
  0
DIMENSION
  5
1275C
330
1A
100
AcDbEntity
  8
SUNPOU
100
AcDbDimension
  2
*D30
 10
-1908.395464785769
 20
1807.847591717853
 30
0.0
 11
-1900.48937341521
 21
1810.597591717852
 31
0.0
 70
    32
  3
標準スタイル
100
AcDbAlignedDimension
 13
-1910.395454785769
 23
1814.416852535708
 33
0.0
 14
-1908.395464785769
 24
1814.416852535708
 34
0.0
100
AcDbRotatedDimension
1001
ACAD
1000
DSTYLE
1002
{
1070
    40
1040
1.0
1002
}
  0
DIMENSION
  5
1276B
330
1A
100
AcDbEntity
  8
SUNPOU
100
AcDbDimension
  2
*D31
 10
-1903.397924785769
 20
1792.787407244361
 30
0.0
 11
-1916.396689785769
 21
1792.787407244361
 31
0.0
 70
   160
  3
標準スタイル
100
AcDbAlignedDimension
 13
-1929.395454785769
 23
1822.466852535709
 33
0.0
 14
-1903.397924785769
 24
1821.167262535708
 34
0.0
100
AcDbRotatedDimension
1001
ACAD
1000
DSTYLE
1002
{
1070
    40
1040
1.0
1002
}
  0
LEADER
  5
1277A
330
1A
100
AcDbEntity
  8
SUNPOU
100
AcDbLeader
  3
標準スタイル
 76
     3
 10
-1961.885305305525
 20
1857.728240421615
 30
0.0
 10
-1953.630413338914
 20
1867.069985695878
 30
0.0
 10
-1919.29314302313
 20
1867.069985695878
 30
0.0
1001
ACAD
1000
DSTYLE
1002
{
1070
     5
1000

1070
    77
1070
     0
1070
   147
1040
1.0
1002
}
  0
MTEXT
  5
1277B
330
1A
100
AcDbEntity
  8
SUNPOU
100
AcDbMText
 10
-1953.445597629498
 20
1871.750008699251
 30
0.0
 40
3.5
 41
34.70690244111465
 71
     1
 72
     5
  1
2-φ3.5(取付穴)
  7
ゴシック体
1001
ACAD
1000
MTEXTBEGIN
1070
    73
1070
     1
1070
    44
1040
1.0
1070
    74
1070
     0
1000
MTEXTEND
  0
MTEXT
  5
1277D
330
1A
100
AcDbEntity
  8
SUNPOU
100
AcDbMText
 10
-1910.976426914927
 20
1872.119386823936
 30
0.0
 40
3.5
 41
46.57361034723797
 71
     1
 72
     5
  1
マウンティングフット
  7
ゴシック体
1001
ACAD
1000
MTEXTBEGIN
1070
    73
1070
     1
1070
    44
1040
1.0
1070
    74
1070
     0
1000
MTEXTEND
  0
LEADER
  5
12780
330
1A
100
AcDbEntity
  8
SUNPOU
100
AcDbLeader
  3
標準スタイル
 76
     2
 10
-1898.879907299638
 20
1859.042771651056
 30
0.0
 10
-1895.414930617322
 20
1866.024647766649
 30
0.0
1001
ACAD
1000
DSTYLE
1002
{
1070
     5
1000

1070
    77
1070
     0
1070
   147
1040
1.0
1002
}
  0
MTEXT
  5
1278A
330
1A
100
AcDbEntity
  8
SUNPOU
100
AcDbMText
 10
-1895.059732958221
 20
1805.560551678868
 30
0.0
 40
3.5
 41
69.51139240067786
 71
     1
 72
     5
  1
マウンティングフット取り付け穴\P(M3タップ×2)
  7
ゴシック体
1001
ACAD
1000
MTEXTBEGIN
1070
    73
1070
     1
1070
    44
1040
1.0
1070
    74
1070
     0
1000
MTEXTEND
  0
LEADER
  5
1278D
330
1A
100
AcDbEntity
  8
SUNPOU
100
AcDbLeader
  3
標準スタイル
 76
     3
 10
-1901.100814785769
 20
1837.416862535708
 30
0.0
 10
-1893.381955694249
 20
1837.416859580102
 30
0.0
 10
-1893.381955694249
 20
1807.108835468484
 30
0.0
1001
ACAD
1000
DSTYLE
1002
{
1070
     5
1000

1070
    77
1070
     0
1070
   147
1040
1.0
1002
}
  0
LEADER
  5
1278F
330
1A
100
AcDbEntity
  8
SUNPOU
100
AcDbLeader
  3
標準スタイル
 76
     3
 10
-1840.26018721503
 20
1819.411653268823
 30
0.0
 10
-1833.8259785822
 20
1824.570770611235
 30
0.0
 10
-1822.858351303597
 20
1824.570770611235
 30
0.0
1001
ACAD
1000
DSTYLE
1002
{
1070
     5
1000

1070
    77
1070
     0
1070
   147
1040
1.0
1002
}
  0
MTEXT
  5
12796
330
1A
100
AcDbEntity
  8
SUNPOU
100
AcDbMText
 10
-1832.930547366553
 20
1829.342228952184
 30
0.0
 40
3.5
 41
34.70689999999999
 71
     1
 72
     5
  1
2-M3
  7
ゴシック体
1001
ACAD
1000
MTEXTBEGIN
1070
    73
1070
     1
1070
    44
1040
1.0
1070
    74
1070
     0
1000
MTEXTEND
  0
DIMENSION
  5
127A7
330
1A
100
AcDbEntity
  8
SUNPOU
100
AcDbDimension
  2
*D32
 10
-1908.395464785769
 20
1799.954317521067
 30
0.0
 11
-1918.895459785769
 21
1802.704317521067
 31
0.0
 70
    32
  3
標準スタイル
100
AcDbAlignedDimension
 13
-1929.395454785769
 23
1821.966852535709
 33
0.0
 14
-1908.395464785769
 24
1814.416852535708
 34
0.0
100
AcDbRotatedDimension
1001
ACAD
1000
DSTYLE
1002
{
1070
    40
1040
1.0
1002
}
  0
MTEXT
  5
127C1
330
1A
100
AcDbEntity
  8
SUNPOU
100
AcDbMText
 10
-1853.138851280379
 20
1881.655838339052
 30
0.0
 40
3.5
 41
69.51139999999999
 71
     1
 72
     5
  1
取付穴加工寸法
  7
ゴシック体
1001
ACAD
1000
MTEXTBEGIN
1070
    73
1070
     1
1070
    44
1040
1.0
1070
    74
1070
     0
1000
MTEXTEND
  0
VIEWPORT
  5
5D8F
330
5D8E
100
AcDbEntity
 67
     1
  8
0
100
AcDbViewport
 10
282.6159587049461
 20
440.6870766680848
 30
0.0
 40
764.0801138141015
 41
871.7828958144934
 68
     1
 69
     1
1001
ACAD
1000
MVIEW
1002
{
1070
    16
1010
0.0
1020
0.0
1030
0.0
1010
0.0
1020
0.0
1030
1.0
1040
0.0
1040
871.7828958144934
1040
282.6159587049461
1040
440.6870766680848
1040
50.0
1040
0.0
1040
0.0
1070
     0
1070
   100
1070
     1
1070
     0
1070
     0
1070
     0
1070
     0
1070
     0
1040
0.0
1040
0.0
1040
0.0
1040
1.0
1040
1.0
1040
10.0
1040
10.0
1070
     0
1002
{
1002
}
1002
}
  0
VIEWPORT
  5
6001
330
5D8E
100
AcDbEntity
 67
     1
  8
ZISSEN1
100
AcDbViewport
 10
221.786195552541
 20
157.6960273330388
 30
0.0
 40
385.4999999999997
 41
259.9999999999999
 68
     2
 69
     2
1001
ACAD
1000
MVIEW
1002
{
1070
    16
1010
0.0
1020
0.0
1030
0.0
1010
0.0
1020
0.0
1030
1.0
1040
0.0
1040
259.9999999999999
1040
-1913.045853985058
1040
1838.919119935268
1040
50.0
1040
0.0
1040
0.0
1070
     0
1070
   100
1070
     1
1070
     0
1070
     0
1070
     0
1070
     0
1070
     0
1040
0.0
1040
0.0
1040
0.0
1040
1.0
1040
1.0
1040
10.0
1040
10.0
1070
     0
1002
{
1002
}
1002
}
  0
TEXT
  5
716F
330
5D8E
100
AcDbEntity
 67
     1
  8
SUNPOU
 62
     0
100
AcDbText
 10
374.1863124306942
 20
60.86794705907585
 30
0.0
 40
3.5
  1
縮尺 1/1
  7
ゴシック体
100
AcDbText
  0
ENDSEC
  0
SECTION
  2
OBJECTS
  0
DICTIONARY
  5
C
330
0
100
AcDbDictionary
  3
ACAD_GROUP
350
D
  3
ACAD_LAYOUT
350
5C7D
  3
ACAD_MLINESTYLE
350
E
  3
ACAD_PLOTSETTINGS
350
5C7E
  3
ACAD_PLOTSTYLENAME
350
5C7B
  3
DWGPROPS
350
5E8E
  3
ACDBVARIABLEDICTIONARY
350
127DA
  3
ACDBHEADERROUNDTRIPXREC
350
127E5
  0
DICTIONARY
  5
12805
330
1A
100
AcDbDictionary
280
     1
  3
ACAD_LAYOUTSELFREF
360
12806
  0
DICTIONARY
  5
12807
330
5D8E
100
AcDbDictionary
280
     1
  3
ACAD_LAYOUTSELFREF
360
12808
  0
DICTIONARY
  5
D
102
{ACAD_REACTORS
330
C
102
}
330
C
100
AcDbDictionary
  3
*A1
350
477D
  3
*A2
350
4C16
  3
*A3
350
4C17
  3
*A4
350
477E
  3
*A5
350
477F
  3
*A6
350
4780
  3
*A7
350
4781
  3
*A8
350
4C0E
  3
*A9
350
4C0F
  3
*A10
350
4C10
  3
*A11
350
4C11
  3
*A12
350
4C12
  3
*A13
350
4C13
  3
*A14
350
4C14
  3
*A15
350
4C15
  0
DICTIONARY
  5
5C7D
102
{ACAD_REACTORS
330
C
102
}
330
C
100
AcDbDictionary
  0
DICTIONARY
  5
E
102
{ACAD_REACTORS
330
C
102
}
330
C
100
AcDbDictionary
  3
STANDARD
350
13
  0
DICTIONARY
  5
5C7E
102
{ACAD_REACTORS
330
C
102
}
330
C
100
AcDbDictionary
  0
ACDBDICTIONARYWDFLT
  5
5C7B
102
{ACAD_REACTORS
330
C
102
}
330
C
100
AcDbDictionary
281
     1
  3
Normal
350
5C7C
100
AcDbDictionaryWithDefault
340
5C7C
  0
XRECORD
  5
5E8E
102
{ACAD_REACTORS
330
C
102
}
330
C
100
AcDbXrecord
  1
DWGPROPS COOKIE
  2

  3

  4

  6

  7

  8

  9

300
=
301
=
302
=
303
=
304
=
305
=
306
=
307
=
308
=
309
=
 40
0.586753587962963
 41
2450495.493631364
 42
2453208.662277431
  1

 90
        0
  0
DICTIONARY
  5
127DA
102
{ACAD_REACTORS
330
C
102
}
330
C
100
AcDbDictionary
  3
INDEXCTL
350
127DB
  0
DICTIONARY
  5
127E5
102
{ACAD_REACTORS
330
C
102
}
330
C
100
AcDbDictionary
  3
TSTACKALIGN
350
127E6
  3
TSTACKSIZE
350
127E7
  3
HYPERLINKBASE
350
127E8
  3
STYLESHEET
350
127E9
  3
LAYOUTDICT
350
127EA
  3
PLOTSETDICT
350
127EB
  3
PLOTSTYLNAMDICT
350
127EC
  3
LWETCUNION
350
127ED
  3
INSUNITS
350
127EE
  3
CEPSNTYPE
350
127EF
  3
FINGERPRINTGUID
350
127F0
  3
VERSIONGUID
350
127F1
  3
PSVPSCALE
350
127F2
  3
PUCSORTHOREF
350
127F3
  3
PUCSORTHOVIEW
350
127F4
  3
PUCSBASE
350
127F5
  3
PUCSORGTOP
350
127F6
  3
PUCSORGBOTTOM
350
127F7
  3
PUCSORGLEFT
350
127F8
  3
PUCSORGRIGHT
350
127F9
  3
PUCSORGFRONT
350
127FA
  3
PUCSORGBACK
350
127FB
  3
UCSORTHOREF
350
127FC
  3
UCSORTHOVIEW
350
127FD
  3
UCSBASE
350
127FE
  3
UCSORGTOP
350
127FF
  3
UCSORGBOTTOM
350
12800
  3
UCSORGLEFT
350
12801
  3
UCSORGRIGHT
350
12802
  3
UCSORGFRONT
350
12803
  3
UCSORGBACK
350
12804
  0
XRECORD
  5
12806
102
{ACAD_REACTORS
330
12805
102
}
330
12805
100
AcDbXrecord
340
1A
  0
XRECORD
  5
12808
102
{ACAD_REACTORS
330
12807
102
}
330
12807
100
AcDbXrecord
340
5D8E
  0
GROUP
  5
477D
102
{ACAD_REACTORS
330
D
102
}
330
D
100
AcDbGroup
300

 70
     1
 71
     1
  0
GROUP
  5
4C16
102
{ACAD_REACTORS
330
D
102
}
330
D
100
AcDbGroup
300

 70
     1
 71
     1
  0
GROUP
  5
4C17
102
{ACAD_REACTORS
330
D
102
}
330
D
100
AcDbGroup
300

 70
     1
 71
     1
  0
GROUP
  5
477E
102
{ACAD_REACTORS
330
D
102
}
330
D
100
AcDbGroup
300

 70
     1
 71
     1
  0
GROUP
  5
477F
102
{ACAD_REACTORS
330
D
102
}
330
D
100
AcDbGroup
300

 70
     1
 71
     1
  0
GROUP
  5
4780
102
{ACAD_REACTORS
330
D
102
}
330
D
100
AcDbGroup
300

 70
     1
 71
     1
  0
GROUP
  5
4781
102
{ACAD_REACTORS
330
D
102
}
330
D
100
AcDbGroup
300

 70
     1
 71
     1
  0
GROUP
  5
4C0E
102
{ACAD_REACTORS
330
D
102
}
330
D
100
AcDbGroup
300

 70
     1
 71
     1
  0
GROUP
  5
4C0F
102
{ACAD_REACTORS
330
D
102
}
330
D
100
AcDbGroup
300

 70
     1
 71
     1
  0
GROUP
  5
4C10
102
{ACAD_REACTORS
330
D
102
}
330
D
100
AcDbGroup
300

 70
     1
 71
     1
  0
GROUP
  5
4C11
102
{ACAD_REACTORS
330
D
102
}
330
D
100
AcDbGroup
300

 70
     1
 71
     1
  0
GROUP
  5
4C12
102
{ACAD_REACTORS
330
D
102
}
330
D
100
AcDbGroup
300

 70
     1
 71
     1
  0
GROUP
  5
4C13
102
{ACAD_REACTORS
330
D
102
}
330
D
100
AcDbGroup
300

 70
     1
 71
     1
  0
GROUP
  5
4C14
102
{ACAD_REACTORS
330
D
102
}
330
D
100
AcDbGroup
300

 70
     1
 71
     1
  0
GROUP
  5
4C15
102
{ACAD_REACTORS
330
D
102
}
330
D
100
AcDbGroup
300

 70
     1
 71
     1
  0
MLINESTYLE
  5
13
102
{ACAD_REACTORS
330
E
102
}
330
E
100
AcDbMlineStyle
  2
STANDARD
 70
     0
  3

 62
     0
 51
90.0
 52
90.0
 71
     2
 49
0.5
 62
   256
  6
BYLAYER
 49
-0.5
 62
   256
  6
BYLAYER
  0
ACDBPLACEHOLDER
  5
5C7C
102
{ACAD_REACTORS
330
5C7B
102
}
330
5C7B
100
AcDbPlaceHolder
280
     0
  0
DICTIONARYVAR
  5
127DB
102
{ACAD_REACTORS
330
127DA
102
}
330
127DA
100
DictionaryVariables
280
     0
  1
-1
  0
XRECORD
  5
127E6
102
{ACAD_REACTORS
330
127E5
102
}
330
127E5
100
AcDbXrecord
 90
        1
  0
XRECORD
  5
127E7
102
{ACAD_REACTORS
330
127E5
102
}
330
127E5
100
AcDbXrecord
 90
       70
  0
XRECORD
  5
127E8
102
{ACAD_REACTORS
330
127E5
102
}
330
127E5
100
AcDbXrecord
  1

  0
XRECORD
  5
127E9
102
{ACAD_REACTORS
330
127E5
102
}
330
127E5
100
AcDbXrecord
  1

  0
XRECORD
  5
127EA
102
{ACAD_REACTORS
330
127E5
102
}
330
127E5
100
AcDbXrecord
340
5C7D
  0
XRECORD
  5
127EB
102
{ACAD_REACTORS
330
127E5
102
}
330
127E5
100
AcDbXrecord
340
5C7E
  0
XRECORD
  5
127EC
102
{ACAD_REACTORS
330
127E5
102
}
330
127E5
100
AcDbXrecord
340
5C7B
  0
XRECORD
  5
127ED
102
{ACAD_REACTORS
330
127E5
102
}
330
127E5
100
AcDbXrecord
 90
    10781
  0
XRECORD
  5
127EE
102
{ACAD_REACTORS
330
127E5
102
}
330
127E5
100
AcDbXrecord
 90
        0
  0
XRECORD
  5
127EF
102
{ACAD_REACTORS
330
127E5
102
}
330
127E5
100
AcDbXrecord
 90
        0
  0
XRECORD
  5
127F0
102
{ACAD_REACTORS
330
127E5
102
}
330
127E5
100
AcDbXrecord
  1
{225A7F0D-DA29-11D8-946A-0000E2416295}
  0
XRECORD
  5
127F1
102
{ACAD_REACTORS
330
127E5
102
}
330
127E5
100
AcDbXrecord
  1
{944A9A04-F17B-4A97-A0B3-2E2F1E982B06}
  0
XRECORD
  5
127F2
102
{ACAD_REACTORS
330
127E5
102
}
330
127E5
100
AcDbXrecord
 40
0.0
  0
XRECORD
  5
127F3
102
{ACAD_REACTORS
330
127E5
102
}
330
127E5
100
AcDbXrecord
340
0
  0
XRECORD
  5
127F4
102
{ACAD_REACTORS
330
127E5
102
}
330
127E5
100
AcDbXrecord
 70
     0
  0
XRECORD
  5
127F5
102
{ACAD_REACTORS
330
127E5
102
}
330
127E5
100
AcDbXrecord
340
0
  0
XRECORD
  5
127F6
102
{ACAD_REACTORS
330
127E5
102
}
330
127E5
100
AcDbXrecord
 10
0.0
 20
0.0
 30
0.0
  0
XRECORD
  5
127F7
102
{ACAD_REACTORS
330
127E5
102
}
330
127E5
100
AcDbXrecord
 10
0.0
 20
0.0
 30
0.0
  0
XRECORD
  5
127F8
102
{ACAD_REACTORS
330
127E5
102
}
330
127E5
100
AcDbXrecord
 10
0.0
 20
0.0
 30
0.0
  0
XRECORD
  5
127F9
102
{ACAD_REACTORS
330
127E5
102
}
330
127E5
100
AcDbXrecord
 10
0.0
 20
0.0
 30
0.0
  0
XRECORD
  5
127FA
102
{ACAD_REACTORS
330
127E5
102
}
330
127E5
100
AcDbXrecord
 10
0.0
 20
0.0
 30
0.0
  0
XRECORD
  5
127FB
102
{ACAD_REACTORS
330
127E5
102
}
330
127E5
100
AcDbXrecord
 10
0.0
 20
0.0
 30
0.0
  0
XRECORD
  5
127FC
102
{ACAD_REACTORS
330
127E5
102
}
330
127E5
100
AcDbXrecord
340
0
  0
XRECORD
  5
127FD
102
{ACAD_REACTORS
330
127E5
102
}
330
127E5
100
AcDbXrecord
 70
     0
  0
XRECORD
  5
127FE
102
{ACAD_REACTORS
330
127E5
102
}
330
127E5
100
AcDbXrecord
340
0
  0
XRECORD
  5
127FF
102
{ACAD_REACTORS
330
127E5
102
}
330
127E5
100
AcDbXrecord
 10
0.0
 20
0.0
 30
0.0
  0
XRECORD
  5
12800
102
{ACAD_REACTORS
330
127E5
102
}
330
127E5
100
AcDbXrecord
 10
0.0
 20
0.0
 30
0.0
  0
XRECORD
  5
12801
102
{ACAD_REACTORS
330
127E5
102
}
330
127E5
100
AcDbXrecord
 10
0.0
 20
0.0
 30
0.0
  0
XRECORD
  5
12802
102
{ACAD_REACTORS
330
127E5
102
}
330
127E5
100
AcDbXrecord
 10
0.0
 20
0.0
 30
0.0
  0
XRECORD
  5
12803
102
{ACAD_REACTORS
330
127E5
102
}
330
127E5
100
AcDbXrecord
 10
0.0
 20
0.0
 30
0.0
  0
XRECORD
  5
12804
102
{ACAD_REACTORS
330
127E5
102
}
330
127E5
100
AcDbXrecord
 10
0.0
 20
0.0
 30
0.0
  0
ENDSEC
  0
EOF
