  0
SECTION
  2
HEADER
  9
$ACADVER
  1
AC1014
  9
$ACADMAINTVER
 70
     9
  9
$DWGCODEPAGE
  3
ANSI_932
  9
$INSBASE
 10
0.0
 20
0.0
 30
0.0
  9
$EXTMIN
 10
-1751.295510469098
 20
1677.955419047779
 30
0.0
  9
$EXTMAX
 10
-1515.012857716306
 20
1807.118803058628
 30
0.0
  9
$LIMMIN
 10
0.0
 20
0.0
  9
$LIMMAX
 10
420.0
 20
297.0
  9
$ORTHOMODE
 70
     0
  9
$REGENMODE
 70
     1
  9
$FILLMODE
 70
     1
  9
$QTEXTMODE
 70
     0
  9
$MIRRTEXT
 70
     1
  9
$DRAGMODE
 70
     2
  9
$LTSCALE
 40
1.0
  9
$OSMODE
 70
    37
  9
$ATTMODE
 70
     1
  9
$TEXTSIZE
 40
2.5
  9
$TRACEWID
 40
1.0
  9
$TEXTSTYLE
  7
ゴシック体
  9
$CLAYER
  8
SUNPOU
  9
$CELTYPE
  6
BYLAYER
  9
$CECOLOR
 62
   256
  9
$CELTSCALE
 40
1.0
  9
$DELOBJ
 70
     1
  9
$DISPSILH
 70
     0
  9
$DIMSCALE
 40
0.0
  9
$DIMASZ
 40
3.0
  9
$DIMEXO
 40
0.5
  9
$DIMDLI
 40
0.5
  9
$DIMRND
 40
0.0
  9
$DIMDLE
 40
0.0
  9
$DIMEXE
 40
0.5
  9
$DIMTP
 40
0.0
  9
$DIMTM
 40
0.0
  9
$DIMTXT
 40
3.5
  9
$DIMCEN
 40
0.0
  9
$DIMTSZ
 40
0.0
  9
$DIMTOL
 70
     0
  9
$DIMLIM
 70
     0
  9
$DIMTIH
 70
     0
  9
$DIMTOH
 70
     0
  9
$DIMSE1
 70
     0
  9
$DIMSE2
 70
     0
  9
$DIMTAD
 70
     1
  9
$DIMZIN
 70
     8
  9
$DIMBLK
  1

  9
$DIMASO
 70
     1
  9
$DIMSHO
 70
     1
  9
$DIMPOST
  1

  9
$DIMAPOST
  1

  9
$DIMALT
 70
     0
  9
$DIMALTD
 70
     2
  9
$DIMALTF
 40
25.4
  9
$DIMLFAC
 40
1.0
  9
$DIMTOFL
 70
     1
  9
$DIMTVP
 40
0.0
  9
$DIMTIX
 70
     0
  9
$DIMSOXD
 70
     0
  9
$DIMSAH
 70
     0
  9
$DIMBLK1
  1

  9
$DIMBLK2
  1

  9
$DIMSTYLE
  2
標準スタイル
  9
$DIMCLRD
 70
     1
  9
$DIMCLRE
 70
     1
  9
$DIMCLRT
 70
     1
  9
$DIMTFAC
 40
1.0
  9
$DIMGAP
 40
1.0
  9
$DIMJUST
 70
     0
  9
$DIMSD1
 70
     0
  9
$DIMSD2
 70
     0
  9
$DIMTOLJ
 70
     1
  9
$DIMTZIN
 70
     8
  9
$DIMALTZ
 70
     0
  9
$DIMALTTZ
 70
     0
  9
$DIMFIT
 70
     3
  9
$DIMUPT
 70
     0
  9
$DIMUNIT
 70
     2
  9
$DIMDEC
 70
     2
  9
$DIMTDEC
 70
     2
  9
$DIMALTU
 70
     2
  9
$DIMALTTD
 70
     2
  9
$DIMTXSTY
  7
ゴシック体
  9
$DIMAUNIT
 70
     0
  9
$LUNITS
 70
     2
  9
$LUPREC
 70
     4
  9
$SKETCHINC
 40
1.0
  9
$FILLETRAD
 40
0.0
  9
$AUNITS
 70
     0
  9
$AUPREC
 70
     0
  9
$MENU
  1
.
  9
$ELEVATION
 40
0.0
  9
$PELEVATION
 40
0.0
  9
$THICKNESS
 40
0.0
  9
$LIMCHECK
 70
     0
  9
$BLIPMODE
 70
     0
  9
$CHAMFERA
 40
10.0
  9
$CHAMFERB
 40
10.0
  9
$CHAMFERC
 40
2.0
  9
$CHAMFERD
 40
0.7853981633974483
  9
$SKPOLY
 70
     0
  9
$TDCREATE
 40
2450495.493631365
  9
$TDUPDATE
 40
2453984.421241667
  9
$TDINDWG
 40
1.5206236343
  9
$TDUSRTIMER
 40
1.5206235185
  9
$USRTIMER
 70
     1
  9
$ANGBASE
 50
0.0
  9
$ANGDIR
 70
     0
  9
$PDMODE
 70
    99
  9
$PDSIZE
 40
0.0
  9
$PLINEWID
 40
0.0
  9
$COORDS
 70
     1
  9
$SPLFRAME
 70
     0
  9
$SPLINETYPE
 70
     6
  9
$SPLINESEGS
 70
     8
  9
$ATTDIA
 70
     0
  9
$ATTREQ
 70
     1
  9
$HANDLING
 70
 10241
  9
$HANDSEED
  5
126A9
  9
$SURFTAB1
 70
     6
  9
$SURFTAB2
 70
     6
  9
$SURFTYPE
 70
     6
  9
$SURFU
 70
     6
  9
$SURFV
 70
     6
  9
$UCSNAME
  2

  9
$UCSORG
 10
0.0
 20
0.0
 30
0.0
  9
$UCSXDIR
 10
1.0
 20
0.0
 30
0.0
  9
$UCSYDIR
 10
0.0
 20
1.0
 30
0.0
  9
$PUCSNAME
  2

  9
$PUCSORG
 10
0.0
 20
0.0
 30
0.0
  9
$PUCSXDIR
 10
1.0
 20
0.0
 30
0.0
  9
$PUCSYDIR
 10
0.0
 20
1.0
 30
0.0
  9
$USERI1
 70
     0
  9
$USERI2
 70
     0
  9
$USERI3
 70
     0
  9
$USERI4
 70
     0
  9
$USERI5
 70
     0
  9
$USERR1
 40
0.0
  9
$USERR2
 40
0.0
  9
$USERR3
 40
0.0
  9
$USERR4
 40
0.0
  9
$USERR5
 40
0.0
  9
$WORLDVIEW
 70
     1
  9
$SHADEDGE
 70
     3
  9
$SHADEDIF
 70
    70
  9
$TILEMODE
 70
     1
  9
$MAXACTVP
 70
    16
  9
$PINSBASE
 10
0.0
 20
0.0
 30
0.0
  9
$PLIMCHECK
 70
     0
  9
$PEXTMIN
 10
29.03619555254121
 20
27.69602733303884
 30
0.0
  9
$PEXTMAX
 10
414.5361955525409
 20
287.6960273330388
 30
0.0
  9
$PLIMMIN
 10
15.14082890028157
 20
13.81565218284106
  9
$PLIMMAX
 10
435.0874841737191
 20
310.8263028176066
  9
$UNITMODE
 70
     0
  9
$VISRETAIN
 70
     0
  9
$PLINEGEN
 70
     0
  9
$PSLTSCALE
 70
     1
  9
$TREEDEPTH
 70
  3020
  9
$PICKSTYLE
 70
     1
  9
$CMLSTYLE
  2
STANDARD
  9
$CMLJUST
 70
     0
  9
$CMLSCALE
 40
1.0
  9
$PROXYGRAPHICS
 70
     1
  9
$MEASUREMENT
 70
     1
  0
ENDSEC
  0
SECTION
  2
CLASSES
  0
CLASS
  1
LWPOLYLINE
  2
AcDbPolyline
  3
AutoCAD 2000
 90
        0
280
     0
281
     1
  0
CLASS
  1
HATCH
  2
AcDbHatch
  3
AutoCAD 2000
 90
        0
280
     0
281
     1
  0
CLASS
  1
ACDBDICTIONARYWDFLT
  2
AcDbDictionaryWithDefault
  3
AutoCAD 2000
 90
        0
280
     0
281
     0
  0
CLASS
  1
ACDBPLACEHOLDER
  2
AcDbPlaceHolder
  3
AutoCAD 2000
 90
        0
280
     0
281
     0
  0
CLASS
  1
LAYOUT
  2
AcDbLayout
  3
AutoCAD 2000
 90
        0
280
     0
281
     0
  0
CLASS
  1
DICTIONARYVAR
  2
AcDbDictionaryVar
  3
AutoCAD 2000
 90
        0
280
     0
281
     0
  0
CLASS
  1
LONG_TRANSACTION
  2
AcDbLongTransaction
  3
AutoCAD 2000
 90
        0
280
     0
281
     0
  0
CLASS
  1
LWPOLYLINE
  2
AcDbPolyline
  3
AutoCAD 2000
 90
        0
280
     0
281
     1
  0
CLASS
  1
HATCH
  2
AcDbHatch
  3
AutoCAD 2000
 90
        0
280
     0
281
     1
  0
CLASS
  1
XRECORD
  2
AcDbXrecord
  3
AutoCAD 2000
 90
        0
280
     0
281
     0
  0
ENDSEC
  0
SECTION
  2
TABLES
  0
TABLE
  2
VPORT
  5
8
330
0
100
AcDbSymbolTable
 70
     2
  0
VPORT
  5
12679
330
8
100
AcDbSymbolTableRecord
100
AcDbViewportTableRecord
  2
*ACTIVE
 70
     0
 10
0.0
 20
0.0
 11
1.0
 21
1.0
 12
-1608.495691472123
 22
1740.013950822041
 13
0.0
 23
0.0
 14
5.0
 24
5.0
 15
0.0
 25
0.0
 16
0.0
 26
0.0
 36
1.0
 17
0.0
 27
0.0
 37
0.0
 40
172.2653711627946
 41
2.192560175054704
 42
50.0
 43
0.0
 44
0.0
 50
0.0
 51
0.0
 71
     0
 72
   100
 73
     1
 74
     0
 75
     0
 76
     0
 77
     0
 78
     0
  0
ENDTAB
  0
TABLE
  2
LTYPE
  5
5
330
0
100
AcDbSymbolTable
 70
    13
  0
LTYPE
  5
14
330
5
100
AcDbSymbolTableRecord
100
AcDbLinetypeTableRecord
  2
BYBLOCK
 70
     0
  3

 72
    65
 73
     0
 40
0.0
  0
LTYPE
  5
15
330
5
100
AcDbSymbolTableRecord
100
AcDbLinetypeTableRecord
  2
BYLAYER
 70
     0
  3

 72
    65
 73
     0
 40
0.0
  0
LTYPE
  5
16
330
5
100
AcDbSymbolTableRecord
100
AcDbLinetypeTableRecord
  2
CONTINUOUS
 70
     0
  3
Solid line
 72
    65
 73
     0
 40
0.0
  0
LTYPE
  5
329
330
5
100
AcDbSymbolTableRecord
100
AcDbLinetypeTableRecord
  2
DASHEDX2
 70
     0
  3
____  ____  ____  ____  ____  ____  ____  ____ 
 72
    65
 73
     2
 40
1.5
 49
1.0
 74
     0
 49
-0.5
 74
     0
  0
LTYPE
  5
1956
330
5
100
AcDbSymbolTableRecord
100
AcDbLinetypeTableRecord
  2
CENTERX2
 70
     0
  3
________  __  ________  __  ________  __  _____
 72
    65
 73
     4
 40
4.0
 49
2.5
 74
     0
 49
-0.5
 74
     0
 49
0.5
 74
     0
 49
-0.5
 74
     0
  0
ENDTAB
  0
TABLE
  2
LAYER
  5
2
330
0
100
AcDbSymbolTable
 70
    35
  0
LAYER
  5
F
330
2
100
AcDbSymbolTableRecord
100
AcDbLayerTableRecord
  2
0
 70
     0
 62
     7
  6
CONTINUOUS
  0
LAYER
  5
18F
330
2
100
AcDbSymbolTableRecord
100
AcDbLayerTableRecord
  2
ZISSEN1
 70
     0
 62
     7
  6
CONTINUOUS
  0
LAYER
  5
529
330
2
100
AcDbSymbolTableRecord
100
AcDbLayerTableRecord
  2
SUNPOU
 70
     0
 62
     1
  6
CONTINUOUS
  0
LAYER
  5
1959
330
2
100
AcDbSymbolTableRecord
100
AcDbLayerTableRecord
  2
KAKURESEN1
 70
     0
 62
     3
  6
DASHEDX2
  0
LAYER
  5
195A
330
2
100
AcDbSymbolTableRecord
100
AcDbLayerTableRecord
  2
CL1
 70
     0
 62
   210
  6
CENTERX2
  0
LAYER
  5
3A9B
330
2
100
AcDbSymbolTableRecord
100
AcDbLayerTableRecord
  2
DEFPOINTS
 70
     0
 62
     7
  6
CONTINUOUS
  0
ENDTAB
  0
TABLE
  2
STYLE
  5
3
330
0
100
AcDbSymbolTable
 70
     5
  0
STYLE
  5
10
330
3
100
AcDbSymbolTableRecord
100
AcDbTextStyleTableRecord
  2
STANDARD
 70
     0
 40
0.0
 41
1.0
 50
0.0
 71
     0
 42
3.0
  3
txt
  4
BigFont
  0
STYLE
  5
1960
330
3
100
AcDbSymbolTableRecord
100
AcDbTextStyleTableRecord
  2
ゴシック体
 70
     0
 40
0.0
 41
1.0
 50
0.0
 71
     0
 42
2.5
  3
MS Gothic.ttf
  4

1001
ACAD
1000
MS Gothic
1071
    32817
  0
ENDTAB
  0
TABLE
  2
VIEW
  5
6
330
0
100
AcDbSymbolTable
 70
     0
  0
ENDTAB
  0
TABLE
  2
UCS
  5
7
330
0
100
AcDbSymbolTable
 70
     0
  0
ENDTAB
  0
TABLE
  2
APPID
  5
9
330
0
100
AcDbSymbolTable
 70
     5
  0
APPID
  5
11
330
9
100
AcDbSymbolTableRecord
100
AcDbRegAppTableRecord
  2
ACAD
 70
     0
  0
APPID
  5
4005
330
9
100
AcDbSymbolTableRecord
100
AcDbRegAppTableRecord
  2
CONTENTTABDATA
 70
     0
  0
APPID
  5
4006
330
9
100
AcDbSymbolTableRecord
100
AcDbRegAppTableRecord
  2
CONTENTCURRENTTAB
 70
     0
  0
APPID
  5
477B
330
9
100
AcDbSymbolTableRecord
100
AcDbRegAppTableRecord
  2
CONTENTBLOCKDESCRIPTION
 70
     0
  0
APPID
  5
477C
330
9
100
AcDbSymbolTableRecord
100
AcDbRegAppTableRecord
  2
CONTENTBLOCKICON
 70
     0
  0
ENDTAB
  0
TABLE
  2
DIMSTYLE
  5
A
330
0
100
AcDbSymbolTable
 70
    12
  0
DIMSTYLE
105
1D
330
A
100
AcDbSymbolTableRecord
100
AcDbDimStyleTableRecord
  2
STANDARD
 70
     0
  3

  4

  5

  6

  7

 40
1.0
 41
0.18
 42
0.0625
 43
0.38
 44
0.18
 45
0.0
 46
0.0
 47
0.0
 48
0.0
140
0.18
141
0.09
142
0.0
143
25.4
144
1.0
145
0.0
146
1.0
147
0.09
 71
     0
 72
     0
 73
     1
 74
     1
 75
     0
 76
     0
 77
     0
 78
     0
170
     0
171
     2
172
     0
173
     0
174
     0
175
     0
176
     0
177
     0
178
     0
270
     2
271
     4
272
     4
273
     2
274
     2
340
10
275
     0
280
     0
281
     0
282
     0
283
     1
284
     0
285
     0
286
     0
287
     3
288
     0
  0
DIMSTYLE
105
52E
102
{ACAD_REACTORS
330
123ED
330
123FA
330
12446
330
12462
330
12507
330
12516
330
12523
330
1253B
330
12548
330
12578
330
12585
330
125E4
330
125F1
330
12455
330
1264B
102
}
330
A
100
AcDbSymbolTableRecord
100
AcDbDimStyleTableRecord
  2
標準スタイル
 70
     0
  3

  4

  5

  6

  7

 40
0.0
 41
3.0
 42
0.5
 43
0.5
 44
0.5
 45
0.0
 46
0.0
 47
0.0
 48
0.0
140
3.5
141
0.0
142
0.0
143
25.4
144
1.0
145
0.0
146
1.0
147
1.0
 71
     0
 72
     0
 73
     0
 74
     0
 75
     0
 76
     0
 77
     1
 78
     8
170
     0
171
     2
172
     1
173
     0
174
     0
175
     0
176
     1
177
     1
178
     1
270
     2
271
     2
272
     2
273
     2
274
     2
340
1960
275
     0
280
     0
281
     0
282
     0
283
     1
284
     8
285
     0
286
     0
287
     3
288
     0
  0
ENDTAB
  0
TABLE
  2
BLOCK_RECORD
  5
1
330
0
100
AcDbSymbolTable
 70
    38
  0
BLOCK_RECORD
  5
1A
102
{ACAD_XDICTIONARY
360
1269A
102
}
330
1
100
AcDbSymbolTableRecord
100
AcDbBlockTableRecord
  2
*MODEL_SPACE
  0
BLOCK_RECORD
  5
5D8E
102
{ACAD_XDICTIONARY
360
1269C
102
}
330
1
100
AcDbSymbolTableRecord
100
AcDbBlockTableRecord
  2
*PAPER_SPACE
  0
BLOCK_RECORD
  5
123EE
330
1
100
AcDbSymbolTableRecord
100
AcDbBlockTableRecord
  2
*D23
  0
BLOCK_RECORD
  5
123FB
330
1
100
AcDbSymbolTableRecord
100
AcDbBlockTableRecord
  2
*D24
  0
BLOCK_RECORD
  5
12447
330
1
100
AcDbSymbolTableRecord
100
AcDbBlockTableRecord
  2
*D25
  0
BLOCK_RECORD
  5
12456
330
1
100
AcDbSymbolTableRecord
100
AcDbBlockTableRecord
  2
*D26
  0
BLOCK_RECORD
  5
12463
330
1
100
AcDbSymbolTableRecord
100
AcDbBlockTableRecord
  2
*D27
  0
BLOCK_RECORD
  5
12508
330
1
100
AcDbSymbolTableRecord
100
AcDbBlockTableRecord
  2
*D28
  0
BLOCK_RECORD
  5
12517
330
1
100
AcDbSymbolTableRecord
100
AcDbBlockTableRecord
  2
*D29
  0
BLOCK_RECORD
  5
12524
330
1
100
AcDbSymbolTableRecord
100
AcDbBlockTableRecord
  2
*D30
  0
BLOCK_RECORD
  5
1253C
330
1
100
AcDbSymbolTableRecord
100
AcDbBlockTableRecord
  2
*D31
  0
BLOCK_RECORD
  5
12549
330
1
100
AcDbSymbolTableRecord
100
AcDbBlockTableRecord
  2
*D32
  0
BLOCK_RECORD
  5
12579
330
1
100
AcDbSymbolTableRecord
100
AcDbBlockTableRecord
  2
*D33
  0
BLOCK_RECORD
  5
12586
330
1
100
AcDbSymbolTableRecord
100
AcDbBlockTableRecord
  2
*D34
  0
BLOCK_RECORD
  5
125E5
330
1
100
AcDbSymbolTableRecord
100
AcDbBlockTableRecord
  2
*D35
  0
BLOCK_RECORD
  5
125F2
330
1
100
AcDbSymbolTableRecord
100
AcDbBlockTableRecord
  2
*D36
  0
BLOCK_RECORD
  5
1264C
330
1
100
AcDbSymbolTableRecord
100
AcDbBlockTableRecord
  2
*D37
  0
ENDTAB
  0
ENDSEC
  0
SECTION
  2
BLOCKS
  0
BLOCK
  5
1B
330
1A
100
AcDbEntity
  8
0
100
AcDbBlockBegin
  2
*MODEL_SPACE
 70
     0
 10
0.0
 20
0.0
 30
0.0
  3
*MODEL_SPACE
  1

  0
ENDBLK
  5
1C
330
1A
100
AcDbEntity
  8
0
100
AcDbBlockEnd
  0
BLOCK
  5
5E60
330
5D8E
100
AcDbEntity
 67
     1
  8
0
100
AcDbBlockBegin
  2
*PAPER_SPACE
 70
     0
 10
0.0
 20
0.0
 30
0.0
  3
*PAPER_SPACE
  1

  0
ENDBLK
  5
5E61
330
5D8E
100
AcDbEntity
 67
     1
  8
0
100
AcDbBlockEnd
  0
BLOCK
  5
123F8
330
123EE
100
AcDbEntity
  8
0
100
AcDbBlockBegin
  2
*D23
 70
     1
 10
0.0
 20
0.0
 30
0.0
  3
*D23
  1

  0
LINE
  5
12422
330
123EE
100
AcDbEntity
  8
SUNPOU
 62
     1
100
AcDbLine
 10
-1692.977671858467
 20
1765.3103748258
 30
0.0
 11
-1702.14357115916
 21
1765.3103748258
 31
0.0
  0
LINE
  5
12423
330
123EE
100
AcDbEntity
  8
SUNPOU
 62
     1
100
AcDbLine
 10
-1672.680095099681
 20
1726.310408670822
 30
0.0
 11
-1702.14357115916
 21
1726.310408670822
 31
0.0
  0
LINE
  5
12424
330
123EE
100
AcDbEntity
  8
SUNPOU
 62
     1
100
AcDbLine
 10
-1701.643571159159
 20
1762.310374825799
 30
0.0
 11
-1701.643571159159
 21
1729.310408670822
 31
0.0
  0
SOLID
  5
12425
330
123EE
100
AcDbEntity
  8
SUNPOU
 62
     1
100
AcDbTrace
 10
-1702.14357115916
 20
1762.310374825799
 30
0.0
 11
-1701.14357115916
 21
1762.310374825799
 31
0.0
 12
-1701.643571159159
 22
1765.3103748258
 32
0.0
 13
-1701.643571159159
 23
1765.3103748258
 33
0.0
  0
SOLID
  5
12426
330
123EE
100
AcDbEntity
  8
SUNPOU
 62
     1
100
AcDbTrace
 10
-1702.14357115916
 20
1729.310408670822
 30
0.0
 11
-1701.14357115916
 21
1729.310408670822
 31
0.0
 12
-1701.643571159159
 22
1726.310408670822
 32
0.0
 13
-1701.643571159159
 23
1726.310408670822
 33
0.0
  0
MTEXT
  5
12427
330
123EE
100
AcDbEntity
  8
SUNPOU
 62
     1
100
AcDbMText
 10
-1704.393571159161
 20
1745.81039174831
 30
0.0
 40
3.5
 41
0.0
 71
     5
 72
     1
  1
\A1;39
  7
ゴシック体
 11
0.0000000000000001
 21
1.0
 31
0.0
1001
ACAD
1000
MTEXTBEGIN
1070
    73
1070
     1
1070
    44
1040
1.0
1070
    74
1070
     0
1000
MTEXTEND
  0
POINT
  5
12428
330
123EE
100
AcDbEntity
  8
DEFPOINTS
 62
     0
100
AcDbPoint
 10
-1692.477671858467
 20
1765.3103748258
 30
0.0
  0
POINT
  5
12429
330
123EE
100
AcDbEntity
  8
DEFPOINTS
 62
     0
100
AcDbPoint
 10
-1672.180095099681
 20
1726.310408670822
 30
0.0
  0
POINT
  5
1242A
330
123EE
100
AcDbEntity
  8
DEFPOINTS
 62
     0
100
AcDbPoint
 10
-1701.643571159159
 20
1726.310408670822
 30
0.0
  0
ENDBLK
  5
123F9
330
123EE
100
AcDbEntity
  8
0
100
AcDbBlockEnd
  0
BLOCK
  5
12405
330
123FB
100
AcDbEntity
  8
0
100
AcDbBlockBegin
  2
*D24
 70
     1
 10
0.0
 20
0.0
 30
0.0
  3
*D24
  1

  0
LINE
  5
1243D
330
123FB
100
AcDbEntity
  8
SUNPOU
 62
     1
100
AcDbLine
 10
-1672.680095099681
 20
1726.310408670822
 30
0.0
 11
-1702.14357115916
 21
1726.310408670822
 31
0.0
  0
LINE
  5
1243E
330
123FB
100
AcDbEntity
  8
SUNPOU
 62
     1
100
AcDbLine
 10
-1692.977671858467
 20
1687.310364825798
 30
0.0
 11
-1702.14357115916
 21
1687.310364825798
 31
0.0
  0
LINE
  5
1243F
330
123FB
100
AcDbEntity
  8
SUNPOU
 62
     1
100
AcDbLine
 10
-1701.643571159159
 20
1723.310408670822
 30
0.0
 11
-1701.643571159159
 21
1690.310364825799
 31
0.0
  0
SOLID
  5
12440
330
123FB
100
AcDbEntity
  8
SUNPOU
 62
     1
100
AcDbTrace
 10
-1702.14357115916
 20
1723.310408670822
 30
0.0
 11
-1701.14357115916
 21
1723.310408670822
 31
0.0
 12
-1701.643571159159
 22
1726.310408670822
 32
0.0
 13
-1701.643571159159
 23
1726.310408670822
 33
0.0
  0
SOLID
  5
12441
330
123FB
100
AcDbEntity
  8
SUNPOU
 62
     1
100
AcDbTrace
 10
-1702.14357115916
 20
1690.310364825799
 30
0.0
 11
-1701.14357115916
 21
1690.310364825799
 31
0.0
 12
-1701.643571159159
 22
1687.310364825798
 32
0.0
 13
-1701.643571159159
 23
1687.310364825798
 33
0.0
  0
MTEXT
  5
12442
330
123FB
100
AcDbEntity
  8
SUNPOU
 62
     1
100
AcDbMText
 10
-1704.393571159161
 20
1706.810386748308
 30
0.0
 40
3.5
 41
0.0
 71
     5
 72
     1
  1
\A1;39
  7
ゴシック体
 11
0.0000000000000001
 21
1.0
 31
0.0
1001
ACAD
1000
MTEXTBEGIN
1070
    73
1070
     1
1070
    44
1040
1.0
1070
    74
1070
     0
1000
MTEXTEND
  0
POINT
  5
12443
330
123FB
100
AcDbEntity
  8
DEFPOINTS
 62
     0
100
AcDbPoint
 10
-1672.180095099681
 20
1726.310408670822
 30
0.0
  0
POINT
  5
12444
330
123FB
100
AcDbEntity
  8
DEFPOINTS
 62
     0
100
AcDbPoint
 10
-1692.477671858467
 20
1687.310364825798
 30
0.0
  0
POINT
  5
12445
330
123FB
100
AcDbEntity
  8
DEFPOINTS
 62
     0
100
AcDbPoint
 10
-1701.643571159159
 20
1687.310364825798
 30
0.0
  0
ENDBLK
  5
12406
330
123FB
100
AcDbEntity
  8
0
100
AcDbBlockEnd
  0
BLOCK
  5
12453
330
12447
100
AcDbEntity
  8
0
100
AcDbBlockBegin
  2
*D25
 70
     1
 10
0.0
 20
0.0
 30
0.0
  3
*D25
  1

  0
LINE
  5
12448
330
12447
100
AcDbEntity
  8
SUNPOU
 62
     1
100
AcDbLine
 10
-1693.184780858467
 20
1765.1032648258
 30
0.0
 11
-1693.184780858467
 21
1772.800047705846
 31
0.0
  0
LINE
  5
12449
330
12447
100
AcDbEntity
  8
SUNPOU
 62
     1
100
AcDbLine
 10
-1689.184779858467
 20
1694.8103748258
 30
0.0
 11
-1689.184779858467
 21
1772.800047705846
 31
0.0
  0
LINE
  5
1244A
330
12447
100
AcDbEntity
  8
SUNPOU
 62
     1
100
AcDbLine
 10
-1696.184780858467
 20
1772.300047705845
 30
0.0
 11
-1699.184780858467
 21
1772.300047705845
 31
0.0
  0
LINE
  5
1244B
330
12447
100
AcDbEntity
  8
SUNPOU
 62
     1
100
AcDbLine
 10
-1686.184779858467
 20
1772.300047705845
 30
0.0
 11
-1683.184779858467
 21
1772.300047705845
 31
0.0
  0
LINE
  5
1244C
330
12447
100
AcDbEntity
  8
SUNPOU
 62
     1
100
AcDbLine
 10
-1693.184780858467
 20
1772.300047705845
 30
0.0
 11
-1689.184779858467
 21
1772.300047705845
 31
0.0
  0
SOLID
  5
1244D
330
12447
100
AcDbEntity
  8
SUNPOU
 62
     1
100
AcDbTrace
 10
-1696.184780858467
 20
1772.800047705846
 30
0.0
 11
-1696.184780858467
 21
1771.800047705847
 31
0.0
 12
-1693.184780858467
 22
1772.300047705845
 32
0.0
 13
-1693.184780858467
 23
1772.300047705845
 33
0.0
  0
SOLID
  5
1244E
330
12447
100
AcDbEntity
  8
SUNPOU
 62
     1
100
AcDbTrace
 10
-1686.184779858467
 20
1772.800047705846
 30
0.0
 11
-1686.184779858467
 21
1771.800047705847
 31
0.0
 12
-1689.184779858467
 22
1772.300047705845
 32
0.0
 13
-1689.184779858467
 23
1772.300047705845
 33
0.0
  0
MTEXT
  5
1244F
330
12447
100
AcDbEntity
  8
SUNPOU
 62
     1
100
AcDbMText
 10
-1691.184780358467
 20
1775.050047705847
 30
0.0
 40
3.5
 41
0.0
 71
     5
 72
     1
  1
\A1;4
  7
ゴシック体
1001
ACAD
1000
MTEXTBEGIN
1070
    73
1070
     1
1070
    44
1040
1.0
1070
    74
1070
     0
1000
MTEXTEND
  0
POINT
  5
12450
330
12447
100
AcDbEntity
  8
DEFPOINTS
 62
     0
100
AcDbPoint
 10
-1693.184780858467
 20
1764.6032648258
 30
0.0
  0
POINT
  5
12451
330
12447
100
AcDbEntity
  8
DEFPOINTS
 62
     0
100
AcDbPoint
 10
-1689.184779858467
 20
1694.3103748258
 30
0.0
  0
POINT
  5
12452
330
12447
100
AcDbEntity
  8
DEFPOINTS
 62
     0
100
AcDbPoint
 10
-1689.184779858467
 20
1772.300047705845
 30
0.0
  0
ENDBLK
  5
12454
330
12447
100
AcDbEntity
  8
0
100
AcDbBlockEnd
  0
BLOCK
  5
12460
330
12456
100
AcDbEntity
  8
0
100
AcDbBlockBegin
  2
*D26
 70
     1
 10
0.0
 20
0.0
 30
0.0
  3
*D26
  1

  0
LINE
  5
1269E
330
12456
100
AcDbEntity
  8
SUNPOU
 62
     1
100
AcDbLine
 10
-1689.184779858467
 20
1694.8103748258
 30
0.0
 11
-1689.184779858467
 21
1772.800047705846
 31
0.0
  0
LINE
  5
1269F
330
12456
100
AcDbEntity
  8
SUNPOU
 62
     1
100
AcDbLine
 10
-1667.184783858467
 20
1764.810394825799
 30
0.0
 11
-1667.184783858467
 21
1772.800047705846
 31
0.0
  0
LINE
  5
126A0
330
12456
100
AcDbEntity
  8
SUNPOU
 62
     1
100
AcDbLine
 10
-1686.184779858467
 20
1772.300047705845
 30
0.0
 11
-1670.184783858467
 21
1772.300047705845
 31
0.0
  0
LINE
  5
126A1
330
12456
100
AcDbEntity
  8
SUNPOU
 62
     1
100
AcDbLine
 10
-1678.184781858467
 20
1772.300047705845
 30
0.0
 11
-1694.269511172293
 21
1788.784183680252
 31
0.0
  0
LINE
  5
126A2
330
12456
100
AcDbEntity
  8
SUNPOU
 62
     1
100
AcDbLine
 10
-1694.269511172293
 20
1788.784183680252
 30
0.0
 11
-1733.650221832191
 21
1788.784183680252
 31
0.0
  0
MTEXT
  5
126A3
330
12456
100
AcDbEntity
  8
SUNPOU
 62
     1
100
AcDbMText
 10
-1713.959866502242
 20
1791.836214137104
 30
0.0
 40
3.5
 41
0.0
 71
     5
 72
     1
  1
\A1;22(ﾕｰｻﾞｰ取付寸法)
  7
ゴシック体
  0
SOLID
  5
126A4
330
12456
100
AcDbEntity
  8
SUNPOU
 62
     1
100
AcDbTrace
 10
-1686.184779858467
 20
1772.800047705846
 30
0.0
 11
-1686.184779858467
 21
1771.800047705846
 31
0.0
 12
-1689.184779858467
 22
1772.300047705845
 32
0.0
 13
-1689.184779858467
 23
1772.300047705845
 33
0.0
  0
SOLID
  5
126A5
330
12456
100
AcDbEntity
  8
SUNPOU
 62
     1
100
AcDbTrace
 10
-1670.184783858467
 20
1772.800047705846
 30
0.0
 11
-1670.184783858467
 21
1771.800047705846
 31
0.0
 12
-1667.184783858467
 22
1772.300047705845
 32
0.0
 13
-1667.184783858467
 23
1772.300047705845
 33
0.0
  0
POINT
  5
126A6
330
12456
100
AcDbEntity
  8
DEFPOINTS
 62
     0
100
AcDbPoint
 10
-1689.184779858467
 20
1694.3103748258
 30
0.0
  0
POINT
  5
126A7
330
12456
100
AcDbEntity
  8
DEFPOINTS
 62
     0
100
AcDbPoint
 10
-1667.184783858467
 20
1764.310394825799
 30
0.0
  0
POINT
  5
126A8
330
12456
100
AcDbEntity
  8
DEFPOINTS
 62
     0
100
AcDbPoint
 10
-1667.184783858467
 20
1772.300047705845
 30
0.0
  0
ENDBLK
  5
12461
330
12456
100
AcDbEntity
  8
0
100
AcDbBlockEnd
  0
BLOCK
  5
1246F
330
12463
100
AcDbEntity
  8
0
100
AcDbBlockBegin
  2
*D27
 70
     1
 10
0.0
 20
0.0
 30
0.0
  3
*D27
  1

  0
LINE
  5
12464
330
12463
100
AcDbEntity
  8
SUNPOU
 62
     1
100
AcDbLine
 10
-1667.184783858467
 20
1764.8103948258
 30
0.0
 11
-1667.184783858467
 21
1772.800047705846
 31
0.0
  0
LINE
  5
12465
330
12463
100
AcDbEntity
  8
SUNPOU
 62
     1
100
AcDbLine
 10
-1663.184783858467
 20
1765.1032648258
 30
0.0
 11
-1663.184783858467
 21
1772.800047705846
 31
0.0
  0
LINE
  5
12466
330
12463
100
AcDbEntity
  8
SUNPOU
 62
     1
100
AcDbLine
 10
-1670.184783858467
 20
1772.300047705845
 30
0.0
 11
-1673.184783858467
 21
1772.300047705845
 31
0.0
  0
LINE
  5
12467
330
12463
100
AcDbEntity
  8
SUNPOU
 62
     1
100
AcDbLine
 10
-1660.184783858468
 20
1772.300047705845
 30
0.0
 11
-1657.184783858467
 21
1772.300047705845
 31
0.0
  0
LINE
  5
12468
330
12463
100
AcDbEntity
  8
SUNPOU
 62
     1
100
AcDbLine
 10
-1667.184783858467
 20
1772.300047705845
 30
0.0
 11
-1663.184783858467
 21
1772.300047705845
 31
0.0
  0
SOLID
  5
12469
330
12463
100
AcDbEntity
  8
SUNPOU
 62
     1
100
AcDbTrace
 10
-1670.184783858467
 20
1772.800047705846
 30
0.0
 11
-1670.184783858467
 21
1771.800047705847
 31
0.0
 12
-1667.184783858467
 22
1772.300047705845
 32
0.0
 13
-1667.184783858467
 23
1772.300047705845
 33
0.0
  0
SOLID
  5
1246A
330
12463
100
AcDbEntity
  8
SUNPOU
 62
     1
100
AcDbTrace
 10
-1660.184783858468
 20
1772.800047705846
 30
0.0
 11
-1660.184783858468
 21
1771.800047705847
 31
0.0
 12
-1663.184783858467
 22
1772.300047705845
 32
0.0
 13
-1663.184783858467
 23
1772.300047705845
 33
0.0
  0
MTEXT
  5
1246B
330
12463
100
AcDbEntity
  8
SUNPOU
 62
     1
100
AcDbMText
 10
-1665.184783858467
 20
1775.050047705847
 30
0.0
 40
3.5
 41
0.0
 71
     5
 72
     1
  1
\A1;4
  7
ゴシック体
1001
ACAD
1000
MTEXTBEGIN
1070
    73
1070
     1
1070
    44
1040
1.0
1070
    74
1070
     0
1000
MTEXTEND
  0
POINT
  5
1246C
330
12463
100
AcDbEntity
  8
DEFPOINTS
 62
     0
100
AcDbPoint
 10
-1667.184783858467
 20
1764.310394825799
 30
0.0
  0
POINT
  5
1246D
330
12463
100
AcDbEntity
  8
DEFPOINTS
 62
     0
100
AcDbPoint
 10
-1663.184783858467
 20
1764.6032648258
 30
0.0
  0
POINT
  5
1246E
330
12463
100
AcDbEntity
  8
DEFPOINTS
 62
     0
100
AcDbPoint
 10
-1663.184783858467
 20
1772.300047705845
 30
0.0
  0
ENDBLK
  5
12470
330
12463
100
AcDbEntity
  8
0
100
AcDbBlockEnd
  0
BLOCK
  5
12514
330
12508
100
AcDbEntity
  8
0
100
AcDbBlockBegin
  2
*D28
 70
     1
 10
0.0
 20
0.0
 30
0.0
  3
*D28
  1

  0
LINE
  5
12509
330
12508
100
AcDbEntity
  8
SUNPOU
 62
     1
100
AcDbLine
 10
-1663.391893858467
 20
1765.3103748258
 30
0.0
 11
-1653.700710461289
 21
1765.3103748258
 31
0.0
  0
LINE
  5
1250A
330
12508
100
AcDbEntity
  8
SUNPOU
 62
     1
100
AcDbLine
 10
-1663.684793858467
 20
1761.3103848258
 30
0.0
 11
-1653.700710461289
 21
1761.3103848258
 31
0.0
  0
LINE
  5
1250B
330
12508
100
AcDbEntity
  8
SUNPOU
 62
     1
100
AcDbLine
 10
-1654.200710461289
 20
1768.3103748258
 30
0.0
 11
-1654.200710461289
 21
1771.3103748258
 31
0.0
  0
LINE
  5
1250C
330
12508
100
AcDbEntity
  8
SUNPOU
 62
     1
100
AcDbLine
 10
-1654.200710461289
 20
1758.310384825799
 30
0.0
 11
-1654.200710461289
 21
1755.3103848258
 31
0.0
  0
LINE
  5
1250D
330
12508
100
AcDbEntity
  8
SUNPOU
 62
     1
100
AcDbLine
 10
-1654.200710461289
 20
1765.3103748258
 30
0.0
 11
-1654.200710461289
 21
1761.3103848258
 31
0.0
  0
SOLID
  5
1250E
330
12508
100
AcDbEntity
  8
SUNPOU
 62
     1
100
AcDbTrace
 10
-1654.700710461289
 20
1768.3103748258
 30
0.0
 11
-1653.700710461289
 21
1768.3103748258
 31
0.0
 12
-1654.200710461289
 22
1765.3103748258
 32
0.0
 13
-1654.200710461289
 23
1765.3103748258
 33
0.0
  0
SOLID
  5
1250F
330
12508
100
AcDbEntity
  8
SUNPOU
 62
     1
100
AcDbTrace
 10
-1654.700710461289
 20
1758.310384825799
 30
0.0
 11
-1653.700710461289
 21
1758.310384825799
 31
0.0
 12
-1654.200710461289
 22
1761.3103848258
 32
0.0
 13
-1654.200710461289
 23
1761.3103848258
 33
0.0
  0
MTEXT
  5
12510
330
12508
100
AcDbEntity
  8
SUNPOU
 62
     1
100
AcDbMText
 10
-1656.950710461289
 20
1763.310379825798
 30
0.0
 40
3.5
 41
0.0
 71
     5
 72
     1
  1
\A1;4
  7
ゴシック体
 11
0.0000000000000001
 21
1.0
 31
0.0
1001
ACAD
1000
MTEXTBEGIN
1070
    73
1070
     1
1070
    44
1040
1.0
1070
    74
1070
     0
1000
MTEXTEND
  0
POINT
  5
12511
330
12508
100
AcDbEntity
  8
DEFPOINTS
 62
     0
100
AcDbPoint
 10
-1663.891893858465
 20
1765.3103748258
 30
0.0
  0
POINT
  5
12512
330
12508
100
AcDbEntity
  8
DEFPOINTS
 62
     0
100
AcDbPoint
 10
-1664.184793858467
 20
1761.3103848258
 30
0.0
  0
POINT
  5
12513
330
12508
100
AcDbEntity
  8
DEFPOINTS
 62
     0
100
AcDbPoint
 10
-1654.200710461289
 20
1761.3103848258
 30
0.0
  0
ENDBLK
  5
12515
330
12508
100
AcDbEntity
  8
0
100
AcDbBlockEnd
  0
BLOCK
  5
12521
330
12517
100
AcDbEntity
  8
0
100
AcDbBlockBegin
  2
*D29
 70
     1
 10
0.0
 20
0.0
 30
0.0
  3
*D29
  1

  0
LINE
  5
12532
330
12517
100
AcDbEntity
  8
SUNPOU
 62
     1
100
AcDbLine
 10
-1663.684793858467
 20
1761.3103848258
 30
0.0
 11
-1653.700710461289
 21
1761.3103848258
 31
0.0
  0
LINE
  5
12533
330
12517
100
AcDbEntity
  8
SUNPOU
 62
     1
100
AcDbLine
 10
-1685.684783858467
 20
1691.3103748258
 30
0.0
 11
-1653.700710461289
 21
1691.3103748258
 31
0.0
  0
LINE
  5
12534
330
12517
100
AcDbEntity
  8
SUNPOU
 62
     1
100
AcDbLine
 10
-1654.200710461289
 20
1758.310384825799
 30
0.0
 11
-1654.200710461289
 21
1694.3103748258
 31
0.0
  0
SOLID
  5
12535
330
12517
100
AcDbEntity
  8
SUNPOU
 62
     1
100
AcDbTrace
 10
-1654.700710461289
 20
1758.310384825799
 30
0.0
 11
-1653.700710461289
 21
1758.310384825799
 31
0.0
 12
-1654.200710461289
 22
1761.3103848258
 32
0.0
 13
-1654.200710461289
 23
1761.3103848258
 33
0.0
  0
SOLID
  5
12536
330
12517
100
AcDbEntity
  8
SUNPOU
 62
     1
100
AcDbTrace
 10
-1654.700710461289
 20
1694.3103748258
 30
0.0
 11
-1653.700710461289
 21
1694.3103748258
 31
0.0
 12
-1654.200710461289
 22
1691.3103748258
 32
0.0
 13
-1654.200710461289
 23
1691.3103748258
 33
0.0
  0
MTEXT
  5
12537
330
12517
100
AcDbEntity
  8
SUNPOU
 62
     1
100
AcDbMText
 10
-1657.252740918143
 20
1726.310379825799
 30
0.0
 40
3.5
 41
0.0
 71
     5
 72
     1
  1
\A1;70(ﾕｰｻﾞ-取付寸法)
  7
ゴシック体
 11
0.0000000000000001
 21
1.0
 31
0.0
1001
ACAD
1000
MTEXTBEGIN
1070
    73
1070
     1
1070
    44
1040
1.0
1070
    74
1070
     0
1000
MTEXTEND
  0
POINT
  5
12538
330
12517
100
AcDbEntity
  8
DEFPOINTS
 62
     0
100
AcDbPoint
 10
-1664.184793858467
 20
1761.3103848258
 30
0.0
  0
POINT
  5
12539
330
12517
100
AcDbEntity
  8
DEFPOINTS
 62
     0
100
AcDbPoint
 10
-1686.184783858467
 20
1691.3103748258
 30
0.0
  0
POINT
  5
1253A
330
12517
100
AcDbEntity
  8
DEFPOINTS
 62
     0
100
AcDbPoint
 10
-1654.200710461289
 20
1691.3103748258
 30
0.0
  0
ENDBLK
  5
12522
330
12517
100
AcDbEntity
  8
0
100
AcDbBlockEnd
  0
BLOCK
  5
12530
330
12524
100
AcDbEntity
  8
0
100
AcDbBlockBegin
  2
*D30
 70
     1
 10
0.0
 20
0.0
 30
0.0
  3
*D30
  1

  0
LINE
  5
12525
330
12524
100
AcDbEntity
  8
SUNPOU
 62
     1
100
AcDbLine
 10
-1685.684783858467
 20
1691.3103748258
 30
0.0
 11
-1653.700710461289
 21
1691.3103748258
 31
0.0
  0
LINE
  5
12526
330
12524
100
AcDbEntity
  8
SUNPOU
 62
     1
100
AcDbLine
 10
-1663.391893858467
 20
1687.310364825798
 30
0.0
 11
-1653.700710461289
 21
1687.310364825798
 31
0.0
  0
LINE
  5
12527
330
12524
100
AcDbEntity
  8
SUNPOU
 62
     1
100
AcDbLine
 10
-1654.200710461289
 20
1694.3103748258
 30
0.0
 11
-1654.200710461289
 21
1697.3103748258
 31
0.0
  0
LINE
  5
12528
330
12524
100
AcDbEntity
  8
SUNPOU
 62
     1
100
AcDbLine
 10
-1654.200710461289
 20
1684.3103648258
 30
0.0
 11
-1654.200710461289
 21
1681.3103648258
 31
0.0
  0
LINE
  5
12529
330
12524
100
AcDbEntity
  8
SUNPOU
 62
     1
100
AcDbLine
 10
-1654.200710461289
 20
1691.3103748258
 30
0.0
 11
-1654.200710461289
 21
1687.310364825798
 31
0.0
  0
SOLID
  5
1252A
330
12524
100
AcDbEntity
  8
SUNPOU
 62
     1
100
AcDbTrace
 10
-1654.700710461289
 20
1694.3103748258
 30
0.0
 11
-1653.700710461289
 21
1694.3103748258
 31
0.0
 12
-1654.200710461289
 22
1691.3103748258
 32
0.0
 13
-1654.200710461289
 23
1691.3103748258
 33
0.0
  0
SOLID
  5
1252B
330
12524
100
AcDbEntity
  8
SUNPOU
 62
     1
100
AcDbTrace
 10
-1654.700710461289
 20
1684.3103648258
 30
0.0
 11
-1653.700710461289
 21
1684.3103648258
 31
0.0
 12
-1654.200710461289
 22
1687.310364825798
 32
0.0
 13
-1654.200710461289
 23
1687.310364825798
 33
0.0
  0
MTEXT
  5
1252C
330
12524
100
AcDbEntity
  8
SUNPOU
 62
     1
100
AcDbMText
 10
-1656.950710461289
 20
1689.310369825799
 30
0.0
 40
3.5
 41
0.0
 71
     5
 72
     1
  1
\A1;4
  7
ゴシック体
 11
0.0000000000000001
 21
1.0
 31
0.0
1001
ACAD
1000
MTEXTBEGIN
1070
    73
1070
     1
1070
    44
1040
1.0
1070
    74
1070
     0
1000
MTEXTEND
  0
POINT
  5
1252D
330
12524
100
AcDbEntity
  8
DEFPOINTS
 62
     0
100
AcDbPoint
 10
-1686.184783858467
 20
1691.3103748258
 30
0.0
  0
POINT
  5
1252E
330
12524
100
AcDbEntity
  8
DEFPOINTS
 62
     0
100
AcDbPoint
 10
-1663.891893858465
 20
1687.310364825798
 30
0.0
  0
POINT
  5
1252F
330
12524
100
AcDbEntity
  8
DEFPOINTS
 62
     0
100
AcDbPoint
 10
-1654.200710461289
 20
1687.310364825798
 30
0.0
  0
ENDBLK
  5
12531
330
12524
100
AcDbEntity
  8
0
100
AcDbBlockEnd
  0
BLOCK
  5
12546
330
1253C
100
AcDbEntity
  8
0
100
AcDbBlockBegin
  2
*D31
 70
     1
 10
0.0
 20
0.0
 30
0.0
  3
*D31
  1

  0
LINE
  5
1253D
330
1253C
100
AcDbEntity
  8
SUNPOU
 62
     1
100
AcDbLine
 10
-1663.391893858467
 20
1765.3103748258
 30
0.0
 11
-1644.304297968934
 21
1765.3103748258
 31
0.0
  0
LINE
  5
1253E
330
1253C
100
AcDbEntity
  8
SUNPOU
 62
     1
100
AcDbLine
 10
-1663.391893858467
 20
1687.310364825798
 30
0.0
 11
-1644.304297968934
 21
1687.310364825798
 31
0.0
  0
LINE
  5
1253F
330
1253C
100
AcDbEntity
  8
SUNPOU
 62
     1
100
AcDbLine
 10
-1644.804297968934
 20
1762.310374825799
 30
0.0
 11
-1644.804297968934
 21
1690.310364825799
 31
0.0
  0
SOLID
  5
12540
330
1253C
100
AcDbEntity
  8
SUNPOU
 62
     1
100
AcDbTrace
 10
-1645.304297968935
 20
1762.310374825799
 30
0.0
 11
-1644.304297968934
 21
1762.310374825799
 31
0.0
 12
-1644.804297968934
 22
1765.3103748258
 32
0.0
 13
-1644.804297968934
 23
1765.3103748258
 33
0.0
  0
SOLID
  5
12541
330
1253C
100
AcDbEntity
  8
SUNPOU
 62
     1
100
AcDbTrace
 10
-1645.304297968935
 20
1690.310364825799
 30
0.0
 11
-1644.304297968934
 21
1690.310364825799
 31
0.0
 12
-1644.804297968934
 22
1687.310364825798
 32
0.0
 13
-1644.804297968934
 23
1687.310364825798
 33
0.0
  0
MTEXT
  5
12542
330
1253C
100
AcDbEntity
  8
SUNPOU
 62
     1
100
AcDbMText
 10
-1647.554297968937
 20
1726.310369825799
 30
0.0
 40
3.5
 41
0.0
 71
     5
 72
     1
  1
\A1;78
  7
ゴシック体
 11
0.0000000000000001
 21
1.0
 31
0.0
1001
ACAD
1000
MTEXTBEGIN
1070
    73
1070
     1
1070
    44
1040
1.0
1070
    74
1070
     0
1000
MTEXTEND
  0
POINT
  5
12543
330
1253C
100
AcDbEntity
  8
DEFPOINTS
 62
     0
100
AcDbPoint
 10
-1663.891893858465
 20
1765.3103748258
 30
0.0
  0
POINT
  5
12544
330
1253C
100
AcDbEntity
  8
DEFPOINTS
 62
     0
100
AcDbPoint
 10
-1663.891893858465
 20
1687.310364825798
 30
0.0
  0
POINT
  5
12545
330
1253C
100
AcDbEntity
  8
DEFPOINTS
 62
     0
100
AcDbPoint
 10
-1644.804297968934
 20
1687.310364825798
 30
0.0
  0
ENDBLK
  5
12547
330
1253C
100
AcDbEntity
  8
0
100
AcDbBlockEnd
  0
BLOCK
  5
12555
330
12549
100
AcDbEntity
  8
0
100
AcDbBlockBegin
  2
*D32
 70
     1
 10
0.0
 20
0.0
 30
0.0
  3
*D32
  1

  0
LINE
  5
125D9
330
12549
100
AcDbEntity
  8
SUNPOU
 62
     1
100
AcDbLine
 10
-1693.184780858467
 20
1687.517474825799
 30
0.0
 11
-1693.184780858467
 21
1677.955419047779
 31
0.0
  0
LINE
  5
125DA
330
12549
100
AcDbEntity
  8
SUNPOU
 62
     1
100
AcDbLine
 10
-1688.180095099681
 20
1721.810408670822
 30
0.0
 11
-1688.180095099681
 21
1677.955419047779
 31
0.0
  0
LINE
  5
125DB
330
12549
100
AcDbEntity
  8
SUNPOU
 62
     1
100
AcDbLine
 10
-1696.184780858467
 20
1678.45541904778
 30
0.0
 11
-1699.184780858467
 21
1678.45541904778
 31
0.0
  0
LINE
  5
125DC
330
12549
100
AcDbEntity
  8
SUNPOU
 62
     1
100
AcDbLine
 10
-1685.180095099681
 20
1678.45541904778
 30
0.0
 11
-1682.18009509968
 21
1678.45541904778
 31
0.0
  0
LINE
  5
125DD
330
12549
100
AcDbEntity
  8
SUNPOU
 62
     1
100
AcDbLine
 10
-1693.184780858467
 20
1678.45541904778
 30
0.0
 11
-1688.180095099681
 21
1678.45541904778
 31
0.0
  0
SOLID
  5
125DE
330
12549
100
AcDbEntity
  8
SUNPOU
 62
     1
100
AcDbTrace
 10
-1696.184780858467
 20
1678.955419047778
 30
0.0
 11
-1696.184780858467
 21
1677.955419047779
 31
0.0
 12
-1693.184780858467
 22
1678.45541904778
 32
0.0
 13
-1693.184780858467
 23
1678.45541904778
 33
0.0
  0
SOLID
  5
125DF
330
12549
100
AcDbEntity
  8
SUNPOU
 62
     1
100
AcDbTrace
 10
-1685.180095099681
 20
1678.955419047778
 30
0.0
 11
-1685.180095099681
 21
1677.955419047779
 31
0.0
 12
-1688.180095099681
 22
1678.45541904778
 32
0.0
 13
-1688.180095099681
 23
1678.45541904778
 33
0.0
  0
MTEXT
  5
125E0
330
12549
100
AcDbEntity
  8
SUNPOU
 62
     1
100
AcDbMText
 10
-1690.682437979074
 20
1681.205419047778
 30
0.0
 40
3.5
 41
0.0
 71
     5
 72
     1
  1
\A1;5
  7
ゴシック体
1001
ACAD
1000
MTEXTBEGIN
1070
    73
1070
     1
1070
    44
1040
1.0
1070
    74
1070
     0
1000
MTEXTEND
  0
POINT
  5
125E1
330
12549
100
AcDbEntity
  8
DEFPOINTS
 62
     0
100
AcDbPoint
 10
-1693.184780858467
 20
1688.0174748258
 30
0.0
  0
POINT
  5
125E2
330
12549
100
AcDbEntity
  8
DEFPOINTS
 62
     0
100
AcDbPoint
 10
-1688.180095099681
 20
1722.310408670822
 30
0.0
  0
POINT
  5
125E3
330
12549
100
AcDbEntity
  8
DEFPOINTS
 62
     0
100
AcDbPoint
 10
-1688.180095099681
 20
1678.45541904778
 30
0.0
  0
ENDBLK
  5
12556
330
12549
100
AcDbEntity
  8
0
100
AcDbBlockEnd
  0
BLOCK
  5
12583
330
12579
100
AcDbEntity
  8
0
100
AcDbBlockBegin
  2
*D33
 70
     1
 10
0.0
 20
0.0
 30
0.0
  3
*D33
  1

  0
LINE
  5
125C5
330
12579
100
AcDbEntity
  8
SUNPOU
 62
     1
100
AcDbLine
 10
-1688.180095099681
 20
1721.810408670822
 30
0.0
 11
-1688.180095099681
 21
1677.955419047779
 31
0.0
  0
LINE
  5
125C6
330
12579
100
AcDbEntity
  8
SUNPOU
 62
     1
100
AcDbLine
 10
-1668.180095099681
 20
1721.810408670822
 30
0.0
 11
-1668.180095099681
 21
1677.955419047779
 31
0.0
  0
LINE
  5
125C7
330
12579
100
AcDbEntity
  8
SUNPOU
 62
     1
100
AcDbLine
 10
-1685.180095099681
 20
1678.45541904778
 30
0.0
 11
-1671.180095099681
 21
1678.45541904778
 31
0.0
  0
SOLID
  5
125C8
330
12579
100
AcDbEntity
  8
SUNPOU
 62
     1
100
AcDbTrace
 10
-1685.180095099681
 20
1678.955419047778
 30
0.0
 11
-1685.180095099681
 21
1677.955419047779
 31
0.0
 12
-1688.180095099681
 22
1678.45541904778
 32
0.0
 13
-1688.180095099681
 23
1678.45541904778
 33
0.0
  0
SOLID
  5
125C9
330
12579
100
AcDbEntity
  8
SUNPOU
 62
     1
100
AcDbTrace
 10
-1671.180095099681
 20
1678.955419047778
 30
0.0
 11
-1671.180095099681
 21
1677.955419047779
 31
0.0
 12
-1668.180095099681
 22
1678.45541904778
 32
0.0
 13
-1668.180095099681
 23
1678.45541904778
 33
0.0
  0
MTEXT
  5
125CA
330
12579
100
AcDbEntity
  8
SUNPOU
 62
     1
100
AcDbMText
 10
-1678.180095099681
 20
1681.205419047778
 30
0.0
 40
3.5
 41
0.0
 71
     5
 72
     1
  1
\A1;20
  7
ゴシック体
1001
ACAD
1000
MTEXTBEGIN
1070
    73
1070
     1
1070
    44
1040
1.0
1070
    74
1070
     0
1000
MTEXTEND
  0
POINT
  5
125CB
330
12579
100
AcDbEntity
  8
DEFPOINTS
 62
     0
100
AcDbPoint
 10
-1688.180095099681
 20
1722.310408670822
 30
0.0
  0
POINT
  5
125CC
330
12579
100
AcDbEntity
  8
DEFPOINTS
 62
     0
100
AcDbPoint
 10
-1668.180095099681
 20
1722.310408670822
 30
0.0
  0
POINT
  5
125CD
330
12579
100
AcDbEntity
  8
DEFPOINTS
 62
     0
100
AcDbPoint
 10
-1668.180095099681
 20
1678.45541904778
 30
0.0
  0
ENDBLK
  5
12584
330
12579
100
AcDbEntity
  8
0
100
AcDbBlockEnd
  0
BLOCK
  5
12592
330
12586
100
AcDbEntity
  8
0
100
AcDbBlockBegin
  2
*D34
 70
     1
 10
0.0
 20
0.0
 30
0.0
  3
*D34
  1

  0
LINE
  5
125CE
330
12586
100
AcDbEntity
  8
SUNPOU
 62
     1
100
AcDbLine
 10
-1668.180095099681
 20
1721.810408670822
 30
0.0
 11
-1668.180095099681
 21
1677.955419047779
 31
0.0
  0
LINE
  5
125CF
330
12586
100
AcDbEntity
  8
SUNPOU
 62
     1
100
AcDbLine
 10
-1663.184783858467
 20
1687.517474825799
 30
0.0
 11
-1663.184783858467
 21
1677.955419047779
 31
0.0
  0
LINE
  5
125D0
330
12586
100
AcDbEntity
  8
SUNPOU
 62
     1
100
AcDbLine
 10
-1671.180095099681
 20
1678.45541904778
 30
0.0
 11
-1674.180095099681
 21
1678.45541904778
 31
0.0
  0
LINE
  5
125D1
330
12586
100
AcDbEntity
  8
SUNPOU
 62
     1
100
AcDbLine
 10
-1660.184783858468
 20
1678.45541904778
 30
0.0
 11
-1657.184783858467
 21
1678.45541904778
 31
0.0
  0
LINE
  5
125D2
330
12586
100
AcDbEntity
  8
SUNPOU
 62
     1
100
AcDbLine
 10
-1668.180095099681
 20
1678.45541904778
 30
0.0
 11
-1663.184783858467
 21
1678.45541904778
 31
0.0
  0
SOLID
  5
125D3
330
12586
100
AcDbEntity
  8
SUNPOU
 62
     1
100
AcDbTrace
 10
-1671.180095099681
 20
1678.955419047778
 30
0.0
 11
-1671.180095099681
 21
1677.955419047779
 31
0.0
 12
-1668.180095099681
 22
1678.45541904778
 32
0.0
 13
-1668.180095099681
 23
1678.45541904778
 33
0.0
  0
SOLID
  5
125D4
330
12586
100
AcDbEntity
  8
SUNPOU
 62
     1
100
AcDbTrace
 10
-1660.184783858468
 20
1678.955419047778
 30
0.0
 11
-1660.184783858468
 21
1677.955419047779
 31
0.0
 12
-1663.184783858467
 22
1678.45541904778
 32
0.0
 13
-1663.184783858467
 23
1678.45541904778
 33
0.0
  0
MTEXT
  5
125D5
330
12586
100
AcDbEntity
  8
SUNPOU
 62
     1
100
AcDbMText
 10
-1665.682439479073
 20
1681.205419047778
 30
0.0
 40
3.5
 41
0.0
 71
     5
 72
     1
  1
\A1;5
  7
ゴシック体
1001
ACAD
1000
MTEXTBEGIN
1070
    73
1070
     1
1070
    44
1040
1.0
1070
    74
1070
     0
1000
MTEXTEND
  0
POINT
  5
125D6
330
12586
100
AcDbEntity
  8
DEFPOINTS
 62
     0
100
AcDbPoint
 10
-1668.180095099681
 20
1722.310408670822
 30
0.0
  0
POINT
  5
125D7
330
12586
100
AcDbEntity
  8
DEFPOINTS
 62
     0
100
AcDbPoint
 10
-1663.184783858467
 20
1688.0174748258
 30
0.0
  0
POINT
  5
125D8
330
12586
100
AcDbEntity
  8
DEFPOINTS
 62
     0
100
AcDbPoint
 10
-1663.184783858467
 20
1678.45541904778
 30
0.0
  0
ENDBLK
  5
12593
330
12586
100
AcDbEntity
  8
0
100
AcDbBlockEnd
  0
BLOCK
  5
125EF
330
125E5
100
AcDbEntity
  8
0
100
AcDbBlockBegin
  2
*D35
 70
     1
 10
0.0
 20
0.0
 30
0.0
  3
*D35
  1

  0
LINE
  5
125E6
330
125E5
100
AcDbEntity
  8
SUNPOU
 62
     1
100
AcDbLine
 10
-1597.190183858467
 20
1686.8103648258
 30
0.0
 11
-1597.190183858467
 21
1677.955419047779
 31
0.0
  0
LINE
  5
125E7
330
125E5
100
AcDbEntity
  8
SUNPOU
 62
     1
100
AcDbLine
 10
-1588.590193858467
 20
1686.8103648258
 30
0.0
 11
-1588.590193858467
 21
1677.955419047779
 31
0.0
  0
LINE
  5
125E8
330
125E5
100
AcDbEntity
  8
SUNPOU
 62
     1
100
AcDbLine
 10
-1594.190183858467
 20
1678.45541904778
 30
0.0
 11
-1591.590193858467
 21
1678.45541904778
 31
0.0
  0
SOLID
  5
125E9
330
125E5
100
AcDbEntity
  8
SUNPOU
 62
     1
100
AcDbTrace
 10
-1594.190183858467
 20
1678.955419047778
 30
0.0
 11
-1594.190183858467
 21
1677.955419047779
 31
0.0
 12
-1597.190183858467
 22
1678.45541904778
 32
0.0
 13
-1597.190183858467
 23
1678.45541904778
 33
0.0
  0
SOLID
  5
125EA
330
125E5
100
AcDbEntity
  8
SUNPOU
 62
     1
100
AcDbTrace
 10
-1591.590193858467
 20
1678.955419047778
 30
0.0
 11
-1591.590193858467
 21
1677.955419047779
 31
0.0
 12
-1588.590193858467
 22
1678.45541904778
 32
0.0
 13
-1588.590193858467
 23
1678.45541904778
 33
0.0
  0
MTEXT
  5
125EB
330
125E5
100
AcDbEntity
  8
SUNPOU
 62
     1
100
AcDbMText
 10
-1592.890188858467
 20
1681.205419047778
 30
0.0
 40
3.5
 41
0.0
 71
     5
 72
     1
  1
\A1;8.6
  7
ゴシック体
1001
ACAD
1000
MTEXTBEGIN
1070
    73
1070
     1
1070
    44
1040
1.0
1070
    74
1070
     0
1000
MTEXTEND
  0
POINT
  5
125EC
330
125E5
100
AcDbEntity
  8
DEFPOINTS
 62
     0
100
AcDbPoint
 10
-1597.190183858467
 20
1687.310364825798
 30
0.0
  0
POINT
  5
125ED
330
125E5
100
AcDbEntity
  8
DEFPOINTS
 62
     0
100
AcDbPoint
 10
-1588.590193858467
 20
1687.310364825798
 30
0.0
  0
POINT
  5
125EE
330
125E5
100
AcDbEntity
  8
DEFPOINTS
 62
     0
100
AcDbPoint
 10
-1588.590193858467
 20
1678.45541904778
 30
0.0
  0
ENDBLK
  5
125F0
330
125E5
100
AcDbEntity
  8
0
100
AcDbBlockEnd
  0
BLOCK
  5
125FC
330
125F2
100
AcDbEntity
  8
0
100
AcDbBlockBegin
  2
*D36
 70
     1
 10
0.0
 20
0.0
 30
0.0
  3
*D36
  1

  0
LINE
  5
125FE
330
125F2
100
AcDbEntity
  8
SUNPOU
 62
     1
100
AcDbLine
 10
-1612.190183858467
 20
1765.7403448258
 30
0.0
 11
-1612.190183858467
 21
1772.800047705846
 31
0.0
  0
LINE
  5
125FF
330
125F2
100
AcDbEntity
  8
SUNPOU
 62
     1
100
AcDbLine
 10
-1588.590193858467
 20
1765.8103748258
 30
0.0
 11
-1588.590193858467
 21
1772.800047705846
 31
0.0
  0
LINE
  5
12600
330
125F2
100
AcDbEntity
  8
SUNPOU
 62
     1
100
AcDbLine
 10
-1609.190183858467
 20
1772.300047705845
 30
0.0
 11
-1591.590193858467
 21
1772.300047705845
 31
0.0
  0
SOLID
  5
12601
330
125F2
100
AcDbEntity
  8
SUNPOU
 62
     1
100
AcDbTrace
 10
-1609.190183858467
 20
1772.800047705846
 30
0.0
 11
-1609.190183858467
 21
1771.800047705847
 31
0.0
 12
-1612.190183858467
 22
1772.300047705845
 32
0.0
 13
-1612.190183858467
 23
1772.300047705845
 33
0.0
  0
SOLID
  5
12602
330
125F2
100
AcDbEntity
  8
SUNPOU
 62
     1
100
AcDbTrace
 10
-1591.590193858467
 20
1772.800047705846
 30
0.0
 11
-1591.590193858467
 21
1771.800047705847
 31
0.0
 12
-1588.590193858467
 22
1772.300047705845
 32
0.0
 13
-1588.590193858467
 23
1772.300047705845
 33
0.0
  0
MTEXT
  5
12603
330
125F2
100
AcDbEntity
  8
SUNPOU
 62
     1
100
AcDbMText
 10
-1600.390188858467
 20
1775.343194913969
 30
0.0
 40
3.5
 41
0.0
 71
     5
 72
     1
  1
\A1;23.6(MAX)
  7
ゴシック体
1001
ACAD
1000
MTEXTBEGIN
1070
    73
1070
     1
1070
    44
1040
1.0
1070
    74
1070
     0
1000
MTEXTEND
  0
POINT
  5
12604
330
125F2
100
AcDbEntity
  8
DEFPOINTS
 62
     0
100
AcDbPoint
 10
-1612.190183858467
 20
1765.2403448258
 30
0.0
  0
POINT
  5
12605
330
125F2
100
AcDbEntity
  8
DEFPOINTS
 62
     0
100
AcDbPoint
 10
-1588.590193858467
 20
1765.3103748258
 30
0.0
  0
POINT
  5
12606
330
125F2
100
AcDbEntity
  8
DEFPOINTS
 62
     0
100
AcDbPoint
 10
-1588.590193858467
 20
1772.300047705845
 30
0.0
  0
ENDBLK
  5
125FD
330
125F2
100
AcDbEntity
  8
0
100
AcDbBlockEnd
  0
BLOCK
  5
12656
330
1264C
100
AcDbEntity
  8
0
100
AcDbBlockBegin
  2
*D37
 70
     1
 10
0.0
 20
0.0
 30
0.0
  3
*D37
  1

  0
LINE
  5
1264D
330
1264C
100
AcDbEntity
  8
SUNPOU
 62
     1
100
AcDbLine
 10
-1693.184780858467
 20
1765.8103748258
 30
0.0
 11
-1693.184780858467
 21
1782.39889666871
 31
0.0
  0
LINE
  5
1264E
330
1264C
100
AcDbEntity
  8
SUNPOU
 62
     1
100
AcDbLine
 10
-1663.184783858467
 20
1765.8103748258
 30
0.0
 11
-1663.184783858467
 21
1782.39889666871
 31
0.0
  0
LINE
  5
1264F
330
1264C
100
AcDbEntity
  8
SUNPOU
 62
     1
100
AcDbLine
 10
-1690.184780858467
 20
1781.89889666871
 30
0.0
 11
-1666.184783858467
 21
1781.89889666871
 31
0.0
  0
SOLID
  5
12650
330
1264C
100
AcDbEntity
  8
SUNPOU
 62
     1
100
AcDbTrace
 10
-1690.184780858467
 20
1782.39889666871
 30
0.0
 11
-1690.184780858467
 21
1781.39889666871
 31
0.0
 12
-1693.184780858467
 22
1781.89889666871
 32
0.0
 13
-1693.184780858467
 23
1781.89889666871
 33
0.0
  0
SOLID
  5
12651
330
1264C
100
AcDbEntity
  8
SUNPOU
 62
     1
100
AcDbTrace
 10
-1666.184783858467
 20
1782.39889666871
 30
0.0
 11
-1666.184783858467
 21
1781.39889666871
 31
0.0
 12
-1663.184783858467
 22
1781.89889666871
 32
0.0
 13
-1663.184783858467
 23
1781.89889666871
 33
0.0
  0
MTEXT
  5
12652
330
1264C
100
AcDbEntity
  8
SUNPOU
 62
     1
100
AcDbMText
 10
-1678.184782358467
 20
1784.64889666871
 30
0.0
 40
3.5
 41
0.0
 71
     5
 72
     1
  1
\A1;30
  7
ゴシック体
1001
ACAD
1000
MTEXTBEGIN
1070
    73
1070
     1
1070
    44
1040
1.0
1070
    74
1070
     0
1000
MTEXTEND
  0
POINT
  5
12653
330
1264C
100
AcDbEntity
  8
DEFPOINTS
 62
     0
100
AcDbPoint
 10
-1693.184780858467
 20
1765.3103748258
 30
0.0
  0
POINT
  5
12654
330
1264C
100
AcDbEntity
  8
DEFPOINTS
 62
     0
100
AcDbPoint
 10
-1663.184783858467
 20
1765.3103748258
 30
0.0
  0
POINT
  5
12655
330
1264C
100
AcDbEntity
  8
DEFPOINTS
 62
     0
100
AcDbPoint
 10
-1663.184783858467
 20
1781.89889666871
 30
0.0
  0
ENDBLK
  5
12657
330
1264C
100
AcDbEntity
  8
0
100
AcDbBlockEnd
  0
ENDSEC
  0
SECTION
  2
ENTITIES
  0
MTEXT
  5
5084
330
1A
100
AcDbEntity
  8
0
100
AcDbMText
 10
1985.239088685434
 20
-948.5420423450428
 30
0.0
 40
8.0
 41
0.0
 71
     7
 72
     5
  1

1001
ACAD
1000
MTEXTBEGIN
1070
    73
1070
     1
1070
    44
1040
1.0
1070
    74
1070
     0
1000
MTEXTEND
  0
MTEXT
  5
5085
330
1A
100
AcDbEntity
  8
0
100
AcDbMText
 10
4270.596778580329
 20
22.24825240601647
 30
0.0
 40
8.0
 41
0.0
 71
     7
 72
     5
  1

1001
ACAD
1000
MTEXTBEGIN
1070
    73
1070
     1
1070
    44
1040
1.0
1070
    74
1070
     0
1000
MTEXTEND
  0
MTEXT
  5
5343
330
1A
100
AcDbEntity
  8
SUNPOU
100
AcDbMText
 10
6936.493799262471
 20
9534.359644781137
 30
0.0
 40
10.5
 41
0.0
 71
     1
 72
     5
  1

1001
ACAD
1000
MTEXTBEGIN
1070
    73
1070
     1
1070
    44
1040
1.0
1070
    74
1070
     0
1000
MTEXTEND
  0
MTEXT
  5
544F
330
1A
100
AcDbEntity
  8
0
100
AcDbMText
 10
16317.2832773148
 20
12833.35428897674
 30
0.0
 40
8.0
 41
0.0
 71
     7
 72
     5
  1

1001
ACAD
1000
MTEXTBEGIN
1070
    73
1070
     1
1070
    44
1040
1.0
1070
    74
1070
     0
1000
MTEXTEND
  0
MTEXT
  5
5450
330
1A
100
AcDbEntity
  8
0
100
AcDbMText
 10
18602.64096720968
 20
13804.1445837278
 30
0.0
 40
8.0
 41
0.0
 71
     7
 72
     5
  1

1001
ACAD
1000
MTEXTBEGIN
1070
    73
1070
     1
1070
    44
1040
1.0
1070
    74
1070
     0
1000
MTEXTEND
  0
MTEXT
  5
5451
330
1A
100
AcDbEntity
  8
SUNPOU
100
AcDbMText
 10
21268.53798789184
 20
23316.25597610292
 30
0.0
 40
10.5
 41
0.0
 71
     1
 72
     5
  1

1001
ACAD
1000
MTEXTBEGIN
1070
    73
1070
     1
1070
    44
1040
1.0
1070
    74
1070
     0
1000
MTEXTEND
  0
MTEXT
  5
5452
330
1A
100
AcDbEntity
  8
SUNPOU
100
AcDbMText
 10
13337.6147919559
 20
22369.46284218996
 30
0.0
 40
10.5
 41
0.0
 71
     7
 72
     5
  1

1001
ACAD
1000
MTEXTBEGIN
1070
    73
1070
     1
1070
    44
1040
1.0
1070
    74
1070
     0
1000
MTEXTEND
  0
MTEXT
  5
5453
330
1A
100
AcDbEntity
  8
SUNPOU
100
AcDbMText
 10
16286.59845646867
 20
27270.13891403279
 30
0.0
 40
10.5
 41
0.0
 71
     7
 72
     5
  1

1001
ACAD
1000
MTEXTBEGIN
1070
    73
1070
     1
1070
    44
1040
1.0
1070
    74
1070
     0
1000
MTEXTEND
  0
MTEXT
  5
5454
330
1A
100
AcDbEntity
  8
SUNPOU
100
AcDbMText
 10
20795.67658441924
 20
29706.43966165288
 30
0.0
 40
10.5
 41
0.0
 71
     7
 72
     5
  1

1001
ACAD
1000
MTEXTBEGIN
1070
    73
1070
     1
1070
    44
1040
1.0
1070
    74
1070
     0
1000
MTEXTEND
  0
MTEXT
  5
5455
330
1A
100
AcDbEntity
  8
0
100
AcDbMText
 10
16611.93789220313
 20
14707.52144344448
 30
0.0
 40
8.0
 41
0.0
 71
     7
 72
     5
  1

1001
ACAD
1000
MTEXTBEGIN
1070
    73
1070
     1
1070
    44
1040
1.0
1070
    74
1070
     0
1000
MTEXTEND
  0
MTEXT
  5
5456
330
1A
100
AcDbEntity
  8
0
100
AcDbMText
 10
18897.29558209803
 20
15678.31173819554
 30
0.0
 40
8.0
 41
0.0
 71
     7
 72
     5
  1

1001
ACAD
1000
MTEXTBEGIN
1070
    73
1070
     1
1070
    44
1040
1.0
1070
    74
1070
     0
1000
MTEXTEND
  0
MTEXT
  5
5457
330
1A
100
AcDbEntity
  8
SUNPOU
100
AcDbMText
 10
21563.19260278019
 20
25190.42313057066
 30
0.0
 40
10.5
 41
0.0
 71
     1
 72
     5
  1

1001
ACAD
1000
MTEXTBEGIN
1070
    73
1070
     1
1070
    44
1040
1.0
1070
    74
1070
     0
1000
MTEXTEND
  0
MTEXT
  5
5458
330
1A
100
AcDbEntity
  8
SUNPOU
100
AcDbMText
 10
13632.26940684425
 20
24243.6299966577
 30
0.0
 40
10.5
 41
0.0
 71
     7
 72
     5
  1

1001
ACAD
1000
MTEXTBEGIN
1070
    73
1070
     1
1070
    44
1040
1.0
1070
    74
1070
     0
1000
MTEXTEND
  0
MTEXT
  5
5459
330
1A
100
AcDbEntity
  8
SUNPOU
100
AcDbMText
 10
16581.25307135702
 20
29144.30606850055
 30
0.0
 40
10.5
 41
0.0
 71
     7
 72
     5
  1

1001
ACAD
1000
MTEXTBEGIN
1070
    73
1070
     1
1070
    44
1040
1.0
1070
    74
1070
     0
1000
MTEXTEND
  0
MTEXT
  5
545A
330
1A
100
AcDbEntity
  8
SUNPOU
100
AcDbMText
 10
21090.33119930759
 20
31580.60681612062
 30
0.0
 40
10.5
 41
0.0
 71
     7
 72
     5
  1

1001
ACAD
1000
MTEXTBEGIN
1070
    73
1070
     1
1070
    44
1040
1.0
1070
    74
1070
     0
1000
MTEXTEND
  0
MTEXT
  5
545B
330
1A
100
AcDbEntity
  8
0
100
AcDbMText
 10
22871.60517627166
 20
23974.88367124799
 30
0.0
 40
8.0
 41
0.0
 71
     7
 72
     5
  1

1001
ACAD
1000
MTEXTBEGIN
1070
    73
1070
     1
1070
    44
1040
1.0
1070
    74
1070
     0
1000
MTEXTEND
  0
MTEXT
  5
545C
330
1A
100
AcDbEntity
  8
0
100
AcDbMText
 10
25156.96286616655
 20
24945.67396599904
 30
0.0
 40
8.0
 41
0.0
 71
     7
 72
     5
  1

1001
ACAD
1000
MTEXTBEGIN
1070
    73
1070
     1
1070
    44
1040
1.0
1070
    74
1070
     0
1000
MTEXTEND
  0
MTEXT
  5
545D
330
1A
100
AcDbEntity
  8
SUNPOU
100
AcDbMText
 10
27822.85988684871
 20
34457.78535837418
 30
0.0
 40
10.5
 41
0.0
 71
     1
 72
     5
  1

1001
ACAD
1000
MTEXTBEGIN
1070
    73
1070
     1
1070
    44
1040
1.0
1070
    74
1070
     0
1000
MTEXTEND
  0
MTEXT
  5
545E
330
1A
100
AcDbEntity
  8
SUNPOU
100
AcDbMText
 10
19891.93669091278
 20
33510.99222446122
 30
0.0
 40
10.5
 41
0.0
 71
     7
 72
     5
  1

1001
ACAD
1000
MTEXTBEGIN
1070
    73
1070
     1
1070
    44
1040
1.0
1070
    74
1070
     0
1000
MTEXTEND
  0
MTEXT
  5
545F
330
1A
100
AcDbEntity
  8
SUNPOU
100
AcDbMText
 10
22840.92035542555
 20
38411.66829630406
 30
0.0
 40
10.5
 41
0.0
 71
     7
 72
     5
  1

1001
ACAD
1000
MTEXTBEGIN
1070
    73
1070
     1
1070
    44
1040
1.0
1070
    74
1070
     0
1000
MTEXTEND
  0
MTEXT
  5
5460
330
1A
100
AcDbEntity
  8
SUNPOU
100
AcDbMText
 10
27349.99848337611
 20
40847.96904392415
 30
0.0
 40
10.5
 41
0.0
 71
     7
 72
     5
  1

1001
ACAD
1000
MTEXTBEGIN
1070
    73
1070
     1
1070
    44
1040
1.0
1070
    74
1070
     0
1000
MTEXTEND
  0
MTEXT
  5
55B7
330
1A
100
AcDbEntity
  8
SUNPOU
100
AcDbMText
 10
67424.23923338197
 20
64463.86602884816
 30
0.0
 40
10.5
 41
0.0
 71
     9
 72
     5
  1

1001
ACAD
1000
MTEXTBEGIN
1070
    73
1070
     1
1070
    44
1040
1.0
1070
    74
1070
     0
1000
MTEXTEND
  0
MTEXT
  5
55B8
330
1A
100
AcDbEntity
  8
SUNPOU
100
AcDbMText
 10
76146.40679929998
 20
71879.70056038563
 30
0.0
 40
10.5
 41
0.0
 71
     9
 72
     5
  1

1001
ACAD
1000
MTEXTBEGIN
1070
    73
1070
     1
1070
    44
1040
1.0
1070
    74
1070
     0
1000
MTEXTEND
  0
MTEXT
  5
55B9
330
1A
100
AcDbEntity
  8
SUNPOU
100
AcDbMText
 10
95100.16551662994
 20
89346.27661287766
 30
0.0
 40
10.5
 41
0.0
 71
     9
 72
     5
  1

1001
ACAD
1000
MTEXTBEGIN
1070
    73
1070
     1
1070
    44
1040
1.0
1070
    74
1070
     0
1000
MTEXTEND
  0
MTEXT
  5
55BA
330
1A
100
AcDbEntity
  8
SUNPOU
100
AcDbMText
 10
97043.57276333935
 20
87545.22753299966
 30
0.0
 40
3.5
 41
0.0
 71
     9
 72
     5
  1

1001
ACAD
1000
MTEXTBEGIN
1070
    73
1070
     1
1070
    44
1040
1.0
1070
    74
1070
     0
1000
MTEXTEND
  0
MTEXT
  5
55BB
330
1A
100
AcDbEntity
  8
SUNPOU
100
AcDbMText
 10
128169.7525959589
 20
130040.1732006569
 30
0.0
 40
10.5
 41
0.0
 71
     9
 72
     5
  1

1001
ACAD
1000
MTEXTBEGIN
1070
    73
1070
     1
1070
    44
1040
1.0
1070
    74
1070
     0
1000
MTEXTEND
  0
MTEXT
  5
55BC
330
1A
100
AcDbEntity
  8
SUNPOU
100
AcDbMText
 10
130113.1598426684
 20
128239.1241207789
 30
0.0
 40
3.5
 41
0.0
 71
     9
 72
     5
  1

1001
ACAD
1000
MTEXTBEGIN
1070
    73
1070
     1
1070
    44
1040
1.0
1070
    74
1070
     0
1000
MTEXTEND
  0
MTEXT
  5
55BD
330
1A
100
AcDbEntity
  8
SUNPOU
100
AcDbMText
 10
78610.02030175463
 20
75873.33835563206
 30
0.0
 40
10.5
 41
0.0
 71
     9
 72
     5
  1

1001
ACAD
1000
MTEXTBEGIN
1070
    73
1070
     1
1070
    44
1040
1.0
1070
    74
1070
     0
1000
MTEXTEND
  0
MTEXT
  5
55BE
330
1A
100
AcDbEntity
  8
SUNPOU
100
AcDbMText
 10
64662.02020137862
 20
56700.93921651987
 30
0.0
 40
3.5
 41
0.0
 71
     7
 72
     5
  1

1001
ACAD
1000
MTEXTBEGIN
1070
    73
1070
     1
1070
    44
1040
1.0
1070
    74
1070
     0
1000
MTEXTEND
  0
MTEXT
  5
55BF
330
1A
100
AcDbEntity
  8
SUNPOU
100
AcDbMText
 10
45647.18959837176
 20
44463.08794733806
 30
0.0
 40
10.5
 41
0.0
 71
     7
 72
     5
  1

1001
ACAD
1000
MTEXTBEGIN
1070
    73
1070
     1
1070
    44
1040
1.0
1070
    74
1070
     0
1000
MTEXTEND
  0
MTEXT
  5
55C0
330
1A
100
AcDbEntity
  8
SUNPOU
100
AcDbMText
 10
33189.96133342368
 20
28618.15636923965
 30
0.0
 40
35.0
 41
0.0
 71
     9
 72
     5
  1

1001
ACAD
1000
MTEXTBEGIN
1070
    73
1070
     1
1070
    44
1040
1.0
1070
    74
1070
     0
1000
MTEXTEND
  0
MTEXT
  5
55C1
330
1A
100
AcDbEntity
  8
SUNPOU
100
AcDbMText
 10
32098.44639099864
 20
29226.93177928834
 30
0.0
 40
350.0000004171781
 41
0.0
 71
     7
 72
     5
  1

1001
ACAD
1000
MTEXTBEGIN
1070
    73
1070
     1
1070
    44
1040
1.0
1070
    74
1070
     0
1000
MTEXTEND
  0
MTEXT
  5
55C2
330
1A
100
AcDbEntity
  8
0
100
AcDbMText
 10
38142.39714894154
 20
27206.85414142458
 30
0.0
 40
8.0
 41
0.0
 71
     7
 72
     5
  1

1001
ACAD
1000
MTEXTBEGIN
1070
    73
1070
     1
1070
    44
1040
1.0
1070
    74
1070
     0
1000
MTEXTEND
  0
MTEXT
  5
55C3
330
1A
100
AcDbEntity
  8
0
100
AcDbMText
 10
40427.75483883644
 20
28177.64443617564
 30
0.0
 40
8.0
 41
0.0
 71
     7
 72
     5
  1

1001
ACAD
1000
MTEXTBEGIN
1070
    73
1070
     1
1070
    44
1040
1.0
1070
    74
1070
     0
1000
MTEXTEND
  0
MTEXT
  5
55C4
330
1A
100
AcDbEntity
  8
SUNPOU
100
AcDbMText
 10
43093.65185951858
 20
37689.75582855077
 30
0.0
 40
10.5
 41
0.0
 71
     1
 72
     5
  1

1001
ACAD
1000
MTEXTBEGIN
1070
    73
1070
     1
1070
    44
1040
1.0
1070
    74
1070
     0
1000
MTEXTEND
  0
MTEXT
  5
55C5
330
1A
100
AcDbEntity
  8
SUNPOU
100
AcDbMText
 10
35162.72866358265
 20
36742.96269463781
 30
0.0
 40
10.5
 41
0.0
 71
     7
 72
     5
  1

1001
ACAD
1000
MTEXTBEGIN
1070
    73
1070
     1
1070
    44
1040
1.0
1070
    74
1070
     0
1000
MTEXTEND
  0
MTEXT
  5
55C6
330
1A
100
AcDbEntity
  8
SUNPOU
100
AcDbMText
 10
38111.71232809542
 20
41643.63876648065
 30
0.0
 40
10.5
 41
0.0
 71
     7
 72
     5
  1

1001
ACAD
1000
MTEXTBEGIN
1070
    73
1070
     1
1070
    44
1040
1.0
1070
    74
1070
     0
1000
MTEXTEND
  0
MTEXT
  5
55C7
330
1A
100
AcDbEntity
  8
SUNPOU
100
AcDbMText
 10
42620.79045604596
 20
44079.93951410074
 30
0.0
 40
10.5
 41
0.0
 71
     7
 72
     5
  1

1001
ACAD
1000
MTEXTBEGIN
1070
    73
1070
     1
1070
    44
1040
1.0
1070
    74
1070
     0
1000
MTEXTEND
  0
MTEXT
  5
55C8
330
1A
100
AcDbEntity
  8
SUNPOU
100
AcDbMText
 10
26221.62834281429
 20
23077.53566448964
 30
0.0
 40
10.5
 41
0.0
 71
     7
 72
     5
  1

1001
ACAD
1000
MTEXTBEGIN
1070
    73
1070
     1
1070
    44
1040
1.0
1070
    74
1070
     0
1000
MTEXTEND
  0
MTEXT
  5
55C9
330
1A
100
AcDbEntity
  8
SUNPOU
100
AcDbMText
 10
77413.14677671455
 20
68750.51622813789
 30
0.0
 40
10.5
 41
0.0
 71
     9
 72
     5
  1

1001
ACAD
1000
MTEXTBEGIN
1070
    73
1070
     1
1070
    44
1040
1.0
1070
    74
1070
     0
1000
MTEXTEND
  0
MTEXT
  5
55CA
330
1A
100
AcDbEntity
  8
SUNPOU
100
AcDbMText
 10
86135.31434263256
 20
76166.35075967536
 30
0.0
 40
10.5
 41
0.0
 71
     9
 72
     5
  1

1001
ACAD
1000
MTEXTBEGIN
1070
    73
1070
     1
1070
    44
1040
1.0
1070
    74
1070
     0
1000
MTEXTEND
  0
MTEXT
  5
55CB
330
1A
100
AcDbEntity
  8
SUNPOU
100
AcDbMText
 10
105089.0730599624
 20
93632.92681216739
 30
0.0
 40
10.5
 41
0.0
 71
     9
 72
     5
  1

1001
ACAD
1000
MTEXTBEGIN
1070
    73
1070
     1
1070
    44
1040
1.0
1070
    74
1070
     0
1000
MTEXTEND
  0
MTEXT
  5
55CC
330
1A
100
AcDbEntity
  8
SUNPOU
100
AcDbMText
 10
107032.4803066718
 20
91831.87773228937
 30
0.0
 40
3.5
 41
0.0
 71
     9
 72
     5
  1

1001
ACAD
1000
MTEXTBEGIN
1070
    73
1070
     1
1070
    44
1040
1.0
1070
    74
1070
     0
1000
MTEXTEND
  0
MTEXT
  5
55CD
330
1A
100
AcDbEntity
  8
SUNPOU
100
AcDbMText
 10
138158.6601392916
 20
134326.8233999467
 30
0.0
 40
10.5
 41
0.0
 71
     9
 72
     5
  1

1001
ACAD
1000
MTEXTBEGIN
1070
    73
1070
     1
1070
    44
1040
1.0
1070
    74
1070
     0
1000
MTEXTEND
  0
MTEXT
  5
55CE
330
1A
100
AcDbEntity
  8
SUNPOU
100
AcDbMText
 10
140102.067386001
 20
132525.7743200686
 30
0.0
 40
3.5
 41
0.0
 71
     9
 72
     5
  1

1001
ACAD
1000
MTEXTBEGIN
1070
    73
1070
     1
1070
    44
1040
1.0
1070
    74
1070
     0
1000
MTEXTEND
  0
MTEXT
  5
55CF
330
1A
100
AcDbEntity
  8
SUNPOU
100
AcDbMText
 10
88598.92784508721
 20
80159.98855492179
 30
0.0
 40
10.5
 41
0.0
 71
     9
 72
     5
  1

1001
ACAD
1000
MTEXTBEGIN
1070
    73
1070
     1
1070
    44
1040
1.0
1070
    74
1070
     0
1000
MTEXTEND
  0
MTEXT
  5
55D0
330
1A
100
AcDbEntity
  8
SUNPOU
100
AcDbMText
 10
74650.92774471121
 20
60987.58941580959
 30
0.0
 40
3.5
 41
0.0
 71
     7
 72
     5
  1

1001
ACAD
1000
MTEXTBEGIN
1070
    73
1070
     1
1070
    44
1040
1.0
1070
    74
1070
     0
1000
MTEXTEND
  0
MTEXT
  5
55D1
330
1A
100
AcDbEntity
  8
SUNPOU
100
AcDbMText
 10
55636.09714170436
 20
48749.73814662781
 30
0.0
 40
10.5
 41
0.0
 71
     7
 72
     5
  1

1001
ACAD
1000
MTEXTBEGIN
1070
    73
1070
     1
1070
    44
1040
1.0
1070
    74
1070
     0
1000
MTEXTEND
  0
MTEXT
  5
55D2
330
1A
100
AcDbEntity
  8
SUNPOU
100
AcDbMText
 10
43178.86887675626
 20
32904.80656852937
 30
0.0
 40
35.0
 41
0.0
 71
     9
 72
     5
  1

1001
ACAD
1000
MTEXTBEGIN
1070
    73
1070
     1
1070
    44
1040
1.0
1070
    74
1070
     0
1000
MTEXTEND
  0
MTEXT
  5
55D3
330
1A
100
AcDbEntity
  8
SUNPOU
100
AcDbMText
 10
42087.3539343312
 20
33513.58197857808
 30
0.0
 40
350.0000004171781
 41
0.0
 71
     7
 72
     5
  1

1001
ACAD
1000
MTEXTBEGIN
1070
    73
1070
     1
1070
    44
1040
1.0
1070
    74
1070
     0
1000
MTEXTEND
  0
MTEXT
  5
55D4
330
1A
100
AcDbEntity
  8
0
100
AcDbMText
 10
48131.30469227412
 20
31493.50434071431
 30
0.0
 40
8.0
 41
0.0
 71
     7
 72
     5
  1

1001
ACAD
1000
MTEXTBEGIN
1070
    73
1070
     1
1070
    44
1040
1.0
1070
    74
1070
     0
1000
MTEXTEND
  0
MTEXT
  5
55D5
330
1A
100
AcDbEntity
  8
0
100
AcDbMText
 10
50416.66238216901
 20
32464.29463546537
 30
0.0
 40
8.0
 41
0.0
 71
     7
 72
     5
  1

1001
ACAD
1000
MTEXTBEGIN
1070
    73
1070
     1
1070
    44
1040
1.0
1070
    74
1070
     0
1000
MTEXTEND
  0
MTEXT
  5
55D6
330
1A
100
AcDbEntity
  8
SUNPOU
100
AcDbMText
 10
53082.55940285115
 20
41976.4060278405
 30
0.0
 40
10.5
 41
0.0
 71
     1
 72
     5
  1

1001
ACAD
1000
MTEXTBEGIN
1070
    73
1070
     1
1070
    44
1040
1.0
1070
    74
1070
     0
1000
MTEXTEND
  0
MTEXT
  5
55D7
330
1A
100
AcDbEntity
  8
SUNPOU
100
AcDbMText
 10
45151.63620691521
 20
41029.61289392755
 30
0.0
 40
10.5
 41
0.0
 71
     7
 72
     5
  1

1001
ACAD
1000
MTEXTBEGIN
1070
    73
1070
     1
1070
    44
1040
1.0
1070
    74
1070
     0
1000
MTEXTEND
  0
MTEXT
  5
55D8
330
1A
100
AcDbEntity
  8
SUNPOU
100
AcDbMText
 10
48100.61987142798
 20
45930.28896577039
 30
0.0
 40
10.5
 41
0.0
 71
     7
 72
     5
  1

1001
ACAD
1000
MTEXTBEGIN
1070
    73
1070
     1
1070
    44
1040
1.0
1070
    74
1070
     0
1000
MTEXTEND
  0
MTEXT
  5
55D9
330
1A
100
AcDbEntity
  8
SUNPOU
100
AcDbMText
 10
52609.69799937853
 20
48366.58971339046
 30
0.0
 40
10.5
 41
0.0
 71
     7
 72
     5
  1

1001
ACAD
1000
MTEXTBEGIN
1070
    73
1070
     1
1070
    44
1040
1.0
1070
    74
1070
     0
1000
MTEXTEND
  0
MTEXT
  5
55DA
330
1A
100
AcDbEntity
  8
SUNPOU
100
AcDbMText
 10
36210.53588614687
 20
27364.18586377937
 30
0.0
 40
10.5
 41
0.0
 71
     7
 72
     5
  1

1001
ACAD
1000
MTEXTBEGIN
1070
    73
1070
     1
1070
    44
1040
1.0
1070
    74
1070
     0
1000
MTEXTEND
  0
MTEXT
  5
55DB
330
1A
100
AcDbEntity
  8
SUNPOU
100
AcDbMText
 10
38021.29879752181
 20
33691.59985125794
 30
0.0
 40
10.5
 41
0.0
 71
     9
 72
     5
  1

1001
ACAD
1000
MTEXTBEGIN
1070
    73
1070
     1
1070
    44
1040
1.0
1070
    74
1070
     0
1000
MTEXTEND
  0
MTEXT
  5
55DC
330
1A
100
AcDbEntity
  8
SUNPOU
100
AcDbMText
 10
46743.46636343979
 20
41107.4343827954
 30
0.0
 40
10.5
 41
0.0
 71
     9
 72
     5
  1

1001
ACAD
1000
MTEXTBEGIN
1070
    73
1070
     1
1070
    44
1040
1.0
1070
    74
1070
     0
1000
MTEXTEND
  0
MTEXT
  5
55DD
330
1A
100
AcDbEntity
  8
SUNPOU
100
AcDbMText
 10
65697.22508076974
 20
58574.01043528746
 30
0.0
 40
10.5
 41
0.0
 71
     9
 72
     5
  1

1001
ACAD
1000
MTEXTBEGIN
1070
    73
1070
     1
1070
    44
1040
1.0
1070
    74
1070
     0
1000
MTEXTEND
  0
MTEXT
  5
55DE
330
1A
100
AcDbEntity
  8
SUNPOU
100
AcDbMText
 10
67640.63232747917
 20
56772.96135540945
 30
0.0
 40
3.5
 41
0.0
 71
     9
 72
     5
  1

1001
ACAD
1000
MTEXTBEGIN
1070
    73
1070
     1
1070
    44
1040
1.0
1070
    74
1070
     0
1000
MTEXTEND
  0
MTEXT
  5
55DF
330
1A
100
AcDbEntity
  8
SUNPOU
100
AcDbMText
 10
98766.81216009886
 20
99267.9070230668
 30
0.0
 40
10.5
 41
0.0
 71
     9
 72
     5
  1

1001
ACAD
1000
MTEXTBEGIN
1070
    73
1070
     1
1070
    44
1040
1.0
1070
    74
1070
     0
1000
MTEXTEND
  0
MTEXT
  5
55E0
330
1A
100
AcDbEntity
  8
SUNPOU
100
AcDbMText
 10
100710.2194068083
 20
97466.85794318876
 30
0.0
 40
3.5
 41
0.0
 71
     9
 72
     5
  1

1001
ACAD
1000
MTEXTBEGIN
1070
    73
1070
     1
1070
    44
1040
1.0
1070
    74
1070
     0
1000
MTEXTEND
  0
MTEXT
  5
55E1
330
1A
100
AcDbEntity
  8
SUNPOU
100
AcDbMText
 10
49207.07986589443
 20
45101.07217804184
 30
0.0
 40
10.5
 41
0.0
 71
     9
 72
     5
  1

1001
ACAD
1000
MTEXTBEGIN
1070
    73
1070
     1
1070
    44
1040
1.0
1070
    74
1070
     0
1000
MTEXTEND
  0
MTEXT
  5
55E2
330
1A
100
AcDbEntity
  8
SUNPOU
100
AcDbMText
 10
35259.07976551845
 20
25928.67303892964
 30
0.0
 40
3.5
 41
0.0
 71
     7
 72
     5
  1

1001
ACAD
1000
MTEXTBEGIN
1070
    73
1070
     1
1070
    44
1040
1.0
1070
    74
1070
     0
1000
MTEXTEND
  0
MTEXT
  5
55E3
330
1A
100
AcDbEntity
  8
SUNPOU
100
AcDbMText
 10
48951.43044828905
 20
35287.73625995099
 30
0.0
 40
10.5
 41
0.0
 71
     9
 72
     5
  1

1001
ACAD
1000
MTEXTBEGIN
1070
    73
1070
     1
1070
    44
1040
1.0
1070
    74
1070
     0
1000
MTEXTEND
  0
MTEXT
  5
55E4
330
1A
100
AcDbEntity
  8
SUNPOU
100
AcDbMText
 10
57673.59801420702
 20
42703.57079148847
 30
0.0
 40
10.5
 41
0.0
 71
     9
 72
     5
  1

1001
ACAD
1000
MTEXTBEGIN
1070
    73
1070
     1
1070
    44
1040
1.0
1070
    74
1070
     0
1000
MTEXTEND
  0
MTEXT
  5
55E5
330
1A
100
AcDbEntity
  8
SUNPOU
100
AcDbMText
 10
76627.35673153699
 20
60170.14684398051
 30
0.0
 40
10.5
 41
0.0
 71
     9
 72
     5
  1

1001
ACAD
1000
MTEXTBEGIN
1070
    73
1070
     1
1070
    44
1040
1.0
1070
    74
1070
     0
1000
MTEXTEND
  0
MTEXT
  5
55E6
330
1A
100
AcDbEntity
  8
SUNPOU
100
AcDbMText
 10
78570.76397824641
 20
58369.09776410251
 30
0.0
 40
3.5
 41
0.0
 71
     9
 72
     5
  1

1001
ACAD
1000
MTEXTBEGIN
1070
    73
1070
     1
1070
    44
1040
1.0
1070
    74
1070
     0
1000
MTEXTEND
  0
MTEXT
  5
55E7
330
1A
100
AcDbEntity
  8
SUNPOU
100
AcDbMText
 10
109696.943810866
 20
100864.0434317598
 30
0.0
 40
10.5
 41
0.0
 71
     9
 72
     5
  1

1001
ACAD
1000
MTEXTBEGIN
1070
    73
1070
     1
1070
    44
1040
1.0
1070
    74
1070
     0
1000
MTEXTEND
  0
MTEXT
  5
55E8
330
1A
100
AcDbEntity
  8
SUNPOU
100
AcDbMText
 10
111640.3510575755
 20
99062.99435188183
 30
0.0
 40
3.5
 41
0.0
 71
     9
 72
     5
  1

1001
ACAD
1000
MTEXTBEGIN
1070
    73
1070
     1
1070
    44
1040
1.0
1070
    74
1070
     0
1000
MTEXTEND
  0
MTEXT
  5
55E9
330
1A
100
AcDbEntity
  8
SUNPOU
100
AcDbMText
 10
60137.21151666167
 20
46697.20858673491
 30
0.0
 40
10.5
 41
0.0
 71
     9
 72
     5
  1

1001
ACAD
1000
MTEXTBEGIN
1070
    73
1070
     1
1070
    44
1040
1.0
1070
    74
1070
     0
1000
MTEXTEND
  0
MTEXT
  5
55EA
330
1A
100
AcDbEntity
  8
SUNPOU
100
AcDbMText
 10
46189.21141628568
 20
27524.80944762269
 30
0.0
 40
3.5
 41
0.0
 71
     7
 72
     5
  1

1001
ACAD
1000
MTEXTBEGIN
1070
    73
1070
     1
1070
    44
1040
1.0
1070
    74
1070
     0
1000
MTEXTEND
  0
MTEXT
  5
55EB
330
1A
100
AcDbEntity
  8
SUNPOU
100
AcDbMText
 10
45007.68847015541
 20
38269.57947701873
 30
0.0
 40
10.5
 41
0.0
 71
     9
 72
     5
  1

1001
ACAD
1000
MTEXTBEGIN
1070
    73
1070
     1
1070
    44
1040
1.0
1070
    74
1070
     0
1000
MTEXTEND
  0
MTEXT
  5
55EC
330
1A
100
AcDbEntity
  8
SUNPOU
100
AcDbMText
 10
63961.44718748539
 20
55736.15552951081
 30
0.0
 40
10.5
 41
0.0
 71
     9
 72
     5
  1

1001
ACAD
1000
MTEXTBEGIN
1070
    73
1070
     1
1070
    44
1040
1.0
1070
    74
1070
     0
1000
MTEXTEND
  0
MTEXT
  5
55ED
330
1A
100
AcDbEntity
  8
SUNPOU
100
AcDbMText
 10
65904.85443419479
 20
53935.10644963278
 30
0.0
 40
3.5
 41
0.0
 71
     9
 72
     5
  1

1001
ACAD
1000
MTEXTBEGIN
1070
    73
1070
     1
1070
    44
1040
1.0
1070
    74
1070
     0
1000
MTEXTEND
  0
MTEXT
  5
55EE
330
1A
100
AcDbEntity
  8
SUNPOU
100
AcDbMText
 10
97031.03426681453
 20
96430.05211729015
 30
0.0
 40
10.5
 41
0.0
 71
     9
 72
     5
  1

1001
ACAD
1000
MTEXTBEGIN
1070
    73
1070
     1
1070
    44
1040
1.0
1070
    74
1070
     0
1000
MTEXTEND
  0
MTEXT
  5
55EF
330
1A
100
AcDbEntity
  8
SUNPOU
100
AcDbMText
 10
98974.44151352393
 20
94629.00303741212
 30
0.0
 40
3.5
 41
0.0
 71
     9
 72
     5
  1

1001
ACAD
1000
MTEXTBEGIN
1070
    73
1070
     1
1070
    44
1040
1.0
1070
    74
1070
     0
1000
MTEXTEND
  0
MTEXT
  5
55F0
330
1A
100
AcDbEntity
  8
SUNPOU
100
AcDbMText
 10
47471.30197261006
 20
42263.21727226519
 30
0.0
 40
10.5
 41
0.0
 71
     9
 72
     5
  1

1001
ACAD
1000
MTEXTBEGIN
1070
    73
1070
     1
1070
    44
1040
1.0
1070
    74
1070
     0
1000
MTEXTEND
  0
MTEXT
  5
55F1
330
1A
100
AcDbEntity
  8
SUNPOU
100
AcDbMText
 10
33523.30187223408
 20
23090.81813315298
 30
0.0
 40
3.5
 41
0.0
 71
     7
 72
     5
  1

1001
ACAD
1000
MTEXTBEGIN
1070
    73
1070
     1
1070
    44
1040
1.0
1070
    74
1070
     0
1000
MTEXTEND
  0
MTEXT
  5
55F2
330
1A
100
AcDbEntity
  8
SUNPOU
100
AcDbMText
 10
57959.46254102503
 20
50038.08111611014
 30
0.0
 40
10.5
 41
0.0
 71
     9
 72
     5
  1

1001
ACAD
1000
MTEXTBEGIN
1070
    73
1070
     1
1070
    44
1040
1.0
1070
    74
1070
     0
1000
MTEXTEND
  0
MTEXT
  5
55F3
330
1A
100
AcDbEntity
  8
SUNPOU
100
AcDbMText
 10
76913.22125835503
 20
67504.65716860222
 30
0.0
 40
10.5
 41
0.0
 71
     9
 72
     5
  1

1001
ACAD
1000
MTEXTBEGIN
1070
    73
1070
     1
1070
    44
1040
1.0
1070
    74
1070
     0
1000
MTEXTEND
  0
MTEXT
  5
55F4
330
1A
100
AcDbEntity
  8
SUNPOU
100
AcDbMText
 10
78856.62850506443
 20
65703.6080887242
 30
0.0
 40
3.5
 41
0.0
 71
     9
 72
     5
  1

1001
ACAD
1000
MTEXTBEGIN
1070
    73
1070
     1
1070
    44
1040
1.0
1070
    74
1070
     0
1000
MTEXTEND
  0
MTEXT
  5
55F5
330
1A
100
AcDbEntity
  8
SUNPOU
100
AcDbMText
 10
109982.8083376841
 20
108198.5537563815
 30
0.0
 40
10.5
 41
0.0
 71
     9
 72
     5
  1

1001
ACAD
1000
MTEXTBEGIN
1070
    73
1070
     1
1070
    44
1040
1.0
1070
    74
1070
     0
1000
MTEXTEND
  0
MTEXT
  5
55F6
330
1A
100
AcDbEntity
  8
SUNPOU
100
AcDbMText
 10
111926.2155843933
 20
106397.5046765035
 30
0.0
 40
3.5
 41
0.0
 71
     9
 72
     5
  1

1001
ACAD
1000
MTEXTBEGIN
1070
    73
1070
     1
1070
    44
1040
1.0
1070
    74
1070
     0
1000
MTEXTEND
  0
MTEXT
  5
55F7
330
1A
100
AcDbEntity
  8
SUNPOU
100
AcDbMText
 10
60423.07604347968
 20
54031.71891135658
 30
0.0
 40
10.5
 41
0.0
 71
     9
 72
     5
  1

1001
ACAD
1000
MTEXTBEGIN
1070
    73
1070
     1
1070
    44
1040
1.0
1070
    74
1070
     0
1000
MTEXTEND
  0
MTEXT
  5
55F8
330
1A
100
AcDbEntity
  8
SUNPOU
100
AcDbMText
 10
46475.07594310369
 20
34859.3197722444
 30
0.0
 40
3.5
 41
0.0
 71
     7
 72
     5
  1

1001
ACAD
1000
MTEXTBEGIN
1070
    73
1070
     1
1070
    44
1040
1.0
1070
    74
1070
     0
1000
MTEXTEND
  0
MTEXT
  5
55F9
330
1A
100
AcDbEntity
  8
SUNPOU
100
AcDbMText
 10
74027.35402123588
 20
68370.58278833383
 30
0.0
 40
10.5
 41
0.0
 71
     9
 72
     5
  1

1001
ACAD
1000
MTEXTBEGIN
1070
    73
1070
     1
1070
    44
1040
1.0
1070
    74
1070
     0
1000
MTEXTEND
  0
MTEXT
  5
55FA
330
1A
100
AcDbEntity
  8
SUNPOU
100
AcDbMText
 10
75970.7612679453
 20
66569.53370845583
 30
0.0
 40
3.5
 41
0.0
 71
     9
 72
     5
  1

1001
ACAD
1000
MTEXTBEGIN
1070
    73
1070
     1
1070
    44
1040
1.0
1070
    74
1070
     0
1000
MTEXTEND
  0
MTEXT
  5
55FB
330
1A
100
AcDbEntity
  8
SUNPOU
100
AcDbMText
 10
107096.941100565
 20
109064.4793761132
 30
0.0
 40
10.5
 41
0.0
 71
     9
 72
     5
  1

1001
ACAD
1000
MTEXTBEGIN
1070
    73
1070
     1
1070
    44
1040
1.0
1070
    74
1070
     0
1000
MTEXTEND
  0
MTEXT
  5
55FC
330
1A
100
AcDbEntity
  8
SUNPOU
100
AcDbMText
 10
109040.3483472744
 20
107263.430296235
 30
0.0
 40
3.5
 41
0.0
 71
     9
 72
     5
  1

1001
ACAD
1000
MTEXTBEGIN
1070
    73
1070
     1
1070
    44
1040
1.0
1070
    74
1070
     0
1000
MTEXTEND
  0
MTEXT
  5
55FD
330
1A
100
AcDbEntity
  8
SUNPOU
100
AcDbMText
 10
105709.1709283621
 20
108141.3777665285
 30
0.0
 40
10.5
 41
0.0
 71
     9
 72
     5
  1

1001
ACAD
1000
MTEXTBEGIN
1070
    73
1070
     1
1070
    44
1040
1.0
1070
    74
1070
     0
1000
MTEXTEND
  0
MTEXT
  5
55FE
330
1A
100
AcDbEntity
  8
SUNPOU
100
AcDbMText
 10
107652.5781750715
 20
106340.3286866505
 30
0.0
 40
3.5
 41
0.0
 71
     9
 72
     5
  1

1001
ACAD
1000
MTEXTBEGIN
1070
    73
1070
     1
1070
    44
1040
1.0
1070
    74
1070
     0
1000
MTEXTEND
  0
MTEXT
  5
55FF
330
1A
100
AcDbEntity
  8
SUNPOU
100
AcDbMText
 10
73193.09268743351
 20
66158.78082845057
 30
0.0
 40
10.5
 41
0.0
 71
     9
 72
     5
  1

1001
ACAD
1000
MTEXTBEGIN
1070
    73
1070
     1
1070
    44
1040
1.0
1070
    74
1070
     0
1000
MTEXTEND
  0
MTEXT
  5
5600
330
1A
100
AcDbEntity
  8
SUNPOU
100
AcDbMText
 10
75916.39889159807
 20
66563.46252003162
 30
0.0
 40
3.5
 41
0.0
 71
     9
 72
     5
  1

1001
ACAD
1000
MTEXTBEGIN
1070
    73
1070
     1
1070
    44
1040
1.0
1070
    74
1070
     0
1000
MTEXTEND
  0
MTEXT
  5
5601
330
1A
100
AcDbEntity
  8
SUNPOU
100
AcDbMText
 10
75124.04436649058
 20
63402.1566819768
 30
0.0
 40
10.5
 41
0.0
 71
     9
 72
     5
  1

1001
ACAD
1000
MTEXTBEGIN
1070
    73
1070
     1
1070
    44
1040
1.0
1070
    74
1070
     0
1000
MTEXTEND
  0
MTEXT
  5
5602
330
1A
100
AcDbEntity
  8
SUNPOU
100
AcDbMText
 10
77067.4516132
 20
61601.1076020988
 30
0.0
 40
3.5
 41
0.0
 71
     9
 72
     5
  1

1001
ACAD
1000
MTEXTBEGIN
1070
    73
1070
     1
1070
    44
1040
1.0
1070
    74
1070
     0
1000
MTEXTEND
  0
MTEXT
  5
5603
330
1A
100
AcDbEntity
  8
SUNPOU
100
AcDbMText
 10
77012.54710378659
 20
61488.33571981449
 30
0.0
 40
3.5
 41
0.0
 71
     9
 72
     5
  1

1001
ACAD
1000
MTEXTBEGIN
1070
    73
1070
     1
1070
    44
1040
1.0
1070
    74
1070
     0
1000
MTEXTEND
  0
MTEXT
  5
5604
330
1A
100
AcDbEntity
  8
SUNPOU
100
AcDbMText
 10
76376.61896736668
 20
60677.01447874798
 30
0.0
 40
3.5
 41
0.0
 71
     9
 72
     5
  1

1001
ACAD
1000
MTEXTBEGIN
1070
    73
1070
     1
1070
    44
1040
1.0
1070
    74
1070
     0
1000
MTEXTEND
  0
MTEXT
  5
5605
330
1A
100
AcDbEntity
  8
SUNPOU
100
AcDbMText
 10
76375.37854794595
 20
60676.76650181048
 30
0.0
 40
10.5
 41
0.0
 71
     9
 72
     5
  1

1001
ACAD
1000
MTEXTBEGIN
1070
    73
1070
     1
1070
    44
1040
1.0
1070
    74
1070
     0
1000
MTEXTEND
  0
MTEXT
  5
5606
330
1A
100
AcDbEntity
  8
SUNPOU
100
AcDbMText
 10
84709.93991079748
 20
78034.0328293557
 30
0.0
 40
10.5
 41
0.0
 71
     9
 72
     5
  1

1001
ACAD
1000
MTEXTBEGIN
1070
    73
1070
     1
1070
    44
1040
1.0
1070
    74
1070
     0
1000
MTEXTEND
  0
MTEXT
  5
5607
330
1A
100
AcDbEntity
  8
SUNPOU
100
AcDbMText
 10
93432.10747671546
 20
85449.86736089315
 30
0.0
 40
10.5
 41
0.0
 71
     9
 72
     5
  1

1001
ACAD
1000
MTEXTBEGIN
1070
    73
1070
     1
1070
    44
1040
1.0
1070
    74
1070
     0
1000
MTEXTEND
  0
MTEXT
  5
5608
330
1A
100
AcDbEntity
  8
SUNPOU
100
AcDbMText
 10
112385.8661940454
 20
102916.4434133851
 30
0.0
 40
10.5
 41
0.0
 71
     9
 72
     5
  1

1001
ACAD
1000
MTEXTBEGIN
1070
    73
1070
     1
1070
    44
1040
1.0
1070
    74
1070
     0
1000
MTEXTEND
  0
MTEXT
  5
5609
330
1A
100
AcDbEntity
  8
SUNPOU
100
AcDbMText
 10
114329.2734407548
 20
101115.3943335072
 30
0.0
 40
3.5
 41
0.0
 71
     9
 72
     5
  1

1001
ACAD
1000
MTEXTBEGIN
1070
    73
1070
     1
1070
    44
1040
1.0
1070
    74
1070
     0
1000
MTEXTEND
  0
MTEXT
  5
560A
330
1A
100
AcDbEntity
  8
SUNPOU
100
AcDbMText
 10
145455.4532733745
 20
143610.3400011645
 30
0.0
 40
10.5
 41
0.0
 71
     9
 72
     5
  1

1001
ACAD
1000
MTEXTBEGIN
1070
    73
1070
     1
1070
    44
1040
1.0
1070
    74
1070
     0
1000
MTEXTEND
  0
MTEXT
  5
560B
330
1A
100
AcDbEntity
  8
SUNPOU
100
AcDbMText
 10
147398.8605200839
 20
141809.2909212864
 30
0.0
 40
3.5
 41
0.0
 71
     9
 72
     5
  1

1001
ACAD
1000
MTEXTBEGIN
1070
    73
1070
     1
1070
    44
1040
1.0
1070
    74
1070
     0
1000
MTEXTEND
  0
MTEXT
  5
560C
330
1A
100
AcDbEntity
  8
SUNPOU
100
AcDbMText
 10
95895.72097917011
 20
89443.50515613962
 30
0.0
 40
10.5
 41
0.0
 71
     9
 72
     5
  1

1001
ACAD
1000
MTEXTBEGIN
1070
    73
1070
     1
1070
    44
1040
1.0
1070
    74
1070
     0
1000
MTEXTEND
  0
MTEXT
  5
560D
330
1A
100
AcDbEntity
  8
SUNPOU
100
AcDbMText
 10
81947.72087879414
 20
70271.1060170274
 30
0.0
 40
3.5
 41
0.0
 71
     7
 72
     5
  1

1001
ACAD
1000
MTEXTBEGIN
1070
    73
1070
     1
1070
    44
1040
1.0
1070
    74
1070
     0
1000
MTEXTEND
  0
MTEXT
  5
560E
330
1A
100
AcDbEntity
  8
SUNPOU
100
AcDbMText
 10
62932.89027578729
 20
58033.25474784561
 30
0.0
 40
10.5
 41
0.0
 71
     7
 72
     5
  1

1001
ACAD
1000
MTEXTBEGIN
1070
    73
1070
     1
1070
    44
1040
1.0
1070
    74
1070
     0
1000
MTEXTEND
  0
MTEXT
  5
560F
330
1A
100
AcDbEntity
  8
SUNPOU
100
AcDbMText
 10
50475.66201083918
 20
42188.32316974718
 30
0.0
 40
35.0
 41
0.0
 71
     9
 72
     5
  1

1001
ACAD
1000
MTEXTBEGIN
1070
    73
1070
     1
1070
    44
1040
1.0
1070
    74
1070
     0
1000
MTEXTEND
  0
MTEXT
  5
5610
330
1A
100
AcDbEntity
  8
SUNPOU
100
AcDbMText
 10
49384.14706841413
 20
42797.0985797959
 30
0.0
 40
350.0000004171781
 41
0.0
 71
     7
 72
     5
  1

1001
ACAD
1000
MTEXTBEGIN
1070
    73
1070
     1
1070
    44
1040
1.0
1070
    74
1070
     0
1000
MTEXTEND
  0
MTEXT
  5
5611
330
1A
100
AcDbEntity
  8
0
100
AcDbMText
 10
55428.09782635704
 20
40777.0209419321
 30
0.0
 40
8.0
 41
0.0
 71
     7
 72
     5
  1

1001
ACAD
1000
MTEXTBEGIN
1070
    73
1070
     1
1070
    44
1040
1.0
1070
    74
1070
     0
1000
MTEXTEND
  0
MTEXT
  5
5612
330
1A
100
AcDbEntity
  8
0
100
AcDbMText
 10
57713.45551625192
 20
41747.81123668316
 30
0.0
 40
8.0
 41
0.0
 71
     7
 72
     5
  1

1001
ACAD
1000
MTEXTBEGIN
1070
    73
1070
     1
1070
    44
1040
1.0
1070
    74
1070
     0
1000
MTEXTEND
  0
MTEXT
  5
5613
330
1A
100
AcDbEntity
  8
SUNPOU
100
AcDbMText
 10
60379.35253693407
 20
51259.9226290583
 30
0.0
 40
10.5
 41
0.0
 71
     1
 72
     5
  1

1001
ACAD
1000
MTEXTBEGIN
1070
    73
1070
     1
1070
    44
1040
1.0
1070
    74
1070
     0
1000
MTEXTEND
  0
MTEXT
  5
5614
330
1A
100
AcDbEntity
  8
SUNPOU
100
AcDbMText
 10
52448.42934099813
 20
50313.12949514535
 30
0.0
 40
10.5
 41
0.0
 71
     7
 72
     5
  1

1001
ACAD
1000
MTEXTBEGIN
1070
    73
1070
     1
1070
    44
1040
1.0
1070
    74
1070
     0
1000
MTEXTEND
  0
MTEXT
  5
5615
330
1A
100
AcDbEntity
  8
SUNPOU
100
AcDbMText
 10
55397.4130055109
 20
55213.80556698819
 30
0.0
 40
10.5
 41
0.0
 71
     7
 72
     5
  1

1001
ACAD
1000
MTEXTBEGIN
1070
    73
1070
     1
1070
    44
1040
1.0
1070
    74
1070
     0
1000
MTEXTEND
  0
MTEXT
  5
5616
330
1A
100
AcDbEntity
  8
SUNPOU
100
AcDbMText
 10
59906.49113346147
 20
57650.10631460826
 30
0.0
 40
10.5
 41
0.0
 71
     7
 72
     5
  1

1001
ACAD
1000
MTEXTBEGIN
1070
    73
1070
     1
1070
    44
1040
1.0
1070
    74
1070
     0
1000
MTEXTEND
  0
MTEXT
  5
5617
330
1A
100
AcDbEntity
  8
SUNPOU
100
AcDbMText
 10
43507.32902022977
 20
36647.70246499718
 30
0.0
 40
10.5
 41
0.0
 71
     7
 72
     5
  1

1001
ACAD
1000
MTEXTBEGIN
1070
    73
1070
     1
1070
    44
1040
1.0
1070
    74
1070
     0
1000
MTEXTEND
  0
MTEXT
  5
5618
330
1A
100
AcDbEntity
  8
SUNPOU
100
AcDbMText
 10
94698.84745413006
 20
82320.68302864544
 30
0.0
 40
10.5
 41
0.0
 71
     9
 72
     5
  1

1001
ACAD
1000
MTEXTBEGIN
1070
    73
1070
     1
1070
    44
1040
1.0
1070
    74
1070
     0
1000
MTEXTEND
  0
MTEXT
  5
5619
330
1A
100
AcDbEntity
  8
SUNPOU
100
AcDbMText
 10
103421.015020048
 20
89736.5175601829
 30
0.0
 40
10.5
 41
0.0
 71
     9
 72
     5
  1

1001
ACAD
1000
MTEXTBEGIN
1070
    73
1070
     1
1070
    44
1040
1.0
1070
    74
1070
     0
1000
MTEXTEND
  0
MTEXT
  5
561A
330
1A
100
AcDbEntity
  8
SUNPOU
100
AcDbMText
 10
122374.773737378
 20
107203.0936126749
 30
0.0
 40
10.5
 41
0.0
 71
     9
 72
     5
  1

1001
ACAD
1000
MTEXTBEGIN
1070
    73
1070
     1
1070
    44
1040
1.0
1070
    74
1070
     0
1000
MTEXTEND
  0
MTEXT
  5
561B
330
1A
100
AcDbEntity
  8
SUNPOU
100
AcDbMText
 10
124318.1809840874
 20
105402.0445327969
 30
0.0
 40
3.5
 41
0.0
 71
     9
 72
     5
  1

1001
ACAD
1000
MTEXTBEGIN
1070
    73
1070
     1
1070
    44
1040
1.0
1070
    74
1070
     0
1000
MTEXTEND
  0
MTEXT
  5
561C
330
1A
100
AcDbEntity
  8
SUNPOU
100
AcDbMText
 10
155444.3608167071
 20
147896.9902004542
 30
0.0
 40
10.5
 41
0.0
 71
     9
 72
     5
  1

1001
ACAD
1000
MTEXTBEGIN
1070
    73
1070
     1
1070
    44
1040
1.0
1070
    74
1070
     0
1000
MTEXTEND
  0
MTEXT
  5
561D
330
1A
100
AcDbEntity
  8
SUNPOU
100
AcDbMText
 10
157387.7680634165
 20
146095.9411205762
 30
0.0
 40
3.5
 41
0.0
 71
     9
 72
     5
  1

1001
ACAD
1000
MTEXTBEGIN
1070
    73
1070
     1
1070
    44
1040
1.0
1070
    74
1070
     0
1000
MTEXTEND
  0
MTEXT
  5
561E
330
1A
100
AcDbEntity
  8
SUNPOU
100
AcDbMText
 10
105884.6285225027
 20
93730.15535542933
 30
0.0
 40
10.5
 41
0.0
 71
     9
 72
     5
  1

1001
ACAD
1000
MTEXTBEGIN
1070
    73
1070
     1
1070
    44
1040
1.0
1070
    74
1070
     0
1000
MTEXTEND
  0
MTEXT
  5
561F
330
1A
100
AcDbEntity
  8
SUNPOU
100
AcDbMText
 10
91936.6284221267
 20
74557.75621631714
 30
0.0
 40
3.5
 41
0.0
 71
     7
 72
     5
  1

1001
ACAD
1000
MTEXTBEGIN
1070
    73
1070
     1
1070
    44
1040
1.0
1070
    74
1070
     0
1000
MTEXTEND
  0
MTEXT
  5
5620
330
1A
100
AcDbEntity
  8
SUNPOU
100
AcDbMText
 10
72921.79781911986
 20
62319.90494713532
 30
0.0
 40
10.5
 41
0.0
 71
     7
 72
     5
  1

1001
ACAD
1000
MTEXTBEGIN
1070
    73
1070
     1
1070
    44
1040
1.0
1070
    74
1070
     0
1000
MTEXTEND
  0
MTEXT
  5
5621
330
1A
100
AcDbEntity
  8
SUNPOU
100
AcDbMText
 10
60464.56955417175
 20
46474.97336903692
 30
0.0
 40
35.0
 41
0.0
 71
     9
 72
     5
  1

1001
ACAD
1000
MTEXTBEGIN
1070
    73
1070
     1
1070
    44
1040
1.0
1070
    74
1070
     0
1000
MTEXTEND
  0
MTEXT
  5
5622
330
1A
100
AcDbEntity
  8
SUNPOU
100
AcDbMText
 10
59373.05461174673
 20
47083.74877908561
 30
0.0
 40
350.0000004171781
 41
0.0
 71
     7
 72
     5
  1

1001
ACAD
1000
MTEXTBEGIN
1070
    73
1070
     1
1070
    44
1040
1.0
1070
    74
1070
     0
1000
MTEXTEND
  0
MTEXT
  5
5623
330
1A
100
AcDbEntity
  8
0
100
AcDbMText
 10
65417.00536968963
 20
45063.67114122186
 30
0.0
 40
8.0
 41
0.0
 71
     7
 72
     5
  1

1001
ACAD
1000
MTEXTBEGIN
1070
    73
1070
     1
1070
    44
1040
1.0
1070
    74
1070
     0
1000
MTEXTEND
  0
MTEXT
  5
5624
330
1A
100
AcDbEntity
  8
0
100
AcDbMText
 10
67702.36305958452
 20
46034.46143597292
 30
0.0
 40
8.0
 41
0.0
 71
     7
 72
     5
  1

1001
ACAD
1000
MTEXTBEGIN
1070
    73
1070
     1
1070
    44
1040
1.0
1070
    74
1070
     0
1000
MTEXTEND
  0
MTEXT
  5
5625
330
1A
100
AcDbEntity
  8
SUNPOU
100
AcDbMText
 10
70368.26008026666
 20
55546.57282834803
 30
0.0
 40
10.5
 41
0.0
 71
     1
 72
     5
  1

1001
ACAD
1000
MTEXTBEGIN
1070
    73
1070
     1
1070
    44
1040
1.0
1070
    74
1070
     0
1000
MTEXTEND
  0
MTEXT
  5
5626
330
1A
100
AcDbEntity
  8
SUNPOU
100
AcDbMText
 10
62437.33688433072
 20
54599.77969443507
 30
0.0
 40
10.5
 41
0.0
 71
     7
 72
     5
  1

1001
ACAD
1000
MTEXTBEGIN
1070
    73
1070
     1
1070
    44
1040
1.0
1070
    74
1070
     0
1000
MTEXTEND
  0
MTEXT
  5
5627
330
1A
100
AcDbEntity
  8
SUNPOU
100
AcDbMText
 10
65386.32054884347
 20
59500.45576627792
 30
0.0
 40
10.5
 41
0.0
 71
     7
 72
     5
  1

1001
ACAD
1000
MTEXTBEGIN
1070
    73
1070
     1
1070
    44
1040
1.0
1070
    74
1070
     0
1000
MTEXTEND
  0
MTEXT
  5
5628
330
1A
100
AcDbEntity
  8
SUNPOU
100
AcDbMText
 10
69895.39867679405
 20
61936.756513898
 30
0.0
 40
10.5
 41
0.0
 71
     7
 72
     5
  1

1001
ACAD
1000
MTEXTBEGIN
1070
    73
1070
     1
1070
    44
1040
1.0
1070
    74
1070
     0
1000
MTEXTEND
  0
MTEXT
  5
5629
330
1A
100
AcDbEntity
  8
SUNPOU
100
AcDbMText
 10
53496.23656356237
 20
40934.35266428691
 30
0.0
 40
10.5
 41
0.0
 71
     7
 72
     5
  1

1001
ACAD
1000
MTEXTBEGIN
1070
    73
1070
     1
1070
    44
1040
1.0
1070
    74
1070
     0
1000
MTEXTEND
  0
MTEXT
  5
562A
330
1A
100
AcDbEntity
  8
SUNPOU
100
AcDbMText
 10
55306.99947493731
 20
47261.76665176546
 30
0.0
 40
10.5
 41
0.0
 71
     9
 72
     5
  1

1001
ACAD
1000
MTEXTBEGIN
1070
    73
1070
     1
1070
    44
1040
1.0
1070
    74
1070
     0
1000
MTEXTEND
  0
MTEXT
  5
562B
330
1A
100
AcDbEntity
  8
SUNPOU
100
AcDbMText
 10
64029.16704085527
 20
54677.60118330295
 30
0.0
 40
10.5
 41
0.0
 71
     9
 72
     5
  1

1001
ACAD
1000
MTEXTBEGIN
1070
    73
1070
     1
1070
    44
1040
1.0
1070
    74
1070
     0
1000
MTEXTEND
  0
MTEXT
  5
562C
330
1A
100
AcDbEntity
  8
SUNPOU
100
AcDbMText
 10
82982.92575818527
 20
72144.17723579499
 30
0.0
 40
10.5
 41
0.0
 71
     9
 72
     5
  1

1001
ACAD
1000
MTEXTBEGIN
1070
    73
1070
     1
1070
    44
1040
1.0
1070
    74
1070
     0
1000
MTEXTEND
  0
MTEXT
  5
562D
330
1A
100
AcDbEntity
  8
SUNPOU
100
AcDbMText
 10
84926.33300489467
 20
70343.12815591697
 30
0.0
 40
3.5
 41
0.0
 71
     9
 72
     5
  1

1001
ACAD
1000
MTEXTBEGIN
1070
    73
1070
     1
1070
    44
1040
1.0
1070
    74
1070
     0
1000
MTEXTEND
  0
MTEXT
  5
562E
330
1A
100
AcDbEntity
  8
SUNPOU
100
AcDbMText
 10
116052.5128375142
 20
112838.0738235742
 30
0.0
 40
10.5
 41
0.0
 71
     9
 72
     5
  1

1001
ACAD
1000
MTEXTBEGIN
1070
    73
1070
     1
1070
    44
1040
1.0
1070
    74
1070
     0
1000
MTEXTEND
  0
MTEXT
  5
562F
330
1A
100
AcDbEntity
  8
SUNPOU
100
AcDbMText
 10
117995.9200842238
 20
111037.0247436963
 30
0.0
 40
3.5
 41
0.0
 71
     9
 72
     5
  1

1001
ACAD
1000
MTEXTBEGIN
1070
    73
1070
     1
1070
    44
1040
1.0
1070
    74
1070
     0
1000
MTEXTEND
  0
MTEXT
  5
5630
330
1A
100
AcDbEntity
  8
SUNPOU
100
AcDbMText
 10
66492.78054330994
 20
58671.23897854939
 30
0.0
 40
10.5
 41
0.0
 71
     9
 72
     5
  1

1001
ACAD
1000
MTEXTBEGIN
1070
    73
1070
     1
1070
    44
1040
1.0
1070
    74
1070
     0
1000
MTEXTEND
  0
MTEXT
  5
5631
330
1A
100
AcDbEntity
  8
SUNPOU
100
AcDbMText
 10
52544.78044293397
 20
39498.83983943717
 30
0.0
 40
3.5
 41
0.0
 71
     7
 72
     5
  1

1001
ACAD
1000
MTEXTBEGIN
1070
    73
1070
     1
1070
    44
1040
1.0
1070
    74
1070
     0
1000
MTEXTEND
  0
MTEXT
  5
5632
330
1A
100
AcDbEntity
  8
SUNPOU
100
AcDbMText
 10
66237.13112570454
 20
48857.90306045851
 30
0.0
 40
10.5
 41
0.0
 71
     9
 72
     5
  1

1001
ACAD
1000
MTEXTBEGIN
1070
    73
1070
     1
1070
    44
1040
1.0
1070
    74
1070
     0
1000
MTEXTEND
  0
MTEXT
  5
5633
330
1A
100
AcDbEntity
  8
SUNPOU
100
AcDbMText
 10
74959.29869162253
 20
56273.73759199598
 30
0.0
 40
10.5
 41
0.0
 71
     9
 72
     5
  1

1001
ACAD
1000
MTEXTBEGIN
1070
    73
1070
     1
1070
    44
1040
1.0
1070
    74
1070
     0
1000
MTEXTEND
  0
MTEXT
  5
5634
330
1A
100
AcDbEntity
  8
SUNPOU
100
AcDbMText
 10
93913.0574089525
 20
73740.31364448805
 30
0.0
 40
10.5
 41
0.0
 71
     9
 72
     5
  1

1001
ACAD
1000
MTEXTBEGIN
1070
    73
1070
     1
1070
    44
1040
1.0
1070
    74
1070
     0
1000
MTEXTEND
  0
MTEXT
  5
5635
330
1A
100
AcDbEntity
  8
SUNPOU
100
AcDbMText
 10
95856.46465566192
 20
71939.26456461004
 30
0.0
 40
3.5
 41
0.0
 71
     9
 72
     5
  1

1001
ACAD
1000
MTEXTBEGIN
1070
    73
1070
     1
1070
    44
1040
1.0
1070
    74
1070
     0
1000
MTEXTEND
  0
MTEXT
  5
5636
330
1A
100
AcDbEntity
  8
SUNPOU
100
AcDbMText
 10
126982.6444882816
 20
114434.2102322673
 30
0.0
 40
10.5
 41
0.0
 71
     9
 72
     5
  1

1001
ACAD
1000
MTEXTBEGIN
1070
    73
1070
     1
1070
    44
1040
1.0
1070
    74
1070
     0
1000
MTEXTEND
  0
MTEXT
  5
5637
330
1A
100
AcDbEntity
  8
SUNPOU
100
AcDbMText
 10
128926.051734991
 20
112633.1611523893
 30
0.0
 40
3.5
 41
0.0
 71
     9
 72
     5
  1

1001
ACAD
1000
MTEXTBEGIN
1070
    73
1070
     1
1070
    44
1040
1.0
1070
    74
1070
     0
1000
MTEXTEND
  0
MTEXT
  5
5638
330
1A
100
AcDbEntity
  8
SUNPOU
100
AcDbMText
 10
77422.91219407717
 20
60267.37538724244
 30
0.0
 40
10.5
 41
0.0
 71
     9
 72
     5
  1

1001
ACAD
1000
MTEXTBEGIN
1070
    73
1070
     1
1070
    44
1040
1.0
1070
    74
1070
     0
1000
MTEXTEND
  0
MTEXT
  5
5639
330
1A
100
AcDbEntity
  8
SUNPOU
100
AcDbMText
 10
63474.91209370119
 20
41094.97624813023
 30
0.0
 40
3.5
 41
0.0
 71
     7
 72
     5
  1

1001
ACAD
1000
MTEXTBEGIN
1070
    73
1070
     1
1070
    44
1040
1.0
1070
    74
1070
     0
1000
MTEXTEND
  0
MTEXT
  5
563A
330
1A
100
AcDbEntity
  8
SUNPOU
100
AcDbMText
 10
48117.65086229006
 20
40806.11043916631
 30
0.0
 40
10.5
 41
0.0
 71
     9
 72
     5
  1

1001
ACAD
1000
MTEXTBEGIN
1070
    73
1070
     1
1070
    44
1040
1.0
1070
    74
1070
     0
1000
MTEXTEND
  0
MTEXT
  5
563B
330
1A
100
AcDbEntity
  8
SUNPOU
100
AcDbMText
 10
67071.40957962004
 20
58272.68649165838
 30
0.0
 40
10.5
 41
0.0
 71
     9
 72
     5
  1

1001
ACAD
1000
MTEXTBEGIN
1070
    73
1070
     1
1070
    44
1040
1.0
1070
    74
1070
     0
1000
MTEXTEND
  0
MTEXT
  5
563C
330
1A
100
AcDbEntity
  8
SUNPOU
100
AcDbMText
 10
69014.81682632945
 20
56471.63741178035
 30
0.0
 40
3.5
 41
0.0
 71
     9
 72
     5
  1

1001
ACAD
1000
MTEXTBEGIN
1070
    73
1070
     1
1070
    44
1040
1.0
1070
    74
1070
     0
1000
MTEXTEND
  0
MTEXT
  5
563D
330
1A
100
AcDbEntity
  8
SUNPOU
100
AcDbMText
 10
100140.9966589491
 20
98966.58307943773
 30
0.0
 40
10.5
 41
0.0
 71
     9
 72
     5
  1

1001
ACAD
1000
MTEXTBEGIN
1070
    73
1070
     1
1070
    44
1040
1.0
1070
    74
1070
     0
1000
MTEXTEND
  0
MTEXT
  5
563E
330
1A
100
AcDbEntity
  8
SUNPOU
100
AcDbMText
 10
102084.4039056586
 20
97165.53399955968
 30
0.0
 40
3.5
 41
0.0
 71
     9
 72
     5
  1

1001
ACAD
1000
MTEXTBEGIN
1070
    73
1070
     1
1070
    44
1040
1.0
1070
    74
1070
     0
1000
MTEXTEND
  0
MTEXT
  5
563F
330
1A
100
AcDbEntity
  8
SUNPOU
100
AcDbMText
 10
50581.26436474472
 20
44799.74823441275
 30
0.0
 40
10.5
 41
0.0
 71
     9
 72
     5
  1

1001
ACAD
1000
MTEXTBEGIN
1070
    73
1070
     1
1070
    44
1040
1.0
1070
    74
1070
     0
1000
MTEXTEND
  0
MTEXT
  5
5640
330
1A
100
AcDbEntity
  8
SUNPOU
100
AcDbMText
 10
36633.26426436873
 20
25627.34909530054
 30
0.0
 40
3.5
 41
0.0
 71
     7
 72
     5
  1

1001
ACAD
1000
MTEXTBEGIN
1070
    73
1070
     1
1070
    44
1040
1.0
1070
    74
1070
     0
1000
MTEXTEND
  0
MTEXT
  5
5641
330
1A
100
AcDbEntity
  8
SUNPOU
100
AcDbMText
 10
61069.42493315968
 20
52574.61207825771
 30
0.0
 40
10.5
 41
0.0
 71
     9
 72
     5
  1

1001
ACAD
1000
MTEXTBEGIN
1070
    73
1070
     1
1070
    44
1040
1.0
1070
    74
1070
     0
1000
MTEXTEND
  0
MTEXT
  5
5642
330
1A
100
AcDbEntity
  8
SUNPOU
100
AcDbMText
 10
80023.18365048967
 20
70041.18813074978
 30
0.0
 40
10.5
 41
0.0
 71
     9
 72
     5
  1

1001
ACAD
1000
MTEXTBEGIN
1070
    73
1070
     1
1070
    44
1040
1.0
1070
    74
1070
     0
1000
MTEXTEND
  0
MTEXT
  5
5643
330
1A
100
AcDbEntity
  8
SUNPOU
100
AcDbMText
 10
81966.59089719908
 20
68240.13905087176
 30
0.0
 40
3.5
 41
0.0
 71
     9
 72
     5
  1

1001
ACAD
1000
MTEXTBEGIN
1070
    73
1070
     1
1070
    44
1040
1.0
1070
    74
1070
     0
1000
MTEXTEND
  0
MTEXT
  5
5644
330
1A
100
AcDbEntity
  8
SUNPOU
100
AcDbMText
 10
113092.7707298186
 20
110735.0847185291
 30
0.0
 40
10.5
 41
0.0
 71
     9
 72
     5
  1

1001
ACAD
1000
MTEXTBEGIN
1070
    73
1070
     1
1070
    44
1040
1.0
1070
    74
1070
     0
1000
MTEXTEND
  0
MTEXT
  5
5645
330
1A
100
AcDbEntity
  8
SUNPOU
100
AcDbMText
 10
115036.1779765282
 20
108934.0356386511
 30
0.0
 40
3.5
 41
0.0
 71
     9
 72
     5
  1

1001
ACAD
1000
MTEXTBEGIN
1070
    73
1070
     1
1070
    44
1040
1.0
1070
    74
1070
     0
1000
MTEXTEND
  0
MTEXT
  5
5646
330
1A
100
AcDbEntity
  8
SUNPOU
100
AcDbMText
 10
63533.03843561432
 20
56568.24987350415
 30
0.0
 40
10.5
 41
0.0
 71
     9
 72
     5
  1

1001
ACAD
1000
MTEXTBEGIN
1070
    73
1070
     1
1070
    44
1040
1.0
1070
    74
1070
     0
1000
MTEXTEND
  0
MTEXT
  5
5647
330
1A
100
AcDbEntity
  8
SUNPOU
100
AcDbMText
 10
49585.03833523835
 20
37395.85073439196
 30
0.0
 40
3.5
 41
0.0
 71
     7
 72
     5
  1

1001
ACAD
1000
MTEXTBEGIN
1070
    73
1070
     1
1070
    44
1040
1.0
1070
    74
1070
     0
1000
MTEXTEND
  0
MTEXT
  5
5648
330
1A
100
AcDbEntity
  8
SUNPOU
100
AcDbMText
 10
77137.31641337052
 20
70907.11375048141
 30
0.0
 40
10.5
 41
0.0
 71
     9
 72
     5
  1

1001
ACAD
1000
MTEXTBEGIN
1070
    73
1070
     1
1070
    44
1040
1.0
1070
    74
1070
     0
1000
MTEXTEND
  0
MTEXT
  5
5649
330
1A
100
AcDbEntity
  8
SUNPOU
100
AcDbMText
 10
79080.72366007995
 20
69106.06467060339
 30
0.0
 40
3.5
 41
0.0
 71
     9
 72
     5
  1

1001
ACAD
1000
MTEXTBEGIN
1070
    73
1070
     1
1070
    44
1040
1.0
1070
    74
1070
     0
1000
MTEXTEND
  0
MTEXT
  5
564A
330
1A
100
AcDbEntity
  8
SUNPOU
100
AcDbMText
 10
110206.9034926996
 20
111601.0103382607
 30
0.0
 40
10.5
 41
0.0
 71
     9
 72
     5
  1

1001
ACAD
1000
MTEXTBEGIN
1070
    73
1070
     1
1070
    44
1040
1.0
1070
    74
1070
     0
1000
MTEXTEND
  0
MTEXT
  5
564B
330
1A
100
AcDbEntity
  8
SUNPOU
100
AcDbMText
 10
112150.310739409
 20
109799.9612583826
 30
0.0
 40
3.5
 41
0.0
 71
     9
 72
     5
  1

1001
ACAD
1000
MTEXTBEGIN
1070
    73
1070
     1
1070
    44
1040
1.0
1070
    74
1070
     0
1000
MTEXTEND
  0
MTEXT
  5
564C
330
1A
100
AcDbEntity
  8
SUNPOU
100
AcDbMText
 10
108819.1333204967
 20
110677.9087286761
 30
0.0
 40
10.5
 41
0.0
 71
     9
 72
     5
  1

1001
ACAD
1000
MTEXTBEGIN
1070
    73
1070
     1
1070
    44
1040
1.0
1070
    74
1070
     0
1000
MTEXTEND
  0
MTEXT
  5
564D
330
1A
100
AcDbEntity
  8
SUNPOU
100
AcDbMText
 10
110762.5405672062
 20
108876.8596487981
 30
0.0
 40
3.5
 41
0.0
 71
     9
 72
     5
  1

1001
ACAD
1000
MTEXTBEGIN
1070
    73
1070
     1
1070
    44
1040
1.0
1070
    74
1070
     0
1000
MTEXTEND
  0
MTEXT
  5
564E
330
1A
100
AcDbEntity
  8
SUNPOU
100
AcDbMText
 10
76303.05507956816
 20
68695.31179059812
 30
0.0
 40
10.5
 41
0.0
 71
     9
 72
     5
  1

1001
ACAD
1000
MTEXTBEGIN
1070
    73
1070
     1
1070
    44
1040
1.0
1070
    74
1070
     0
1000
MTEXTEND
  0
MTEXT
  5
564F
330
1A
100
AcDbEntity
  8
SUNPOU
100
AcDbMText
 10
79026.36128373271
 20
69099.99348217918
 30
0.0
 40
3.5
 41
0.0
 71
     9
 72
     5
  1

1001
ACAD
1000
MTEXTBEGIN
1070
    73
1070
     1
1070
    44
1040
1.0
1070
    74
1070
     0
1000
MTEXTEND
  0
MTEXT
  5
5650
330
1A
100
AcDbEntity
  8
SUNPOU
100
AcDbMText
 10
78234.00675862522
 20
65938.68764412436
 30
0.0
 40
10.5
 41
0.0
 71
     9
 72
     5
  1

1001
ACAD
1000
MTEXTBEGIN
1070
    73
1070
     1
1070
    44
1040
1.0
1070
    74
1070
     0
1000
MTEXTEND
  0
MTEXT
  5
5651
330
1A
100
AcDbEntity
  8
SUNPOU
100
AcDbMText
 10
80177.41400533465
 20
64137.63856424636
 30
0.0
 40
3.5
 41
0.0
 71
     9
 72
     5
  1

1001
ACAD
1000
MTEXTBEGIN
1070
    73
1070
     1
1070
    44
1040
1.0
1070
    74
1070
     0
1000
MTEXTEND
  0
MTEXT
  5
5652
330
1A
100
AcDbEntity
  8
SUNPOU
100
AcDbMText
 10
80122.50949592122
 20
64024.86668196204
 30
0.0
 40
3.5
 41
0.0
 71
     9
 72
     5
  1

1001
ACAD
1000
MTEXTBEGIN
1070
    73
1070
     1
1070
    44
1040
1.0
1070
    74
1070
     0
1000
MTEXTEND
  0
MTEXT
  5
5653
330
1A
100
AcDbEntity
  8
SUNPOU
100
AcDbMText
 10
79486.58135950133
 20
63213.54544089553
 30
0.0
 40
3.5
 41
0.0
 71
     9
 72
     5
  1

1001
ACAD
1000
MTEXTBEGIN
1070
    73
1070
     1
1070
    44
1040
1.0
1070
    74
1070
     0
1000
MTEXTEND
  0
MTEXT
  5
5654
330
1A
100
AcDbEntity
  8
SUNPOU
100
AcDbMText
 10
79485.3409400806
 20
63213.29746395804
 30
0.0
 40
10.5
 41
0.0
 71
     9
 72
     5
  1

1001
ACAD
1000
MTEXTBEGIN
1070
    73
1070
     1
1070
    44
1040
1.0
1070
    74
1070
     0
1000
MTEXTEND
  0
MTEXT
  5
5655
330
1A
100
AcDbEntity
  8
SUNPOU
100
AcDbMText
 10
85473.63363627567
 20
80747.76348077064
 30
0.0
 40
10.5
 41
0.0
 71
     9
 72
     5
  1

1001
ACAD
1000
MTEXTBEGIN
1070
    73
1070
     1
1070
    44
1040
1.0
1070
    74
1070
     0
1000
MTEXTEND
  0
MTEXT
  5
5656
330
1A
100
AcDbEntity
  8
SUNPOU
100
AcDbMText
 10
94195.80120219368
 20
88163.59801230806
 30
0.0
 40
10.5
 41
0.0
 71
     9
 72
     5
  1

1001
ACAD
1000
MTEXTBEGIN
1070
    73
1070
     1
1070
    44
1040
1.0
1070
    74
1070
     0
1000
MTEXTEND
  0
MTEXT
  5
5657
330
1A
100
AcDbEntity
  8
SUNPOU
100
AcDbMText
 10
113149.5599195236
 20
105630.1740648001
 30
0.0
 40
10.5
 41
0.0
 71
     9
 72
     5
  1

1001
ACAD
1000
MTEXTBEGIN
1070
    73
1070
     1
1070
    44
1040
1.0
1070
    74
1070
     0
1000
MTEXTEND
  0
MTEXT
  5
5658
330
1A
100
AcDbEntity
  8
SUNPOU
100
AcDbMText
 10
115092.967166233
 20
103829.1249849221
 30
0.0
 40
3.5
 41
0.0
 71
     9
 72
     5
  1

1001
ACAD
1000
MTEXTBEGIN
1070
    73
1070
     1
1070
    44
1040
1.0
1070
    74
1070
     0
1000
MTEXTEND
  0
MTEXT
  5
5659
330
1A
100
AcDbEntity
  8
SUNPOU
100
AcDbMText
 10
146219.1469988527
 20
146324.0706525794
 30
0.0
 40
10.5
 41
0.0
 71
     9
 72
     5
  1

1001
ACAD
1000
MTEXTBEGIN
1070
    73
1070
     1
1070
    44
1040
1.0
1070
    74
1070
     0
1000
MTEXTEND
  0
MTEXT
  5
565A
330
1A
100
AcDbEntity
  8
SUNPOU
100
AcDbMText
 10
148162.5542455621
 20
144523.0215727014
 30
0.0
 40
3.5
 41
0.0
 71
     9
 72
     5
  1

1001
ACAD
1000
MTEXTBEGIN
1070
    73
1070
     1
1070
    44
1040
1.0
1070
    74
1070
     0
1000
MTEXTEND
  0
MTEXT
  5
565B
330
1A
100
AcDbEntity
  8
SUNPOU
100
AcDbMText
 10
96659.41470464833
 20
92157.23580755453
 30
0.0
 40
10.5
 41
0.0
 71
     9
 72
     5
  1

1001
ACAD
1000
MTEXTBEGIN
1070
    73
1070
     1
1070
    44
1040
1.0
1070
    74
1070
     0
1000
MTEXTEND
  0
MTEXT
  5
565C
330
1A
100
AcDbEntity
  8
SUNPOU
100
AcDbMText
 10
82711.41460427234
 20
72984.83666844234
 30
0.0
 40
3.5
 41
0.0
 71
     7
 72
     5
  1

1001
ACAD
1000
MTEXTBEGIN
1070
    73
1070
     1
1070
    44
1040
1.0
1070
    74
1070
     0
1000
MTEXTEND
  0
MTEXT
  5
565D
330
1A
100
AcDbEntity
  8
SUNPOU
100
AcDbMText
 10
63696.58400126548
 20
60746.98539926055
 30
0.0
 40
10.5
 41
0.0
 71
     7
 72
     5
  1

1001
ACAD
1000
MTEXTBEGIN
1070
    73
1070
     1
1070
    44
1040
1.0
1070
    74
1070
     0
1000
MTEXTEND
  0
MTEXT
  5
565E
330
1A
100
AcDbEntity
  8
SUNPOU
100
AcDbMText
 10
51239.35573631738
 20
44902.05382116213
 30
0.0
 40
35.0
 41
0.0
 71
     9
 72
     5
  1

1001
ACAD
1000
MTEXTBEGIN
1070
    73
1070
     1
1070
    44
1040
1.0
1070
    74
1070
     0
1000
MTEXTEND
  0
MTEXT
  5
565F
330
1A
100
AcDbEntity
  8
SUNPOU
100
AcDbMText
 10
50147.84079389233
 20
45510.82923121084
 30
0.0
 40
350.0000004171781
 41
0.0
 71
     7
 72
     5
  1

1001
ACAD
1000
MTEXTBEGIN
1070
    73
1070
     1
1070
    44
1040
1.0
1070
    74
1070
     0
1000
MTEXTEND
  0
MTEXT
  5
5660
330
1A
100
AcDbEntity
  8
0
100
AcDbMText
 10
56191.79155183523
 20
43490.75159334705
 30
0.0
 40
8.0
 41
0.0
 71
     7
 72
     5
  1

1001
ACAD
1000
MTEXTBEGIN
1070
    73
1070
     1
1070
    44
1040
1.0
1070
    74
1070
     0
1000
MTEXTEND
  0
MTEXT
  5
5661
330
1A
100
AcDbEntity
  8
0
100
AcDbMText
 10
58477.14924173012
 20
44461.54188809812
 30
0.0
 40
8.0
 41
0.0
 71
     7
 72
     5
  1

1001
ACAD
1000
MTEXTBEGIN
1070
    73
1070
     1
1070
    44
1040
1.0
1070
    74
1070
     0
1000
MTEXTEND
  0
MTEXT
  5
5662
330
1A
100
AcDbEntity
  8
SUNPOU
100
AcDbMText
 10
61143.04626241227
 20
53973.65328047324
 30
0.0
 40
10.5
 41
0.0
 71
     1
 72
     5
  1

1001
ACAD
1000
MTEXTBEGIN
1070
    73
1070
     1
1070
    44
1040
1.0
1070
    74
1070
     0
1000
MTEXTEND
  0
MTEXT
  5
5663
330
1A
100
AcDbEntity
  8
SUNPOU
100
AcDbMText
 10
53212.12306647632
 20
53026.86014656028
 30
0.0
 40
10.5
 41
0.0
 71
     7
 72
     5
  1

1001
ACAD
1000
MTEXTBEGIN
1070
    73
1070
     1
1070
    44
1040
1.0
1070
    74
1070
     0
1000
MTEXTEND
  0
MTEXT
  5
5664
330
1A
100
AcDbEntity
  8
SUNPOU
100
AcDbMText
 10
56161.10673098909
 20
57927.53621840312
 30
0.0
 40
10.5
 41
0.0
 71
     7
 72
     5
  1

1001
ACAD
1000
MTEXTBEGIN
1070
    73
1070
     1
1070
    44
1040
1.0
1070
    74
1070
     0
1000
MTEXTEND
  0
MTEXT
  5
5665
330
1A
100
AcDbEntity
  8
SUNPOU
100
AcDbMText
 10
60670.18485893966
 20
60363.8369660232
 30
0.0
 40
10.5
 41
0.0
 71
     7
 72
     5
  1

1001
ACAD
1000
MTEXTBEGIN
1070
    73
1070
     1
1070
    44
1040
1.0
1070
    74
1070
     0
1000
MTEXTEND
  0
MTEXT
  5
5666
330
1A
100
AcDbEntity
  8
SUNPOU
100
AcDbMText
 10
44271.02274570799
 20
39361.43311641211
 30
0.0
 40
10.5
 41
0.0
 71
     7
 72
     5
  1

1001
ACAD
1000
MTEXTBEGIN
1070
    73
1070
     1
1070
    44
1040
1.0
1070
    74
1070
     0
1000
MTEXTEND
  0
MTEXT
  5
5667
330
1A
100
AcDbEntity
  8
SUNPOU
100
AcDbMText
 10
95462.54117960824
 20
85034.41368006038
 30
0.0
 40
10.5
 41
0.0
 71
     9
 72
     5
  1

1001
ACAD
1000
MTEXTBEGIN
1070
    73
1070
     1
1070
    44
1040
1.0
1070
    74
1070
     0
1000
MTEXTEND
  0
MTEXT
  5
5668
330
1A
100
AcDbEntity
  8
SUNPOU
100
AcDbMText
 10
104184.7087455262
 20
92450.24821159784
 30
0.0
 40
10.5
 41
0.0
 71
     9
 72
     5
  1

1001
ACAD
1000
MTEXTBEGIN
1070
    73
1070
     1
1070
    44
1040
1.0
1070
    74
1070
     0
1000
MTEXTEND
  0
MTEXT
  5
5669
330
1A
100
AcDbEntity
  8
SUNPOU
100
AcDbMText
 10
123138.4674628562
 20
109916.8242640898
 30
0.0
 40
10.5
 41
0.0
 71
     9
 72
     5
  1

1001
ACAD
1000
MTEXTBEGIN
1070
    73
1070
     1
1070
    44
1040
1.0
1070
    74
1070
     0
1000
MTEXTEND
  0
MTEXT
  5
566A
330
1A
100
AcDbEntity
  8
SUNPOU
100
AcDbMText
 10
125081.8747095656
 20
108115.7751842118
 30
0.0
 40
3.5
 41
0.0
 71
     9
 72
     5
  1

1001
ACAD
1000
MTEXTBEGIN
1070
    73
1070
     1
1070
    44
1040
1.0
1070
    74
1070
     0
1000
MTEXTEND
  0
MTEXT
  5
566B
330
1A
100
AcDbEntity
  8
SUNPOU
100
AcDbMText
 10
156208.0545421853
 20
150610.7208518691
 30
0.0
 40
10.5
 41
0.0
 71
     9
 72
     5
  1

1001
ACAD
1000
MTEXTBEGIN
1070
    73
1070
     1
1070
    44
1040
1.0
1070
    74
1070
     0
1000
MTEXTEND
  0
MTEXT
  5
566C
330
1A
100
AcDbEntity
  8
SUNPOU
100
AcDbMText
 10
158151.4617888947
 20
148809.6717719911
 30
0.0
 40
3.5
 41
0.0
 71
     9
 72
     5
  1

1001
ACAD
1000
MTEXTBEGIN
1070
    73
1070
     1
1070
    44
1040
1.0
1070
    74
1070
     0
1000
MTEXTEND
  0
MTEXT
  5
566D
330
1A
100
AcDbEntity
  8
SUNPOU
100
AcDbMText
 10
106648.3222479809
 20
96443.88600684427
 30
0.0
 40
10.5
 41
0.0
 71
     9
 72
     5
  1

1001
ACAD
1000
MTEXTBEGIN
1070
    73
1070
     1
1070
    44
1040
1.0
1070
    74
1070
     0
1000
MTEXTEND
  0
MTEXT
  5
566E
330
1A
100
AcDbEntity
  8
SUNPOU
100
AcDbMText
 10
92700.3221476049
 20
77271.48686773207
 30
0.0
 40
3.5
 41
0.0
 71
     7
 72
     5
  1

1001
ACAD
1000
MTEXTBEGIN
1070
    73
1070
     1
1070
    44
1040
1.0
1070
    74
1070
     0
1000
MTEXTEND
  0
MTEXT
  5
566F
330
1A
100
AcDbEntity
  8
SUNPOU
100
AcDbMText
 10
73685.49154459807
 20
65033.63559855027
 30
0.0
 40
10.5
 41
0.0
 71
     7
 72
     5
  1

1001
ACAD
1000
MTEXTBEGIN
1070
    73
1070
     1
1070
    44
1040
1.0
1070
    74
1070
     0
1000
MTEXTEND
  0
MTEXT
  5
5670
330
1A
100
AcDbEntity
  8
SUNPOU
100
AcDbMText
 10
61228.26327964995
 20
49188.70402045183
 30
0.0
 40
35.0
 41
0.0
 71
     9
 72
     5
  1

1001
ACAD
1000
MTEXTBEGIN
1070
    73
1070
     1
1070
    44
1040
1.0
1070
    74
1070
     0
1000
MTEXTEND
  0
MTEXT
  5
5671
330
1A
100
AcDbEntity
  8
SUNPOU
100
AcDbMText
 10
60136.74833722491
 20
49797.47943050056
 30
0.0
 40
350.0000004171781
 41
0.0
 71
     7
 72
     5
  1

1001
ACAD
1000
MTEXTBEGIN
1070
    73
1070
     1
1070
    44
1040
1.0
1070
    74
1070
     0
1000
MTEXTEND
  0
MTEXT
  5
5672
330
1A
100
AcDbEntity
  8
0
100
AcDbMText
 10
66180.69909516782
 20
47777.40179263677
 30
0.0
 40
8.0
 41
0.0
 71
     7
 72
     5
  1

1001
ACAD
1000
MTEXTBEGIN
1070
    73
1070
     1
1070
    44
1040
1.0
1070
    74
1070
     0
1000
MTEXTEND
  0
MTEXT
  5
5673
330
1A
100
AcDbEntity
  8
0
100
AcDbMText
 10
68466.05678506271
 20
48748.19208738784
 30
0.0
 40
8.0
 41
0.0
 71
     7
 72
     5
  1

1001
ACAD
1000
MTEXTBEGIN
1070
    73
1070
     1
1070
    44
1040
1.0
1070
    74
1070
     0
1000
MTEXTEND
  0
MTEXT
  5
5674
330
1A
100
AcDbEntity
  8
SUNPOU
100
AcDbMText
 10
71131.95380574485
 20
58260.30347976296
 30
0.0
 40
10.5
 41
0.0
 71
     1
 72
     5
  1

1001
ACAD
1000
MTEXTBEGIN
1070
    73
1070
     1
1070
    44
1040
1.0
1070
    74
1070
     0
1000
MTEXTEND
  0
MTEXT
  5
5675
330
1A
100
AcDbEntity
  8
SUNPOU
100
AcDbMText
 10
63201.03060980891
 20
57313.51034585003
 30
0.0
 40
10.5
 41
0.0
 71
     7
 72
     5
  1

1001
ACAD
1000
MTEXTBEGIN
1070
    73
1070
     1
1070
    44
1040
1.0
1070
    74
1070
     0
1000
MTEXTEND
  0
MTEXT
  5
5676
330
1A
100
AcDbEntity
  8
SUNPOU
100
AcDbMText
 10
66150.01427432169
 20
62214.18641769286
 30
0.0
 40
10.5
 41
0.0
 71
     7
 72
     5
  1

1001
ACAD
1000
MTEXTBEGIN
1070
    73
1070
     1
1070
    44
1040
1.0
1070
    74
1070
     0
1000
MTEXTEND
  0
MTEXT
  5
5677
330
1A
100
AcDbEntity
  8
SUNPOU
100
AcDbMText
 10
70659.09240227225
 20
64650.48716531294
 30
0.0
 40
10.5
 41
0.0
 71
     7
 72
     5
  1

1001
ACAD
1000
MTEXTBEGIN
1070
    73
1070
     1
1070
    44
1040
1.0
1070
    74
1070
     0
1000
MTEXTEND
  0
MTEXT
  5
5678
330
1A
100
AcDbEntity
  8
SUNPOU
100
AcDbMText
 10
54259.93028904056
 20
43648.08331570185
 30
0.0
 40
10.5
 41
0.0
 71
     7
 72
     5
  1

1001
ACAD
1000
MTEXTBEGIN
1070
    73
1070
     1
1070
    44
1040
1.0
1070
    74
1070
     0
1000
MTEXTEND
  0
MTEXT
  5
5679
330
1A
100
AcDbEntity
  8
SUNPOU
100
AcDbMText
 10
56070.69320041551
 20
49975.4973031804
 30
0.0
 40
10.5
 41
0.0
 71
     9
 72
     5
  1

1001
ACAD
1000
MTEXTBEGIN
1070
    73
1070
     1
1070
    44
1040
1.0
1070
    74
1070
     0
1000
MTEXTEND
  0
MTEXT
  5
567A
330
1A
100
AcDbEntity
  8
SUNPOU
100
AcDbMText
 10
64792.86076633347
 20
57391.33183471787
 30
0.0
 40
10.5
 41
0.0
 71
     9
 72
     5
  1

1001
ACAD
1000
MTEXTBEGIN
1070
    73
1070
     1
1070
    44
1040
1.0
1070
    74
1070
     0
1000
MTEXTEND
  0
MTEXT
  5
567B
330
1A
100
AcDbEntity
  8
SUNPOU
100
AcDbMText
 10
83746.61948366345
 20
74857.90788720994
 30
0.0
 40
10.5
 41
0.0
 71
     9
 72
     5
  1

1001
ACAD
1000
MTEXTBEGIN
1070
    73
1070
     1
1070
    44
1040
1.0
1070
    74
1070
     0
1000
MTEXTEND
  0
MTEXT
  5
567C
330
1A
100
AcDbEntity
  8
SUNPOU
100
AcDbMText
 10
85690.02673037287
 20
73056.85880733192
 30
0.0
 40
3.5
 41
0.0
 71
     9
 72
     5
  1

1001
ACAD
1000
MTEXTBEGIN
1070
    73
1070
     1
1070
    44
1040
1.0
1070
    74
1070
     0
1000
MTEXTEND
  0
MTEXT
  5
567D
330
1A
100
AcDbEntity
  8
SUNPOU
100
AcDbMText
 10
116816.2065629925
 20
115551.8044749892
 30
0.0
 40
10.5
 41
0.0
 71
     9
 72
     5
  1

1001
ACAD
1000
MTEXTBEGIN
1070
    73
1070
     1
1070
    44
1040
1.0
1070
    74
1070
     0
1000
MTEXTEND
  0
MTEXT
  5
567E
330
1A
100
AcDbEntity
  8
SUNPOU
100
AcDbMText
 10
118759.6138097019
 20
113750.7553951111
 30
0.0
 40
3.5
 41
0.0
 71
     9
 72
     5
  1

1001
ACAD
1000
MTEXTBEGIN
1070
    73
1070
     1
1070
    44
1040
1.0
1070
    74
1070
     0
1000
MTEXTEND
  0
MTEXT
  5
567F
330
1A
100
AcDbEntity
  8
SUNPOU
100
AcDbMText
 10
67256.47426878814
 20
61384.96962996432
 30
0.0
 40
10.5
 41
0.0
 71
     9
 72
     5
  1

1001
ACAD
1000
MTEXTBEGIN
1070
    73
1070
     1
1070
    44
1040
1.0
1070
    74
1070
     0
1000
MTEXTEND
  0
MTEXT
  5
5680
330
1A
100
AcDbEntity
  8
SUNPOU
100
AcDbMText
 10
53308.47416841216
 20
42212.57049085211
 30
0.0
 40
3.5
 41
0.0
 71
     7
 72
     5
  1

1001
ACAD
1000
MTEXTBEGIN
1070
    73
1070
     1
1070
    44
1040
1.0
1070
    74
1070
     0
1000
MTEXTEND
  0
MTEXT
  5
5681
330
1A
100
AcDbEntity
  8
SUNPOU
100
AcDbMText
 10
67000.82485118274
 20
51571.63371187343
 30
0.0
 40
10.5
 41
0.0
 71
     9
 72
     5
  1

1001
ACAD
1000
MTEXTBEGIN
1070
    73
1070
     1
1070
    44
1040
1.0
1070
    74
1070
     0
1000
MTEXTEND
  0
MTEXT
  5
5682
330
1A
100
AcDbEntity
  8
SUNPOU
100
AcDbMText
 10
75722.99241710071
 20
58987.46824341094
 30
0.0
 40
10.5
 41
0.0
 71
     9
 72
     5
  1

1001
ACAD
1000
MTEXTBEGIN
1070
    73
1070
     1
1070
    44
1040
1.0
1070
    74
1070
     0
1000
MTEXTEND
  0
MTEXT
  5
5683
330
1A
100
AcDbEntity
  8
SUNPOU
100
AcDbMText
 10
94676.75113443068
 20
76454.04429590299
 30
0.0
 40
10.5
 41
0.0
 71
     9
 72
     5
  1

1001
ACAD
1000
MTEXTBEGIN
1070
    73
1070
     1
1070
    44
1040
1.0
1070
    74
1070
     0
1000
MTEXTEND
  0
MTEXT
  5
5684
330
1A
100
AcDbEntity
  8
SUNPOU
100
AcDbMText
 10
96620.1583811401
 20
74652.99521602497
 30
0.0
 40
3.5
 41
0.0
 71
     9
 72
     5
  1

1001
ACAD
1000
MTEXTBEGIN
1070
    73
1070
     1
1070
    44
1040
1.0
1070
    74
1070
     0
1000
MTEXTEND
  0
MTEXT
  5
5685
330
1A
100
AcDbEntity
  8
SUNPOU
100
AcDbMText
 10
127746.3382137598
 20
117147.9408836822
 30
0.0
 40
10.5
 41
0.0
 71
     9
 72
     5
  1

1001
ACAD
1000
MTEXTBEGIN
1070
    73
1070
     1
1070
    44
1040
1.0
1070
    74
1070
     0
1000
MTEXTEND
  0
MTEXT
  5
5686
330
1A
100
AcDbEntity
  8
SUNPOU
100
AcDbMText
 10
129689.7454604692
 20
115346.8918038041
 30
0.0
 40
3.5
 41
0.0
 71
     9
 72
     5
  1

1001
ACAD
1000
MTEXTBEGIN
1070
    73
1070
     1
1070
    44
1040
1.0
1070
    74
1070
     0
1000
MTEXTEND
  0
MTEXT
  5
5687
330
1A
100
AcDbEntity
  8
SUNPOU
100
AcDbMText
 10
78186.60591955537
 20
62981.10603865737
 30
0.0
 40
10.5
 41
0.0
 71
     9
 72
     5
  1

1001
ACAD
1000
MTEXTBEGIN
1070
    73
1070
     1
1070
    44
1040
1.0
1070
    74
1070
     0
1000
MTEXTEND
  0
MTEXT
  5
5688
330
1A
100
AcDbEntity
  8
SUNPOU
100
AcDbMText
 10
64238.60581917939
 20
43808.70689954517
 30
0.0
 40
3.5
 41
0.0
 71
     7
 72
     5
  1

1001
ACAD
1000
MTEXTBEGIN
1070
    73
1070
     1
1070
    44
1040
1.0
1070
    74
1070
     0
1000
MTEXTEND
  0
MTEXT
  5
5689
330
1A
100
AcDbEntity
  8
SUNPOU
100
AcDbMText
 10
33428.13481137435
 20
32770.04710035563
 30
0.0
 40
10.5
 41
0.0
 71
     9
 72
     5
  1

1001
ACAD
1000
MTEXTBEGIN
1070
    73
1070
     1
1070
    44
1040
1.0
1070
    74
1070
     0
1000
MTEXTEND
  0
MTEXT
  5
568A
330
1A
100
AcDbEntity
  8
SUNPOU
100
AcDbMText
 10
52381.89352870431
 20
50236.62315284768
 30
0.0
 40
10.5
 41
0.0
 71
     9
 72
     5
  1

1001
ACAD
1000
MTEXTBEGIN
1070
    73
1070
     1
1070
    44
1040
1.0
1070
    74
1070
     0
1000
MTEXTEND
  0
MTEXT
  5
568B
330
1A
100
AcDbEntity
  8
SUNPOU
100
AcDbMText
 10
54325.30077541374
 20
48435.57407296968
 30
0.0
 40
3.5
 41
0.0
 71
     9
 72
     5
  1

1001
ACAD
1000
MTEXTBEGIN
1070
    73
1070
     1
1070
    44
1040
1.0
1070
    74
1070
     0
1000
MTEXTEND
  0
MTEXT
  5
568C
330
1A
100
AcDbEntity
  8
SUNPOU
100
AcDbMText
 10
85451.48060803342
 20
90930.51974062703
 30
0.0
 40
10.5
 41
0.0
 71
     9
 72
     5
  1

1001
ACAD
1000
MTEXTBEGIN
1070
    73
1070
     1
1070
    44
1040
1.0
1070
    74
1070
     0
1000
MTEXTEND
  0
MTEXT
  5
568D
330
1A
100
AcDbEntity
  8
SUNPOU
100
AcDbMText
 10
87394.88785474286
 20
89129.47066074901
 30
0.0
 40
3.5
 41
0.0
 71
     9
 72
     5
  1

1001
ACAD
1000
MTEXTBEGIN
1070
    73
1070
     1
1070
    44
1040
1.0
1070
    74
1070
     0
1000
MTEXTEND
  0
MTEXT
  5
568E
330
1A
100
AcDbEntity
  8
SUNPOU
100
AcDbMText
 10
35891.74831382901
 20
36763.68489560208
 30
0.0
 40
10.5
 41
0.0
 71
     9
 72
     5
  1

1001
ACAD
1000
MTEXTBEGIN
1070
    73
1070
     1
1070
    44
1040
1.0
1070
    74
1070
     0
1000
MTEXTEND
  0
MTEXT
  5
568F
330
1A
100
AcDbEntity
  8
SUNPOU
100
AcDbMText
 10
21943.74821345303
 20
17591.28575648985
 30
0.0
 40
3.5
 41
0.0
 71
     7
 72
     5
  1

1001
ACAD
1000
MTEXTBEGIN
1070
    73
1070
     1
1070
    44
1040
1.0
1070
    74
1070
     0
1000
MTEXTEND
  0
MTEXT
  5
121BF
330
1A
100
AcDbEntity
  8
ZISSEN1
100
AcDbMText
 10
-1671.051041621798
 20
1806.890376662688
 30
0.0
 40
5.0
 41
78.09535902012799
 71
     1
 72
     5
  1
CB-35/PS　No.SS0001f21
  7
ゴシック体
1001
ACAD
1000
MTEXTBEGIN
1070
    73
1070
     1
1070
    44
1040
1.0
1070
    74
1070
     0
1000
MTEXTEND
  0
CIRCLE
  5
12264
330
1A
100
AcDbEntity
  8
ZISSEN1
100
AcDbCircle
 10
-1667.184783858467
 20
1761.3103848258
 30
0.0
 40
1.749999899999999
  0
LINE
  5
12265
330
1A
100
AcDbEntity
  8
ZISSEN1
100
AcDbLine
 10
-1612.190183858467
 20
1765.2403448258
 30
0.0
 11
-1612.190183858467
 21
1740.780374825799
 31
0.0
  0
LINE
  5
12266
330
1A
100
AcDbEntity
  8
ZISSEN1
100
AcDbLine
 10
-1685.184773858467
 20
1740.780374825799
 30
0.0
 11
-1685.184773858467
 21
1765.2403448258
 31
0.0
  0
LINE
  5
12267
330
1A
100
AcDbEntity
  8
ZISSEN1
100
AcDbLine
 10
-1673.184773858467
 20
1740.780374825799
 30
0.0
 11
-1673.184773858467
 21
1765.2403448258
 31
0.0
  0
LINE
  5
12268
330
1A
100
AcDbEntity
  8
ZISSEN1
100
AcDbLine
 10
-1663.184783858467
 20
1764.6032648258
 30
0.0
 11
-1663.184783858467
 21
1757.1032648258
 31
0.0
  0
LINE
  5
12269
330
1A
100
AcDbEntity
  8
ZISSEN1
100
AcDbLine
 10
-1670.684783858467
 20
1764.6032648258
 30
0.0
 11
-1670.684783858467
 21
1757.810374825799
 31
0.0
  0
LINE
  5
1226A
330
1A
100
AcDbEntity
  8
ZISSEN1
100
AcDbLine
 10
-1693.184780858467
 20
1695.517474825798
 30
0.0
 11
-1693.184780858467
 21
1764.6032648258
 31
0.0
  0
LINE
  5
1226B
330
1A
100
AcDbEntity
  8
ZISSEN1
100
AcDbLine
 10
-1597.190183858467
 20
1765.3103748258
 30
0.0
 11
-1597.190183858467
 21
1687.310364825798
 31
0.0
  0
LINE
  5
1226C
330
1A
100
AcDbEntity
  8
ZISSEN1
100
AcDbLine
 10
-1595.590193858467
 20
1765.3103748258
 30
0.0
 11
-1595.590193858467
 21
1687.310364825798
 31
0.0
  0
LINE
  5
1226D
330
1A
100
AcDbEntity
  8
ZISSEN1
100
AcDbLine
 10
-1595.590193858467
 20
1763.810394825799
 30
0.0
 11
-1595.590193858467
 21
1758.8103748258
 31
0.0
  0
LINE
  5
1226E
330
1A
100
AcDbEntity
  8
CL1
100
AcDbLine
 10
-1667.184783858467
 20
1764.310394825799
 30
0.0
 11
-1667.184783858467
 21
1758.3103748258
 31
0.0
  0
LINE
  5
1226F
330
1A
100
AcDbEntity
  8
ZISSEN1
100
AcDbLine
 10
-1590.590183858467
 20
1765.3103748258
 30
0.0
 11
-1590.590183858467
 21
1687.310364825798
 31
0.0
  0
LINE
  5
12270
330
1A
100
AcDbEntity
  8
ZISSEN1
100
AcDbLine
 10
-1588.590193858467
 20
1765.3103748258
 30
0.0
 11
-1588.590193858467
 21
1687.310364825798
 31
0.0
  0
LINE
  5
12271
330
1A
100
AcDbEntity
  8
ZISSEN1
100
AcDbLine
 10
-1681.034773858467
 20
1716.940354825799
 30
0.0
 11
-1681.034773858467
 21
1694.0803648258
 31
0.0
  0
LINE
  5
12272
330
1A
100
AcDbEntity
  8
ZISSEN1
100
AcDbLine
 10
-1688.334786858467
 20
1716.940354825799
 30
0.0
 11
-1688.334786858467
 21
1694.0803648258
 31
0.0
  0
LINE
  5
12273
330
1A
100
AcDbEntity
  8
ZISSEN1
100
AcDbLine
 10
-1686.684793858467
 20
1716.940354825799
 30
0.0
 11
-1686.684793858467
 21
1694.0803648258
 31
0.0
  0
LINE
  5
12274
330
1A
100
AcDbEntity
  8
ZISSEN1
100
AcDbLine
 10
-1682.684773858468
 20
1716.940354825799
 30
0.0
 11
-1682.684773858468
 21
1694.0803648258
 31
0.0
  0
LINE
  5
12275
330
1A
100
AcDbEntity
  8
ZISSEN1
100
AcDbLine
 10
-1663.184783858467
 20
1757.1032648258
 30
0.0
 11
-1663.184783858467
 21
1688.0174748258
 31
0.0
  0
LINE
  5
12276
330
1A
100
AcDbEntity
  8
ZISSEN1
100
AcDbLine
 10
-1684.977673858467
 20
1687.310364825798
 30
0.0
 11
-1663.891893858465
 21
1687.310364825798
 31
0.0
  0
CIRCLE
  5
12277
330
1A
100
AcDbEntity
  8
ZISSEN1
100
AcDbCircle
 10
-1689.184779858467
 20
1691.3103748258
 30
0.0
 40
1.749999899999999
  0
LINE
  5
12278
330
1A
100
AcDbEntity
  8
ZISSEN1
100
AcDbLine
 10
-1685.684783858467
 20
1688.0174748258
 30
0.0
 11
-1685.684783858467
 21
1694.8103648258
 31
0.0
  0
LINE
  5
12279
330
1A
100
AcDbEntity
  8
ZISSEN1
100
AcDbLine
 10
-1693.184780858467
 20
1695.517474825798
 30
0.0
 11
-1693.184780858467
 21
1688.0174748258
 31
0.0
  0
LINE
  5
1227A
330
1A
100
AcDbEntity
  8
CL1
100
AcDbLine
 10
-1689.184779858467
 20
1694.3103748258
 30
0.0
 11
-1689.184779858467
 21
1688.3103848258
 31
0.0
  0
LINE
  5
1227B
330
1A
100
AcDbEntity
  8
ZISSEN1
100
AcDbLine
 10
-1692.477671858467
 20
1687.310364825798
 30
0.0
 11
-1684.977673858467
 21
1687.310364825798
 31
0.0
  0
LINE
  5
1227C
330
1A
100
AcDbEntity
  8
CL1
100
AcDbLine
 10
-1692.184777858467
 20
1691.3103748258
 30
0.0
 11
-1686.184783858467
 21
1691.3103748258
 31
0.0
  0
LINE
  5
1227D
330
1A
100
AcDbEntity
  8
ZISSEN1
100
AcDbLine
 10
-1692.477671858467
 20
1687.310364825798
 30
0.0
 11
-1693.184780858467
 21
1688.0174748258
 31
0.0
  0
LINE
  5
1227E
330
1A
100
AcDbEntity
  8
ZISSEN1
100
AcDbLine
 10
-1685.684783858467
 20
1688.0174748258
 30
0.0
 11
-1684.977673858467
 21
1687.310364825798
 31
0.0
  0
LINE
  5
1227F
330
1A
100
AcDbEntity
  8
ZISSEN1
100
AcDbLine
 10
-1692.477671858467
 20
1694.8103648258
 30
0.0
 11
-1685.684783858467
 21
1694.8103648258
 31
0.0
  0
LINE
  5
12280
330
1A
100
AcDbEntity
  8
ZISSEN1
100
AcDbLine
 10
-1693.184780858467
 20
1695.517474825798
 30
0.0
 11
-1692.477671858467
 21
1694.8103648258
 31
0.0
  0
LINE
  5
12281
330
1A
100
AcDbEntity
  8
ZISSEN1
100
AcDbLine
 10
-1688.334786858467
 20
1694.0803648258
 30
0.0
 11
-1681.034773858467
 21
1694.0803648258
 31
0.0
  0
LINE
  5
12283
330
1A
100
AcDbEntity
  8
ZISSEN1
100
AcDbLine
 10
-1663.184783858467
 20
1688.0174748258
 30
0.0
 11
-1663.891893858465
 21
1687.310364825798
 31
0.0
  0
LINE
  5
12284
330
1A
100
AcDbEntity
  8
ZISSEN1
100
AcDbLine
 10
-1685.184773858467
 20
1740.780374825799
 30
0.0
 11
-1673.184773858467
 21
1740.780374825799
 31
0.0
  0
LINE
  5
12285
330
1A
100
AcDbEntity
  8
ZISSEN1
100
AcDbLine
 10
-1681.034773858467
 20
1740.240364825799
 30
0.0
 11
-1681.034773858467
 21
1717.380364825799
 31
0.0
  0
LINE
  5
12286
330
1A
100
AcDbEntity
  8
ZISSEN1
100
AcDbLine
 10
-1682.684773858468
 20
1740.240364825799
 30
0.0
 11
-1682.684773858468
 21
1717.380364825799
 31
0.0
  0
LINE
  5
12287
330
1A
100
AcDbEntity
  8
ZISSEN1
100
AcDbLine
 10
-1686.684793858467
 20
1740.240364825799
 30
0.0
 11
-1686.684793858467
 21
1717.380364825799
 31
0.0
  0
LINE
  5
12288
330
1A
100
AcDbEntity
  8
ZISSEN1
100
AcDbLine
 10
-1688.334786858467
 20
1740.240364825799
 30
0.0
 11
-1688.334786858467
 21
1717.380364825799
 31
0.0
  0
LINE
  5
12289
330
1A
100
AcDbEntity
  8
ZISSEN1
100
AcDbLine
 10
-1681.034773858467
 20
1716.940354825799
 30
0.0
 11
-1688.334786858467
 21
1716.940354825799
 31
0.0
  0
LINE
  5
1228A
330
1A
100
AcDbEntity
  8
ZISSEN1
100
AcDbLine
 10
-1681.034773858467
 20
1716.940354825799
 30
0.0
 11
-1688.334786858467
 21
1716.940354825799
 31
0.0
  0
LINE
  5
1228B
330
1A
100
AcDbEntity
  8
ZISSEN1
100
AcDbLine
 10
-1688.334786858467
 20
1717.380364825799
 30
0.0
 11
-1681.034773858467
 21
1717.380364825799
 31
0.0
  0
LINE
  5
1228C
330
1A
100
AcDbEntity
  8
ZISSEN1
100
AcDbLine
 10
-1688.334786858467
 20
1717.9403748258
 30
0.0
 11
-1688.334786858467
 21
1717.380364825799
 31
0.0
  0
LINE
  5
1228D
330
1A
100
AcDbEntity
  8
ZISSEN1
100
AcDbLine
 10
-1686.684793858467
 20
1717.9403748258
 30
0.0
 11
-1686.684793858467
 21
1717.380364825799
 31
0.0
  0
LINE
  5
1228E
330
1A
100
AcDbEntity
  8
ZISSEN1
100
AcDbLine
 10
-1681.034773858467
 20
1717.9403748258
 30
0.0
 11
-1681.034773858467
 21
1717.380364825799
 31
0.0
  0
LINE
  5
1228F
330
1A
100
AcDbEntity
  8
ZISSEN1
100
AcDbLine
 10
-1682.684773858468
 20
1717.9403748258
 30
0.0
 11
-1682.684773858468
 21
1717.380364825799
 31
0.0
  0
LINE
  5
12290
330
1A
100
AcDbEntity
  8
ZISSEN1
100
AcDbLine
 10
-1681.034773858467
 20
1740.240364825799
 30
0.0
 11
-1688.334786858467
 21
1740.240364825799
 31
0.0
  0
LINE
  5
12291
330
1A
100
AcDbEntity
  8
ZISSEN1
100
AcDbLine
 10
-1663.891893858465
 20
1757.810374825799
 30
0.0
 11
-1670.684783858467
 21
1757.810374825799
 31
0.0
  0
LINE
  5
12292
330
1A
100
AcDbEntity
  8
ZISSEN1
100
AcDbLine
 10
-1663.891893858465
 20
1757.810374825799
 30
0.0
 11
-1663.184783858467
 21
1757.1032648258
 31
0.0
  0
LINE
  5
12293
330
1A
100
AcDbEntity
  8
ZISSEN1
100
AcDbLine
 10
-1601.690183858467
 20
1716.940354825799
 30
0.0
 11
-1601.690183858467
 21
1694.0803648258
 31
0.0
  0
LINE
  5
12294
330
1A
100
AcDbEntity
  8
ZISSEN1
100
AcDbLine
 10
-1605.690183858467
 20
1716.940354825799
 30
0.0
 11
-1605.690183858467
 21
1694.0803648258
 31
0.0
  0
LINE
  5
12295
330
1A
100
AcDbEntity
  8
ZISSEN1
100
AcDbLine
 10
-1583.802653858467
 20
1710.0607748258
 30
0.0
 11
-1583.802653858467
 21
1724.228834825798
 31
0.0
  0
LINE
  5
12296
330
1A
100
AcDbEntity
  8
ZISSEN1
100
AcDbLine
 10
-1588.590193858467
 20
1740.777014825798
 30
0.0
 11
-1588.590193858467
 21
1711.8437248258
 31
0.0
  0
LINE
  5
12297
330
1A
100
AcDbEntity
  8
ZISSEN1
100
AcDbLine
 10
-1595.590193858467
 20
1693.8103748258
 30
0.0
 11
-1595.590193858467
 21
1688.810384825799
 31
0.0
  0
LINE
  5
12298
330
1A
100
AcDbEntity
  8
ZISSEN1
100
AcDbLine
 10
-1595.590193858467
 20
1688.810384825799
 30
0.0
 11
-1590.590183858467
 21
1688.810384825799
 31
0.0
  0
LINE
  5
12299
330
1A
100
AcDbEntity
  8
ZISSEN1
100
AcDbLine
 10
-1597.190183858467
 20
1688.0174748258
 30
0.0
 11
-1595.590193858467
 21
1688.0174748258
 31
0.0
  0
LINE
  5
1229A
330
1A
100
AcDbEntity
  8
ZISSEN1
100
AcDbLine
 10
-1597.190183858467
 20
1687.310364825798
 30
0.0
 11
-1595.590193858467
 21
1687.310364825798
 31
0.0
  0
LINE
  5
1229B
330
1A
100
AcDbEntity
  8
CL1
100
AcDbLine
 10
-1593.590183858467
 20
1691.3103748258
 30
0.0
 11
-1585.590193858467
 21
1691.3103748258
 31
0.0
  0
LINE
  5
1229C
330
1A
100
AcDbEntity
  8
ZISSEN1
100
AcDbLine
 10
-1590.590183858467
 20
1688.0174748258
 30
0.0
 11
-1588.590193858467
 21
1688.0174748258
 31
0.0
  0
LINE
  5
1229D
330
1A
100
AcDbEntity
  8
ZISSEN1
100
AcDbLine
 10
-1590.590183858467
 20
1687.310364825798
 30
0.0
 11
-1588.590193858467
 21
1687.310364825798
 31
0.0
  0
LINE
  5
1229E
330
1A
100
AcDbEntity
  8
ZISSEN1
100
AcDbLine
 10
-1595.590193858467
 20
1693.8103748258
 30
0.0
 11
-1590.590183858467
 21
1693.8103748258
 31
0.0
  0
LINE
  5
1229F
330
1A
100
AcDbEntity
  8
ZISSEN1
100
AcDbLine
 10
-1605.690183858467
 20
1694.0803648258
 30
0.0
 11
-1597.190183858467
 21
1694.0803648258
 31
0.0
  0
LINE
  5
122A0
330
1A
100
AcDbEntity
  8
ZISSEN1
100
AcDbLine
 10
-1584.457703858467
 20
1709.5581248258
 30
0.0
 11
-1585.645413858467
 21
1709.8763548258
 31
0.0
  0
LINE
  5
122A1
330
1A
100
AcDbEntity
  8
ZISSEN1
100
AcDbLine
 10
-1584.008173858467
 20
1706.743974825799
 30
0.0
 11
-1586.422913858467
 21
1707.3909748258
 31
0.0
  0
LINE
  5
122A2
330
1A
100
AcDbEntity
  8
ZISSEN1
100
AcDbLine
 10
-1583.802653858467
 20
1708.305114825799
 30
0.0
 11
-1585.914793858467
 21
1708.8710548258
 31
0.0
  0
ARC
  5
122A3
330
1A
100
AcDbEntity
  8
ZISSEN1
100
AcDbCircle
 10
-1585.884193858467
 20
1709.4015948258
 30
0.0
 40
2.081532899999999
100
AcDbArc
 50
180.0
 51
255.0000000000055
  0
ARC
  5
122A4
330
1A
100
AcDbEntity
  8
ZISSEN1
100
AcDbCircle
 10
-1585.780113858467
 20
1709.373704825798
 30
0.0
 40
0.5203829000000001
100
AcDbArc
 50
75.00000000000555
 51
254.9999800000044
  0
ARC
  5
122A5
330
1A
100
AcDbEntity
  8
ZISSEN1
100
AcDbCircle
 10
-1589.526853858467
 20
1710.5947948258
 30
0.0
 40
1.5611496
100
AcDbArc
 50
0.0
 51
53.1301869999975
  0
LINE
  5
122A6
330
1A
100
AcDbEntity
  8
ZISSEN1
100
AcDbLine
 10
-1587.965703858467
 20
1710.5947948258
 30
0.0
 11
-1587.965703858467
 21
1709.4015948258
 31
0.0
  0
LINE
  5
122A7
330
1A
100
AcDbEntity
  8
ZISSEN1
100
AcDbLine
 10
-1579.602683858467
 20
1708.9577348258
 30
0.0
 11
-1579.022233858467
 21
1708.667514825799
 31
0.0
  0
LINE
  5
122A8
330
1A
100
AcDbEntity
  8
ZISSEN1
100
AcDbLine
 10
-1582.553723858467
 20
1708.305114825799
 30
0.0
 11
-1582.386723858467
 21
1708.9283048258
 31
0.0
  0
LINE
  5
122A9
330
1A
100
AcDbEntity
  8
ZISSEN1
100
AcDbLine
 10
-1584.008173858467
 20
1706.743974825799
 30
0.0
 11
-1579.257853858467
 21
1706.743974825799
 31
0.0
  0
LINE
  5
122AA
330
1A
100
AcDbEntity
  8
ZISSEN1
100
AcDbLine
 10
-1578.848113858467
 20
1704.7614248258
 30
0.0
 11
-1581.716763858467
 21
1704.2556148258
 31
0.0
  0
LINE
  5
122AB
330
1A
100
AcDbEntity
  8
ZISSEN1
100
AcDbLine
 10
-1582.449673858467
 20
1705.394544825798
 30
0.0
 11
-1579.190073858467
 21
1705.969314825798
 31
0.0
  0
ARC
  5
122AC
330
1A
100
AcDbEntity
  8
ZISSEN1
100
AcDbCircle
 10
-1581.825183858467
 20
1704.870574825799
 30
0.0
 40
0.6244598000000004
100
AcDbArc
 50
179.9999799999978
 51
279.9999500000018
  0
LINE
  5
122AD
330
1A
100
AcDbEntity
  8
ZISSEN1
100
AcDbLine
 10
-1583.802653858467
 20
1708.305114825799
 30
0.0
 11
-1582.553723858467
 21
1708.305114825799
 31
0.0
  0
LINE
  5
122AE
330
1A
100
AcDbEntity
  8
ZISSEN1
100
AcDbLine
 10
-1582.449673858467
 20
1704.870574825799
 30
0.0
 11
-1582.449673858467
 21
1706.743974825799
 31
0.0
  0
ARC
  5
122AF
330
1A
100
AcDbEntity
  8
ZISSEN1
100
AcDbCircle
 10
-1579.257853858467
 20
1706.353674825798
 30
0.0
 40
0.3902874
100
AcDbArc
 50
280.0000000000038
 51
89.99998400000361
  0
ARC
  5
122B0
330
1A
100
AcDbEntity
  8
ZISSEN1
100
AcDbCircle
 10
-1579.119183858467
 20
1706.2988448258
 30
0.0
 40
1.5611496
100
AcDbArc
 50
280.0000000000038
 51
0.0
  0
LINE
  5
122B1
330
1A
100
AcDbEntity
  8
ZISSEN1
100
AcDbLine
 10
-1577.716223858467
 20
1706.9261848258
 30
0.0
 11
-1577.861353858467
 21
1707.0712748258
 31
0.0
  0
LINE
  5
122B2
330
1A
100
AcDbEntity
  8
ZISSEN1
100
AcDbLine
 10
-1577.571103858467
 20
1706.200614825799
 30
0.0
 11
-1577.716223858467
 21
1706.9261848258
 31
0.0
  0
LINE
  5
122B3
330
1A
100
AcDbEntity
  8
ZISSEN1
100
AcDbLine
 10
-1577.861353858467
 20
1706.9261848258
 30
0.0
 11
-1577.861353858467
 21
1706.7810848258
 31
0.0
  0
LINE
  5
122B4
330
1A
100
AcDbEntity
  8
ZISSEN1
100
AcDbLine
 10
-1577.861353858467
 20
1707.651744825798
 30
0.0
 11
-1577.861353858467
 21
1706.9261848258
 31
0.0
  0
LINE
  5
122B5
330
1A
100
AcDbEntity
  8
ZISSEN1
100
AcDbLine
 10
-1578.441793858467
 20
1708.232194825798
 30
0.0
 11
-1577.861353858467
 21
1707.651744825798
 31
0.0
  0
LINE
  5
122B6
330
1A
100
AcDbEntity
  8
ZISSEN1
100
AcDbLine
 10
-1579.022233858467
 20
1708.667514825799
 30
0.0
 11
-1578.441793858467
 21
1708.232194825798
 31
0.0
  0
LINE
  5
122B7
330
1A
100
AcDbEntity
  8
ZISSEN1
100
AcDbLine
 10
-1581.344013858467
 20
1708.9577348258
 30
0.0
 11
-1580.763573858467
 21
1708.9577348258
 31
0.0
  0
ARC
  5
122B8
330
1A
100
AcDbEntity
  8
ZISSEN1
100
AcDbCircle
 10
-1584.323043858467
 20
1710.0607748258
 30
0.0
 40
0.5203832000000001
100
AcDbArc
 50
255.0000000000055
 51
359.9999799999979
  0
LINE
  5
122B9
330
1A
100
AcDbEntity
  8
ZISSEN1
100
AcDbLine
 10
-1581.924463858467
 20
1708.9577348258
 30
0.0
 11
-1581.344013858467
 21
1708.9577348258
 31
0.0
  0
LINE
  5
122BA
330
1A
100
AcDbEntity
  8
ZISSEN1
100
AcDbLine
 10
-1582.359803858467
 20
1708.9577348258
 30
0.0
 11
-1581.924463858467
 21
1708.9577348258
 31
0.0
  0
LINE
  5
122BB
330
1A
100
AcDbEntity
  8
ZISSEN1
100
AcDbLine
 10
-1580.183123858467
 20
1708.9577348258
 30
0.0
 11
-1579.602683858467
 21
1708.9577348258
 31
0.0
  0
LINE
  5
122BC
330
1A
100
AcDbEntity
  8
ZISSEN1
100
AcDbLine
 10
-1580.763573858467
 20
1708.9577348258
 30
0.0
 11
-1580.183123858467
 21
1708.9577348258
 31
0.0
  0
LINE
  5
122BD
330
1A
100
AcDbEntity
  8
ZISSEN1
100
AcDbLine
 10
-1612.190183858467
 20
1740.780374825799
 30
0.0
 11
-1597.190183858467
 21
1740.780374825799
 31
0.0
  0
LINE
  5
122BE
330
1A
100
AcDbEntity
  8
ZISSEN1
100
AcDbLine
 10
-1601.690183858467
 20
1740.240364825799
 30
0.0
 11
-1601.690183858467
 21
1717.380364825799
 31
0.0
  0
LINE
  5
122BF
330
1A
100
AcDbEntity
  8
ZISSEN1
100
AcDbLine
 10
-1605.690183858467
 20
1740.240364825799
 30
0.0
 11
-1605.690183858467
 21
1717.380364825799
 31
0.0
  0
LINE
  5
122C0
330
1A
100
AcDbEntity
  8
ZISSEN1
100
AcDbLine
 10
-1583.802653858467
 20
1728.3919048258
 30
0.0
 11
-1583.802653858467
 21
1742.5599648258
 31
0.0
  0
LINE
  5
122C1
330
1A
100
AcDbEntity
  8
ZISSEN1
100
AcDbLine
 10
-1605.690183858467
 20
1716.940354825799
 30
0.0
 11
-1597.190183858467
 21
1716.940354825799
 31
0.0
  0
LINE
  5
122C2
330
1A
100
AcDbEntity
  8
ZISSEN1
100
AcDbLine
 10
-1605.690183858467
 20
1717.380364825799
 30
0.0
 11
-1597.190183858467
 21
1717.380364825799
 31
0.0
  0
ARC
  5
122C3
330
1A
100
AcDbEntity
  8
ZISSEN1
100
AcDbCircle
 10
-1581.505543858467
 20
1726.3103648258
 30
0.0
 40
3.3378866
100
AcDbArc
 50
141.4199000000041
 51
218.5800700000011
  0
LINE
  5
122C4
330
1A
100
AcDbEntity
  8
KAKURESEN1
100
AcDbLine
 10
-1590.590183858467
 20
1725.2695848258
 30
0.0
 11
-1584.677003858467
 21
1725.2695848258
 31
0.0
  0
LINE
  5
122C5
330
1A
100
AcDbEntity
  8
KAKURESEN1
100
AcDbLine
 10
-1590.590183858467
 20
1724.749224825799
 30
0.0
 11
-1584.455843858467
 21
1724.749224825799
 31
0.0
  0
LINE
  5
122C6
330
1A
100
AcDbEntity
  8
ZISSEN1
100
AcDbLine
 10
-1583.802653858467
 20
1724.228834825798
 30
0.0
 11
-1584.114873858467
 21
1724.228834825798
 31
0.0
  0
LINE
  5
122C7
330
1A
100
AcDbEntity
  8
KAKURESEN1
100
AcDbLine
 10
-1590.590183858467
 20
1727.8715148258
 30
0.0
 11
-1584.455843858467
 21
1727.8715148258
 31
0.0
  0
LINE
  5
122C8
330
1A
100
AcDbEntity
  8
KAKURESEN1
100
AcDbLine
 10
-1590.590183858467
 20
1727.351124825799
 30
0.0
 11
-1584.677003858467
 21
1727.351124825799
 31
0.0
  0
LINE
  5
122C9
330
1A
100
AcDbEntity
  8
ZISSEN1
100
AcDbLine
 10
-1583.802653858467
 20
1728.3919048258
 30
0.0
 11
-1584.114873858467
 21
1728.3919048258
 31
0.0
  0
LINE
  5
122CA
330
1A
100
AcDbEntity
  8
ZISSEN1
100
AcDbLine
 10
-1595.590193858467
 20
1758.8103748258
 30
0.0
 11
-1590.590183858467
 21
1758.8103748258
 31
0.0
  0
LINE
  5
122CB
330
1A
100
AcDbEntity
  8
ZISSEN1
100
AcDbLine
 10
-1605.690183858467
 20
1740.240364825799
 30
0.0
 11
-1597.190183858467
 21
1740.240364825799
 31
0.0
  0
LINE
  5
122CC
330
1A
100
AcDbEntity
  8
ZISSEN1
100
AcDbLine
 10
-1597.190183858467
 20
1757.810374825799
 30
0.0
 11
-1595.590193858467
 21
1757.810374825799
 31
0.0
  0
LINE
  5
122CD
330
1A
100
AcDbEntity
  8
ZISSEN1
100
AcDbLine
 10
-1597.190183858467
 20
1757.1032648258
 30
0.0
 11
-1595.590193858467
 21
1757.1032648258
 31
0.0
  0
LINE
  5
122CE
330
1A
100
AcDbEntity
  8
ZISSEN1
100
AcDbLine
 10
-1583.802653858467
 20
1744.3156248258
 30
0.0
 11
-1585.914793858467
 21
1743.7496848258
 31
0.0
  0
LINE
  5
122CF
330
1A
100
AcDbEntity
  8
ZISSEN1
100
AcDbLine
 10
-1584.457703858467
 20
1743.0626348258
 30
0.0
 11
-1585.645413858467
 21
1742.7443848258
 31
0.0
  0
LINE
  5
122D0
330
1A
100
AcDbEntity
  8
ZISSEN1
100
AcDbLine
 10
-1584.008173858467
 20
1745.876774825799
 30
0.0
 11
-1586.422913858467
 21
1745.229744825799
 31
0.0
  0
ARC
  5
122D1
330
1A
100
AcDbEntity
  8
ZISSEN1
100
AcDbCircle
 10
-1585.884193858467
 20
1743.2191448258
 30
0.0
 40
2.081532899999999
100
AcDbArc
 50
104.9999799999933
 51
180.0
  0
ARC
  5
122D2
330
1A
100
AcDbEntity
  8
ZISSEN1
100
AcDbCircle
 10
-1585.780113858467
 20
1743.247034825799
 30
0.0
 40
0.5203829000000001
100
AcDbArc
 50
104.9999999999944
 51
284.9999799999933
  0
ARC
  5
122D3
330
1A
100
AcDbEntity
  8
ZISSEN1
100
AcDbCircle
 10
-1589.526853858467
 20
1742.025944825799
 30
0.0
 40
1.5611496
100
AcDbArc
 50
306.8697900000027
 51
0.0
  0
LINE
  5
122D4
330
1A
100
AcDbEntity
  8
ZISSEN1
100
AcDbLine
 10
-1587.965703858467
 20
1742.025944825799
 30
0.0
 11
-1587.965703858467
 21
1743.2191448258
 31
0.0
  0
LINE
  5
122D5
330
1A
100
AcDbEntity
  8
ZISSEN1
100
AcDbLine
 10
-1582.069553858467
 20
1743.494294825799
 30
0.0
 11
-1582.386723858467
 21
1743.692444825799
 31
0.0
  0
LINE
  5
122D6
330
1A
100
AcDbEntity
  8
ZISSEN1
100
AcDbLine
 10
-1582.504903858467
 20
1743.784514825798
 30
0.0
 11
-1582.069553858467
 21
1743.494294825799
 31
0.0
  0
LINE
  5
122D7
330
1A
100
AcDbEntity
  8
ZISSEN1
100
AcDbLine
 10
-1579.167333858467
 20
1743.494294825799
 30
0.0
 11
-1578.586893858467
 21
1743.639424825799
 31
0.0
  0
LINE
  5
122D8
330
1A
100
AcDbEntity
  8
ZISSEN1
100
AcDbLine
 10
-1581.489113858467
 20
1743.494294825799
 30
0.0
 11
-1580.908673858467
 21
1743.494294825799
 31
0.0
  0
ARC
  5
122D9
330
1A
100
AcDbEntity
  8
ZISSEN1
100
AcDbCircle
 10
-1584.323043858467
 20
1742.5599648258
 30
0.0
 40
0.5203832000000001
100
AcDbArc
 50
0.0
 51
104.9999799999933
  0
LINE
  5
122DA
330
1A
100
AcDbEntity
  8
ZISSEN1
100
AcDbLine
 10
-1582.069553858467
 20
1743.494294825799
 30
0.0
 11
-1581.489113858467
 21
1743.494294825799
 31
0.0
  0
LINE
  5
122DB
330
1A
100
AcDbEntity
  8
ZISSEN1
100
AcDbLine
 10
-1579.747783858467
 20
1743.494294825799
 30
0.0
 11
-1579.167333858467
 21
1743.494294825799
 31
0.0
  0
LINE
  5
122DC
330
1A
100
AcDbEntity
  8
ZISSEN1
100
AcDbLine
 10
-1580.328223858467
 20
1743.494294825799
 30
0.0
 11
-1579.747783858467
 21
1743.494294825799
 31
0.0
  0
LINE
  5
122DD
330
1A
100
AcDbEntity
  8
ZISSEN1
100
AcDbLine
 10
-1580.908673858467
 20
1743.494294825799
 30
0.0
 11
-1580.328223858467
 21
1743.494294825799
 31
0.0
  0
LINE
  5
122DE
330
1A
100
AcDbEntity
  8
ZISSEN1
100
AcDbLine
 10
-1578.848113858467
 20
1747.8593048258
 30
0.0
 11
-1581.716763858467
 21
1748.3651248258
 31
0.0
  0
LINE
  5
122DF
330
1A
100
AcDbEntity
  8
ZISSEN1
100
AcDbLine
 10
-1584.008173858467
 20
1745.876774825799
 30
0.0
 11
-1579.257853858467
 21
1745.876774825799
 31
0.0
  0
LINE
  5
122E0
330
1A
100
AcDbEntity
  8
ZISSEN1
100
AcDbLine
 10
-1582.449673858467
 20
1747.2261848258
 30
0.0
 11
-1579.190073858467
 21
1746.6514348258
 31
0.0
  0
ARC
  5
122E1
330
1A
100
AcDbEntity
  8
ZISSEN1
100
AcDbCircle
 10
-1581.825183858467
 20
1747.7501648258
 30
0.0
 40
0.6244598000000004
100
AcDbArc
 50
80.00002999999518
 51
180.0
  0
LINE
  5
122E2
330
1A
100
AcDbEntity
  8
ZISSEN1
100
AcDbLine
 10
-1583.802653858467
 20
1744.3156248258
 30
0.0
 11
-1582.553723858467
 21
1744.3156248258
 31
0.0
  0
LINE
  5
122E3
330
1A
100
AcDbEntity
  8
ZISSEN1
100
AcDbLine
 10
-1582.553723858467
 20
1744.3156248258
 30
0.0
 11
-1582.386723858467
 21
1743.692444825799
 31
0.0
  0
LINE
  5
122E4
330
1A
100
AcDbEntity
  8
ZISSEN1
100
AcDbLine
 10
-1582.449673858467
 20
1747.7501648258
 30
0.0
 11
-1582.449673858467
 21
1745.876774825799
 31
0.0
  0
ARC
  5
122E5
330
1A
100
AcDbEntity
  8
ZISSEN1
100
AcDbCircle
 10
-1579.257853858467
 20
1746.2670548258
 30
0.0
 40
0.3902874
100
AcDbArc
 50
270.0
 51
79.99998400000435
  0
ARC
  5
122E6
330
1A
100
AcDbEntity
  8
ZISSEN1
100
AcDbCircle
 10
-1579.119183858467
 20
1746.3219148258
 30
0.0
 40
1.5611496
100
AcDbArc
 50
0.0
 51
79.99998400000435
  0
LINE
  5
122E7
330
1A
100
AcDbEntity
  8
ZISSEN1
100
AcDbLine
 10
-1578.006443858467
 20
1745.3807548258
 30
0.0
 11
-1577.716223858467
 21
1745.3807548258
 31
0.0
  0
LINE
  5
122E8
330
1A
100
AcDbEntity
  8
ZISSEN1
100
AcDbLine
 10
-1577.426003858467
 20
1745.6709748258
 30
0.0
 11
-1578.006443858467
 21
1745.3807548258
 31
0.0
  0
LINE
  5
122E9
330
1A
100
AcDbEntity
  8
ZISSEN1
100
AcDbLine
 10
-1577.571103858467
 20
1746.2514248258
 30
0.0
 11
-1577.426003858467
 21
1745.6709748258
 31
0.0
  0
LINE
  5
122EA
330
1A
100
AcDbEntity
  8
ZISSEN1
100
AcDbLine
 10
-1577.571103858467
 20
1746.2514248258
 30
0.0
 11
-1577.558033858467
 21
1746.3219148258
 31
0.0
  0
LINE
  5
122EB
330
1A
100
AcDbEntity
  8
ZISSEN1
100
AcDbLine
 10
-1577.571103858467
 20
1744.800304825799
 30
0.0
 11
-1577.571103858467
 21
1745.3807548258
 31
0.0
  0
LINE
  5
122EC
330
1A
100
AcDbEntity
  8
ZISSEN1
100
AcDbLine
 10
-1578.006443858467
 20
1744.074744825799
 30
0.0
 11
-1577.571103858467
 21
1744.800304825799
 31
0.0
  0
LINE
  5
122ED
330
1A
100
AcDbEntity
  8
ZISSEN1
100
AcDbLine
 10
-1578.586893858467
 20
1743.639424825799
 30
0.0
 11
-1578.006443858467
 21
1744.074744825799
 31
0.0
  0
LINE
  5
122EE
330
1A
100
AcDbEntity
  8
ZISSEN1
100
AcDbLine
 10
-1685.184773858467
 20
1765.2403448258
 30
0.0
 11
-1673.184773858467
 21
1765.2403448258
 31
0.0
  0
LINE
  5
122EF
330
1A
100
AcDbEntity
  8
ZISSEN1
100
AcDbLine
 10
-1671.391893858467
 20
1765.3103748258
 30
0.0
 11
-1692.477671858467
 21
1765.3103748258
 31
0.0
  0
LINE
  5
122F0
330
1A
100
AcDbEntity
  8
ZISSEN1
100
AcDbLine
 10
-1693.184780858467
 20
1764.6032648258
 30
0.0
 11
-1692.477671858467
 21
1765.3103748258
 31
0.0
  0
LINE
  5
122F1
330
1A
100
AcDbEntity
  8
ZISSEN1
100
AcDbLine
 10
-1671.391893858467
 20
1765.3103748258
 30
0.0
 11
-1663.891893858465
 21
1765.3103748258
 31
0.0
  0
LINE
  5
122F2
330
1A
100
AcDbEntity
  8
CL1
100
AcDbLine
 10
-1670.184783858467
 20
1761.3103848258
 30
0.0
 11
-1664.184793858467
 21
1761.3103848258
 31
0.0
  0
LINE
  5
122F3
330
1A
100
AcDbEntity
  8
ZISSEN1
100
AcDbLine
 10
-1671.391893858467
 20
1765.3103748258
 30
0.0
 11
-1670.684783858467
 21
1764.6032648258
 31
0.0
  0
LINE
  5
122F4
330
1A
100
AcDbEntity
  8
ZISSEN1
100
AcDbLine
 10
-1663.184783858467
 20
1764.6032648258
 30
0.0
 11
-1663.891893858465
 21
1765.3103748258
 31
0.0
  0
LINE
  5
122F5
330
1A
100
AcDbEntity
  8
ZISSEN1
100
AcDbLine
 10
-1612.190183858467
 20
1765.2403448258
 30
0.0
 11
-1597.190183858467
 21
1765.2403448258
 31
0.0
  0
LINE
  5
122F6
330
1A
100
AcDbEntity
  8
ZISSEN1
100
AcDbLine
 10
-1595.590193858467
 20
1763.810394825799
 30
0.0
 11
-1590.590183858467
 21
1763.810394825799
 31
0.0
  0
LINE
  5
122F7
330
1A
100
AcDbEntity
  8
ZISSEN1
100
AcDbLine
 10
-1597.190183858467
 20
1764.6032648258
 30
0.0
 11
-1595.590193858467
 21
1764.6032648258
 31
0.0
  0
LINE
  5
122F8
330
1A
100
AcDbEntity
  8
ZISSEN1
100
AcDbLine
 10
-1597.190183858467
 20
1765.3103748258
 30
0.0
 11
-1595.590193858467
 21
1765.3103748258
 31
0.0
  0
LINE
  5
122F9
330
1A
100
AcDbEntity
  8
CL1
100
AcDbLine
 10
-1593.590183858467
 20
1761.3103848258
 30
0.0
 11
-1585.590183858467
 21
1761.3103848258
 31
0.0
  0
LINE
  5
122FA
330
1A
100
AcDbEntity
  8
ZISSEN1
100
AcDbLine
 10
-1590.590183858467
 20
1764.6032648258
 30
0.0
 11
-1588.590193858467
 21
1764.6032648258
 31
0.0
  0
LINE
  5
122FB
330
1A
100
AcDbEntity
  8
ZISSEN1
100
AcDbLine
 10
-1590.590183858467
 20
1765.3103748258
 30
0.0
 11
-1588.590193858467
 21
1765.3103748258
 31
0.0
  0
LINE
  5
1231D
330
1A
100
AcDbEntity
  8
ZISSEN1
100
AcDbLine
 10
-1684.977673858467
 20
1687.310364825798
 30
0.0
 11
-1663.891893858465
 21
1687.310364825798
 31
0.0
  0
CIRCLE
  5
12330
330
1A
100
AcDbEntity
  8
KAKURESEN1
100
AcDbCircle
 10
-1688.180095099681
 20
1726.310408670822
 30
0.0
 40
1.5
  0
LINE
  5
12331
330
1A
100
AcDbEntity
  8
CL1
100
AcDbLine
 10
-1692.180095099681
 20
1726.310408670822
 30
0.0
 11
-1688.180095099681
 21
1726.310408670822
 31
0.0
  0
LINE
  5
12332
330
1A
100
AcDbEntity
  8
CL1
100
AcDbLine
 10
-1688.180095099681
 20
1726.310408670822
 30
0.0
 11
-1692.180095099681
 21
1726.310408670822
 31
0.0
  0
CIRCLE
  5
12333
330
1A
100
AcDbEntity
  8
KAKURESEN1
100
AcDbCircle
 10
-1688.180095099681
 20
1726.310408670822
 30
0.0
 40
1.0
  0
LINE
  5
12334
330
1A
100
AcDbEntity
  8
CL1
100
AcDbLine
 10
-1688.180095099681
 20
1726.310408670822
 30
0.0
 11
-1684.180095099681
 21
1726.310408670822
 31
0.0
  0
LINE
  5
12335
330
1A
100
AcDbEntity
  8
CL1
100
AcDbLine
 10
-1688.180095099681
 20
1726.310408670822
 30
0.0
 11
-1688.180095099681
 21
1730.310408670822
 31
0.0
  0
LINE
  5
12336
330
1A
100
AcDbEntity
  8
CL1
100
AcDbLine
 10
-1688.180095099681
 20
1722.310408670822
 30
0.0
 11
-1688.180095099681
 21
1726.310408670822
 31
0.0
  0
LINE
  5
12337
330
1A
100
AcDbEntity
  8
CL1
100
AcDbLine
 10
-1688.180095099681
 20
1726.310408670822
 30
0.0
 11
-1688.180095099681
 21
1722.310408670822
 31
0.0
  0
LINE
  5
12338
330
1A
100
AcDbEntity
  8
CL1
100
AcDbLine
 10
-1668.180095099681
 20
1726.310408670822
 30
0.0
 11
-1664.180095099681
 21
1726.310408670822
 31
0.0
  0
CIRCLE
  5
12339
330
1A
100
AcDbEntity
  8
KAKURESEN1
100
AcDbCircle
 10
-1668.180095099681
 20
1726.310408670822
 30
0.0
 40
1.5
  0
CIRCLE
  5
1233A
330
1A
100
AcDbEntity
  8
KAKURESEN1
100
AcDbCircle
 10
-1668.180095099681
 20
1726.310408670822
 30
0.0
 40
1.0
  0
LINE
  5
1233B
330
1A
100
AcDbEntity
  8
CL1
100
AcDbLine
 10
-1668.180095099681
 20
1726.310408670822
 30
0.0
 11
-1672.180095099681
 21
1726.310408670822
 31
0.0
  0
LINE
  5
1233C
330
1A
100
AcDbEntity
  8
CL1
100
AcDbLine
 10
-1668.180095099681
 20
1726.310408670822
 30
0.0
 11
-1668.180095099681
 21
1722.310408670822
 31
0.0
  0
LINE
  5
1233D
330
1A
100
AcDbEntity
  8
CL1
100
AcDbLine
 10
-1668.180095099681
 20
1726.310408670822
 30
0.0
 11
-1668.180095099681
 21
1730.310408670822
 31
0.0
  0
LINE
  5
123D8
330
1A
100
AcDbEntity
  8
CL1
100
AcDbLine
 10
-1588.240213635893
 20
1726.313108670822
 30
0.0
 11
-1592.240213635893
 21
1726.313108670822
 31
0.0
  0
LINE
  5
123D9
330
1A
100
AcDbEntity
  8
CL1
100
AcDbLine
 10
-1588.240213635893
 20
1726.313108670822
 30
0.0
 11
-1582.505031089996
 21
1726.313108670822
 31
0.0
  0
DIMENSION
  5
123ED
330
1A
100
AcDbEntity
  8
SUNPOU
100
AcDbDimension
  2
*D23
 10
-1701.643571159159
 20
1726.310408670822
 30
0.0
 11
-1704.393571159161
 21
1745.81039174831
 31
0.0
 70
    32
  3
標準スタイル
100
AcDbAlignedDimension
 13
-1692.477671858467
 23
1765.3103748258
 33
0.0
 14
-1672.180095099681
 24
1726.310408670822
 34
0.0
 50
90.0
100
AcDbRotatedDimension
1001
ACAD
1000
DSTYLE
1002
{
1070
    40
1040
1.0
1002
}
  0
DIMENSION
  5
123FA
330
1A
100
AcDbEntity
  8
SUNPOU
100
AcDbDimension
  2
*D24
 10
-1701.643571159159
 20
1687.310364825798
 30
0.0
 11
-1704.393571159161
 21
1706.810386748308
 31
0.0
 70
    32
  3
標準スタイル
100
AcDbAlignedDimension
 13
-1672.180095099681
 23
1726.310408670822
 33
0.0
 14
-1692.477671858467
 24
1687.310364825798
 34
0.0
 50
90.0
100
AcDbRotatedDimension
1001
ACAD
1000
DSTYLE
1002
{
1070
    40
1040
1.0
1002
}
  0
DIMENSION
  5
12446
330
1A
100
AcDbEntity
  8
SUNPOU
100
AcDbDimension
  2
*D25
 10
-1689.184779858467
 20
1772.300047705845
 30
0.0
 11
-1691.184780358467
 21
1775.050047705847
 31
0.0
 70
    32
  3
標準スタイル
100
AcDbAlignedDimension
 13
-1693.184780858467
 23
1764.6032648258
 33
0.0
 14
-1689.184779858467
 24
1694.3103748258
 34
0.0
100
AcDbRotatedDimension
1001
ACAD
1000
DSTYLE
1002
{
1070
    40
1040
1.0
1002
}
  0
DIMENSION
  5
12455
330
1A
100
AcDbEntity
  8
SUNPOU
100
AcDbDimension
  2
*D26
 10
-1667.184783858467
 20
1772.300047705845
 30
0.0
 11
-1695.269511172293
 21
1788.784183680252
 31
0.0
 70
   160
  1
<>(ﾕｰｻﾞｰ取付寸法)
  3
標準スタイル
100
AcDbAlignedDimension
 13
-1689.184779858467
 23
1694.3103748258
 33
0.0
 14
-1667.184783858467
 24
1764.310394825799
 34
0.0
100
AcDbRotatedDimension
1001
ACAD
1000
DSTYLE
1002
{
1070
   287
1070
     4
1070
    40
1040
1.0
1070
   279
1070
     1
1002
}
  0
DIMENSION
  5
12462
330
1A
100
AcDbEntity
  8
SUNPOU
100
AcDbDimension
  2
*D27
 10
-1663.184783858467
 20
1772.300047705845
 30
0.0
 11
-1665.184783858467
 21
1775.050047705847
 31
0.0
 70
    32
  3
標準スタイル
100
AcDbAlignedDimension
 13
-1667.184783858467
 23
1764.310394825799
 33
0.0
 14
-1663.184783858467
 24
1764.6032648258
 34
0.0
100
AcDbRotatedDimension
1001
ACAD
1000
DSTYLE
1002
{
1070
    40
1040
1.0
1002
}
  0
LEADER
  5
12503
330
1A
100
AcDbEntity
  8
SUNPOU
100
AcDbLeader
  3
標準スタイル
 76
     3
 10
-1665.855190712125
 20
1762.448225638568
 30
0.0
 10
-1651.786232995339
 20
1774.488175097775
 30
0.0
 10
-1635.36778923685
 20
1774.488175097775
 30
0.0
1001
ACAD
1000
DSTYLE
1002
{
1070
     5
1000

1070
    77
1070
     0
1070
   147
1040
1.0
1002
}
  0
MTEXT
  5
12504
330
1A
100
AcDbEntity
  8
SUNPOU
100
AcDbMText
 10
-1651.786232995339
 20
1779.350996476559
 30
0.0
 40
3.5
 41
22.85704890103886
 71
     1
 72
     5
  1
2-φ3.5
  7
ゴシック体
1001
ACAD
1000
MTEXTBEGIN
1070
    73
1070
     1
1070
    44
1040
1.0
1070
    74
1070
     0
1000
MTEXTEND
  0
DIMENSION
  5
12507
330
1A
100
AcDbEntity
  8
SUNPOU
100
AcDbDimension
  2
*D28
 10
-1654.200710461289
 20
1761.3103848258
 30
0.0
 11
-1656.950710461289
 21
1763.310379825798
 31
0.0
 70
    32
  3
標準スタイル
100
AcDbAlignedDimension
 13
-1663.891893858465
 23
1765.3103748258
 33
0.0
 14
-1664.184793858467
 24
1761.3103848258
 34
0.0
 50
90.0
100
AcDbRotatedDimension
1001
ACAD
1000
DSTYLE
1002
{
1070
    40
1040
1.0
1002
}
  0
DIMENSION
  5
12516
330
1A
100
AcDbEntity
  8
SUNPOU
100
AcDbDimension
  2
*D29
 10
-1654.200710461289
 20
1691.3103748258
 30
0.0
 11
-1657.252740918143
 21
1726.310379825799
 31
0.0
 70
    32
  1
70(ﾕｰｻﾞ-取付寸法)
  3
標準スタイル
100
AcDbAlignedDimension
 13
-1664.184793858467
 23
1761.3103848258
 33
0.0
 14
-1686.184783858467
 24
1691.3103748258
 34
0.0
 50
90.0
100
AcDbRotatedDimension
1001
ACAD
1000
DSTYLE
1002
{
1070
    40
1040
1.0
1002
}
  0
DIMENSION
  5
12523
330
1A
100
AcDbEntity
  8
SUNPOU
100
AcDbDimension
  2
*D30
 10
-1654.200710461289
 20
1687.310364825798
 30
0.0
 11
-1656.950710461289
 21
1689.310369825799
 31
0.0
 70
    32
  3
標準スタイル
100
AcDbAlignedDimension
 13
-1686.184783858467
 23
1691.3103748258
 33
0.0
 14
-1663.891893858465
 24
1687.310364825798
 34
0.0
 50
90.0
100
AcDbRotatedDimension
1001
ACAD
1000
DSTYLE
1002
{
1070
    40
1040
1.0
1002
}
  0
DIMENSION
  5
1253B
330
1A
100
AcDbEntity
  8
SUNPOU
100
AcDbDimension
  2
*D31
 10
-1644.804297968934
 20
1687.310364825798
 30
0.0
 11
-1647.554297968937
 21
1726.310369825799
 31
0.0
 70
    32
  3
標準スタイル
100
AcDbAlignedDimension
 13
-1663.891893858465
 23
1765.3103748258
 33
0.0
 14
-1663.891893858465
 24
1687.310364825798
 34
0.0
 50
90.0
100
AcDbRotatedDimension
1001
ACAD
1000
DSTYLE
1002
{
1070
    40
1040
1.0
1002
}
  0
DIMENSION
  5
12548
330
1A
100
AcDbEntity
  8
SUNPOU
100
AcDbDimension
  2
*D32
 10
-1688.180095099681
 20
1678.45541904778
 30
0.0
 11
-1690.682437979074
 21
1681.205419047778
 31
0.0
 70
    32
  3
標準スタイル
100
AcDbAlignedDimension
 13
-1693.184780858467
 23
1688.0174748258
 33
0.0
 14
-1688.180095099681
 24
1722.310408670822
 34
0.0
100
AcDbRotatedDimension
1001
ACAD
1000
DSTYLE
1002
{
1070
    40
1040
1.0
1002
}
  0
DIMENSION
  5
12578
330
1A
100
AcDbEntity
  8
SUNPOU
100
AcDbDimension
  2
*D33
 10
-1668.180095099681
 20
1678.45541904778
 30
0.0
 11
-1678.180095099681
 21
1678.45541904778
 31
0.0
 70
   160
  3
標準スタイル
100
AcDbAlignedDimension
 13
-1688.180095099681
 23
1722.310408670822
 33
0.0
 14
-1668.180095099681
 24
1722.310408670822
 34
0.0
100
AcDbRotatedDimension
1001
ACAD
1000
DSTYLE
1002
{
1070
    40
1040
1.0
1002
}
  0
DIMENSION
  5
12585
330
1A
100
AcDbEntity
  8
SUNPOU
100
AcDbDimension
  2
*D34
 10
-1663.184783858467
 20
1678.45541904778
 30
0.0
 11
-1665.682439479073
 21
1681.205419047778
 31
0.0
 70
    32
  3
標準スタイル
100
AcDbAlignedDimension
 13
-1668.180095099681
 23
1722.310408670822
 33
0.0
 14
-1663.184783858467
 24
1688.0174748258
 34
0.0
100
AcDbRotatedDimension
1001
ACAD
1000
DSTYLE
1002
{
1070
    40
1040
1.0
1002
}
  0
DIMENSION
  5
125E4
330
1A
100
AcDbEntity
  8
SUNPOU
100
AcDbDimension
  2
*D35
 10
-1588.590193858467
 20
1678.45541904778
 30
0.0
 11
-1592.890188858467
 21
1681.205419047778
 31
0.0
 70
    32
  3
標準スタイル
100
AcDbAlignedDimension
 13
-1597.190183858467
 23
1687.310364825798
 33
0.0
 14
-1588.590193858467
 24
1687.310364825798
 34
0.0
100
AcDbRotatedDimension
1001
ACAD
1000
DSTYLE
1002
{
1070
    40
1040
1.0
1002
}
  0
DIMENSION
  5
125F1
330
1A
100
AcDbEntity
  8
SUNPOU
100
AcDbDimension
  2
*D36
 10
-1588.590193858467
 20
1772.300047705845
 30
0.0
 11
-1600.390188858467
 21
1775.343194913969
 31
0.0
 70
    32
  1
23.6(MAX)
  3
標準スタイル
100
AcDbAlignedDimension
 13
-1612.190183858467
 23
1765.2403448258
 33
0.0
 14
-1588.590193858467
 24
1765.3103748258
 34
0.0
100
AcDbRotatedDimension
1001
ACAD
1000
DSTYLE
1002
{
1070
    40
1040
1.0
1002
}
  0
LEADER
  5
1260A
330
1A
100
AcDbEntity
  8
SUNPOU
100
AcDbLeader
  3
標準スタイル
 76
     2
 10
-1583.802653858467
 20
1735.413607694601
 30
0.0
 10
-1572.946053448096
 20
1739.81817674238
 30
0.0
1001
ACAD
1000
DSTYLE
1002
{
1070
     5
1000

1070
    77
1070
     0
1070
   147
1040
1.0
1002
}
  0
MTEXT
  5
1260C
330
1A
100
AcDbEntity
  8
SUNPOU
100
AcDbMText
 10
-1571.865649594479
 20
1743.624656999627
 30
0.0
 40
3.5
 41
60.71397645929867
 71
     1
 72
     5
  1
マウンティングフット×2個
  7
ゴシック体
1001
ACAD
1000
MTEXTBEGIN
1070
    73
1070
     1
1070
    44
1040
1.0
1070
    74
1070
     0
1000
MTEXTEND
  0
LEADER
  5
1260E
330
1A
100
AcDbEntity
  8
SUNPOU
100
AcDbLeader
  3
標準スタイル
 76
     2
 10
-1689.611668077394
 20
1725.862526086338
 30
0.0
 10
-1718.685806027327
 20
1715.68759502879
 30
0.0
1001
ACAD
1000
DSTYLE
1002
{
1070
     5
1000

1070
    77
1070
     0
1070
   147
1040
1.0
1002
}
  0
MTEXT
  5
1260F
330
1A
100
AcDbEntity
  8
SUNPOU
100
AcDbMText
 10
-1750.247287118845
 20
1729.979075892558
 30
0.0
 40
3.5
 41
45.123
 71
     1
 72
     5
  1
マウンティングフット\P取り付け穴\P(M3タップ×2)
  7
ゴシック体
1001
ACAD
1000
MTEXTBEGIN
1070
    73
1070
     1
1070
    44
1040
1.0
1070
    74
1070
     0
1000
MTEXTEND
  0
DIMENSION
  5
1264B
330
1A
100
AcDbEntity
  8
SUNPOU
100
AcDbDimension
  2
*D37
 10
-1663.184783858467
 20
1781.89889666871
 30
0.0
 11
-1678.184782358467
 21
1784.64889666871
 31
0.0
 70
    32
  3
標準スタイル
100
AcDbAlignedDimension
 13
-1693.184780858467
 23
1765.3103748258
 33
0.0
 14
-1663.184783858467
 24
1765.3103748258
 34
0.0
100
AcDbRotatedDimension
1001
ACAD
1000
DSTYLE
1002
{
1070
    40
1040
1.0
1002
}
  0
VIEWPORT
  5
5D8F
330
5D8E
100
AcDbEntity
 67
     1
  8
0
100
AcDbViewport
 10
282.6159587049462
 20
440.6211545641138
 30
0.0
 40
763.7902110770866
 41
871.4521291278462
 68
     1
 69
     1
1001
ACAD
1000
MVIEW
1002
{
1070
    16
1010
0.0
1020
0.0
1030
0.0
1010
0.0
1020
0.0
1030
1.0
1040
0.0
1040
871.4521291278462
1040
282.6159587049462
1040
440.6211545641138
1040
50.0
1040
0.0
1040
0.0
1070
     0
1070
   100
1070
     1
1070
     0
1070
     0
1070
     0
1070
     0
1070
     0
1040
0.0
1040
0.0
1040
0.0
1040
1.0
1040
1.0
1040
10.0
1040
10.0
1070
     0
1002
{
1002
}
1002
}
  0
VIEWPORT
  5
6001
330
5D8E
100
AcDbEntity
 67
     1
  8
ZISSEN1
100
AcDbViewport
 10
221.786195552541
 20
157.6960273330388
 30
0.0
 40
385.4999999999997
 41
259.9999999999999
 68
     2
 69
     2
1001
ACAD
1000
MVIEW
1002
{
1070
    16
1010
0.0
1020
0.0
1030
0.0
1010
0.0
1020
0.0
1030
1.0
1040
0.0
1040
259.9999999999999
1040
-1633.14692521008
1040
1742.564715888142
1040
50.0
1040
0.0
1040
0.0
1070
     0
1070
   100
1070
     1
1070
     0
1070
     0
1070
     0
1070
     0
1070
     0
1040
0.0
1040
0.0
1040
0.0
1040
1.0
1040
1.0
1040
10.0
1040
10.0
1070
     0
1002
{
1002
}
1002
}
  0
TEXT
  5
716F
330
5D8E
100
AcDbEntity
 67
     1
  8
SUNPOU
 62
     0
100
AcDbText
 10
374.1863124306942
 20
60.86794705907585
 30
0.0
 40
3.5
  1
縮尺 1/1
  7
ゴシック体
100
AcDbText
  0
ENDSEC
  0
SECTION
  2
OBJECTS
  0
DICTIONARY
  5
C
330
0
100
AcDbDictionary
  3
ACAD_GROUP
350
D
  3
ACAD_LAYOUT
350
5C7D
  3
ACAD_MLINESTYLE
350
E
  3
ACAD_PLOTSETTINGS
350
5C7E
  3
ACAD_PLOTSTYLENAME
350
5C7B
  3
ACADDIM
350
12608
  3
DWGPROPS
350
5E8E
  3
ACDBVARIABLEDICTIONARY
350
1266F
  3
ACDBHEADERROUNDTRIPXREC
350
1267A
  0
DICTIONARY
  5
1269A
330
1A
100
AcDbDictionary
280
     1
  3
ACAD_LAYOUTSELFREF
360
1269B
  0
DICTIONARY
  5
1269C
330
5D8E
100
AcDbDictionary
280
     1
  3
ACAD_LAYOUTSELFREF
360
1269D
  0
DICTIONARY
  5
D
102
{ACAD_REACTORS
330
C
102
}
330
C
100
AcDbDictionary
  3
*A1
350
477D
  3
*A2
350
4C16
  3
*A3
350
4C17
  3
*A4
350
477E
  3
*A5
350
477F
  3
*A6
350
4780
  3
*A7
350
4781
  3
*A8
350
4C0E
  3
*A9
350
4C0F
  3
*A10
350
4C10
  3
*A11
350
4C11
  3
*A12
350
4C12
  3
*A13
350
4C13
  3
*A14
350
4C14
  3
*A15
350
4C15
  0
DICTIONARY
  5
5C7D
102
{ACAD_REACTORS
330
C
102
}
330
C
100
AcDbDictionary
  0
DICTIONARY
  5
E
102
{ACAD_REACTORS
330
C
102
}
330
C
100
AcDbDictionary
  3
STANDARD
350
13
  0
DICTIONARY
  5
5C7E
102
{ACAD_REACTORS
330
C
102
}
330
C
100
AcDbDictionary
  0
ACDBDICTIONARYWDFLT
  5
5C7B
102
{ACAD_REACTORS
330
C
102
}
330
C
100
AcDbDictionary
281
     1
  3
Normal
350
5C7C
100
AcDbDictionaryWithDefault
340
5C7C
  0
XRECORD
  5
12608
102
{ACAD_REACTORS
330
C
102
}
330
C
100
AcDbXrecord
 90
   990106
  3

 60
     0
 61
     0
 62
     1
 63
     3
 64
     0
 65
     0
 66
     0
 67
     3
 68
     1
 69
     0
 70
     0
 71
     0
 72
     0
 40
0.0
170
     0
  0
XRECORD
  5
5E8E
102
{ACAD_REACTORS
330
C
102
}
330
C
100
AcDbXrecord
  1
DWGPROPS COOKIE
  2

  3

  4

  6

  7

  8

  9

300
=
301
=
302
=
303
=
304
=
305
=
306
=
307
=
308
=
309
=
 40
0.586753587962963
 41
2450495.493631364
 42
2453208.662277431
  1

 90
        0
  0
DICTIONARY
  5
1266F
102
{ACAD_REACTORS
330
C
102
}
330
C
100
AcDbDictionary
  3
INDEXCTL
350
12670
  0
DICTIONARY
  5
1267A
102
{ACAD_REACTORS
330
C
102
}
330
C
100
AcDbDictionary
  3
TSTACKALIGN
350
1267B
  3
TSTACKSIZE
350
1267C
  3
HYPERLINKBASE
350
1267D
  3
STYLESHEET
350
1267E
  3
LAYOUTDICT
350
1267F
  3
PLOTSETDICT
350
12680
  3
PLOTSTYLNAMDICT
350
12681
  3
LWETCUNION
350
12682
  3
INSUNITS
350
12683
  3
CEPSNTYPE
350
12684
  3
FINGERPRINTGUID
350
12685
  3
VERSIONGUID
350
12686
  3
PSVPSCALE
350
12687
  3
PUCSORTHOREF
350
12688
  3
PUCSORTHOVIEW
350
12689
  3
PUCSBASE
350
1268A
  3
PUCSORGTOP
350
1268B
  3
PUCSORGBOTTOM
350
1268C
  3
PUCSORGLEFT
350
1268D
  3
PUCSORGRIGHT
350
1268E
  3
PUCSORGFRONT
350
1268F
  3
PUCSORGBACK
350
12690
  3
UCSORTHOREF
350
12691
  3
UCSORTHOVIEW
350
12692
  3
UCSBASE
350
12693
  3
UCSORGTOP
350
12694
  3
UCSORGBOTTOM
350
12695
  3
UCSORGLEFT
350
12696
  3
UCSORGRIGHT
350
12697
  3
UCSORGFRONT
350
12698
  3
UCSORGBACK
350
12699
  0
XRECORD
  5
1269B
102
{ACAD_REACTORS
330
1269A
102
}
330
1269A
100
AcDbXrecord
340
1A
  0
XRECORD
  5
1269D
102
{ACAD_REACTORS
330
1269C
102
}
330
1269C
100
AcDbXrecord
340
5D8E
  0
GROUP
  5
477D
102
{ACAD_REACTORS
330
D
102
}
330
D
100
AcDbGroup
300

 70
     1
 71
     1
  0
GROUP
  5
4C16
102
{ACAD_REACTORS
330
D
102
}
330
D
100
AcDbGroup
300

 70
     1
 71
     1
  0
GROUP
  5
4C17
102
{ACAD_REACTORS
330
D
102
}
330
D
100
AcDbGroup
300

 70
     1
 71
     1
  0
GROUP
  5
477E
102
{ACAD_REACTORS
330
D
102
}
330
D
100
AcDbGroup
300

 70
     1
 71
     1
  0
GROUP
  5
477F
102
{ACAD_REACTORS
330
D
102
}
330
D
100
AcDbGroup
300

 70
     1
 71
     1
  0
GROUP
  5
4780
102
{ACAD_REACTORS
330
D
102
}
330
D
100
AcDbGroup
300

 70
     1
 71
     1
  0
GROUP
  5
4781
102
{ACAD_REACTORS
330
D
102
}
330
D
100
AcDbGroup
300

 70
     1
 71
     1
  0
GROUP
  5
4C0E
102
{ACAD_REACTORS
330
D
102
}
330
D
100
AcDbGroup
300

 70
     1
 71
     1
  0
GROUP
  5
4C0F
102
{ACAD_REACTORS
330
D
102
}
330
D
100
AcDbGroup
300

 70
     1
 71
     1
  0
GROUP
  5
4C10
102
{ACAD_REACTORS
330
D
102
}
330
D
100
AcDbGroup
300

 70
     1
 71
     1
  0
GROUP
  5
4C11
102
{ACAD_REACTORS
330
D
102
}
330
D
100
AcDbGroup
300

 70
     1
 71
     1
  0
GROUP
  5
4C12
102
{ACAD_REACTORS
330
D
102
}
330
D
100
AcDbGroup
300

 70
     1
 71
     1
  0
GROUP
  5
4C13
102
{ACAD_REACTORS
330
D
102
}
330
D
100
AcDbGroup
300

 70
     1
 71
     1
  0
GROUP
  5
4C14
102
{ACAD_REACTORS
330
D
102
}
330
D
100
AcDbGroup
300

 70
     1
 71
     1
  0
GROUP
  5
4C15
102
{ACAD_REACTORS
330
D
102
}
330
D
100
AcDbGroup
300

 70
     1
 71
     1
  0
MLINESTYLE
  5
13
102
{ACAD_REACTORS
330
E
102
}
330
E
100
AcDbMlineStyle
  2
STANDARD
 70
     0
  3

 62
     0
 51
90.0
 52
90.0
 71
     2
 49
0.5
 62
   256
  6
BYLAYER
 49
-0.5
 62
   256
  6
BYLAYER
  0
ACDBPLACEHOLDER
  5
5C7C
102
{ACAD_REACTORS
330
5C7B
102
}
330
5C7B
100
AcDbPlaceHolder
280
     0
  0
DICTIONARYVAR
  5
12670
102
{ACAD_REACTORS
330
1266F
102
}
330
1266F
100
DictionaryVariables
280
     0
  1
-1
  0
XRECORD
  5
1267B
102
{ACAD_REACTORS
330
1267A
102
}
330
1267A
100
AcDbXrecord
 90
        1
  0
XRECORD
  5
1267C
102
{ACAD_REACTORS
330
1267A
102
}
330
1267A
100
AcDbXrecord
 90
       70
  0
XRECORD
  5
1267D
102
{ACAD_REACTORS
330
1267A
102
}
330
1267A
100
AcDbXrecord
  1

  0
XRECORD
  5
1267E
102
{ACAD_REACTORS
330
1267A
102
}
330
1267A
100
AcDbXrecord
  1

  0
XRECORD
  5
1267F
102
{ACAD_REACTORS
330
1267A
102
}
330
1267A
100
AcDbXrecord
340
5C7D
  0
XRECORD
  5
12680
102
{ACAD_REACTORS
330
1267A
102
}
330
1267A
100
AcDbXrecord
340
5C7E
  0
XRECORD
  5
12681
102
{ACAD_REACTORS
330
1267A
102
}
330
1267A
100
AcDbXrecord
340
5C7B
  0
XRECORD
  5
12682
102
{ACAD_REACTORS
330
1267A
102
}
330
1267A
100
AcDbXrecord
 90
    10781
  0
XRECORD
  5
12683
102
{ACAD_REACTORS
330
1267A
102
}
330
1267A
100
AcDbXrecord
 90
        0
  0
XRECORD
  5
12684
102
{ACAD_REACTORS
330
1267A
102
}
330
1267A
100
AcDbXrecord
 90
        0
  0
XRECORD
  5
12685
102
{ACAD_REACTORS
330
1267A
102
}
330
1267A
100
AcDbXrecord
  1
{225A7F0D-DA29-11D8-946A-0000E2416295}
  0
XRECORD
  5
12686
102
{ACAD_REACTORS
330
1267A
102
}
330
1267A
100
AcDbXrecord
  1
{A74E9DBA-C243-4BC4-844A-7016CFE264E0}
  0
XRECORD
  5
12687
102
{ACAD_REACTORS
330
1267A
102
}
330
1267A
100
AcDbXrecord
 40
0.0
  0
XRECORD
  5
12688
102
{ACAD_REACTORS
330
1267A
102
}
330
1267A
100
AcDbXrecord
340
0
  0
XRECORD
  5
12689
102
{ACAD_REACTORS
330
1267A
102
}
330
1267A
100
AcDbXrecord
 70
     0
  0
XRECORD
  5
1268A
102
{ACAD_REACTORS
330
1267A
102
}
330
1267A
100
AcDbXrecord
340
0
  0
XRECORD
  5
1268B
102
{ACAD_REACTORS
330
1267A
102
}
330
1267A
100
AcDbXrecord
 10
0.0
 20
0.0
 30
0.0
  0
XRECORD
  5
1268C
102
{ACAD_REACTORS
330
1267A
102
}
330
1267A
100
AcDbXrecord
 10
0.0
 20
0.0
 30
0.0
  0
XRECORD
  5
1268D
102
{ACAD_REACTORS
330
1267A
102
}
330
1267A
100
AcDbXrecord
 10
0.0
 20
0.0
 30
0.0
  0
XRECORD
  5
1268E
102
{ACAD_REACTORS
330
1267A
102
}
330
1267A
100
AcDbXrecord
 10
0.0
 20
0.0
 30
0.0
  0
XRECORD
  5
1268F
102
{ACAD_REACTORS
330
1267A
102
}
330
1267A
100
AcDbXrecord
 10
0.0
 20
0.0
 30
0.0
  0
XRECORD
  5
12690
102
{ACAD_REACTORS
330
1267A
102
}
330
1267A
100
AcDbXrecord
 10
0.0
 20
0.0
 30
0.0
  0
XRECORD
  5
12691
102
{ACAD_REACTORS
330
1267A
102
}
330
1267A
100
AcDbXrecord
340
0
  0
XRECORD
  5
12692
102
{ACAD_REACTORS
330
1267A
102
}
330
1267A
100
AcDbXrecord
 70
     0
  0
XRECORD
  5
12693
102
{ACAD_REACTORS
330
1267A
102
}
330
1267A
100
AcDbXrecord
340
0
  0
XRECORD
  5
12694
102
{ACAD_REACTORS
330
1267A
102
}
330
1267A
100
AcDbXrecord
 10
0.0
 20
0.0
 30
0.0
  0
XRECORD
  5
12695
102
{ACAD_REACTORS
330
1267A
102
}
330
1267A
100
AcDbXrecord
 10
0.0
 20
0.0
 30
0.0
  0
XRECORD
  5
12696
102
{ACAD_REACTORS
330
1267A
102
}
330
1267A
100
AcDbXrecord
 10
0.0
 20
0.0
 30
0.0
  0
XRECORD
  5
12697
102
{ACAD_REACTORS
330
1267A
102
}
330
1267A
100
AcDbXrecord
 10
0.0
 20
0.0
 30
0.0
  0
XRECORD
  5
12698
102
{ACAD_REACTORS
330
1267A
102
}
330
1267A
100
AcDbXrecord
 10
0.0
 20
0.0
 30
0.0
  0
XRECORD
  5
12699
102
{ACAD_REACTORS
330
1267A
102
}
330
1267A
100
AcDbXrecord
 10
0.0
 20
0.0
 30
0.0
  0
ENDSEC
  0
EOF
