  0
SECTION
  2
HEADER
  9
$ACADVER
  1
AC1014
  9
$ACADMAINTVER
 70
     9
  9
$DWGCODEPAGE
  3
ANSI_932
  9
$INSBASE
 10
0.0
 20
0.0
 30
0.0
  9
$EXTMIN
 10
-1763.543893320282
 20
2178.249019567411
 30
0.0
  9
$EXTMAX
 10
-1469.591557284904
 20
2498.671122630905
 30
0.0
  9
$LIMMIN
 10
0.0
 20
0.0
  9
$LIMMAX
 10
420.0
 20
297.0
  9
$ORTHOMODE
 70
     1
  9
$REGENMODE
 70
     1
  9
$FILLMODE
 70
     1
  9
$QTEXTMODE
 70
     0
  9
$MIRRTEXT
 70
     1
  9
$DRAGMODE
 70
     2
  9
$LTSCALE
 40
1.0
  9
$OSMODE
 70
    37
  9
$ATTMODE
 70
     1
  9
$TEXTSIZE
 40
2.5
  9
$TRACEWID
 40
1.0
  9
$TEXTSTYLE
  7
ゴシック体
  9
$CLAYER
  8
CL1
  9
$CELTYPE
  6
BYLAYER
  9
$CECOLOR
 62
   256
  9
$CELTSCALE
 40
1.0
  9
$DELOBJ
 70
     1
  9
$DISPSILH
 70
     0
  9
$DIMSCALE
 40
0.0
  9
$DIMASZ
 40
3.0
  9
$DIMEXO
 40
0.5
  9
$DIMDLI
 40
0.5
  9
$DIMRND
 40
0.0
  9
$DIMDLE
 40
0.0
  9
$DIMEXE
 40
0.5
  9
$DIMTP
 40
0.0
  9
$DIMTM
 40
0.0
  9
$DIMTXT
 40
3.5
  9
$DIMCEN
 40
0.0
  9
$DIMTSZ
 40
0.0
  9
$DIMTOL
 70
     0
  9
$DIMLIM
 70
     0
  9
$DIMTIH
 70
     0
  9
$DIMTOH
 70
     0
  9
$DIMSE1
 70
     0
  9
$DIMSE2
 70
     0
  9
$DIMTAD
 70
     1
  9
$DIMZIN
 70
     8
  9
$DIMBLK
  1

  9
$DIMASO
 70
     1
  9
$DIMSHO
 70
     1
  9
$DIMPOST
  1

  9
$DIMAPOST
  1

  9
$DIMALT
 70
     0
  9
$DIMALTD
 70
     2
  9
$DIMALTF
 40
25.4
  9
$DIMLFAC
 40
1.0
  9
$DIMTOFL
 70
     1
  9
$DIMTVP
 40
0.0
  9
$DIMTIX
 70
     0
  9
$DIMSOXD
 70
     0
  9
$DIMSAH
 70
     0
  9
$DIMBLK1
  1

  9
$DIMBLK2
  1

  9
$DIMSTYLE
  2
標準スタイル
  9
$DIMCLRD
 70
     1
  9
$DIMCLRE
 70
     1
  9
$DIMCLRT
 70
     1
  9
$DIMTFAC
 40
1.0
  9
$DIMGAP
 40
1.0
  9
$DIMJUST
 70
     0
  9
$DIMSD1
 70
     0
  9
$DIMSD2
 70
     0
  9
$DIMTOLJ
 70
     1
  9
$DIMTZIN
 70
     8
  9
$DIMALTZ
 70
     0
  9
$DIMALTTZ
 70
     0
  9
$DIMFIT
 70
     3
  9
$DIMUPT
 70
     0
  9
$DIMUNIT
 70
     2
  9
$DIMDEC
 70
     2
  9
$DIMTDEC
 70
     2
  9
$DIMALTU
 70
     2
  9
$DIMALTTD
 70
     2
  9
$DIMTXSTY
  7
ゴシック体
  9
$DIMAUNIT
 70
     0
  9
$LUNITS
 70
     2
  9
$LUPREC
 70
     4
  9
$SKETCHINC
 40
1.0
  9
$FILLETRAD
 40
0.0
  9
$AUNITS
 70
     0
  9
$AUPREC
 70
     0
  9
$MENU
  1
.
  9
$ELEVATION
 40
0.0
  9
$PELEVATION
 40
0.0
  9
$THICKNESS
 40
0.0
  9
$LIMCHECK
 70
     0
  9
$BLIPMODE
 70
     0
  9
$CHAMFERA
 40
10.0
  9
$CHAMFERB
 40
10.0
  9
$CHAMFERC
 40
2.0
  9
$CHAMFERD
 40
0.7853981633974483
  9
$SKPOLY
 70
     0
  9
$TDCREATE
 40
2450495.493631365
  9
$TDUPDATE
 40
2458417.408348958
  9
$TDINDWG
 40
1.7267748264
  9
$TDUSRTIMER
 40
1.7267748264
  9
$USRTIMER
 70
     1
  9
$ANGBASE
 50
0.0
  9
$ANGDIR
 70
     0
  9
$PDMODE
 70
    99
  9
$PDSIZE
 40
0.0
  9
$PLINEWID
 40
0.0
  9
$COORDS
 70
     0
  9
$SPLFRAME
 70
     0
  9
$SPLINETYPE
 70
     6
  9
$SPLINESEGS
 70
     8
  9
$ATTDIA
 70
     0
  9
$ATTREQ
 70
     1
  9
$HANDLING
 70
 10241
  9
$HANDSEED
  5
181BB
  9
$SURFTAB1
 70
     6
  9
$SURFTAB2
 70
     6
  9
$SURFTYPE
 70
     6
  9
$SURFU
 70
     6
  9
$SURFV
 70
     6
  9
$UCSNAME
  2

  9
$UCSORG
 10
0.0
 20
0.0
 30
0.0
  9
$UCSXDIR
 10
1.0
 20
0.0
 30
0.0
  9
$UCSYDIR
 10
0.0
 20
1.0
 30
0.0
  9
$PUCSNAME
  2

  9
$PUCSORG
 10
0.0
 20
0.0
 30
0.0
  9
$PUCSXDIR
 10
1.0
 20
0.0
 30
0.0
  9
$PUCSYDIR
 10
0.0
 20
1.0
 30
0.0
  9
$USERI1
 70
     0
  9
$USERI2
 70
     0
  9
$USERI3
 70
     0
  9
$USERI4
 70
     0
  9
$USERI5
 70
     0
  9
$USERR1
 40
0.0
  9
$USERR2
 40
0.0
  9
$USERR3
 40
0.0
  9
$USERR4
 40
0.0
  9
$USERR5
 40
0.0
  9
$WORLDVIEW
 70
     1
  9
$SHADEDGE
 70
     3
  9
$SHADEDIF
 70
    70
  9
$TILEMODE
 70
     0
  9
$MAXACTVP
 70
    16
  9
$PINSBASE
 10
0.0
 20
0.0
 30
0.0
  9
$PLIMCHECK
 70
     0
  9
$PEXTMIN
 10
29.03619555254135
 20
27.69602733303884
 30
0.0
  9
$PEXTMAX
 10
414.5361955525411
 20
287.6960273330388
 30
0.0
  9
$PLIMMIN
 10
11.13088392171084
 20
6.367460636892701
  9
$PLIMMAX
 10
431.0775391951483
 20
303.3781112716583
  9
$UNITMODE
 70
     0
  9
$VISRETAIN
 70
     0
  9
$PLINEGEN
 70
     0
  9
$PSLTSCALE
 70
     1
  9
$TREEDEPTH
 70
  3020
  9
$PICKSTYLE
 70
     1
  9
$CMLSTYLE
  2
STANDARD
  9
$CMLJUST
 70
     0
  9
$CMLSCALE
 40
1.0
  9
$PROXYGRAPHICS
 70
     1
  9
$MEASUREMENT
 70
     1
  0
ENDSEC
  0
SECTION
  2
CLASSES
  0
CLASS
  1
LWPOLYLINE
  2
AcDbPolyline
  3
AutoCAD 2000
 90
        0
280
     0
281
     1
  0
CLASS
  1
HATCH
  2
AcDbHatch
  3
AutoCAD 2000
 90
        0
280
     0
281
     1
  0
CLASS
  1
ACDBDICTIONARYWDFLT
  2
AcDbDictionaryWithDefault
  3
AutoCAD 2000
 90
        0
280
     0
281
     0
  0
CLASS
  1
ACDBPLACEHOLDER
  2
AcDbPlaceHolder
  3
AutoCAD 2000
 90
        0
280
     0
281
     0
  0
CLASS
  1
LAYOUT
  2
AcDbLayout
  3
AutoCAD 2000
 90
        0
280
     0
281
     0
  0
CLASS
  1
LONG_TRANSACTION
  2
AcDbLongTransaction
  3
AutoCAD 2000
 90
        0
280
     0
281
     0
  0
CLASS
  1
LWPOLYLINE
  2
AcDbPolyline
  3
AutoCAD 2000
 90
        0
280
     0
281
     1
  0
CLASS
  1
HATCH
  2
AcDbHatch
  3
AutoCAD 2000
 90
        0
280
     0
281
     1
  0
CLASS
  1
XRECORD
  2
AcDbXrecord
  3
AutoCAD 2000
 90
        0
280
     0
281
     0
  0
ENDSEC
  0
SECTION
  2
TABLES
  0
TABLE
  2
VPORT
  5
8
330
0
100
AcDbSymbolTable
 70
     1
  0
VPORT
  5
18191
330
8
100
AcDbSymbolTableRecord
100
AcDbViewportTableRecord
  2
*ACTIVE
 70
     0
 10
0.0
 20
0.0
 11
1.0
 21
1.0
 12
-1616.593810883342
 22
2338.424628123155
 13
0.0
 23
0.0
 14
5.0
 24
5.0
 15
0.0
 25
0.0
 16
0.0
 26
0.0
 36
1.0
 17
0.0
 27
0.0
 37
0.0
 40
324.2550253407253
 41
1.781954887218045
 42
50.0
 43
0.0
 44
0.0
 50
0.0
 51
0.0
 71
     0
 72
   100
 73
     1
 74
     0
 75
     0
 76
     0
 77
     0
 78
     0
  0
ENDTAB
  0
TABLE
  2
LTYPE
  5
5
330
0
100
AcDbSymbolTable
 70
     2
  0
LTYPE
  5
14
330
5
100
AcDbSymbolTableRecord
100
AcDbLinetypeTableRecord
  2
BYBLOCK
 70
     0
  3

 72
    65
 73
     0
 40
0.0
  0
LTYPE
  5
15
330
5
100
AcDbSymbolTableRecord
100
AcDbLinetypeTableRecord
  2
BYLAYER
 70
     0
  3

 72
    65
 73
     0
 40
0.0
  0
LTYPE
  5
16
330
5
100
AcDbSymbolTableRecord
100
AcDbLinetypeTableRecord
  2
CONTINUOUS
 70
     0
  3
Solid line
 72
    65
 73
     0
 40
0.0
  0
LTYPE
  5
1956
330
5
100
AcDbSymbolTableRecord
100
AcDbLinetypeTableRecord
  2
CENTERX2
 70
     0
  3
________  __  ________  __  ________  __  _____
 72
    65
 73
     4
 40
4.0
 49
2.5
 74
     0
 49
-0.5
 74
     0
 49
0.5
 74
     0
 49
-0.5
 74
     0
  0
ENDTAB
  0
TABLE
  2
LAYER
  5
2
102
{ACAD_XDICTIONARY
360
1302F
102
}
330
0
100
AcDbSymbolTable
 70
     5
  0
LAYER
  5
F
330
2
100
AcDbSymbolTableRecord
100
AcDbLayerTableRecord
  2
0
 70
     0
 62
     7
  6
CONTINUOUS
  0
LAYER
  5
18F
330
2
100
AcDbSymbolTableRecord
100
AcDbLayerTableRecord
  2
ZISSEN1
 70
     0
 62
     7
  6
CONTINUOUS
  0
LAYER
  5
529
330
2
100
AcDbSymbolTableRecord
100
AcDbLayerTableRecord
  2
SUNPOU
 70
     0
 62
     1
  6
CONTINUOUS
  0
LAYER
  5
195A
330
2
100
AcDbSymbolTableRecord
100
AcDbLayerTableRecord
  2
CL1
 70
     0
 62
   210
  6
CENTERX2
  0
LAYER
  5
3A9B
330
2
100
AcDbSymbolTableRecord
100
AcDbLayerTableRecord
  2
DEFPOINTS
 70
     0
 62
     7
  6
CONTINUOUS
  0
ENDTAB
  0
TABLE
  2
STYLE
  5
3
330
0
100
AcDbSymbolTable
 70
     2
  0
STYLE
  5
10
330
3
100
AcDbSymbolTableRecord
100
AcDbTextStyleTableRecord
  2
STANDARD
 70
     0
 40
0.0
 41
1.0
 50
0.0
 71
     0
 42
3.0
  3
txt
  4
BigFont
  0
STYLE
  5
1960
330
3
100
AcDbSymbolTableRecord
100
AcDbTextStyleTableRecord
  2
ゴシック体
 70
     0
 40
0.0
 41
1.0
 50
0.0
 71
     0
 42
2.5
  3
MS Gothic.ttf
  4

1001
ACAD
1000
MS Gothic
1071
    32817
  0
ENDTAB
  0
TABLE
  2
VIEW
  5
6
330
0
100
AcDbSymbolTable
 70
     0
  0
ENDTAB
  0
TABLE
  2
UCS
  5
7
330
0
100
AcDbSymbolTable
 70
     0
  0
ENDTAB
  0
TABLE
  2
APPID
  5
9
330
0
100
AcDbSymbolTable
 70
     5
  0
APPID
  5
11
330
9
100
AcDbSymbolTableRecord
100
AcDbRegAppTableRecord
  2
ACAD
 70
     0
  0
APPID
  5
4005
330
9
100
AcDbSymbolTableRecord
100
AcDbRegAppTableRecord
  2
CONTENTTABDATA
 70
     0
  0
APPID
  5
4006
330
9
100
AcDbSymbolTableRecord
100
AcDbRegAppTableRecord
  2
CONTENTCURRENTTAB
 70
     0
  0
APPID
  5
477B
330
9
100
AcDbSymbolTableRecord
100
AcDbRegAppTableRecord
  2
CONTENTBLOCKDESCRIPTION
 70
     0
  0
APPID
  5
477C
330
9
100
AcDbSymbolTableRecord
100
AcDbRegAppTableRecord
  2
CONTENTBLOCKICON
 70
     0
  0
ENDTAB
  0
TABLE
  2
DIMSTYLE
  5
A
330
0
100
AcDbSymbolTable
 70
     2
  0
DIMSTYLE
105
1D
330
A
100
AcDbSymbolTableRecord
100
AcDbDimStyleTableRecord
  2
STANDARD
 70
     0
  3

  4

  5

  6

  7

 40
1.0
 41
0.18
 42
0.0625
 43
0.38
 44
0.18
 45
0.0
 46
0.0
 47
0.0
 48
0.0
140
0.18
141
0.09
142
0.0
143
25.4
144
1.0
145
0.0
146
1.0
147
0.09
 71
     0
 72
     0
 73
     1
 74
     1
 75
     0
 76
     0
 77
     0
 78
     0
170
     0
171
     2
172
     0
173
     0
174
     0
175
     0
176
     0
177
     0
178
     0
270
     2
271
     4
272
     4
273
     2
274
     2
340
10
275
     0
280
     0
281
     0
282
     0
283
     1
284
     0
285
     0
286
     0
287
     3
288
     0
  0
DIMSTYLE
105
52E
102
{ACAD_REACTORS
330
16CC2
330
16CC3
330
16CCC
330
16CCE
330
16CCF
330
16CD0
330
16CD1
330
16CD2
330
16CD6
330
16CD7
330
16CD8
330
16CD9
330
16CDA
330
16CDB
330
16CDC
330
16CDD
330
16CDE
330
171B2
330
177C9
330
17EE2
330
16CD3
330
16CD4
102
}
330
A
100
AcDbSymbolTableRecord
100
AcDbDimStyleTableRecord
  2
標準スタイル
 70
     0
  3

  4

  5

  6

  7

 40
0.0
 41
3.0
 42
0.5
 43
0.5
 44
0.5
 45
0.0
 46
0.0
 47
0.0
 48
0.0
140
3.5
141
0.0
142
0.0
143
25.4
144
1.0
145
0.0
146
1.0
147
1.0
 71
     0
 72
     0
 73
     0
 74
     0
 75
     0
 76
     0
 77
     1
 78
     8
170
     0
171
     2
172
     1
173
     0
174
     0
175
     0
176
     1
177
     1
178
     1
270
     2
271
     2
272
     2
273
     2
274
     2
340
1960
275
     0
280
     0
281
     0
282
     0
283
     1
284
     8
285
     0
286
     0
287
     3
288
     0
  0
ENDTAB
  0
TABLE
  2
BLOCK_RECORD
  5
1
330
0
100
AcDbSymbolTable
 70
    22
  0
BLOCK_RECORD
  5
1A
102
{ACAD_XDICTIONARY
360
181B7
102
}
330
1
100
AcDbSymbolTableRecord
100
AcDbBlockTableRecord
  2
*MODEL_SPACE
  0
BLOCK_RECORD
  5
5D8E
102
{ACAD_XDICTIONARY
360
181B9
102
}
330
1
100
AcDbSymbolTableRecord
100
AcDbBlockTableRecord
  2
*PAPER_SPACE
  0
BLOCK_RECORD
  5
177D3
330
1
100
AcDbSymbolTableRecord
100
AcDbBlockTableRecord
  2
*D0
  0
BLOCK_RECORD
  5
177DF
330
1
100
AcDbSymbolTableRecord
100
AcDbBlockTableRecord
  2
*D1
  0
BLOCK_RECORD
  5
177EB
330
1
100
AcDbSymbolTableRecord
100
AcDbBlockTableRecord
  2
*D2
  0
BLOCK_RECORD
  5
17803
330
1
100
AcDbSymbolTableRecord
100
AcDbBlockTableRecord
  2
*D3
  0
BLOCK_RECORD
  5
17811
330
1
100
AcDbSymbolTableRecord
100
AcDbBlockTableRecord
  2
*D4
  0
BLOCK_RECORD
  5
1781F
330
1
100
AcDbSymbolTableRecord
100
AcDbBlockTableRecord
  2
*D5
  0
BLOCK_RECORD
  5
1782B
330
1
100
AcDbSymbolTableRecord
100
AcDbBlockTableRecord
  2
*D6
  0
BLOCK_RECORD
  5
17837
330
1
100
AcDbSymbolTableRecord
100
AcDbBlockTableRecord
  2
*D7
  0
BLOCK_RECORD
  5
17843
330
1
100
AcDbSymbolTableRecord
100
AcDbBlockTableRecord
  2
*D8
  0
BLOCK_RECORD
  5
17851
330
1
100
AcDbSymbolTableRecord
100
AcDbBlockTableRecord
  2
*D9
  0
BLOCK_RECORD
  5
1786B
330
1
100
AcDbSymbolTableRecord
100
AcDbBlockTableRecord
  2
*D10
  0
BLOCK_RECORD
  5
17879
330
1
100
AcDbSymbolTableRecord
100
AcDbBlockTableRecord
  2
*D11
  0
BLOCK_RECORD
  5
17885
330
1
100
AcDbSymbolTableRecord
100
AcDbBlockTableRecord
  2
*D12
  0
BLOCK_RECORD
  5
17891
330
1
100
AcDbSymbolTableRecord
100
AcDbBlockTableRecord
  2
*D13
  0
BLOCK_RECORD
  5
1789D
330
1
100
AcDbSymbolTableRecord
100
AcDbBlockTableRecord
  2
*D14
  0
BLOCK_RECORD
  5
178A9
330
1
100
AcDbSymbolTableRecord
100
AcDbBlockTableRecord
  2
*D15
  0
BLOCK_RECORD
  5
178B5
330
1
100
AcDbSymbolTableRecord
100
AcDbBlockTableRecord
  2
*D16
  0
BLOCK_RECORD
  5
178C1
330
1
100
AcDbSymbolTableRecord
100
AcDbBlockTableRecord
  2
*D17
  0
BLOCK_RECORD
  5
178CD
330
1
100
AcDbSymbolTableRecord
100
AcDbBlockTableRecord
  2
*D18
  0
BLOCK_RECORD
  5
178D9
330
1
100
AcDbSymbolTableRecord
100
AcDbBlockTableRecord
  2
*D19
  0
BLOCK_RECORD
  5
178E5
330
1
100
AcDbSymbolTableRecord
100
AcDbBlockTableRecord
  2
*D20
  0
BLOCK_RECORD
  5
17EE3
330
1
100
AcDbSymbolTableRecord
100
AcDbBlockTableRecord
  2
*D21
  0
ENDTAB
  0
ENDSEC
  0
SECTION
  2
BLOCKS
  0
BLOCK
  5
1B
330
1A
100
AcDbEntity
  8
0
100
AcDbBlockBegin
  2
*MODEL_SPACE
 70
     0
 10
0.0
 20
0.0
 30
0.0
  3
*MODEL_SPACE
  1

  0
ENDBLK
  5
1C
330
1A
100
AcDbEntity
  8
0
100
AcDbBlockEnd
  0
BLOCK
  5
5E60
330
5D8E
100
AcDbEntity
 67
     1
  8
0
100
AcDbBlockBegin
  2
*PAPER_SPACE
 70
     0
 10
0.0
 20
0.0
 30
0.0
  3
*PAPER_SPACE
  1

  0
ENDBLK
  5
5E61
330
5D8E
100
AcDbEntity
 67
     1
  8
0
100
AcDbBlockEnd
  0
BLOCK
  5
177DD
330
177D3
100
AcDbEntity
  8
0
100
AcDbBlockBegin
  2
*D0
 70
     1
 10
0.0
 20
0.0
 30
0.0
  3
*D0
  1

  0
LINE
  5
1808C
330
177D3
100
AcDbEntity
  8
SUNPOU
 62
     1
100
AcDbLine
 10
-1489.12561178144
 20
2252.749019567431
 30
0.0
 11
-1489.12561178144
 21
2188.249019567412
 31
0.0
  0
LINE
  5
1808D
330
177D3
100
AcDbEntity
  8
SUNPOU
 62
     1
100
AcDbLine
 10
-1542.12561178144
 20
2233.749019567431
 30
0.0
 11
-1542.12561178144
 21
2188.249019567412
 31
0.0
  0
LINE
  5
1808E
330
177D3
100
AcDbEntity
  8
SUNPOU
 62
     1
100
AcDbLine
 10
-1492.12561178144
 20
2188.749019567411
 30
0.0
 11
-1539.12561178144
 21
2188.749019567411
 31
0.0
  0
SOLID
  5
1808F
330
177D3
100
AcDbEntity
  8
SUNPOU
 62
     1
100
AcDbTrace
 10
-1492.12561178144
 20
2189.249019567411
 30
0.0
 11
-1492.12561178144
 21
2188.249019567412
 31
0.0
 12
-1489.12561178144
 22
2188.749019567411
 32
0.0
 13
-1489.12561178144
 23
2188.749019567411
 33
0.0
  0
SOLID
  5
18090
330
177D3
100
AcDbEntity
  8
SUNPOU
 62
     1
100
AcDbTrace
 10
-1539.12561178144
 20
2189.249019567411
 30
0.0
 11
-1539.12561178144
 21
2188.249019567412
 31
0.0
 12
-1542.12561178144
 22
2188.749019567411
 32
0.0
 13
-1542.12561178144
 23
2188.749019567411
 33
0.0
  0
MTEXT
  5
18091
330
177D3
100
AcDbEntity
  8
SUNPOU
 62
     1
100
AcDbMText
 10
-1515.62561178144
 20
2191.499019567411
 30
0.0
 40
3.5
 41
0.0
 71
     5
 72
     1
  1
\A1;53
1001
ACAD
1000
MTEXTBEGIN
1070
    73
1070
     1
1070
    44
1040
1.0
1070
    74
1070
     0
1000
MTEXTEND
  0
POINT
  5
18092
330
177D3
100
AcDbEntity
  8
DEFPOINTS
 62
     0
100
AcDbPoint
 10
-1489.12561178144
 20
2253.249019567431
 30
0.0
  0
POINT
  5
18093
330
177D3
100
AcDbEntity
  8
DEFPOINTS
 62
     0
100
AcDbPoint
 10
-1542.12561178144
 20
2234.24901956743
 30
0.0
  0
POINT
  5
18094
330
177D3
100
AcDbEntity
  8
DEFPOINTS
 62
     0
100
AcDbPoint
 10
-1542.12561178144
 20
2188.749019567411
 30
0.0
  0
ENDBLK
  5
177DE
330
177D3
100
AcDbEntity
  8
0
100
AcDbBlockEnd
  0
BLOCK
  5
177E9
330
177DF
100
AcDbEntity
  8
0
100
AcDbBlockBegin
  2
*D1
 70
     1
 10
0.0
 20
0.0
 30
0.0
  3
*D1
  1

  0
LINE
  5
1807A
330
177DF
100
AcDbEntity
  8
SUNPOU
 62
     1
100
AcDbLine
 10
-1505.62561178144
 20
2219.749019567411
 30
0.0
 11
-1505.62561178144
 21
2198.249019567411
 31
0.0
  0
LINE
  5
1807B
330
177DF
100
AcDbEntity
  8
SUNPOU
 62
     1
100
AcDbLine
 10
-1525.62561178144
 20
2219.749019567411
 30
0.0
 11
-1525.62561178144
 21
2198.249019567411
 31
0.0
  0
LINE
  5
1807C
330
177DF
100
AcDbEntity
  8
SUNPOU
 62
     1
100
AcDbLine
 10
-1508.62561178144
 20
2198.749019567411
 30
0.0
 11
-1522.62561178144
 21
2198.749019567411
 31
0.0
  0
SOLID
  5
1807D
330
177DF
100
AcDbEntity
  8
SUNPOU
 62
     1
100
AcDbTrace
 10
-1508.62561178144
 20
2199.249019567412
 30
0.0
 11
-1508.62561178144
 21
2198.249019567411
 31
0.0
 12
-1505.62561178144
 22
2198.749019567411
 32
0.0
 13
-1505.62561178144
 23
2198.749019567411
 33
0.0
  0
SOLID
  5
1807E
330
177DF
100
AcDbEntity
  8
SUNPOU
 62
     1
100
AcDbTrace
 10
-1522.62561178144
 20
2199.249019567412
 30
0.0
 11
-1522.62561178144
 21
2198.249019567411
 31
0.0
 12
-1525.62561178144
 22
2198.749019567411
 32
0.0
 13
-1525.62561178144
 23
2198.749019567411
 33
0.0
  0
MTEXT
  5
1807F
330
177DF
100
AcDbEntity
  8
SUNPOU
 62
     1
100
AcDbMText
 10
-1515.62561178144
 20
2201.499019567412
 30
0.0
 40
3.5
 41
0.0
 71
     5
 72
     1
  1
\A1;20
1001
ACAD
1000
MTEXTBEGIN
1070
    73
1070
     1
1070
    44
1040
1.0
1070
    74
1070
     0
1000
MTEXTEND
  0
POINT
  5
18080
330
177DF
100
AcDbEntity
  8
DEFPOINTS
 62
     0
100
AcDbPoint
 10
-1505.62561178144
 20
2220.249019567412
 30
0.0
  0
POINT
  5
18081
330
177DF
100
AcDbEntity
  8
DEFPOINTS
 62
     0
100
AcDbPoint
 10
-1525.62561178144
 20
2220.249019567412
 30
0.0
  0
POINT
  5
18082
330
177DF
100
AcDbEntity
  8
DEFPOINTS
 62
     0
100
AcDbPoint
 10
-1525.62561178144
 20
2198.749019567411
 30
0.0
  0
ENDBLK
  5
177EA
330
177DF
100
AcDbEntity
  8
0
100
AcDbBlockEnd
  0
BLOCK
  5
177F5
330
177EB
100
AcDbEntity
  8
0
100
AcDbBlockBegin
  2
*D2
 70
     1
 10
0.0
 20
0.0
 30
0.0
  3
*D2
  1

  0
LINE
  5
18083
330
177EB
100
AcDbEntity
  8
SUNPOU
 62
     1
100
AcDbLine
 10
-1489.12561178144
 20
2252.749019567431
 30
0.0
 11
-1489.12561178144
 21
2198.249019567411
 31
0.0
  0
LINE
  5
18084
330
177EB
100
AcDbEntity
  8
SUNPOU
 62
     1
100
AcDbLine
 10
-1505.62561178144
 20
2219.749019567411
 30
0.0
 11
-1505.62561178144
 21
2198.249019567411
 31
0.0
  0
LINE
  5
18085
330
177EB
100
AcDbEntity
  8
SUNPOU
 62
     1
100
AcDbLine
 10
-1492.12561178144
 20
2198.749019567411
 30
0.0
 11
-1502.62561178144
 21
2198.749019567411
 31
0.0
  0
SOLID
  5
18086
330
177EB
100
AcDbEntity
  8
SUNPOU
 62
     1
100
AcDbTrace
 10
-1492.12561178144
 20
2199.249019567412
 30
0.0
 11
-1492.12561178144
 21
2198.249019567411
 31
0.0
 12
-1489.12561178144
 22
2198.749019567411
 32
0.0
 13
-1489.12561178144
 23
2198.749019567411
 33
0.0
  0
SOLID
  5
18087
330
177EB
100
AcDbEntity
  8
SUNPOU
 62
     1
100
AcDbTrace
 10
-1502.62561178144
 20
2199.249019567412
 30
0.0
 11
-1502.62561178144
 21
2198.249019567411
 31
0.0
 12
-1505.62561178144
 22
2198.749019567411
 32
0.0
 13
-1505.62561178144
 23
2198.749019567411
 33
0.0
  0
MTEXT
  5
18088
330
177EB
100
AcDbEntity
  8
SUNPOU
 62
     1
100
AcDbMText
 10
-1497.37561178144
 20
2201.499019567412
 30
0.0
 40
3.5
 41
0.0
 71
     5
 72
     1
  1
\A1;16.5
1001
ACAD
1000
MTEXTBEGIN
1070
    73
1070
     1
1070
    44
1040
1.0
1070
    74
1070
     0
1000
MTEXTEND
  0
POINT
  5
18089
330
177EB
100
AcDbEntity
  8
DEFPOINTS
 62
     0
100
AcDbPoint
 10
-1489.12561178144
 20
2253.249019567431
 30
0.0
  0
POINT
  5
1808A
330
177EB
100
AcDbEntity
  8
DEFPOINTS
 62
     0
100
AcDbPoint
 10
-1505.62561178144
 20
2220.249019567412
 30
0.0
  0
POINT
  5
1808B
330
177EB
100
AcDbEntity
  8
DEFPOINTS
 62
     0
100
AcDbPoint
 10
-1505.62561178144
 20
2198.749019567411
 30
0.0
  0
ENDBLK
  5
177F6
330
177EB
100
AcDbEntity
  8
0
100
AcDbBlockEnd
  0
BLOCK
  5
1780F
330
17803
100
AcDbEntity
  8
0
100
AcDbBlockBegin
  2
*D3
 70
     1
 10
0.0
 20
0.0
 30
0.0
  3
*D3
  1

  0
LINE
  5
1809E
330
17803
100
AcDbEntity
  8
SUNPOU
 62
     1
100
AcDbLine
 10
-1489.12561178144
 20
2252.749019567431
 30
0.0
 11
-1489.12561178144
 21
2188.249019567412
 31
0.0
  0
LINE
  5
1809F
330
17803
100
AcDbEntity
  8
SUNPOU
 62
     1
100
AcDbLine
 10
-1486.12561178144
 20
2257.749019567412
 30
0.0
 11
-1486.12561178144
 21
2188.249019567412
 31
0.0
  0
LINE
  5
180A0
330
17803
100
AcDbEntity
  8
SUNPOU
 62
     1
100
AcDbLine
 10
-1492.12561178144
 20
2188.749019567411
 30
0.0
 11
-1495.12561178144
 21
2188.749019567411
 31
0.0
  0
LINE
  5
180A1
330
17803
100
AcDbEntity
  8
SUNPOU
 62
     1
100
AcDbLine
 10
-1483.12561178144
 20
2188.749019567411
 30
0.0
 11
-1471.12561178144
 21
2188.749019567411
 31
0.0
  0
LINE
  5
180A2
330
17803
100
AcDbEntity
  8
SUNPOU
 62
     1
100
AcDbLine
 10
-1489.12561178144
 20
2188.749019567411
 30
0.0
 11
-1486.12561178144
 21
2188.749019567411
 31
0.0
  0
SOLID
  5
180A3
330
17803
100
AcDbEntity
  8
SUNPOU
 62
     1
100
AcDbTrace
 10
-1492.12561178144
 20
2189.249019567411
 30
0.0
 11
-1492.12561178144
 21
2188.249019567412
 31
0.0
 12
-1489.12561178144
 22
2188.749019567411
 32
0.0
 13
-1489.12561178144
 23
2188.749019567411
 33
0.0
  0
SOLID
  5
180A4
330
17803
100
AcDbEntity
  8
SUNPOU
 62
     1
100
AcDbTrace
 10
-1483.12561178144
 20
2189.249019567411
 30
0.0
 11
-1483.12561178144
 21
2188.249019567412
 31
0.0
 12
-1486.12561178144
 22
2188.749019567411
 32
0.0
 13
-1486.12561178144
 23
2188.749019567411
 33
0.0
  0
MTEXT
  5
180A5
330
17803
100
AcDbEntity
  8
SUNPOU
 62
     1
100
AcDbMText
 10
-1475.62561178144
 20
2191.499019567411
 30
0.0
 40
3.5
 41
0.0
 71
     5
 72
     1
  1
\A1;(3)
1001
ACAD
1000
MTEXTBEGIN
1070
    73
1070
     1
1070
    44
1040
1.0
1070
    74
1070
     0
1000
MTEXTEND
  0
POINT
  5
180A6
330
17803
100
AcDbEntity
  8
DEFPOINTS
 62
     0
100
AcDbPoint
 10
-1489.12561178144
 20
2253.249019567431
 30
0.0
  0
POINT
  5
180A7
330
17803
100
AcDbEntity
  8
DEFPOINTS
 62
     0
100
AcDbPoint
 10
-1486.12561178144
 20
2258.249019567411
 30
0.0
  0
POINT
  5
180A8
330
17803
100
AcDbEntity
  8
DEFPOINTS
 62
     0
100
AcDbPoint
 10
-1486.12561178144
 20
2188.749019567411
 30
0.0
  0
ENDBLK
  5
17810
330
17803
100
AcDbEntity
  8
0
100
AcDbBlockEnd
  0
BLOCK
  5
1781D
330
17811
100
AcDbEntity
  8
0
100
AcDbBlockBegin
  2
*D4
 70
     1
 10
0.0
 20
0.0
 30
0.0
  3
*D4
  1

  0
LINE
  5
180A9
330
17811
100
AcDbEntity
  8
SUNPOU
 62
     1
100
AcDbLine
 10
-1542.12561178144
 20
2233.749019567431
 30
0.0
 11
-1542.12561178144
 21
2188.249019567412
 31
0.0
  0
LINE
  5
180AA
330
17811
100
AcDbEntity
  8
SUNPOU
 62
     1
100
AcDbLine
 10
-1545.12561178144
 20
2248.249019567411
 30
0.0
 11
-1545.12561178144
 21
2188.249019567412
 31
0.0
  0
LINE
  5
180AB
330
17811
100
AcDbEntity
  8
SUNPOU
 62
     1
100
AcDbLine
 10
-1539.12561178144
 20
2188.749019567411
 30
0.0
 11
-1536.12561178144
 21
2188.749019567411
 31
0.0
  0
LINE
  5
180AC
330
17811
100
AcDbEntity
  8
SUNPOU
 62
     1
100
AcDbLine
 10
-1548.12561178144
 20
2188.749019567411
 30
0.0
 11
-1560.12561178144
 21
2188.749019567411
 31
0.0
  0
LINE
  5
180AD
330
17811
100
AcDbEntity
  8
SUNPOU
 62
     1
100
AcDbLine
 10
-1542.12561178144
 20
2188.749019567411
 30
0.0
 11
-1545.12561178144
 21
2188.749019567411
 31
0.0
  0
SOLID
  5
180AE
330
17811
100
AcDbEntity
  8
SUNPOU
 62
     1
100
AcDbTrace
 10
-1539.12561178144
 20
2189.249019567411
 30
0.0
 11
-1539.12561178144
 21
2188.249019567412
 31
0.0
 12
-1542.12561178144
 22
2188.749019567411
 32
0.0
 13
-1542.12561178144
 23
2188.749019567411
 33
0.0
  0
SOLID
  5
180AF
330
17811
100
AcDbEntity
  8
SUNPOU
 62
     1
100
AcDbTrace
 10
-1548.12561178144
 20
2189.249019567411
 30
0.0
 11
-1548.12561178144
 21
2188.249019567412
 31
0.0
 12
-1545.12561178144
 22
2188.749019567411
 32
0.0
 13
-1545.12561178144
 23
2188.749019567411
 33
0.0
  0
MTEXT
  5
180B0
330
17811
100
AcDbEntity
  8
SUNPOU
 62
     1
100
AcDbMText
 10
-1555.62561178144
 20
2191.499019567411
 30
0.0
 40
3.5
 41
0.0
 71
     5
 72
     1
  1
\A1;(3)
1001
ACAD
1000
MTEXTBEGIN
1070
    73
1070
     1
1070
    44
1040
1.0
1070
    74
1070
     0
1000
MTEXTEND
  0
POINT
  5
180B1
330
17811
100
AcDbEntity
  8
DEFPOINTS
 62
     0
100
AcDbPoint
 10
-1542.12561178144
 20
2234.24901956743
 30
0.0
  0
POINT
  5
180B2
330
17811
100
AcDbEntity
  8
DEFPOINTS
 62
     0
100
AcDbPoint
 10
-1545.12561178144
 20
2248.749019567411
 30
0.0
  0
POINT
  5
180B3
330
17811
100
AcDbEntity
  8
DEFPOINTS
 62
     0
100
AcDbPoint
 10
-1545.12561178144
 20
2188.749019567411
 30
0.0
  0
ENDBLK
  5
1781E
330
17811
100
AcDbEntity
  8
0
100
AcDbBlockEnd
  0
BLOCK
  5
17829
330
1781F
100
AcDbEntity
  8
0
100
AcDbBlockBegin
  2
*D5
 70
     1
 10
0.0
 20
0.0
 30
0.0
  3
*D5
  1

  0
LINE
  5
18095
330
1781F
100
AcDbEntity
  8
SUNPOU
 62
     1
100
AcDbLine
 10
-1486.12561178144
 20
2257.749019567412
 30
0.0
 11
-1486.12561178144
 21
2178.249019567411
 31
0.0
  0
LINE
  5
18096
330
1781F
100
AcDbEntity
  8
SUNPOU
 62
     1
100
AcDbLine
 10
-1545.12561178144
 20
2248.249019567411
 30
0.0
 11
-1545.12561178144
 21
2178.249019567411
 31
0.0
  0
LINE
  5
18097
330
1781F
100
AcDbEntity
  8
SUNPOU
 62
     1
100
AcDbLine
 10
-1489.12561178144
 20
2178.749019567411
 30
0.0
 11
-1542.125611781441
 21
2178.749019567411
 31
0.0
  0
SOLID
  5
18098
330
1781F
100
AcDbEntity
  8
SUNPOU
 62
     1
100
AcDbTrace
 10
-1489.12561178144
 20
2179.249019567412
 30
0.0
 11
-1489.12561178144
 21
2178.249019567411
 31
0.0
 12
-1486.12561178144
 22
2178.749019567411
 32
0.0
 13
-1486.12561178144
 23
2178.749019567411
 33
0.0
  0
SOLID
  5
18099
330
1781F
100
AcDbEntity
  8
SUNPOU
 62
     1
100
AcDbTrace
 10
-1542.125611781441
 20
2179.249019567412
 30
0.0
 11
-1542.125611781441
 21
2178.249019567411
 31
0.0
 12
-1545.12561178144
 22
2178.749019567411
 32
0.0
 13
-1545.12561178144
 23
2178.749019567411
 33
0.0
  0
MTEXT
  5
1809A
330
1781F
100
AcDbEntity
  8
SUNPOU
 62
     1
100
AcDbMText
 10
-1515.62561178144
 20
2181.499019567411
 30
0.0
 40
3.5
 41
0.0
 71
     5
 72
     1
  1
\A1;(59)
1001
ACAD
1000
MTEXTBEGIN
1070
    73
1070
     1
1070
    44
1040
1.0
1070
    74
1070
     0
1000
MTEXTEND
  0
POINT
  5
1809B
330
1781F
100
AcDbEntity
  8
DEFPOINTS
 62
     0
100
AcDbPoint
 10
-1486.12561178144
 20
2258.249019567411
 30
0.0
  0
POINT
  5
1809C
330
1781F
100
AcDbEntity
  8
DEFPOINTS
 62
     0
100
AcDbPoint
 10
-1545.12561178144
 20
2248.749019567411
 30
0.0
  0
POINT
  5
1809D
330
1781F
100
AcDbEntity
  8
DEFPOINTS
 62
     0
100
AcDbPoint
 10
-1545.12561178144
 20
2178.749019567411
 30
0.0
  0
ENDBLK
  5
1782A
330
1781F
100
AcDbEntity
  8
0
100
AcDbBlockEnd
  0
BLOCK
  5
17835
330
1782B
100
AcDbEntity
  8
0
100
AcDbBlockBegin
  2
*D6
 70
     1
 10
0.0
 20
0.0
 30
0.0
  3
*D6
  1

  0
LINE
  5
18066
330
1782B
100
AcDbEntity
  8
SUNPOU
 62
     1
100
AcDbLine
 10
-1497.12561178144
 20
2220.249019567412
 30
0.0
 11
-1497.12561178144
 21
2208.249019567412
 31
0.0
  0
LINE
  5
18067
330
1782B
100
AcDbEntity
  8
SUNPOU
 62
     1
100
AcDbLine
 10
-1534.12561178144
 20
2220.249019567412
 30
0.0
 11
-1534.12561178144
 21
2208.249019567412
 31
0.0
  0
LINE
  5
18068
330
1782B
100
AcDbEntity
  8
SUNPOU
 62
     1
100
AcDbLine
 10
-1500.12561178144
 20
2208.749019567411
 30
0.0
 11
-1531.12561178144
 21
2208.749019567411
 31
0.0
  0
SOLID
  5
18069
330
1782B
100
AcDbEntity
  8
SUNPOU
 62
     1
100
AcDbTrace
 10
-1500.12561178144
 20
2209.249019567411
 30
0.0
 11
-1500.12561178144
 21
2208.249019567412
 31
0.0
 12
-1497.12561178144
 22
2208.749019567411
 32
0.0
 13
-1497.12561178144
 23
2208.749019567411
 33
0.0
  0
SOLID
  5
1806A
330
1782B
100
AcDbEntity
  8
SUNPOU
 62
     1
100
AcDbTrace
 10
-1531.12561178144
 20
2209.249019567411
 30
0.0
 11
-1531.12561178144
 21
2208.249019567412
 31
0.0
 12
-1534.12561178144
 22
2208.749019567411
 32
0.0
 13
-1534.12561178144
 23
2208.749019567411
 33
0.0
  0
MTEXT
  5
1806B
330
1782B
100
AcDbEntity
  8
SUNPOU
 62
     1
100
AcDbMText
 10
-1515.62561178144
 20
2211.499019567412
 30
0.0
 40
3.5
 41
0.0
 71
     5
 72
     1
  1
\A1;37
1001
ACAD
1000
MTEXTBEGIN
1070
    73
1070
     1
1070
    44
1040
1.0
1070
    74
1070
     0
1000
MTEXTEND
  0
POINT
  5
1806C
330
1782B
100
AcDbEntity
  8
DEFPOINTS
 62
     0
100
AcDbPoint
 10
-1497.12561178144
 20
2220.749019567411
 30
0.0
  0
POINT
  5
1806D
330
1782B
100
AcDbEntity
  8
DEFPOINTS
 62
     0
100
AcDbPoint
 10
-1534.12561178144
 20
2220.749019567411
 30
0.0
  0
POINT
  5
1806E
330
1782B
100
AcDbEntity
  8
DEFPOINTS
 62
     0
100
AcDbPoint
 10
-1534.12561178144
 20
2208.749019567411
 30
0.0
  0
ENDBLK
  5
17836
330
1782B
100
AcDbEntity
  8
0
100
AcDbBlockEnd
  0
BLOCK
  5
17841
330
17837
100
AcDbEntity
  8
0
100
AcDbBlockBegin
  2
*D7
 70
     1
 10
0.0
 20
0.0
 30
0.0
  3
*D7
  1

  0
LINE
  5
18019
330
17837
100
AcDbEntity
  8
SUNPOU
 62
     1
100
AcDbLine
 10
-1501.62561178144
 20
2383.749019567412
 30
0.0
 11
-1475.62561178144
 21
2383.749019567412
 31
0.0
  0
LINE
  5
1801A
330
17837
100
AcDbEntity
  8
SUNPOU
 62
     1
100
AcDbLine
 10
-1501.62561178144
 20
2223.749019567411
 30
0.0
 11
-1475.62561178144
 21
2223.749019567411
 31
0.0
  0
LINE
  5
1801B
330
17837
100
AcDbEntity
  8
SUNPOU
 62
     1
100
AcDbLine
 10
-1476.12561178144
 20
2380.749019567411
 30
0.0
 11
-1476.12561178144
 21
2226.749019567412
 31
0.0
  0
SOLID
  5
1801C
330
17837
100
AcDbEntity
  8
SUNPOU
 62
     1
100
AcDbTrace
 10
-1476.62561178144
 20
2380.749019567411
 30
0.0
 11
-1475.62561178144
 21
2380.749019567411
 31
0.0
 12
-1476.12561178144
 22
2383.749019567412
 32
0.0
 13
-1476.12561178144
 23
2383.749019567412
 33
0.0
  0
SOLID
  5
1801D
330
17837
100
AcDbEntity
  8
SUNPOU
 62
     1
100
AcDbTrace
 10
-1476.62561178144
 20
2226.749019567412
 30
0.0
 11
-1475.62561178144
 21
2226.749019567412
 31
0.0
 12
-1476.12561178144
 22
2223.749019567411
 32
0.0
 13
-1476.12561178144
 23
2223.749019567411
 33
0.0
  0
MTEXT
  5
1801E
330
17837
100
AcDbEntity
  8
SUNPOU
 62
     1
100
AcDbMText
 10
-1478.87561178144
 20
2303.749019567411
 30
0.0
 40
3.5
 41
0.0
 71
     5
 72
     1
  1
\A1;160
 11
0.0000000000000001
 21
1.0
 31
0.0
1001
ACAD
1000
MTEXTBEGIN
1070
    73
1070
     1
1070
    44
1040
1.0
1070
    74
1070
     0
1000
MTEXTEND
  0
POINT
  5
1801F
330
17837
100
AcDbEntity
  8
DEFPOINTS
 62
     0
100
AcDbPoint
 10
-1502.12561178144
 20
2383.749019567412
 30
0.0
  0
POINT
  5
18020
330
17837
100
AcDbEntity
  8
DEFPOINTS
 62
     0
100
AcDbPoint
 10
-1502.12561178144
 20
2223.749019567411
 30
0.0
  0
POINT
  5
18021
330
17837
100
AcDbEntity
  8
DEFPOINTS
 62
     0
100
AcDbPoint
 10
-1476.12561178144
 20
2223.749019567411
 30
0.0
  0
ENDBLK
  5
17842
330
17837
100
AcDbEntity
  8
0
100
AcDbBlockEnd
  0
BLOCK
  5
1784F
330
17843
100
AcDbEntity
  8
0
100
AcDbBlockBegin
  2
*D8
 70
     1
 10
0.0
 20
0.0
 30
0.0
  3
*D8
  1

  0
LINE
  5
18143
330
17843
100
AcDbEntity
  8
SUNPOU
 62
     1
100
AcDbLine
 10
-1498.62561178144
 20
2388.749019567411
 30
0.0
 11
-1475.427427889141
 21
2388.749019567411
 31
0.0
  0
LINE
  5
18144
330
17843
100
AcDbEntity
  8
SUNPOU
 62
     1
100
AcDbLine
 10
-1501.625611781439
 20
2383.749019567412
 30
0.0
 11
-1475.427427889141
 21
2383.749019567412
 31
0.0
  0
LINE
  5
18145
330
17843
100
AcDbEntity
  8
SUNPOU
 62
     1
100
AcDbLine
 10
-1475.927427889142
 20
2380.749019567411
 30
0.0
 11
-1475.927427889142
 21
2377.749019567411
 31
0.0
  0
LINE
  5
18146
330
17843
100
AcDbEntity
  8
SUNPOU
 62
     1
100
AcDbLine
 10
-1475.927427889142
 20
2391.749019567412
 30
0.0
 11
-1475.927427889142
 21
2403.749019567412
 31
0.0
  0
LINE
  5
18147
330
17843
100
AcDbEntity
  8
SUNPOU
 62
     1
100
AcDbLine
 10
-1475.927427889142
 20
2383.749019567412
 30
0.0
 11
-1475.927427889142
 21
2388.749019567411
 31
0.0
  0
SOLID
  5
18148
330
17843
100
AcDbEntity
  8
SUNPOU
 62
     1
100
AcDbTrace
 10
-1476.427427889142
 20
2380.749019567411
 30
0.0
 11
-1475.427427889141
 21
2380.749019567411
 31
0.0
 12
-1475.927427889142
 22
2383.749019567412
 32
0.0
 13
-1475.927427889142
 23
2383.749019567412
 33
0.0
  0
SOLID
  5
18149
330
17843
100
AcDbEntity
  8
SUNPOU
 62
     1
100
AcDbTrace
 10
-1476.427427889142
 20
2391.749019567412
 30
0.0
 11
-1475.427427889141
 21
2391.749019567412
 31
0.0
 12
-1475.927427889142
 22
2388.749019567411
 32
0.0
 13
-1475.927427889142
 23
2388.749019567411
 33
0.0
  0
MTEXT
  5
1814A
330
17843
100
AcDbEntity
  8
SUNPOU
 62
     1
100
AcDbMText
 10
-1478.677427889142
 20
2399.249019567411
 30
0.0
 40
3.5
 41
0.0
 71
     5
 72
     1
  1
\A1;(5)
 11
0.0000000000000001
 21
1.0
 31
0.0
1001
ACAD
1000
MTEXTBEGIN
1070
    73
1070
     1
1070
    44
1040
1.0
1070
    74
1070
     0
1000
MTEXTEND
  0
POINT
  5
1814B
330
17843
100
AcDbEntity
  8
DEFPOINTS
 62
     0
100
AcDbPoint
 10
-1499.12561178144
 20
2388.749019567411
 30
0.0
  0
POINT
  5
1814C
330
17843
100
AcDbEntity
  8
DEFPOINTS
 62
     0
100
AcDbPoint
 10
-1502.12561178144
 20
2383.749019567412
 30
0.0
  0
POINT
  5
1814D
330
17843
100
AcDbEntity
  8
DEFPOINTS
 62
     0
100
AcDbPoint
 10
-1475.927427889142
 20
2383.749019567412
 30
0.0
  0
ENDBLK
  5
17850
330
17843
100
AcDbEntity
  8
0
100
AcDbBlockEnd
  0
BLOCK
  5
1785D
330
17851
100
AcDbEntity
  8
0
100
AcDbBlockBegin
  2
*D9
 70
     1
 10
0.0
 20
0.0
 30
0.0
  3
*D9
  1

  0
LINE
  5
1814E
330
17851
100
AcDbEntity
  8
SUNPOU
 62
     1
100
AcDbLine
 10
-1498.62561178144
 20
2218.749019567411
 30
0.0
 11
-1475.628059363858
 21
2218.749019567411
 31
0.0
  0
LINE
  5
1814F
330
17851
100
AcDbEntity
  8
SUNPOU
 62
     1
100
AcDbLine
 10
-1501.62561178144
 20
2223.749019567411
 30
0.0
 11
-1475.628059363858
 21
2223.749019567411
 31
0.0
  0
LINE
  5
18150
330
17851
100
AcDbEntity
  8
SUNPOU
 62
     1
100
AcDbLine
 10
-1476.128059363858
 20
2226.749019567412
 30
0.0
 11
-1476.128059363858
 21
2229.749019567412
 31
0.0
  0
LINE
  5
18151
330
17851
100
AcDbEntity
  8
SUNPOU
 62
     1
100
AcDbLine
 10
-1476.128059363858
 20
2215.749019567411
 30
0.0
 11
-1476.128059363858
 21
2203.749019567411
 31
0.0
  0
LINE
  5
18152
330
17851
100
AcDbEntity
  8
SUNPOU
 62
     1
100
AcDbLine
 10
-1476.128059363858
 20
2223.749019567411
 30
0.0
 11
-1476.128059363858
 21
2218.749019567411
 31
0.0
  0
SOLID
  5
18153
330
17851
100
AcDbEntity
  8
SUNPOU
 62
     1
100
AcDbTrace
 10
-1476.628059363858
 20
2226.749019567412
 30
0.0
 11
-1475.628059363858
 21
2226.749019567412
 31
0.0
 12
-1476.128059363858
 22
2223.749019567411
 32
0.0
 13
-1476.128059363858
 23
2223.749019567411
 33
0.0
  0
SOLID
  5
18154
330
17851
100
AcDbEntity
  8
SUNPOU
 62
     1
100
AcDbTrace
 10
-1476.628059363858
 20
2215.749019567411
 30
0.0
 11
-1475.628059363858
 21
2215.749019567411
 31
0.0
 12
-1476.128059363858
 22
2218.749019567411
 32
0.0
 13
-1476.128059363858
 23
2218.749019567411
 33
0.0
  0
MTEXT
  5
18155
330
17851
100
AcDbEntity
  8
SUNPOU
 62
     1
100
AcDbMText
 10
-1478.878059363858
 20
2208.249019567411
 30
0.0
 40
3.5
 41
0.0
 71
     5
 72
     1
  1
\A1;(5)
 11
0.0000000000000001
 21
1.0
 31
0.0
1001
ACAD
1000
MTEXTBEGIN
1070
    73
1070
     1
1070
    44
1040
1.0
1070
    74
1070
     0
1000
MTEXTEND
  0
POINT
  5
18156
330
17851
100
AcDbEntity
  8
DEFPOINTS
 62
     0
100
AcDbPoint
 10
-1499.12561178144
 20
2218.749019567411
 30
0.0
  0
POINT
  5
18157
330
17851
100
AcDbEntity
  8
DEFPOINTS
 62
     0
100
AcDbPoint
 10
-1502.12561178144
 20
2223.749019567411
 30
0.0
  0
POINT
  5
18158
330
17851
100
AcDbEntity
  8
DEFPOINTS
 62
     0
100
AcDbPoint
 10
-1476.128059363858
 20
2223.749019567411
 30
0.0
  0
ENDBLK
  5
1785E
330
17851
100
AcDbEntity
  8
0
100
AcDbBlockEnd
  0
BLOCK
  5
17877
330
1786B
100
AcDbEntity
  8
0
100
AcDbBlockBegin
  2
*D10
 70
     1
 10
0.0
 20
0.0
 30
0.0
  3
*D10
  1

  0
LINE
  5
17FFC
330
1786B
100
AcDbEntity
  8
SUNPOU
 62
     1
100
AcDbLine
 10
-1523.37561178144
 20
2389.249019567411
 30
0.0
 11
-1523.37561178144
 21
2399.249019567411
 31
0.0
  0
LINE
  5
17FFD
330
1786B
100
AcDbEntity
  8
SUNPOU
 62
     1
100
AcDbLine
 10
-1527.87561178144
 20
2389.249019567411
 30
0.0
 11
-1527.87561178144
 21
2399.249019567411
 31
0.0
  0
LINE
  5
17FFE
330
1786B
100
AcDbEntity
  8
SUNPOU
 62
     1
100
AcDbLine
 10
-1520.37561178144
 20
2398.749019567412
 30
0.0
 11
-1517.37561178144
 21
2398.749019567412
 31
0.0
  0
LINE
  5
17FFF
330
1786B
100
AcDbEntity
  8
SUNPOU
 62
     1
100
AcDbLine
 10
-1530.87561178144
 20
2398.749019567412
 30
0.0
 11
-1542.87561178144
 21
2398.749019567412
 31
0.0
  0
LINE
  5
18000
330
1786B
100
AcDbEntity
  8
SUNPOU
 62
     1
100
AcDbLine
 10
-1523.37561178144
 20
2398.749019567412
 30
0.0
 11
-1527.87561178144
 21
2398.749019567412
 31
0.0
  0
SOLID
  5
18001
330
1786B
100
AcDbEntity
  8
SUNPOU
 62
     1
100
AcDbTrace
 10
-1520.37561178144
 20
2399.249019567411
 30
0.0
 11
-1520.37561178144
 21
2398.249019567411
 31
0.0
 12
-1523.37561178144
 22
2398.749019567412
 32
0.0
 13
-1523.37561178144
 23
2398.749019567412
 33
0.0
  0
SOLID
  5
18002
330
1786B
100
AcDbEntity
  8
SUNPOU
 62
     1
100
AcDbTrace
 10
-1530.87561178144
 20
2399.249019567411
 30
0.0
 11
-1530.87561178144
 21
2398.249019567411
 31
0.0
 12
-1527.87561178144
 22
2398.749019567412
 32
0.0
 13
-1527.87561178144
 23
2398.749019567412
 33
0.0
  0
MTEXT
  5
18003
330
1786B
100
AcDbEntity
  8
SUNPOU
 62
     1
100
AcDbMText
 10
-1538.37561178144
 20
2401.499019567411
 30
0.0
 40
3.5
 41
0.0
 71
     5
 72
     1
  1
\A1;4.5
1001
ACAD
1000
MTEXTBEGIN
1070
    73
1070
     1
1070
    44
1040
1.0
1070
    74
1070
     0
1000
MTEXTEND
  0
POINT
  5
18004
330
1786B
100
AcDbEntity
  8
DEFPOINTS
 62
     0
100
AcDbPoint
 10
-1523.37561178144
 20
2388.749019567411
 30
0.0
  0
POINT
  5
18005
330
1786B
100
AcDbEntity
  8
DEFPOINTS
 62
     0
100
AcDbPoint
 10
-1527.87561178144
 20
2388.749019567411
 30
0.0
  0
POINT
  5
18006
330
1786B
100
AcDbEntity
  8
DEFPOINTS
 62
     0
100
AcDbPoint
 10
-1527.87561178144
 20
2398.749019567412
 30
0.0
  0
ENDBLK
  5
17878
330
1786B
100
AcDbEntity
  8
0
100
AcDbBlockEnd
  0
BLOCK
  5
17883
330
17879
100
AcDbEntity
  8
0
100
AcDbBlockBegin
  2
*D11
 70
     1
 10
0.0
 20
0.0
 30
0.0
  3
*D11
  1

  0
LINE
  5
1804A
330
17879
100
AcDbEntity
  8
SUNPOU
 62
     1
100
AcDbLine
 10
-1760.093751777614
 20
2218.249019567408
 30
0.0
 11
-1760.093751777614
 21
2208.249019567408
 31
0.0
  0
LINE
  5
1804B
330
17879
100
AcDbEntity
  8
SUNPOU
 62
     1
100
AcDbLine
 10
-1625.093751777614
 20
2232.249019567408
 30
0.0
 11
-1625.093751777614
 21
2208.249019567408
 31
0.0
  0
LINE
  5
1804C
330
17879
100
AcDbEntity
  8
SUNPOU
 62
     1
100
AcDbLine
 10
-1757.093751777614
 20
2208.749019567408
 30
0.0
 11
-1628.093751777614
 21
2208.749019567408
 31
0.0
  0
SOLID
  5
1804D
330
17879
100
AcDbEntity
  8
SUNPOU
 62
     1
100
AcDbTrace
 10
-1757.093751777614
 20
2209.249019567408
 30
0.0
 11
-1757.093751777614
 21
2208.249019567408
 31
0.0
 12
-1760.093751777614
 22
2208.749019567408
 32
0.0
 13
-1760.093751777614
 23
2208.749019567408
 33
0.0
  0
SOLID
  5
1804E
330
17879
100
AcDbEntity
  8
SUNPOU
 62
     1
100
AcDbTrace
 10
-1628.093751777614
 20
2209.249019567408
 30
0.0
 11
-1628.093751777614
 21
2208.249019567408
 31
0.0
 12
-1625.093751777614
 22
2208.749019567408
 32
0.0
 13
-1625.093751777614
 23
2208.749019567408
 33
0.0
  0
MTEXT
  5
1804F
330
17879
100
AcDbEntity
  8
SUNPOU
 62
     1
100
AcDbMText
 10
-1692.593751777614
 20
2211.499019567408
 30
0.0
 40
3.5
 41
0.0
 71
     5
 72
     1
  1
\A1;135
1001
ACAD
1000
MTEXTBEGIN
1070
    73
1070
     1
1070
    44
1040
1.0
1070
    74
1070
     0
1000
MTEXTEND
  0
POINT
  5
18050
330
17879
100
AcDbEntity
  8
DEFPOINTS
 62
     0
100
AcDbPoint
 10
-1760.093751777614
 20
2218.749019567408
 30
0.0
  0
POINT
  5
18051
330
17879
100
AcDbEntity
  8
DEFPOINTS
 62
     0
100
AcDbPoint
 10
-1625.093751777614
 20
2232.749019567408
 30
0.0
  0
POINT
  5
18052
330
17879
100
AcDbEntity
  8
DEFPOINTS
 62
     0
100
AcDbPoint
 10
-1625.093751777614
 20
2208.749019567408
 30
0.0
  0
ENDBLK
  5
17884
330
17879
100
AcDbEntity
  8
0
100
AcDbBlockEnd
  0
BLOCK
  5
1788F
330
17885
100
AcDbEntity
  8
0
100
AcDbBlockBegin
  2
*D12
 70
     1
 10
0.0
 20
0.0
 30
0.0
  3
*D12
  1

  0
LINE
  5
18053
330
17885
100
AcDbEntity
  8
SUNPOU
 62
     1
100
AcDbLine
 10
-1625.093751777614
 20
2232.249019567408
 30
0.0
 11
-1625.093751777614
 21
2208.249019567408
 31
0.0
  0
LINE
  5
18054
330
17885
100
AcDbEntity
  8
SUNPOU
 62
     1
100
AcDbLine
 10
-1610.593751777614
 20
2242.709019567408
 30
0.0
 11
-1610.593751777614
 21
2208.249019567408
 31
0.0
  0
LINE
  5
18055
330
17885
100
AcDbEntity
  8
SUNPOU
 62
     1
100
AcDbLine
 10
-1622.093751777614
 20
2208.749019567408
 30
0.0
 11
-1613.593751777615
 21
2208.749019567408
 31
0.0
  0
LINE
  5
18056
330
17885
100
AcDbEntity
  8
SUNPOU
 62
     1
100
AcDbLine
 10
-1610.593751777614
 20
2208.749019567408
 30
0.0
 11
-1591.593751777614
 21
2208.749019567408
 31
0.0
  0
SOLID
  5
18057
330
17885
100
AcDbEntity
  8
SUNPOU
 62
     1
100
AcDbTrace
 10
-1622.093751777614
 20
2209.249019567408
 30
0.0
 11
-1622.093751777614
 21
2208.249019567408
 31
0.0
 12
-1625.093751777614
 22
2208.749019567408
 32
0.0
 13
-1625.093751777614
 23
2208.749019567408
 33
0.0
  0
SOLID
  5
18058
330
17885
100
AcDbEntity
  8
SUNPOU
 62
     1
100
AcDbTrace
 10
-1613.593751777615
 20
2209.249019567408
 30
0.0
 11
-1613.593751777615
 21
2208.249019567408
 31
0.0
 12
-1610.593751777614
 22
2208.749019567408
 32
0.0
 13
-1610.593751777614
 23
2208.749019567408
 33
0.0
  0
MTEXT
  5
18059
330
17885
100
AcDbEntity
  8
SUNPOU
 62
     1
100
AcDbMText
 10
-1599.593751777614
 20
2211.499019567408
 30
0.0
 40
3.5
 41
0.0
 71
     5
 72
     1
  1
\A1;(14.5)
1001
ACAD
1000
MTEXTBEGIN
1070
    73
1070
     1
1070
    44
1040
1.0
1070
    74
1070
     0
1000
MTEXTEND
  0
POINT
  5
1805A
330
17885
100
AcDbEntity
  8
DEFPOINTS
 62
     0
100
AcDbPoint
 10
-1625.093751777614
 20
2232.749019567408
 30
0.0
  0
POINT
  5
1805B
330
17885
100
AcDbEntity
  8
DEFPOINTS
 62
     0
100
AcDbPoint
 10
-1610.593751777614
 20
2243.209019567408
 30
0.0
  0
POINT
  5
1805C
330
17885
100
AcDbEntity
  8
DEFPOINTS
 62
     0
100
AcDbPoint
 10
-1610.593751777614
 20
2208.749019567408
 30
0.0
  0
ENDBLK
  5
17890
330
17885
100
AcDbEntity
  8
0
100
AcDbBlockEnd
  0
BLOCK
  5
1789B
330
17891
100
AcDbEntity
  8
0
100
AcDbBlockBegin
  2
*D13
 70
     1
 10
0.0
 20
0.0
 30
0.0
  3
*D13
  1

  0
LINE
  5
1805D
330
17891
100
AcDbEntity
  8
SUNPOU
 62
     1
100
AcDbLine
 10
-1610.593751777614
 20
2242.709019567408
 30
0.0
 11
-1610.593751777614
 21
2198.249019567408
 31
0.0
  0
LINE
  5
1805E
330
17891
100
AcDbEntity
  8
SUNPOU
 62
     1
100
AcDbLine
 10
-1760.093751777614
 20
2218.249019567408
 30
0.0
 11
-1760.093751777614
 21
2198.249019567408
 31
0.0
  0
LINE
  5
1805F
330
17891
100
AcDbEntity
  8
SUNPOU
 62
     1
100
AcDbLine
 10
-1613.593751777615
 20
2198.749019567408
 30
0.0
 11
-1757.093751777614
 21
2198.749019567408
 31
0.0
  0
SOLID
  5
18060
330
17891
100
AcDbEntity
  8
SUNPOU
 62
     1
100
AcDbTrace
 10
-1613.593751777615
 20
2199.249019567408
 30
0.0
 11
-1613.593751777615
 21
2198.249019567408
 31
0.0
 12
-1610.593751777614
 22
2198.749019567408
 32
0.0
 13
-1610.593751777614
 23
2198.749019567408
 33
0.0
  0
SOLID
  5
18061
330
17891
100
AcDbEntity
  8
SUNPOU
 62
     1
100
AcDbTrace
 10
-1757.093751777614
 20
2199.249019567408
 30
0.0
 11
-1757.093751777614
 21
2198.249019567408
 31
0.0
 12
-1760.093751777614
 22
2198.749019567408
 32
0.0
 13
-1760.093751777614
 23
2198.749019567408
 33
0.0
  0
MTEXT
  5
18062
330
17891
100
AcDbEntity
  8
SUNPOU
 62
     1
100
AcDbMText
 10
-1685.343751777614
 20
2201.499019567408
 30
0.0
 40
3.5
 41
0.0
 71
     5
 72
     1
  1
\A1;(149.5)
1001
ACAD
1000
MTEXTBEGIN
1070
    73
1070
     1
1070
    44
1040
1.0
1070
    74
1070
     0
1000
MTEXTEND
  0
POINT
  5
18063
330
17891
100
AcDbEntity
  8
DEFPOINTS
 62
     0
100
AcDbPoint
 10
-1610.593751777614
 20
2243.209019567408
 30
0.0
  0
POINT
  5
18064
330
17891
100
AcDbEntity
  8
DEFPOINTS
 62
     0
100
AcDbPoint
 10
-1760.093751777614
 20
2218.749019567408
 30
0.0
  0
POINT
  5
18065
330
17891
100
AcDbEntity
  8
DEFPOINTS
 62
     0
100
AcDbPoint
 10
-1760.093751777614
 20
2198.749019567408
 30
0.0
  0
ENDBLK
  5
1789C
330
17891
100
AcDbEntity
  8
0
100
AcDbBlockEnd
  0
BLOCK
  5
178A7
330
1789D
100
AcDbEntity
  8
0
100
AcDbBlockBegin
  2
*D14
 70
     1
 10
0.0
 20
0.0
 30
0.0
  3
*D14
  1

  0
LINE
  5
180E7
330
1789D
100
AcDbEntity
  8
SUNPOU
 62
     1
100
AcDbLine
 10
-1756.593751777614
 20
2218.749019567408
 30
0.0
 11
-1576.603528874873
 21
2218.749019567408
 31
0.0
  0
LINE
  5
180E8
330
1789D
100
AcDbEntity
  8
SUNPOU
 62
     1
100
AcDbLine
 10
-1756.593751777614
 20
2388.749019567408
 30
0.0
 11
-1576.603528874873
 21
2388.749019567408
 31
0.0
  0
LINE
  5
180E9
330
1789D
100
AcDbEntity
  8
SUNPOU
 62
     1
100
AcDbLine
 10
-1577.103528874873
 20
2221.749019567408
 30
0.0
 11
-1577.103528874873
 21
2385.749019567408
 31
0.0
  0
SOLID
  5
180EA
330
1789D
100
AcDbEntity
  8
SUNPOU
 62
     1
100
AcDbTrace
 10
-1577.603528874873
 20
2221.749019567408
 30
0.0
 11
-1576.603528874873
 21
2221.749019567408
 31
0.0
 12
-1577.103528874873
 22
2218.749019567408
 32
0.0
 13
-1577.103528874873
 23
2218.749019567408
 33
0.0
  0
SOLID
  5
180EB
330
1789D
100
AcDbEntity
  8
SUNPOU
 62
     1
100
AcDbTrace
 10
-1577.603528874873
 20
2385.749019567408
 30
0.0
 11
-1576.603528874873
 21
2385.749019567408
 31
0.0
 12
-1577.103528874873
 22
2388.749019567408
 32
0.0
 13
-1577.103528874873
 23
2388.749019567408
 33
0.0
  0
MTEXT
  5
180EC
330
1789D
100
AcDbEntity
  8
SUNPOU
 62
     1
100
AcDbMText
 10
-1579.853528874873
 20
2303.749019567408
 30
0.0
 40
3.5
 41
0.0
 71
     5
 72
     1
  1
\A1;170
 11
0.0000000000000001
 21
1.0
 31
0.0
1001
ACAD
1000
MTEXTBEGIN
1070
    73
1070
     1
1070
    44
1040
1.0
1070
    74
1070
     0
1000
MTEXTEND
  0
POINT
  5
180ED
330
1789D
100
AcDbEntity
  8
DEFPOINTS
 62
     0
100
AcDbPoint
 10
-1757.093751777614
 20
2218.749019567408
 30
0.0
  0
POINT
  5
180EE
330
1789D
100
AcDbEntity
  8
DEFPOINTS
 62
     0
100
AcDbPoint
 10
-1757.093751777614
 20
2388.749019567408
 30
0.0
  0
POINT
  5
180EF
330
1789D
100
AcDbEntity
  8
DEFPOINTS
 62
     0
100
AcDbPoint
 10
-1577.103528874873
 20
2388.749019567408
 30
0.0
  0
ENDBLK
  5
178A8
330
1789D
100
AcDbEntity
  8
0
100
AcDbBlockEnd
  0
BLOCK
  5
178B3
330
178A9
100
AcDbEntity
  8
0
100
AcDbBlockBegin
  2
*D15
 70
     1
 10
0.0
 20
0.0
 30
0.0
  3
*D15
  1

  0
LINE
  5
180BD
330
178A9
100
AcDbEntity
  8
SUNPOU
 62
     1
100
AcDbLine
 10
-1624.593751777614
 20
2232.749019567408
 30
0.0
 11
-1592.189750063251
 21
2232.749019567408
 31
0.0
  0
LINE
  5
180BE
330
178A9
100
AcDbEntity
  8
SUNPOU
 62
     1
100
AcDbLine
 10
-1624.593751777614
 20
2374.749019567408
 30
0.0
 11
-1592.189750063251
 21
2374.749019567408
 31
0.0
  0
LINE
  5
180BF
330
178A9
100
AcDbEntity
  8
SUNPOU
 62
     1
100
AcDbLine
 10
-1592.689750063251
 20
2235.749019567408
 30
0.0
 11
-1592.689750063251
 21
2371.749019567408
 31
0.0
  0
SOLID
  5
180C0
330
178A9
100
AcDbEntity
  8
SUNPOU
 62
     1
100
AcDbTrace
 10
-1593.189750063251
 20
2235.749019567408
 30
0.0
 11
-1592.189750063251
 21
2235.749019567408
 31
0.0
 12
-1592.689750063251
 22
2232.749019567408
 32
0.0
 13
-1592.689750063251
 23
2232.749019567408
 33
0.0
  0
SOLID
  5
180C1
330
178A9
100
AcDbEntity
  8
SUNPOU
 62
     1
100
AcDbTrace
 10
-1593.189750063251
 20
2371.749019567408
 30
0.0
 11
-1592.189750063251
 21
2371.749019567408
 31
0.0
 12
-1592.689750063251
 22
2374.749019567408
 32
0.0
 13
-1592.689750063251
 23
2374.749019567408
 33
0.0
  0
MTEXT
  5
180C2
330
178A9
100
AcDbEntity
  8
SUNPOU
 62
     1
100
AcDbMText
 10
-1595.439750063251
 20
2303.749019567408
 30
0.0
 40
3.5
 41
0.0
 71
     5
 72
     1
  1
\A1;142
 11
0.0000000000000001
 21
1.0
 31
0.0
1001
ACAD
1000
MTEXTBEGIN
1070
    73
1070
     1
1070
    44
1040
1.0
1070
    74
1070
     0
1000
MTEXTEND
  0
POINT
  5
180C3
330
178A9
100
AcDbEntity
  8
DEFPOINTS
 62
     0
100
AcDbPoint
 10
-1625.093751777614
 20
2232.749019567408
 30
0.0
  0
POINT
  5
180C4
330
178A9
100
AcDbEntity
  8
DEFPOINTS
 62
     0
100
AcDbPoint
 10
-1625.093751777614
 20
2374.749019567408
 30
0.0
  0
POINT
  5
180C5
330
178A9
100
AcDbEntity
  8
DEFPOINTS
 62
     0
100
AcDbPoint
 10
-1592.689750063251
 20
2374.749019567408
 30
0.0
  0
ENDBLK
  5
178B4
330
178A9
100
AcDbEntity
  8
0
100
AcDbBlockEnd
  0
BLOCK
  5
178BF
330
178B5
100
AcDbEntity
  8
0
100
AcDbBlockBegin
  2
*D16
 70
     1
 10
0.0
 20
0.0
 30
0.0
  3
*D16
  1

  0
LINE
  5
1812E
330
178B5
100
AcDbEntity
  8
SUNPOU
 62
     1
100
AcDbLine
 10
-1756.593751777614
 20
2218.749019567408
 30
0.0
 11
-1592.189750063251
 21
2218.749019567408
 31
0.0
  0
LINE
  5
1812F
330
178B5
100
AcDbEntity
  8
SUNPOU
 62
     1
100
AcDbLine
 10
-1624.593751777614
 20
2232.749019567408
 30
0.0
 11
-1592.189750063251
 21
2232.749019567408
 31
0.0
  0
LINE
  5
18130
330
178B5
100
AcDbEntity
  8
SUNPOU
 62
     1
100
AcDbLine
 10
-1592.689750063251
 20
2221.749019567408
 30
0.0
 11
-1592.689750063251
 21
2229.749019567408
 31
0.0
  0
SOLID
  5
18131
330
178B5
100
AcDbEntity
  8
SUNPOU
 62
     1
100
AcDbTrace
 10
-1593.189750063251
 20
2221.749019567408
 30
0.0
 11
-1592.189750063251
 21
2221.749019567408
 31
0.0
 12
-1592.689750063251
 22
2218.749019567408
 32
0.0
 13
-1592.689750063251
 23
2218.749019567408
 33
0.0
  0
SOLID
  5
18132
330
178B5
100
AcDbEntity
  8
SUNPOU
 62
     1
100
AcDbTrace
 10
-1593.189750063251
 20
2229.749019567408
 30
0.0
 11
-1592.189750063251
 21
2229.749019567408
 31
0.0
 12
-1592.689750063251
 22
2232.749019567408
 32
0.0
 13
-1592.689750063251
 23
2232.749019567408
 33
0.0
  0
MTEXT
  5
18133
330
178B5
100
AcDbEntity
  8
SUNPOU
 62
     1
100
AcDbMText
 10
-1595.439750063251
 20
2225.749019567408
 30
0.0
 40
3.5
 41
0.0
 71
     5
 72
     1
  1
\A1;14
 11
0.0000000000000001
 21
1.0
 31
0.0
1001
ACAD
1000
MTEXTBEGIN
1070
    73
1070
     1
1070
    44
1040
1.0
1070
    74
1070
     0
1000
MTEXTEND
  0
POINT
  5
18134
330
178B5
100
AcDbEntity
  8
DEFPOINTS
 62
     0
100
AcDbPoint
 10
-1757.093751777614
 20
2218.749019567408
 30
0.0
  0
POINT
  5
18135
330
178B5
100
AcDbEntity
  8
DEFPOINTS
 62
     0
100
AcDbPoint
 10
-1625.093751777614
 20
2232.749019567408
 30
0.0
  0
POINT
  5
18136
330
178B5
100
AcDbEntity
  8
DEFPOINTS
 62
     0
100
AcDbPoint
 10
-1592.689750063251
 20
2232.749019567408
 30
0.0
  0
ENDBLK
  5
178C0
330
178B5
100
AcDbEntity
  8
0
100
AcDbBlockEnd
  0
BLOCK
  5
178CB
330
178C1
100
AcDbEntity
  8
0
100
AcDbBlockBegin
  2
*D17
 70
     1
 10
0.0
 20
0.0
 30
0.0
  3
*D17
  1

  0
LINE
  5
18125
330
178C1
100
AcDbEntity
  8
SUNPOU
 62
     1
100
AcDbLine
 10
-1756.593751777614
 20
2388.749019567408
 30
0.0
 11
-1592.189750063251
 21
2388.749019567408
 31
0.0
  0
LINE
  5
18126
330
178C1
100
AcDbEntity
  8
SUNPOU
 62
     1
100
AcDbLine
 10
-1624.593751777614
 20
2374.749019567408
 30
0.0
 11
-1592.189750063251
 21
2374.749019567408
 31
0.0
  0
LINE
  5
18127
330
178C1
100
AcDbEntity
  8
SUNPOU
 62
     1
100
AcDbLine
 10
-1592.689750063251
 20
2385.749019567408
 30
0.0
 11
-1592.689750063251
 21
2377.749019567408
 31
0.0
  0
SOLID
  5
18128
330
178C1
100
AcDbEntity
  8
SUNPOU
 62
     1
100
AcDbTrace
 10
-1593.189750063251
 20
2385.749019567408
 30
0.0
 11
-1592.189750063251
 21
2385.749019567408
 31
0.0
 12
-1592.689750063251
 22
2388.749019567408
 32
0.0
 13
-1592.689750063251
 23
2388.749019567408
 33
0.0
  0
SOLID
  5
18129
330
178C1
100
AcDbEntity
  8
SUNPOU
 62
     1
100
AcDbTrace
 10
-1593.189750063251
 20
2377.749019567408
 30
0.0
 11
-1592.189750063251
 21
2377.749019567408
 31
0.0
 12
-1592.689750063251
 22
2374.749019567408
 32
0.0
 13
-1592.689750063251
 23
2374.749019567408
 33
0.0
  0
MTEXT
  5
1812A
330
178C1
100
AcDbEntity
  8
SUNPOU
 62
     1
100
AcDbMText
 10
-1595.439750063251
 20
2381.749019567408
 30
0.0
 40
3.5
 41
0.0
 71
     5
 72
     1
  1
\A1;14
 11
0.0000000000000001
 21
1.0
 31
0.0
1001
ACAD
1000
MTEXTBEGIN
1070
    73
1070
     1
1070
    44
1040
1.0
1070
    74
1070
     0
1000
MTEXTEND
  0
POINT
  5
1812B
330
178C1
100
AcDbEntity
  8
DEFPOINTS
 62
     0
100
AcDbPoint
 10
-1757.093751777614
 20
2388.749019567408
 30
0.0
  0
POINT
  5
1812C
330
178C1
100
AcDbEntity
  8
DEFPOINTS
 62
     0
100
AcDbPoint
 10
-1625.093751777614
 20
2374.749019567408
 30
0.0
  0
POINT
  5
1812D
330
178C1
100
AcDbEntity
  8
DEFPOINTS
 62
     0
100
AcDbPoint
 10
-1592.689750063251
 20
2374.749019567408
 30
0.0
  0
ENDBLK
  5
178CC
330
178C1
100
AcDbEntity
  8
0
100
AcDbBlockEnd
  0
BLOCK
  5
178D7
330
178CD
100
AcDbEntity
  8
0
100
AcDbBlockBegin
  2
*D18
 70
     1
 10
0.0
 20
0.0
 30
0.0
  3
*D18
  1

  0
LINE
  5
18176
330
178CD
100
AcDbEntity
  8
SUNPOU
 62
     1
100
AcDbLine
 10
-1727.505155422436
 20
2439.671122630905
 30
0.0
 11
-1598.505155422436
 21
2439.671122630905
 31
0.0
  0
LINE
  5
18177
330
178CD
100
AcDbEntity
  8
SUNPOU
 62
     1
100
AcDbLine
 10
-1622.005155422436
 20
2498.671122630905
 30
0.0
 11
-1598.505155422436
 21
2498.671122630905
 31
0.0
  0
LINE
  5
18178
330
178CD
100
AcDbEntity
  8
SUNPOU
 62
     1
100
AcDbLine
 10
-1599.005155422435
 20
2442.671122630905
 30
0.0
 11
-1599.005155422435
 21
2495.671122630905
 31
0.0
  0
SOLID
  5
18179
330
178CD
100
AcDbEntity
  8
SUNPOU
 62
     1
100
AcDbTrace
 10
-1599.505155422436
 20
2442.671122630905
 30
0.0
 11
-1598.505155422436
 21
2442.671122630905
 31
0.0
 12
-1599.005155422435
 22
2439.671122630905
 32
0.0
 13
-1599.005155422435
 23
2439.671122630905
 33
0.0
  0
SOLID
  5
1817A
330
178CD
100
AcDbEntity
  8
SUNPOU
 62
     1
100
AcDbTrace
 10
-1599.505155422436
 20
2495.671122630905
 30
0.0
 11
-1598.505155422436
 21
2495.671122630905
 31
0.0
 12
-1599.005155422435
 22
2498.671122630905
 32
0.0
 13
-1599.005155422435
 23
2498.671122630905
 33
0.0
  0
MTEXT
  5
1817B
330
178CD
100
AcDbEntity
  8
SUNPOU
 62
     1
100
AcDbMText
 10
-1601.755155422436
 20
2469.171122630904
 30
0.0
 40
3.5
 41
0.0
 71
     5
 72
     1
  1
\A1;(59)
 11
0.0000000000000001
 21
1.0
 31
0.0
1001
ACAD
1000
MTEXTBEGIN
1070
    73
1070
     1
1070
    44
1040
1.0
1070
    74
1070
     0
1000
MTEXTEND
  0
POINT
  5
1817C
330
178CD
100
AcDbEntity
  8
DEFPOINTS
 62
     0
100
AcDbPoint
 10
-1728.005155422436
 20
2439.671122630905
 30
0.0
  0
POINT
  5
1817D
330
178CD
100
AcDbEntity
  8
DEFPOINTS
 62
     0
100
AcDbPoint
 10
-1622.505155422436
 20
2498.671122630905
 30
0.0
  0
POINT
  5
1817E
330
178CD
100
AcDbEntity
  8
DEFPOINTS
 62
     0
100
AcDbPoint
 10
-1599.005155422435
 20
2498.671122630905
 30
0.0
  0
ENDBLK
  5
178D8
330
178CD
100
AcDbEntity
  8
0
100
AcDbBlockEnd
  0
BLOCK
  5
178E3
330
178D9
100
AcDbEntity
  8
0
100
AcDbBlockBegin
  2
*D19
 70
     1
 10
0.0
 20
0.0
 30
0.0
  3
*D19
  1

  0
LINE
  5
18010
330
178D9
100
AcDbEntity
  8
SUNPOU
 62
     1
100
AcDbLine
 10
-1525.62561178144
 20
2387.749019567411
 30
0.0
 11
-1525.62561178144
 21
2419.249019567411
 31
0.0
  0
LINE
  5
18011
330
178D9
100
AcDbEntity
  8
SUNPOU
 62
     1
100
AcDbLine
 10
-1505.625611781439
 20
2387.749019567411
 30
0.0
 11
-1505.625611781439
 21
2419.249019567411
 31
0.0
  0
LINE
  5
18012
330
178D9
100
AcDbEntity
  8
SUNPOU
 62
     1
100
AcDbLine
 10
-1522.62561178144
 20
2418.749019567412
 30
0.0
 11
-1508.62561178144
 21
2418.749019567412
 31
0.0
  0
SOLID
  5
18013
330
178D9
100
AcDbEntity
  8
SUNPOU
 62
     1
100
AcDbTrace
 10
-1522.62561178144
 20
2419.249019567411
 30
0.0
 11
-1522.62561178144
 21
2418.249019567412
 31
0.0
 12
-1525.62561178144
 22
2418.749019567412
 32
0.0
 13
-1525.62561178144
 23
2418.749019567412
 33
0.0
  0
SOLID
  5
18014
330
178D9
100
AcDbEntity
  8
SUNPOU
 62
     1
100
AcDbTrace
 10
-1508.62561178144
 20
2419.249019567411
 30
0.0
 11
-1508.62561178144
 21
2418.249019567412
 31
0.0
 12
-1505.625611781439
 22
2418.749019567412
 32
0.0
 13
-1505.625611781439
 23
2418.749019567412
 33
0.0
  0
MTEXT
  5
18015
330
178D9
100
AcDbEntity
  8
SUNPOU
 62
     1
100
AcDbMText
 10
-1515.62561178144
 20
2421.499019567411
 30
0.0
 40
3.5
 41
0.0
 71
     5
 72
     1
  1
\A1;20
1001
ACAD
1000
MTEXTBEGIN
1070
    73
1070
     1
1070
    44
1040
1.0
1070
    74
1070
     0
1000
MTEXTEND
  0
POINT
  5
18016
330
178D9
100
AcDbEntity
  8
DEFPOINTS
 62
     0
100
AcDbPoint
 10
-1525.62561178144
 20
2387.249019567411
 30
0.0
  0
POINT
  5
18017
330
178D9
100
AcDbEntity
  8
DEFPOINTS
 62
     0
100
AcDbPoint
 10
-1505.625611781439
 20
2387.249019567411
 30
0.0
  0
POINT
  5
18018
330
178D9
100
AcDbEntity
  8
DEFPOINTS
 62
     0
100
AcDbPoint
 10
-1505.625611781439
 20
2418.749019567412
 30
0.0
  0
ENDBLK
  5
178E4
330
178D9
100
AcDbEntity
  8
0
100
AcDbBlockEnd
  0
BLOCK
  5
178EF
330
178E5
100
AcDbEntity
  8
0
100
AcDbBlockBegin
  2
*D20
 70
     1
 10
0.0
 20
0.0
 30
0.0
  3
*D20
  1

  0
LINE
  5
18007
330
178E5
100
AcDbEntity
  8
SUNPOU
 62
     1
100
AcDbLine
 10
-1525.62561178144
 20
2387.749019567411
 30
0.0
 11
-1525.62561178144
 21
2409.249019567411
 31
0.0
  0
LINE
  5
18008
330
178E5
100
AcDbEntity
  8
SUNPOU
 62
     1
100
AcDbLine
 10
-1509.62561178144
 20
2387.749019567411
 30
0.0
 11
-1509.62561178144
 21
2409.249019567411
 31
0.0
  0
LINE
  5
18009
330
178E5
100
AcDbEntity
  8
SUNPOU
 62
     1
100
AcDbLine
 10
-1522.62561178144
 20
2408.749019567411
 30
0.0
 11
-1512.62561178144
 21
2408.749019567411
 31
0.0
  0
SOLID
  5
1800A
330
178E5
100
AcDbEntity
  8
SUNPOU
 62
     1
100
AcDbTrace
 10
-1522.62561178144
 20
2409.249019567411
 30
0.0
 11
-1522.62561178144
 21
2408.249019567412
 31
0.0
 12
-1525.62561178144
 22
2408.749019567411
 32
0.0
 13
-1525.62561178144
 23
2408.749019567411
 33
0.0
  0
SOLID
  5
1800B
330
178E5
100
AcDbEntity
  8
SUNPOU
 62
     1
100
AcDbTrace
 10
-1512.62561178144
 20
2409.249019567411
 30
0.0
 11
-1512.62561178144
 21
2408.249019567412
 31
0.0
 12
-1509.62561178144
 22
2408.749019567411
 32
0.0
 13
-1509.62561178144
 23
2408.749019567411
 33
0.0
  0
MTEXT
  5
1800C
330
178E5
100
AcDbEntity
  8
SUNPOU
 62
     1
100
AcDbMText
 10
-1517.62561178144
 20
2411.499019567411
 30
0.0
 40
3.5
 41
0.0
 71
     5
 72
     1
  1
\A1;16
1001
ACAD
1000
MTEXTBEGIN
1070
    73
1070
     1
1070
    44
1040
1.0
1070
    74
1070
     0
1000
MTEXTEND
  0
POINT
  5
1800D
330
178E5
100
AcDbEntity
  8
DEFPOINTS
 62
     0
100
AcDbPoint
 10
-1525.62561178144
 20
2387.249019567411
 30
0.0
  0
POINT
  5
1800E
330
178E5
100
AcDbEntity
  8
DEFPOINTS
 62
     0
100
AcDbPoint
 10
-1509.62561178144
 20
2387.249019567411
 30
0.0
  0
POINT
  5
1800F
330
178E5
100
AcDbEntity
  8
DEFPOINTS
 62
     0
100
AcDbPoint
 10
-1509.62561178144
 20
2408.749019567411
 30
0.0
  0
ENDBLK
  5
178F0
330
178E5
100
AcDbEntity
  8
0
100
AcDbBlockEnd
  0
BLOCK
  5
17EEF
330
17EE3
100
AcDbEntity
  8
0
100
AcDbBlockBegin
  2
*D21
 70
     1
 10
0.0
 20
0.0
 30
0.0
  3
*D21
  1

  0
LINE
  5
180C6
330
17EE3
100
AcDbEntity
  8
SUNPOU
 62
     1
100
AcDbLine
 10
-1614.093751777614
 20
2263.369019567408
 30
0.0
 11
-1602.809257638445
 21
2263.369019567408
 31
0.0
  0
LINE
  5
180C7
330
17EE3
100
AcDbEntity
  8
SUNPOU
 62
     1
100
AcDbLine
 10
-1614.093751777614
 20
2255.749019567408
 30
0.0
 11
-1602.809257638445
 21
2255.749019567408
 31
0.0
  0
LINE
  5
180C8
330
17EE3
100
AcDbEntity
  8
SUNPOU
 62
     1
100
AcDbLine
 10
-1603.309257638445
 20
2266.369019567408
 30
0.0
 11
-1603.309257638445
 21
2269.369019567408
 31
0.0
  0
LINE
  5
180C9
330
17EE3
100
AcDbEntity
  8
SUNPOU
 62
     1
100
AcDbLine
 10
-1603.309257638445
 20
2252.749019567408
 30
0.0
 11
-1603.309257638445
 21
2237.249019567408
 31
0.0
  0
LINE
  5
180CA
330
17EE3
100
AcDbEntity
  8
SUNPOU
 62
     1
100
AcDbLine
 10
-1603.309257638445
 20
2263.369019567408
 30
0.0
 11
-1603.309257638445
 21
2255.749019567408
 31
0.0
  0
SOLID
  5
180CB
330
17EE3
100
AcDbEntity
  8
SUNPOU
 62
     1
100
AcDbTrace
 10
-1603.809257638445
 20
2266.369019567408
 30
0.0
 11
-1602.809257638445
 21
2266.369019567408
 31
0.0
 12
-1603.309257638445
 22
2263.369019567408
 32
0.0
 13
-1603.309257638445
 23
2263.369019567408
 33
0.0
  0
SOLID
  5
180CC
330
17EE3
100
AcDbEntity
  8
SUNPOU
 62
     1
100
AcDbTrace
 10
-1603.809257638445
 20
2252.749019567408
 30
0.0
 11
-1602.809257638445
 21
2252.749019567408
 31
0.0
 12
-1603.309257638445
 22
2255.749019567408
 32
0.0
 13
-1603.309257638445
 23
2255.749019567408
 33
0.0
  0
MTEXT
  5
180CD
330
17EE3
100
AcDbEntity
  8
SUNPOU
 62
     1
100
AcDbMText
 10
-1606.059257638445
 20
2243.499019567408
 30
0.0
 40
3.5
 41
0.0
 71
     5
 72
     1
  1
\A1;7.62
 11
0.0000000000000001
 21
1.0
 31
0.0
1001
ACAD
1000
MTEXTBEGIN
1070
    73
1070
     1
1070
    44
1040
1.0
1070
    74
1070
     0
1000
MTEXTEND
  0
POINT
  5
180CE
330
17EE3
100
AcDbEntity
  8
DEFPOINTS
 62
     0
100
AcDbPoint
 10
-1614.593751777615
 20
2263.369019567408
 30
0.0
  0
POINT
  5
180CF
330
17EE3
100
AcDbEntity
  8
DEFPOINTS
 62
     0
100
AcDbPoint
 10
-1614.593751777615
 20
2255.749019567408
 30
0.0
  0
POINT
  5
180D0
330
17EE3
100
AcDbEntity
  8
DEFPOINTS
 62
     0
100
AcDbPoint
 10
-1603.309257638445
 20
2255.749019567408
 30
0.0
  0
ENDBLK
  5
17EF0
330
17EE3
100
AcDbEntity
  8
0
100
AcDbBlockEnd
  0
ENDSEC
  0
SECTION
  2
ENTITIES
  0
MTEXT
  5
5084
330
1A
100
AcDbEntity
  8
0
100
AcDbMText
 10
1985.239088685435
 20
-948.5420423450428
 30
0.0
 40
8.0
 41
0.0
 71
     7
 72
     5
  1

1001
ACAD
1000
MTEXTBEGIN
1070
    73
1070
     1
1070
    44
1040
1.0
1070
    74
1070
     0
1000
MTEXTEND
  0
MTEXT
  5
5085
330
1A
100
AcDbEntity
  8
0
100
AcDbMText
 10
4270.596778580329
 20
22.24825240601649
 30
0.0
 40
8.0
 41
0.0
 71
     7
 72
     5
  1

1001
ACAD
1000
MTEXTBEGIN
1070
    73
1070
     1
1070
    44
1040
1.0
1070
    74
1070
     0
1000
MTEXTEND
  0
MTEXT
  5
5343
330
1A
100
AcDbEntity
  8
SUNPOU
100
AcDbMText
 10
6936.493799262471
 20
9534.359644781135
 30
0.0
 40
10.5
 41
0.0
 71
     1
 72
     5
  1

1001
ACAD
1000
MTEXTBEGIN
1070
    73
1070
     1
1070
    44
1040
1.0
1070
    74
1070
     0
1000
MTEXTEND
  0
MTEXT
  5
544F
330
1A
100
AcDbEntity
  8
0
100
AcDbMText
 10
16317.2832773148
 20
12833.35428897674
 30
0.0
 40
8.0
 41
0.0
 71
     7
 72
     5
  1

1001
ACAD
1000
MTEXTBEGIN
1070
    73
1070
     1
1070
    44
1040
1.0
1070
    74
1070
     0
1000
MTEXTEND
  0
MTEXT
  5
5450
330
1A
100
AcDbEntity
  8
0
100
AcDbMText
 10
18602.64096720969
 20
13804.1445837278
 30
0.0
 40
8.0
 41
0.0
 71
     7
 72
     5
  1

1001
ACAD
1000
MTEXTBEGIN
1070
    73
1070
     1
1070
    44
1040
1.0
1070
    74
1070
     0
1000
MTEXTEND
  0
MTEXT
  5
5451
330
1A
100
AcDbEntity
  8
SUNPOU
100
AcDbMText
 10
21268.53798789184
 20
23316.25597610292
 30
0.0
 40
10.5
 41
0.0
 71
     1
 72
     5
  1

1001
ACAD
1000
MTEXTBEGIN
1070
    73
1070
     1
1070
    44
1040
1.0
1070
    74
1070
     0
1000
MTEXTEND
  0
MTEXT
  5
5452
330
1A
100
AcDbEntity
  8
SUNPOU
100
AcDbMText
 10
13337.6147919559
 20
22369.46284218996
 30
0.0
 40
10.5
 41
0.0
 71
     7
 72
     5
  1

1001
ACAD
1000
MTEXTBEGIN
1070
    73
1070
     1
1070
    44
1040
1.0
1070
    74
1070
     0
1000
MTEXTEND
  0
MTEXT
  5
5453
330
1A
100
AcDbEntity
  8
SUNPOU
100
AcDbMText
 10
16286.59845646867
 20
27270.13891403281
 30
0.0
 40
10.5
 41
0.0
 71
     7
 72
     5
  1

1001
ACAD
1000
MTEXTBEGIN
1070
    73
1070
     1
1070
    44
1040
1.0
1070
    74
1070
     0
1000
MTEXTEND
  0
MTEXT
  5
5454
330
1A
100
AcDbEntity
  8
SUNPOU
100
AcDbMText
 10
20795.67658441924
 20
29706.43966165288
 30
0.0
 40
10.5
 41
0.0
 71
     7
 72
     5
  1

1001
ACAD
1000
MTEXTBEGIN
1070
    73
1070
     1
1070
    44
1040
1.0
1070
    74
1070
     0
1000
MTEXTEND
  0
MTEXT
  5
5455
330
1A
100
AcDbEntity
  8
0
100
AcDbMText
 10
16611.93789220314
 20
14707.52144344448
 30
0.0
 40
8.0
 41
0.0
 71
     7
 72
     5
  1

1001
ACAD
1000
MTEXTBEGIN
1070
    73
1070
     1
1070
    44
1040
1.0
1070
    74
1070
     0
1000
MTEXTEND
  0
MTEXT
  5
5456
330
1A
100
AcDbEntity
  8
0
100
AcDbMText
 10
18897.29558209804
 20
15678.31173819554
 30
0.0
 40
8.0
 41
0.0
 71
     7
 72
     5
  1

1001
ACAD
1000
MTEXTBEGIN
1070
    73
1070
     1
1070
    44
1040
1.0
1070
    74
1070
     0
1000
MTEXTEND
  0
MTEXT
  5
5457
330
1A
100
AcDbEntity
  8
SUNPOU
100
AcDbMText
 10
21563.19260278019
 20
25190.42313057066
 30
0.0
 40
10.5
 41
0.0
 71
     1
 72
     5
  1

1001
ACAD
1000
MTEXTBEGIN
1070
    73
1070
     1
1070
    44
1040
1.0
1070
    74
1070
     0
1000
MTEXTEND
  0
MTEXT
  5
5458
330
1A
100
AcDbEntity
  8
SUNPOU
100
AcDbMText
 10
13632.26940684426
 20
24243.6299966577
 30
0.0
 40
10.5
 41
0.0
 71
     7
 72
     5
  1

1001
ACAD
1000
MTEXTBEGIN
1070
    73
1070
     1
1070
    44
1040
1.0
1070
    74
1070
     0
1000
MTEXTEND
  0
MTEXT
  5
5459
330
1A
100
AcDbEntity
  8
SUNPOU
100
AcDbMText
 10
16581.25307135702
 20
29144.30606850055
 30
0.0
 40
10.5
 41
0.0
 71
     7
 72
     5
  1

1001
ACAD
1000
MTEXTBEGIN
1070
    73
1070
     1
1070
    44
1040
1.0
1070
    74
1070
     0
1000
MTEXTEND
  0
MTEXT
  5
545A
330
1A
100
AcDbEntity
  8
SUNPOU
100
AcDbMText
 10
21090.33119930759
 20
31580.60681612062
 30
0.0
 40
10.5
 41
0.0
 71
     7
 72
     5
  1

1001
ACAD
1000
MTEXTBEGIN
1070
    73
1070
     1
1070
    44
1040
1.0
1070
    74
1070
     0
1000
MTEXTEND
  0
MTEXT
  5
545B
330
1A
100
AcDbEntity
  8
0
100
AcDbMText
 10
22871.60517627167
 20
23974.88367124799
 30
0.0
 40
8.0
 41
0.0
 71
     7
 72
     5
  1

1001
ACAD
1000
MTEXTBEGIN
1070
    73
1070
     1
1070
    44
1040
1.0
1070
    74
1070
     0
1000
MTEXTEND
  0
MTEXT
  5
545C
330
1A
100
AcDbEntity
  8
0
100
AcDbMText
 10
25156.96286616657
 20
24945.67396599906
 30
0.0
 40
8.0
 41
0.0
 71
     7
 72
     5
  1

1001
ACAD
1000
MTEXTBEGIN
1070
    73
1070
     1
1070
    44
1040
1.0
1070
    74
1070
     0
1000
MTEXTEND
  0
MTEXT
  5
545D
330
1A
100
AcDbEntity
  8
SUNPOU
100
AcDbMText
 10
27822.85988684871
 20
34457.78535837418
 30
0.0
 40
10.5
 41
0.0
 71
     1
 72
     5
  1

1001
ACAD
1000
MTEXTBEGIN
1070
    73
1070
     1
1070
    44
1040
1.0
1070
    74
1070
     0
1000
MTEXTEND
  0
MTEXT
  5
545E
330
1A
100
AcDbEntity
  8
SUNPOU
100
AcDbMText
 10
19891.93669091278
 20
33510.99222446122
 30
0.0
 40
10.5
 41
0.0
 71
     7
 72
     5
  1

1001
ACAD
1000
MTEXTBEGIN
1070
    73
1070
     1
1070
    44
1040
1.0
1070
    74
1070
     0
1000
MTEXTEND
  0
MTEXT
  5
545F
330
1A
100
AcDbEntity
  8
SUNPOU
100
AcDbMText
 10
22840.92035542555
 20
38411.66829630407
 30
0.0
 40
10.5
 41
0.0
 71
     7
 72
     5
  1

1001
ACAD
1000
MTEXTBEGIN
1070
    73
1070
     1
1070
    44
1040
1.0
1070
    74
1070
     0
1000
MTEXTEND
  0
MTEXT
  5
5460
330
1A
100
AcDbEntity
  8
SUNPOU
100
AcDbMText
 10
27349.99848337611
 20
40847.96904392415
 30
0.0
 40
10.5
 41
0.0
 71
     7
 72
     5
  1

1001
ACAD
1000
MTEXTBEGIN
1070
    73
1070
     1
1070
    44
1040
1.0
1070
    74
1070
     0
1000
MTEXTEND
  0
MTEXT
  5
55B7
330
1A
100
AcDbEntity
  8
SUNPOU
100
AcDbMText
 10
67424.23923338197
 20
64463.86602884816
 30
0.0
 40
10.5
 41
0.0
 71
     9
 72
     5
  1

1001
ACAD
1000
MTEXTBEGIN
1070
    73
1070
     1
1070
    44
1040
1.0
1070
    74
1070
     0
1000
MTEXTEND
  0
MTEXT
  5
55B8
330
1A
100
AcDbEntity
  8
SUNPOU
100
AcDbMText
 10
76146.40679929998
 20
71879.70056038563
 30
0.0
 40
10.5
 41
0.0
 71
     9
 72
     5
  1

1001
ACAD
1000
MTEXTBEGIN
1070
    73
1070
     1
1070
    44
1040
1.0
1070
    74
1070
     0
1000
MTEXTEND
  0
MTEXT
  5
55B9
330
1A
100
AcDbEntity
  8
SUNPOU
100
AcDbMText
 10
95100.16551662994
 20
89346.27661287766
 30
0.0
 40
10.5
 41
0.0
 71
     9
 72
     5
  1

1001
ACAD
1000
MTEXTBEGIN
1070
    73
1070
     1
1070
    44
1040
1.0
1070
    74
1070
     0
1000
MTEXTEND
  0
MTEXT
  5
55BA
330
1A
100
AcDbEntity
  8
SUNPOU
100
AcDbMText
 10
97043.57276333936
 20
87545.22753299966
 30
0.0
 40
3.5
 41
0.0
 71
     9
 72
     5
  1

1001
ACAD
1000
MTEXTBEGIN
1070
    73
1070
     1
1070
    44
1040
1.0
1070
    74
1070
     0
1000
MTEXTEND
  0
MTEXT
  5
55BB
330
1A
100
AcDbEntity
  8
SUNPOU
100
AcDbMText
 10
128169.752595959
 20
130040.1732006569
 30
0.0
 40
10.5
 41
0.0
 71
     9
 72
     5
  1

1001
ACAD
1000
MTEXTBEGIN
1070
    73
1070
     1
1070
    44
1040
1.0
1070
    74
1070
     0
1000
MTEXTEND
  0
MTEXT
  5
55BC
330
1A
100
AcDbEntity
  8
SUNPOU
100
AcDbMText
 10
130113.1598426684
 20
128239.1241207789
 30
0.0
 40
3.5
 41
0.0
 71
     9
 72
     5
  1

1001
ACAD
1000
MTEXTBEGIN
1070
    73
1070
     1
1070
    44
1040
1.0
1070
    74
1070
     0
1000
MTEXTEND
  0
MTEXT
  5
55BD
330
1A
100
AcDbEntity
  8
SUNPOU
100
AcDbMText
 10
78610.02030175463
 20
75873.33835563206
 30
0.0
 40
10.5
 41
0.0
 71
     9
 72
     5
  1

1001
ACAD
1000
MTEXTBEGIN
1070
    73
1070
     1
1070
    44
1040
1.0
1070
    74
1070
     0
1000
MTEXTEND
  0
MTEXT
  5
55BE
330
1A
100
AcDbEntity
  8
SUNPOU
100
AcDbMText
 10
64662.02020137863
 20
56700.93921651987
 30
0.0
 40
3.5
 41
0.0
 71
     7
 72
     5
  1

1001
ACAD
1000
MTEXTBEGIN
1070
    73
1070
     1
1070
    44
1040
1.0
1070
    74
1070
     0
1000
MTEXTEND
  0
MTEXT
  5
55BF
330
1A
100
AcDbEntity
  8
SUNPOU
100
AcDbMText
 10
45647.18959837178
 20
44463.08794733807
 30
0.0
 40
10.5
 41
0.0
 71
     7
 72
     5
  1

1001
ACAD
1000
MTEXTBEGIN
1070
    73
1070
     1
1070
    44
1040
1.0
1070
    74
1070
     0
1000
MTEXTEND
  0
MTEXT
  5
55C0
330
1A
100
AcDbEntity
  8
SUNPOU
100
AcDbMText
 10
33189.96133342368
 20
28618.15636923965
 30
0.0
 40
35.0
 41
0.0
 71
     9
 72
     5
  1

1001
ACAD
1000
MTEXTBEGIN
1070
    73
1070
     1
1070
    44
1040
1.0
1070
    74
1070
     0
1000
MTEXTEND
  0
MTEXT
  5
55C1
330
1A
100
AcDbEntity
  8
SUNPOU
100
AcDbMText
 10
32098.44639099864
 20
29226.93177928835
 30
0.0
 40
350.0000004171781
 41
0.0
 71
     7
 72
     5
  1

1001
ACAD
1000
MTEXTBEGIN
1070
    73
1070
     1
1070
    44
1040
1.0
1070
    74
1070
     0
1000
MTEXTEND
  0
MTEXT
  5
55C2
330
1A
100
AcDbEntity
  8
0
100
AcDbMText
 10
38142.39714894154
 20
27206.85414142458
 30
0.0
 40
8.0
 41
0.0
 71
     7
 72
     5
  1

1001
ACAD
1000
MTEXTBEGIN
1070
    73
1070
     1
1070
    44
1040
1.0
1070
    74
1070
     0
1000
MTEXTEND
  0
MTEXT
  5
55C3
330
1A
100
AcDbEntity
  8
0
100
AcDbMText
 10
40427.75483883644
 20
28177.64443617564
 30
0.0
 40
8.0
 41
0.0
 71
     7
 72
     5
  1

1001
ACAD
1000
MTEXTBEGIN
1070
    73
1070
     1
1070
    44
1040
1.0
1070
    74
1070
     0
1000
MTEXTEND
  0
MTEXT
  5
55C4
330
1A
100
AcDbEntity
  8
SUNPOU
100
AcDbMText
 10
43093.65185951858
 20
37689.75582855077
 30
0.0
 40
10.5
 41
0.0
 71
     1
 72
     5
  1

1001
ACAD
1000
MTEXTBEGIN
1070
    73
1070
     1
1070
    44
1040
1.0
1070
    74
1070
     0
1000
MTEXTEND
  0
MTEXT
  5
55C5
330
1A
100
AcDbEntity
  8
SUNPOU
100
AcDbMText
 10
35162.72866358265
 20
36742.96269463781
 30
0.0
 40
10.5
 41
0.0
 71
     7
 72
     5
  1

1001
ACAD
1000
MTEXTBEGIN
1070
    73
1070
     1
1070
    44
1040
1.0
1070
    74
1070
     0
1000
MTEXTEND
  0
MTEXT
  5
55C6
330
1A
100
AcDbEntity
  8
SUNPOU
100
AcDbMText
 10
38111.71232809542
 20
41643.63876648066
 30
0.0
 40
10.5
 41
0.0
 71
     7
 72
     5
  1

1001
ACAD
1000
MTEXTBEGIN
1070
    73
1070
     1
1070
    44
1040
1.0
1070
    74
1070
     0
1000
MTEXTEND
  0
MTEXT
  5
55C7
330
1A
100
AcDbEntity
  8
SUNPOU
100
AcDbMText
 10
42620.79045604597
 20
44079.93951410074
 30
0.0
 40
10.5
 41
0.0
 71
     7
 72
     5
  1

1001
ACAD
1000
MTEXTBEGIN
1070
    73
1070
     1
1070
    44
1040
1.0
1070
    74
1070
     0
1000
MTEXTEND
  0
MTEXT
  5
55C8
330
1A
100
AcDbEntity
  8
SUNPOU
100
AcDbMText
 10
26221.62834281429
 20
23077.53566448964
 30
0.0
 40
10.5
 41
0.0
 71
     7
 72
     5
  1

1001
ACAD
1000
MTEXTBEGIN
1070
    73
1070
     1
1070
    44
1040
1.0
1070
    74
1070
     0
1000
MTEXTEND
  0
MTEXT
  5
55C9
330
1A
100
AcDbEntity
  8
SUNPOU
100
AcDbMText
 10
77413.14677671455
 20
68750.51622813789
 30
0.0
 40
10.5
 41
0.0
 71
     9
 72
     5
  1

1001
ACAD
1000
MTEXTBEGIN
1070
    73
1070
     1
1070
    44
1040
1.0
1070
    74
1070
     0
1000
MTEXTEND
  0
MTEXT
  5
55CA
330
1A
100
AcDbEntity
  8
SUNPOU
100
AcDbMText
 10
86135.31434263256
 20
76166.35075967536
 30
0.0
 40
10.5
 41
0.0
 71
     9
 72
     5
  1

1001
ACAD
1000
MTEXTBEGIN
1070
    73
1070
     1
1070
    44
1040
1.0
1070
    74
1070
     0
1000
MTEXTEND
  0
MTEXT
  5
55CB
330
1A
100
AcDbEntity
  8
SUNPOU
100
AcDbMText
 10
105089.0730599625
 20
93632.92681216739
 30
0.0
 40
10.5
 41
0.0
 71
     9
 72
     5
  1

1001
ACAD
1000
MTEXTBEGIN
1070
    73
1070
     1
1070
    44
1040
1.0
1070
    74
1070
     0
1000
MTEXTEND
  0
MTEXT
  5
55CC
330
1A
100
AcDbEntity
  8
SUNPOU
100
AcDbMText
 10
107032.4803066719
 20
91831.8777322894
 30
0.0
 40
3.5
 41
0.0
 71
     9
 72
     5
  1

1001
ACAD
1000
MTEXTBEGIN
1070
    73
1070
     1
1070
    44
1040
1.0
1070
    74
1070
     0
1000
MTEXTEND
  0
MTEXT
  5
55CD
330
1A
100
AcDbEntity
  8
SUNPOU
100
AcDbMText
 10
138158.6601392916
 20
134326.8233999467
 30
0.0
 40
10.5
 41
0.0
 71
     9
 72
     5
  1

1001
ACAD
1000
MTEXTBEGIN
1070
    73
1070
     1
1070
    44
1040
1.0
1070
    74
1070
     0
1000
MTEXTEND
  0
MTEXT
  5
55CE
330
1A
100
AcDbEntity
  8
SUNPOU
100
AcDbMText
 10
140102.067386001
 20
132525.7743200686
 30
0.0
 40
3.5
 41
0.0
 71
     9
 72
     5
  1

1001
ACAD
1000
MTEXTBEGIN
1070
    73
1070
     1
1070
    44
1040
1.0
1070
    74
1070
     0
1000
MTEXTEND
  0
MTEXT
  5
55CF
330
1A
100
AcDbEntity
  8
SUNPOU
100
AcDbMText
 10
88598.92784508721
 20
80159.98855492179
 30
0.0
 40
10.5
 41
0.0
 71
     9
 72
     5
  1

1001
ACAD
1000
MTEXTBEGIN
1070
    73
1070
     1
1070
    44
1040
1.0
1070
    74
1070
     0
1000
MTEXTEND
  0
MTEXT
  5
55D0
330
1A
100
AcDbEntity
  8
SUNPOU
100
AcDbMText
 10
74650.92774471121
 20
60987.5894158096
 30
0.0
 40
3.5
 41
0.0
 71
     7
 72
     5
  1

1001
ACAD
1000
MTEXTBEGIN
1070
    73
1070
     1
1070
    44
1040
1.0
1070
    74
1070
     0
1000
MTEXTEND
  0
MTEXT
  5
55D1
330
1A
100
AcDbEntity
  8
SUNPOU
100
AcDbMText
 10
55636.09714170436
 20
48749.73814662781
 30
0.0
 40
10.5
 41
0.0
 71
     7
 72
     5
  1

1001
ACAD
1000
MTEXTBEGIN
1070
    73
1070
     1
1070
    44
1040
1.0
1070
    74
1070
     0
1000
MTEXTEND
  0
MTEXT
  5
55D2
330
1A
100
AcDbEntity
  8
SUNPOU
100
AcDbMText
 10
43178.86887675626
 20
32904.80656852938
 30
0.0
 40
35.0
 41
0.0
 71
     9
 72
     5
  1

1001
ACAD
1000
MTEXTBEGIN
1070
    73
1070
     1
1070
    44
1040
1.0
1070
    74
1070
     0
1000
MTEXTEND
  0
MTEXT
  5
55D3
330
1A
100
AcDbEntity
  8
SUNPOU
100
AcDbMText
 10
42087.35393433121
 20
33513.58197857809
 30
0.0
 40
350.0000004171781
 41
0.0
 71
     7
 72
     5
  1

1001
ACAD
1000
MTEXTBEGIN
1070
    73
1070
     1
1070
    44
1040
1.0
1070
    74
1070
     0
1000
MTEXTEND
  0
MTEXT
  5
55D4
330
1A
100
AcDbEntity
  8
0
100
AcDbMText
 10
48131.30469227412
 20
31493.50434071431
 30
0.0
 40
8.0
 41
0.0
 71
     7
 72
     5
  1

1001
ACAD
1000
MTEXTBEGIN
1070
    73
1070
     1
1070
    44
1040
1.0
1070
    74
1070
     0
1000
MTEXTEND
  0
MTEXT
  5
55D5
330
1A
100
AcDbEntity
  8
0
100
AcDbMText
 10
50416.66238216901
 20
32464.29463546537
 30
0.0
 40
8.0
 41
0.0
 71
     7
 72
     5
  1

1001
ACAD
1000
MTEXTBEGIN
1070
    73
1070
     1
1070
    44
1040
1.0
1070
    74
1070
     0
1000
MTEXTEND
  0
MTEXT
  5
55D6
330
1A
100
AcDbEntity
  8
SUNPOU
100
AcDbMText
 10
53082.55940285115
 20
41976.4060278405
 30
0.0
 40
10.5
 41
0.0
 71
     1
 72
     5
  1

1001
ACAD
1000
MTEXTBEGIN
1070
    73
1070
     1
1070
    44
1040
1.0
1070
    74
1070
     0
1000
MTEXTEND
  0
MTEXT
  5
55D7
330
1A
100
AcDbEntity
  8
SUNPOU
100
AcDbMText
 10
45151.63620691522
 20
41029.61289392755
 30
0.0
 40
10.5
 41
0.0
 71
     7
 72
     5
  1

1001
ACAD
1000
MTEXTBEGIN
1070
    73
1070
     1
1070
    44
1040
1.0
1070
    74
1070
     0
1000
MTEXTEND
  0
MTEXT
  5
55D8
330
1A
100
AcDbEntity
  8
SUNPOU
100
AcDbMText
 10
48100.61987142798
 20
45930.28896577039
 30
0.0
 40
10.5
 41
0.0
 71
     7
 72
     5
  1

1001
ACAD
1000
MTEXTBEGIN
1070
    73
1070
     1
1070
    44
1040
1.0
1070
    74
1070
     0
1000
MTEXTEND
  0
MTEXT
  5
55D9
330
1A
100
AcDbEntity
  8
SUNPOU
100
AcDbMText
 10
52609.69799937854
 20
48366.58971339046
 30
0.0
 40
10.5
 41
0.0
 71
     7
 72
     5
  1

1001
ACAD
1000
MTEXTBEGIN
1070
    73
1070
     1
1070
    44
1040
1.0
1070
    74
1070
     0
1000
MTEXTEND
  0
MTEXT
  5
55DA
330
1A
100
AcDbEntity
  8
SUNPOU
100
AcDbMText
 10
36210.53588614687
 20
27364.18586377937
 30
0.0
 40
10.5
 41
0.0
 71
     7
 72
     5
  1

1001
ACAD
1000
MTEXTBEGIN
1070
    73
1070
     1
1070
    44
1040
1.0
1070
    74
1070
     0
1000
MTEXTEND
  0
MTEXT
  5
55DB
330
1A
100
AcDbEntity
  8
SUNPOU
100
AcDbMText
 10
38021.29879752181
 20
33691.59985125794
 30
0.0
 40
10.5
 41
0.0
 71
     9
 72
     5
  1

1001
ACAD
1000
MTEXTBEGIN
1070
    73
1070
     1
1070
    44
1040
1.0
1070
    74
1070
     0
1000
MTEXTEND
  0
MTEXT
  5
55DC
330
1A
100
AcDbEntity
  8
SUNPOU
100
AcDbMText
 10
46743.46636343979
 20
41107.43438279541
 30
0.0
 40
10.5
 41
0.0
 71
     9
 72
     5
  1

1001
ACAD
1000
MTEXTBEGIN
1070
    73
1070
     1
1070
    44
1040
1.0
1070
    74
1070
     0
1000
MTEXTEND
  0
MTEXT
  5
55DD
330
1A
100
AcDbEntity
  8
SUNPOU
100
AcDbMText
 10
65697.22508076975
 20
58574.01043528746
 30
0.0
 40
10.5
 41
0.0
 71
     9
 72
     5
  1

1001
ACAD
1000
MTEXTBEGIN
1070
    73
1070
     1
1070
    44
1040
1.0
1070
    74
1070
     0
1000
MTEXTEND
  0
MTEXT
  5
55DE
330
1A
100
AcDbEntity
  8
SUNPOU
100
AcDbMText
 10
67640.63232747917
 20
56772.96135540945
 30
0.0
 40
3.5
 41
0.0
 71
     9
 72
     5
  1

1001
ACAD
1000
MTEXTBEGIN
1070
    73
1070
     1
1070
    44
1040
1.0
1070
    74
1070
     0
1000
MTEXTEND
  0
MTEXT
  5
55DF
330
1A
100
AcDbEntity
  8
SUNPOU
100
AcDbMText
 10
98766.81216009888
 20
99267.9070230668
 30
0.0
 40
10.5
 41
0.0
 71
     9
 72
     5
  1

1001
ACAD
1000
MTEXTBEGIN
1070
    73
1070
     1
1070
    44
1040
1.0
1070
    74
1070
     0
1000
MTEXTEND
  0
MTEXT
  5
55E0
330
1A
100
AcDbEntity
  8
SUNPOU
100
AcDbMText
 10
100710.2194068083
 20
97466.85794318878
 30
0.0
 40
3.5
 41
0.0
 71
     9
 72
     5
  1

1001
ACAD
1000
MTEXTBEGIN
1070
    73
1070
     1
1070
    44
1040
1.0
1070
    74
1070
     0
1000
MTEXTEND
  0
MTEXT
  5
55E1
330
1A
100
AcDbEntity
  8
SUNPOU
100
AcDbMText
 10
49207.07986589444
 20
45101.07217804185
 30
0.0
 40
10.5
 41
0.0
 71
     9
 72
     5
  1

1001
ACAD
1000
MTEXTBEGIN
1070
    73
1070
     1
1070
    44
1040
1.0
1070
    74
1070
     0
1000
MTEXTEND
  0
MTEXT
  5
55E2
330
1A
100
AcDbEntity
  8
SUNPOU
100
AcDbMText
 10
35259.07976551845
 20
25928.67303892964
 30
0.0
 40
3.5
 41
0.0
 71
     7
 72
     5
  1

1001
ACAD
1000
MTEXTBEGIN
1070
    73
1070
     1
1070
    44
1040
1.0
1070
    74
1070
     0
1000
MTEXTEND
  0
MTEXT
  5
55E3
330
1A
100
AcDbEntity
  8
SUNPOU
100
AcDbMText
 10
48951.43044828905
 20
35287.73625995099
 30
0.0
 40
10.5
 41
0.0
 71
     9
 72
     5
  1

1001
ACAD
1000
MTEXTBEGIN
1070
    73
1070
     1
1070
    44
1040
1.0
1070
    74
1070
     0
1000
MTEXTEND
  0
MTEXT
  5
55E4
330
1A
100
AcDbEntity
  8
SUNPOU
100
AcDbMText
 10
57673.59801420702
 20
42703.57079148847
 30
0.0
 40
10.5
 41
0.0
 71
     9
 72
     5
  1

1001
ACAD
1000
MTEXTBEGIN
1070
    73
1070
     1
1070
    44
1040
1.0
1070
    74
1070
     0
1000
MTEXTEND
  0
MTEXT
  5
55E5
330
1A
100
AcDbEntity
  8
SUNPOU
100
AcDbMText
 10
76627.35673153699
 20
60170.14684398051
 30
0.0
 40
10.5
 41
0.0
 71
     9
 72
     5
  1

1001
ACAD
1000
MTEXTBEGIN
1070
    73
1070
     1
1070
    44
1040
1.0
1070
    74
1070
     0
1000
MTEXTEND
  0
MTEXT
  5
55E6
330
1A
100
AcDbEntity
  8
SUNPOU
100
AcDbMText
 10
78570.76397824641
 20
58369.09776410251
 30
0.0
 40
3.5
 41
0.0
 71
     9
 72
     5
  1

1001
ACAD
1000
MTEXTBEGIN
1070
    73
1070
     1
1070
    44
1040
1.0
1070
    74
1070
     0
1000
MTEXTEND
  0
MTEXT
  5
55E7
330
1A
100
AcDbEntity
  8
SUNPOU
100
AcDbMText
 10
109696.9438108661
 20
100864.0434317598
 30
0.0
 40
10.5
 41
0.0
 71
     9
 72
     5
  1

1001
ACAD
1000
MTEXTBEGIN
1070
    73
1070
     1
1070
    44
1040
1.0
1070
    74
1070
     0
1000
MTEXTEND
  0
MTEXT
  5
55E8
330
1A
100
AcDbEntity
  8
SUNPOU
100
AcDbMText
 10
111640.3510575755
 20
99062.99435188183
 30
0.0
 40
3.5
 41
0.0
 71
     9
 72
     5
  1

1001
ACAD
1000
MTEXTBEGIN
1070
    73
1070
     1
1070
    44
1040
1.0
1070
    74
1070
     0
1000
MTEXTEND
  0
MTEXT
  5
55E9
330
1A
100
AcDbEntity
  8
SUNPOU
100
AcDbMText
 10
60137.21151666167
 20
46697.20858673491
 30
0.0
 40
10.5
 41
0.0
 71
     9
 72
     5
  1

1001
ACAD
1000
MTEXTBEGIN
1070
    73
1070
     1
1070
    44
1040
1.0
1070
    74
1070
     0
1000
MTEXTEND
  0
MTEXT
  5
55EA
330
1A
100
AcDbEntity
  8
SUNPOU
100
AcDbMText
 10
46189.21141628568
 20
27524.80944762269
 30
0.0
 40
3.5
 41
0.0
 71
     7
 72
     5
  1

1001
ACAD
1000
MTEXTBEGIN
1070
    73
1070
     1
1070
    44
1040
1.0
1070
    74
1070
     0
1000
MTEXTEND
  0
MTEXT
  5
55EB
330
1A
100
AcDbEntity
  8
SUNPOU
100
AcDbMText
 10
45007.68847015541
 20
38269.57947701874
 30
0.0
 40
10.5
 41
0.0
 71
     9
 72
     5
  1

1001
ACAD
1000
MTEXTBEGIN
1070
    73
1070
     1
1070
    44
1040
1.0
1070
    74
1070
     0
1000
MTEXTEND
  0
MTEXT
  5
55EC
330
1A
100
AcDbEntity
  8
SUNPOU
100
AcDbMText
 10
63961.44718748539
 20
55736.15552951081
 30
0.0
 40
10.5
 41
0.0
 71
     9
 72
     5
  1

1001
ACAD
1000
MTEXTBEGIN
1070
    73
1070
     1
1070
    44
1040
1.0
1070
    74
1070
     0
1000
MTEXTEND
  0
MTEXT
  5
55ED
330
1A
100
AcDbEntity
  8
SUNPOU
100
AcDbMText
 10
65904.85443419479
 20
53935.10644963279
 30
0.0
 40
3.5
 41
0.0
 71
     9
 72
     5
  1

1001
ACAD
1000
MTEXTBEGIN
1070
    73
1070
     1
1070
    44
1040
1.0
1070
    74
1070
     0
1000
MTEXTEND
  0
MTEXT
  5
55EE
330
1A
100
AcDbEntity
  8
SUNPOU
100
AcDbMText
 10
97031.03426681451
 20
96430.05211729015
 30
0.0
 40
10.5
 41
0.0
 71
     9
 72
     5
  1

1001
ACAD
1000
MTEXTBEGIN
1070
    73
1070
     1
1070
    44
1040
1.0
1070
    74
1070
     0
1000
MTEXTEND
  0
MTEXT
  5
55EF
330
1A
100
AcDbEntity
  8
SUNPOU
100
AcDbMText
 10
98974.44151352393
 20
94629.00303741212
 30
0.0
 40
3.5
 41
0.0
 71
     9
 72
     5
  1

1001
ACAD
1000
MTEXTBEGIN
1070
    73
1070
     1
1070
    44
1040
1.0
1070
    74
1070
     0
1000
MTEXTEND
  0
MTEXT
  5
55F0
330
1A
100
AcDbEntity
  8
SUNPOU
100
AcDbMText
 10
47471.30197261006
 20
42263.21727226519
 30
0.0
 40
10.5
 41
0.0
 71
     9
 72
     5
  1

1001
ACAD
1000
MTEXTBEGIN
1070
    73
1070
     1
1070
    44
1040
1.0
1070
    74
1070
     0
1000
MTEXTEND
  0
MTEXT
  5
55F1
330
1A
100
AcDbEntity
  8
SUNPOU
100
AcDbMText
 10
33523.30187223408
 20
23090.81813315298
 30
0.0
 40
3.5
 41
0.0
 71
     7
 72
     5
  1

1001
ACAD
1000
MTEXTBEGIN
1070
    73
1070
     1
1070
    44
1040
1.0
1070
    74
1070
     0
1000
MTEXTEND
  0
MTEXT
  5
55F2
330
1A
100
AcDbEntity
  8
SUNPOU
100
AcDbMText
 10
57959.46254102503
 20
50038.08111611015
 30
0.0
 40
10.5
 41
0.0
 71
     9
 72
     5
  1

1001
ACAD
1000
MTEXTBEGIN
1070
    73
1070
     1
1070
    44
1040
1.0
1070
    74
1070
     0
1000
MTEXTEND
  0
MTEXT
  5
55F3
330
1A
100
AcDbEntity
  8
SUNPOU
100
AcDbMText
 10
76913.22125835503
 20
67504.65716860222
 30
0.0
 40
10.5
 41
0.0
 71
     9
 72
     5
  1

1001
ACAD
1000
MTEXTBEGIN
1070
    73
1070
     1
1070
    44
1040
1.0
1070
    74
1070
     0
1000
MTEXTEND
  0
MTEXT
  5
55F4
330
1A
100
AcDbEntity
  8
SUNPOU
100
AcDbMText
 10
78856.62850506443
 20
65703.6080887242
 30
0.0
 40
3.5
 41
0.0
 71
     9
 72
     5
  1

1001
ACAD
1000
MTEXTBEGIN
1070
    73
1070
     1
1070
    44
1040
1.0
1070
    74
1070
     0
1000
MTEXTEND
  0
MTEXT
  5
55F5
330
1A
100
AcDbEntity
  8
SUNPOU
100
AcDbMText
 10
109982.8083376841
 20
108198.5537563815
 30
0.0
 40
10.5
 41
0.0
 71
     9
 72
     5
  1

1001
ACAD
1000
MTEXTBEGIN
1070
    73
1070
     1
1070
    44
1040
1.0
1070
    74
1070
     0
1000
MTEXTEND
  0
MTEXT
  5
55F6
330
1A
100
AcDbEntity
  8
SUNPOU
100
AcDbMText
 10
111926.2155843935
 20
106397.5046765035
 30
0.0
 40
3.5
 41
0.0
 71
     9
 72
     5
  1

1001
ACAD
1000
MTEXTBEGIN
1070
    73
1070
     1
1070
    44
1040
1.0
1070
    74
1070
     0
1000
MTEXTEND
  0
MTEXT
  5
55F7
330
1A
100
AcDbEntity
  8
SUNPOU
100
AcDbMText
 10
60423.07604347968
 20
54031.71891135659
 30
0.0
 40
10.5
 41
0.0
 71
     9
 72
     5
  1

1001
ACAD
1000
MTEXTBEGIN
1070
    73
1070
     1
1070
    44
1040
1.0
1070
    74
1070
     0
1000
MTEXTEND
  0
MTEXT
  5
55F8
330
1A
100
AcDbEntity
  8
SUNPOU
100
AcDbMText
 10
46475.07594310369
 20
34859.3197722444
 30
0.0
 40
3.5
 41
0.0
 71
     7
 72
     5
  1

1001
ACAD
1000
MTEXTBEGIN
1070
    73
1070
     1
1070
    44
1040
1.0
1070
    74
1070
     0
1000
MTEXTEND
  0
MTEXT
  5
55F9
330
1A
100
AcDbEntity
  8
SUNPOU
100
AcDbMText
 10
74027.35402123588
 20
68370.58278833383
 30
0.0
 40
10.5
 41
0.0
 71
     9
 72
     5
  1

1001
ACAD
1000
MTEXTBEGIN
1070
    73
1070
     1
1070
    44
1040
1.0
1070
    74
1070
     0
1000
MTEXTEND
  0
MTEXT
  5
55FA
330
1A
100
AcDbEntity
  8
SUNPOU
100
AcDbMText
 10
75970.7612679453
 20
66569.53370845583
 30
0.0
 40
3.5
 41
0.0
 71
     9
 72
     5
  1

1001
ACAD
1000
MTEXTBEGIN
1070
    73
1070
     1
1070
    44
1040
1.0
1070
    74
1070
     0
1000
MTEXTEND
  0
MTEXT
  5
55FB
330
1A
100
AcDbEntity
  8
SUNPOU
100
AcDbMText
 10
107096.941100565
 20
109064.4793761132
 30
0.0
 40
10.5
 41
0.0
 71
     9
 72
     5
  1

1001
ACAD
1000
MTEXTBEGIN
1070
    73
1070
     1
1070
    44
1040
1.0
1070
    74
1070
     0
1000
MTEXTEND
  0
MTEXT
  5
55FC
330
1A
100
AcDbEntity
  8
SUNPOU
100
AcDbMText
 10
109040.3483472744
 20
107263.4302962351
 30
0.0
 40
3.5
 41
0.0
 71
     9
 72
     5
  1

1001
ACAD
1000
MTEXTBEGIN
1070
    73
1070
     1
1070
    44
1040
1.0
1070
    74
1070
     0
1000
MTEXTEND
  0
MTEXT
  5
55FD
330
1A
100
AcDbEntity
  8
SUNPOU
100
AcDbMText
 10
105709.1709283621
 20
108141.3777665285
 30
0.0
 40
10.5
 41
0.0
 71
     9
 72
     5
  1

1001
ACAD
1000
MTEXTBEGIN
1070
    73
1070
     1
1070
    44
1040
1.0
1070
    74
1070
     0
1000
MTEXTEND
  0
MTEXT
  5
55FE
330
1A
100
AcDbEntity
  8
SUNPOU
100
AcDbMText
 10
107652.5781750715
 20
106340.3286866505
 30
0.0
 40
3.5
 41
0.0
 71
     9
 72
     5
  1

1001
ACAD
1000
MTEXTBEGIN
1070
    73
1070
     1
1070
    44
1040
1.0
1070
    74
1070
     0
1000
MTEXTEND
  0
MTEXT
  5
55FF
330
1A
100
AcDbEntity
  8
SUNPOU
100
AcDbMText
 10
73193.09268743351
 20
66158.78082845056
 30
0.0
 40
10.5
 41
0.0
 71
     9
 72
     5
  1

1001
ACAD
1000
MTEXTBEGIN
1070
    73
1070
     1
1070
    44
1040
1.0
1070
    74
1070
     0
1000
MTEXTEND
  0
MTEXT
  5
5600
330
1A
100
AcDbEntity
  8
SUNPOU
100
AcDbMText
 10
75916.39889159806
 20
66563.46252003162
 30
0.0
 40
3.5
 41
0.0
 71
     9
 72
     5
  1

1001
ACAD
1000
MTEXTBEGIN
1070
    73
1070
     1
1070
    44
1040
1.0
1070
    74
1070
     0
1000
MTEXTEND
  0
MTEXT
  5
5601
330
1A
100
AcDbEntity
  8
SUNPOU
100
AcDbMText
 10
75124.04436649058
 20
63402.1566819768
 30
0.0
 40
10.5
 41
0.0
 71
     9
 72
     5
  1

1001
ACAD
1000
MTEXTBEGIN
1070
    73
1070
     1
1070
    44
1040
1.0
1070
    74
1070
     0
1000
MTEXTEND
  0
MTEXT
  5
5602
330
1A
100
AcDbEntity
  8
SUNPOU
100
AcDbMText
 10
77067.4516132
 20
61601.1076020988
 30
0.0
 40
3.5
 41
0.0
 71
     9
 72
     5
  1

1001
ACAD
1000
MTEXTBEGIN
1070
    73
1070
     1
1070
    44
1040
1.0
1070
    74
1070
     0
1000
MTEXTEND
  0
MTEXT
  5
5603
330
1A
100
AcDbEntity
  8
SUNPOU
100
AcDbMText
 10
77012.54710378659
 20
61488.33571981449
 30
0.0
 40
3.5
 41
0.0
 71
     9
 72
     5
  1

1001
ACAD
1000
MTEXTBEGIN
1070
    73
1070
     1
1070
    44
1040
1.0
1070
    74
1070
     0
1000
MTEXTEND
  0
MTEXT
  5
5604
330
1A
100
AcDbEntity
  8
SUNPOU
100
AcDbMText
 10
76376.61896736668
 20
60677.01447874797
 30
0.0
 40
3.5
 41
0.0
 71
     9
 72
     5
  1

1001
ACAD
1000
MTEXTBEGIN
1070
    73
1070
     1
1070
    44
1040
1.0
1070
    74
1070
     0
1000
MTEXTEND
  0
MTEXT
  5
5605
330
1A
100
AcDbEntity
  8
SUNPOU
100
AcDbMText
 10
76375.37854794595
 20
60676.76650181047
 30
0.0
 40
10.5
 41
0.0
 71
     9
 72
     5
  1

1001
ACAD
1000
MTEXTBEGIN
1070
    73
1070
     1
1070
    44
1040
1.0
1070
    74
1070
     0
1000
MTEXTEND
  0
MTEXT
  5
5606
330
1A
100
AcDbEntity
  8
SUNPOU
100
AcDbMText
 10
84709.93991079748
 20
78034.0328293557
 30
0.0
 40
10.5
 41
0.0
 71
     9
 72
     5
  1

1001
ACAD
1000
MTEXTBEGIN
1070
    73
1070
     1
1070
    44
1040
1.0
1070
    74
1070
     0
1000
MTEXTEND
  0
MTEXT
  5
5607
330
1A
100
AcDbEntity
  8
SUNPOU
100
AcDbMText
 10
93432.10747671548
 20
85449.86736089315
 30
0.0
 40
10.5
 41
0.0
 71
     9
 72
     5
  1

1001
ACAD
1000
MTEXTBEGIN
1070
    73
1070
     1
1070
    44
1040
1.0
1070
    74
1070
     0
1000
MTEXTEND
  0
MTEXT
  5
5608
330
1A
100
AcDbEntity
  8
SUNPOU
100
AcDbMText
 10
112385.8661940454
 20
102916.4434133851
 30
0.0
 40
10.5
 41
0.0
 71
     9
 72
     5
  1

1001
ACAD
1000
MTEXTBEGIN
1070
    73
1070
     1
1070
    44
1040
1.0
1070
    74
1070
     0
1000
MTEXTEND
  0
MTEXT
  5
5609
330
1A
100
AcDbEntity
  8
SUNPOU
100
AcDbMText
 10
114329.2734407548
 20
101115.3943335072
 30
0.0
 40
3.5
 41
0.0
 71
     9
 72
     5
  1

1001
ACAD
1000
MTEXTBEGIN
1070
    73
1070
     1
1070
    44
1040
1.0
1070
    74
1070
     0
1000
MTEXTEND
  0
MTEXT
  5
560A
330
1A
100
AcDbEntity
  8
SUNPOU
100
AcDbMText
 10
145455.4532733745
 20
143610.3400011645
 30
0.0
 40
10.5
 41
0.0
 71
     9
 72
     5
  1

1001
ACAD
1000
MTEXTBEGIN
1070
    73
1070
     1
1070
    44
1040
1.0
1070
    74
1070
     0
1000
MTEXTEND
  0
MTEXT
  5
560B
330
1A
100
AcDbEntity
  8
SUNPOU
100
AcDbMText
 10
147398.8605200839
 20
141809.2909212864
 30
0.0
 40
3.5
 41
0.0
 71
     9
 72
     5
  1

1001
ACAD
1000
MTEXTBEGIN
1070
    73
1070
     1
1070
    44
1040
1.0
1070
    74
1070
     0
1000
MTEXTEND
  0
MTEXT
  5
560C
330
1A
100
AcDbEntity
  8
SUNPOU
100
AcDbMText
 10
95895.72097917013
 20
89443.5051561396
 30
0.0
 40
10.5
 41
0.0
 71
     9
 72
     5
  1

1001
ACAD
1000
MTEXTBEGIN
1070
    73
1070
     1
1070
    44
1040
1.0
1070
    74
1070
     0
1000
MTEXTEND
  0
MTEXT
  5
560D
330
1A
100
AcDbEntity
  8
SUNPOU
100
AcDbMText
 10
81947.72087879414
 20
70271.1060170274
 30
0.0
 40
3.5
 41
0.0
 71
     7
 72
     5
  1

1001
ACAD
1000
MTEXTBEGIN
1070
    73
1070
     1
1070
    44
1040
1.0
1070
    74
1070
     0
1000
MTEXTEND
  0
MTEXT
  5
560E
330
1A
100
AcDbEntity
  8
SUNPOU
100
AcDbMText
 10
62932.89027578729
 20
58033.25474784561
 30
0.0
 40
10.5
 41
0.0
 71
     7
 72
     5
  1

1001
ACAD
1000
MTEXTBEGIN
1070
    73
1070
     1
1070
    44
1040
1.0
1070
    74
1070
     0
1000
MTEXTEND
  0
MTEXT
  5
560F
330
1A
100
AcDbEntity
  8
SUNPOU
100
AcDbMText
 10
50475.66201083918
 20
42188.32316974719
 30
0.0
 40
35.0
 41
0.0
 71
     9
 72
     5
  1

1001
ACAD
1000
MTEXTBEGIN
1070
    73
1070
     1
1070
    44
1040
1.0
1070
    74
1070
     0
1000
MTEXTEND
  0
MTEXT
  5
5610
330
1A
100
AcDbEntity
  8
SUNPOU
100
AcDbMText
 10
49384.14706841413
 20
42797.0985797959
 30
0.0
 40
350.0000004171781
 41
0.0
 71
     7
 72
     5
  1

1001
ACAD
1000
MTEXTBEGIN
1070
    73
1070
     1
1070
    44
1040
1.0
1070
    74
1070
     0
1000
MTEXTEND
  0
MTEXT
  5
5611
330
1A
100
AcDbEntity
  8
0
100
AcDbMText
 10
55428.09782635704
 20
40777.02094193211
 30
0.0
 40
8.0
 41
0.0
 71
     7
 72
     5
  1

1001
ACAD
1000
MTEXTBEGIN
1070
    73
1070
     1
1070
    44
1040
1.0
1070
    74
1070
     0
1000
MTEXTEND
  0
MTEXT
  5
5612
330
1A
100
AcDbEntity
  8
0
100
AcDbMText
 10
57713.45551625194
 20
41747.81123668317
 30
0.0
 40
8.0
 41
0.0
 71
     7
 72
     5
  1

1001
ACAD
1000
MTEXTBEGIN
1070
    73
1070
     1
1070
    44
1040
1.0
1070
    74
1070
     0
1000
MTEXTEND
  0
MTEXT
  5
5613
330
1A
100
AcDbEntity
  8
SUNPOU
100
AcDbMText
 10
60379.35253693408
 20
51259.9226290583
 30
0.0
 40
10.5
 41
0.0
 71
     1
 72
     5
  1

1001
ACAD
1000
MTEXTBEGIN
1070
    73
1070
     1
1070
    44
1040
1.0
1070
    74
1070
     0
1000
MTEXTEND
  0
MTEXT
  5
5614
330
1A
100
AcDbEntity
  8
SUNPOU
100
AcDbMText
 10
52448.42934099814
 20
50313.12949514535
 30
0.0
 40
10.5
 41
0.0
 71
     7
 72
     5
  1

1001
ACAD
1000
MTEXTBEGIN
1070
    73
1070
     1
1070
    44
1040
1.0
1070
    74
1070
     0
1000
MTEXTEND
  0
MTEXT
  5
5615
330
1A
100
AcDbEntity
  8
SUNPOU
100
AcDbMText
 10
55397.41300551091
 20
55213.80556698819
 30
0.0
 40
10.5
 41
0.0
 71
     7
 72
     5
  1

1001
ACAD
1000
MTEXTBEGIN
1070
    73
1070
     1
1070
    44
1040
1.0
1070
    74
1070
     0
1000
MTEXTEND
  0
MTEXT
  5
5616
330
1A
100
AcDbEntity
  8
SUNPOU
100
AcDbMText
 10
59906.49113346147
 20
57650.10631460826
 30
0.0
 40
10.5
 41
0.0
 71
     7
 72
     5
  1

1001
ACAD
1000
MTEXTBEGIN
1070
    73
1070
     1
1070
    44
1040
1.0
1070
    74
1070
     0
1000
MTEXTEND
  0
MTEXT
  5
5617
330
1A
100
AcDbEntity
  8
SUNPOU
100
AcDbMText
 10
43507.32902022979
 20
36647.70246499718
 30
0.0
 40
10.5
 41
0.0
 71
     7
 72
     5
  1

1001
ACAD
1000
MTEXTBEGIN
1070
    73
1070
     1
1070
    44
1040
1.0
1070
    74
1070
     0
1000
MTEXTEND
  0
MTEXT
  5
5618
330
1A
100
AcDbEntity
  8
SUNPOU
100
AcDbMText
 10
94698.84745413006
 20
82320.68302864542
 30
0.0
 40
10.5
 41
0.0
 71
     9
 72
     5
  1

1001
ACAD
1000
MTEXTBEGIN
1070
    73
1070
     1
1070
    44
1040
1.0
1070
    74
1070
     0
1000
MTEXTEND
  0
MTEXT
  5
5619
330
1A
100
AcDbEntity
  8
SUNPOU
100
AcDbMText
 10
103421.015020048
 20
89736.5175601829
 30
0.0
 40
10.5
 41
0.0
 71
     9
 72
     5
  1

1001
ACAD
1000
MTEXTBEGIN
1070
    73
1070
     1
1070
    44
1040
1.0
1070
    74
1070
     0
1000
MTEXTEND
  0
MTEXT
  5
561A
330
1A
100
AcDbEntity
  8
SUNPOU
100
AcDbMText
 10
122374.773737378
 20
107203.0936126749
 30
0.0
 40
10.5
 41
0.0
 71
     9
 72
     5
  1

1001
ACAD
1000
MTEXTBEGIN
1070
    73
1070
     1
1070
    44
1040
1.0
1070
    74
1070
     0
1000
MTEXTEND
  0
MTEXT
  5
561B
330
1A
100
AcDbEntity
  8
SUNPOU
100
AcDbMText
 10
124318.1809840874
 20
105402.0445327969
 30
0.0
 40
3.5
 41
0.0
 71
     9
 72
     5
  1

1001
ACAD
1000
MTEXTBEGIN
1070
    73
1070
     1
1070
    44
1040
1.0
1070
    74
1070
     0
1000
MTEXTEND
  0
MTEXT
  5
561C
330
1A
100
AcDbEntity
  8
SUNPOU
100
AcDbMText
 10
155444.3608167071
 20
147896.9902004542
 30
0.0
 40
10.5
 41
0.0
 71
     9
 72
     5
  1

1001
ACAD
1000
MTEXTBEGIN
1070
    73
1070
     1
1070
    44
1040
1.0
1070
    74
1070
     0
1000
MTEXTEND
  0
MTEXT
  5
561D
330
1A
100
AcDbEntity
  8
SUNPOU
100
AcDbMText
 10
157387.7680634165
 20
146095.9411205762
 30
0.0
 40
3.5
 41
0.0
 71
     9
 72
     5
  1

1001
ACAD
1000
MTEXTBEGIN
1070
    73
1070
     1
1070
    44
1040
1.0
1070
    74
1070
     0
1000
MTEXTEND
  0
MTEXT
  5
561E
330
1A
100
AcDbEntity
  8
SUNPOU
100
AcDbMText
 10
105884.6285225027
 20
93730.15535542933
 30
0.0
 40
10.5
 41
0.0
 71
     9
 72
     5
  1

1001
ACAD
1000
MTEXTBEGIN
1070
    73
1070
     1
1070
    44
1040
1.0
1070
    74
1070
     0
1000
MTEXTEND
  0
MTEXT
  5
561F
330
1A
100
AcDbEntity
  8
SUNPOU
100
AcDbMText
 10
91936.6284221267
 20
74557.75621631714
 30
0.0
 40
3.5
 41
0.0
 71
     7
 72
     5
  1

1001
ACAD
1000
MTEXTBEGIN
1070
    73
1070
     1
1070
    44
1040
1.0
1070
    74
1070
     0
1000
MTEXTEND
  0
MTEXT
  5
5620
330
1A
100
AcDbEntity
  8
SUNPOU
100
AcDbMText
 10
72921.79781911986
 20
62319.90494713533
 30
0.0
 40
10.5
 41
0.0
 71
     7
 72
     5
  1

1001
ACAD
1000
MTEXTBEGIN
1070
    73
1070
     1
1070
    44
1040
1.0
1070
    74
1070
     0
1000
MTEXTEND
  0
MTEXT
  5
5621
330
1A
100
AcDbEntity
  8
SUNPOU
100
AcDbMText
 10
60464.56955417175
 20
46474.97336903692
 30
0.0
 40
35.0
 41
0.0
 71
     9
 72
     5
  1

1001
ACAD
1000
MTEXTBEGIN
1070
    73
1070
     1
1070
    44
1040
1.0
1070
    74
1070
     0
1000
MTEXTEND
  0
MTEXT
  5
5622
330
1A
100
AcDbEntity
  8
SUNPOU
100
AcDbMText
 10
59373.05461174672
 20
47083.74877908562
 30
0.0
 40
350.0000004171781
 41
0.0
 71
     7
 72
     5
  1

1001
ACAD
1000
MTEXTBEGIN
1070
    73
1070
     1
1070
    44
1040
1.0
1070
    74
1070
     0
1000
MTEXTEND
  0
MTEXT
  5
5623
330
1A
100
AcDbEntity
  8
0
100
AcDbMText
 10
65417.00536968962
 20
45063.67114122186
 30
0.0
 40
8.0
 41
0.0
 71
     7
 72
     5
  1

1001
ACAD
1000
MTEXTBEGIN
1070
    73
1070
     1
1070
    44
1040
1.0
1070
    74
1070
     0
1000
MTEXTEND
  0
MTEXT
  5
5624
330
1A
100
AcDbEntity
  8
0
100
AcDbMText
 10
67702.36305958452
 20
46034.46143597292
 30
0.0
 40
8.0
 41
0.0
 71
     7
 72
     5
  1

1001
ACAD
1000
MTEXTBEGIN
1070
    73
1070
     1
1070
    44
1040
1.0
1070
    74
1070
     0
1000
MTEXTEND
  0
MTEXT
  5
5625
330
1A
100
AcDbEntity
  8
SUNPOU
100
AcDbMText
 10
70368.26008026666
 20
55546.57282834803
 30
0.0
 40
10.5
 41
0.0
 71
     1
 72
     5
  1

1001
ACAD
1000
MTEXTBEGIN
1070
    73
1070
     1
1070
    44
1040
1.0
1070
    74
1070
     0
1000
MTEXTEND
  0
MTEXT
  5
5626
330
1A
100
AcDbEntity
  8
SUNPOU
100
AcDbMText
 10
62437.33688433072
 20
54599.77969443508
 30
0.0
 40
10.5
 41
0.0
 71
     7
 72
     5
  1

1001
ACAD
1000
MTEXTBEGIN
1070
    73
1070
     1
1070
    44
1040
1.0
1070
    74
1070
     0
1000
MTEXTEND
  0
MTEXT
  5
5627
330
1A
100
AcDbEntity
  8
SUNPOU
100
AcDbMText
 10
65386.32054884349
 20
59500.45576627792
 30
0.0
 40
10.5
 41
0.0
 71
     7
 72
     5
  1

1001
ACAD
1000
MTEXTBEGIN
1070
    73
1070
     1
1070
    44
1040
1.0
1070
    74
1070
     0
1000
MTEXTEND
  0
MTEXT
  5
5628
330
1A
100
AcDbEntity
  8
SUNPOU
100
AcDbMText
 10
69895.39867679405
 20
61936.756513898
 30
0.0
 40
10.5
 41
0.0
 71
     7
 72
     5
  1

1001
ACAD
1000
MTEXTBEGIN
1070
    73
1070
     1
1070
    44
1040
1.0
1070
    74
1070
     0
1000
MTEXTEND
  0
MTEXT
  5
5629
330
1A
100
AcDbEntity
  8
SUNPOU
100
AcDbMText
 10
53496.23656356237
 20
40934.35266428691
 30
0.0
 40
10.5
 41
0.0
 71
     7
 72
     5
  1

1001
ACAD
1000
MTEXTBEGIN
1070
    73
1070
     1
1070
    44
1040
1.0
1070
    74
1070
     0
1000
MTEXTEND
  0
MTEXT
  5
562A
330
1A
100
AcDbEntity
  8
SUNPOU
100
AcDbMText
 10
55306.99947493731
 20
47261.76665176547
 30
0.0
 40
10.5
 41
0.0
 71
     9
 72
     5
  1

1001
ACAD
1000
MTEXTBEGIN
1070
    73
1070
     1
1070
    44
1040
1.0
1070
    74
1070
     0
1000
MTEXTEND
  0
MTEXT
  5
562B
330
1A
100
AcDbEntity
  8
SUNPOU
100
AcDbMText
 10
64029.16704085528
 20
54677.60118330295
 30
0.0
 40
10.5
 41
0.0
 71
     9
 72
     5
  1

1001
ACAD
1000
MTEXTBEGIN
1070
    73
1070
     1
1070
    44
1040
1.0
1070
    74
1070
     0
1000
MTEXTEND
  0
MTEXT
  5
562C
330
1A
100
AcDbEntity
  8
SUNPOU
100
AcDbMText
 10
82982.92575818527
 20
72144.17723579499
 30
0.0
 40
10.5
 41
0.0
 71
     9
 72
     5
  1

1001
ACAD
1000
MTEXTBEGIN
1070
    73
1070
     1
1070
    44
1040
1.0
1070
    74
1070
     0
1000
MTEXTEND
  0
MTEXT
  5
562D
330
1A
100
AcDbEntity
  8
SUNPOU
100
AcDbMText
 10
84926.33300489467
 20
70343.12815591698
 30
0.0
 40
3.5
 41
0.0
 71
     9
 72
     5
  1

1001
ACAD
1000
MTEXTBEGIN
1070
    73
1070
     1
1070
    44
1040
1.0
1070
    74
1070
     0
1000
MTEXTEND
  0
MTEXT
  5
562E
330
1A
100
AcDbEntity
  8
SUNPOU
100
AcDbMText
 10
116052.5128375143
 20
112838.0738235743
 30
0.0
 40
10.5
 41
0.0
 71
     9
 72
     5
  1

1001
ACAD
1000
MTEXTBEGIN
1070
    73
1070
     1
1070
    44
1040
1.0
1070
    74
1070
     0
1000
MTEXTEND
  0
MTEXT
  5
562F
330
1A
100
AcDbEntity
  8
SUNPOU
100
AcDbMText
 10
117995.9200842238
 20
111037.0247436963
 30
0.0
 40
3.5
 41
0.0
 71
     9
 72
     5
  1

1001
ACAD
1000
MTEXTBEGIN
1070
    73
1070
     1
1070
    44
1040
1.0
1070
    74
1070
     0
1000
MTEXTEND
  0
MTEXT
  5
5630
330
1A
100
AcDbEntity
  8
SUNPOU
100
AcDbMText
 10
66492.78054330994
 20
58671.23897854939
 30
0.0
 40
10.5
 41
0.0
 71
     9
 72
     5
  1

1001
ACAD
1000
MTEXTBEGIN
1070
    73
1070
     1
1070
    44
1040
1.0
1070
    74
1070
     0
1000
MTEXTEND
  0
MTEXT
  5
5631
330
1A
100
AcDbEntity
  8
SUNPOU
100
AcDbMText
 10
52544.78044293396
 20
39498.83983943717
 30
0.0
 40
3.5
 41
0.0
 71
     7
 72
     5
  1

1001
ACAD
1000
MTEXTBEGIN
1070
    73
1070
     1
1070
    44
1040
1.0
1070
    74
1070
     0
1000
MTEXTEND
  0
MTEXT
  5
5632
330
1A
100
AcDbEntity
  8
SUNPOU
100
AcDbMText
 10
66237.13112570454
 20
48857.90306045851
 30
0.0
 40
10.5
 41
0.0
 71
     9
 72
     5
  1

1001
ACAD
1000
MTEXTBEGIN
1070
    73
1070
     1
1070
    44
1040
1.0
1070
    74
1070
     0
1000
MTEXTEND
  0
MTEXT
  5
5633
330
1A
100
AcDbEntity
  8
SUNPOU
100
AcDbMText
 10
74959.29869162252
 20
56273.737591996
 30
0.0
 40
10.5
 41
0.0
 71
     9
 72
     5
  1

1001
ACAD
1000
MTEXTBEGIN
1070
    73
1070
     1
1070
    44
1040
1.0
1070
    74
1070
     0
1000
MTEXTEND
  0
MTEXT
  5
5634
330
1A
100
AcDbEntity
  8
SUNPOU
100
AcDbMText
 10
93913.0574089525
 20
73740.31364448805
 30
0.0
 40
10.5
 41
0.0
 71
     9
 72
     5
  1

1001
ACAD
1000
MTEXTBEGIN
1070
    73
1070
     1
1070
    44
1040
1.0
1070
    74
1070
     0
1000
MTEXTEND
  0
MTEXT
  5
5635
330
1A
100
AcDbEntity
  8
SUNPOU
100
AcDbMText
 10
95856.46465566192
 20
71939.26456461004
 30
0.0
 40
3.5
 41
0.0
 71
     9
 72
     5
  1

1001
ACAD
1000
MTEXTBEGIN
1070
    73
1070
     1
1070
    44
1040
1.0
1070
    74
1070
     0
1000
MTEXTEND
  0
MTEXT
  5
5636
330
1A
100
AcDbEntity
  8
SUNPOU
100
AcDbMText
 10
126982.6444882816
 20
114434.2102322673
 30
0.0
 40
10.5
 41
0.0
 71
     9
 72
     5
  1

1001
ACAD
1000
MTEXTBEGIN
1070
    73
1070
     1
1070
    44
1040
1.0
1070
    74
1070
     0
1000
MTEXTEND
  0
MTEXT
  5
5637
330
1A
100
AcDbEntity
  8
SUNPOU
100
AcDbMText
 10
128926.051734991
 20
112633.1611523893
 30
0.0
 40
3.5
 41
0.0
 71
     9
 72
     5
  1

1001
ACAD
1000
MTEXTBEGIN
1070
    73
1070
     1
1070
    44
1040
1.0
1070
    74
1070
     0
1000
MTEXTEND
  0
MTEXT
  5
5638
330
1A
100
AcDbEntity
  8
SUNPOU
100
AcDbMText
 10
77422.91219407717
 20
60267.37538724244
 30
0.0
 40
10.5
 41
0.0
 71
     9
 72
     5
  1

1001
ACAD
1000
MTEXTBEGIN
1070
    73
1070
     1
1070
    44
1040
1.0
1070
    74
1070
     0
1000
MTEXTEND
  0
MTEXT
  5
5639
330
1A
100
AcDbEntity
  8
SUNPOU
100
AcDbMText
 10
63474.91209370119
 20
41094.97624813023
 30
0.0
 40
3.5
 41
0.0
 71
     7
 72
     5
  1

1001
ACAD
1000
MTEXTBEGIN
1070
    73
1070
     1
1070
    44
1040
1.0
1070
    74
1070
     0
1000
MTEXTEND
  0
MTEXT
  5
563A
330
1A
100
AcDbEntity
  8
SUNPOU
100
AcDbMText
 10
48117.65086229006
 20
40806.11043916631
 30
0.0
 40
10.5
 41
0.0
 71
     9
 72
     5
  1

1001
ACAD
1000
MTEXTBEGIN
1070
    73
1070
     1
1070
    44
1040
1.0
1070
    74
1070
     0
1000
MTEXTEND
  0
MTEXT
  5
563B
330
1A
100
AcDbEntity
  8
SUNPOU
100
AcDbMText
 10
67071.40957962004
 20
58272.68649165837
 30
0.0
 40
10.5
 41
0.0
 71
     9
 72
     5
  1

1001
ACAD
1000
MTEXTBEGIN
1070
    73
1070
     1
1070
    44
1040
1.0
1070
    74
1070
     0
1000
MTEXTEND
  0
MTEXT
  5
563C
330
1A
100
AcDbEntity
  8
SUNPOU
100
AcDbMText
 10
69014.81682632945
 20
56471.63741178035
 30
0.0
 40
3.5
 41
0.0
 71
     9
 72
     5
  1

1001
ACAD
1000
MTEXTBEGIN
1070
    73
1070
     1
1070
    44
1040
1.0
1070
    74
1070
     0
1000
MTEXTEND
  0
MTEXT
  5
563D
330
1A
100
AcDbEntity
  8
SUNPOU
100
AcDbMText
 10
100140.9966589491
 20
98966.58307943772
 30
0.0
 40
10.5
 41
0.0
 71
     9
 72
     5
  1

1001
ACAD
1000
MTEXTBEGIN
1070
    73
1070
     1
1070
    44
1040
1.0
1070
    74
1070
     0
1000
MTEXTEND
  0
MTEXT
  5
563E
330
1A
100
AcDbEntity
  8
SUNPOU
100
AcDbMText
 10
102084.4039056586
 20
97165.53399955969
 30
0.0
 40
3.5
 41
0.0
 71
     9
 72
     5
  1

1001
ACAD
1000
MTEXTBEGIN
1070
    73
1070
     1
1070
    44
1040
1.0
1070
    74
1070
     0
1000
MTEXTEND
  0
MTEXT
  5
563F
330
1A
100
AcDbEntity
  8
SUNPOU
100
AcDbMText
 10
50581.26436474472
 20
44799.74823441275
 30
0.0
 40
10.5
 41
0.0
 71
     9
 72
     5
  1

1001
ACAD
1000
MTEXTBEGIN
1070
    73
1070
     1
1070
    44
1040
1.0
1070
    74
1070
     0
1000
MTEXTEND
  0
MTEXT
  5
5640
330
1A
100
AcDbEntity
  8
SUNPOU
100
AcDbMText
 10
36633.26426436873
 20
25627.34909530054
 30
0.0
 40
3.5
 41
0.0
 71
     7
 72
     5
  1

1001
ACAD
1000
MTEXTBEGIN
1070
    73
1070
     1
1070
    44
1040
1.0
1070
    74
1070
     0
1000
MTEXTEND
  0
MTEXT
  5
5641
330
1A
100
AcDbEntity
  8
SUNPOU
100
AcDbMText
 10
61069.42493315968
 20
52574.61207825771
 30
0.0
 40
10.5
 41
0.0
 71
     9
 72
     5
  1

1001
ACAD
1000
MTEXTBEGIN
1070
    73
1070
     1
1070
    44
1040
1.0
1070
    74
1070
     0
1000
MTEXTEND
  0
MTEXT
  5
5642
330
1A
100
AcDbEntity
  8
SUNPOU
100
AcDbMText
 10
80023.18365048967
 20
70041.18813074978
 30
0.0
 40
10.5
 41
0.0
 71
     9
 72
     5
  1

1001
ACAD
1000
MTEXTBEGIN
1070
    73
1070
     1
1070
    44
1040
1.0
1070
    74
1070
     0
1000
MTEXTEND
  0
MTEXT
  5
5643
330
1A
100
AcDbEntity
  8
SUNPOU
100
AcDbMText
 10
81966.59089719908
 20
68240.13905087176
 30
0.0
 40
3.5
 41
0.0
 71
     9
 72
     5
  1

1001
ACAD
1000
MTEXTBEGIN
1070
    73
1070
     1
1070
    44
1040
1.0
1070
    74
1070
     0
1000
MTEXTEND
  0
MTEXT
  5
5644
330
1A
100
AcDbEntity
  8
SUNPOU
100
AcDbMText
 10
113092.7707298187
 20
110735.0847185291
 30
0.0
 40
10.5
 41
0.0
 71
     9
 72
     5
  1

1001
ACAD
1000
MTEXTBEGIN
1070
    73
1070
     1
1070
    44
1040
1.0
1070
    74
1070
     0
1000
MTEXTEND
  0
MTEXT
  5
5645
330
1A
100
AcDbEntity
  8
SUNPOU
100
AcDbMText
 10
115036.1779765282
 20
108934.0356386511
 30
0.0
 40
3.5
 41
0.0
 71
     9
 72
     5
  1

1001
ACAD
1000
MTEXTBEGIN
1070
    73
1070
     1
1070
    44
1040
1.0
1070
    74
1070
     0
1000
MTEXTEND
  0
MTEXT
  5
5646
330
1A
100
AcDbEntity
  8
SUNPOU
100
AcDbMText
 10
63533.03843561433
 20
56568.24987350415
 30
0.0
 40
10.5
 41
0.0
 71
     9
 72
     5
  1

1001
ACAD
1000
MTEXTBEGIN
1070
    73
1070
     1
1070
    44
1040
1.0
1070
    74
1070
     0
1000
MTEXTEND
  0
MTEXT
  5
5647
330
1A
100
AcDbEntity
  8
SUNPOU
100
AcDbMText
 10
49585.03833523835
 20
37395.85073439196
 30
0.0
 40
3.5
 41
0.0
 71
     7
 72
     5
  1

1001
ACAD
1000
MTEXTBEGIN
1070
    73
1070
     1
1070
    44
1040
1.0
1070
    74
1070
     0
1000
MTEXTEND
  0
MTEXT
  5
5648
330
1A
100
AcDbEntity
  8
SUNPOU
100
AcDbMText
 10
77137.31641337052
 20
70907.11375048141
 30
0.0
 40
10.5
 41
0.0
 71
     9
 72
     5
  1

1001
ACAD
1000
MTEXTBEGIN
1070
    73
1070
     1
1070
    44
1040
1.0
1070
    74
1070
     0
1000
MTEXTEND
  0
MTEXT
  5
5649
330
1A
100
AcDbEntity
  8
SUNPOU
100
AcDbMText
 10
79080.72366007995
 20
69106.06467060339
 30
0.0
 40
3.5
 41
0.0
 71
     9
 72
     5
  1

1001
ACAD
1000
MTEXTBEGIN
1070
    73
1070
     1
1070
    44
1040
1.0
1070
    74
1070
     0
1000
MTEXTEND
  0
MTEXT
  5
564A
330
1A
100
AcDbEntity
  8
SUNPOU
100
AcDbMText
 10
110206.9034926996
 20
111601.0103382607
 30
0.0
 40
10.5
 41
0.0
 71
     9
 72
     5
  1

1001
ACAD
1000
MTEXTBEGIN
1070
    73
1070
     1
1070
    44
1040
1.0
1070
    74
1070
     0
1000
MTEXTEND
  0
MTEXT
  5
564B
330
1A
100
AcDbEntity
  8
SUNPOU
100
AcDbMText
 10
112150.310739409
 20
109799.9612583827
 30
0.0
 40
3.5
 41
0.0
 71
     9
 72
     5
  1

1001
ACAD
1000
MTEXTBEGIN
1070
    73
1070
     1
1070
    44
1040
1.0
1070
    74
1070
     0
1000
MTEXTEND
  0
MTEXT
  5
564C
330
1A
100
AcDbEntity
  8
SUNPOU
100
AcDbMText
 10
108819.1333204968
 20
110677.9087286761
 30
0.0
 40
10.5
 41
0.0
 71
     9
 72
     5
  1

1001
ACAD
1000
MTEXTBEGIN
1070
    73
1070
     1
1070
    44
1040
1.0
1070
    74
1070
     0
1000
MTEXTEND
  0
MTEXT
  5
564D
330
1A
100
AcDbEntity
  8
SUNPOU
100
AcDbMText
 10
110762.5405672062
 20
108876.8596487981
 30
0.0
 40
3.5
 41
0.0
 71
     9
 72
     5
  1

1001
ACAD
1000
MTEXTBEGIN
1070
    73
1070
     1
1070
    44
1040
1.0
1070
    74
1070
     0
1000
MTEXTEND
  0
MTEXT
  5
564E
330
1A
100
AcDbEntity
  8
SUNPOU
100
AcDbMText
 10
76303.05507956816
 20
68695.31179059812
 30
0.0
 40
10.5
 41
0.0
 71
     9
 72
     5
  1

1001
ACAD
1000
MTEXTBEGIN
1070
    73
1070
     1
1070
    44
1040
1.0
1070
    74
1070
     0
1000
MTEXTEND
  0
MTEXT
  5
564F
330
1A
100
AcDbEntity
  8
SUNPOU
100
AcDbMText
 10
79026.36128373271
 20
69099.99348217918
 30
0.0
 40
3.5
 41
0.0
 71
     9
 72
     5
  1

1001
ACAD
1000
MTEXTBEGIN
1070
    73
1070
     1
1070
    44
1040
1.0
1070
    74
1070
     0
1000
MTEXTEND
  0
MTEXT
  5
5650
330
1A
100
AcDbEntity
  8
SUNPOU
100
AcDbMText
 10
78234.00675862522
 20
65938.68764412436
 30
0.0
 40
10.5
 41
0.0
 71
     9
 72
     5
  1

1001
ACAD
1000
MTEXTBEGIN
1070
    73
1070
     1
1070
    44
1040
1.0
1070
    74
1070
     0
1000
MTEXTEND
  0
MTEXT
  5
5651
330
1A
100
AcDbEntity
  8
SUNPOU
100
AcDbMText
 10
80177.41400533465
 20
64137.63856424636
 30
0.0
 40
3.5
 41
0.0
 71
     9
 72
     5
  1

1001
ACAD
1000
MTEXTBEGIN
1070
    73
1070
     1
1070
    44
1040
1.0
1070
    74
1070
     0
1000
MTEXTEND
  0
MTEXT
  5
5652
330
1A
100
AcDbEntity
  8
SUNPOU
100
AcDbMText
 10
80122.50949592123
 20
64024.86668196205
 30
0.0
 40
3.5
 41
0.0
 71
     9
 72
     5
  1

1001
ACAD
1000
MTEXTBEGIN
1070
    73
1070
     1
1070
    44
1040
1.0
1070
    74
1070
     0
1000
MTEXTEND
  0
MTEXT
  5
5653
330
1A
100
AcDbEntity
  8
SUNPOU
100
AcDbMText
 10
79486.58135950133
 20
63213.54544089553
 30
0.0
 40
3.5
 41
0.0
 71
     9
 72
     5
  1

1001
ACAD
1000
MTEXTBEGIN
1070
    73
1070
     1
1070
    44
1040
1.0
1070
    74
1070
     0
1000
MTEXTEND
  0
MTEXT
  5
5654
330
1A
100
AcDbEntity
  8
SUNPOU
100
AcDbMText
 10
79485.3409400806
 20
63213.29746395804
 30
0.0
 40
10.5
 41
0.0
 71
     9
 72
     5
  1

1001
ACAD
1000
MTEXTBEGIN
1070
    73
1070
     1
1070
    44
1040
1.0
1070
    74
1070
     0
1000
MTEXTEND
  0
MTEXT
  5
5655
330
1A
100
AcDbEntity
  8
SUNPOU
100
AcDbMText
 10
85473.63363627567
 20
80747.76348077064
 30
0.0
 40
10.5
 41
0.0
 71
     9
 72
     5
  1

1001
ACAD
1000
MTEXTBEGIN
1070
    73
1070
     1
1070
    44
1040
1.0
1070
    74
1070
     0
1000
MTEXTEND
  0
MTEXT
  5
5656
330
1A
100
AcDbEntity
  8
SUNPOU
100
AcDbMText
 10
94195.80120219368
 20
88163.59801230809
 30
0.0
 40
10.5
 41
0.0
 71
     9
 72
     5
  1

1001
ACAD
1000
MTEXTBEGIN
1070
    73
1070
     1
1070
    44
1040
1.0
1070
    74
1070
     0
1000
MTEXTEND
  0
MTEXT
  5
5657
330
1A
100
AcDbEntity
  8
SUNPOU
100
AcDbMText
 10
113149.5599195236
 20
105630.1740648001
 30
0.0
 40
10.5
 41
0.0
 71
     9
 72
     5
  1

1001
ACAD
1000
MTEXTBEGIN
1070
    73
1070
     1
1070
    44
1040
1.0
1070
    74
1070
     0
1000
MTEXTEND
  0
MTEXT
  5
5658
330
1A
100
AcDbEntity
  8
SUNPOU
100
AcDbMText
 10
115092.967166233
 20
103829.1249849221
 30
0.0
 40
3.5
 41
0.0
 71
     9
 72
     5
  1

1001
ACAD
1000
MTEXTBEGIN
1070
    73
1070
     1
1070
    44
1040
1.0
1070
    74
1070
     0
1000
MTEXTEND
  0
MTEXT
  5
5659
330
1A
100
AcDbEntity
  8
SUNPOU
100
AcDbMText
 10
146219.1469988527
 20
146324.0706525794
 30
0.0
 40
10.5
 41
0.0
 71
     9
 72
     5
  1

1001
ACAD
1000
MTEXTBEGIN
1070
    73
1070
     1
1070
    44
1040
1.0
1070
    74
1070
     0
1000
MTEXTEND
  0
MTEXT
  5
565A
330
1A
100
AcDbEntity
  8
SUNPOU
100
AcDbMText
 10
148162.5542455621
 20
144523.0215727014
 30
0.0
 40
3.5
 41
0.0
 71
     9
 72
     5
  1

1001
ACAD
1000
MTEXTBEGIN
1070
    73
1070
     1
1070
    44
1040
1.0
1070
    74
1070
     0
1000
MTEXTEND
  0
MTEXT
  5
565B
330
1A
100
AcDbEntity
  8
SUNPOU
100
AcDbMText
 10
96659.41470464833
 20
92157.23580755453
 30
0.0
 40
10.5
 41
0.0
 71
     9
 72
     5
  1

1001
ACAD
1000
MTEXTBEGIN
1070
    73
1070
     1
1070
    44
1040
1.0
1070
    74
1070
     0
1000
MTEXTEND
  0
MTEXT
  5
565C
330
1A
100
AcDbEntity
  8
SUNPOU
100
AcDbMText
 10
82711.41460427234
 20
72984.83666844234
 30
0.0
 40
3.5
 41
0.0
 71
     7
 72
     5
  1

1001
ACAD
1000
MTEXTBEGIN
1070
    73
1070
     1
1070
    44
1040
1.0
1070
    74
1070
     0
1000
MTEXTEND
  0
MTEXT
  5
565D
330
1A
100
AcDbEntity
  8
SUNPOU
100
AcDbMText
 10
63696.58400126548
 20
60746.98539926055
 30
0.0
 40
10.5
 41
0.0
 71
     7
 72
     5
  1

1001
ACAD
1000
MTEXTBEGIN
1070
    73
1070
     1
1070
    44
1040
1.0
1070
    74
1070
     0
1000
MTEXTEND
  0
MTEXT
  5
565E
330
1A
100
AcDbEntity
  8
SUNPOU
100
AcDbMText
 10
51239.35573631738
 20
44902.05382116213
 30
0.0
 40
35.0
 41
0.0
 71
     9
 72
     5
  1

1001
ACAD
1000
MTEXTBEGIN
1070
    73
1070
     1
1070
    44
1040
1.0
1070
    74
1070
     0
1000
MTEXTEND
  0
MTEXT
  5
565F
330
1A
100
AcDbEntity
  8
SUNPOU
100
AcDbMText
 10
50147.84079389233
 20
45510.82923121084
 30
0.0
 40
350.0000004171781
 41
0.0
 71
     7
 72
     5
  1

1001
ACAD
1000
MTEXTBEGIN
1070
    73
1070
     1
1070
    44
1040
1.0
1070
    74
1070
     0
1000
MTEXTEND
  0
MTEXT
  5
5660
330
1A
100
AcDbEntity
  8
0
100
AcDbMText
 10
56191.79155183523
 20
43490.75159334705
 30
0.0
 40
8.0
 41
0.0
 71
     7
 72
     5
  1

1001
ACAD
1000
MTEXTBEGIN
1070
    73
1070
     1
1070
    44
1040
1.0
1070
    74
1070
     0
1000
MTEXTEND
  0
MTEXT
  5
5661
330
1A
100
AcDbEntity
  8
0
100
AcDbMText
 10
58477.14924173013
 20
44461.54188809812
 30
0.0
 40
8.0
 41
0.0
 71
     7
 72
     5
  1

1001
ACAD
1000
MTEXTBEGIN
1070
    73
1070
     1
1070
    44
1040
1.0
1070
    74
1070
     0
1000
MTEXTEND
  0
MTEXT
  5
5662
330
1A
100
AcDbEntity
  8
SUNPOU
100
AcDbMText
 10
61143.04626241227
 20
53973.65328047324
 30
0.0
 40
10.5
 41
0.0
 71
     1
 72
     5
  1

1001
ACAD
1000
MTEXTBEGIN
1070
    73
1070
     1
1070
    44
1040
1.0
1070
    74
1070
     0
1000
MTEXTEND
  0
MTEXT
  5
5663
330
1A
100
AcDbEntity
  8
SUNPOU
100
AcDbMText
 10
53212.12306647634
 20
53026.86014656028
 30
0.0
 40
10.5
 41
0.0
 71
     7
 72
     5
  1

1001
ACAD
1000
MTEXTBEGIN
1070
    73
1070
     1
1070
    44
1040
1.0
1070
    74
1070
     0
1000
MTEXTEND
  0
MTEXT
  5
5664
330
1A
100
AcDbEntity
  8
SUNPOU
100
AcDbMText
 10
56161.1067309891
 20
57927.53621840312
 30
0.0
 40
10.5
 41
0.0
 71
     7
 72
     5
  1

1001
ACAD
1000
MTEXTBEGIN
1070
    73
1070
     1
1070
    44
1040
1.0
1070
    74
1070
     0
1000
MTEXTEND
  0
MTEXT
  5
5665
330
1A
100
AcDbEntity
  8
SUNPOU
100
AcDbMText
 10
60670.18485893966
 20
60363.8369660232
 30
0.0
 40
10.5
 41
0.0
 71
     7
 72
     5
  1

1001
ACAD
1000
MTEXTBEGIN
1070
    73
1070
     1
1070
    44
1040
1.0
1070
    74
1070
     0
1000
MTEXTEND
  0
MTEXT
  5
5666
330
1A
100
AcDbEntity
  8
SUNPOU
100
AcDbMText
 10
44271.02274570799
 20
39361.43311641212
 30
0.0
 40
10.5
 41
0.0
 71
     7
 72
     5
  1

1001
ACAD
1000
MTEXTBEGIN
1070
    73
1070
     1
1070
    44
1040
1.0
1070
    74
1070
     0
1000
MTEXTEND
  0
MTEXT
  5
5667
330
1A
100
AcDbEntity
  8
SUNPOU
100
AcDbMText
 10
95462.54117960824
 20
85034.41368006038
 30
0.0
 40
10.5
 41
0.0
 71
     9
 72
     5
  1

1001
ACAD
1000
MTEXTBEGIN
1070
    73
1070
     1
1070
    44
1040
1.0
1070
    74
1070
     0
1000
MTEXTEND
  0
MTEXT
  5
5668
330
1A
100
AcDbEntity
  8
SUNPOU
100
AcDbMText
 10
104184.7087455262
 20
92450.24821159784
 30
0.0
 40
10.5
 41
0.0
 71
     9
 72
     5
  1

1001
ACAD
1000
MTEXTBEGIN
1070
    73
1070
     1
1070
    44
1040
1.0
1070
    74
1070
     0
1000
MTEXTEND
  0
MTEXT
  5
5669
330
1A
100
AcDbEntity
  8
SUNPOU
100
AcDbMText
 10
123138.4674628562
 20
109916.8242640898
 30
0.0
 40
10.5
 41
0.0
 71
     9
 72
     5
  1

1001
ACAD
1000
MTEXTBEGIN
1070
    73
1070
     1
1070
    44
1040
1.0
1070
    74
1070
     0
1000
MTEXTEND
  0
MTEXT
  5
566A
330
1A
100
AcDbEntity
  8
SUNPOU
100
AcDbMText
 10
125081.8747095656
 20
108115.7751842118
 30
0.0
 40
3.5
 41
0.0
 71
     9
 72
     5
  1

1001
ACAD
1000
MTEXTBEGIN
1070
    73
1070
     1
1070
    44
1040
1.0
1070
    74
1070
     0
1000
MTEXTEND
  0
MTEXT
  5
566B
330
1A
100
AcDbEntity
  8
SUNPOU
100
AcDbMText
 10
156208.0545421853
 20
150610.7208518691
 30
0.0
 40
10.5
 41
0.0
 71
     9
 72
     5
  1

1001
ACAD
1000
MTEXTBEGIN
1070
    73
1070
     1
1070
    44
1040
1.0
1070
    74
1070
     0
1000
MTEXTEND
  0
MTEXT
  5
566C
330
1A
100
AcDbEntity
  8
SUNPOU
100
AcDbMText
 10
158151.4617888947
 20
148809.6717719911
 30
0.0
 40
3.5
 41
0.0
 71
     9
 72
     5
  1

1001
ACAD
1000
MTEXTBEGIN
1070
    73
1070
     1
1070
    44
1040
1.0
1070
    74
1070
     0
1000
MTEXTEND
  0
MTEXT
  5
566D
330
1A
100
AcDbEntity
  8
SUNPOU
100
AcDbMText
 10
106648.3222479809
 20
96443.88600684427
 30
0.0
 40
10.5
 41
0.0
 71
     9
 72
     5
  1

1001
ACAD
1000
MTEXTBEGIN
1070
    73
1070
     1
1070
    44
1040
1.0
1070
    74
1070
     0
1000
MTEXTEND
  0
MTEXT
  5
566E
330
1A
100
AcDbEntity
  8
SUNPOU
100
AcDbMText
 10
92700.3221476049
 20
77271.48686773207
 30
0.0
 40
3.5
 41
0.0
 71
     7
 72
     5
  1

1001
ACAD
1000
MTEXTBEGIN
1070
    73
1070
     1
1070
    44
1040
1.0
1070
    74
1070
     0
1000
MTEXTEND
  0
MTEXT
  5
566F
330
1A
100
AcDbEntity
  8
SUNPOU
100
AcDbMText
 10
73685.49154459806
 20
65033.63559855027
 30
0.0
 40
10.5
 41
0.0
 71
     7
 72
     5
  1

1001
ACAD
1000
MTEXTBEGIN
1070
    73
1070
     1
1070
    44
1040
1.0
1070
    74
1070
     0
1000
MTEXTEND
  0
MTEXT
  5
5670
330
1A
100
AcDbEntity
  8
SUNPOU
100
AcDbMText
 10
61228.26327964995
 20
49188.70402045185
 30
0.0
 40
35.0
 41
0.0
 71
     9
 72
     5
  1

1001
ACAD
1000
MTEXTBEGIN
1070
    73
1070
     1
1070
    44
1040
1.0
1070
    74
1070
     0
1000
MTEXTEND
  0
MTEXT
  5
5671
330
1A
100
AcDbEntity
  8
SUNPOU
100
AcDbMText
 10
60136.74833722491
 20
49797.47943050056
 30
0.0
 40
350.0000004171781
 41
0.0
 71
     7
 72
     5
  1

1001
ACAD
1000
MTEXTBEGIN
1070
    73
1070
     1
1070
    44
1040
1.0
1070
    74
1070
     0
1000
MTEXTEND
  0
MTEXT
  5
5672
330
1A
100
AcDbEntity
  8
0
100
AcDbMText
 10
66180.69909516782
 20
47777.40179263678
 30
0.0
 40
8.0
 41
0.0
 71
     7
 72
     5
  1

1001
ACAD
1000
MTEXTBEGIN
1070
    73
1070
     1
1070
    44
1040
1.0
1070
    74
1070
     0
1000
MTEXTEND
  0
MTEXT
  5
5673
330
1A
100
AcDbEntity
  8
0
100
AcDbMText
 10
68466.05678506271
 20
48748.19208738784
 30
0.0
 40
8.0
 41
0.0
 71
     7
 72
     5
  1

1001
ACAD
1000
MTEXTBEGIN
1070
    73
1070
     1
1070
    44
1040
1.0
1070
    74
1070
     0
1000
MTEXTEND
  0
MTEXT
  5
5674
330
1A
100
AcDbEntity
  8
SUNPOU
100
AcDbMText
 10
71131.95380574485
 20
58260.30347976296
 30
0.0
 40
10.5
 41
0.0
 71
     1
 72
     5
  1

1001
ACAD
1000
MTEXTBEGIN
1070
    73
1070
     1
1070
    44
1040
1.0
1070
    74
1070
     0
1000
MTEXTEND
  0
MTEXT
  5
5675
330
1A
100
AcDbEntity
  8
SUNPOU
100
AcDbMText
 10
63201.03060980891
 20
57313.51034585002
 30
0.0
 40
10.5
 41
0.0
 71
     7
 72
     5
  1

1001
ACAD
1000
MTEXTBEGIN
1070
    73
1070
     1
1070
    44
1040
1.0
1070
    74
1070
     0
1000
MTEXTEND
  0
MTEXT
  5
5676
330
1A
100
AcDbEntity
  8
SUNPOU
100
AcDbMText
 10
66150.01427432169
 20
62214.18641769286
 30
0.0
 40
10.5
 41
0.0
 71
     7
 72
     5
  1

1001
ACAD
1000
MTEXTBEGIN
1070
    73
1070
     1
1070
    44
1040
1.0
1070
    74
1070
     0
1000
MTEXTEND
  0
MTEXT
  5
5677
330
1A
100
AcDbEntity
  8
SUNPOU
100
AcDbMText
 10
70659.09240227225
 20
64650.48716531294
 30
0.0
 40
10.5
 41
0.0
 71
     7
 72
     5
  1

1001
ACAD
1000
MTEXTBEGIN
1070
    73
1070
     1
1070
    44
1040
1.0
1070
    74
1070
     0
1000
MTEXTEND
  0
MTEXT
  5
5678
330
1A
100
AcDbEntity
  8
SUNPOU
100
AcDbMText
 10
54259.93028904056
 20
43648.08331570185
 30
0.0
 40
10.5
 41
0.0
 71
     7
 72
     5
  1

1001
ACAD
1000
MTEXTBEGIN
1070
    73
1070
     1
1070
    44
1040
1.0
1070
    74
1070
     0
1000
MTEXTEND
  0
MTEXT
  5
5679
330
1A
100
AcDbEntity
  8
SUNPOU
100
AcDbMText
 10
56070.69320041551
 20
49975.4973031804
 30
0.0
 40
10.5
 41
0.0
 71
     9
 72
     5
  1

1001
ACAD
1000
MTEXTBEGIN
1070
    73
1070
     1
1070
    44
1040
1.0
1070
    74
1070
     0
1000
MTEXTEND
  0
MTEXT
  5
567A
330
1A
100
AcDbEntity
  8
SUNPOU
100
AcDbMText
 10
64792.86076633348
 20
57391.33183471788
 30
0.0
 40
10.5
 41
0.0
 71
     9
 72
     5
  1

1001
ACAD
1000
MTEXTBEGIN
1070
    73
1070
     1
1070
    44
1040
1.0
1070
    74
1070
     0
1000
MTEXTEND
  0
MTEXT
  5
567B
330
1A
100
AcDbEntity
  8
SUNPOU
100
AcDbMText
 10
83746.61948366345
 20
74857.90788720994
 30
0.0
 40
10.5
 41
0.0
 71
     9
 72
     5
  1

1001
ACAD
1000
MTEXTBEGIN
1070
    73
1070
     1
1070
    44
1040
1.0
1070
    74
1070
     0
1000
MTEXTEND
  0
MTEXT
  5
567C
330
1A
100
AcDbEntity
  8
SUNPOU
100
AcDbMText
 10
85690.02673037287
 20
73056.85880733192
 30
0.0
 40
3.5
 41
0.0
 71
     9
 72
     5
  1

1001
ACAD
1000
MTEXTBEGIN
1070
    73
1070
     1
1070
    44
1040
1.0
1070
    74
1070
     0
1000
MTEXTEND
  0
MTEXT
  5
567D
330
1A
100
AcDbEntity
  8
SUNPOU
100
AcDbMText
 10
116816.2065629925
 20
115551.8044749892
 30
0.0
 40
10.5
 41
0.0
 71
     9
 72
     5
  1

1001
ACAD
1000
MTEXTBEGIN
1070
    73
1070
     1
1070
    44
1040
1.0
1070
    74
1070
     0
1000
MTEXTEND
  0
MTEXT
  5
567E
330
1A
100
AcDbEntity
  8
SUNPOU
100
AcDbMText
 10
118759.613809702
 20
113750.7553951112
 30
0.0
 40
3.5
 41
0.0
 71
     9
 72
     5
  1

1001
ACAD
1000
MTEXTBEGIN
1070
    73
1070
     1
1070
    44
1040
1.0
1070
    74
1070
     0
1000
MTEXTEND
  0
MTEXT
  5
567F
330
1A
100
AcDbEntity
  8
SUNPOU
100
AcDbMText
 10
67256.47426878814
 20
61384.96962996432
 30
0.0
 40
10.5
 41
0.0
 71
     9
 72
     5
  1

1001
ACAD
1000
MTEXTBEGIN
1070
    73
1070
     1
1070
    44
1040
1.0
1070
    74
1070
     0
1000
MTEXTEND
  0
MTEXT
  5
5680
330
1A
100
AcDbEntity
  8
SUNPOU
100
AcDbMText
 10
53308.47416841216
 20
42212.57049085211
 30
0.0
 40
3.5
 41
0.0
 71
     7
 72
     5
  1

1001
ACAD
1000
MTEXTBEGIN
1070
    73
1070
     1
1070
    44
1040
1.0
1070
    74
1070
     0
1000
MTEXTEND
  0
MTEXT
  5
5681
330
1A
100
AcDbEntity
  8
SUNPOU
100
AcDbMText
 10
67000.82485118274
 20
51571.63371187345
 30
0.0
 40
10.5
 41
0.0
 71
     9
 72
     5
  1

1001
ACAD
1000
MTEXTBEGIN
1070
    73
1070
     1
1070
    44
1040
1.0
1070
    74
1070
     0
1000
MTEXTEND
  0
MTEXT
  5
5682
330
1A
100
AcDbEntity
  8
SUNPOU
100
AcDbMText
 10
75722.99241710071
 20
58987.46824341094
 30
0.0
 40
10.5
 41
0.0
 71
     9
 72
     5
  1

1001
ACAD
1000
MTEXTBEGIN
1070
    73
1070
     1
1070
    44
1040
1.0
1070
    74
1070
     0
1000
MTEXTEND
  0
MTEXT
  5
5683
330
1A
100
AcDbEntity
  8
SUNPOU
100
AcDbMText
 10
94676.75113443068
 20
76454.04429590299
 30
0.0
 40
10.5
 41
0.0
 71
     9
 72
     5
  1

1001
ACAD
1000
MTEXTBEGIN
1070
    73
1070
     1
1070
    44
1040
1.0
1070
    74
1070
     0
1000
MTEXTEND
  0
MTEXT
  5
5684
330
1A
100
AcDbEntity
  8
SUNPOU
100
AcDbMText
 10
96620.1583811401
 20
74652.99521602498
 30
0.0
 40
3.5
 41
0.0
 71
     9
 72
     5
  1

1001
ACAD
1000
MTEXTBEGIN
1070
    73
1070
     1
1070
    44
1040
1.0
1070
    74
1070
     0
1000
MTEXTEND
  0
MTEXT
  5
5685
330
1A
100
AcDbEntity
  8
SUNPOU
100
AcDbMText
 10
127746.3382137598
 20
117147.9408836823
 30
0.0
 40
10.5
 41
0.0
 71
     9
 72
     5
  1

1001
ACAD
1000
MTEXTBEGIN
1070
    73
1070
     1
1070
    44
1040
1.0
1070
    74
1070
     0
1000
MTEXTEND
  0
MTEXT
  5
5686
330
1A
100
AcDbEntity
  8
SUNPOU
100
AcDbMText
 10
129689.7454604692
 20
115346.8918038043
 30
0.0
 40
3.5
 41
0.0
 71
     9
 72
     5
  1

1001
ACAD
1000
MTEXTBEGIN
1070
    73
1070
     1
1070
    44
1040
1.0
1070
    74
1070
     0
1000
MTEXTEND
  0
MTEXT
  5
5687
330
1A
100
AcDbEntity
  8
SUNPOU
100
AcDbMText
 10
78186.60591955537
 20
62981.10603865738
 30
0.0
 40
10.5
 41
0.0
 71
     9
 72
     5
  1

1001
ACAD
1000
MTEXTBEGIN
1070
    73
1070
     1
1070
    44
1040
1.0
1070
    74
1070
     0
1000
MTEXTEND
  0
MTEXT
  5
5688
330
1A
100
AcDbEntity
  8
SUNPOU
100
AcDbMText
 10
64238.60581917939
 20
43808.70689954517
 30
0.0
 40
3.5
 41
0.0
 71
     7
 72
     5
  1

1001
ACAD
1000
MTEXTBEGIN
1070
    73
1070
     1
1070
    44
1040
1.0
1070
    74
1070
     0
1000
MTEXTEND
  0
MTEXT
  5
5689
330
1A
100
AcDbEntity
  8
SUNPOU
100
AcDbMText
 10
33428.13481137435
 20
32770.04710035564
 30
0.0
 40
10.5
 41
0.0
 71
     9
 72
     5
  1

1001
ACAD
1000
MTEXTBEGIN
1070
    73
1070
     1
1070
    44
1040
1.0
1070
    74
1070
     0
1000
MTEXTEND
  0
MTEXT
  5
568A
330
1A
100
AcDbEntity
  8
SUNPOU
100
AcDbMText
 10
52381.89352870432
 20
50236.62315284769
 30
0.0
 40
10.5
 41
0.0
 71
     9
 72
     5
  1

1001
ACAD
1000
MTEXTBEGIN
1070
    73
1070
     1
1070
    44
1040
1.0
1070
    74
1070
     0
1000
MTEXTEND
  0
MTEXT
  5
568B
330
1A
100
AcDbEntity
  8
SUNPOU
100
AcDbMText
 10
54325.30077541374
 20
48435.57407296968
 30
0.0
 40
3.5
 41
0.0
 71
     9
 72
     5
  1

1001
ACAD
1000
MTEXTBEGIN
1070
    73
1070
     1
1070
    44
1040
1.0
1070
    74
1070
     0
1000
MTEXTEND
  0
MTEXT
  5
568C
330
1A
100
AcDbEntity
  8
SUNPOU
100
AcDbMText
 10
85451.48060803343
 20
90930.51974062703
 30
0.0
 40
10.5
 41
0.0
 71
     9
 72
     5
  1

1001
ACAD
1000
MTEXTBEGIN
1070
    73
1070
     1
1070
    44
1040
1.0
1070
    74
1070
     0
1000
MTEXTEND
  0
MTEXT
  5
568D
330
1A
100
AcDbEntity
  8
SUNPOU
100
AcDbMText
 10
87394.88785474286
 20
89129.47066074901
 30
0.0
 40
3.5
 41
0.0
 71
     9
 72
     5
  1

1001
ACAD
1000
MTEXTBEGIN
1070
    73
1070
     1
1070
    44
1040
1.0
1070
    74
1070
     0
1000
MTEXTEND
  0
MTEXT
  5
568E
330
1A
100
AcDbEntity
  8
SUNPOU
100
AcDbMText
 10
35891.74831382901
 20
36763.68489560208
 30
0.0
 40
10.5
 41
0.0
 71
     9
 72
     5
  1

1001
ACAD
1000
MTEXTBEGIN
1070
    73
1070
     1
1070
    44
1040
1.0
1070
    74
1070
     0
1000
MTEXTEND
  0
MTEXT
  5
568F
330
1A
100
AcDbEntity
  8
SUNPOU
100
AcDbMText
 10
21943.74821345303
 20
17591.28575648986
 30
0.0
 40
3.5
 41
0.0
 71
     7
 72
     5
  1

1001
ACAD
1000
MTEXTBEGIN
1070
    73
1070
     1
1070
    44
1040
1.0
1070
    74
1070
     0
1000
MTEXTEND
  0
MTEXT
  5
15EA4
330
1A
100
AcDbEntity
  8
ZISSEN1
100
AcDbMText
 10
-1567.591557284904
 20
2440.951493653008
 30
0.0
 40
5.0
 41
108.3598999999999
 71
     1
 72
     5
  1
GD-5610v1 No.SS0001f129
1001
ACAD
1000
MTEXTBEGIN
1070
    73
1070
     1
1070
    44
1040
1.0
1070
    74
1070
     0
1000
MTEXTEND
1000
MTEXTBEGIN
1070
    73
1070
     1
1070
    44
1040
1.0
1070
    74
1070
     0
1000
MTEXTEND
1000
MTEXTBEGIN
1070
    73
1070
     1
1070
    44
1040
1.0
1070
    74
1070
     0
1000
MTEXTEND
1000
MTEXTBEGIN
1070
    73
1070
     1
1070
    44
1040
1.0
1070
    74
1070
     0
1000
MTEXTEND
  0
DIMENSION
  5
16CC2
330
1A
100
AcDbEntity
  8
SUNPOU
 48
0.5
100
AcDbDimension
  2
*D0
 10
-1542.12561178144
 20
2188.749019567411
 30
0.0
 11
-1515.62561178144
 21
2191.499019567411
 31
0.0
 70
    32
  3
標準スタイル
100
AcDbAlignedDimension
 13
-1489.12561178144
 23
2253.249019567431
 33
0.0
 14
-1542.12561178144
 24
2234.24901956743
 34
0.0
100
AcDbRotatedDimension
1001
ACAD
1000
DSTYLE
1002
{
1070
   340
1005
10
1070
    40
1040
1.0
1002
}
  0
DIMENSION
  5
16CC3
330
1A
100
AcDbEntity
  8
SUNPOU
 48
0.5
100
AcDbDimension
  2
*D1
 10
-1525.62561178144
 20
2198.749019567411
 30
0.0
 11
-1515.62561178144
 21
2201.499019567412
 31
0.0
 70
    32
  3
標準スタイル
100
AcDbAlignedDimension
 13
-1505.62561178144
 23
2220.249019567412
 33
0.0
 14
-1525.62561178144
 24
2220.249019567412
 34
0.0
100
AcDbRotatedDimension
1001
ACAD
1000
DSTYLE
1002
{
1070
   340
1005
10
1070
    40
1040
1.0
1002
}
  0
LINE
  5
16CC4
330
1A
100
AcDbEntity
  8
CL1
 48
0.5
100
AcDbLine
 10
-1509.12561178144
 20
2223.749019567411
 30
0.0
 11
-1502.12561178144
 21
2223.749019567411
 31
0.0
  0
LINE
  5
16CC5
330
1A
100
AcDbEntity
  8
CL1
 48
0.5
100
AcDbLine
 10
-1505.62561178144
 20
2220.249019567412
 30
0.0
 11
-1505.62561178144
 21
2227.249019567412
 31
0.0
  0
LINE
  5
16CC6
330
1A
100
AcDbEntity
  8
CL1
 48
0.5
100
AcDbLine
 10
-1529.12561178144
 20
2223.749019567411
 30
0.0
 11
-1522.12561178144
 21
2223.749019567411
 31
0.0
  0
LINE
  5
16CC7
330
1A
100
AcDbEntity
  8
CL1
 48
0.5
100
AcDbLine
 10
-1525.62561178144
 20
2220.249019567412
 30
0.0
 11
-1525.62561178144
 21
2227.249019567412
 31
0.0
  0
LINE
  5
16CC8
330
1A
100
AcDbEntity
  8
CL1
 48
0.5
100
AcDbLine
 10
-1509.125611781439
 20
2383.749019567412
 30
0.0
 11
-1502.12561178144
 21
2383.749019567412
 31
0.0
  0
LINE
  5
16CC9
330
1A
100
AcDbEntity
  8
CL1
 48
0.5
100
AcDbLine
 10
-1505.625611781439
 20
2380.249019567411
 30
0.0
 11
-1505.625611781439
 21
2387.249019567411
 31
0.0
  0
LINE
  5
16CCA
330
1A
100
AcDbEntity
  8
CL1
 48
0.5
100
AcDbLine
 10
-1529.12561178144
 20
2383.749019567412
 30
0.0
 11
-1522.12561178144
 21
2383.749019567412
 31
0.0
  0
LINE
  5
16CCB
330
1A
100
AcDbEntity
  8
CL1
 48
0.5
100
AcDbLine
 10
-1525.62561178144
 20
2380.249019567411
 30
0.0
 11
-1525.62561178144
 21
2387.249019567411
 31
0.0
  0
DIMENSION
  5
16CCC
330
1A
100
AcDbEntity
  8
SUNPOU
 48
0.5
100
AcDbDimension
  2
*D2
 10
-1505.62561178144
 20
2198.749019567411
 30
0.0
 11
-1497.37561178144
 21
2201.499019567412
 31
0.0
 70
    32
  3
標準スタイル
100
AcDbAlignedDimension
 13
-1489.12561178144
 23
2253.249019567431
 33
0.0
 14
-1505.62561178144
 24
2220.249019567412
 34
0.0
100
AcDbRotatedDimension
1001
ACAD
1000
DSTYLE
1002
{
1070
   340
1005
10
1070
    40
1040
1.0
1002
}
  0
DIMENSION
  5
16CCE
330
1A
100
AcDbEntity
  8
SUNPOU
 48
0.5
100
AcDbDimension
  2
*D3
 10
-1486.12561178144
 20
2188.749019567411
 30
0.0
 11
-1475.62561178144
 21
2191.499019567411
 31
0.0
 70
    32
  1
(<>)
  3
標準スタイル
100
AcDbAlignedDimension
 13
-1489.12561178144
 23
2253.249019567431
 33
0.0
 14
-1486.12561178144
 24
2258.249019567411
 34
0.0
100
AcDbRotatedDimension
1001
ACAD
1000
DSTYLE
1002
{
1070
   340
1005
10
1070
    40
1040
1.0
1002
}
  0
DIMENSION
  5
16CCF
330
1A
100
AcDbEntity
  8
SUNPOU
 48
0.5
100
AcDbDimension
  2
*D4
 10
-1545.12561178144
 20
2188.749019567411
 30
0.0
 11
-1555.62561178144
 21
2191.499019567411
 31
0.0
 70
    32
  1
(<>)
  3
標準スタイル
100
AcDbAlignedDimension
 13
-1542.12561178144
 23
2234.24901956743
 33
0.0
 14
-1545.12561178144
 24
2248.749019567411
 34
0.0
100
AcDbRotatedDimension
1001
ACAD
1000
DSTYLE
1002
{
1070
   340
1005
10
1070
    40
1040
1.0
1002
}
  0
DIMENSION
  5
16CD0
330
1A
100
AcDbEntity
  8
SUNPOU
 48
0.5
100
AcDbDimension
  2
*D5
 10
-1545.12561178144
 20
2178.749019567411
 30
0.0
 11
-1515.62561178144
 21
2181.499019567411
 31
0.0
 70
    32
  1
(<>)
  3
標準スタイル
100
AcDbAlignedDimension
 13
-1486.12561178144
 23
2258.249019567411
 33
0.0
 14
-1545.12561178144
 24
2248.749019567411
 34
0.0
100
AcDbRotatedDimension
1001
ACAD
1000
DSTYLE
1002
{
1070
   340
1005
10
1070
    40
1040
1.0
1002
}
  0
DIMENSION
  5
16CD1
330
1A
100
AcDbEntity
  8
SUNPOU
 48
0.5
100
AcDbDimension
  2
*D6
 10
-1534.12561178144
 20
2208.749019567411
 30
0.0
 11
-1515.62561178144
 21
2211.499019567412
 31
0.0
 70
    32
  3
標準スタイル
100
AcDbAlignedDimension
 13
-1497.12561178144
 23
2220.749019567411
 33
0.0
 14
-1534.12561178144
 24
2220.749019567411
 34
0.0
100
AcDbRotatedDimension
1001
ACAD
1000
DSTYLE
1002
{
1070
   340
1005
10
1070
    40
1040
1.0
1002
}
  0
DIMENSION
  5
16CD2
330
1A
100
AcDbEntity
  8
SUNPOU
 48
0.5
100
AcDbDimension
  2
*D7
 10
-1476.12561178144
 20
2223.749019567411
 30
0.0
 11
-1478.87561178144
 21
2303.749019567411
 31
0.0
 70
    32
  3
標準スタイル
100
AcDbAlignedDimension
 13
-1502.12561178144
 23
2383.749019567412
 33
0.0
 14
-1502.12561178144
 24
2223.749019567411
 34
0.0
 50
270.0
100
AcDbRotatedDimension
1001
ACAD
1000
DSTYLE
1002
{
1070
   340
1005
10
1070
    40
1040
1.0
1002
}
  0
DIMENSION
  5
16CD3
330
1A
100
AcDbEntity
  8
SUNPOU
 48
0.5
100
AcDbDimension
  2
*D8
 10
-1475.927427889142
 20
2383.749019567412
 30
0.0
 11
-1475.927427889142
 21
2399.249019567411
 31
0.0
 70
   160
  1
(<>)
  3
標準スタイル
100
AcDbAlignedDimension
 13
-1499.12561178144
 23
2388.749019567411
 33
0.0
 14
-1502.12561178144
 24
2383.749019567412
 34
0.0
 50
270.0
100
AcDbRotatedDimension
1001
ACAD
1000
DSTYLE
1002
{
1070
   340
1005
10
1070
    40
1040
1.0
1002
}
  0
DIMENSION
  5
16CD4
330
1A
100
AcDbEntity
  8
SUNPOU
 48
0.5
100
AcDbDimension
  2
*D9
 10
-1476.128059363858
 20
2223.749019567411
 30
0.0
 11
-1476.128059363858
 21
2208.249019567411
 31
0.0
 70
   160
  1
(<>)
  3
標準スタイル
100
AcDbAlignedDimension
 13
-1499.12561178144
 23
2218.749019567411
 33
0.0
 14
-1502.12561178144
 24
2223.749019567411
 34
0.0
 50
270.0
100
AcDbRotatedDimension
1001
ACAD
1000
DSTYLE
1002
{
1070
   340
1005
10
1070
    40
1040
1.0
1002
}
  0
DIMENSION
  5
16CD6
330
1A
100
AcDbEntity
  8
SUNPOU
 48
0.5
100
AcDbDimension
  2
*D10
 10
-1527.87561178144
 20
2398.749019567412
 30
0.0
 11
-1538.37561178144
 21
2401.499019567411
 31
0.0
 70
    32
  3
標準スタイル
100
AcDbAlignedDimension
 13
-1523.37561178144
 23
2388.749019567411
 33
0.0
 14
-1527.87561178144
 24
2388.749019567411
 34
0.0
100
AcDbRotatedDimension
1001
ACAD
1000
DSTYLE
1002
{
1070
   340
1005
10
1070
    40
1040
1.0
1002
}
  0
DIMENSION
  5
16CD7
330
1A
100
AcDbEntity
  8
SUNPOU
 48
0.5
100
AcDbDimension
  2
*D11
 10
-1625.093751777614
 20
2208.749019567408
 30
0.0
 11
-1692.593751777614
 21
2211.499019567408
 31
0.0
 70
    32
  3
標準スタイル
100
AcDbAlignedDimension
 13
-1760.093751777614
 23
2218.749019567408
 33
0.0
 14
-1625.093751777614
 24
2232.749019567408
 34
0.0
100
AcDbRotatedDimension
1001
ACAD
1000
DSTYLE
1002
{
1070
   340
1005
10
1070
    40
1040
1.0
1002
}
  0
DIMENSION
  5
16CD8
330
1A
100
AcDbEntity
  8
SUNPOU
 48
0.5
100
AcDbDimension
  2
*D12
 10
-1610.593751777614
 20
2208.749019567408
 30
0.0
 11
-1599.593751777614
 21
2211.499019567408
 31
0.0
 70
    32
  1
(<>)
  3
標準スタイル
100
AcDbAlignedDimension
 13
-1625.093751777614
 23
2232.749019567408
 33
0.0
 14
-1610.593751777614
 24
2243.209019567408
 34
0.0
100
AcDbRotatedDimension
1001
ACAD
1000
DSTYLE
1002
{
1070
   340
1005
10
1070
    40
1040
1.0
1002
}
  0
DIMENSION
  5
16CD9
330
1A
100
AcDbEntity
  8
SUNPOU
 48
0.5
100
AcDbDimension
  2
*D13
 10
-1760.093751777614
 20
2198.749019567408
 30
0.0
 11
-1685.343751777614
 21
2201.499019567408
 31
0.0
 70
    32
  1
(<>)
  3
標準スタイル
100
AcDbAlignedDimension
 13
-1610.593751777614
 23
2243.209019567408
 33
0.0
 14
-1760.093751777614
 24
2218.749019567408
 34
0.0
100
AcDbRotatedDimension
1001
ACAD
1000
DSTYLE
1002
{
1070
   340
1005
10
1070
    40
1040
1.0
1002
}
  0
DIMENSION
  5
16CDA
330
1A
100
AcDbEntity
  8
SUNPOU
 48
0.5
100
AcDbDimension
  2
*D14
 10
-1577.103528874873
 20
2388.749019567408
 30
0.0
 11
-1577.103528874873
 21
2303.749019567408
 31
0.0
 70
   160
  3
標準スタイル
100
AcDbAlignedDimension
 13
-1757.093751777614
 23
2218.749019567408
 33
0.0
 14
-1757.093751777614
 24
2388.749019567408
 34
0.0
 50
270.0
100
AcDbRotatedDimension
1001
ACAD
1000
DSTYLE
1002
{
1070
   340
1005
10
1070
    40
1040
1.0
1002
}
  0
DIMENSION
  5
16CDB
330
1A
100
AcDbEntity
  8
SUNPOU
 48
0.5
100
AcDbDimension
  2
*D15
 10
-1592.689750063251
 20
2374.749019567408
 30
0.0
 11
-1592.689750063251
 21
2303.749019567408
 31
0.0
 70
   160
  3
標準スタイル
100
AcDbAlignedDimension
 13
-1625.093751777614
 23
2232.749019567408
 33
0.0
 14
-1625.093751777614
 24
2374.749019567408
 34
0.0
 50
270.0
100
AcDbRotatedDimension
1001
ACAD
1000
DSTYLE
1002
{
1070
   340
1005
10
1070
    40
1040
1.0
1002
}
  0
DIMENSION
  5
16CDC
330
1A
100
AcDbEntity
  8
SUNPOU
 48
0.5
100
AcDbDimension
  2
*D16
 10
-1592.689750063251
 20
2232.749019567408
 30
0.0
 11
-1595.439750063251
 21
2225.749019567408
 31
0.0
 70
    32
  3
標準スタイル
100
AcDbAlignedDimension
 13
-1757.093751777614
 23
2218.749019567408
 33
0.0
 14
-1625.093751777614
 24
2232.749019567408
 34
0.0
 50
270.0
100
AcDbRotatedDimension
1001
ACAD
1000
DSTYLE
1002
{
1070
   340
1005
10
1070
    40
1040
1.0
1002
}
  0
DIMENSION
  5
16CDD
330
1A
100
AcDbEntity
  8
SUNPOU
 48
0.5
100
AcDbDimension
  2
*D17
 10
-1592.689750063251
 20
2374.749019567408
 30
0.0
 11
-1595.439750063251
 21
2381.749019567408
 31
0.0
 70
    32
  3
標準スタイル
100
AcDbAlignedDimension
 13
-1757.093751777614
 23
2388.749019567408
 33
0.0
 14
-1625.093751777614
 24
2374.749019567408
 34
0.0
 50
270.0
100
AcDbRotatedDimension
1001
ACAD
1000
DSTYLE
1002
{
1070
   340
1005
10
1070
    40
1040
1.0
1002
}
  0
DIMENSION
  5
16CDE
330
1A
100
AcDbEntity
  8
SUNPOU
 48
0.5
100
AcDbDimension
  2
*D18
 10
-1599.005155422435
 20
2498.671122630905
 30
0.0
 11
-1601.755155422436
 21
2469.171122630904
 31
0.0
 70
    32
  1
(<>)
  3
標準スタイル
100
AcDbAlignedDimension
 13
-1728.005155422436
 23
2439.671122630905
 33
0.0
 14
-1622.505155422436
 24
2498.671122630905
 34
0.0
 50
270.0
100
AcDbRotatedDimension
1001
ACAD
1000
DSTYLE
1002
{
1070
   340
1005
10
1070
    40
1040
1.0
1002
}
  0
LINE
  5
16CDF
330
1A
100
AcDbEntity
  8
ZISSEN1
 48
0.5
100
AcDbLine
 10
-1625.093751777614
 20
2374.749019567408
 30
0.0
 11
-1625.093751777614
 21
2232.749019567408
 31
0.0
  0
LINE
  5
16CE0
330
1A
100
AcDbEntity
  8
ZISSEN1
 48
0.5
100
AcDbLine
 10
-1626.593751777614
 20
2374.749019567408
 30
0.0
 11
-1757.093751777614
 21
2374.749019567408
 31
0.0
  0
LINE
  5
16CE8
330
1A
100
AcDbEntity
  8
ZISSEN1
 48
0.5
100
AcDbLine
 10
-1626.593751777614
 20
2374.749019567408
 30
0.0
 11
-1625.093751777614
 21
2374.749019567408
 31
0.0
  0
LINE
  5
16CEA
330
1A
100
AcDbEntity
  8
ZISSEN1
 48
0.5
100
AcDbLine
 10
-1625.093751777614
 20
2374.749019567408
 30
0.0
 11
-1626.593751777614
 21
2374.749019567408
 31
0.0
  0
ARC
  5
16CF1
330
1A
100
AcDbEntity
  8
ZISSEN1
 48
0.5
100
AcDbCircle
 10
-1626.593751777614
 20
2494.171122630905
 30
0.0
 40
1.5
100
AcDbArc
 50
0.0
 51
89.99999999999998
  0
ARC
  5
16CF2
330
1A
100
AcDbEntity
  8
ZISSEN1
 48
0.5
100
AcDbCircle
 10
-1626.593751777615
 20
2444.171122630905
 30
0.0
 40
1.500000000000227
100
AcDbArc
 50
270.0
 51
0.0
  0
LINE
  5
16CF3
330
1A
100
AcDbEntity
  8
ZISSEN1
 48
0.5
100
AcDbLine
 10
-1757.093751777614
 20
2444.171122630905
 30
0.0
 11
-1628.093751777614
 21
2444.171122630905
 31
0.0
  0
LINE
  5
16CF4
330
1A
100
AcDbEntity
  8
ZISSEN1
 48
0.5
100
AcDbLine
 10
-1638.093751777614
 20
2495.671122630905
 30
0.0
 11
-1638.093751777614
 21
2494.171122630905
 31
0.0
  0
LINE
  5
16CF5
330
1A
100
AcDbEntity
  8
ZISSEN1
 48
0.5
100
AcDbLine
 10
-1638.093751777614
 20
2495.671122630905
 30
0.0
 11
-1626.593751777614
 21
2495.671122630905
 31
0.0
  0
LINE
  5
16CF6
330
1A
100
AcDbEntity
  8
ZISSEN1
 48
0.5
100
AcDbLine
 10
-1625.093751777614
 20
2494.171122630905
 30
0.0
 11
-1625.093751777614
 21
2444.171122630905
 31
0.0
  0
LINE
  5
16CF7
330
1A
100
AcDbEntity
  8
ZISSEN1
 48
0.5
100
AcDbLine
 10
-1626.593751777615
 20
2444.171122630905
 30
0.0
 11
-1626.593751777614
 21
2494.171122630905
 31
0.0
  0
LINE
  5
16CF8
330
1A
100
AcDbEntity
  8
ZISSEN1
 48
0.5
100
AcDbLine
 10
-1626.593751777614
 20
2494.171122630905
 30
0.0
 11
-1691.093751777614
 21
2494.171122630905
 31
0.0
  0
LINE
  5
16CF9
330
1A
100
AcDbEntity
  8
ZISSEN1
 48
0.5
100
AcDbLine
 10
-1627.093751777614
 20
2489.671122630904
 30
0.0
 11
-1627.093751777614
 21
2445.171122630904
 31
0.0
  0
LINE
  5
16CFA
330
1A
100
AcDbEntity
  8
ZISSEN1
 48
0.5
100
AcDbLine
 10
-1724.093751777615
 20
2496.171122630904
 30
0.0
 11
-1724.093751777615
 21
2490.671122630905
 31
0.0
  0
LINE
  5
16CFB
330
1A
100
AcDbEntity
  8
ZISSEN1
 48
0.5
100
AcDbLine
 10
-1691.093751777614
 20
2496.171122630904
 30
0.0
 11
-1691.093751777614
 21
2490.671122630905
 31
0.0
  0
LINE
  5
16CFC
330
1A
100
AcDbEntity
  8
ZISSEN1
 48
0.5
100
AcDbLine
 10
-1724.093751777615
 20
2490.671122630905
 30
0.0
 11
-1756.093751777615
 21
2490.671122630905
 31
0.0
  0
LINE
  5
16CFD
330
1A
100
AcDbEntity
  8
ZISSEN1
 48
0.5
100
AcDbLine
 10
-1691.093751777614
 20
2490.671122630905
 30
0.0
 11
-1628.093751777614
 21
2490.671122630905
 31
0.0
  0
LINE
  5
16CFE
330
1A
100
AcDbEntity
  8
ZISSEN1
 48
0.5
100
AcDbLine
 10
-1626.593751777615
 20
2444.171122630905
 30
0.0
 11
-1628.093751777614
 21
2444.171122630905
 31
0.0
  0
LINE
  5
16CFF
330
1A
100
AcDbEntity
  8
ZISSEN1
 48
0.5
100
AcDbLine
 10
-1631.593751777614
 20
2491.171122630905
 30
0.0
 11
-1630.093751777614
 21
2491.171122630905
 31
0.0
  0
LINE
  5
16D00
330
1A
100
AcDbEntity
  8
ZISSEN1
 48
0.5
100
AcDbLine
 10
-1637.093751777614
 20
2495.671122630905
 30
0.0
 11
-1637.093751777614
 21
2494.171122630905
 31
0.0
  0
LINE
  5
16D01
330
1A
100
AcDbEntity
  8
ZISSEN1
 48
0.5
100
AcDbLine
 10
-1628.093751777614
 20
2490.671122630905
 30
0.0
 11
-1627.093751777614
 21
2489.671122630904
 31
0.0
  0
LINE
  5
16D02
330
1A
100
AcDbEntity
  8
ZISSEN1
 48
0.5
100
AcDbLine
 10
-1756.093751777615
 20
2490.671122630905
 30
0.0
 11
-1757.093751777614
 21
2489.671122630904
 31
0.0
  0
LINE
  5
16D03
330
1A
100
AcDbEntity
  8
ZISSEN1
 48
0.5
100
AcDbLine
 10
-1626.593751777615
 20
2444.671122630905
 30
0.0
 11
-1625.093751777614
 21
2444.671122630905
 31
0.0
  0
LINE
  5
16D04
330
1A
100
AcDbEntity
  8
ZISSEN1
 48
0.5
100
AcDbLine
 10
-1628.093751777615
 20
2444.171122630905
 30
0.0
 11
-1628.093751777615
 21
2442.671122630905
 31
0.0
  0
ARC
  5
16D05
330
1A
100
AcDbEntity
  8
ZISSEN1
 48
0.5
100
AcDbCircle
 10
-1627.093751777614
 20
2444.171122630905
 30
0.0
 40
1.000000000000028
100
AcDbArc
 50
89.99999999999998
 51
180.0
  0
LINE
  5
16D06
330
1A
100
AcDbEntity
  8
ZISSEN1
 48
0.5
100
AcDbLine
 10
-1542.125611781443
 20
2373.249019567431
 30
0.0
 11
-1542.12561178144
 21
2234.24901956743
 31
0.0
  0
ARC
  5
16D07
330
1A
100
AcDbEntity
  8
ZISSEN1
 48
0.5
100
AcDbCircle
 10
-1540.62561178144
 20
2234.249019567453
 30
0.0
 40
1.499999999999886
100
AcDbArc
 50
180.0
 51
270.0
  0
LINE
  5
16D08
330
1A
100
AcDbEntity
  8
ZISSEN1
 48
0.5
100
AcDbLine
 10
-1491.62561178144
 20
2374.749019567411
 30
0.0
 11
-1490.62561178144
 21
2373.749019567412
 31
0.0
  0
ARC
  5
16D09
330
1A
100
AcDbEntity
  8
ZISSEN1
 48
0.5
100
AcDbCircle
 10
-1540.62561178144
 20
2373.249019567434
 30
0.0
 40
1.499999999999943
100
AcDbArc
 50
89.99999999999998
 51
180.0
  0
LINE
  5
16D0A
330
1A
100
AcDbEntity
  8
ZISSEN1
 48
0.5
100
AcDbLine
 10
-1490.62561178144
 20
2232.749019567412
 30
0.0
 11
-1540.62561178144
 21
2232.749019567453
 31
0.0
  0
LINE
  5
16D0B
330
1A
100
AcDbEntity
  8
ZISSEN1
 48
0.5
100
AcDbLine
 10
-1490.62561178144
 20
2373.749019567412
 30
0.0
 11
-1490.62561178144
 21
2333.249019567431
 31
0.0
  0
LINE
  5
16D0C
330
1A
100
AcDbEntity
  8
ZISSEN1
 48
0.5
100
AcDbLine
 10
-1490.62561178144
 20
2233.749019567411
 30
0.0
 11
-1491.62561178144
 21
2232.749019567412
 31
0.0
  0
LINE
  5
16D0D
330
1A
100
AcDbEntity
  8
ZISSEN1
 48
0.5
100
AcDbLine
 10
-1540.62561178144
 20
2374.749019567431
 30
0.0
 11
-1490.12561178144
 21
2374.749019567431
 31
0.0
  0
LINE
  5
16D0E
330
1A
100
AcDbEntity
  8
ZISSEN1
 48
0.5
100
AcDbLine
 10
-1488.62561178144
 20
2373.249019567431
 30
0.0
 11
-1488.62561178144
 21
2361.24901956743
 31
0.0
  0
LINE
  5
16D0F
330
1A
100
AcDbEntity
  8
ZISSEN1
 48
0.5
100
AcDbLine
 10
-1488.62561178144
 20
2361.24901956743
 30
0.0
 11
-1490.12561178144
 21
2361.24901956743
 31
0.0
  0
LINE
  5
16D10
330
1A
100
AcDbEntity
  8
ZISSEN1
 48
0.5
100
AcDbLine
 10
-1490.12561178144
 20
2361.24901956743
 30
0.0
 11
-1490.12561178144
 21
2373.249019567431
 31
0.0
  0
LINE
  5
16D11
330
1A
100
AcDbEntity
  8
ZISSEN1
 48
0.5
100
AcDbLine
 10
-1490.12561178144
 20
2373.249019567431
 30
0.0
 11
-1490.62561178144
 21
2373.249019567431
 31
0.0
  0
ARC
  5
16D12
330
1A
100
AcDbEntity
  8
ZISSEN1
 48
0.5
100
AcDbCircle
 10
-1490.12561178144
 20
2373.249019567431
 30
0.0
 40
1.500000000000227
100
AcDbArc
 50
0.0
 51
89.99999999999998
  0
LINE
  5
16D13
330
1A
100
AcDbEntity
  8
ZISSEN1
 48
0.5
100
AcDbLine
 10
-1490.62561178144
 20
2333.249019567431
 30
0.0
 11
-1489.12561178144
 21
2333.249019567431
 31
0.0
  0
LINE
  5
16D14
330
1A
100
AcDbEntity
  8
ZISSEN1
 48
0.5
100
AcDbLine
 10
-1489.12561178144
 20
2333.249019567431
 30
0.0
 11
-1489.12561178144
 21
2253.249019567431
 31
0.0
  0
LINE
  5
16D15
330
1A
100
AcDbEntity
  8
ZISSEN1
 48
0.5
100
AcDbLine
 10
-1489.12561178144
 20
2253.249019567431
 30
0.0
 11
-1490.62561178144
 21
2253.249019567431
 31
0.0
  0
LINE
  5
16D16
330
1A
100
AcDbEntity
  8
ZISSEN1
 48
0.5
100
AcDbLine
 10
-1490.62561178144
 20
2253.249019567431
 30
0.0
 11
-1490.62561178144
 21
2233.749019567411
 31
0.0
  0
LINE
  5
16D17
330
1A
100
AcDbEntity
  8
ZISSEN1
 48
0.5
100
AcDbLine
 10
-1488.62561178144
 20
2362.249019567431
 30
0.0
 11
-1490.12561178144
 21
2362.249019567431
 31
0.0
  0
LINE
  5
16D18
330
1A
100
AcDbEntity
  8
ZISSEN1
 48
0.5
100
AcDbLine
 10
-1493.62561178144
 20
2271.749019567411
 30
0.0
 11
-1493.62561178144
 21
2314.749019567412
 31
0.0
  0
LINE
  5
16D19
330
1A
100
AcDbEntity
  8
ZISSEN1
 48
0.5
100
AcDbLine
 10
-1493.62561178144
 20
2271.749019567411
 30
0.0
 11
-1508.12561178144
 21
2271.749019567411
 31
0.0
  0
LINE
  5
16D1A
330
1A
100
AcDbEntity
  8
ZISSEN1
 48
0.5
100
AcDbLine
 10
-1508.12561178144
 20
2271.749019567411
 30
0.0
 11
-1508.12561178144
 21
2314.749019567412
 31
0.0
  0
LINE
  5
16D1B
330
1A
100
AcDbEntity
  8
ZISSEN1
 48
0.5
100
AcDbLine
 10
-1493.62561178144
 20
2314.749019567412
 30
0.0
 11
-1508.12561178144
 21
2314.749019567412
 31
0.0
  0
LWPOLYLINE
  5
16D1C
330
1A
100
AcDbEntity
  8
ZISSEN1
 48
0.5
100
AcDbPolyline
 90
        4
 70
     1
 43
0.0
 10
-1491.12561178144
 20
2314.749019567412
 10
-1491.12561178144
 20
2271.749019567411
 10
-1489.12561178144
 20
2271.749019567411
 10
-1489.12561178144
 20
2314.749019567412
  0
LINE
  5
16D1D
330
1A
100
AcDbEntity
  8
ZISSEN1
 48
0.5
100
AcDbLine
 10
-1490.62561178144
 20
2314.749019567412
 30
0.0
 11
-1490.62561178144
 21
2271.749019567411
 31
0.0
  0
LWPOLYLINE
  5
16D1E
330
1A
100
AcDbEntity
  8
ZISSEN1
 48
0.5
100
AcDbPolyline
 90
        4
 70
     1
 43
0.0
 10
-1503.12561178144
 20
2241.749019567412
 10
-1503.12561178144
 20
2269.749019567411
 10
-1517.62561178144
 20
2269.749019567411
 10
-1517.62561178144
 20
2241.749019567412
  0
LINE
  5
16D1F
330
1A
100
AcDbEntity
  8
ZISSEN1
 48
0.5
100
AcDbLine
 10
-1531.12561178144
 20
2253.249019567431
 30
0.0
 11
-1525.62561178144
 21
2253.249019567431
 31
0.0
  0
LINE
  5
16D20
330
1A
100
AcDbEntity
  8
ZISSEN1
 48
0.5
100
AcDbLine
 10
-1531.12561178144
 20
2253.249019567431
 30
0.0
 11
-1531.12561178144
 21
2276.249017371085
 31
0.0
  0
LINE
  5
16D21
330
1A
100
AcDbEntity
  8
ZISSEN1
 48
0.5
100
AcDbLine
 10
-1525.62561178144
 20
2253.249019567431
 30
0.0
 11
-1525.62561178144
 21
2302.249017371085
 31
0.0
  0
LINE
  5
16D22
330
1A
100
AcDbEntity
  8
ZISSEN1
 48
0.5
100
AcDbLine
 10
-1530.12561178144
 20
2302.249017371085
 30
0.0
 11
-1525.62561178144
 21
2302.249017371085
 31
0.0
  0
LINE
  5
16D23
330
1A
100
AcDbEntity
  8
ZISSEN1
 48
0.5
100
AcDbLine
 10
-1530.12561178144
 20
2302.249017371085
 30
0.0
 11
-1530.125611781439
 21
2276.249017371085
 31
0.0
  0
LINE
  5
16D24
330
1A
100
AcDbEntity
  8
ZISSEN1
 48
0.5
100
AcDbLine
 10
-1530.125611781439
 20
2276.249017371085
 30
0.0
 11
-1531.12561178144
 21
2276.249017371085
 31
0.0
  0
LWPOLYLINE
  5
16D25
330
1A
100
AcDbEntity
  8
ZISSEN1
 48
0.5
100
AcDbPolyline
 90
        4
 70
     1
 43
0.0
 10
-1523.12561178144
 20
2351.24901956743
 10
-1523.12561178144
 20
2316.24901956743
 10
-1533.12561178144
 20
2316.24901956743
 10
-1533.12561178144
 20
2351.24901956743
  0
LWPOLYLINE
  5
16D26
330
1A
100
AcDbEntity
  8
ZISSEN1
 48
0.5
100
AcDbPolyline
 90
        4
 70
     1
 43
0.0
 10
-1533.12561178144
 20
2305.249019567431
 10
-1529.12561178144
 20
2305.249019567431
 10
-1529.12561178144
 20
2311.24901956743
 10
-1533.12561178144
 20
2311.24901956743
  0
ARC
  5
16D27
330
1A
100
AcDbEntity
  8
ZISSEN1
 48
0.5
100
AcDbCircle
 10
-1542.125611781441
 20
2232.749019567453
 30
0.0
 40
1.5
100
AcDbArc
 50
0.0
 51
89.99999999999998
  0
ARC
  5
16D28
330
1A
100
AcDbEntity
  8
ZISSEN1
 48
0.5
100
AcDbCircle
 10
-1542.12561178144
 20
2374.749019567434
 30
0.0
 40
1.5
100
AcDbArc
 50
270.0
 51
0.0
  0
LINE
  5
16D29
330
1A
100
AcDbEntity
  8
ZISSEN1
 48
0.5
100
AcDbLine
 10
-1497.12561178144
 20
2386.749019567412
 30
0.0
 11
-1497.12561178144
 21
2374.749019567431
 31
0.0
  0
LINE
  5
16D2A
330
1A
100
AcDbEntity
  8
ZISSEN1
 48
0.5
100
AcDbLine
 10
-1497.125611781437
 20
2232.749019567417
 30
0.0
 11
-1497.12561178144
 21
2220.749019567411
 31
0.0
  0
LINE
  5
16D2B
330
1A
100
AcDbEntity
  8
ZISSEN1
 48
0.5
100
AcDbLine
 10
-1497.12561178144
 20
2220.749019567411
 30
0.0
 11
-1499.12561178144
 21
2218.749019567411
 31
0.0
  0
LINE
  5
16D2C
330
1A
100
AcDbEntity
  8
ZISSEN1
 48
0.5
100
AcDbLine
 10
-1499.12561178144
 20
2218.749019567411
 30
0.0
 11
-1503.37561178144
 21
2218.749019567411
 31
0.0
  0
LINE
  5
16D2D
330
1A
100
AcDbEntity
  8
ZISSEN1
 48
0.5
100
AcDbLine
 10
-1503.37561178144
 20
2218.749019567411
 30
0.0
 11
-1503.37561178144
 21
2224.249019567412
 31
0.0
  0
LINE
  5
16D2E
330
1A
100
AcDbEntity
  8
ZISSEN1
 48
0.5
100
AcDbLine
 10
-1507.87561178144
 20
2224.249019567412
 30
0.0
 11
-1507.87561178144
 21
2218.749019567411
 31
0.0
  0
LINE
  5
16D2F
330
1A
100
AcDbEntity
  8
ZISSEN1
 48
0.5
100
AcDbLine
 10
-1507.87561178144
 20
2218.749019567411
 30
0.0
 11
-1523.37561178144
 21
2218.749019567411
 31
0.0
  0
LINE
  5
16D30
330
1A
100
AcDbEntity
  8
ZISSEN1
 48
0.5
100
AcDbLine
 10
-1523.37561178144
 20
2218.749019567411
 30
0.0
 11
-1523.37561178144
 21
2224.249019567412
 31
0.0
  0
LINE
  5
16D31
330
1A
100
AcDbEntity
  8
ZISSEN1
 48
0.5
100
AcDbLine
 10
-1527.87561178144
 20
2224.249019567412
 30
0.0
 11
-1527.87561178144
 21
2218.749019567411
 31
0.0
  0
LINE
  5
16D32
330
1A
100
AcDbEntity
  8
ZISSEN1
 48
0.5
100
AcDbLine
 10
-1527.87561178144
 20
2218.749019567411
 30
0.0
 11
-1532.12561178144
 21
2218.749019567411
 31
0.0
  0
LINE
  5
16D33
330
1A
100
AcDbEntity
  8
ZISSEN1
 48
0.5
100
AcDbLine
 10
-1532.12561178144
 20
2218.749019567411
 30
0.0
 11
-1534.12561178144
 21
2220.749019567411
 31
0.0
  0
LINE
  5
16D34
330
1A
100
AcDbEntity
  8
ZISSEN1
 48
0.5
100
AcDbLine
 10
-1534.12561178144
 20
2374.749019567431
 30
0.0
 11
-1534.12561178144
 21
2386.749019567412
 31
0.0
  0
LINE
  5
16D35
330
1A
100
AcDbEntity
  8
ZISSEN1
 48
0.5
100
AcDbLine
 10
-1534.12561178144
 20
2386.749019567412
 30
0.0
 11
-1532.12561178144
 21
2388.749019567411
 31
0.0
  0
LINE
  5
16D36
330
1A
100
AcDbEntity
  8
ZISSEN1
 48
0.5
100
AcDbLine
 10
-1532.12561178144
 20
2388.749019567411
 30
0.0
 11
-1527.87561178144
 21
2388.749019567411
 31
0.0
  0
LINE
  5
16D37
330
1A
100
AcDbEntity
  8
ZISSEN1
 48
0.5
100
AcDbLine
 10
-1527.87561178144
 20
2388.749019567411
 30
0.0
 11
-1527.87561178144
 21
2383.249019567411
 31
0.0
  0
LINE
  5
16D38
330
1A
100
AcDbEntity
  8
ZISSEN1
 48
0.5
100
AcDbLine
 10
-1523.37561178144
 20
2383.249019567411
 30
0.0
 11
-1523.37561178144
 21
2388.749019567411
 31
0.0
  0
LINE
  5
16D39
330
1A
100
AcDbEntity
  8
ZISSEN1
 48
0.5
100
AcDbLine
 10
-1523.37561178144
 20
2388.749019567411
 30
0.0
 11
-1499.12561178144
 21
2388.749019567411
 31
0.0
  0
LINE
  5
16D3A
330
1A
100
AcDbEntity
  8
ZISSEN1
 48
0.5
100
AcDbLine
 10
-1499.12561178144
 20
2388.749019567411
 30
0.0
 11
-1497.12561178144
 21
2386.749019567412
 31
0.0
  0
ARC
  5
16D3B
330
1A
100
AcDbEntity
  8
ZISSEN1
 48
0.5
100
AcDbCircle
 10
-1525.62561178144
 20
2383.249019567411
 30
0.0
 40
2.25
100
AcDbArc
 50
180.0
 51
0.0
  0
ARC
  5
16D3C
330
1A
100
AcDbEntity
  8
ZISSEN1
 48
0.5
100
AcDbCircle
 10
-1505.62561178144
 20
2224.249019567412
 30
0.0
 40
2.25
100
AcDbArc
 50
0.0
 51
180.0
  0
ARC
  5
16D3D
330
1A
100
AcDbEntity
  8
ZISSEN1
 48
0.5
100
AcDbCircle
 10
-1525.62561178144
 20
2224.249019567412
 30
0.0
 40
2.25
100
AcDbArc
 50
0.0
 51
180.0
  0
LINE
  5
16D3E
330
1A
100
AcDbEntity
  8
ZISSEN1
 48
0.5
100
AcDbLine
 10
-1757.093751777614
 20
2388.749019567408
 30
0.0
 11
-1760.093751777614
 21
2388.749019567408
 31
0.0
  0
LINE
  5
16D3F
330
1A
100
AcDbEntity
  8
ZISSEN1
 48
0.5
100
AcDbLine
 10
-1760.093751777614
 20
2388.749019567408
 30
0.0
 11
-1760.093751777614
 21
2218.749019567408
 31
0.0
  0
LINE
  5
16D40
330
1A
100
AcDbEntity
  8
ZISSEN1
 48
0.5
100
AcDbLine
 10
-1760.093751777614
 20
2218.749019567408
 30
0.0
 11
-1757.093751777614
 21
2218.749019567408
 31
0.0
  0
LINE
  5
16D41
330
1A
100
AcDbEntity
  8
ZISSEN1
 48
0.5
100
AcDbLine
 10
-1757.093751777614
 20
2218.749019567408
 30
0.0
 11
-1757.093751777614
 21
2388.749019567408
 31
0.0
  0
LINE
  5
16D42
330
1A
100
AcDbEntity
  8
ZISSEN1
 48
0.5
100
AcDbLine
 10
-1625.093751777614
 20
2232.749019567408
 30
0.0
 11
-1757.093751777614
 21
2232.749019567408
 31
0.0
  0
LINE
  5
16D43
330
1A
100
AcDbEntity
  8
ZISSEN1
 48
0.5
100
AcDbLine
 10
-1757.093751777614
 20
2220.749019567408
 30
0.0
 11
-1760.093751777614
 21
2220.749019567408
 31
0.0
  0
LINE
  5
16D44
330
1A
100
AcDbEntity
  8
ZISSEN1
 48
0.5
100
AcDbLine
 10
-1757.093751777614
 20
2386.749019567408
 30
0.0
 11
-1760.093751777614
 21
2386.749019567408
 31
0.0
  0
LINE
  5
16D45
330
1A
100
AcDbEntity
  8
ZISSEN1
 48
0.5
100
AcDbLine
 10
-1760.093751777614
 20
2491.171122630905
 30
0.0
 11
-1760.093751777614
 21
2447.171122630905
 31
0.0
  0
LINE
  5
16D46
330
1A
100
AcDbEntity
  8
ZISSEN1
 48
0.5
100
AcDbLine
 10
-1757.093751777614
 20
2442.671122630905
 30
0.0
 11
-1757.093751777614
 21
2491.171122630905
 31
0.0
  0
LINE
  5
16D47
330
1A
100
AcDbEntity
  8
ZISSEN1
 48
0.5
100
AcDbLine
 10
-1627.593751777614
 20
2491.171122630905
 30
0.0
 11
-1627.593751777614
 21
2494.171122630905
 31
0.0
  0
ARC
  5
16D48
330
1A
100
AcDbEntity
  8
ZISSEN1
 48
0.5
100
AcDbCircle
 10
-1757.093751777614
 20
2447.171122630905
 30
0.0
 40
3.0
100
AcDbArc
 50
180.0
 51
270.0
  0
ARC
  5
16D4B
330
1A
100
AcDbEntity
  8
ZISSEN1
 48
0.5
100
AcDbCircle
 10
-1757.093751777614
 20
2491.171122630905
 30
0.0
 40
3.000000000000056
100
AcDbArc
 50
89.99999999999998
 51
180.0
  0
LINE
  5
16D4D
330
1A
100
AcDbEntity
  8
ZISSEN1
 48
0.5
100
AcDbLine
 10
-1760.093751777614
 20
2456.921122630905
 30
0.0
 11
-1757.093751777614
 21
2456.921122630905
 31
0.0
  0
LINE
  5
16D4E
330
1A
100
AcDbEntity
  8
ZISSEN1
 48
0.5
100
AcDbLine
 10
-1760.093751777614
 20
2461.421122630905
 30
0.0
 11
-1757.093751777614
 21
2461.421122630905
 31
0.0
  0
LINE
  5
16D52
330
1A
100
AcDbEntity
  8
ZISSEN1
 48
0.5
100
AcDbLine
 10
-1724.593751777614
 20
2494.171122630905
 30
0.0
 11
-1724.593751777614
 21
2491.171122630905
 31
0.0
  0
LINE
  5
16D53
330
1A
100
AcDbEntity
  8
ZISSEN1
 48
0.5
100
AcDbLine
 10
-1690.593751777614
 20
2494.171122630904
 30
0.0
 11
-1690.593751777614
 21
2491.171122630905
 31
0.0
  0
LINE
  5
16D5C
330
1A
100
AcDbEntity
  8
ZISSEN1
 48
0.5
100
AcDbLine
 10
-1490.62561178144
 20
2232.749019567412
 30
0.0
 11
-1490.62561178144
 21
2233.749019567411
 31
0.0
  0
LINE
  5
16D5D
330
1A
100
AcDbEntity
  8
ZISSEN1
 48
0.5
100
AcDbLine
 10
-1757.093751777614
 20
2491.171122630905
 30
0.0
 11
-1724.093751777615
 21
2491.171122630905
 31
0.0
  0
LINE
  5
16D5E
330
1A
100
AcDbEntity
  8
ZISSEN1
 48
0.5
100
AcDbLine
 10
-1691.093751777614
 20
2491.171122630905
 30
0.0
 11
-1626.593751777614
 21
2491.171122630905
 31
0.0
  0
LINE
  5
16D5F
330
1A
100
AcDbEntity
  8
ZISSEN1
 48
0.5
100
AcDbLine
 10
-1724.093751777615
 20
2494.171122630904
 30
0.0
 11
-1757.093751777614
 21
2494.171122630905
 31
0.0
  0
LINE
  5
16D60
330
1A
100
AcDbEntity
  8
ZISSEN1
 48
0.5
100
AcDbLine
 10
-1489.12561178144
 20
2325.099019567411
 30
0.0
 11
-1489.12561178144
 21
2331.399019567411
 31
0.0
  0
LINE
  5
16D61
330
1A
100
AcDbEntity
  8
ZISSEN1
 48
0.5
100
AcDbLine
 10
-1489.12561178144
 20
2325.099019567411
 30
0.0
 11
-1488.129417083347
 21
2325.186175310159
 31
0.0
  0
LINE
  5
16D62
330
1A
100
AcDbEntity
  8
ZISSEN1
 48
0.5
100
AcDbLine
 10
-1489.12561178144
 20
2331.399019567411
 30
0.0
 11
-1488.129417083347
 21
2331.311863824664
 31
0.0
  0
ARC
  5
16D63
330
1A
100
AcDbEntity
  8
ZISSEN1
 48
0.5
100
AcDbCircle
 10
-1492.300240770038
 20
2328.249019567412
 30
0.0
 40
5.174628988598421
100
AcDbArc
 50
323.7083018726678
 51
36.29169812733217
  0
LINE
  5
16D64
330
1A
100
AcDbEntity
  8
ZISSEN1
 48
0.5
100
AcDbLine
 10
-1489.12561178144
 20
2331.399019567411
 30
0.0
 11
-1489.12561178144
 21
2325.099019567411
 31
0.0
  0
LINE
  5
16D65
330
1A
100
AcDbEntity
  8
ZISSEN1
 48
0.5
100
AcDbLine
 10
-1488.22561178144
 20
2261.399019567411
 30
0.0
 11
-1488.22561178144
 21
2255.099019567411
 31
0.0
  0
LINE
  5
16D66
330
1A
100
AcDbEntity
  8
ZISSEN1
 48
0.5
100
AcDbLine
 10
-1488.22561178144
 20
2261.399019567411
 30
0.0
 11
-1487.229417083348
 21
2261.311863824664
 31
0.0
  0
LINE
  5
16D67
330
1A
100
AcDbEntity
  8
ZISSEN1
 48
0.5
100
AcDbLine
 10
-1488.22561178144
 20
2255.099019567411
 30
0.0
 11
-1487.229417083348
 21
2255.186175310159
 31
0.0
  0
ARC
  5
16D68
330
1A
100
AcDbEntity
  8
ZISSEN1
 48
0.5
100
AcDbCircle
 10
-1491.400240770039
 20
2258.249019567412
 30
0.0
 40
5.174628988598421
100
AcDbArc
 50
323.7083018726678
 51
36.29169812733217
  0
LINE
  5
16D69
330
1A
100
AcDbEntity
  8
ZISSEN1
 48
0.5
100
AcDbLine
 10
-1488.22561178144
 20
2255.099019567412
 30
0.0
 11
-1488.22561178144
 21
2261.399019567412
 31
0.0
  0
LWPOLYLINE
  5
16D6A
330
1A
100
AcDbEntity
  8
ZISSEN1
 48
0.5
100
AcDbPolyline
 90
        4
 70
     1
 43
0.0
 10
-1489.12561178144
 20
2254.999019567411
 10
-1488.22561178144
 20
2254.999019567411
 10
-1488.22561178144
 20
2261.499019567411
 10
-1489.12561178144
 20
2261.499019567411
  0
LINE
  5
16D6B
330
1A
100
AcDbEntity
  8
ZISSEN1
 48
0.5
100
AcDbLine
 10
-1489.12561178144
 20
2261.188151312328
 30
0.0
 11
-1488.22561178144
 21
2261.188151312328
 31
0.0
  0
LINE
  5
16D6C
330
1A
100
AcDbEntity
  8
ZISSEN1
 48
0.5
100
AcDbLine
 10
-1489.12561178144
 20
2260.938602686411
 30
0.0
 11
-1488.22561178144
 21
2260.938602686411
 31
0.0
  0
LINE
  5
16D6D
330
1A
100
AcDbEntity
  8
ZISSEN1
 48
0.5
100
AcDbLine
 10
-1489.12561178144
 20
2260.089781315941
 30
0.0
 11
-1488.22561178144
 21
2260.089781315941
 31
0.0
  0
LINE
  5
16D6E
330
1A
100
AcDbEntity
  8
ZISSEN1
 48
0.5
100
AcDbLine
 10
-1489.12561178144
 20
2259.657513773166
 30
0.0
 11
-1488.22561178144
 21
2259.657513773166
 31
0.0
  0
LINE
  5
16D6F
330
1A
100
AcDbEntity
  8
ZISSEN1
 48
0.5
100
AcDbLine
 10
-1489.12561178144
 20
2259.148263979572
 30
0.0
 11
-1488.22561178144
 21
2259.148263979572
 31
0.0
  0
LINE
  5
16D70
330
1A
100
AcDbEntity
  8
ZISSEN1
 48
0.5
100
AcDbLine
 10
-1489.12561178144
 20
2258.640754701587
 30
0.0
 11
-1488.22561178144
 21
2258.640754701587
 31
0.0
  0
LINE
  5
16D71
330
1A
100
AcDbEntity
  8
ZISSEN1
 48
0.5
100
AcDbLine
 10
-1489.12561178144
 20
2258.498180844745
 30
0.0
 11
-1488.22561178144
 21
2258.498180844745
 31
0.0
  0
LINE
  5
16D72
330
1A
100
AcDbEntity
  8
ZISSEN1
 48
0.5
100
AcDbLine
 10
-1489.12561178144
 20
2257.999026585307
 30
0.0
 11
-1488.22561178144
 21
2257.999026585307
 31
0.0
  0
LINE
  5
16D73
330
1A
100
AcDbEntity
  8
ZISSEN1
 48
0.5
100
AcDbLine
 10
-1489.12561178144
 20
2257.861451951136
 30
0.0
 11
-1488.22561178144
 21
2257.861451951136
 31
0.0
  0
LINE
  5
16D74
330
1A
100
AcDbEntity
  8
ZISSEN1
 48
0.5
100
AcDbLine
 10
-1489.12561178144
 20
2257.348961125509
 30
0.0
 11
-1488.22561178144
 21
2257.348961125509
 31
0.0
  0
LINE
  5
16D75
330
1A
100
AcDbEntity
  8
ZISSEN1
 48
0.5
100
AcDbLine
 10
-1489.12561178144
 20
2256.83981795967
 30
0.0
 11
-1488.22561178144
 21
2256.83981795967
 31
0.0
  0
LINE
  5
16D76
330
1A
100
AcDbEntity
  8
ZISSEN1
 48
0.5
100
AcDbLine
 10
-1489.12561178144
 20
2256.407513773166
 30
0.0
 11
-1488.22561178144
 21
2256.407513773166
 31
0.0
  0
LINE
  5
16D77
330
1A
100
AcDbEntity
  8
ZISSEN1
 48
0.5
100
AcDbLine
 10
-1489.12561178144
 20
2256.303367170826
 30
0.0
 11
-1488.22561178144
 21
2256.303367170826
 31
0.0
  0
LINE
  5
16D78
330
1A
100
AcDbEntity
  8
ZISSEN1
 48
0.5
100
AcDbLine
 10
-1489.12561178144
 20
2255.559049656528
 30
0.0
 11
-1488.22561178144
 21
2255.559049656528
 31
0.0
  0
LINE
  5
16D79
330
1A
100
AcDbEntity
  8
ZISSEN1
 48
0.5
100
AcDbLine
 10
-1489.12561178144
 20
2255.309437561812
 30
0.0
 11
-1488.22561178144
 21
2255.309437561812
 31
0.0
  0
LINE
  5
16D7A
330
1A
100
AcDbEntity
  8
ZISSEN1
 48
0.5
100
AcDbLine
 10
-1489.12561178144
 20
2260.194124343139
 30
0.0
 11
-1488.22561178144
 21
2260.194124343139
 31
0.0
  0
LINE
  5
16D7B
330
1A
100
AcDbEntity
  8
ZISSEN1
 48
0.5
100
AcDbLine
 10
-1542.125611781441
 20
2252.899019567411
 30
0.0
 11
-1542.125611781441
 21
2246.599019567411
 31
0.0
  0
LINE
  5
16D7C
330
1A
100
AcDbEntity
  8
ZISSEN1
 48
0.5
100
AcDbLine
 10
-1542.125611781441
 20
2252.899019567411
 30
0.0
 11
-1543.121806479532
 21
2252.811863824664
 31
0.0
  0
LINE
  5
16D7D
330
1A
100
AcDbEntity
  8
ZISSEN1
 48
0.5
100
AcDbLine
 10
-1542.125611781441
 20
2246.599019567411
 30
0.0
 11
-1543.121806479532
 21
2246.686175310159
 31
0.0
  0
ARC
  5
16D7E
330
1A
100
AcDbEntity
  8
ZISSEN1
 48
0.5
100
AcDbCircle
 10
-1538.950982792842
 20
2249.749019567412
 30
0.0
 40
5.174628988598421
100
AcDbArc
 50
143.7083018726678
 51
216.2916981273322
  0
LINE
  5
16D7F
330
1A
100
AcDbEntity
  8
ZISSEN1
 48
0.5
100
AcDbLine
 10
-1542.12561178144
 20
2246.599019567411
 30
0.0
 11
-1542.12561178144
 21
2252.899019567411
 31
0.0
  0
LINE
  5
16D80
330
1A
100
AcDbEntity
  8
ZISSEN1
 48
0.5
100
AcDbLine
 10
-1542.125611781442
 20
2329.899019567411
 30
0.0
 11
-1542.125611781442
 21
2323.599019567411
 31
0.0
  0
LINE
  5
16D81
330
1A
100
AcDbEntity
  8
ZISSEN1
 48
0.5
100
AcDbLine
 10
-1542.125611781442
 20
2329.899019567411
 30
0.0
 11
-1543.121806479534
 21
2329.811863824664
 31
0.0
  0
LINE
  5
16D82
330
1A
100
AcDbEntity
  8
ZISSEN1
 48
0.5
100
AcDbLine
 10
-1542.125611781442
 20
2323.599019567411
 30
0.0
 11
-1543.121806479534
 21
2323.686175310159
 31
0.0
  0
ARC
  5
16D83
330
1A
100
AcDbEntity
  8
ZISSEN1
 48
0.5
100
AcDbCircle
 10
-1538.950982792844
 20
2326.749019567411
 30
0.0
 40
5.174628988598421
100
AcDbArc
 50
143.7083018726678
 51
216.2916981273322
  0
LINE
  5
16D84
330
1A
100
AcDbEntity
  8
ZISSEN1
 48
0.5
100
AcDbLine
 10
-1542.125611781442
 20
2323.599019567411
 30
0.0
 11
-1542.125611781442
 21
2329.899019567411
 31
0.0
  0
LINE
  5
16D85
330
1A
100
AcDbEntity
  8
ZISSEN1
 48
0.5
100
AcDbLine
 10
-1635.743751777614
 20
2495.671122630905
 30
0.0
 11
-1629.443751777614
 21
2495.671122630905
 31
0.0
  0
LINE
  5
16D86
330
1A
100
AcDbEntity
  8
ZISSEN1
 48
0.5
100
AcDbLine
 10
-1635.743751777614
 20
2495.671122630905
 30
0.0
 11
-1635.656596034866
 21
2496.667317328997
 31
0.0
  0
LINE
  5
16D87
330
1A
100
AcDbEntity
  8
ZISSEN1
 48
0.5
100
AcDbLine
 10
-1629.443751777614
 20
2495.671122630905
 30
0.0
 11
-1629.530907520361
 21
2496.667317328997
 31
0.0
  0
ARC
  5
16D88
330
1A
100
AcDbEntity
  8
ZISSEN1
 48
0.5
100
AcDbCircle
 10
-1632.593751777614
 20
2492.496493642306
 30
0.0
 40
5.174628988598421
100
AcDbArc
 50
53.70830187266779
 51
126.2916981273321
  0
LINE
  5
16D89
330
1A
100
AcDbEntity
  8
ZISSEN1
 48
0.5
100
AcDbLine
 10
-1629.443751777615
 20
2495.671122630904
 30
0.0
 11
-1635.743751777614
 21
2495.671122630904
 31
0.0
  0
LINE
  5
16D8A
330
1A
100
AcDbEntity
  8
ZISSEN1
 48
0.5
100
AcDbLine
 10
-1629.443751777615
 20
2496.571122630905
 30
0.0
 11
-1629.530907520362
 21
2497.567317328997
 31
0.0
  0
LINE
  5
16D8B
330
1A
100
AcDbEntity
  8
ZISSEN1
 48
0.5
100
AcDbLine
 10
-1635.743751777615
 20
2496.571122630905
 30
0.0
 11
-1635.656596034867
 21
2497.567317328997
 31
0.0
  0
ARC
  5
16D8C
330
1A
100
AcDbEntity
  8
ZISSEN1
 48
0.5
100
AcDbCircle
 10
-1632.593751777615
 20
2493.396493642306
 30
0.0
 40
5.174628988598421
100
AcDbArc
 50
53.70830187266779
 51
126.2916981273321
  0
LINE
  5
16D8D
330
1A
100
AcDbEntity
  8
ZISSEN1
 48
0.5
100
AcDbLine
 10
-1629.522491574788
 20
2496.571122630904
 30
0.0
 11
-1629.343751777614
 21
2496.571122630904
 31
0.0
  0
LINE
  5
16D8E
330
1A
100
AcDbEntity
  8
ZISSEN1
 48
0.5
100
AcDbLine
 10
-1629.343751777614
 20
2496.571122630904
 30
0.0
 11
-1629.343751777614
 21
2495.671122630905
 31
0.0
  0
LINE
  5
16D8F
330
1A
100
AcDbEntity
  8
ZISSEN1
 48
0.5
100
AcDbLine
 10
-1629.343751777614
 20
2495.671122630905
 30
0.0
 11
-1629.443751777614
 21
2495.671122630905
 31
0.0
  0
LINE
  5
16D90
330
1A
100
AcDbEntity
  8
ZISSEN1
 48
0.5
100
AcDbLine
 10
-1635.743751777614
 20
2495.671122630905
 30
0.0
 11
-1635.843751777614
 21
2495.671122630904
 31
0.0
  0
LINE
  5
16D91
330
1A
100
AcDbEntity
  8
ZISSEN1
 48
0.5
100
AcDbLine
 10
-1635.843751777614
 20
2495.671122630904
 30
0.0
 11
-1635.843751777614
 21
2496.571122630904
 31
0.0
  0
LINE
  5
16D92
330
1A
100
AcDbEntity
  8
ZISSEN1
 48
0.5
100
AcDbLine
 10
-1635.843751777614
 20
2496.571122630904
 30
0.0
 11
-1635.665011980441
 21
2496.571122630904
 31
0.0
  0
CIRCLE
  5
16D93
330
1A
100
AcDbEntity
  8
ZISSEN1
 48
0.5
100
AcDbCircle
 10
-1738.093751777614
 20
2326.749019567408
 30
0.0
 40
3.149999999999999
  0
CIRCLE
  5
16DA0
330
1A
100
AcDbEntity
  8
ZISSEN1
 48
0.5
100
AcDbCircle
 10
-1738.093751777614
 20
2249.749019567408
 30
0.0
 40
3.149999999999999
  0
LINE
  5
16DAD
330
1A
100
AcDbEntity
  8
ZISSEN1
 48
0.5
100
AcDbLine
 10
-1734.943751777614
 20
2442.671122630905
 30
0.0
 11
-1741.243751777614
 21
2442.671122630905
 31
0.0
  0
LINE
  5
16DAE
330
1A
100
AcDbEntity
  8
ZISSEN1
 48
0.5
100
AcDbLine
 10
-1734.943751777614
 20
2442.671122630905
 30
0.0
 11
-1735.030907520361
 21
2441.674927932813
 31
0.0
  0
LINE
  5
16DAF
330
1A
100
AcDbEntity
  8
ZISSEN1
 48
0.5
100
AcDbLine
 10
-1741.243751777614
 20
2442.671122630905
 30
0.0
 11
-1741.156596034866
 21
2441.674927932813
 31
0.0
  0
ARC
  5
16DB0
330
1A
100
AcDbEntity
  8
ZISSEN1
 48
0.5
100
AcDbCircle
 10
-1738.093751777614
 20
2445.845751619503
 30
0.0
 40
5.174628988598421
100
AcDbArc
 50
233.7083018726678
 51
306.2916981273322
  0
LINE
  5
16DB1
330
1A
100
AcDbEntity
  8
ZISSEN1
 48
0.5
100
AcDbLine
 10
-1741.243751777613
 20
2442.671122630905
 30
0.0
 11
-1734.943751777613
 21
2442.671122630905
 31
0.0
  0
LINE
  5
16DB2
330
1A
100
AcDbEntity
  8
ZISSEN1
 48
0.5
100
AcDbLine
 10
-1493.92561178144
 20
2314.749019567412
 30
0.0
 11
-1493.92561178144
 21
2271.749019567411
 31
0.0
  0
LINE
  5
16DB3
330
1A
100
AcDbEntity
  8
ZISSEN1
 48
0.5
100
AcDbLine
 10
-1495.52561178144
 20
2314.749019567412
 30
0.0
 11
-1495.52561178144
 21
2271.749019567411
 31
0.0
  0
LINE
  5
16DB4
330
1A
100
AcDbEntity
  8
ZISSEN1
 48
0.5
100
AcDbLine
 10
-1495.52561178144
 20
2313.749019567411
 30
0.0
 11
-1493.92561178144
 21
2313.749019567411
 31
0.0
  0
LINE
  5
16DB5
330
1A
100
AcDbEntity
  8
ZISSEN1
 48
0.5
100
AcDbLine
 10
-1495.52561178144
 20
2312.749019567411
 30
0.0
 11
-1493.92561178144
 21
2312.749019567411
 31
0.0
  0
LINE
  5
16DB6
330
1A
100
AcDbEntity
  8
ZISSEN1
 48
0.5
100
AcDbLine
 10
-1495.52561178144
 20
2272.749019567411
 30
0.0
 11
-1493.92561178144
 21
2272.749019567411
 31
0.0
  0
LINE
  5
16DB7
330
1A
100
AcDbEntity
  8
ZISSEN1
 48
0.5
100
AcDbLine
 10
-1495.52561178144
 20
2273.749019567412
 30
0.0
 11
-1493.92561178144
 21
2273.749019567412
 31
0.0
  0
LINE
  5
16DB8
330
1A
100
AcDbEntity
  8
ZISSEN1
 48
0.5
100
AcDbLine
 10
-1505.12561178144
 20
2269.749019567411
 30
0.0
 11
-1505.12561178144
 21
2241.749019567412
 31
0.0
  0
LINE
  5
16DB9
330
1A
100
AcDbEntity
  8
ZISSEN1
 48
0.5
100
AcDbLine
 10
-1503.52561178144
 20
2241.749019567412
 30
0.0
 11
-1503.52561178144
 21
2269.749019567411
 31
0.0
  0
LINE
  5
16DBA
330
1A
100
AcDbEntity
  8
ZISSEN1
 48
0.5
100
AcDbLine
 10
-1505.12561178144
 20
2268.749019567411
 30
0.0
 11
-1503.52561178144
 21
2268.749019567411
 31
0.0
  0
LINE
  5
16DBB
330
1A
100
AcDbEntity
  8
ZISSEN1
 48
0.5
100
AcDbLine
 10
-1505.12561178144
 20
2267.749019567411
 30
0.0
 11
-1503.52561178144
 21
2267.749019567411
 31
0.0
  0
LINE
  5
16DBC
330
1A
100
AcDbEntity
  8
ZISSEN1
 48
0.5
100
AcDbLine
 10
-1503.52561178144
 20
2243.749019567411
 30
0.0
 11
-1505.12561178144
 21
2243.749019567411
 31
0.0
  0
LINE
  5
16DBD
330
1A
100
AcDbEntity
  8
ZISSEN1
 48
0.5
100
AcDbLine
 10
-1505.12561178144
 20
2242.749019567412
 30
0.0
 11
-1503.52561178144
 21
2242.749019567412
 31
0.0
  0
LINE
  5
16DBE
330
1A
100
AcDbEntity
  8
ZISSEN1
 48
0.5
100
AcDbLine
 10
-1532.62561178144
 20
2351.24901956743
 30
0.0
 11
-1532.62561178144
 21
2316.24901956743
 31
0.0
  0
LINE
  5
16DBF
330
1A
100
AcDbEntity
  8
ZISSEN1
 48
0.5
100
AcDbLine
 10
-1532.62561178144
 20
2311.24901956743
 30
0.0
 11
-1532.62561178144
 21
2305.249019567431
 31
0.0
  0
LINE
  5
16DC0
330
1A
100
AcDbEntity
  8
ZISSEN1
 48
0.5
100
AcDbLine
 10
-1625.093751777614
 20
2477.771122630905
 30
0.0
 11
-1624.093751777613
 21
2478.771122630905
 31
0.0
  0
LINE
  5
16DC1
330
1A
100
AcDbEntity
  8
ZISSEN1
 48
0.5
100
AcDbLine
 10
-1625.093751777614
 20
2488.771122630904
 30
0.0
 11
-1624.093751777613
 21
2487.771122630904
 31
0.0
  0
LINE
  5
16DC2
330
1A
100
AcDbEntity
  8
ZISSEN1
 48
0.5
100
AcDbLine
 10
-1624.093751777613
 20
2487.771122630904
 30
0.0
 11
-1621.593751777614
 21
2487.771122630904
 31
0.0
  0
LINE
  5
16DC3
330
1A
100
AcDbEntity
  8
ZISSEN1
 48
0.5
100
AcDbLine
 10
-1624.093751777613
 20
2478.771122630905
 30
0.0
 11
-1621.593751777614
 21
2478.771122630905
 31
0.0
  0
LINE
  5
16DC4
330
1A
100
AcDbEntity
  8
ZISSEN1
 48
0.5
100
AcDbLine
 10
-1615.093751777614
 20
2489.271122630904
 30
0.0
 11
-1614.593751777614
 21
2488.271122630905
 31
0.0
  0
ARC
  5
16DC5
330
1A
100
AcDbEntity
  8
ZISSEN1
 48
0.5
100
AcDbCircle
 10
-1613.174201962025
 20
2488.690672446493
 30
0.0
 40
0.5804501844113475
100
AcDbArc
 50
359.9999999999478
 51
119.9999999999972
  0
LINE
  5
16DC6
330
1A
100
AcDbEntity
  8
ZISSEN1
 48
0.5
100
AcDbLine
 10
-1613.464427054231
 20
2489.193357051824
 30
0.0
 11
-1614.593751777614
 21
2488.271122630905
 31
0.0
  0
LINE
  5
16DC7
330
1A
100
AcDbEntity
  8
ZISSEN1
 48
0.5
100
AcDbLine
 10
-1614.014769008146
 20
2488.730794298064
 30
0.0
 11
-1614.593751777614
 21
2489.271122630904
 31
0.0
  0
ARC
  5
16DC8
330
1A
100
AcDbEntity
  8
ZISSEN1
 48
0.5
100
AcDbCircle
 10
-1613.193751777615
 20
2488.791122630905
 30
0.0
 40
1.479999999998432
100
AcDbArc
 50
18.92464441598643
 51
161.0753555839889
  0
LINE
  5
16DC9
330
1A
100
AcDbEntity
  8
ZISSEN1
 48
0.5
100
AcDbLine
 10
-1614.029089415923
 20
2488.732239841365
 30
0.0
 11
-1613.435392564113
 21
2489.271122630904
 31
0.0
  0
ARC
  5
16DCA
330
1A
100
AcDbEntity
  8
ZISSEN1
 48
0.5
100
AcDbCircle
 10
-1613.132753913957
 20
2488.823440893915
 30
0.0
 40
0.5403786544667506
100
AcDbArc
 50
25.33049306139468
 51
124.0592024972961
  0
ARC
  5
16DCB
330
1A
100
AcDbEntity
  8
ZISSEN1
 48
0.5
100
AcDbCircle
 10
-1631.109567772951
 20
2483.384659628331
 30
0.0
 40
19.31614967366757
100
AcDbArc
 50
359.6632233473306
 51
17.06974233324879
  0
ARC
  5
16DCC
330
1A
100
AcDbEntity
  8
ZISSEN1
 48
0.5
100
AcDbCircle
 10
-1629.379319845017
 20
2483.25686128634
 30
0.0
 40
18.58557353901287
100
AcDbArc
 50
0.0439650103806576
 51
18.88067939218596
  0
LINE
  5
16DCD
330
1A
100
AcDbEntity
  8
ZISSEN1
 48
0.5
100
AcDbLine
 10
-1615.093751777614
 20
2477.271122630582
 30
0.0
 11
-1614.593751777614
 21
2478.271122630582
 31
0.0
  0
ARC
  5
16DCE
330
1A
100
AcDbEntity
  8
ZISSEN1
 48
0.5
100
AcDbCircle
 10
-1613.174201962025
 20
2477.851572814994
 30
0.0
 40
0.5804501844113475
100
AcDbArc
 50
240.0000000000027
 51
0.0000000000781399
  0
LINE
  5
16DCF
330
1A
100
AcDbEntity
  8
ZISSEN1
 48
0.5
100
AcDbLine
 10
-1613.464427054231
 20
2477.348888209662
 30
0.0
 11
-1614.593751777614
 21
2478.271122630582
 31
0.0
  0
LINE
  5
16DD0
330
1A
100
AcDbEntity
  8
ZISSEN1
 48
0.5
100
AcDbLine
 10
-1614.014769008146
 20
2477.811450963423
 30
0.0
 11
-1614.593751777614
 21
2477.271122630582
 31
0.0
  0
ARC
  5
16DD1
330
1A
100
AcDbEntity
  8
ZISSEN1
 48
0.5
100
AcDbCircle
 10
-1613.193751777615
 20
2477.751122630581
 30
0.0
 40
1.479999999998432
100
AcDbArc
 50
198.9246444160111
 51
341.0753555840135
  0
LINE
  5
16DD2
330
1A
100
AcDbEntity
  8
ZISSEN1
 48
0.5
100
AcDbLine
 10
-1614.029089415923
 20
2477.810005420122
 30
0.0
 11
-1613.435392564113
 21
2477.271122630582
 31
0.0
  0
ARC
  5
16DD3
330
1A
100
AcDbEntity
  8
ZISSEN1
 48
0.5
100
AcDbCircle
 10
-1613.132753913957
 20
2477.718804367572
 30
0.0
 40
0.5403786544667506
100
AcDbArc
 50
235.9407975027038
 51
334.6695069386052
  0
ARC
  5
16DD4
330
1A
100
AcDbEntity
  8
ZISSEN1
 48
0.5
100
AcDbCircle
 10
-1631.109567772951
 20
2483.157585633156
 30
0.0
 40
19.31614967366757
100
AcDbArc
 50
342.9302576667511
 51
0.3367766526692899
  0
ARC
  5
16DD5
330
1A
100
AcDbEntity
  8
ZISSEN1
 48
0.5
100
AcDbCircle
 10
-1629.379319845017
 20
2483.285383975147
 30
0.0
 40
18.58557353901287
100
AcDbArc
 50
341.1193206078139
 51
359.9560349896193
  0
LINE
  5
16DD6
330
1A
100
AcDbEntity
  8
ZISSEN1
 48
0.5
100
AcDbLine
 10
-1615.093751777614
 20
2489.271122630904
 30
0.0
 11
-1625.093751777614
 21
2489.271122630904
 31
0.0
  0
LINE
  5
16DD7
330
1A
100
AcDbEntity
  8
ZISSEN1
 48
0.5
100
AcDbLine
 10
-1615.093751777614
 20
2477.271122630582
 30
0.0
 11
-1625.093751777614
 21
2477.271122630582
 31
0.0
  0
LINE
  5
16DD8
330
1A
100
AcDbEntity
  8
ZISSEN1
 48
0.5
100
AcDbLine
 10
-1621.593751777614
 20
2478.771122630905
 30
0.0
 11
-1621.593751777614
 21
2487.771122630904
 31
0.0
  0
LINE
  5
16DD9
330
1A
100
AcDbEntity
  8
ZISSEN1
 48
0.5
100
AcDbLine
 10
-1612.593751777614
 20
2477.851572814994
 30
0.0
 11
-1612.593751777614
 21
2488.690672446492
 31
0.0
  0
LINE
  5
16DDA
330
1A
100
AcDbEntity
  8
ZISSEN1
 48
0.5
100
AcDbLine
 10
-1625.093751777614
 20
2468.171122630904
 30
0.0
 11
-1624.093751777614
 21
2469.171122630905
 31
0.0
  0
LINE
  5
16DDB
330
1A
100
AcDbEntity
  8
ZISSEN1
 48
0.5
100
AcDbLine
 10
-1624.093751777614
 20
2469.171122630905
 30
0.0
 11
-1621.593751777614
 21
2469.171122630905
 31
0.0
  0
ARC
  5
16DDC
330
1A
100
AcDbEntity
  8
ZISSEN1
 48
0.5
100
AcDbCircle
 10
-1631.109567772915
 20
2473.784659628333
 30
0.0
 40
19.31614967363041
100
AcDbArc
 50
359.6632233473306
 51
9.072051284597153
  0
ARC
  5
16DDD
330
1A
100
AcDbEntity
  8
ZISSEN1
 48
0.5
100
AcDbCircle
 10
-1629.379319845009
 20
2473.656861286341
 30
0.0
 40
18.58557353900451
100
AcDbArc
 50
0.0439650103806576
 51
15.01264197444159
  0
LINE
  5
16DDE
330
1A
100
AcDbEntity
  8
ZISSEN1
 48
0.5
100
AcDbLine
 10
-1615.093751777614
 20
2467.671122630582
 30
0.0
 11
-1614.593751777614
 21
2468.671122630582
 31
0.0
  0
ARC
  5
16DDF
330
1A
100
AcDbEntity
  8
ZISSEN1
 48
0.5
100
AcDbCircle
 10
-1613.174201962025
 20
2468.251572814994
 30
0.0
 40
0.5804501844113475
100
AcDbArc
 50
240.0000000000027
 51
0.0000000000781399
  0
LINE
  5
16DE0
330
1A
100
AcDbEntity
  8
ZISSEN1
 48
0.5
100
AcDbLine
 10
-1613.464427054231
 20
2467.748888209662
 30
0.0
 11
-1614.593751777614
 21
2468.671122630582
 31
0.0
  0
LINE
  5
16DE1
330
1A
100
AcDbEntity
  8
ZISSEN1
 48
0.5
100
AcDbLine
 10
-1614.014769008146
 20
2468.211450963424
 30
0.0
 11
-1614.593751777614
 21
2467.671122630582
 31
0.0
  0
ARC
  5
16DE2
330
1A
100
AcDbEntity
  8
ZISSEN1
 48
0.5
100
AcDbCircle
 10
-1613.193751777616
 20
2468.151122630581
 30
0.0
 40
1.479999999998432
100
AcDbArc
 50
198.9246444160111
 51
341.0753555840135
  0
LINE
  5
16DE3
330
1A
100
AcDbEntity
  8
ZISSEN1
 48
0.5
100
AcDbLine
 10
-1614.029089415923
 20
2468.210005420123
 30
0.0
 11
-1613.435392564114
 21
2467.671122630582
 31
0.0
  0
ARC
  5
16DE4
330
1A
100
AcDbEntity
  8
ZISSEN1
 48
0.5
100
AcDbCircle
 10
-1613.132753913957
 20
2468.118804367573
 30
0.0
 40
0.5403786544667506
100
AcDbArc
 50
235.9407975027038
 51
334.6695069386052
  0
ARC
  5
16DE5
330
1A
100
AcDbEntity
  8
ZISSEN1
 48
0.5
100
AcDbCircle
 10
-1631.109567772951
 20
2473.557585633157
 30
0.0
 40
19.31614967366757
100
AcDbArc
 50
342.9302576667511
 51
0.3367766526692899
  0
ARC
  5
16DE6
330
1A
100
AcDbEntity
  8
ZISSEN1
 48
0.5
100
AcDbCircle
 10
-1629.379319845018
 20
2473.685383975147
 30
0.0
 40
18.58557353901287
100
AcDbArc
 50
341.1193206078139
 51
359.9560349896193
  0
LINE
  5
16DE7
330
1A
100
AcDbEntity
  8
ZISSEN1
 48
0.5
100
AcDbLine
 10
-1615.093751777614
 20
2467.671122630582
 30
0.0
 11
-1625.093751777614
 21
2467.671122630582
 31
0.0
  0
LINE
  5
16DE8
330
1A
100
AcDbEntity
  8
ZISSEN1
 48
0.5
100
AcDbLine
 10
-1621.593751777614
 20
2469.171122630905
 30
0.0
 11
-1621.593751777614
 21
2477.271122630582
 31
0.0
  0
LINE
  5
16DE9
330
1A
100
AcDbEntity
  8
ZISSEN1
 48
0.5
100
AcDbLine
 10
-1612.593751777614
 20
2468.251572814994
 30
0.0
 11
-1612.593751777614
 21
2476.39819986856
 31
0.0
  0
LINE
  5
16DEA
330
1A
100
AcDbEntity
  8
ZISSEN1
 48
0.5
100
AcDbLine
 10
-1625.093751777614
 20
2272.599019567408
 30
0.0
 11
-1621.593751777614
 21
2272.599019567408
 31
0.0
  0
LINE
  5
16DEB
330
1A
100
AcDbEntity
  8
ZISSEN1
 48
0.5
100
AcDbLine
 10
-1612.593751777614
 20
2290.049019567408
 30
0.0
 11
-1625.093751777613
 21
2290.049019567408
 31
0.0
  0
LINE
  5
16DEC
330
1A
100
AcDbEntity
  8
ZISSEN1
 48
0.5
100
AcDbLine
 10
-1612.593751777614
 20
2296.449019567408
 30
0.0
 11
-1625.093751777613
 21
2296.449019567408
 31
0.0
  0
LINE
  5
16DED
330
1A
100
AcDbEntity
  8
ZISSEN1
 48
0.5
100
AcDbLine
 10
-1612.593751777615
 20
2297.669019567408
 30
0.0
 11
-1625.093751777613
 21
2297.669019567408
 31
0.0
  0
LINE
  5
16DEE
330
1A
100
AcDbEntity
  8
ZISSEN1
 48
0.5
100
AcDbLine
 10
-1612.593751777615
 20
2304.069019567408
 30
0.0
 11
-1625.093751777613
 21
2304.069019567408
 31
0.0
  0
LINE
  5
16DEF
330
1A
100
AcDbEntity
  8
ZISSEN1
 48
0.5
100
AcDbLine
 10
-1612.593751777615
 20
2305.289019567408
 30
0.0
 11
-1625.093751777614
 21
2305.289019567408
 31
0.0
  0
LINE
  5
16DF0
330
1A
100
AcDbEntity
  8
ZISSEN1
 48
0.5
100
AcDbLine
 10
-1612.593751777614
 20
2311.689019567408
 30
0.0
 11
-1625.093751777614
 21
2311.689019567408
 31
0.0
  0
LINE
  5
16DF1
330
1A
100
AcDbEntity
  8
ZISSEN1
 48
0.5
100
AcDbLine
 10
-1612.593751777616
 20
2312.909019567408
 30
0.0
 11
-1625.093751777614
 21
2312.909019567408
 31
0.0
  0
LINE
  5
16DF2
330
1A
100
AcDbEntity
  8
ZISSEN1
 48
0.5
100
AcDbLine
 10
-1612.593751777615
 20
2282.429019567409
 30
0.0
 11
-1625.093751777613
 21
2282.429019567409
 31
0.0
  0
LINE
  5
16DF3
330
1A
100
AcDbEntity
  8
ZISSEN1
 48
0.5
100
AcDbLine
 10
-1612.593751777615
 20
2288.829019567408
 30
0.0
 11
-1625.093751777613
 21
2288.829019567408
 31
0.0
  0
LINE
  5
16DF4
330
1A
100
AcDbEntity
  8
ZISSEN1
 48
0.5
100
AcDbLine
 10
-1612.593751777615
 20
2281.209019567409
 30
0.0
 11
-1625.093751777613
 21
2281.209019567409
 31
0.0
  0
LINE
  5
16DF5
330
1A
100
AcDbEntity
  8
ZISSEN1
 48
0.5
100
AcDbLine
 10
-1612.593751777615
 20
2274.809019567409
 30
0.0
 11
-1625.093751777613
 21
2274.809019567409
 31
0.0
  0
LINE
  5
16DF6
330
1A
100
AcDbEntity
  8
ZISSEN1
 48
0.5
100
AcDbLine
 10
-1612.593751777615
 20
2273.589019567408
 30
0.0
 11
-1625.093751777613
 21
2273.589019567408
 31
0.0
  0
LINE
  5
16DF7
330
1A
100
AcDbEntity
  8
ZISSEN1
 48
0.5
100
AcDbLine
 10
-1625.093751777614
 20
2313.899019567408
 30
0.0
 11
-1621.593751777614
 21
2313.899019567408
 31
0.0
  0
LINE
  5
16DF8
330
1A
100
AcDbEntity
  8
ZISSEN1
 48
0.5
100
AcDbLine
 10
-1621.593751777614
 20
2313.899019567408
 30
0.0
 11
-1621.593751777614
 21
2312.909019567408
 31
0.0
  0
LINE
  5
16DF9
330
1A
100
AcDbEntity
  8
ZISSEN1
 48
0.5
100
AcDbLine
 10
-1621.593751777614
 20
2311.689019567408
 30
0.0
 11
-1621.593751777614
 21
2305.289019567408
 31
0.0
  0
LINE
  5
16DFA
330
1A
100
AcDbEntity
  8
ZISSEN1
 48
0.5
100
AcDbLine
 10
-1621.593751777614
 20
2304.069019567408
 30
0.0
 11
-1621.593751777614
 21
2297.669019567408
 31
0.0
  0
LINE
  5
16DFB
330
1A
100
AcDbEntity
  8
ZISSEN1
 48
0.5
100
AcDbLine
 10
-1621.593751777614
 20
2296.449019567408
 30
0.0
 11
-1621.593751777614
 21
2290.049019567408
 31
0.0
  0
LINE
  5
16DFC
330
1A
100
AcDbEntity
  8
ZISSEN1
 48
0.5
100
AcDbLine
 10
-1621.593751777614
 20
2288.829019567408
 30
0.0
 11
-1621.593751777614
 21
2282.429019567409
 31
0.0
  0
LINE
  5
16DFD
330
1A
100
AcDbEntity
  8
ZISSEN1
 48
0.5
100
AcDbLine
 10
-1621.593751777614
 20
2281.209019567409
 30
0.0
 11
-1621.593751777614
 21
2274.809019567409
 31
0.0
  0
LINE
  5
16DFE
330
1A
100
AcDbEntity
  8
ZISSEN1
 48
0.5
100
AcDbLine
 10
-1621.593751777614
 20
2273.589019567408
 30
0.0
 11
-1621.593751777614
 21
2272.599019567408
 31
0.0
  0
LINE
  5
16DFF
330
1A
100
AcDbEntity
  8
ZISSEN1
 48
0.5
100
AcDbLine
 10
-1620.593751777614
 20
2311.689019567408
 30
0.0
 11
-1620.593751777614
 21
2305.289019567408
 31
0.0
  0
LINE
  5
16E00
330
1A
100
AcDbEntity
  8
ZISSEN1
 48
0.5
100
AcDbLine
 10
-1620.593751777614
 20
2304.069019567408
 30
0.0
 11
-1620.593751777614
 21
2297.669019567408
 31
0.0
  0
LINE
  5
16E01
330
1A
100
AcDbEntity
  8
ZISSEN1
 48
0.5
100
AcDbLine
 10
-1620.593751777614
 20
2296.449019567408
 30
0.0
 11
-1620.593751777614
 21
2290.049019567408
 31
0.0
  0
LINE
  5
16E02
330
1A
100
AcDbEntity
  8
ZISSEN1
 48
0.5
100
AcDbLine
 10
-1620.593751777614
 20
2288.829019567408
 30
0.0
 11
-1620.593751777614
 21
2282.429019567409
 31
0.0
  0
LINE
  5
16E03
330
1A
100
AcDbEntity
  8
ZISSEN1
 48
0.5
100
AcDbLine
 10
-1620.593751777614
 20
2281.209019567409
 30
0.0
 11
-1620.593751777614
 21
2274.809019567409
 31
0.0
  0
LINE
  5
16E04
330
1A
100
AcDbEntity
  8
ZISSEN1
 48
0.5
100
AcDbLine
 10
-1612.593751777616
 20
2312.909019567408
 30
0.0
 11
-1612.593751777614
 21
2311.689019567408
 31
0.0
  0
LINE
  5
16E05
330
1A
100
AcDbEntity
  8
ZISSEN1
 48
0.5
100
AcDbLine
 10
-1612.593751777615
 20
2305.289019567408
 30
0.0
 11
-1612.593751777615
 21
2304.069019567408
 31
0.0
  0
LINE
  5
16E06
330
1A
100
AcDbEntity
  8
ZISSEN1
 48
0.5
100
AcDbLine
 10
-1612.593751777615
 20
2297.669019567408
 30
0.0
 11
-1612.593751777615
 21
2296.449019567408
 31
0.0
  0
LINE
  5
16E07
330
1A
100
AcDbEntity
  8
ZISSEN1
 48
0.5
100
AcDbLine
 10
-1612.593751777615
 20
2290.049019567408
 30
0.0
 11
-1612.593751777615
 21
2288.829019567408
 31
0.0
  0
LINE
  5
16E08
330
1A
100
AcDbEntity
  8
ZISSEN1
 48
0.5
100
AcDbLine
 10
-1612.593751777615
 20
2282.429019567409
 30
0.0
 11
-1612.593751777615
 21
2281.209019567409
 31
0.0
  0
LINE
  5
16E09
330
1A
100
AcDbEntity
  8
ZISSEN1
 48
0.5
100
AcDbLine
 10
-1612.593751777615
 20
2274.809019567409
 30
0.0
 11
-1612.593751777615
 21
2273.589019567408
 31
0.0
  0
LINE
  5
16E13
330
1A
100
AcDbEntity
  8
ZISSEN1
 48
0.5
100
AcDbLine
 10
-1620.593751777614
 20
2304.069019567408
 30
0.0
 11
-1620.593751777614
 21
2297.669019567408
 31
0.0
  0
LINE
  5
16E1D
330
1A
100
AcDbEntity
  8
ZISSEN1
 48
0.5
100
AcDbLine
 10
-1620.593751777614
 20
2296.449019567408
 30
0.0
 11
-1620.593751777614
 21
2290.049019567408
 31
0.0
  0
LINE
  5
16E27
330
1A
100
AcDbEntity
  8
ZISSEN1
 48
0.5
100
AcDbLine
 10
-1620.593751777614
 20
2288.829019567408
 30
0.0
 11
-1620.593751777614
 21
2282.429019567409
 31
0.0
  0
LINE
  5
16E31
330
1A
100
AcDbEntity
  8
ZISSEN1
 48
0.5
100
AcDbLine
 10
-1620.593751777614
 20
2281.209019567409
 30
0.0
 11
-1620.593751777614
 21
2274.809019567409
 31
0.0
  0
LINE
  5
16E3B
330
1A
100
AcDbEntity
  8
ZISSEN1
 48
0.5
100
AcDbLine
 10
-1610.793751777615
 20
2273.589019567408
 30
0.0
 11
-1610.793751777615
 21
2312.909019567408
 31
0.0
  0
LINE
  5
16E3C
330
1A
100
AcDbEntity
  8
ZISSEN1
 48
0.5
100
AcDbLine
 10
-1614.593751777615
 20
2273.589019567408
 30
0.0
 11
-1614.593751777615
 21
2312.909019567408
 31
0.0
  0
LINE
  5
16E3D
330
1A
100
AcDbEntity
  8
ZISSEN1
 48
0.5
100
AcDbLine
 10
-1614.593751777615
 20
2312.909019567408
 30
0.0
 11
-1610.793751777614
 21
2312.909019567408
 31
0.0
  0
LINE
  5
16E3E
330
1A
100
AcDbEntity
  8
ZISSEN1
 48
0.5
100
AcDbLine
 10
-1614.593751777615
 20
2273.589019567408
 30
0.0
 11
-1610.793751777614
 21
2273.589019567408
 31
0.0
  0
LINE
  5
16E3F
330
1A
100
AcDbEntity
  8
ZISSEN1
 48
0.5
100
AcDbLine
 10
-1612.593751777614
 20
2252.549019567408
 30
0.0
 11
-1625.093751777614
 21
2252.549019567408
 31
0.0
  0
LINE
  5
16E40
330
1A
100
AcDbEntity
  8
ZISSEN1
 48
0.5
100
AcDbLine
 10
-1612.593751777614
 20
2258.949019567408
 30
0.0
 11
-1625.093751777614
 21
2258.949019567408
 31
0.0
  0
LINE
  5
16E41
330
1A
100
AcDbEntity
  8
ZISSEN1
 48
0.5
100
AcDbLine
 10
-1612.593751777614
 20
2260.169019567408
 30
0.0
 11
-1625.093751777614
 21
2260.169019567408
 31
0.0
  0
LINE
  5
16E42
330
1A
100
AcDbEntity
  8
ZISSEN1
 48
0.5
100
AcDbLine
 10
-1612.593751777614
 20
2266.569019567408
 30
0.0
 11
-1625.093751777614
 21
2266.569019567408
 31
0.0
  0
LINE
  5
16E43
330
1A
100
AcDbEntity
  8
ZISSEN1
 48
0.5
100
AcDbLine
 10
-1612.593751777615
 20
2267.789019567408
 30
0.0
 11
-1625.093751777614
 21
2267.789019567408
 31
0.0
  0
LINE
  5
16E44
330
1A
100
AcDbEntity
  8
ZISSEN1
 48
0.5
100
AcDbLine
 10
-1612.593751777614
 20
2251.329019567408
 30
0.0
 11
-1625.093751777614
 21
2251.329019567408
 31
0.0
  0
LINE
  5
16E45
330
1A
100
AcDbEntity
  8
ZISSEN1
 48
0.5
100
AcDbLine
 10
-1612.593751777614
 20
2244.929019567408
 30
0.0
 11
-1625.093751777614
 21
2244.929019567408
 31
0.0
  0
LINE
  5
16E46
330
1A
100
AcDbEntity
  8
ZISSEN1
 48
0.5
100
AcDbLine
 10
-1612.593751777614
 20
2243.709019567408
 30
0.0
 11
-1625.093751777614
 21
2243.709019567408
 31
0.0
  0
LINE
  5
16E47
330
1A
100
AcDbEntity
  8
ZISSEN1
 48
0.5
100
AcDbLine
 10
-1621.593751777614
 20
2268.779019567408
 30
0.0
 11
-1621.593751777614
 21
2267.789019567408
 31
0.0
  0
LINE
  5
16E48
330
1A
100
AcDbEntity
  8
ZISSEN1
 48
0.5
100
AcDbLine
 10
-1621.593751777614
 20
2266.569019567408
 30
0.0
 11
-1621.593751777614
 21
2260.169019567408
 31
0.0
  0
LINE
  5
16E49
330
1A
100
AcDbEntity
  8
ZISSEN1
 48
0.5
100
AcDbLine
 10
-1621.593751777614
 20
2258.949019567408
 30
0.0
 11
-1621.593751777614
 21
2252.549019567408
 31
0.0
  0
LINE
  5
16E4A
330
1A
100
AcDbEntity
  8
ZISSEN1
 48
0.5
100
AcDbLine
 10
-1621.593751777614
 20
2251.329019567408
 30
0.0
 11
-1621.593751777614
 21
2244.929019567408
 31
0.0
  0
LINE
  5
16E4B
330
1A
100
AcDbEntity
  8
ZISSEN1
 48
0.5
100
AcDbLine
 10
-1621.593751777614
 20
2243.709019567408
 30
0.0
 11
-1621.593751777614
 21
2242.719019567408
 31
0.0
  0
LINE
  5
16E4C
330
1A
100
AcDbEntity
  8
ZISSEN1
 48
0.5
100
AcDbLine
 10
-1620.593751777613
 20
2266.569019567408
 30
0.0
 11
-1620.593751777613
 21
2260.169019567408
 31
0.0
  0
LINE
  5
16E4D
330
1A
100
AcDbEntity
  8
ZISSEN1
 48
0.5
100
AcDbLine
 10
-1620.593751777613
 20
2258.949019567408
 30
0.0
 11
-1620.593751777613
 21
2252.549019567408
 31
0.0
  0
LINE
  5
16E4E
330
1A
100
AcDbEntity
  8
ZISSEN1
 48
0.5
100
AcDbLine
 10
-1620.593751777613
 20
2251.329019567408
 30
0.0
 11
-1620.593751777613
 21
2244.929019567408
 31
0.0
  0
LINE
  5
16E4F
330
1A
100
AcDbEntity
  8
ZISSEN1
 48
0.5
100
AcDbLine
 10
-1612.593751777615
 20
2267.789019567408
 30
0.0
 11
-1612.593751777614
 21
2266.569019567408
 31
0.0
  0
LINE
  5
16E50
330
1A
100
AcDbEntity
  8
ZISSEN1
 48
0.5
100
AcDbLine
 10
-1612.593751777614
 20
2260.169019567408
 30
0.0
 11
-1612.593751777614
 21
2258.949019567408
 31
0.0
  0
LINE
  5
16E51
330
1A
100
AcDbEntity
  8
ZISSEN1
 48
0.5
100
AcDbLine
 10
-1612.593751777614
 20
2252.549019567408
 30
0.0
 11
-1612.593751777614
 21
2251.329019567408
 31
0.0
  0
LINE
  5
16E52
330
1A
100
AcDbEntity
  8
ZISSEN1
 48
0.5
100
AcDbLine
 10
-1612.593751777614
 20
2244.929019567408
 30
0.0
 11
-1612.593751777614
 21
2243.709019567408
 31
0.0
  0
LINE
  5
16E5B
330
1A
100
AcDbEntity
  8
ZISSEN1
 48
0.5
100
AcDbLine
 10
-1620.593751777613
 20
2258.949019567408
 30
0.0
 11
-1620.593751777613
 21
2252.549019567408
 31
0.0
  0
LINE
  5
16E64
330
1A
100
AcDbEntity
  8
ZISSEN1
 48
0.5
100
AcDbLine
 10
-1620.593751777613
 20
2251.329019567408
 30
0.0
 11
-1620.593751777613
 21
2244.929019567408
 31
0.0
  0
LINE
  5
16E6D
330
1A
100
AcDbEntity
  8
ZISSEN1
 48
0.5
100
AcDbLine
 10
-1610.793751777614
 20
2243.709019567408
 30
0.0
 11
-1610.793751777614
 21
2267.789019567408
 31
0.0
  0
LINE
  5
16E6E
330
1A
100
AcDbEntity
  8
ZISSEN1
 48
0.5
100
AcDbLine
 10
-1614.593751777615
 20
2243.709019567408
 30
0.0
 11
-1614.593751777615
 21
2267.789019567408
 31
0.0
  0
LINE
  5
16E6F
330
1A
100
AcDbEntity
  8
ZISSEN1
 48
0.5
100
AcDbLine
 10
-1614.593751777615
 20
2267.789019567408
 30
0.0
 11
-1610.793751777614
 21
2267.789019567408
 31
0.0
  0
LINE
  5
16E70
330
1A
100
AcDbEntity
  8
ZISSEN1
 48
0.5
100
AcDbLine
 10
-1614.593751777615
 20
2243.709019567408
 30
0.0
 11
-1610.793751777614
 21
2243.709019567408
 31
0.0
  0
LINE
  5
16E83
330
1A
100
AcDbEntity
  8
ZISSEN1
100
AcDbLine
 10
-1625.093751777614
 20
2242.719019567408
 30
0.0
 11
-1621.593751777614
 21
2242.719019567408
 31
0.0
  0
LINE
  5
16E84
330
1A
100
AcDbEntity
  8
ZISSEN1
100
AcDbLine
 10
-1612.593751777614
 20
2252.549019567408
 30
0.0
 11
-1625.093751777614
 21
2252.549019567408
 31
0.0
  0
LINE
  5
16E85
330
1A
100
AcDbEntity
  8
ZISSEN1
100
AcDbLine
 10
-1612.593751777614
 20
2258.949019567408
 30
0.0
 11
-1625.093751777614
 21
2258.949019567408
 31
0.0
  0
LINE
  5
16E86
330
1A
100
AcDbEntity
  8
ZISSEN1
100
AcDbLine
 10
-1612.593751777614
 20
2260.169019567408
 30
0.0
 11
-1625.093751777614
 21
2260.169019567408
 31
0.0
  0
LINE
  5
16E87
330
1A
100
AcDbEntity
  8
ZISSEN1
100
AcDbLine
 10
-1612.593751777614
 20
2266.569019567408
 30
0.0
 11
-1625.093751777614
 21
2266.569019567408
 31
0.0
  0
LINE
  5
16E88
330
1A
100
AcDbEntity
  8
ZISSEN1
100
AcDbLine
 10
-1612.593751777615
 20
2267.789019567408
 30
0.0
 11
-1625.093751777614
 21
2267.789019567408
 31
0.0
  0
LINE
  5
16E89
330
1A
100
AcDbEntity
  8
ZISSEN1
100
AcDbLine
 10
-1612.593751777614
 20
2251.329019567408
 30
0.0
 11
-1625.093751777614
 21
2251.329019567408
 31
0.0
  0
LINE
  5
16E8A
330
1A
100
AcDbEntity
  8
ZISSEN1
100
AcDbLine
 10
-1612.593751777614
 20
2244.929019567408
 30
0.0
 11
-1625.093751777614
 21
2244.929019567408
 31
0.0
  0
LINE
  5
16E8B
330
1A
100
AcDbEntity
  8
ZISSEN1
100
AcDbLine
 10
-1612.593751777614
 20
2243.709019567408
 30
0.0
 11
-1625.093751777614
 21
2243.709019567408
 31
0.0
  0
LINE
  5
16E8C
330
1A
100
AcDbEntity
  8
ZISSEN1
100
AcDbLine
 10
-1625.093751777614
 20
2268.779019567408
 30
0.0
 11
-1621.593751777614
 21
2268.779019567408
 31
0.0
  0
LINE
  5
16E8D
330
1A
100
AcDbEntity
  8
ZISSEN1
100
AcDbLine
 10
-1621.593751777614
 20
2268.779019567408
 30
0.0
 11
-1621.593751777614
 21
2267.789019567408
 31
0.0
  0
LINE
  5
16E8E
330
1A
100
AcDbEntity
  8
ZISSEN1
100
AcDbLine
 10
-1621.593751777614
 20
2266.569019567408
 30
0.0
 11
-1621.593751777614
 21
2260.169019567408
 31
0.0
  0
LINE
  5
16E8F
330
1A
100
AcDbEntity
  8
ZISSEN1
100
AcDbLine
 10
-1621.593751777614
 20
2258.949019567408
 30
0.0
 11
-1621.593751777614
 21
2252.549019567408
 31
0.0
  0
LINE
  5
16E90
330
1A
100
AcDbEntity
  8
ZISSEN1
100
AcDbLine
 10
-1621.593751777614
 20
2251.329019567408
 30
0.0
 11
-1621.593751777614
 21
2244.929019567408
 31
0.0
  0
LINE
  5
16E91
330
1A
100
AcDbEntity
  8
ZISSEN1
100
AcDbLine
 10
-1621.593751777614
 20
2243.709019567408
 30
0.0
 11
-1621.593751777614
 21
2242.719019567408
 31
0.0
  0
LINE
  5
16E92
330
1A
100
AcDbEntity
  8
ZISSEN1
100
AcDbLine
 10
-1620.593751777613
 20
2266.569019567408
 30
0.0
 11
-1620.593751777613
 21
2260.169019567408
 31
0.0
  0
LINE
  5
16E93
330
1A
100
AcDbEntity
  8
ZISSEN1
100
AcDbLine
 10
-1620.593751777613
 20
2258.949019567408
 30
0.0
 11
-1620.593751777613
 21
2252.549019567408
 31
0.0
  0
LINE
  5
16E94
330
1A
100
AcDbEntity
  8
ZISSEN1
100
AcDbLine
 10
-1620.593751777613
 20
2251.329019567408
 30
0.0
 11
-1620.593751777613
 21
2244.929019567408
 31
0.0
  0
LINE
  5
16E95
330
1A
100
AcDbEntity
  8
ZISSEN1
100
AcDbLine
 10
-1612.593751777615
 20
2267.789019567408
 30
0.0
 11
-1612.593751777614
 21
2266.569019567408
 31
0.0
  0
LINE
  5
16E96
330
1A
100
AcDbEntity
  8
ZISSEN1
100
AcDbLine
 10
-1612.593751777614
 20
2260.169019567408
 30
0.0
 11
-1612.593751777614
 21
2258.949019567408
 31
0.0
  0
LINE
  5
16E97
330
1A
100
AcDbEntity
  8
ZISSEN1
100
AcDbLine
 10
-1612.593751777614
 20
2252.549019567408
 30
0.0
 11
-1612.593751777614
 21
2251.329019567408
 31
0.0
  0
LINE
  5
16E98
330
1A
100
AcDbEntity
  8
ZISSEN1
100
AcDbLine
 10
-1612.593751777614
 20
2244.929019567408
 30
0.0
 11
-1612.593751777614
 21
2243.709019567408
 31
0.0
  0
LINE
  5
16EA1
330
1A
100
AcDbEntity
  8
ZISSEN1
100
AcDbLine
 10
-1620.593751777613
 20
2258.949019567408
 30
0.0
 11
-1620.593751777613
 21
2252.549019567408
 31
0.0
  0
LINE
  5
16EAA
330
1A
100
AcDbEntity
  8
ZISSEN1
100
AcDbLine
 10
-1620.593751777613
 20
2251.329019567408
 30
0.0
 11
-1620.593751777613
 21
2244.929019567408
 31
0.0
  0
LINE
  5
16EB3
330
1A
100
AcDbEntity
  8
ZISSEN1
100
AcDbLine
 10
-1610.793751777614
 20
2243.709019567408
 30
0.0
 11
-1610.793751777614
 21
2267.789019567408
 31
0.0
  0
LINE
  5
16EB4
330
1A
100
AcDbEntity
  8
ZISSEN1
100
AcDbLine
 10
-1614.593751777615
 20
2243.709019567408
 30
0.0
 11
-1614.593751777615
 21
2267.789019567408
 31
0.0
  0
LINE
  5
16EB5
330
1A
100
AcDbEntity
  8
ZISSEN1
100
AcDbLine
 10
-1614.593751777615
 20
2267.789019567408
 30
0.0
 11
-1610.793751777614
 21
2267.789019567408
 31
0.0
  0
LINE
  5
16EB6
330
1A
100
AcDbEntity
  8
ZISSEN1
100
AcDbLine
 10
-1614.593751777615
 20
2243.709019567408
 30
0.0
 11
-1610.793751777614
 21
2243.709019567408
 31
0.0
  0
LWPOLYLINE
  5
16EC9
330
1A
100
AcDbEntity
  8
ZISSEN1
100
AcDbPolyline
 90
        4
 70
     1
 43
0.0
 10
-1507.52561178144
 20
2313.899019567411
 10
-1507.52561178144
 20
2272.599019567411
 10
-1495.52561178144
 20
2272.599019567411
 10
-1495.52561178144
 20
2313.899019567411
  0
LINE
  5
16ECA
330
1A
100
AcDbEntity
  8
ZISSEN1
100
AcDbLine
 10
-1507.52561178144
 20
2312.909019567411
 30
0.0
 11
-1495.52561178144
 21
2312.909019567411
 31
0.0
  0
LINE
  5
16ECB
330
1A
100
AcDbEntity
  8
ZISSEN1
100
AcDbLine
 10
-1507.52561178144
 20
2305.289019567411
 30
0.0
 11
-1495.52561178144
 21
2305.289019567411
 31
0.0
  0
LINE
  5
16ECC
330
1A
100
AcDbEntity
  8
ZISSEN1
100
AcDbLine
 10
-1507.52561178144
 20
2304.069019567411
 30
0.0
 11
-1495.52561178144
 21
2304.069019567411
 31
0.0
  0
LINE
  5
16ECD
330
1A
100
AcDbEntity
  8
ZISSEN1
100
AcDbLine
 10
-1507.52561178144
 20
2297.669019567412
 30
0.0
 11
-1495.52561178144
 21
2297.669019567412
 31
0.0
  0
LINE
  5
16ECE
330
1A
100
AcDbEntity
  8
ZISSEN1
100
AcDbLine
 10
-1507.52561178144
 20
2296.449019567411
 30
0.0
 11
-1495.52561178144
 21
2296.449019567411
 31
0.0
  0
LINE
  5
16ECF
330
1A
100
AcDbEntity
  8
ZISSEN1
100
AcDbLine
 10
-1507.52561178144
 20
2290.049019567411
 30
0.0
 11
-1495.52561178144
 21
2290.049019567411
 31
0.0
  0
LINE
  5
16ED0
330
1A
100
AcDbEntity
  8
ZISSEN1
100
AcDbLine
 10
-1507.52561178144
 20
2288.829019567411
 30
0.0
 11
-1495.52561178144
 21
2288.829019567411
 31
0.0
  0
LINE
  5
16ED1
330
1A
100
AcDbEntity
  8
ZISSEN1
100
AcDbLine
 10
-1507.52561178144
 20
2282.429019567412
 30
0.0
 11
-1495.52561178144
 21
2282.429019567412
 31
0.0
  0
LINE
  5
16ED2
330
1A
100
AcDbEntity
  8
ZISSEN1
100
AcDbLine
 10
-1507.52561178144
 20
2281.209019567412
 30
0.0
 11
-1495.52561178144
 21
2281.209019567412
 31
0.0
  0
LINE
  5
16ED3
330
1A
100
AcDbEntity
  8
ZISSEN1
100
AcDbLine
 10
-1507.52561178144
 20
2274.809019567412
 30
0.0
 11
-1495.52561178144
 21
2274.809019567412
 31
0.0
  0
LINE
  5
16ED4
330
1A
100
AcDbEntity
  8
ZISSEN1
100
AcDbLine
 10
-1507.52561178144
 20
2273.589019567411
 30
0.0
 11
-1495.52561178144
 21
2273.589019567411
 31
0.0
  0
LINE
  5
16ED5
330
1A
100
AcDbEntity
  8
ZISSEN1
100
AcDbLine
 10
-1507.52561178144
 20
2311.689019567411
 30
0.0
 11
-1495.52561178144
 21
2311.689019567411
 31
0.0
  0
CIRCLE
  5
16ED6
330
1A
100
AcDbEntity
  8
ZISSEN1
100
AcDbCircle
 10
-1502.02561178144
 20
2308.489019567411
 30
0.0
 40
2.75
  0
LINE
  5
16EEB
330
1A
100
AcDbEntity
  8
ZISSEN1
100
AcDbLine
 10
-1507.52561178144
 20
2297.669019567412
 30
0.0
 11
-1495.52561178144
 21
2297.669019567412
 31
0.0
  0
LINE
  5
16EEC
330
1A
100
AcDbEntity
  8
ZISSEN1
100
AcDbLine
 10
-1507.52561178144
 20
2304.069019567411
 30
0.0
 11
-1495.52561178144
 21
2304.069019567411
 31
0.0
  0
CIRCLE
  5
16EED
330
1A
100
AcDbEntity
  8
ZISSEN1
100
AcDbCircle
 10
-1502.02561178144
 20
2300.869019567411
 30
0.0
 40
2.75
  0
LINE
  5
16F01
330
1A
100
AcDbEntity
  8
ZISSEN1
100
AcDbLine
 10
-1507.52561178144
 20
2296.449019567411
 30
0.0
 11
-1495.52561178144
 21
2296.449019567411
 31
0.0
  0
LINE
  5
16F02
330
1A
100
AcDbEntity
  8
ZISSEN1
100
AcDbLine
 10
-1507.52561178144
 20
2290.049019567411
 30
0.0
 11
-1495.52561178144
 21
2290.049019567411
 31
0.0
  0
LINE
  5
16F03
330
1A
100
AcDbEntity
  8
ZISSEN1
100
AcDbLine
 10
-1507.52561178144
 20
2290.049019567411
 30
0.0
 11
-1495.52561178144
 21
2290.049019567411
 31
0.0
  0
LINE
  5
16F04
330
1A
100
AcDbEntity
  8
ZISSEN1
100
AcDbLine
 10
-1507.52561178144
 20
2296.449019567411
 30
0.0
 11
-1495.52561178144
 21
2296.449019567411
 31
0.0
  0
CIRCLE
  5
16F05
330
1A
100
AcDbEntity
  8
ZISSEN1
100
AcDbCircle
 10
-1502.02561178144
 20
2293.249019567411
 30
0.0
 40
2.75
  0
LINE
  5
16F19
330
1A
100
AcDbEntity
  8
ZISSEN1
100
AcDbLine
 10
-1507.52561178144
 20
2288.829019567411
 30
0.0
 11
-1495.52561178144
 21
2288.829019567411
 31
0.0
  0
LINE
  5
16F1A
330
1A
100
AcDbEntity
  8
ZISSEN1
100
AcDbLine
 10
-1507.52561178144
 20
2282.429019567412
 30
0.0
 11
-1495.52561178144
 21
2282.429019567412
 31
0.0
  0
LINE
  5
16F1B
330
1A
100
AcDbEntity
  8
ZISSEN1
100
AcDbLine
 10
-1507.52561178144
 20
2288.829019567411
 30
0.0
 11
-1495.52561178144
 21
2288.829019567411
 31
0.0
  0
LINE
  5
16F1C
330
1A
100
AcDbEntity
  8
ZISSEN1
100
AcDbLine
 10
-1507.52561178144
 20
2282.429019567412
 30
0.0
 11
-1495.52561178144
 21
2282.429019567412
 31
0.0
  0
LINE
  5
16F1D
330
1A
100
AcDbEntity
  8
ZISSEN1
100
AcDbLine
 10
-1507.52561178144
 20
2282.429019567412
 30
0.0
 11
-1495.52561178144
 21
2282.429019567412
 31
0.0
  0
LINE
  5
16F1E
330
1A
100
AcDbEntity
  8
ZISSEN1
100
AcDbLine
 10
-1507.52561178144
 20
2288.829019567411
 30
0.0
 11
-1495.52561178144
 21
2288.829019567411
 31
0.0
  0
CIRCLE
  5
16F1F
330
1A
100
AcDbEntity
  8
ZISSEN1
100
AcDbCircle
 10
-1502.02561178144
 20
2285.629019567411
 30
0.0
 40
2.75
  0
LINE
  5
16F33
330
1A
100
AcDbEntity
  8
ZISSEN1
100
AcDbLine
 10
-1507.52561178144
 20
2281.209019567412
 30
0.0
 11
-1495.52561178144
 21
2281.209019567412
 31
0.0
  0
LINE
  5
16F34
330
1A
100
AcDbEntity
  8
ZISSEN1
100
AcDbLine
 10
-1507.52561178144
 20
2274.809019567412
 30
0.0
 11
-1495.52561178144
 21
2274.809019567412
 31
0.0
  0
LINE
  5
16F35
330
1A
100
AcDbEntity
  8
ZISSEN1
100
AcDbLine
 10
-1507.52561178144
 20
2281.209019567412
 30
0.0
 11
-1495.52561178144
 21
2281.209019567412
 31
0.0
  0
LINE
  5
16F36
330
1A
100
AcDbEntity
  8
ZISSEN1
100
AcDbLine
 10
-1507.52561178144
 20
2274.809019567412
 30
0.0
 11
-1495.52561178144
 21
2274.809019567412
 31
0.0
  0
LINE
  5
16F37
330
1A
100
AcDbEntity
  8
ZISSEN1
100
AcDbLine
 10
-1507.52561178144
 20
2281.209019567412
 30
0.0
 11
-1495.52561178144
 21
2281.209019567412
 31
0.0
  0
LINE
  5
16F38
330
1A
100
AcDbEntity
  8
ZISSEN1
100
AcDbLine
 10
-1507.52561178144
 20
2274.809019567412
 30
0.0
 11
-1495.52561178144
 21
2274.809019567412
 31
0.0
  0
LINE
  5
16F39
330
1A
100
AcDbEntity
  8
ZISSEN1
100
AcDbLine
 10
-1507.52561178144
 20
2274.809019567412
 30
0.0
 11
-1495.52561178144
 21
2274.809019567412
 31
0.0
  0
LINE
  5
16F3A
330
1A
100
AcDbEntity
  8
ZISSEN1
100
AcDbLine
 10
-1507.52561178144
 20
2281.209019567412
 30
0.0
 11
-1495.52561178144
 21
2281.209019567412
 31
0.0
  0
CIRCLE
  5
16F3B
330
1A
100
AcDbEntity
  8
ZISSEN1
100
AcDbCircle
 10
-1502.02561178144
 20
2278.009019567411
 30
0.0
 40
2.75
  0
LINE
  5
16F5C
330
1A
100
AcDbEntity
  8
ZISSEN1
 48
0.5
100
AcDbLine
 10
-1493.92561178144
 20
2308.989019567411
 30
0.0
 11
-1493.62561178144
 21
2308.989019567411
 31
0.0
  0
LINE
  5
16F5D
330
1A
100
AcDbEntity
  8
ZISSEN1
 48
0.5
100
AcDbLine
 10
-1493.62561178144
 20
2307.989019567411
 30
0.0
 11
-1493.92561178144
 21
2307.989019567411
 31
0.0
  0
LINE
  5
16F5E
330
1A
100
AcDbEntity
  8
ZISSEN1
 48
0.5
100
AcDbLine
 10
-1493.92561178144
 20
2301.369019567411
 30
0.0
 11
-1493.62561178144
 21
2301.369019567411
 31
0.0
  0
LINE
  5
16F5F
330
1A
100
AcDbEntity
  8
ZISSEN1
 48
0.5
100
AcDbLine
 10
-1493.62561178144
 20
2300.369019567412
 30
0.0
 11
-1493.92561178144
 21
2300.369019567412
 31
0.0
  0
LINE
  5
16F60
330
1A
100
AcDbEntity
  8
ZISSEN1
 48
0.5
100
AcDbLine
 10
-1493.92561178144
 20
2293.749019567412
 30
0.0
 11
-1493.62561178144
 21
2293.749019567412
 31
0.0
  0
LINE
  5
16F61
330
1A
100
AcDbEntity
  8
ZISSEN1
 48
0.5
100
AcDbLine
 10
-1493.62561178144
 20
2292.749019567411
 30
0.0
 11
-1493.92561178144
 21
2292.749019567411
 31
0.0
  0
LINE
  5
16F62
330
1A
100
AcDbEntity
  8
ZISSEN1
 48
0.5
100
AcDbLine
 10
-1493.92561178144
 20
2286.129019567411
 30
0.0
 11
-1493.62561178144
 21
2286.129019567411
 31
0.0
  0
LINE
  5
16F63
330
1A
100
AcDbEntity
  8
ZISSEN1
 48
0.5
100
AcDbLine
 10
-1493.62561178144
 20
2285.129019567412
 30
0.0
 11
-1493.92561178144
 21
2285.129019567412
 31
0.0
  0
LINE
  5
16F64
330
1A
100
AcDbEntity
  8
ZISSEN1
 48
0.5
100
AcDbLine
 10
-1493.92561178144
 20
2278.509019567411
 30
0.0
 11
-1493.62561178144
 21
2278.509019567411
 31
0.0
  0
LINE
  5
16F65
330
1A
100
AcDbEntity
  8
ZISSEN1
 48
0.5
100
AcDbLine
 10
-1493.62561178144
 20
2277.509019567412
 30
0.0
 11
-1493.92561178144
 21
2277.509019567412
 31
0.0
  0
LINE
  5
16F66
330
1A
100
AcDbEntity
  8
ZISSEN1
100
AcDbLine
 10
-1517.12561178144
 20
2268.785730950859
 30
0.0
 11
-1515.625611781279
 21
2268.785730950859
 31
0.0
  0
LWPOLYLINE
  5
16F67
330
1A
100
AcDbEntity
  8
ZISSEN1
100
AcDbPolyline
 90
        4
 70
     1
 43
0.0
 10
-1517.12561178144
 20
2268.785730950859
 10
-1517.12561178144
 20
2242.712308183964
 10
-1505.12561178144
 20
2242.712308183964
 10
-1505.12561178144
 20
2268.785730950859
  0
LINE
  5
16F68
330
1A
100
AcDbEntity
  8
ZISSEN1
100
AcDbLine
 10
-1517.12561178144
 20
2267.795730950858
 30
0.0
 11
-1505.12561178144
 21
2267.795730950858
 31
0.0
  0
LINE
  5
16F69
330
1A
100
AcDbEntity
  8
ZISSEN1
100
AcDbLine
 10
-1517.12561178144
 20
2260.175730950858
 30
0.0
 11
-1505.12561178144
 21
2260.175730950858
 31
0.0
  0
LINE
  5
16F6A
330
1A
100
AcDbEntity
  8
ZISSEN1
100
AcDbLine
 10
-1517.12561178144
 20
2258.955730950858
 30
0.0
 11
-1505.12561178144
 21
2258.955730950858
 31
0.0
  0
LINE
  5
16F6B
330
1A
100
AcDbEntity
  8
ZISSEN1
100
AcDbLine
 10
-1517.12561178144
 20
2252.555730950858
 30
0.0
 11
-1505.12561178144
 21
2252.555730950858
 31
0.0
  0
LINE
  5
16F6C
330
1A
100
AcDbEntity
  8
ZISSEN1
100
AcDbLine
 10
-1517.12561178144
 20
2251.335730950858
 30
0.0
 11
-1505.12561178144
 21
2251.335730950858
 31
0.0
  0
LINE
  5
16F6D
330
1A
100
AcDbEntity
  8
ZISSEN1
100
AcDbLine
 10
-1517.12561178144
 20
2244.935730950858
 30
0.0
 11
-1505.12561178144
 21
2244.935730950858
 31
0.0
  0
LINE
  5
16F6E
330
1A
100
AcDbEntity
  8
ZISSEN1
100
AcDbLine
 10
-1517.12561178144
 20
2243.715730950858
 30
0.0
 11
-1505.12561178144
 21
2243.715730950858
 31
0.0
  0
LINE
  5
16F6F
330
1A
100
AcDbEntity
  8
ZISSEN1
100
AcDbLine
 10
-1517.12561178144
 20
2243.715730950858
 30
0.0
 11
-1505.12561178144
 21
2243.715730950858
 31
0.0
  0
LINE
  5
16F70
330
1A
100
AcDbEntity
  8
ZISSEN1
100
AcDbLine
 10
-1517.12561178144
 20
2266.575730950858
 30
0.0
 11
-1505.12561178144
 21
2266.575730950858
 31
0.0
  0
CIRCLE
  5
16F71
330
1A
100
AcDbEntity
  8
ZISSEN1
100
AcDbCircle
 10
-1511.62561178144
 20
2263.375730950858
 30
0.0
 40
2.75
  0
LINE
  5
16F86
330
1A
100
AcDbEntity
  8
ZISSEN1
100
AcDbLine
 10
-1517.12561178144
 20
2252.555730950858
 30
0.0
 11
-1505.12561178144
 21
2252.555730950858
 31
0.0
  0
LINE
  5
16F87
330
1A
100
AcDbEntity
  8
ZISSEN1
100
AcDbLine
 10
-1517.12561178144
 20
2258.955730950858
 30
0.0
 11
-1505.12561178144
 21
2258.955730950858
 31
0.0
  0
CIRCLE
  5
16F88
330
1A
100
AcDbEntity
  8
ZISSEN1
100
AcDbCircle
 10
-1511.62561178144
 20
2255.755730950858
 30
0.0
 40
2.75
  0
LINE
  5
16F9C
330
1A
100
AcDbEntity
  8
ZISSEN1
100
AcDbLine
 10
-1517.12561178144
 20
2251.335730950858
 30
0.0
 11
-1505.12561178144
 21
2251.335730950858
 31
0.0
  0
LINE
  5
16F9D
330
1A
100
AcDbEntity
  8
ZISSEN1
100
AcDbLine
 10
-1517.12561178144
 20
2244.935730950858
 30
0.0
 11
-1505.12561178144
 21
2244.935730950858
 31
0.0
  0
LINE
  5
16F9E
330
1A
100
AcDbEntity
  8
ZISSEN1
100
AcDbLine
 10
-1517.12561178144
 20
2244.935730950858
 30
0.0
 11
-1505.12561178144
 21
2244.935730950858
 31
0.0
  0
LINE
  5
16F9F
330
1A
100
AcDbEntity
  8
ZISSEN1
100
AcDbLine
 10
-1517.12561178144
 20
2251.335730950858
 30
0.0
 11
-1505.12561178144
 21
2251.335730950858
 31
0.0
  0
CIRCLE
  5
16FA0
330
1A
100
AcDbEntity
  8
ZISSEN1
100
AcDbCircle
 10
-1511.62561178144
 20
2248.135730950858
 30
0.0
 40
2.75
  0
LINE
  5
16FB4
330
1A
100
AcDbEntity
  8
ZISSEN1
100
AcDbLine
 10
-1517.12561178144
 20
2243.715730950858
 30
0.0
 11
-1505.12561178144
 21
2243.715730950858
 31
0.0
  0
LINE
  5
16FB5
330
1A
100
AcDbEntity
  8
ZISSEN1
100
AcDbLine
 10
-1517.12561178144
 20
2243.715730950858
 30
0.0
 11
-1505.12561178144
 21
2243.715730950858
 31
0.0
  0
LINE
  5
16FB6
330
1A
100
AcDbEntity
  8
ZISSEN1
100
AcDbLine
 10
-1517.12561178144
 20
2242.712308183964
 30
0.0
 11
-1505.12561178144
 21
2242.712308183964
 31
0.0
  0
LINE
  5
16FC0
330
1A
100
AcDbEntity
  8
ZISSEN1
 48
0.5
100
AcDbLine
 10
-1503.12561178144
 20
2263.875730950858
 30
0.0
 11
-1503.52561178144
 21
2263.875730950858
 31
0.0
  0
LINE
  5
16FC1
330
1A
100
AcDbEntity
  8
ZISSEN1
 48
0.5
100
AcDbLine
 10
-1503.12561178144
 20
2262.875730950858
 30
0.0
 11
-1503.52561178144
 21
2262.875730950858
 31
0.0
  0
LINE
  5
16FC2
330
1A
100
AcDbEntity
  8
ZISSEN1
 48
0.5
100
AcDbLine
 10
-1503.12561178144
 20
2256.255730950858
 30
0.0
 11
-1503.52561178144
 21
2256.255730950858
 31
0.0
  0
LINE
  5
16FC3
330
1A
100
AcDbEntity
  8
ZISSEN1
 48
0.5
100
AcDbLine
 10
-1503.12561178144
 20
2255.255730950858
 30
0.0
 11
-1503.52561178144
 21
2255.255730950858
 31
0.0
  0
LINE
  5
16FC4
330
1A
100
AcDbEntity
  8
ZISSEN1
 48
0.5
100
AcDbLine
 10
-1503.12561178144
 20
2248.635730950858
 30
0.0
 11
-1503.52561178144
 21
2248.635730950858
 31
0.0
  0
LINE
  5
16FC5
330
1A
100
AcDbEntity
  8
ZISSEN1
 48
0.5
100
AcDbLine
 10
-1503.12561178144
 20
2247.635730950858
 30
0.0
 11
-1503.52561178144
 21
2247.635730950858
 31
0.0
  0
LINE
  5
16FC7
330
1A
100
AcDbEntity
  8
ZISSEN1
100
AcDbLine
 10
-1525.625611781439
 20
2253.599019567431
 30
0.0
 11
-1525.725611781439
 21
2253.599019567431
 31
0.0
  0
LINE
  5
16FC8
330
1A
100
AcDbEntity
  8
ZISSEN1
100
AcDbLine
 10
-1525.92561178144
 20
2260.429019567431
 30
0.0
 11
-1525.92561178144
 21
2260.099019567431
 31
0.0
  0
LINE
  5
16FC9
330
1A
100
AcDbEntity
  8
ZISSEN1
100
AcDbLine
 10
-1525.625611781439
 20
2259.89901956743
 30
0.0
 11
-1525.725611781439
 21
2259.89901956743
 31
0.0
  0
LINE
  5
16FD1
330
1A
100
AcDbEntity
  8
ZISSEN1
100
AcDbLine
 10
-1525.92561178144
 20
2253.249019567431
 30
0.0
 11
-1525.92561178144
 21
2253.39901956743
 31
0.0
  0
LINE
  5
16FD2
330
1A
100
AcDbEntity
  8
ZISSEN1
100
AcDbLine
 10
-1525.92561178144
 20
2260.429019567431
 30
0.0
 11
-1531.12561178144
 21
2260.429019567431
 31
0.0
  0
LINE
  5
16FD4
330
1A
100
AcDbEntity
  8
ZISSEN1
100
AcDbLine
 10
-1525.62561178144
 20
2253.449019567431
 30
0.0
 11
-1525.91925978144
 21
2253.449019567431
 31
0.0
  0
LINE
  5
16FD5
330
1A
100
AcDbEntity
  8
ZISSEN1
100
AcDbLine
 10
-1525.62561178144
 20
2260.049019567431
 30
0.0
 11
-1525.91925978144
 21
2260.049019567431
 31
0.0
  0
ARC
  5
16FEB
330
1A
100
AcDbEntity
  8
ZISSEN1
100
AcDbCircle
 10
-1525.725611781439
 20
2260.099019567431
 30
0.0
 40
0.2
100
AcDbArc
 50
179.9999975852129
 51
270.0000000001042
  0
ARC
  5
16FEC
330
1A
100
AcDbEntity
  8
ZISSEN1
100
AcDbCircle
 10
-1525.725611781439
 20
2253.399019567431
 30
0.0
 40
0.2
100
AcDbArc
 50
89.99999499108865
 51
179.9999975852129
  0
LINE
  5
16FFE
330
1A
100
AcDbEntity
  8
ZISSEN1
100
AcDbLine
 10
-1525.925610572262
 20
2290.049017371086
 30
0.0
 11
-1525.925610572262
 21
2277.449018430442
 31
0.0
  0
LINE
  5
17004
330
1A
100
AcDbEntity
  8
ZISSEN1
100
AcDbLine
 10
-1530.12561178144
 20
2290.049017371086
 30
0.0
 11
-1525.925610572262
 21
2290.049017371086
 31
0.0
  0
LINE
  5
17026
330
1A
100
AcDbEntity
  8
ZISSEN1
100
AcDbLine
 10
-1530.125611781439
 20
2277.449018430442
 30
0.0
 11
-1525.925610572262
 21
2277.449018430442
 31
0.0
  0
LINE
  5
1704A
330
1A
100
AcDbEntity
  8
ZISSEN1
100
AcDbLine
 10
-1525.625611781439
 20
2261.599019567431
 30
0.0
 11
-1525.725611781439
 21
2261.599019567431
 31
0.0
  0
LINE
  5
1704B
330
1A
100
AcDbEntity
  8
ZISSEN1
100
AcDbLine
 10
-1525.92561178144
 20
2268.429019567431
 30
0.0
 11
-1525.92561178144
 21
2268.099019567431
 31
0.0
  0
LINE
  5
1704C
330
1A
100
AcDbEntity
  8
ZISSEN1
100
AcDbLine
 10
-1525.625611781439
 20
2267.89901956743
 30
0.0
 11
-1525.725611781439
 21
2267.89901956743
 31
0.0
  0
LINE
  5
1704F
330
1A
100
AcDbEntity
  8
ZISSEN1
100
AcDbLine
 10
-1525.92561178144
 20
2261.06901956743
 30
0.0
 11
-1531.12561178144
 21
2261.06901956743
 31
0.0
  0
LINE
  5
17056
330
1A
100
AcDbEntity
  8
ZISSEN1
100
AcDbLine
 10
-1525.92561178144
 20
2261.06901956743
 30
0.0
 11
-1525.92561178144
 21
2261.39901956743
 31
0.0
  0
LINE
  5
17057
330
1A
100
AcDbEntity
  8
ZISSEN1
100
AcDbLine
 10
-1525.92561178144
 20
2268.429019567431
 30
0.0
 11
-1531.12561178144
 21
2268.429019567431
 31
0.0
  0
LINE
  5
1705A
330
1A
100
AcDbEntity
  8
ZISSEN1
100
AcDbLine
 10
-1525.62561178144
 20
2261.44901956743
 30
0.0
 11
-1525.91925978144
 21
2261.44901956743
 31
0.0
  0
LINE
  5
1705B
330
1A
100
AcDbEntity
  8
ZISSEN1
100
AcDbLine
 10
-1525.62561178144
 20
2268.049019567431
 30
0.0
 11
-1525.91925978144
 21
2268.049019567431
 31
0.0
  0
ARC
  5
17072
330
1A
100
AcDbEntity
  8
ZISSEN1
100
AcDbCircle
 10
-1525.725611781439
 20
2268.099019567431
 30
0.0
 40
0.2
100
AcDbArc
 50
179.9999975852129
 51
270.0000000001042
  0
ARC
  5
17073
330
1A
100
AcDbEntity
  8
ZISSEN1
100
AcDbCircle
 10
-1525.725611781439
 20
2261.399019567431
 30
0.0
 40
0.2
100
AcDbArc
 50
89.99999499108865
 51
179.9999975852129
  0
LINE
  5
17085
330
1A
100
AcDbEntity
  8
ZISSEN1
100
AcDbLine
 10
-1525.625611781439
 20
2269.599019567431
 30
0.0
 11
-1525.725611781439
 21
2269.599019567431
 31
0.0
  0
LINE
  5
17086
330
1A
100
AcDbEntity
  8
ZISSEN1
100
AcDbLine
 10
-1525.92561178144
 20
2276.429019567431
 30
0.0
 11
-1525.92561178144
 21
2276.099019567431
 31
0.0
  0
LINE
  5
17087
330
1A
100
AcDbEntity
  8
ZISSEN1
100
AcDbLine
 10
-1525.625611781439
 20
2275.89901956743
 30
0.0
 11
-1525.725611781439
 21
2275.89901956743
 31
0.0
  0
LINE
  5
1708A
330
1A
100
AcDbEntity
  8
ZISSEN1
100
AcDbLine
 10
-1525.92561178144
 20
2269.06901956743
 30
0.0
 11
-1531.12561178144
 21
2269.06901956743
 31
0.0
  0
LINE
  5
17091
330
1A
100
AcDbEntity
  8
ZISSEN1
100
AcDbLine
 10
-1525.92561178144
 20
2269.06901956743
 30
0.0
 11
-1525.92561178144
 21
2269.39901956743
 31
0.0
  0
LINE
  5
17092
330
1A
100
AcDbEntity
  8
ZISSEN1
100
AcDbLine
 10
-1525.92561178144
 20
2276.429019567431
 30
0.0
 11
-1530.12561178144
 21
2276.429019567431
 31
0.0
  0
LINE
  5
17095
330
1A
100
AcDbEntity
  8
ZISSEN1
100
AcDbLine
 10
-1525.62561178144
 20
2269.449019567431
 30
0.0
 11
-1525.91925978144
 21
2269.449019567431
 31
0.0
  0
LINE
  5
17096
330
1A
100
AcDbEntity
  8
ZISSEN1
100
AcDbLine
 10
-1525.62561178144
 20
2276.049019567431
 30
0.0
 11
-1525.91925978144
 21
2276.049019567431
 31
0.0
  0
ARC
  5
170AD
330
1A
100
AcDbEntity
  8
ZISSEN1
100
AcDbCircle
 10
-1525.725611781439
 20
2276.099019567431
 30
0.0
 40
0.2
100
AcDbArc
 50
179.9999975852129
 51
270.0000000001042
  0
ARC
  5
170AE
330
1A
100
AcDbEntity
  8
ZISSEN1
100
AcDbCircle
 10
-1525.725611781439
 20
2269.399019567431
 30
0.0
 40
0.2
100
AcDbArc
 50
89.99999499108865
 51
179.9999975852129
  0
LINE
  5
170C0
330
1A
100
AcDbEntity
  8
ZISSEN1
100
AcDbLine
 10
-1525.925610572262
 20
2302.249017371085
 30
0.0
 11
-1525.925610572262
 21
2290.949018430442
 31
0.0
  0
LINE
  5
170D8
330
1A
100
AcDbEntity
  8
ZISSEN1
100
AcDbLine
 10
-1530.12561178144
 20
2290.949018430442
 30
0.0
 11
-1525.925610572262
 21
2290.949018430442
 31
0.0
  0
ARC
  5
17178
330
1A
100
AcDbEntity
  8
ZISSEN1
 48
0.5
100
AcDbCircle
 10
-1530.051584650227
 20
2302.430310502521
 30
0.0
 40
0.2500000451185271
100
AcDbArc
 50
252.7759819288303
 51
313.5168090586205
  0
ARC
  5
17179
330
1A
100
AcDbEntity
  8
ZISSEN1
 48
0.5
100
AcDbCircle
 10
-1530.051584650227
 20
2302.430310502522
 30
0.0
 40
0.2045433702488207
100
AcDbArc
 50
248.7822054844804
 51
297.5842368059322
  0
LINE
  5
171AD
330
1A
100
AcDbEntity
  8
ZISSEN1
 48
0.5
100
AcDbLine
 10
-1625.093751777614
 20
2349.44901956742
 30
0.0
 11
-1622.643751777614
 21
2349.44901956742
 31
0.0
  0
LINE
  5
171AE
330
1A
100
AcDbEntity
  8
ZISSEN1
 48
0.5
100
AcDbLine
 10
-1622.643751777614
 20
2349.44901956742
 30
0.0
 11
-1622.643751777614
 21
2317.04901956742
 31
0.0
  0
LINE
  5
171AF
330
1A
100
AcDbEntity
  8
ZISSEN1
 48
0.5
100
AcDbLine
 10
-1622.643751777614
 20
2317.04901956742
 30
0.0
 11
-1625.093751777614
 21
2317.04901956742
 31
0.0
  0
LINE
  5
171B0
330
1A
100
AcDbEntity
  8
CL1
 48
0.5
100
AcDbLine
 10
-1513.12561178144
 20
2383.749019567412
 30
0.0
 11
-1506.12561178144
 21
2383.749019567412
 31
0.0
  0
LINE
  5
171B1
330
1A
100
AcDbEntity
  8
CL1
 48
0.5
100
AcDbLine
 10
-1509.62561178144
 20
2380.249019567411
 30
0.0
 11
-1509.62561178144
 21
2387.249019567411
 31
0.0
  0
DIMENSION
  5
171B2
330
1A
100
AcDbEntity
  8
SUNPOU
 48
0.5
100
AcDbDimension
  2
*D19
 10
-1505.625611781439
 20
2418.749019567412
 30
0.0
 11
-1515.62561178144
 21
2421.499019567411
 31
0.0
 70
    32
  3
標準スタイル
100
AcDbAlignedDimension
 13
-1525.62561178144
 23
2387.249019567411
 33
0.0
 14
-1505.625611781439
 24
2387.249019567411
 34
0.0
100
AcDbRotatedDimension
1001
ACAD
1000
DSTYLE
1002
{
1070
   340
1005
10
1070
    40
1040
1.0
1002
}
  0
LINE
  5
171B3
330
1A
100
AcDbEntity
  8
ZISSEN1
 48
0.5
100
AcDbLine
 10
-1760.093751777614
 20
2388.749019567408
 30
0.0
 11
-1757.093751777614
 21
2388.749019567408
 31
0.0
  0
LINE
  5
171B4
330
1A
100
AcDbEntity
  8
ZISSEN1
 48
0.5
100
AcDbLine
 10
-1760.093751777614
 20
2386.749019567408
 30
0.0
 11
-1757.093751777614
 21
2386.749019567408
 31
0.0
  0
LINE
  5
17343
330
1A
100
AcDbEntity
  8
ZISSEN1
 48
0.5
100
AcDbLine
 10
-1757.093751777614
 20
2368.749019567408
 30
0.0
 11
-1760.093751777614
 21
2368.749019567408
 31
0.0
  0
LINE
  5
17344
330
1A
100
AcDbEntity
  8
ZISSEN1
 48
0.5
100
AcDbLine
 10
-1757.093751777614
 20
2367.749019567408
 30
0.0
 11
-1760.093751777614
 21
2367.749019567408
 31
0.0
  0
LINE
  5
17345
330
1A
100
AcDbEntity
  8
ZISSEN1
 48
0.5
100
AcDbLine
 10
-1757.093751777614
 20
2232.749019567408
 30
0.0
 11
-1760.093751777614
 21
2232.749019567408
 31
0.0
  0
LINE
  5
17346
330
1A
100
AcDbEntity
  8
ZISSEN1
 48
0.5
100
AcDbLine
 10
-1757.093751777614
 20
2233.749019567408
 30
0.0
 11
-1760.093751777614
 21
2233.749019567408
 31
0.0
  0
LINE
  5
17349
330
1A
100
AcDbEntity
  8
ZISSEN1
 48
0.5
100
AcDbLine
 10
-1626.593751777614
 20
2494.171122630905
 30
0.0
 11
-1625.093751777614
 21
2494.171122630904
 31
0.0
  0
LINE
  5
1734A
330
1A
100
AcDbEntity
  8
ZISSEN1
 48
0.5
100
AcDbLine
 10
-1626.593751777614
 20
2493.171122630904
 30
0.0
 11
-1625.093751777614
 21
2493.171122630904
 31
0.0
  0
LINE
  5
1734B
330
1A
100
AcDbEntity
  8
ZISSEN1
 48
0.5
100
AcDbLine
 10
-1691.093751777614
 20
2496.171122630904
 30
0.0
 11
-1724.093751777615
 21
2496.171122630904
 31
0.0
  0
LINE
  5
1734C
330
1A
100
AcDbEntity
  8
ZISSEN1
 48
0.5
100
AcDbLine
 10
-1757.093751777614
 20
2442.671122630905
 30
0.0
 11
-1626.593751777615
 21
2442.671122630905
 31
0.0
  0
ARC
  5
173BD
330
1A
100
AcDbEntity
  8
ZISSEN1
 48
0.5
100
AcDbCircle
 10
-1505.62561178144
 20
2383.749019567412
 30
0.0
 40
2.25
100
AcDbArc
 50
270.0
 51
89.99999999999998
  0
ARC
  5
173BE
330
1A
100
AcDbEntity
  8
ZISSEN1
 48
0.5
100
AcDbCircle
 10
-1509.62561178144
 20
2383.749019567412
 30
0.0
 40
2.25
100
AcDbArc
 50
89.99999999999998
 51
270.0
  0
LINE
  5
173BF
330
1A
100
AcDbEntity
  8
ZISSEN1
 48
0.5
100
AcDbLine
 10
-1505.625611781439
 20
2385.999019567412
 30
0.0
 11
-1509.62561178144
 21
2385.999019567412
 31
0.0
  0
LINE
  5
173C0
330
1A
100
AcDbEntity
  8
ZISSEN1
 48
0.5
100
AcDbLine
 10
-1505.62561178144
 20
2381.499019567411
 30
0.0
 11
-1509.62561178144
 21
2381.499019567411
 31
0.0
  0
LINE
  5
173C1
330
1A
100
AcDbEntity
  8
ZISSEN1
 48
0.5
100
AcDbLine
 10
-1534.12561178144
 20
2220.749019567411
 30
0.0
 11
-1534.12561178143
 21
2232.749019567447
 31
0.0
  0
LINE
  5
176A8
330
1A
100
AcDbEntity
  8
ZISSEN1
 48
0.5
100
AcDbLine
 10
-1532.62561178144
 20
2317.049019567423
 30
0.0
 11
-1525.92561178144
 21
2317.049019567423
 31
0.0
  0
LINE
  5
176A9
330
1A
100
AcDbEntity
  8
ZISSEN1
 48
0.5
100
AcDbLine
 10
-1532.62561178144
 20
2349.449019567423
 30
0.0
 11
-1532.62561178144
 21
2347.799019567423
 31
0.0
  0
LINE
  5
176AB
330
1A
100
AcDbEntity
  8
ZISSEN1
 48
0.5
100
AcDbLine
 10
-1526.42561178144
 20
2318.699019567424
 30
0.0
 11
-1526.92561178144
 21
2318.699019567424
 31
0.0
  0
LINE
  5
176AC
330
1A
100
AcDbEntity
  8
ZISSEN1
 48
0.5
100
AcDbLine
 10
-1526.92561178144
 20
2318.699019567424
 30
0.0
 11
-1526.92561178144
 21
2347.799019567423
 31
0.0
  0
LINE
  5
176AD
330
1A
100
AcDbEntity
  8
ZISSEN1
 48
0.5
100
AcDbLine
 10
-1526.72561178144
 20
2319.199019567424
 30
0.0
 11
-1526.72561178144
 21
2347.299019567424
 31
0.0
  0
LINE
  5
176AE
330
1A
100
AcDbEntity
  8
ZISSEN1
 48
0.5
100
AcDbLine
 10
-1526.42561178144
 20
2318.699019567424
 30
0.0
 11
-1526.42561178144
 21
2317.549019567424
 31
0.0
  0
LINE
  5
176AF
330
1A
100
AcDbEntity
  8
ZISSEN1
 48
0.5
100
AcDbLine
 10
-1526.42561178144
 20
2317.549019567424
 30
0.0
 11
-1531.62561178144
 21
2317.549019567424
 31
0.0
  0
LINE
  5
176B0
330
1A
100
AcDbEntity
  8
ZISSEN1
 48
0.5
100
AcDbLine
 10
-1525.92561178144
 20
2318.049019567423
 30
0.0
 11
-1525.92561178144
 21
2319.199019567424
 31
0.0
  0
LINE
  5
176B1
330
1A
100
AcDbEntity
  8
ZISSEN1
 48
0.5
100
AcDbLine
 10
-1526.72561178144
 20
2319.199019567424
 30
0.0
 11
-1525.92561178144
 21
2319.199019567424
 31
0.0
  0
LINE
  5
176B2
330
1A
100
AcDbEntity
  8
ZISSEN1
 48
0.5
100
AcDbLine
 10
-1525.92561178144
 20
2319.199019567424
 30
0.0
 11
-1525.92561178144
 21
2317.049019567423
 31
0.0
  0
LINE
  5
176B6
330
1A
100
AcDbEntity
  8
ZISSEN1
 48
0.5
100
AcDbLine
 10
-1532.62561178144
 20
2349.449019567423
 30
0.0
 11
-1525.92561178144
 21
2349.449019567423
 31
0.0
  0
LINE
  5
176B7
330
1A
100
AcDbEntity
  8
ZISSEN1
 48
0.5
100
AcDbLine
 10
-1526.42561178144
 20
2347.799019567423
 30
0.0
 11
-1526.92561178144
 21
2347.799019567423
 31
0.0
  0
LINE
  5
176B8
330
1A
100
AcDbEntity
  8
ZISSEN1
 48
0.5
100
AcDbLine
 10
-1526.42561178144
 20
2347.799019567423
 30
0.0
 11
-1526.42561178144
 21
2348.949019567423
 31
0.0
  0
LINE
  5
176B9
330
1A
100
AcDbEntity
  8
ZISSEN1
 48
0.5
100
AcDbLine
 10
-1526.42561178144
 20
2348.949019567423
 30
0.0
 11
-1531.62561178144
 21
2348.949019567423
 31
0.0
  0
LINE
  5
176BA
330
1A
100
AcDbEntity
  8
ZISSEN1
 48
0.5
100
AcDbLine
 10
-1525.92561178144
 20
2348.449019567423
 30
0.0
 11
-1525.92561178144
 21
2347.299019567424
 31
0.0
  0
LINE
  5
176BB
330
1A
100
AcDbEntity
  8
ZISSEN1
 48
0.5
100
AcDbLine
 10
-1526.72561178144
 20
2347.299019567424
 30
0.0
 11
-1525.92561178144
 21
2347.299019567424
 31
0.0
  0
LINE
  5
176BC
330
1A
100
AcDbEntity
  8
ZISSEN1
 48
0.5
100
AcDbLine
 10
-1525.92561178144
 20
2347.299019567424
 30
0.0
 11
-1525.92561178144
 21
2349.449019567423
 31
0.0
  0
LINE
  5
176BF
330
1A
100
AcDbEntity
  8
ZISSEN1
 48
0.5
100
AcDbLine
 10
-1531.62561178144
 20
2317.549019567424
 30
0.0
 11
-1531.62561178144
 21
2348.949019567423
 31
0.0
  0
LINE
  5
176EC
330
1A
100
AcDbEntity
  8
ZISSEN1
 48
0.5
100
AcDbLine
 10
-1532.62561178144
 20
2318.699019567424
 30
0.0
 11
-1532.62561178144
 21
2317.049019567423
 31
0.0
  0
LINE
  5
177C6
330
1A
100
AcDbEntity
  8
ZISSEN1
 48
0.5
100
AcDbLine
 10
-1625.093751777614
 20
2458.871122630904
 30
0.0
 11
-1622.643751777614
 21
2458.871122630904
 31
0.0
  0
LINE
  5
177C7
330
1A
100
AcDbEntity
  8
ZISSEN1
 48
0.5
100
AcDbLine
 10
-1622.643751777614
 20
2458.871122630904
 30
0.0
 11
-1622.643751777614
 21
2452.171122630904
 31
0.0
  0
LINE
  5
177C8
330
1A
100
AcDbEntity
  8
ZISSEN1
 48
0.5
100
AcDbLine
 10
-1622.643751777614
 20
2452.171122630904
 30
0.0
 11
-1625.093751777614
 21
2452.171122630904
 31
0.0
  0
DIMENSION
  5
177C9
330
1A
100
AcDbEntity
  8
SUNPOU
 48
0.5
100
AcDbDimension
  2
*D20
 10
-1509.62561178144
 20
2408.749019567411
 30
0.0
 11
-1517.62561178144
 21
2411.499019567411
 31
0.0
 70
    32
  3
標準スタイル
100
AcDbAlignedDimension
 13
-1525.62561178144
 23
2387.249019567411
 33
0.0
 14
-1509.62561178144
 24
2387.249019567411
 34
0.0
100
AcDbRotatedDimension
1001
ACAD
1000
DSTYLE
1002
{
1070
   340
1005
10
1070
    40
1040
1.0
1002
}
  0
DIMENSION
  5
17EE2
330
1A
100
AcDbEntity
  8
SUNPOU
100
AcDbDimension
  2
*D21
 10
-1603.309257638445
 20
2255.749019567408
 30
0.0
 11
-1606.059257638445
 21
2243.499019567408
 31
0.0
 70
    32
  3
標準スタイル
100
AcDbAlignedDimension
 13
-1614.593751777615
 23
2263.369019567408
 33
0.0
 14
-1614.593751777615
 24
2255.749019567408
 34
0.0
 50
90.0
100
AcDbRotatedDimension
1001
ACAD
1000
DSTYLE
1002
{
1070
   340
1005
10
1070
    40
1040
1.0
1002
}
  0
LINE
  5
17F07
330
1A
100
AcDbEntity
  8
CL1
100
AcDbLine
 10
-1763.543893320282
 20
2459.171122630904
 30
0.0
 11
-1753.852766981898
 21
2459.171122630904
 31
0.0
  0
LINE
  5
17F0D
330
1A
100
AcDbEntity
  8
CL1
100
AcDbLine
 10
-1763.543893320282
 20
2383.749019567412
 30
0.0
 11
-1753.852766981898
 21
2383.749019567412
 31
0.0
  0
LINE
  5
17F0E
330
1A
100
AcDbEntity
  8
CL1
100
AcDbLine
 10
-1763.543893320282
 20
2223.749019567411
 30
0.0
 11
-1753.852766981898
 21
2223.749019567411
 31
0.0
  0
VIEWPORT
  5
5D8F
330
5D8E
100
AcDbEntity
 67
     1
  8
0
100
AcDbViewport
 10
221.1744997168847
 20
163.1575835855047
 30
0.0
 40
546.3109391161005
 41
306.5795565503855
 68
     1
 69
     1
1001
ACAD
1000
MVIEW
1002
{
1070
    16
1010
0.0
1020
0.0
1030
0.0
1010
0.0
1020
0.0
1030
1.0
1040
0.0
1040
306.5795565503855
1040
221.1744997168847
1040
163.1575835855047
1040
50.0
1040
0.0
1040
0.0
1070
     0
1070
   100
1070
     1
1070
     0
1070
     0
1070
     0
1070
     0
1070
     0
1040
0.0
1040
0.0
1040
0.0
1040
1.0
1040
1.0
1040
10.0
1040
10.0
1070
     0
1002
{
1002
}
1002
}
  0
VIEWPORT
  5
6001
330
5D8E
100
AcDbEntity
 67
     1
  8
ZISSEN1
100
AcDbViewport
 10
221.7861955525412
 20
157.6960273330388
 30
0.0
 40
385.4999999999997
 41
259.9999999999999
 68
     2
 69
     2
1001
ACAD
1000
MVIEW
1002
{
1070
    16
1010
0.0
1020
0.0
1030
0.0
1010
0.0
1020
0.0
1030
1.0
1040
0.0
1040
519.9999999999999
1040
-1605.923373794786
1040
2328.347592569491
1040
50.0
1040
0.0
1040
0.0
1070
     0
1070
   100
1070
     1
1070
     0
1070
     0
1070
     0
1070
     0
1070
     0
1040
0.0
1040
0.0
1040
0.0
1040
1.0
1040
1.0
1040
10.0
1040
10.0
1070
     0
1002
{
1002
}
1002
}
  0
TEXT
  5
716F
330
5D8E
100
AcDbEntity
 67
     1
  8
SUNPOU
 62
     0
100
AcDbText
 10
374.1863124306944
 20
60.86794705907585
 30
0.0
 40
3.5
  1
縮尺 1/2
  7
ゴシック体
100
AcDbText
  0
ENDSEC
  0
SECTION
  2
OBJECTS
  0
DICTIONARY
  5
C
330
0
100
AcDbDictionary
  3
ACAD_GROUP
350
D
  3
ACAD_LAYOUT
350
5C7D
  3
ACAD_MLINESTYLE
350
E
  3
ACAD_PLOTSETTINGS
350
5C7E
  3
ACAD_PLOTSTYLENAME
350
5C7B
  3
DWGPROPS
350
5E8E
  3
ACDBHEADERROUNDTRIPXREC
350
18197
  0
DICTIONARY
  5
1302F
330
2
100
AcDbDictionary
280
     1
  3
ACAD_LAYERFILTERS
360
13030
  0
DICTIONARY
  5
181B7
330
1A
100
AcDbDictionary
280
     1
  3
ACAD_LAYOUTSELFREF
360
181B8
  0
DICTIONARY
  5
181B9
330
5D8E
100
AcDbDictionary
280
     1
  3
ACAD_LAYOUTSELFREF
360
181BA
  0
DICTIONARY
  5
D
102
{ACAD_REACTORS
330
C
102
}
330
C
100
AcDbDictionary
  3
*A1
350
477D
  3
*A2
350
4C10
  3
*A3
350
4C11
  3
*A4
350
4C12
  3
*A5
350
4C13
  3
*A6
350
4C14
  3
*A7
350
4C15
  3
*A8
350
4C16
  3
*A9
350
4C17
  3
*A10
350
477E
  3
*A11
350
477F
  3
*A12
350
4780
  3
*A13
350
4781
  3
*A14
350
4C0E
  3
*A15
350
4C0F
  0
DICTIONARY
  5
5C7D
102
{ACAD_REACTORS
330
C
102
}
330
C
100
AcDbDictionary
  0
DICTIONARY
  5
E
102
{ACAD_REACTORS
330
C
102
}
330
C
100
AcDbDictionary
  3
STANDARD
350
13
  0
DICTIONARY
  5
5C7E
102
{ACAD_REACTORS
330
C
102
}
330
C
100
AcDbDictionary
  0
ACDBDICTIONARYWDFLT
  5
5C7B
102
{ACAD_REACTORS
330
C
102
}
330
C
100
AcDbDictionary
281
     1
  3
Normal
350
5C7C
100
AcDbDictionaryWithDefault
340
5C7C
  0
XRECORD
  5
5E8E
102
{ACAD_REACTORS
330
C
102
}
330
C
100
AcDbXrecord
  1
DWGPROPS COOKIE
  2

  3

  4

  6

  7

  8

  9

300
=
301
=
302
=
303
=
304
=
305
=
306
=
307
=
308
=
309
=
 40
0.586753587962963
 41
2450495.493631365
 42
2453208.662277431
  1

 90
        0
  0
DICTIONARY
  5
18197
102
{ACAD_REACTORS
330
C
102
}
330
C
100
AcDbDictionary
  3
TSTACKALIGN
350
18198
  3
TSTACKSIZE
350
18199
  3
HYPERLINKBASE
350
1819A
  3
STYLESHEET
350
1819B
  3
LAYOUTDICT
350
1819C
  3
PLOTSETDICT
350
1819D
  3
PLOTSTYLNAMDICT
350
1819E
  3
LWETCUNION
350
1819F
  3
INSUNITS
350
181A0
  3
CEPSNTYPE
350
181A1
  3
FINGERPRINTGUID
350
181A2
  3
VERSIONGUID
350
181A3
  3
PSVPSCALE
350
181A4
  3
PUCSORTHOREF
350
181A5
  3
PUCSORTHOVIEW
350
181A6
  3
PUCSBASE
350
181A7
  3
PUCSORGTOP
350
181A8
  3
PUCSORGBOTTOM
350
181A9
  3
PUCSORGLEFT
350
181AA
  3
PUCSORGRIGHT
350
181AB
  3
PUCSORGFRONT
350
181AC
  3
PUCSORGBACK
350
181AD
  3
UCSORTHOREF
350
181AE
  3
UCSORTHOVIEW
350
181AF
  3
UCSBASE
350
181B0
  3
UCSORGTOP
350
181B1
  3
UCSORGBOTTOM
350
181B2
  3
UCSORGLEFT
350
181B3
  3
UCSORGRIGHT
350
181B4
  3
UCSORGFRONT
350
181B5
  3
UCSORGBACK
350
181B6
  0
DICTIONARY
  5
13030
102
{ACAD_REACTORS
330
1302F
102
}
330
1302F
100
AcDbDictionary
280
     1
  3
BASE
360
13031
  3
CASE
360
13032
  3
KIKOU
360
13033
  0
XRECORD
  5
181B8
102
{ACAD_REACTORS
330
181B7
102
}
330
181B7
100
AcDbXrecord
340
1A
  0
XRECORD
  5
181BA
102
{ACAD_REACTORS
330
181B9
102
}
330
181B9
100
AcDbXrecord
340
5D8E
  0
GROUP
  5
477D
102
{ACAD_REACTORS
330
D
102
}
330
D
100
AcDbGroup
300

 70
     1
 71
     1
  0
GROUP
  5
4C10
102
{ACAD_REACTORS
330
D
102
}
330
D
100
AcDbGroup
300

 70
     1
 71
     1
  0
GROUP
  5
4C11
102
{ACAD_REACTORS
330
D
102
}
330
D
100
AcDbGroup
300

 70
     1
 71
     1
  0
GROUP
  5
4C12
102
{ACAD_REACTORS
330
D
102
}
330
D
100
AcDbGroup
300

 70
     1
 71
     1
  0
GROUP
  5
4C13
102
{ACAD_REACTORS
330
D
102
}
330
D
100
AcDbGroup
300

 70
     1
 71
     1
  0
GROUP
  5
4C14
102
{ACAD_REACTORS
330
D
102
}
330
D
100
AcDbGroup
300

 70
     1
 71
     1
  0
GROUP
  5
4C15
102
{ACAD_REACTORS
330
D
102
}
330
D
100
AcDbGroup
300

 70
     1
 71
     1
  0
GROUP
  5
4C16
102
{ACAD_REACTORS
330
D
102
}
330
D
100
AcDbGroup
300

 70
     1
 71
     1
  0
GROUP
  5
4C17
102
{ACAD_REACTORS
330
D
102
}
330
D
100
AcDbGroup
300

 70
     1
 71
     1
  0
GROUP
  5
477E
102
{ACAD_REACTORS
330
D
102
}
330
D
100
AcDbGroup
300

 70
     1
 71
     1
  0
GROUP
  5
477F
102
{ACAD_REACTORS
330
D
102
}
330
D
100
AcDbGroup
300

 70
     1
 71
     1
  0
GROUP
  5
4780
102
{ACAD_REACTORS
330
D
102
}
330
D
100
AcDbGroup
300

 70
     1
 71
     1
  0
GROUP
  5
4781
102
{ACAD_REACTORS
330
D
102
}
330
D
100
AcDbGroup
300

 70
     1
 71
     1
  0
GROUP
  5
4C0E
102
{ACAD_REACTORS
330
D
102
}
330
D
100
AcDbGroup
300

 70
     1
 71
     1
  0
GROUP
  5
4C0F
102
{ACAD_REACTORS
330
D
102
}
330
D
100
AcDbGroup
300

 70
     1
 71
     1
  0
MLINESTYLE
  5
13
102
{ACAD_REACTORS
330
E
102
}
330
E
100
AcDbMlineStyle
  2
STANDARD
 70
     0
  3

 62
     0
 51
90.0
 52
90.0
 71
     2
 49
0.5
 62
   256
  6
BYLAYER
 49
-0.5
 62
   256
  6
BYLAYER
  0
ACDBPLACEHOLDER
  5
5C7C
102
{ACAD_REACTORS
330
5C7B
102
}
330
5C7B
100
AcDbPlaceHolder
280
     0
  0
XRECORD
  5
18198
102
{ACAD_REACTORS
330
18197
102
}
330
18197
100
AcDbXrecord
 90
        1
  0
XRECORD
  5
18199
102
{ACAD_REACTORS
330
18197
102
}
330
18197
100
AcDbXrecord
 90
       70
  0
XRECORD
  5
1819A
102
{ACAD_REACTORS
330
18197
102
}
330
18197
100
AcDbXrecord
  1

  0
XRECORD
  5
1819B
102
{ACAD_REACTORS
330
18197
102
}
330
18197
100
AcDbXrecord
  1

  0
XRECORD
  5
1819C
102
{ACAD_REACTORS
330
18197
102
}
330
18197
100
AcDbXrecord
340
5C7D
  0
XRECORD
  5
1819D
102
{ACAD_REACTORS
330
18197
102
}
330
18197
100
AcDbXrecord
340
5C7E
  0
XRECORD
  5
1819E
102
{ACAD_REACTORS
330
18197
102
}
330
18197
100
AcDbXrecord
340
5C7B
  0
XRECORD
  5
1819F
102
{ACAD_REACTORS
330
18197
102
}
330
18197
100
AcDbXrecord
 90
    10781
  0
XRECORD
  5
181A0
102
{ACAD_REACTORS
330
18197
102
}
330
18197
100
AcDbXrecord
 90
        0
  0
XRECORD
  5
181A1
102
{ACAD_REACTORS
330
18197
102
}
330
18197
100
AcDbXrecord
 90
        0
  0
XRECORD
  5
181A2
102
{ACAD_REACTORS
330
18197
102
}
330
18197
100
AcDbXrecord
  1
{225A7F0D-DA29-11D8-946A-0000E2416295}
  0
XRECORD
  5
181A3
102
{ACAD_REACTORS
330
18197
102
}
330
18197
100
AcDbXrecord
  1
{77B81518-7264-448E-A30C-ABAF7CC4959C}
  0
XRECORD
  5
181A4
102
{ACAD_REACTORS
330
18197
102
}
330
18197
100
AcDbXrecord
 40
0.0
  0
XRECORD
  5
181A5
102
{ACAD_REACTORS
330
18197
102
}
330
18197
100
AcDbXrecord
340
0
  0
XRECORD
  5
181A6
102
{ACAD_REACTORS
330
18197
102
}
330
18197
100
AcDbXrecord
 70
     0
  0
XRECORD
  5
181A7
102
{ACAD_REACTORS
330
18197
102
}
330
18197
100
AcDbXrecord
340
0
  0
XRECORD
  5
181A8
102
{ACAD_REACTORS
330
18197
102
}
330
18197
100
AcDbXrecord
 10
0.0
 20
0.0
 30
0.0
  0
XRECORD
  5
181A9
102
{ACAD_REACTORS
330
18197
102
}
330
18197
100
AcDbXrecord
 10
0.0
 20
0.0
 30
0.0
  0
XRECORD
  5
181AA
102
{ACAD_REACTORS
330
18197
102
}
330
18197
100
AcDbXrecord
 10
0.0
 20
0.0
 30
0.0
  0
XRECORD
  5
181AB
102
{ACAD_REACTORS
330
18197
102
}
330
18197
100
AcDbXrecord
 10
0.0
 20
0.0
 30
0.0
  0
XRECORD
  5
181AC
102
{ACAD_REACTORS
330
18197
102
}
330
18197
100
AcDbXrecord
 10
0.0
 20
0.0
 30
0.0
  0
XRECORD
  5
181AD
102
{ACAD_REACTORS
330
18197
102
}
330
18197
100
AcDbXrecord
 10
0.0
 20
0.0
 30
0.0
  0
XRECORD
  5
181AE
102
{ACAD_REACTORS
330
18197
102
}
330
18197
100
AcDbXrecord
340
0
  0
XRECORD
  5
181AF
102
{ACAD_REACTORS
330
18197
102
}
330
18197
100
AcDbXrecord
 70
     0
  0
XRECORD
  5
181B0
102
{ACAD_REACTORS
330
18197
102
}
330
18197
100
AcDbXrecord
340
0
  0
XRECORD
  5
181B1
102
{ACAD_REACTORS
330
18197
102
}
330
18197
100
AcDbXrecord
 10
0.0
 20
0.0
 30
0.0
  0
XRECORD
  5
181B2
102
{ACAD_REACTORS
330
18197
102
}
330
18197
100
AcDbXrecord
 10
0.0
 20
0.0
 30
0.0
  0
XRECORD
  5
181B3
102
{ACAD_REACTORS
330
18197
102
}
330
18197
100
AcDbXrecord
 10
0.0
 20
0.0
 30
0.0
  0
XRECORD
  5
181B4
102
{ACAD_REACTORS
330
18197
102
}
330
18197
100
AcDbXrecord
 10
0.0
 20
0.0
 30
0.0
  0
XRECORD
  5
181B5
102
{ACAD_REACTORS
330
18197
102
}
330
18197
100
AcDbXrecord
 10
0.0
 20
0.0
 30
0.0
  0
XRECORD
  5
181B6
102
{ACAD_REACTORS
330
18197
102
}
330
18197
100
AcDbXrecord
 10
0.0
 20
0.0
 30
0.0
  0
XRECORD
  5
13031
102
{ACAD_REACTORS
330
13030
102
}
330
13030
100
AcDbXrecord
  1
BASE
  1
BASE*
  1
*
  1
*
 70
     0
  1
*
  1
*
  0
XRECORD
  5
13032
102
{ACAD_REACTORS
330
13030
102
}
330
13030
100
AcDbXrecord
  1
CASE
  1
CASE*
  1
*
  1
*
 70
     0
  1
*
  1
*
  0
XRECORD
  5
13033
102
{ACAD_REACTORS
330
13030
102
}
330
13030
100
AcDbXrecord
  1
KIKOU
  1
KIKOU*
  1
*
  1
*
 70
     0
  1
*
  1
*
  0
ENDSEC
  0
EOF
