  0
SECTION
  2
HEADER
  9
$ACADVER
  1
AC1015
  9
$ACADMAINTVER
 70
     6
  9
$DWGCODEPAGE
  3
ANSI_932
  9
$INSBASE
 10
0.0
 20
0.0
 30
0.0
  9
$EXTMIN
 10
-1762.638263093401
 20
1911.195975297861
 30
0.0
  9
$EXTMAX
 10
-1490.761498475676
 20
2157.187846718195
 30
0.0
  9
$LIMMIN
 10
0.0
 20
0.0
  9
$LIMMAX
 10
420.0
 20
297.0
  9
$ORTHOMODE
 70
     1
  9
$REGENMODE
 70
     1
  9
$FILLMODE
 70
     1
  9
$QTEXTMODE
 70
     0
  9
$MIRRTEXT
 70
     1
  9
$LTSCALE
 40
1.0
  9
$ATTMODE
 70
     1
  9
$TEXTSIZE
 40
2.5
  9
$TRACEWID
 40
1.0
  9
$TEXTSTYLE
  7
ゴシック体
  9
$CLAYER
  8
SUNPOU
  9
$CELTYPE
  6
BYLAYER
  9
$CECOLOR
 62
   256
  9
$CELTSCALE
 40
1.0
  9
$DISPSILH
 70
     0
  9
$DIMSCALE
 40
0.0
  9
$DIMASZ
 40
3.0
  9
$DIMEXO
 40
0.5
  9
$DIMDLI
 40
0.5
  9
$DIMRND
 40
0.0
  9
$DIMDLE
 40
0.0
  9
$DIMEXE
 40
0.5
  9
$DIMTP
 40
0.0
  9
$DIMTM
 40
0.0
  9
$DIMTXT
 40
3.5
  9
$DIMCEN
 40
0.0
  9
$DIMTSZ
 40
0.0
  9
$DIMTOL
 70
     0
  9
$DIMLIM
 70
     0
  9
$DIMTIH
 70
     0
  9
$DIMTOH
 70
     0
  9
$DIMSE1
 70
     0
  9
$DIMSE2
 70
     0
  9
$DIMTAD
 70
     1
  9
$DIMZIN
 70
     8
  9
$DIMBLK
  1

  9
$DIMASO
 70
     1
  9
$DIMSHO
 70
     1
  9
$DIMPOST
  1

  9
$DIMAPOST
  1

  9
$DIMALT
 70
     0
  9
$DIMALTD
 70
     2
  9
$DIMALTF
 40
25.4
  9
$DIMLFAC
 40
1.0
  9
$DIMTOFL
 70
     1
  9
$DIMTVP
 40
0.0
  9
$DIMTIX
 70
     0
  9
$DIMSOXD
 70
     0
  9
$DIMSAH
 70
     0
  9
$DIMBLK1
  1

  9
$DIMBLK2
  1

  9
$DIMSTYLE
  2
標準スタイル
  9
$DIMCLRD
 70
     1
  9
$DIMCLRE
 70
     1
  9
$DIMCLRT
 70
     1
  9
$DIMTFAC
 40
1.0
  9
$DIMGAP
 40
1.0
  9
$DIMJUST
 70
     0
  9
$DIMSD1
 70
     0
  9
$DIMSD2
 70
     0
  9
$DIMTOLJ
 70
     1
  9
$DIMTZIN
 70
     8
  9
$DIMALTZ
 70
     0
  9
$DIMALTTZ
 70
     0
  9
$DIMUPT
 70
     0
  9
$DIMDEC
 70
     2
  9
$DIMTDEC
 70
     2
  9
$DIMALTU
 70
     2
  9
$DIMALTTD
 70
     2
  9
$DIMTXSTY
  7
ゴシック体
  9
$DIMAUNIT
 70
     0
  9
$DIMADEC
 70
     0
  9
$DIMALTRND
 40
0.0
  9
$DIMAZIN
 70
     0
  9
$DIMDSEP
 70
    46
  9
$DIMATFIT
 70
     3
  9
$DIMFRAC
 70
     0
  9
$DIMLDRBLK
  1

  9
$DIMLUNIT
 70
     2
  9
$DIMLWD
 70
    -2
  9
$DIMLWE
 70
    -2
  9
$DIMTMOVE
 70
     0
  9
$LUNITS
 70
     2
  9
$LUPREC
 70
     4
  9
$SKETCHINC
 40
1.0
  9
$FILLETRAD
 40
0.0
  9
$AUNITS
 70
     0
  9
$AUPREC
 70
     0
  9
$MENU
  1
.
  9
$ELEVATION
 40
0.0
  9
$PELEVATION
 40
0.0
  9
$THICKNESS
 40
0.0
  9
$LIMCHECK
 70
     0
  9
$CHAMFERA
 40
10.0
  9
$CHAMFERB
 40
10.0
  9
$CHAMFERC
 40
2.0
  9
$CHAMFERD
 40
0.7853981633974483
  9
$SKPOLY
 70
     0
  9
$TDCREATE
 40
2450495.493631365
  9
$TDUCREATE
 40
2450495.118631365
  9
$TDUPDATE
 40
2458417.409946852
  9
$TDUUPDATE
 40
2458417.034946851
  9
$TDINDWG
 40
1.7111617361
  9
$TDUSRTIMER
 40
1.7111616204
  9
$USRTIMER
 70
     1
  9
$ANGBASE
 50
0.0
  9
$ANGDIR
 70
     0
  9
$PDMODE
 70
    99
  9
$PDSIZE
 40
0.0
  9
$PLINEWID
 40
0.0
  9
$SPLFRAME
 70
     0
  9
$SPLINETYPE
 70
     6
  9
$SPLINESEGS
 70
     8
  9
$HANDSEED
  5
17109
  9
$SURFTAB1
 70
     6
  9
$SURFTAB2
 70
     6
  9
$SURFTYPE
 70
     6
  9
$SURFU
 70
     6
  9
$SURFV
 70
     6
  9
$UCSBASE
  2

  9
$UCSNAME
  2

  9
$UCSORG
 10
0.0
 20
0.0
 30
0.0
  9
$UCSXDIR
 10
1.0
 20
0.0
 30
0.0
  9
$UCSYDIR
 10
0.0
 20
1.0
 30
0.0
  9
$UCSORTHOREF
  2

  9
$UCSORTHOVIEW
 70
     0
  9
$UCSORGTOP
 10
0.0
 20
0.0
 30
0.0
  9
$UCSORGBOTTOM
 10
0.0
 20
0.0
 30
0.0
  9
$UCSORGLEFT
 10
0.0
 20
0.0
 30
0.0
  9
$UCSORGRIGHT
 10
0.0
 20
0.0
 30
0.0
  9
$UCSORGFRONT
 10
0.0
 20
0.0
 30
0.0
  9
$UCSORGBACK
 10
0.0
 20
0.0
 30
0.0
  9
$PUCSBASE
  2

  9
$PUCSNAME
  2

  9
$PUCSORG
 10
0.0
 20
0.0
 30
0.0
  9
$PUCSXDIR
 10
1.0
 20
0.0
 30
0.0
  9
$PUCSYDIR
 10
0.0
 20
1.0
 30
0.0
  9
$PUCSORTHOREF
  2

  9
$PUCSORTHOVIEW
 70
     0
  9
$PUCSORGTOP
 10
0.0
 20
0.0
 30
0.0
  9
$PUCSORGBOTTOM
 10
0.0
 20
0.0
 30
0.0
  9
$PUCSORGLEFT
 10
0.0
 20
0.0
 30
0.0
  9
$PUCSORGRIGHT
 10
0.0
 20
0.0
 30
0.0
  9
$PUCSORGFRONT
 10
0.0
 20
0.0
 30
0.0
  9
$PUCSORGBACK
 10
0.0
 20
0.0
 30
0.0
  9
$USERI1
 70
     0
  9
$USERI2
 70
     0
  9
$USERI3
 70
     0
  9
$USERI4
 70
     0
  9
$USERI5
 70
     0
  9
$USERR1
 40
0.0
  9
$USERR2
 40
0.0
  9
$USERR3
 40
0.0
  9
$USERR4
 40
0.0
  9
$USERR5
 40
0.0
  9
$WORLDVIEW
 70
     1
  9
$SHADEDGE
 70
     3
  9
$SHADEDIF
 70
    70
  9
$TILEMODE
 70
     0
  9
$MAXACTVP
 70
    16
  9
$PINSBASE
 10
0.0
 20
0.0
 30
0.0
  9
$PLIMCHECK
 70
     0
  9
$PEXTMIN
 10
29.02808658319349
 20
27.68156489839282
 30
-0.0015258207003583
  9
$PEXTMAX
 10
414.5580321383171
 20
287.7063768696434
 30
0.0000000349246037
  9
$PLIMMIN
 10
29.02808658319349
 20
27.68156489839281
  9
$PLIMMAX
 10
29.02808658319349
 20
27.68156489839281
  9
$UNITMODE
 70
     0
  9
$VISRETAIN
 70
     0
  9
$PLINEGEN
 70
     0
  9
$PSLTSCALE
 70
     1
  9
$TREEDEPTH
 70
  3020
  9
$CMLSTYLE
  2
STANDARD
  9
$CMLJUST
 70
     0
  9
$CMLSCALE
 40
1.0
  9
$PROXYGRAPHICS
 70
     1
  9
$MEASUREMENT
 70
     1
  9
$CELWEIGHT
370
    -1
  9
$ENDCAPS
280
     0
  9
$JOINSTYLE
280
     0
  9
$LWDISPLAY
290
     0
  9
$INSUNITS
 70
     0
  9
$HYPERLINKBASE
  1

  9
$STYLESHEET
  1

  9
$XEDIT
290
     1
  9
$CEPSNTYPE
380
     0
  9
$PSTYLEMODE
290
     1
  9
$FINGERPRINTGUID
  2
{225A7F0D-DA29-11D8-946A-0000E2416295}
  9
$VERSIONGUID
  2
{1ED09E41-48A8-4BC2-871C-C4F3A0A20A24}
  9
$EXTNAMES
290
     1
  9
$PSVPSCALE
 40
0.0
  9
$OLESTARTUP
290
     0
  0
ENDSEC
  0
SECTION
  2
CLASSES
  0
CLASS
  1
LWPOLYLINE
  2
AcDbPolyline
  3
AutoCAD 2000
 90
    32768
280
     0
281
     1
  0
CLASS
  1
HATCH
  2
AcDbHatch
  3
AutoCAD 2000
 90
    32768
280
     0
281
     1
  0
CLASS
  1
ACDBDICTIONARYWDFLT
  2
AcDbDictionaryWithDefault
  3
AutoCAD 2000
 90
        0
280
     0
281
     0
  0
CLASS
  1
ACDBPLACEHOLDER
  2
AcDbPlaceHolder
  3
AutoCAD 2000
 90
        0
280
     0
281
     0
  0
CLASS
  1
LAYOUT
  2
AcDbLayout
  3
AutoCAD 2000
 90
        0
280
     0
281
     0
  0
CLASS
  1
LONG_TRANSACTION
  2
AcDbLongTransaction
  3
AutoCAD 2000
 90
    32768
280
     0
281
     0
  0
CLASS
  1
LWPOLYLINE
  2
AcDbPolyline
  3
AutoCAD 2000
 90
    32768
280
     0
281
     1
  0
CLASS
  1
HATCH
  2
AcDbHatch
  3
AutoCAD 2000
 90
    32768
280
     0
281
     1
  0
CLASS
  1
XRECORD
  2
AcDbXrecord
  3
AutoCAD 2000
 90
    32768
280
     0
281
     0
  0
ENDSEC
  0
SECTION
  2
TABLES
  0
TABLE
  2
VPORT
  5
8
330
0
100
AcDbSymbolTable
 70
     2
  0
VPORT
  5
17108
330
8
100
AcDbSymbolTableRecord
100
AcDbViewportTableRecord
  2
*Active
 70
     0
 10
0.0
 20
0.0
 11
1.0
 21
1.0
 12
-1626.656325099503
 22
2034.147567040324
 13
0.0
 23
0.0
 14
5.0
 24
5.0
 15
0.0
 25
0.0
 16
0.0
 26
0.0
 36
1.0
 17
0.0
 27
0.0
 37
0.0
 40
248.983853589906
 41
1.781954887218045
 42
50.0
 43
0.0
 44
0.0
 50
0.0
 51
0.0
 71
     0
 72
   100
 73
     1
 74
     0
 75
     0
 76
     0
 77
     0
 78
     0
281
     0
 65
     1
110
0.0
120
0.0
130
0.0
111
1.0
121
0.0
131
0.0
112
0.0
122
1.0
132
0.0
 79
     0
146
0.0
  0
ENDTAB
  0
TABLE
  2
LTYPE
  5
5
330
0
100
AcDbSymbolTable
 70
     3
  0
LTYPE
  5
14
330
5
100
AcDbSymbolTableRecord
100
AcDbLinetypeTableRecord
  2
BYBLOCK
 70
     0
  3

 72
    65
 73
     0
 40
0.0
  0
LTYPE
  5
15
330
5
100
AcDbSymbolTableRecord
100
AcDbLinetypeTableRecord
  2
BYLAYER
 70
     0
  3

 72
    65
 73
     0
 40
0.0
  0
LTYPE
  5
16
330
5
100
AcDbSymbolTableRecord
100
AcDbLinetypeTableRecord
  2
CONTINUOUS
 70
     0
  3
Solid line
 72
    65
 73
     0
 40
0.0
  0
LTYPE
  5
329
330
5
100
AcDbSymbolTableRecord
100
AcDbLinetypeTableRecord
  2
DASHEDX2
 70
     0
  3
____  ____  ____  ____  ____  ____  ____  ____ 
 72
    65
 73
     2
 40
1.5
 49
1.0
 74
     0
 49
-0.5
 74
     0
  0
LTYPE
  5
1956
330
5
100
AcDbSymbolTableRecord
100
AcDbLinetypeTableRecord
  2
CENTERX2
 70
     0
  3
________  __  ________  __  ________  __  _____
 72
    65
 73
     4
 40
4.0
 49
2.5
 74
     0
 49
-0.5
 74
     0
 49
0.5
 74
     0
 49
-0.5
 74
     0
  0
ENDTAB
  0
TABLE
  2
LAYER
  5
2
102
{ACAD_XDICTIONARY
360
1302F
102
}
330
0
100
AcDbSymbolTable
 70
     5
  0
LAYER
  5
F
330
2
100
AcDbSymbolTableRecord
100
AcDbLayerTableRecord
  2
0
 70
     0
 62
     7
  6
CONTINUOUS
370
    -3
390
5C7C
  0
LAYER
  5
18F
330
2
100
AcDbSymbolTableRecord
100
AcDbLayerTableRecord
  2
ZISSEN1
 70
     0
 62
     7
  6
CONTINUOUS
370
    -3
390
5C7C
  0
LAYER
  5
529
330
2
100
AcDbSymbolTableRecord
100
AcDbLayerTableRecord
  2
SUNPOU
 70
     0
 62
     1
  6
CONTINUOUS
370
    -3
390
5C7C
  0
LAYER
  5
195A
330
2
100
AcDbSymbolTableRecord
100
AcDbLayerTableRecord
  2
CL1
 70
     0
 62
   210
  6
CENTERX2
370
    -3
390
5C7C
  0
LAYER
  5
3A9B
330
2
100
AcDbSymbolTableRecord
100
AcDbLayerTableRecord
  2
DEFPOINTS
 70
     0
 62
     7
  6
CONTINUOUS
290
     0
370
    -3
390
5C7C
  0
ENDTAB
  0
TABLE
  2
STYLE
  5
3
330
0
100
AcDbSymbolTable
 70
     2
  0
STYLE
  5
10
330
3
100
AcDbSymbolTableRecord
100
AcDbTextStyleTableRecord
  2
STANDARD
 70
     0
 40
0.0
 41
1.0
 50
0.0
 71
     0
 42
3.0
  3
txt
  4
BigFont
  0
STYLE
  5
1960
330
3
100
AcDbSymbolTableRecord
100
AcDbTextStyleTableRecord
  2
ゴシック体
 70
     0
 40
0.0
 41
1.0
 50
0.0
 71
     0
 42
2.5
  3
MS Gothic.ttf
  4

1001
ACAD
1000
MS Gothic
1071
    32817
  0
ENDTAB
  0
TABLE
  2
VIEW
  5
6
330
0
100
AcDbSymbolTable
 70
     0
  0
ENDTAB
  0
TABLE
  2
UCS
  5
7
330
0
100
AcDbSymbolTable
 70
     0
  0
ENDTAB
  0
TABLE
  2
APPID
  5
9
330
0
100
AcDbSymbolTable
 70
     5
  0
APPID
  5
11
330
9
100
AcDbSymbolTableRecord
100
AcDbRegAppTableRecord
  2
ACAD
 70
     0
  0
APPID
  5
4005
330
9
100
AcDbSymbolTableRecord
100
AcDbRegAppTableRecord
  2
CONTENTTABDATA
 70
     0
  0
APPID
  5
4006
330
9
100
AcDbSymbolTableRecord
100
AcDbRegAppTableRecord
  2
CONTENTCURRENTTAB
 70
     0
  0
APPID
  5
477B
330
9
100
AcDbSymbolTableRecord
100
AcDbRegAppTableRecord
  2
CONTENTBLOCKDESCRIPTION
 70
     0
  0
APPID
  5
477C
330
9
100
AcDbSymbolTableRecord
100
AcDbRegAppTableRecord
  2
CONTENTBLOCKICON
 70
     0
  0
ENDTAB
  0
TABLE
  2
DIMSTYLE
  5
A
330
0
100
AcDbSymbolTable
 70
     2
100
AcDbDimStyleTable
 71
     0
  0
DIMSTYLE
105
1D
330
A
100
AcDbSymbolTableRecord
100
AcDbDimStyleTableRecord
  2
STANDARD
 70
     0
340
10
  0
DIMSTYLE
105
52E
102
{ACAD_REACTORS
330
13A79
330
140C9
330
140CB
330
13EEB
330
13EED
330
13EEE
330
13EFC
330
13D66
330
13CD1
330
13EE1
330
13A7E
330
13A7B
330
13A7A
330
13CCF
330
13A7C
330
13A7D
330
15E40
330
13D92
330
14104
330
170A2
102
}
330
A
100
AcDbSymbolTableRecord
100
AcDbDimStyleTableRecord
  2
標準スタイル
 70
     0
 40
0.0
 41
3.0
 42
0.5
 43
0.5
 44
0.5
 73
     0
 74
     0
 77
     1
 78
     8
140
3.5
141
0.0
147
1.0
172
     1
176
     1
177
     1
178
     1
271
     2
272
     2
284
     8
340
1960
  0
ENDTAB
  0
TABLE
  2
BLOCK_RECORD
  5
1
330
0
100
AcDbSymbolTable
 70
    20
  0
BLOCK_RECORD
  5
1A
102
{ACAD_XDICTIONARY
360
170FA
102
}
330
1
100
AcDbSymbolTableRecord
100
AcDbBlockTableRecord
  2
*MODEL_SPACE
340
17104
  0
BLOCK_RECORD
  5
5D8E
102
{ACAD_XDICTIONARY
360
170FC
102
}
330
1
100
AcDbSymbolTableRecord
100
AcDbBlockTableRecord
  2
*PAPER_SPACE
340
17105
  0
BLOCK_RECORD
  5
14158
330
1
100
AcDbSymbolTableRecord
100
AcDbBlockTableRecord
  2
*D0
340
0
  0
BLOCK_RECORD
  5
14164
330
1
100
AcDbSymbolTableRecord
100
AcDbBlockTableRecord
  2
*D1
340
0
  0
BLOCK_RECORD
  5
14170
330
1
100
AcDbSymbolTableRecord
100
AcDbBlockTableRecord
  2
*D2
340
0
  0
BLOCK_RECORD
  5
1417C
330
1
100
AcDbSymbolTableRecord
100
AcDbBlockTableRecord
  2
*D3
340
0
  0
BLOCK_RECORD
  5
14188
330
1
100
AcDbSymbolTableRecord
100
AcDbBlockTableRecord
  2
*D4
340
0
  0
BLOCK_RECORD
  5
14194
330
1
100
AcDbSymbolTableRecord
100
AcDbBlockTableRecord
  2
*D5
340
0
  0
BLOCK_RECORD
  5
141EC
330
1
100
AcDbSymbolTableRecord
100
AcDbBlockTableRecord
  2
*D6
340
0
  0
BLOCK_RECORD
  5
14204
330
1
100
AcDbSymbolTableRecord
100
AcDbBlockTableRecord
  2
*D7
340
0
  0
BLOCK_RECORD
  5
14210
330
1
100
AcDbSymbolTableRecord
100
AcDbBlockTableRecord
  2
*D8
340
0
  0
BLOCK_RECORD
  5
1421E
330
1
100
AcDbSymbolTableRecord
100
AcDbBlockTableRecord
  2
*D9
340
0
  0
BLOCK_RECORD
  5
1422C
330
1
100
AcDbSymbolTableRecord
100
AcDbBlockTableRecord
  2
*D10
340
0
  0
BLOCK_RECORD
  5
14238
330
1
100
AcDbSymbolTableRecord
100
AcDbBlockTableRecord
  2
*D11
340
0
  0
BLOCK_RECORD
  5
14252
330
1
100
AcDbSymbolTableRecord
100
AcDbBlockTableRecord
  2
*D12
340
0
  0
BLOCK_RECORD
  5
14260
330
1
100
AcDbSymbolTableRecord
100
AcDbBlockTableRecord
  2
*D13
340
0
  0
BLOCK_RECORD
  5
14278
330
1
100
AcDbSymbolTableRecord
100
AcDbBlockTableRecord
  2
*D14
340
0
  0
BLOCK_RECORD
  5
14284
330
1
100
AcDbSymbolTableRecord
100
AcDbBlockTableRecord
  2
*D15
340
0
  0
BLOCK_RECORD
  5
14290
330
1
100
AcDbSymbolTableRecord
100
AcDbBlockTableRecord
  2
*D16
340
0
  0
BLOCK_RECORD
  5
1429C
330
1
100
AcDbSymbolTableRecord
100
AcDbBlockTableRecord
  2
*D17
340
0
  0
BLOCK_RECORD
  5
15E41
330
1
100
AcDbSymbolTableRecord
100
AcDbBlockTableRecord
  2
*D18
340
0
  0
BLOCK_RECORD
  5
170A3
330
1
100
AcDbSymbolTableRecord
100
AcDbBlockTableRecord
  2
*D19
340
0
  0
ENDTAB
  0
ENDSEC
  0
SECTION
  2
BLOCKS
  0
BLOCK
  5
1B
330
1A
100
AcDbEntity
  8
0
100
AcDbBlockBegin
  2
*MODEL_SPACE
 70
     0
 10
0.0
 20
0.0
 30
0.0
  3
*MODEL_SPACE
  1

  0
ENDBLK
  5
1C
330
1A
100
AcDbEntity
  8
0
100
AcDbBlockEnd
  0
BLOCK
  5
5E60
330
5D8E
100
AcDbEntity
 67
     1
  8
0
100
AcDbBlockBegin
  2
*PAPER_SPACE
 70
     0
 10
0.0
 20
0.0
 30
0.0
  3
*PAPER_SPACE
  1

  0
ENDBLK
  5
5E61
330
5D8E
100
AcDbEntity
 67
     1
  8
0
100
AcDbBlockEnd
  0
BLOCK
  5
14162
330
14158
100
AcDbEntity
  8
0
100
AcDbBlockBegin
  2
*D0
 70
     1
 10
0.0
 20
0.0
 30
0.0
  3
*D0
  1

  0
LINE
  5
16068
330
14158
100
AcDbEntity
  8
SUNPOU
 62
     1
100
AcDbLine
 10
-1742.813174870865
 20
2101.687846718194
 30
0.0
 11
-1625.313174870865
 21
2101.687846718194
 31
0.0
  0
LINE
  5
16069
330
14158
100
AcDbEntity
  8
SUNPOU
 62
     1
100
AcDbLine
 10
-1656.313174870865
 20
2157.187846718195
 30
0.0
 11
-1625.313174870865
 21
2157.187846718195
 31
0.0
  0
LINE
  5
1606A
330
14158
100
AcDbEntity
  8
SUNPOU
 62
     1
100
AcDbLine
 10
-1625.813174870865
 20
2104.687846718193
 30
0.0
 11
-1625.813174870865
 21
2154.187846718195
 31
0.0
  0
SOLID
  5
1606B
330
14158
100
AcDbEntity
  8
SUNPOU
 62
     1
100
AcDbTrace
 10
-1626.313174870865
 20
2104.687846718193
 30
0.0
 11
-1625.313174870865
 21
2104.687846718193
 31
0.0
 12
-1625.813174870865
 22
2101.687846718194
 32
0.0
 13
-1625.813174870865
 23
2101.687846718194
 33
0.0
  0
SOLID
  5
1606C
330
14158
100
AcDbEntity
  8
SUNPOU
 62
     1
100
AcDbTrace
 10
-1626.313174870865
 20
2154.187846718195
 30
0.0
 11
-1625.313174870865
 21
2154.187846718195
 31
0.0
 12
-1625.813174870865
 22
2157.187846718195
 32
0.0
 13
-1625.813174870865
 23
2157.187846718195
 33
0.0
  0
MTEXT
  5
1606D
330
14158
100
AcDbEntity
  8
SUNPOU
 62
     1
100
AcDbMText
 10
-1628.563174870865
 20
2129.437846718194
 30
0.0
 40
3.5
 41
0.0
 71
     5
 72
     1
  1
\A1;(55.5)
 11
0.0000000000000001
 21
1.0
 31
0.0
 73
     1
 44
1.0
1001
ACAD
1000
MTEXTBEGIN
1070
    73
1070
     1
1070
    44
1040
1.0
1070
    74
1070
     0
1000
MTEXTEND
  0
POINT
  5
1606E
330
14158
100
AcDbEntity
  8
DEFPOINTS
 62
     0
100
AcDbPoint
 10
-1743.313174870865
 20
2101.687846718194
 30
0.0
  0
POINT
  5
1606F
330
14158
100
AcDbEntity
  8
DEFPOINTS
 62
     0
100
AcDbPoint
 10
-1656.813174870864
 20
2157.187846718195
 30
0.0
  0
POINT
  5
16070
330
14158
100
AcDbEntity
  8
DEFPOINTS
 62
     0
100
AcDbPoint
 10
-1625.813174870865
 20
2157.187846718195
 30
0.0
  0
ENDBLK
  5
14163
330
14158
100
AcDbEntity
  8
0
100
AcDbBlockEnd
  0
BLOCK
  5
1416E
330
14164
100
AcDbEntity
  8
0
100
AcDbBlockBegin
  2
*D1
 70
     1
 10
0.0
 20
0.0
 30
0.0
  3
*D1
  1

  0
LINE
  5
15FA0
330
14164
100
AcDbEntity
  8
SUNPOU
 62
     1
100
AcDbLine
 10
-1751.740567415209
 20
2081.695975297861
 30
0.0
 11
-1620.24056741521
 21
2081.695975297861
 31
0.0
  0
LINE
  5
15FA1
330
14164
100
AcDbEntity
  8
SUNPOU
 62
     1
100
AcDbLine
 10
-1649.813174870865
 20
2071.695975297861
 30
0.0
 11
-1620.24056741521
 21
2071.695975297861
 31
0.0
  0
LINE
  5
15FA2
330
14164
100
AcDbEntity
  8
SUNPOU
 62
     1
100
AcDbLine
 10
-1620.740567415209
 20
2078.695975297861
 30
0.0
 11
-1620.740567415209
 21
2074.695975297861
 31
0.0
  0
SOLID
  5
15FA3
330
14164
100
AcDbEntity
  8
SUNPOU
 62
     1
100
AcDbTrace
 10
-1621.240567415209
 20
2078.695975297861
 30
0.0
 11
-1620.24056741521
 21
2078.695975297861
 31
0.0
 12
-1620.740567415209
 22
2081.695975297861
 32
0.0
 13
-1620.740567415209
 23
2081.695975297861
 33
0.0
  0
SOLID
  5
15FA4
330
14164
100
AcDbEntity
  8
SUNPOU
 62
     1
100
AcDbTrace
 10
-1621.240567415209
 20
2074.695975297861
 30
0.0
 11
-1620.24056741521
 21
2074.695975297861
 31
0.0
 12
-1620.740567415209
 22
2071.695975297861
 32
0.0
 13
-1620.740567415209
 23
2071.695975297861
 33
0.0
  0
MTEXT
  5
15FA5
330
14164
100
AcDbEntity
  8
SUNPOU
 62
     1
100
AcDbMText
 10
-1623.490567415211
 20
2076.69597529786
 30
0.0
 40
3.5
 41
0.0
 71
     5
 72
     1
  1
\A1;10
 11
0.0000000000000001
 21
1.0
 31
0.0
 73
     1
 44
1.0
1001
ACAD
1000
MTEXTBEGIN
1070
    73
1070
     1
1070
    44
1040
1.0
1070
    74
1070
     0
1000
MTEXTEND
  0
POINT
  5
15FA6
330
14164
100
AcDbEntity
  8
DEFPOINTS
 62
     0
100
AcDbPoint
 10
-1752.24056741521
 20
2081.695975297861
 30
0.0
  0
POINT
  5
15FA7
330
14164
100
AcDbEntity
  8
DEFPOINTS
 62
     0
100
AcDbPoint
 10
-1650.313174870865
 20
2071.695975297861
 30
0.0
  0
POINT
  5
15FA8
330
14164
100
AcDbEntity
  8
DEFPOINTS
 62
     0
100
AcDbPoint
 10
-1620.740567415209
 20
2071.695975297861
 30
0.0
  0
ENDBLK
  5
1416F
330
14164
100
AcDbEntity
  8
0
100
AcDbBlockEnd
  0
BLOCK
  5
1417A
330
14170
100
AcDbEntity
  8
0
100
AcDbBlockBegin
  2
*D2
 70
     1
 10
0.0
 20
0.0
 30
0.0
  3
*D2
  1

  0
LINE
  5
15FA9
330
14170
100
AcDbEntity
  8
SUNPOU
 62
     1
100
AcDbLine
 10
-1751.740567415209
 20
1951.695975297861
 30
0.0
 11
-1620.24056741521
 21
1951.695975297861
 31
0.0
  0
LINE
  5
15FAA
330
14170
100
AcDbEntity
  8
SUNPOU
 62
     1
100
AcDbLine
 10
-1649.813174870865
 20
1961.69597529786
 30
0.0
 11
-1620.24056741521
 21
1961.69597529786
 31
0.0
  0
LINE
  5
15FAB
330
14170
100
AcDbEntity
  8
SUNPOU
 62
     1
100
AcDbLine
 10
-1620.740567415209
 20
1954.695975297861
 30
0.0
 11
-1620.740567415209
 21
1958.695975297861
 31
0.0
  0
SOLID
  5
15FAC
330
14170
100
AcDbEntity
  8
SUNPOU
 62
     1
100
AcDbTrace
 10
-1621.240567415209
 20
1954.695975297861
 30
0.0
 11
-1620.24056741521
 21
1954.695975297861
 31
0.0
 12
-1620.740567415209
 22
1951.695975297861
 32
0.0
 13
-1620.740567415209
 23
1951.695975297861
 33
0.0
  0
SOLID
  5
15FAD
330
14170
100
AcDbEntity
  8
SUNPOU
 62
     1
100
AcDbTrace
 10
-1621.240567415209
 20
1958.695975297861
 30
0.0
 11
-1620.24056741521
 21
1958.695975297861
 31
0.0
 12
-1620.740567415209
 22
1961.69597529786
 32
0.0
 13
-1620.740567415209
 23
1961.69597529786
 33
0.0
  0
MTEXT
  5
15FAE
330
14170
100
AcDbEntity
  8
SUNPOU
 62
     1
100
AcDbMText
 10
-1623.490567415211
 20
1956.69597529786
 30
0.0
 40
3.5
 41
0.0
 71
     5
 72
     1
  1
\A1;10
 11
0.0000000000000001
 21
1.0
 31
0.0
 73
     1
 44
1.0
1001
ACAD
1000
MTEXTBEGIN
1070
    73
1070
     1
1070
    44
1040
1.0
1070
    74
1070
     0
1000
MTEXTEND
  0
POINT
  5
15FAF
330
14170
100
AcDbEntity
  8
DEFPOINTS
 62
     0
100
AcDbPoint
 10
-1752.24056741521
 20
1951.695975297861
 30
0.0
  0
POINT
  5
15FB0
330
14170
100
AcDbEntity
  8
DEFPOINTS
 62
     0
100
AcDbPoint
 10
-1650.313174870865
 20
1961.69597529786
 30
0.0
  0
POINT
  5
15FB1
330
14170
100
AcDbEntity
  8
DEFPOINTS
 62
     0
100
AcDbPoint
 10
-1620.740567415209
 20
1961.69597529786
 30
0.0
  0
ENDBLK
  5
1417B
330
14170
100
AcDbEntity
  8
0
100
AcDbBlockEnd
  0
BLOCK
  5
14186
330
1417C
100
AcDbEntity
  8
0
100
AcDbBlockBegin
  2
*D3
 70
     1
 10
0.0
 20
0.0
 30
0.0
  3
*D3
  1

  0
LINE
  5
15F85
330
1417C
100
AcDbEntity
  8
SUNPOU
 62
     1
100
AcDbLine
 10
-1756.813174870864
 20
1951.695975297861
 30
0.0
 11
-1610.042599819862
 21
1951.695975297861
 31
0.0
  0
LINE
  5
15F86
330
1417C
100
AcDbEntity
  8
SUNPOU
 62
     1
100
AcDbLine
 10
-1756.813174870864
 20
2081.695975297861
 30
0.0
 11
-1610.042599819862
 21
2081.695975297861
 31
0.0
  0
LINE
  5
15F87
330
1417C
100
AcDbEntity
  8
SUNPOU
 62
     1
100
AcDbLine
 10
-1610.542599819861
 20
1954.695975297861
 30
0.0
 11
-1610.542599819861
 21
2078.695975297861
 31
0.0
  0
SOLID
  5
15F88
330
1417C
100
AcDbEntity
  8
SUNPOU
 62
     1
100
AcDbTrace
 10
-1611.042599819862
 20
1954.695975297861
 30
0.0
 11
-1610.042599819862
 21
1954.695975297861
 31
0.0
 12
-1610.542599819861
 22
1951.695975297861
 32
0.0
 13
-1610.542599819861
 23
1951.695975297861
 33
0.0
  0
SOLID
  5
15F89
330
1417C
100
AcDbEntity
  8
SUNPOU
 62
     1
100
AcDbTrace
 10
-1611.042599819862
 20
2078.695975297861
 30
0.0
 11
-1610.042599819862
 21
2078.695975297861
 31
0.0
 12
-1610.542599819861
 22
2081.695975297861
 32
0.0
 13
-1610.542599819861
 23
2081.695975297861
 33
0.0
  0
MTEXT
  5
15F8A
330
1417C
100
AcDbEntity
  8
SUNPOU
 62
     1
100
AcDbMText
 10
-1613.292599819862
 20
2016.69597529786
 30
0.0
 40
3.5
 41
0.0
 71
     5
 72
     1
  1
\A1;130
 11
0.0000000000000001
 21
1.0
 31
0.0
 73
     1
 44
1.0
1001
ACAD
1000
MTEXTBEGIN
1070
    73
1070
     1
1070
    44
1040
1.0
1070
    74
1070
     0
1000
MTEXTEND
  0
POINT
  5
15F8B
330
1417C
100
AcDbEntity
  8
DEFPOINTS
 62
     0
100
AcDbPoint
 10
-1757.313174870865
 20
1951.695975297861
 30
0.0
  0
POINT
  5
15F8C
330
1417C
100
AcDbEntity
  8
DEFPOINTS
 62
     0
100
AcDbPoint
 10
-1757.313174870865
 20
2081.695975297861
 30
0.0
  0
POINT
  5
15F8D
330
1417C
100
AcDbEntity
  8
DEFPOINTS
 62
     0
100
AcDbPoint
 10
-1610.542599819861
 20
2081.695975297861
 30
0.0
  0
ENDBLK
  5
14187
330
1417C
100
AcDbEntity
  8
0
100
AcDbBlockEnd
  0
BLOCK
  5
14192
330
14188
100
AcDbEntity
  8
0
100
AcDbBlockBegin
  2
*D4
 70
     1
 10
0.0
 20
0.0
 30
0.0
  3
*D4
  1

  0
LINE
  5
15FBB
330
14188
100
AcDbEntity
  8
SUNPOU
 62
     1
100
AcDbLine
 10
-1635.813174870865
 20
1970.155975297861
 30
0.0
 11
-1635.813174870865
 21
1931.19597529786
 31
0.0
  0
LINE
  5
15FBC
330
14188
100
AcDbEntity
  8
SUNPOU
 62
     1
100
AcDbLine
 10
-1760.313174870864
 20
1951.19597529786
 30
0.0
 11
-1760.313174870864
 21
1931.19597529786
 31
0.0
  0
LINE
  5
15FBD
330
14188
100
AcDbEntity
  8
SUNPOU
 62
     1
100
AcDbLine
 10
-1638.813174870865
 20
1931.695975297861
 30
0.0
 11
-1757.313174870865
 21
1931.695975297861
 31
0.0
  0
SOLID
  5
15FBE
330
14188
100
AcDbEntity
  8
SUNPOU
 62
     1
100
AcDbTrace
 10
-1638.813174870865
 20
1932.195975297861
 30
0.0
 11
-1638.813174870865
 21
1931.19597529786
 31
0.0
 12
-1635.813174870865
 22
1931.695975297861
 32
0.0
 13
-1635.813174870865
 23
1931.695975297861
 33
0.0
  0
SOLID
  5
15FBF
330
14188
100
AcDbEntity
  8
SUNPOU
 62
     1
100
AcDbTrace
 10
-1757.313174870865
 20
1932.195975297861
 30
0.0
 11
-1757.313174870865
 21
1931.19597529786
 31
0.0
 12
-1760.313174870864
 22
1931.695975297861
 32
0.0
 13
-1760.313174870864
 23
1931.695975297861
 33
0.0
  0
MTEXT
  5
15FC0
330
14188
100
AcDbEntity
  8
SUNPOU
 62
     1
100
AcDbMText
 10
-1698.063174870864
 20
1934.445975297861
 30
0.0
 40
3.5
 41
0.0
 71
     5
 72
     1
  1
\A1;(124.5)
 73
     1
 44
1.0
1001
ACAD
1000
MTEXTBEGIN
1070
    73
1070
     1
1070
    44
1040
1.0
1070
    74
1070
     0
1000
MTEXTEND
  0
POINT
  5
15FC1
330
14188
100
AcDbEntity
  8
DEFPOINTS
 62
     0
100
AcDbPoint
 10
-1635.813174870865
 20
1970.65597529786
 30
0.0
  0
POINT
  5
15FC2
330
14188
100
AcDbEntity
  8
DEFPOINTS
 62
     0
100
AcDbPoint
 10
-1760.313174870864
 20
1951.695975297861
 30
0.0
  0
POINT
  5
15FC3
330
14188
100
AcDbEntity
  8
DEFPOINTS
 62
     0
100
AcDbPoint
 10
-1760.313174870864
 20
1931.695975297861
 30
0.0
  0
ENDBLK
  5
14193
330
14188
100
AcDbEntity
  8
0
100
AcDbBlockEnd
  0
BLOCK
  5
1419E
330
14194
100
AcDbEntity
  8
0
100
AcDbBlockBegin
  2
*D5
 70
     1
 10
0.0
 20
0.0
 30
0.0
  3
*D5
  1

  0
LINE
  5
15FB2
330
14194
100
AcDbEntity
  8
SUNPOU
 62
     1
100
AcDbLine
 10
-1760.313174870864
 20
1951.19597529786
 30
0.0
 11
-1760.313174870864
 21
1941.195975297861
 31
0.0
  0
LINE
  5
15FB3
330
14194
100
AcDbEntity
  8
SUNPOU
 62
     1
100
AcDbLine
 10
-1650.313174870865
 20
1961.195975297861
 30
0.0
 11
-1650.313174870865
 21
1941.195975297861
 31
0.0
  0
LINE
  5
15FB4
330
14194
100
AcDbEntity
  8
SUNPOU
 62
     1
100
AcDbLine
 10
-1757.313174870865
 20
1941.695975297861
 30
0.0
 11
-1653.313174870864
 21
1941.695975297861
 31
0.0
  0
SOLID
  5
15FB5
330
14194
100
AcDbEntity
  8
SUNPOU
 62
     1
100
AcDbTrace
 10
-1757.313174870865
 20
1942.195975297861
 30
0.0
 11
-1757.313174870865
 21
1941.195975297861
 31
0.0
 12
-1760.313174870864
 22
1941.695975297861
 32
0.0
 13
-1760.313174870864
 23
1941.695975297861
 33
0.0
  0
SOLID
  5
15FB6
330
14194
100
AcDbEntity
  8
SUNPOU
 62
     1
100
AcDbTrace
 10
-1653.313174870864
 20
1942.195975297861
 30
0.0
 11
-1653.313174870864
 21
1941.195975297861
 31
0.0
 12
-1650.313174870865
 22
1941.695975297861
 32
0.0
 13
-1650.313174870865
 23
1941.695975297861
 33
0.0
  0
MTEXT
  5
15FB7
330
14194
100
AcDbEntity
  8
SUNPOU
 62
     1
100
AcDbMText
 10
-1705.313174870865
 20
1944.445975297861
 30
0.0
 40
3.5
 41
0.0
 71
     5
 72
     1
  1
\A1;110
 73
     1
 44
1.0
1001
ACAD
1000
MTEXTBEGIN
1070
    73
1070
     1
1070
    44
1040
1.0
1070
    74
1070
     0
1000
MTEXTEND
  0
POINT
  5
15FB8
330
14194
100
AcDbEntity
  8
DEFPOINTS
 62
     0
100
AcDbPoint
 10
-1760.313174870864
 20
1951.695975297861
 30
0.0
  0
POINT
  5
15FB9
330
14194
100
AcDbEntity
  8
DEFPOINTS
 62
     0
100
AcDbPoint
 10
-1650.313174870865
 20
1961.69597529786
 30
0.0
  0
POINT
  5
15FBA
330
14194
100
AcDbEntity
  8
DEFPOINTS
 62
     0
100
AcDbPoint
 10
-1650.313174870865
 20
1941.695975297861
 30
0.0
  0
ENDBLK
  5
1419F
330
14194
100
AcDbEntity
  8
0
100
AcDbBlockEnd
  0
BLOCK
  5
141F6
330
141EC
100
AcDbEntity
  8
0
100
AcDbBlockBegin
  2
*D6
 70
     1
 10
0.0
 20
0.0
 30
0.0
  3
*D6
  1

  0
LINE
  5
15F97
330
141EC
100
AcDbEntity
  8
SUNPOU
 62
     1
100
AcDbLine
 10
-1644.740567415209
 20
1961.69597529786
 30
0.0
 11
-1620.24056741521
 21
1961.69597529786
 31
0.0
  0
LINE
  5
15F98
330
141EC
100
AcDbEntity
  8
SUNPOU
 62
     1
100
AcDbLine
 10
-1644.740567415209
 20
2071.695975297861
 30
0.0
 11
-1620.24056741521
 21
2071.695975297861
 31
0.0
  0
LINE
  5
15F99
330
141EC
100
AcDbEntity
  8
SUNPOU
 62
     1
100
AcDbLine
 10
-1620.740567415209
 20
1964.69597529786
 30
0.0
 11
-1620.740567415209
 21
2068.695975297861
 31
0.0
  0
SOLID
  5
15F9A
330
141EC
100
AcDbEntity
  8
SUNPOU
 62
     1
100
AcDbTrace
 10
-1621.240567415209
 20
1964.69597529786
 30
0.0
 11
-1620.24056741521
 21
1964.69597529786
 31
0.0
 12
-1620.740567415209
 22
1961.69597529786
 32
0.0
 13
-1620.740567415209
 23
1961.69597529786
 33
0.0
  0
SOLID
  5
15F9B
330
141EC
100
AcDbEntity
  8
SUNPOU
 62
     1
100
AcDbTrace
 10
-1621.240567415209
 20
2068.695975297861
 30
0.0
 11
-1620.24056741521
 21
2068.695975297861
 31
0.0
 12
-1620.740567415209
 22
2071.695975297861
 32
0.0
 13
-1620.740567415209
 23
2071.695975297861
 33
0.0
  0
MTEXT
  5
15F9C
330
141EC
100
AcDbEntity
  8
SUNPOU
 62
     1
100
AcDbMText
 10
-1623.490567415211
 20
2016.69597529786
 30
0.0
 40
3.5
 41
0.0
 71
     5
 72
     1
  1
\A1;110
 11
0.0000000000000001
 21
1.0
 31
0.0
 73
     1
 44
1.0
1001
ACAD
1000
MTEXTBEGIN
1070
    73
1070
     1
1070
    44
1040
1.0
1070
    74
1070
     0
1000
MTEXTEND
  0
POINT
  5
15F9D
330
141EC
100
AcDbEntity
  8
DEFPOINTS
 62
     0
100
AcDbPoint
 10
-1645.24056741521
 20
1961.69597529786
 30
0.0
  0
POINT
  5
15F9E
330
141EC
100
AcDbEntity
  8
DEFPOINTS
 62
     0
100
AcDbPoint
 10
-1645.24056741521
 20
2071.695975297861
 30
0.0
  0
POINT
  5
15F9F
330
141EC
100
AcDbEntity
  8
DEFPOINTS
 62
     0
100
AcDbPoint
 10
-1620.740567415209
 20
2071.695975297861
 30
0.0
  0
ENDBLK
  5
141F7
330
141EC
100
AcDbEntity
  8
0
100
AcDbBlockEnd
  0
BLOCK
  5
1420E
330
14204
100
AcDbEntity
  8
0
100
AcDbBlockBegin
  2
*D7
 70
     1
 10
0.0
 20
0.0
 30
0.0
  3
*D7
  1

  0
LINE
  5
16011
330
14204
100
AcDbEntity
  8
SUNPOU
 62
     1
100
AcDbLine
 10
-1542.24010033632
 20
2076.695975297861
 30
0.0
 11
-1518.240100336319
 21
2076.695975297861
 31
0.0
  0
LINE
  5
16012
330
14204
100
AcDbEntity
  8
SUNPOU
 62
     1
100
AcDbLine
 10
-1542.24010033632
 20
1956.695975297861
 30
0.0
 11
-1518.240100336319
 21
1956.69597529786
 31
0.0
  0
LINE
  5
16013
330
14204
100
AcDbEntity
  8
SUNPOU
 62
     1
100
AcDbLine
 10
-1518.740100336319
 20
2073.69597529786
 30
0.0
 11
-1518.740100336319
 21
1959.695975297861
 31
0.0
  0
SOLID
  5
16014
330
14204
100
AcDbEntity
  8
SUNPOU
 62
     1
100
AcDbTrace
 10
-1519.240100336319
 20
2073.69597529786
 30
0.0
 11
-1518.240100336319
 21
2073.69597529786
 31
0.0
 12
-1518.740100336319
 22
2076.695975297861
 32
0.0
 13
-1518.740100336319
 23
2076.695975297861
 33
0.0
  0
SOLID
  5
16015
330
14204
100
AcDbEntity
  8
SUNPOU
 62
     1
100
AcDbTrace
 10
-1519.240100336319
 20
1959.695975297861
 30
0.0
 11
-1518.240100336319
 21
1959.695975297861
 31
0.0
 12
-1518.740100336319
 22
1956.69597529786
 32
0.0
 13
-1518.740100336319
 23
1956.69597529786
 33
0.0
  0
MTEXT
  5
16016
330
14204
100
AcDbEntity
  8
SUNPOU
 62
     1
100
AcDbMText
 10
-1521.49010033632
 20
2016.69597529786
 30
0.0
 40
3.5
 41
0.0
 71
     5
 72
     1
  1
\A1;120
 11
0.0000000000000001
 21
1.0
 31
0.0
 73
     1
 44
1.0
1001
ACAD
1000
MTEXTBEGIN
1070
    73
1070
     1
1070
    44
1040
1.0
1070
    74
1070
     0
1000
MTEXTEND
  0
POINT
  5
16017
330
14204
100
AcDbEntity
  8
DEFPOINTS
 62
     0
100
AcDbPoint
 10
-1542.740100336319
 20
2076.695975297861
 30
0.0
  0
POINT
  5
16018
330
14204
100
AcDbEntity
  8
DEFPOINTS
 62
     0
100
AcDbPoint
 10
-1542.740100336319
 20
1956.695975297861
 30
0.0
  0
POINT
  5
16019
330
14204
100
AcDbEntity
  8
DEFPOINTS
 62
     0
100
AcDbPoint
 10
-1518.740100336319
 20
1956.69597529786
 30
0.0
  0
ENDBLK
  5
1420F
330
14204
100
AcDbEntity
  8
0
100
AcDbBlockEnd
  0
BLOCK
  5
1421C
330
14210
100
AcDbEntity
  8
0
100
AcDbBlockBegin
  2
*D8
 70
     1
 10
0.0
 20
0.0
 30
0.0
  3
*D8
  1

  0
LINE
  5
1602E
330
14210
100
AcDbEntity
  8
SUNPOU
 62
     1
100
AcDbLine
 10
-1563.990100336319
 20
2082.195975297861
 30
0.0
 11
-1563.990100336319
 21
2092.19597529786
 31
0.0
  0
LINE
  5
1602F
330
14210
100
AcDbEntity
  8
SUNPOU
 62
     1
100
AcDbLine
 10
-1568.490100336319
 20
2082.195975297861
 30
0.0
 11
-1568.490100336319
 21
2092.19597529786
 31
0.0
  0
LINE
  5
16030
330
14210
100
AcDbEntity
  8
SUNPOU
 62
     1
100
AcDbLine
 10
-1560.99010033632
 20
2091.695975297861
 30
0.0
 11
-1557.990100336319
 21
2091.695975297861
 31
0.0
  0
LINE
  5
16031
330
14210
100
AcDbEntity
  8
SUNPOU
 62
     1
100
AcDbLine
 10
-1571.490100336319
 20
2091.695975297861
 30
0.0
 11
-1583.490100336319
 21
2091.695975297861
 31
0.0
  0
LINE
  5
16032
330
14210
100
AcDbEntity
  8
SUNPOU
 62
     1
100
AcDbLine
 10
-1563.990100336319
 20
2091.695975297861
 30
0.0
 11
-1568.490100336319
 21
2091.695975297861
 31
0.0
  0
SOLID
  5
16033
330
14210
100
AcDbEntity
  8
SUNPOU
 62
     1
100
AcDbTrace
 10
-1560.99010033632
 20
2092.19597529786
 30
0.0
 11
-1560.99010033632
 21
2091.195975297861
 31
0.0
 12
-1563.990100336319
 22
2091.695975297861
 32
0.0
 13
-1563.990100336319
 23
2091.695975297861
 33
0.0
  0
SOLID
  5
16034
330
14210
100
AcDbEntity
  8
SUNPOU
 62
     1
100
AcDbTrace
 10
-1571.490100336319
 20
2092.19597529786
 30
0.0
 11
-1571.490100336319
 21
2091.195975297861
 31
0.0
 12
-1568.490100336319
 22
2091.695975297861
 32
0.0
 13
-1568.490100336319
 23
2091.695975297861
 33
0.0
  0
MTEXT
  5
16035
330
14210
100
AcDbEntity
  8
SUNPOU
 62
     1
100
AcDbMText
 10
-1578.990100336319
 20
2094.445975297861
 30
0.0
 40
3.5
 41
0.0
 71
     5
 72
     1
  1
\A1;4.5
 73
     1
 44
1.0
1001
ACAD
1000
MTEXTBEGIN
1070
    73
1070
     1
1070
    44
1040
1.0
1070
    74
1070
     0
1000
MTEXTEND
  0
POINT
  5
16036
330
14210
100
AcDbEntity
  8
DEFPOINTS
 62
     0
100
AcDbPoint
 10
-1563.990100336319
 20
2081.695975297861
 30
0.0
  0
POINT
  5
16037
330
14210
100
AcDbEntity
  8
DEFPOINTS
 62
     0
100
AcDbPoint
 10
-1568.490100336319
 20
2081.695975297861
 30
0.0
  0
POINT
  5
16038
330
14210
100
AcDbEntity
  8
DEFPOINTS
 62
     0
100
AcDbPoint
 10
-1568.490100336319
 20
2091.695975297861
 30
0.0
  0
ENDBLK
  5
1421D
330
14210
100
AcDbEntity
  8
0
100
AcDbBlockEnd
  0
BLOCK
  5
1422A
330
1421E
100
AcDbEntity
  8
0
100
AcDbBlockBegin
  2
*D9
 70
     1
 10
0.0
 20
0.0
 30
0.0
  3
*D9
  1

  0
LINE
  5
17076
330
1421E
100
AcDbEntity
  8
SUNPOU
 62
     1
100
AcDbLine
 10
-1540.240100336319
 20
2081.695975297861
 30
0.0
 11
-1518.247664111189
 21
2081.695975297861
 31
0.0
  0
LINE
  5
17077
330
1421E
100
AcDbEntity
  8
SUNPOU
 62
     1
100
AcDbLine
 10
-1542.24010033632
 20
2076.695975297861
 30
0.0
 11
-1518.247664111189
 21
2076.695975297861
 31
0.0
  0
LINE
  5
17078
330
1421E
100
AcDbEntity
  8
SUNPOU
 62
     1
100
AcDbLine
 10
-1518.747664111188
 20
2073.69597529786
 30
0.0
 11
-1518.747664111188
 21
2070.69597529786
 31
0.0
  0
LINE
  5
17079
330
1421E
100
AcDbEntity
  8
SUNPOU
 62
     1
100
AcDbLine
 10
-1518.747664111188
 20
2084.695975297861
 30
0.0
 11
-1518.747664111188
 21
2096.695975297861
 31
0.0
  0
LINE
  5
1707A
330
1421E
100
AcDbEntity
  8
SUNPOU
 62
     1
100
AcDbLine
 10
-1518.747664111188
 20
2076.695975297861
 30
0.0
 11
-1518.747664111188
 21
2081.695975297861
 31
0.0
  0
SOLID
  5
1707B
330
1421E
100
AcDbEntity
  8
SUNPOU
 62
     1
100
AcDbTrace
 10
-1519.247664111189
 20
2073.69597529786
 30
0.0
 11
-1518.247664111189
 21
2073.69597529786
 31
0.0
 12
-1518.747664111188
 22
2076.695975297861
 32
0.0
 13
-1518.747664111188
 23
2076.695975297861
 33
0.0
  0
SOLID
  5
1707C
330
1421E
100
AcDbEntity
  8
SUNPOU
 62
     1
100
AcDbTrace
 10
-1519.247664111189
 20
2084.695975297861
 30
0.0
 11
-1518.247664111189
 21
2084.695975297861
 31
0.0
 12
-1518.747664111188
 22
2081.695975297861
 32
0.0
 13
-1518.747664111188
 23
2081.695975297861
 33
0.0
  0
MTEXT
  5
1707D
330
1421E
100
AcDbEntity
  8
SUNPOU
 62
     1
100
AcDbMText
 10
-1521.497664111189
 20
2092.19597529786
 30
0.0
 40
3.5
 41
0.0
 71
     5
 72
     1
  1
\A1;(5)
 11
0.0000000000000001
 21
1.0
 31
0.0
 73
     1
 44
1.0
1001
ACAD
1000
MTEXTBEGIN
1070
    73
1070
     1
1070
    44
1040
1.0
1070
    74
1070
     0
1000
MTEXTEND
  0
POINT
  5
1707E
330
1421E
100
AcDbEntity
  8
DEFPOINTS
 62
     0
100
AcDbPoint
 10
-1540.740100336319
 20
2081.695975297861
 30
0.0
  0
POINT
  5
1707F
330
1421E
100
AcDbEntity
  8
DEFPOINTS
 62
     0
100
AcDbPoint
 10
-1542.740100336319
 20
2076.695975297861
 30
0.0
  0
POINT
  5
17080
330
1421E
100
AcDbEntity
  8
DEFPOINTS
 62
     0
100
AcDbPoint
 10
-1518.747664111188
 20
2076.695975297861
 30
0.0
  0
ENDBLK
  5
1422B
330
1421E
100
AcDbEntity
  8
0
100
AcDbBlockEnd
  0
BLOCK
  5
14236
330
1422C
100
AcDbEntity
  8
0
100
AcDbBlockBegin
  2
*D10
 70
     1
 10
0.0
 20
0.0
 30
0.0
  3
*D10
  1

  0
LINE
  5
15FC4
330
1422C
100
AcDbEntity
  8
SUNPOU
 62
     1
100
AcDbLine
 10
-1650.313174870865
 20
1961.195975297861
 30
0.0
 11
-1650.313174870865
 21
1941.195975297861
 31
0.0
  0
LINE
  5
15FC5
330
1422C
100
AcDbEntity
  8
SUNPOU
 62
     1
100
AcDbLine
 10
-1635.813174870865
 20
1970.155975297861
 30
0.0
 11
-1635.813174870865
 21
1941.195975297861
 31
0.0
  0
LINE
  5
15FC6
330
1422C
100
AcDbEntity
  8
SUNPOU
 62
     1
100
AcDbLine
 10
-1647.313174870864
 20
1941.695975297861
 30
0.0
 11
-1638.813174870865
 21
1941.695975297861
 31
0.0
  0
LINE
  5
15FC7
330
1422C
100
AcDbEntity
  8
SUNPOU
 62
     1
100
AcDbLine
 10
-1635.813174870865
 20
1941.695975297861
 30
0.0
 11
-1616.813174870864
 21
1941.695975297861
 31
0.0
  0
SOLID
  5
15FC8
330
1422C
100
AcDbEntity
  8
SUNPOU
 62
     1
100
AcDbTrace
 10
-1647.313174870864
 20
1942.195975297861
 30
0.0
 11
-1647.313174870864
 21
1941.195975297861
 31
0.0
 12
-1650.313174870865
 22
1941.695975297861
 32
0.0
 13
-1650.313174870865
 23
1941.695975297861
 33
0.0
  0
SOLID
  5
15FC9
330
1422C
100
AcDbEntity
  8
SUNPOU
 62
     1
100
AcDbTrace
 10
-1638.813174870865
 20
1942.195975297861
 30
0.0
 11
-1638.813174870865
 21
1941.195975297861
 31
0.0
 12
-1635.813174870865
 22
1941.695975297861
 32
0.0
 13
-1635.813174870865
 23
1941.695975297861
 33
0.0
  0
MTEXT
  5
15FCA
330
1422C
100
AcDbEntity
  8
SUNPOU
 62
     1
100
AcDbMText
 10
-1624.813174870865
 20
1944.445975297861
 30
0.0
 40
3.5
 41
0.0
 71
     5
 72
     1
  1
\A1;(14.5)
 73
     1
 44
1.0
1001
ACAD
1000
MTEXTBEGIN
1070
    73
1070
     1
1070
    44
1040
1.0
1070
    74
1070
     0
1000
MTEXTEND
  0
POINT
  5
15FCB
330
1422C
100
AcDbEntity
  8
DEFPOINTS
 62
     0
100
AcDbPoint
 10
-1650.313174870865
 20
1961.69597529786
 30
0.0
  0
POINT
  5
15FCC
330
1422C
100
AcDbEntity
  8
DEFPOINTS
 62
     0
100
AcDbPoint
 10
-1635.813174870865
 20
1970.65597529786
 30
0.0
  0
POINT
  5
15FCD
330
1422C
100
AcDbEntity
  8
DEFPOINTS
 62
     0
100
AcDbPoint
 10
-1635.813174870865
 20
1941.695975297861
 30
0.0
  0
ENDBLK
  5
14237
330
1422C
100
AcDbEntity
  8
0
100
AcDbBlockEnd
  0
BLOCK
  5
14242
330
14238
100
AcDbEntity
  8
0
100
AcDbBlockBegin
  2
*D11
 70
     1
 10
0.0
 20
0.0
 30
0.0
  3
*D11
  1

  0
LINE
  5
15FF2
330
14238
100
AcDbEntity
  8
SUNPOU
 62
     1
100
AcDbLine
 10
-1528.740100336319
 20
1985.695975297861
 30
0.0
 11
-1528.740100336319
 21
1911.195975297861
 31
0.0
  0
LINE
  5
15FF3
330
14238
100
AcDbEntity
  8
SUNPOU
 62
     1
100
AcDbLine
 10
-1584.24010033632
 20
1981.19597529786
 30
0.0
 11
-1584.24010033632
 21
1911.195975297861
 31
0.0
  0
LINE
  5
15FF4
330
14238
100
AcDbEntity
  8
SUNPOU
 62
     1
100
AcDbLine
 10
-1531.740100336319
 20
1911.695975297861
 30
0.0
 11
-1581.240100336319
 21
1911.695975297861
 31
0.0
  0
SOLID
  5
15FF5
330
14238
100
AcDbEntity
  8
SUNPOU
 62
     1
100
AcDbTrace
 10
-1531.740100336319
 20
1912.195975297861
 30
0.0
 11
-1531.740100336319
 21
1911.195975297861
 31
0.0
 12
-1528.740100336319
 22
1911.695975297861
 32
0.0
 13
-1528.740100336319
 23
1911.695975297861
 33
0.0
  0
SOLID
  5
15FF6
330
14238
100
AcDbEntity
  8
SUNPOU
 62
     1
100
AcDbTrace
 10
-1581.240100336319
 20
1912.195975297861
 30
0.0
 11
-1581.240100336319
 21
1911.195975297861
 31
0.0
 12
-1584.24010033632
 22
1911.695975297861
 32
0.0
 13
-1584.24010033632
 23
1911.695975297861
 33
0.0
  0
MTEXT
  5
15FF7
330
14238
100
AcDbEntity
  8
SUNPOU
 62
     1
100
AcDbMText
 10
-1556.490100336319
 20
1914.44597529786
 30
0.0
 40
3.5
 41
0.0
 71
     5
 72
     1
  1
\A1;(55.5)
 73
     1
 44
1.0
1001
ACAD
1000
MTEXTBEGIN
1070
    73
1070
     1
1070
    44
1040
1.0
1070
    74
1070
     0
1000
MTEXTEND
  0
POINT
  5
15FF8
330
14238
100
AcDbEntity
  8
DEFPOINTS
 62
     0
100
AcDbPoint
 10
-1528.740100336319
 20
1986.19597529786
 30
0.0
  0
POINT
  5
15FF9
330
14238
100
AcDbEntity
  8
DEFPOINTS
 62
     0
100
AcDbPoint
 10
-1584.24010033632
 20
1981.695975297861
 30
0.0
  0
POINT
  5
15FFA
330
14238
100
AcDbEntity
  8
DEFPOINTS
 62
     0
100
AcDbPoint
 10
-1584.24010033632
 20
1911.695975297861
 30
0.0
  0
ENDBLK
  5
14243
330
14238
100
AcDbEntity
  8
0
100
AcDbBlockEnd
  0
BLOCK
  5
1425E
330
14252
100
AcDbEntity
  8
0
100
AcDbBlockBegin
  2
*D12
 70
     1
 10
0.0
 20
0.0
 30
0.0
  3
*D12
  1

  0
LINE
  5
15FFB
330
14252
100
AcDbEntity
  8
SUNPOU
 62
     1
100
AcDbLine
 10
-1531.740100336319
 20
1980.695975297861
 30
0.0
 11
-1531.740100336319
 21
1921.195975297861
 31
0.0
  0
LINE
  5
15FFC
330
14252
100
AcDbEntity
  8
SUNPOU
 62
     1
100
AcDbLine
 10
-1528.740100336319
 20
1985.695975297861
 30
0.0
 11
-1528.740100336319
 21
1921.195975297861
 31
0.0
  0
LINE
  5
15FFD
330
14252
100
AcDbEntity
  8
SUNPOU
 62
     1
100
AcDbLine
 10
-1534.740100336319
 20
1921.695975297861
 30
0.0
 11
-1537.74010033632
 21
1921.695975297861
 31
0.0
  0
LINE
  5
15FFE
330
14252
100
AcDbEntity
  8
SUNPOU
 62
     1
100
AcDbLine
 10
-1525.740100336319
 20
1921.695975297861
 30
0.0
 11
-1513.74010033632
 21
1921.695975297861
 31
0.0
  0
LINE
  5
15FFF
330
14252
100
AcDbEntity
  8
SUNPOU
 62
     1
100
AcDbLine
 10
-1531.740100336319
 20
1921.695975297861
 30
0.0
 11
-1528.740100336319
 21
1921.695975297861
 31
0.0
  0
SOLID
  5
16000
330
14252
100
AcDbEntity
  8
SUNPOU
 62
     1
100
AcDbTrace
 10
-1534.740100336319
 20
1922.19597529786
 30
0.0
 11
-1534.740100336319
 21
1921.195975297861
 31
0.0
 12
-1531.740100336319
 22
1921.695975297861
 32
0.0
 13
-1531.740100336319
 23
1921.695975297861
 33
0.0
  0
SOLID
  5
16001
330
14252
100
AcDbEntity
  8
SUNPOU
 62
     1
100
AcDbTrace
 10
-1525.740100336319
 20
1922.19597529786
 30
0.0
 11
-1525.740100336319
 21
1921.195975297861
 31
0.0
 12
-1528.740100336319
 22
1921.695975297861
 32
0.0
 13
-1528.740100336319
 23
1921.695975297861
 33
0.0
  0
MTEXT
  5
16002
330
14252
100
AcDbEntity
  8
SUNPOU
 62
     1
100
AcDbMText
 10
-1518.240100336319
 20
1924.445975297861
 30
0.0
 40
3.5
 41
0.0
 71
     5
 72
     1
  1
\A1;(3)
 73
     1
 44
1.0
1001
ACAD
1000
MTEXTBEGIN
1070
    73
1070
     1
1070
    44
1040
1.0
1070
    74
1070
     0
1000
MTEXTEND
  0
POINT
  5
16003
330
14252
100
AcDbEntity
  8
DEFPOINTS
 62
     0
100
AcDbPoint
 10
-1531.740100336319
 20
1981.19597529786
 30
0.0
  0
POINT
  5
16004
330
14252
100
AcDbEntity
  8
DEFPOINTS
 62
     0
100
AcDbPoint
 10
-1528.740100336319
 20
1986.19597529786
 30
0.0
  0
POINT
  5
16005
330
14252
100
AcDbEntity
  8
DEFPOINTS
 62
     0
100
AcDbPoint
 10
-1528.740100336319
 20
1921.695975297861
 30
0.0
  0
ENDBLK
  5
1425F
330
14252
100
AcDbEntity
  8
0
100
AcDbBlockEnd
  0
BLOCK
  5
1426A
330
14260
100
AcDbEntity
  8
0
100
AcDbBlockBegin
  2
*D13
 70
     1
 10
0.0
 20
0.0
 30
0.0
  3
*D13
  1

  0
LINE
  5
15FE9
330
14260
100
AcDbEntity
  8
SUNPOU
 62
     1
100
AcDbLine
 10
-1531.740100336319
 20
1980.695975297861
 30
0.0
 11
-1531.740100336319
 21
1921.195975297861
 31
0.0
  0
LINE
  5
15FEA
330
14260
100
AcDbEntity
  8
SUNPOU
 62
     1
100
AcDbLine
 10
-1581.240100336338
 20
1962.695975297861
 30
0.0
 11
-1581.240100336338
 21
1921.195975297861
 31
0.0
  0
LINE
  5
15FEB
330
14260
100
AcDbEntity
  8
SUNPOU
 62
     1
100
AcDbLine
 10
-1534.740100336319
 20
1921.695975297861
 30
0.0
 11
-1578.240100336339
 21
1921.695975297861
 31
0.0
  0
SOLID
  5
15FEC
330
14260
100
AcDbEntity
  8
SUNPOU
 62
     1
100
AcDbTrace
 10
-1534.740100336319
 20
1922.19597529786
 30
0.0
 11
-1534.740100336319
 21
1921.195975297861
 31
0.0
 12
-1531.740100336319
 22
1921.695975297861
 32
0.0
 13
-1531.740100336319
 23
1921.695975297861
 33
0.0
  0
SOLID
  5
15FED
330
14260
100
AcDbEntity
  8
SUNPOU
 62
     1
100
AcDbTrace
 10
-1578.240100336339
 20
1922.19597529786
 30
0.0
 11
-1578.240100336339
 21
1921.195975297861
 31
0.0
 12
-1581.240100336338
 22
1921.695975297861
 32
0.0
 13
-1581.240100336338
 23
1921.695975297861
 33
0.0
  0
MTEXT
  5
15FEE
330
14260
100
AcDbEntity
  8
SUNPOU
 62
     1
100
AcDbMText
 10
-1556.490100336329
 20
1924.445975297861
 30
0.0
 40
3.5
 41
0.0
 71
     5
 72
     1
  1
\A1;49.5
 73
     1
 44
1.0
1001
ACAD
1000
MTEXTBEGIN
1070
    73
1070
     1
1070
    44
1040
1.0
1070
    74
1070
     0
1000
MTEXTEND
  0
POINT
  5
15FEF
330
14260
100
AcDbEntity
  8
DEFPOINTS
 62
     0
100
AcDbPoint
 10
-1531.740100336319
 20
1981.19597529786
 30
0.0
  0
POINT
  5
15FF0
330
14260
100
AcDbEntity
  8
DEFPOINTS
 62
     0
100
AcDbPoint
 10
-1581.240100336338
 20
1963.19597529786
 30
0.0
  0
POINT
  5
15FF1
330
14260
100
AcDbEntity
  8
DEFPOINTS
 62
     0
100
AcDbPoint
 10
-1581.240100336338
 20
1921.695975297861
 30
0.0
  0
ENDBLK
  5
1426B
330
14260
100
AcDbEntity
  8
0
100
AcDbBlockEnd
  0
BLOCK
  5
14282
330
14278
100
AcDbEntity
  8
0
100
AcDbBlockBegin
  2
*D14
 70
     1
 10
0.0
 20
0.0
 30
0.0
  3
*D14
  1

  0
LINE
  5
15FE0
330
14278
100
AcDbEntity
  8
SUNPOU
 62
     1
100
AcDbLine
 10
-1531.740100336319
 20
1980.695975297861
 30
0.0
 11
-1531.740100336319
 21
1931.19597529786
 31
0.0
  0
LINE
  5
15FE1
330
14278
100
AcDbEntity
  8
SUNPOU
 62
     1
100
AcDbLine
 10
-1546.240100336319
 20
1952.69597529786
 30
0.0
 11
-1546.240100336319
 21
1931.19597529786
 31
0.0
  0
LINE
  5
15FE2
330
14278
100
AcDbEntity
  8
SUNPOU
 62
     1
100
AcDbLine
 10
-1534.740100336319
 20
1931.695975297861
 30
0.0
 11
-1543.240100336319
 21
1931.695975297861
 31
0.0
  0
SOLID
  5
15FE3
330
14278
100
AcDbEntity
  8
SUNPOU
 62
     1
100
AcDbTrace
 10
-1534.740100336319
 20
1932.195975297861
 30
0.0
 11
-1534.740100336319
 21
1931.19597529786
 31
0.0
 12
-1531.740100336319
 22
1931.695975297861
 32
0.0
 13
-1531.740100336319
 23
1931.695975297861
 33
0.0
  0
SOLID
  5
15FE4
330
14278
100
AcDbEntity
  8
SUNPOU
 62
     1
100
AcDbTrace
 10
-1543.240100336319
 20
1932.195975297861
 30
0.0
 11
-1543.240100336319
 21
1931.19597529786
 31
0.0
 12
-1546.240100336319
 22
1931.695975297861
 32
0.0
 13
-1546.240100336319
 23
1931.695975297861
 33
0.0
  0
MTEXT
  5
15FE5
330
14278
100
AcDbEntity
  8
SUNPOU
 62
     1
100
AcDbMText
 10
-1538.990100336319
 20
1934.445975297861
 30
0.0
 40
3.5
 41
0.0
 71
     5
 72
     1
  1
\A1;14.5
 73
     1
 44
1.0
1001
ACAD
1000
MTEXTBEGIN
1070
    73
1070
     1
1070
    44
1040
1.0
1070
    74
1070
     0
1000
MTEXTEND
  0
POINT
  5
15FE6
330
14278
100
AcDbEntity
  8
DEFPOINTS
 62
     0
100
AcDbPoint
 10
-1531.740100336319
 20
1981.19597529786
 30
0.0
  0
POINT
  5
15FE7
330
14278
100
AcDbEntity
  8
DEFPOINTS
 62
     0
100
AcDbPoint
 10
-1546.240100336319
 20
1953.195975297861
 30
0.0
  0
POINT
  5
15FE8
330
14278
100
AcDbEntity
  8
DEFPOINTS
 62
     0
100
AcDbPoint
 10
-1546.240100336319
 20
1931.695975297861
 30
0.0
  0
ENDBLK
  5
14283
330
14278
100
AcDbEntity
  8
0
100
AcDbBlockEnd
  0
BLOCK
  5
1428E
330
14284
100
AcDbEntity
  8
0
100
AcDbBlockBegin
  2
*D15
 70
     1
 10
0.0
 20
0.0
 30
0.0
  3
*D15
  1

  0
LINE
  5
15FCE
330
14284
100
AcDbEntity
  8
SUNPOU
 62
     1
100
AcDbLine
 10
-1538.740100336319
 20
1953.195975297861
 30
0.0
 11
-1538.740100336319
 21
1941.195975297861
 31
0.0
  0
LINE
  5
15FCF
330
14284
100
AcDbEntity
  8
SUNPOU
 62
     1
100
AcDbLine
 10
-1573.740100336319
 20
1953.195975297861
 30
0.0
 11
-1573.740100336319
 21
1941.195975297861
 31
0.0
  0
LINE
  5
15FD0
330
14284
100
AcDbEntity
  8
SUNPOU
 62
     1
100
AcDbLine
 10
-1541.740100336319
 20
1941.695975297861
 30
0.0
 11
-1570.740100336319
 21
1941.695975297861
 31
0.0
  0
SOLID
  5
15FD1
330
14284
100
AcDbEntity
  8
SUNPOU
 62
     1
100
AcDbTrace
 10
-1541.740100336319
 20
1942.195975297861
 30
0.0
 11
-1541.740100336319
 21
1941.195975297861
 31
0.0
 12
-1538.740100336319
 22
1941.695975297861
 32
0.0
 13
-1538.740100336319
 23
1941.695975297861
 33
0.0
  0
SOLID
  5
15FD2
330
14284
100
AcDbEntity
  8
SUNPOU
 62
     1
100
AcDbTrace
 10
-1570.740100336319
 20
1942.195975297861
 30
0.0
 11
-1570.740100336319
 21
1941.195975297861
 31
0.0
 12
-1573.740100336319
 22
1941.695975297861
 32
0.0
 13
-1573.740100336319
 23
1941.695975297861
 33
0.0
  0
MTEXT
  5
15FD3
330
14284
100
AcDbEntity
  8
SUNPOU
 62
     1
100
AcDbMText
 10
-1556.240100336319
 20
1944.445975297861
 30
0.0
 40
3.5
 41
0.0
 71
     5
 72
     1
  1
\A1;35
 73
     1
 44
1.0
1001
ACAD
1000
MTEXTBEGIN
1070
    73
1070
     1
1070
    44
1040
1.0
1070
    74
1070
     0
1000
MTEXTEND
  0
POINT
  5
15FD4
330
14284
100
AcDbEntity
  8
DEFPOINTS
 62
     0
100
AcDbPoint
 10
-1538.740100336319
 20
1953.695975297861
 30
0.0
  0
POINT
  5
15FD5
330
14284
100
AcDbEntity
  8
DEFPOINTS
 62
     0
100
AcDbPoint
 10
-1573.740100336319
 20
1953.695975297861
 30
0.0
  0
POINT
  5
15FD6
330
14284
100
AcDbEntity
  8
DEFPOINTS
 62
     0
100
AcDbPoint
 10
-1573.740100336319
 20
1941.695975297861
 30
0.0
  0
ENDBLK
  5
1428F
330
14284
100
AcDbEntity
  8
0
100
AcDbBlockEnd
  0
BLOCK
  5
1429A
330
14290
100
AcDbEntity
  8
0
100
AcDbBlockBegin
  2
*D16
 70
     1
 10
0.0
 20
0.0
 30
0.0
  3
*D16
  1

  0
LINE
  5
15FD7
330
14290
100
AcDbEntity
  8
SUNPOU
 62
     1
100
AcDbLine
 10
-1546.240100336319
 20
1952.69597529786
 30
0.0
 11
-1546.240100336319
 21
1931.23499860585
 31
0.0
  0
LINE
  5
15FD8
330
14290
100
AcDbEntity
  8
SUNPOU
 62
     1
100
AcDbLine
 10
-1566.24010033632
 20
1952.69597529786
 30
0.0
 11
-1566.24010033632
 21
1931.23499860585
 31
0.0
  0
LINE
  5
15FD9
330
14290
100
AcDbEntity
  8
SUNPOU
 62
     1
100
AcDbLine
 10
-1549.240100336319
 20
1931.73499860585
 30
0.0
 11
-1563.240100336319
 21
1931.73499860585
 31
0.0
  0
SOLID
  5
15FDA
330
14290
100
AcDbEntity
  8
SUNPOU
 62
     1
100
AcDbTrace
 10
-1549.240100336319
 20
1932.23499860585
 30
0.0
 11
-1549.240100336319
 21
1931.23499860585
 31
0.0
 12
-1546.240100336319
 22
1931.73499860585
 32
0.0
 13
-1546.240100336319
 23
1931.73499860585
 33
0.0
  0
SOLID
  5
15FDB
330
14290
100
AcDbEntity
  8
SUNPOU
 62
     1
100
AcDbTrace
 10
-1563.240100336319
 20
1932.23499860585
 30
0.0
 11
-1563.240100336319
 21
1931.23499860585
 31
0.0
 12
-1566.24010033632
 22
1931.73499860585
 32
0.0
 13
-1566.24010033632
 23
1931.73499860585
 33
0.0
  0
MTEXT
  5
15FDC
330
14290
100
AcDbEntity
  8
SUNPOU
 62
     1
100
AcDbMText
 10
-1556.240100336319
 20
1934.48499860585
 30
0.0
 40
3.5
 41
0.0
 71
     5
 72
     1
  1
\A1;20
 73
     1
 44
1.0
1001
ACAD
1000
MTEXTBEGIN
1070
    73
1070
     1
1070
    44
1040
1.0
1070
    74
1070
     0
1000
MTEXTEND
  0
POINT
  5
15FDD
330
14290
100
AcDbEntity
  8
DEFPOINTS
 62
     0
100
AcDbPoint
 10
-1546.240100336319
 20
1953.195975297861
 30
0.0
  0
POINT
  5
15FDE
330
14290
100
AcDbEntity
  8
DEFPOINTS
 62
     0
100
AcDbPoint
 10
-1566.24010033632
 20
1953.195975297861
 30
0.0
  0
POINT
  5
15FDF
330
14290
100
AcDbEntity
  8
DEFPOINTS
 62
     0
100
AcDbPoint
 10
-1566.24010033632
 20
1931.73499860585
 30
0.0
  0
ENDBLK
  5
1429B
330
14290
100
AcDbEntity
  8
0
100
AcDbBlockEnd
  0
BLOCK
  5
142A8
330
1429C
100
AcDbEntity
  8
0
100
AcDbBlockBegin
  2
*D17
 70
     1
 10
0.0
 20
0.0
 30
0.0
  3
*D17
  1

  0
LINE
  5
1708C
330
1429C
100
AcDbEntity
  8
SUNPOU
 62
     1
100
AcDbLine
 10
-1540.240100336319
 20
1951.695975297861
 30
0.0
 11
-1518.262193621286
 21
1951.69597529786
 31
0.0
  0
LINE
  5
1708D
330
1429C
100
AcDbEntity
  8
SUNPOU
 62
     1
100
AcDbLine
 10
-1542.24010033632
 20
1956.695975297861
 30
0.0
 11
-1518.262193621286
 21
1956.69597529786
 31
0.0
  0
LINE
  5
1708E
330
1429C
100
AcDbEntity
  8
SUNPOU
 62
     1
100
AcDbLine
 10
-1518.762193621286
 20
1959.695975297861
 30
0.0
 11
-1518.762193621286
 21
1962.69597529786
 31
0.0
  0
LINE
  5
1708F
330
1429C
100
AcDbEntity
  8
SUNPOU
 62
     1
100
AcDbLine
 10
-1518.762193621286
 20
1948.69597529786
 30
0.0
 11
-1518.762193621286
 21
1936.69597529786
 31
0.0
  0
LINE
  5
17090
330
1429C
100
AcDbEntity
  8
SUNPOU
 62
     1
100
AcDbLine
 10
-1518.762193621286
 20
1956.69597529786
 30
0.0
 11
-1518.762193621286
 21
1951.69597529786
 31
0.0
  0
SOLID
  5
17091
330
1429C
100
AcDbEntity
  8
SUNPOU
 62
     1
100
AcDbTrace
 10
-1519.262193621286
 20
1959.695975297861
 30
0.0
 11
-1518.262193621286
 21
1959.695975297861
 31
0.0
 12
-1518.762193621286
 22
1956.69597529786
 32
0.0
 13
-1518.762193621286
 23
1956.69597529786
 33
0.0
  0
SOLID
  5
17092
330
1429C
100
AcDbEntity
  8
SUNPOU
 62
     1
100
AcDbTrace
 10
-1519.262193621286
 20
1948.69597529786
 30
0.0
 11
-1518.262193621286
 21
1948.69597529786
 31
0.0
 12
-1518.762193621286
 22
1951.69597529786
 32
0.0
 13
-1518.762193621286
 23
1951.69597529786
 33
0.0
  0
MTEXT
  5
17093
330
1429C
100
AcDbEntity
  8
SUNPOU
 62
     1
100
AcDbMText
 10
-1521.512193621286
 20
1941.195975297859
 30
0.0
 40
3.5
 41
0.0
 71
     5
 72
     1
  1
\A1;(5)
 11
0.0000000000000001
 21
1.0
 31
0.0
 73
     1
 44
1.0
1001
ACAD
1000
MTEXTBEGIN
1070
    73
1070
     1
1070
    44
1040
1.0
1070
    74
1070
     0
1000
MTEXTEND
  0
POINT
  5
17094
330
1429C
100
AcDbEntity
  8
DEFPOINTS
 62
     0
100
AcDbPoint
 10
-1540.740100336319
 20
1951.695975297861
 30
0.0
  0
POINT
  5
17095
330
1429C
100
AcDbEntity
  8
DEFPOINTS
 62
     0
100
AcDbPoint
 10
-1542.740100336319
 20
1956.695975297861
 30
0.0
  0
POINT
  5
17096
330
1429C
100
AcDbEntity
  8
DEFPOINTS
 62
     0
100
AcDbPoint
 10
-1518.762193621286
 20
1956.69597529786
 30
0.0
  0
ENDBLK
  5
142A9
330
1429C
100
AcDbEntity
  8
0
100
AcDbBlockEnd
  0
BLOCK
  5
15E4D
330
15E41
100
AcDbEntity
  8
0
100
AcDbBlockBegin
  2
*D18
 70
     1
 10
0.0
 20
0.0
 30
0.0
  3
*D18
  1

  0
LINE
  5
1605A
330
15E41
100
AcDbEntity
  8
SUNPOU
 62
     1
100
AcDbLine
 10
-1639.313174870866
 20
1991.31597529786
 30
0.0
 11
-1628.447481990985
 21
1991.31597529786
 31
0.0
  0
LINE
  5
1605B
330
15E41
100
AcDbEntity
  8
SUNPOU
 62
     1
100
AcDbLine
 10
-1639.313174870866
 20
1983.69597529786
 30
0.0
 11
-1628.447481990985
 21
1983.69597529786
 31
0.0
  0
LINE
  5
1605C
330
15E41
100
AcDbEntity
  8
SUNPOU
 62
     1
100
AcDbLine
 10
-1628.947481990985
 20
1994.31597529786
 30
0.0
 11
-1628.947481990985
 21
1997.31597529786
 31
0.0
  0
LINE
  5
1605D
330
15E41
100
AcDbEntity
  8
SUNPOU
 62
     1
100
AcDbLine
 10
-1628.947481990985
 20
1980.69597529786
 30
0.0
 11
-1628.947481990985
 21
1965.19597529786
 31
0.0
  0
LINE
  5
1605E
330
15E41
100
AcDbEntity
  8
SUNPOU
 62
     1
100
AcDbLine
 10
-1628.947481990985
 20
1991.31597529786
 30
0.0
 11
-1628.947481990985
 21
1983.69597529786
 31
0.0
  0
SOLID
  5
1605F
330
15E41
100
AcDbEntity
  8
SUNPOU
 62
     1
100
AcDbTrace
 10
-1629.447481990985
 20
1994.31597529786
 30
0.0
 11
-1628.447481990985
 21
1994.31597529786
 31
0.0
 12
-1628.947481990985
 22
1991.31597529786
 32
0.0
 13
-1628.947481990985
 23
1991.31597529786
 33
0.0
  0
SOLID
  5
16060
330
15E41
100
AcDbEntity
  8
SUNPOU
 62
     1
100
AcDbTrace
 10
-1629.447481990985
 20
1980.69597529786
 30
0.0
 11
-1628.447481990985
 21
1980.69597529786
 31
0.0
 12
-1628.947481990985
 22
1983.69597529786
 32
0.0
 13
-1628.947481990985
 23
1983.69597529786
 33
0.0
  0
MTEXT
  5
16061
330
15E41
100
AcDbEntity
  8
SUNPOU
 62
     1
100
AcDbMText
 10
-1631.697481990985
 20
1971.44597529786
 30
0.0
 40
3.5
 41
0.0
 71
     5
 72
     1
  1
\A1;7.62
 11
0.0000000000000001
 21
1.0
 31
0.0
 73
     1
 44
1.0
1001
ACAD
1000
MTEXTBEGIN
1070
    73
1070
     1
1070
    44
1040
1.0
1070
    74
1070
     0
1000
MTEXTEND
  0
POINT
  5
16062
330
15E41
100
AcDbEntity
  8
DEFPOINTS
 62
     0
100
AcDbPoint
 10
-1639.813174870866
 20
1991.31597529786
 30
0.0
  0
POINT
  5
16063
330
15E41
100
AcDbEntity
  8
DEFPOINTS
 62
     0
100
AcDbPoint
 10
-1639.813174870866
 20
1983.69597529786
 30
0.0
  0
POINT
  5
16064
330
15E41
100
AcDbEntity
  8
DEFPOINTS
 62
     0
100
AcDbPoint
 10
-1628.947481990985
 20
1983.69597529786
 30
0.0
  0
ENDBLK
  5
15E4E
330
15E41
100
AcDbEntity
  8
0
100
AcDbBlockEnd
  0
BLOCK
  5
170AF
330
170A3
100
AcDbEntity
  8
0
100
AcDbBlockBegin
  2
*D19
 70
     1
 10
0.0
 20
0.0
 30
0.0
  3
*D19
  1

  0
LINE
  5
170C7
330
170A3
100
AcDbEntity
  8
SUNPOU
 62
     1
100
AcDbLine
 10
-1581.240100336338
 20
1962.695975297861
 30
0.0
 11
-1581.240100336338
 21
1921.195975297861
 31
0.0
  0
LINE
  5
170C8
330
170A3
100
AcDbEntity
  8
SUNPOU
 62
     1
100
AcDbLine
 10
-1584.24010033632
 20
1911.695975297861
 30
0.0
 11
-1584.24010033632
 21
1922.19597529786
 31
0.0
  0
LINE
  5
170C9
330
170A3
100
AcDbEntity
  8
SUNPOU
 62
     1
100
AcDbLine
 10
-1578.240100336339
 20
1921.695975297861
 30
0.0
 11
-1575.240100336339
 21
1921.695975297861
 31
0.0
  0
LINE
  5
170CA
330
170A3
100
AcDbEntity
  8
SUNPOU
 62
     1
100
AcDbLine
 10
-1587.240100336319
 20
1921.695975297861
 30
0.0
 11
-1599.240100336319
 21
1921.695975297861
 31
0.0
  0
LINE
  5
170CB
330
170A3
100
AcDbEntity
  8
SUNPOU
 62
     1
100
AcDbLine
 10
-1581.240100336338
 20
1921.695975297861
 30
0.0
 11
-1584.24010033632
 21
1921.695975297861
 31
0.0
  0
SOLID
  5
170CC
330
170A3
100
AcDbEntity
  8
SUNPOU
 62
     1
100
AcDbTrace
 10
-1578.240100336339
 20
1922.19597529786
 30
0.0
 11
-1578.240100336339
 21
1921.195975297861
 31
0.0
 12
-1581.240100336338
 22
1921.695975297861
 32
0.0
 13
-1581.240100336338
 23
1921.695975297861
 33
0.0
  0
SOLID
  5
170CD
330
170A3
100
AcDbEntity
  8
SUNPOU
 62
     1
100
AcDbTrace
 10
-1587.240100336319
 20
1922.19597529786
 30
0.0
 11
-1587.240100336319
 21
1921.195975297861
 31
0.0
 12
-1584.24010033632
 22
1921.695975297861
 32
0.0
 13
-1584.24010033632
 23
1921.695975297861
 33
0.0
  0
MTEXT
  5
170CE
330
170A3
100
AcDbEntity
  8
SUNPOU
 62
     1
100
AcDbMText
 10
-1594.740100336319
 20
1924.445975297861
 30
0.0
 40
3.5
 41
0.0
 71
     5
 72
     1
  1
\A1;(3)
 73
     1
 44
1.0
1001
ACAD
1000
MTEXTBEGIN
1070
    73
1070
     1
1070
    44
1040
1.0
1070
    74
1070
     0
1000
MTEXTEND
  0
POINT
  5
170CF
330
170A3
100
AcDbEntity
  8
DEFPOINTS
 62
     0
100
AcDbPoint
 10
-1581.240100336338
 20
1963.19597529786
 30
0.0
  0
POINT
  5
170D0
330
170A3
100
AcDbEntity
  8
DEFPOINTS
 62
     0
100
AcDbPoint
 10
-1584.24010033632
 20
1911.195975297861
 30
0.0
  0
POINT
  5
170D1
330
170A3
100
AcDbEntity
  8
DEFPOINTS
 62
     0
100
AcDbPoint
 10
-1584.24010033632
 20
1921.695975297861
 30
0.0
  0
ENDBLK
  5
170B0
330
170A3
100
AcDbEntity
  8
0
100
AcDbBlockEnd
  0
ENDSEC
  0
SECTION
  2
ENTITIES
  0
MTEXT
  5
5084
330
1A
100
AcDbEntity
  8
0
100
AcDbMText
 10
1985.239088685434
 20
-948.5420423450428
 30
0.0
 40
8.0
 41
0.0
 71
     7
 72
     5
  1

 73
     1
 44
1.0
1001
ACAD
1000
MTEXTBEGIN
1070
    73
1070
     1
1070
    44
1040
1.0
1070
    74
1070
     0
1000
MTEXTEND
  0
MTEXT
  5
5085
330
1A
100
AcDbEntity
  8
0
100
AcDbMText
 10
4270.596778580329
 20
22.24825240601648
 30
0.0
 40
8.0
 41
0.0
 71
     7
 72
     5
  1

 73
     1
 44
1.0
1001
ACAD
1000
MTEXTBEGIN
1070
    73
1070
     1
1070
    44
1040
1.0
1070
    74
1070
     0
1000
MTEXTEND
  0
MTEXT
  5
5343
330
1A
100
AcDbEntity
  8
SUNPOU
100
AcDbMText
 10
6936.493799262471
 20
9534.359644781137
 30
0.0
 40
10.5
 41
0.0
 71
     1
 72
     5
  1

 73
     1
 44
1.0
1001
ACAD
1000
MTEXTBEGIN
1070
    73
1070
     1
1070
    44
1040
1.0
1070
    74
1070
     0
1000
MTEXTEND
  0
MTEXT
  5
544F
330
1A
100
AcDbEntity
  8
0
100
AcDbMText
 10
16317.2832773148
 20
12833.35428897674
 30
0.0
 40
8.0
 41
0.0
 71
     7
 72
     5
  1

 73
     1
 44
1.0
1001
ACAD
1000
MTEXTBEGIN
1070
    73
1070
     1
1070
    44
1040
1.0
1070
    74
1070
     0
1000
MTEXTEND
  0
MTEXT
  5
5450
330
1A
100
AcDbEntity
  8
0
100
AcDbMText
 10
18602.64096720968
 20
13804.1445837278
 30
0.0
 40
8.0
 41
0.0
 71
     7
 72
     5
  1

 73
     1
 44
1.0
1001
ACAD
1000
MTEXTBEGIN
1070
    73
1070
     1
1070
    44
1040
1.0
1070
    74
1070
     0
1000
MTEXTEND
  0
MTEXT
  5
5451
330
1A
100
AcDbEntity
  8
SUNPOU
100
AcDbMText
 10
21268.53798789184
 20
23316.25597610292
 30
0.0
 40
10.5
 41
0.0
 71
     1
 72
     5
  1

 73
     1
 44
1.0
1001
ACAD
1000
MTEXTBEGIN
1070
    73
1070
     1
1070
    44
1040
1.0
1070
    74
1070
     0
1000
MTEXTEND
  0
MTEXT
  5
5452
330
1A
100
AcDbEntity
  8
SUNPOU
100
AcDbMText
 10
13337.6147919559
 20
22369.46284218996
 30
0.0
 40
10.5
 41
0.0
 71
     7
 72
     5
  1

 73
     1
 44
1.0
1001
ACAD
1000
MTEXTBEGIN
1070
    73
1070
     1
1070
    44
1040
1.0
1070
    74
1070
     0
1000
MTEXTEND
  0
MTEXT
  5
5453
330
1A
100
AcDbEntity
  8
SUNPOU
100
AcDbMText
 10
16286.59845646867
 20
27270.1389140328
 30
0.0
 40
10.5
 41
0.0
 71
     7
 72
     5
  1

 73
     1
 44
1.0
1001
ACAD
1000
MTEXTBEGIN
1070
    73
1070
     1
1070
    44
1040
1.0
1070
    74
1070
     0
1000
MTEXTEND
  0
MTEXT
  5
5454
330
1A
100
AcDbEntity
  8
SUNPOU
100
AcDbMText
 10
20795.67658441924
 20
29706.43966165288
 30
0.0
 40
10.5
 41
0.0
 71
     7
 72
     5
  1

 73
     1
 44
1.0
1001
ACAD
1000
MTEXTBEGIN
1070
    73
1070
     1
1070
    44
1040
1.0
1070
    74
1070
     0
1000
MTEXTEND
  0
MTEXT
  5
5455
330
1A
100
AcDbEntity
  8
0
100
AcDbMText
 10
16611.93789220313
 20
14707.52144344448
 30
0.0
 40
8.0
 41
0.0
 71
     7
 72
     5
  1

 73
     1
 44
1.0
1001
ACAD
1000
MTEXTBEGIN
1070
    73
1070
     1
1070
    44
1040
1.0
1070
    74
1070
     0
1000
MTEXTEND
  0
MTEXT
  5
5456
330
1A
100
AcDbEntity
  8
0
100
AcDbMText
 10
18897.29558209803
 20
15678.31173819554
 30
0.0
 40
8.0
 41
0.0
 71
     7
 72
     5
  1

 73
     1
 44
1.0
1001
ACAD
1000
MTEXTBEGIN
1070
    73
1070
     1
1070
    44
1040
1.0
1070
    74
1070
     0
1000
MTEXTEND
  0
MTEXT
  5
5457
330
1A
100
AcDbEntity
  8
SUNPOU
100
AcDbMText
 10
21563.19260278019
 20
25190.42313057066
 30
0.0
 40
10.5
 41
0.0
 71
     1
 72
     5
  1

 73
     1
 44
1.0
1001
ACAD
1000
MTEXTBEGIN
1070
    73
1070
     1
1070
    44
1040
1.0
1070
    74
1070
     0
1000
MTEXTEND
  0
MTEXT
  5
5458
330
1A
100
AcDbEntity
  8
SUNPOU
100
AcDbMText
 10
13632.26940684425
 20
24243.6299966577
 30
0.0
 40
10.5
 41
0.0
 71
     7
 72
     5
  1

 73
     1
 44
1.0
1001
ACAD
1000
MTEXTBEGIN
1070
    73
1070
     1
1070
    44
1040
1.0
1070
    74
1070
     0
1000
MTEXTEND
  0
MTEXT
  5
5459
330
1A
100
AcDbEntity
  8
SUNPOU
100
AcDbMText
 10
16581.25307135702
 20
29144.30606850055
 30
0.0
 40
10.5
 41
0.0
 71
     7
 72
     5
  1

 73
     1
 44
1.0
1001
ACAD
1000
MTEXTBEGIN
1070
    73
1070
     1
1070
    44
1040
1.0
1070
    74
1070
     0
1000
MTEXTEND
  0
MTEXT
  5
545A
330
1A
100
AcDbEntity
  8
SUNPOU
100
AcDbMText
 10
21090.33119930759
 20
31580.60681612062
 30
0.0
 40
10.5
 41
0.0
 71
     7
 72
     5
  1

 73
     1
 44
1.0
1001
ACAD
1000
MTEXTBEGIN
1070
    73
1070
     1
1070
    44
1040
1.0
1070
    74
1070
     0
1000
MTEXTEND
  0
MTEXT
  5
545B
330
1A
100
AcDbEntity
  8
0
100
AcDbMText
 10
22871.60517627166
 20
23974.88367124799
 30
0.0
 40
8.0
 41
0.0
 71
     7
 72
     5
  1

 73
     1
 44
1.0
1001
ACAD
1000
MTEXTBEGIN
1070
    73
1070
     1
1070
    44
1040
1.0
1070
    74
1070
     0
1000
MTEXTEND
  0
MTEXT
  5
545C
330
1A
100
AcDbEntity
  8
0
100
AcDbMText
 10
25156.96286616656
 20
24945.67396599905
 30
0.0
 40
8.0
 41
0.0
 71
     7
 72
     5
  1

 73
     1
 44
1.0
1001
ACAD
1000
MTEXTBEGIN
1070
    73
1070
     1
1070
    44
1040
1.0
1070
    74
1070
     0
1000
MTEXTEND
  0
MTEXT
  5
545D
330
1A
100
AcDbEntity
  8
SUNPOU
100
AcDbMText
 10
27822.85988684871
 20
34457.78535837418
 30
0.0
 40
10.5
 41
0.0
 71
     1
 72
     5
  1

 73
     1
 44
1.0
1001
ACAD
1000
MTEXTBEGIN
1070
    73
1070
     1
1070
    44
1040
1.0
1070
    74
1070
     0
1000
MTEXTEND
  0
MTEXT
  5
545E
330
1A
100
AcDbEntity
  8
SUNPOU
100
AcDbMText
 10
19891.93669091278
 20
33510.99222446122
 30
0.0
 40
10.5
 41
0.0
 71
     7
 72
     5
  1

 73
     1
 44
1.0
1001
ACAD
1000
MTEXTBEGIN
1070
    73
1070
     1
1070
    44
1040
1.0
1070
    74
1070
     0
1000
MTEXTEND
  0
MTEXT
  5
545F
330
1A
100
AcDbEntity
  8
SUNPOU
100
AcDbMText
 10
22840.92035542555
 20
38411.66829630406
 30
0.0
 40
10.5
 41
0.0
 71
     7
 72
     5
  1

 73
     1
 44
1.0
1001
ACAD
1000
MTEXTBEGIN
1070
    73
1070
     1
1070
    44
1040
1.0
1070
    74
1070
     0
1000
MTEXTEND
  0
MTEXT
  5
5460
330
1A
100
AcDbEntity
  8
SUNPOU
100
AcDbMText
 10
27349.99848337611
 20
40847.96904392415
 30
0.0
 40
10.5
 41
0.0
 71
     7
 72
     5
  1

 73
     1
 44
1.0
1001
ACAD
1000
MTEXTBEGIN
1070
    73
1070
     1
1070
    44
1040
1.0
1070
    74
1070
     0
1000
MTEXTEND
  0
MTEXT
  5
55B7
330
1A
100
AcDbEntity
  8
SUNPOU
100
AcDbMText
 10
67424.23923338197
 20
64463.86602884816
 30
0.0
 40
10.5
 41
0.0
 71
     9
 72
     5
  1

 73
     1
 44
1.0
1001
ACAD
1000
MTEXTBEGIN
1070
    73
1070
     1
1070
    44
1040
1.0
1070
    74
1070
     0
1000
MTEXTEND
  0
MTEXT
  5
55B8
330
1A
100
AcDbEntity
  8
SUNPOU
100
AcDbMText
 10
76146.40679929998
 20
71879.70056038563
 30
0.0
 40
10.5
 41
0.0
 71
     9
 72
     5
  1

 73
     1
 44
1.0
1001
ACAD
1000
MTEXTBEGIN
1070
    73
1070
     1
1070
    44
1040
1.0
1070
    74
1070
     0
1000
MTEXTEND
  0
MTEXT
  5
55B9
330
1A
100
AcDbEntity
  8
SUNPOU
100
AcDbMText
 10
95100.16551662994
 20
89346.27661287766
 30
0.0
 40
10.5
 41
0.0
 71
     9
 72
     5
  1

 73
     1
 44
1.0
1001
ACAD
1000
MTEXTBEGIN
1070
    73
1070
     1
1070
    44
1040
1.0
1070
    74
1070
     0
1000
MTEXTEND
  0
MTEXT
  5
55BA
330
1A
100
AcDbEntity
  8
SUNPOU
100
AcDbMText
 10
97043.57276333935
 20
87545.22753299966
 30
0.0
 40
3.5
 41
0.0
 71
     9
 72
     5
  1

 73
     1
 44
1.0
1001
ACAD
1000
MTEXTBEGIN
1070
    73
1070
     1
1070
    44
1040
1.0
1070
    74
1070
     0
1000
MTEXTEND
  0
MTEXT
  5
55BB
330
1A
100
AcDbEntity
  8
SUNPOU
100
AcDbMText
 10
128169.7525959589
 20
130040.1732006569
 30
0.0
 40
10.5
 41
0.0
 71
     9
 72
     5
  1

 73
     1
 44
1.0
1001
ACAD
1000
MTEXTBEGIN
1070
    73
1070
     1
1070
    44
1040
1.0
1070
    74
1070
     0
1000
MTEXTEND
  0
MTEXT
  5
55BC
330
1A
100
AcDbEntity
  8
SUNPOU
100
AcDbMText
 10
130113.1598426684
 20
128239.1241207789
 30
0.0
 40
3.5
 41
0.0
 71
     9
 72
     5
  1

 73
     1
 44
1.0
1001
ACAD
1000
MTEXTBEGIN
1070
    73
1070
     1
1070
    44
1040
1.0
1070
    74
1070
     0
1000
MTEXTEND
  0
MTEXT
  5
55BD
330
1A
100
AcDbEntity
  8
SUNPOU
100
AcDbMText
 10
78610.02030175463
 20
75873.33835563206
 30
0.0
 40
10.5
 41
0.0
 71
     9
 72
     5
  1

 73
     1
 44
1.0
1001
ACAD
1000
MTEXTBEGIN
1070
    73
1070
     1
1070
    44
1040
1.0
1070
    74
1070
     0
1000
MTEXTEND
  0
MTEXT
  5
55BE
330
1A
100
AcDbEntity
  8
SUNPOU
100
AcDbMText
 10
64662.02020137862
 20
56700.93921651987
 30
0.0
 40
3.5
 41
0.0
 71
     7
 72
     5
  1

 73
     1
 44
1.0
1001
ACAD
1000
MTEXTBEGIN
1070
    73
1070
     1
1070
    44
1040
1.0
1070
    74
1070
     0
1000
MTEXTEND
  0
MTEXT
  5
55BF
330
1A
100
AcDbEntity
  8
SUNPOU
100
AcDbMText
 10
45647.18959837177
 20
44463.08794733806
 30
0.0
 40
10.5
 41
0.0
 71
     7
 72
     5
  1

 73
     1
 44
1.0
1001
ACAD
1000
MTEXTBEGIN
1070
    73
1070
     1
1070
    44
1040
1.0
1070
    74
1070
     0
1000
MTEXTEND
  0
MTEXT
  5
55C0
330
1A
100
AcDbEntity
  8
SUNPOU
100
AcDbMText
 10
33189.96133342368
 20
28618.15636923965
 30
0.0
 40
35.0
 41
0.0
 71
     9
 72
     5
  1

 73
     1
 44
1.0
1001
ACAD
1000
MTEXTBEGIN
1070
    73
1070
     1
1070
    44
1040
1.0
1070
    74
1070
     0
1000
MTEXTEND
  0
MTEXT
  5
55C1
330
1A
100
AcDbEntity
  8
SUNPOU
100
AcDbMText
 10
32098.44639099864
 20
29226.93177928834
 30
0.0
 40
350.0000004171781
 41
0.0
 71
     7
 72
     5
  1

 73
     1
 44
1.0
1001
ACAD
1000
MTEXTBEGIN
1070
    73
1070
     1
1070
    44
1040
1.0
1070
    74
1070
     0
1000
MTEXTEND
  0
MTEXT
  5
55C2
330
1A
100
AcDbEntity
  8
0
100
AcDbMText
 10
38142.39714894154
 20
27206.85414142458
 30
0.0
 40
8.0
 41
0.0
 71
     7
 72
     5
  1

 73
     1
 44
1.0
1001
ACAD
1000
MTEXTBEGIN
1070
    73
1070
     1
1070
    44
1040
1.0
1070
    74
1070
     0
1000
MTEXTEND
  0
MTEXT
  5
55C3
330
1A
100
AcDbEntity
  8
0
100
AcDbMText
 10
40427.75483883644
 20
28177.64443617564
 30
0.0
 40
8.0
 41
0.0
 71
     7
 72
     5
  1

 73
     1
 44
1.0
1001
ACAD
1000
MTEXTBEGIN
1070
    73
1070
     1
1070
    44
1040
1.0
1070
    74
1070
     0
1000
MTEXTEND
  0
MTEXT
  5
55C4
330
1A
100
AcDbEntity
  8
SUNPOU
100
AcDbMText
 10
43093.65185951858
 20
37689.75582855077
 30
0.0
 40
10.5
 41
0.0
 71
     1
 72
     5
  1

 73
     1
 44
1.0
1001
ACAD
1000
MTEXTBEGIN
1070
    73
1070
     1
1070
    44
1040
1.0
1070
    74
1070
     0
1000
MTEXTEND
  0
MTEXT
  5
55C5
330
1A
100
AcDbEntity
  8
SUNPOU
100
AcDbMText
 10
35162.72866358265
 20
36742.96269463781
 30
0.0
 40
10.5
 41
0.0
 71
     7
 72
     5
  1

 73
     1
 44
1.0
1001
ACAD
1000
MTEXTBEGIN
1070
    73
1070
     1
1070
    44
1040
1.0
1070
    74
1070
     0
1000
MTEXTEND
  0
MTEXT
  5
55C6
330
1A
100
AcDbEntity
  8
SUNPOU
100
AcDbMText
 10
38111.71232809542
 20
41643.63876648065
 30
0.0
 40
10.5
 41
0.0
 71
     7
 72
     5
  1

 73
     1
 44
1.0
1001
ACAD
1000
MTEXTBEGIN
1070
    73
1070
     1
1070
    44
1040
1.0
1070
    74
1070
     0
1000
MTEXTEND
  0
MTEXT
  5
55C7
330
1A
100
AcDbEntity
  8
SUNPOU
100
AcDbMText
 10
42620.79045604596
 20
44079.93951410074
 30
0.0
 40
10.5
 41
0.0
 71
     7
 72
     5
  1

 73
     1
 44
1.0
1001
ACAD
1000
MTEXTBEGIN
1070
    73
1070
     1
1070
    44
1040
1.0
1070
    74
1070
     0
1000
MTEXTEND
  0
MTEXT
  5
55C8
330
1A
100
AcDbEntity
  8
SUNPOU
100
AcDbMText
 10
26221.62834281429
 20
23077.53566448964
 30
0.0
 40
10.5
 41
0.0
 71
     7
 72
     5
  1

 73
     1
 44
1.0
1001
ACAD
1000
MTEXTBEGIN
1070
    73
1070
     1
1070
    44
1040
1.0
1070
    74
1070
     0
1000
MTEXTEND
  0
MTEXT
  5
55C9
330
1A
100
AcDbEntity
  8
SUNPOU
100
AcDbMText
 10
77413.14677671455
 20
68750.51622813789
 30
0.0
 40
10.5
 41
0.0
 71
     9
 72
     5
  1

 73
     1
 44
1.0
1001
ACAD
1000
MTEXTBEGIN
1070
    73
1070
     1
1070
    44
1040
1.0
1070
    74
1070
     0
1000
MTEXTEND
  0
MTEXT
  5
55CA
330
1A
100
AcDbEntity
  8
SUNPOU
100
AcDbMText
 10
86135.31434263256
 20
76166.35075967536
 30
0.0
 40
10.5
 41
0.0
 71
     9
 72
     5
  1

 73
     1
 44
1.0
1001
ACAD
1000
MTEXTBEGIN
1070
    73
1070
     1
1070
    44
1040
1.0
1070
    74
1070
     0
1000
MTEXTEND
  0
MTEXT
  5
55CB
330
1A
100
AcDbEntity
  8
SUNPOU
100
AcDbMText
 10
105089.0730599624
 20
93632.92681216739
 30
0.0
 40
10.5
 41
0.0
 71
     9
 72
     5
  1

 73
     1
 44
1.0
1001
ACAD
1000
MTEXTBEGIN
1070
    73
1070
     1
1070
    44
1040
1.0
1070
    74
1070
     0
1000
MTEXTEND
  0
MTEXT
  5
55CC
330
1A
100
AcDbEntity
  8
SUNPOU
100
AcDbMText
 10
107032.4803066718
 20
91831.87773228938
 30
0.0
 40
3.5
 41
0.0
 71
     9
 72
     5
  1

 73
     1
 44
1.0
1001
ACAD
1000
MTEXTBEGIN
1070
    73
1070
     1
1070
    44
1040
1.0
1070
    74
1070
     0
1000
MTEXTEND
  0
MTEXT
  5
55CD
330
1A
100
AcDbEntity
  8
SUNPOU
100
AcDbMText
 10
138158.6601392916
 20
134326.8233999467
 30
0.0
 40
10.5
 41
0.0
 71
     9
 72
     5
  1

 73
     1
 44
1.0
1001
ACAD
1000
MTEXTBEGIN
1070
    73
1070
     1
1070
    44
1040
1.0
1070
    74
1070
     0
1000
MTEXTEND
  0
MTEXT
  5
55CE
330
1A
100
AcDbEntity
  8
SUNPOU
100
AcDbMText
 10
140102.067386001
 20
132525.7743200686
 30
0.0
 40
3.5
 41
0.0
 71
     9
 72
     5
  1

 73
     1
 44
1.0
1001
ACAD
1000
MTEXTBEGIN
1070
    73
1070
     1
1070
    44
1040
1.0
1070
    74
1070
     0
1000
MTEXTEND
  0
MTEXT
  5
55CF
330
1A
100
AcDbEntity
  8
SUNPOU
100
AcDbMText
 10
88598.92784508721
 20
80159.98855492179
 30
0.0
 40
10.5
 41
0.0
 71
     9
 72
     5
  1

 73
     1
 44
1.0
1001
ACAD
1000
MTEXTBEGIN
1070
    73
1070
     1
1070
    44
1040
1.0
1070
    74
1070
     0
1000
MTEXTEND
  0
MTEXT
  5
55D0
330
1A
100
AcDbEntity
  8
SUNPOU
100
AcDbMText
 10
74650.92774471121
 20
60987.58941580959
 30
0.0
 40
3.5
 41
0.0
 71
     7
 72
     5
  1

 73
     1
 44
1.0
1001
ACAD
1000
MTEXTBEGIN
1070
    73
1070
     1
1070
    44
1040
1.0
1070
    74
1070
     0
1000
MTEXTEND
  0
MTEXT
  5
55D1
330
1A
100
AcDbEntity
  8
SUNPOU
100
AcDbMText
 10
55636.09714170436
 20
48749.73814662781
 30
0.0
 40
10.5
 41
0.0
 71
     7
 72
     5
  1

 73
     1
 44
1.0
1001
ACAD
1000
MTEXTBEGIN
1070
    73
1070
     1
1070
    44
1040
1.0
1070
    74
1070
     0
1000
MTEXTEND
  0
MTEXT
  5
55D2
330
1A
100
AcDbEntity
  8
SUNPOU
100
AcDbMText
 10
43178.86887675626
 20
32904.80656852937
 30
0.0
 40
35.0
 41
0.0
 71
     9
 72
     5
  1

 73
     1
 44
1.0
1001
ACAD
1000
MTEXTBEGIN
1070
    73
1070
     1
1070
    44
1040
1.0
1070
    74
1070
     0
1000
MTEXTEND
  0
MTEXT
  5
55D3
330
1A
100
AcDbEntity
  8
SUNPOU
100
AcDbMText
 10
42087.3539343312
 20
33513.58197857808
 30
0.0
 40
350.0000004171781
 41
0.0
 71
     7
 72
     5
  1

 73
     1
 44
1.0
1001
ACAD
1000
MTEXTBEGIN
1070
    73
1070
     1
1070
    44
1040
1.0
1070
    74
1070
     0
1000
MTEXTEND
  0
MTEXT
  5
55D4
330
1A
100
AcDbEntity
  8
0
100
AcDbMText
 10
48131.30469227412
 20
31493.50434071431
 30
0.0
 40
8.0
 41
0.0
 71
     7
 72
     5
  1

 73
     1
 44
1.0
1001
ACAD
1000
MTEXTBEGIN
1070
    73
1070
     1
1070
    44
1040
1.0
1070
    74
1070
     0
1000
MTEXTEND
  0
MTEXT
  5
55D5
330
1A
100
AcDbEntity
  8
0
100
AcDbMText
 10
50416.66238216901
 20
32464.29463546537
 30
0.0
 40
8.0
 41
0.0
 71
     7
 72
     5
  1

 73
     1
 44
1.0
1001
ACAD
1000
MTEXTBEGIN
1070
    73
1070
     1
1070
    44
1040
1.0
1070
    74
1070
     0
1000
MTEXTEND
  0
MTEXT
  5
55D6
330
1A
100
AcDbEntity
  8
SUNPOU
100
AcDbMText
 10
53082.55940285115
 20
41976.4060278405
 30
0.0
 40
10.5
 41
0.0
 71
     1
 72
     5
  1

 73
     1
 44
1.0
1001
ACAD
1000
MTEXTBEGIN
1070
    73
1070
     1
1070
    44
1040
1.0
1070
    74
1070
     0
1000
MTEXTEND
  0
MTEXT
  5
55D7
330
1A
100
AcDbEntity
  8
SUNPOU
100
AcDbMText
 10
45151.63620691521
 20
41029.61289392755
 30
0.0
 40
10.5
 41
0.0
 71
     7
 72
     5
  1

 73
     1
 44
1.0
1001
ACAD
1000
MTEXTBEGIN
1070
    73
1070
     1
1070
    44
1040
1.0
1070
    74
1070
     0
1000
MTEXTEND
  0
MTEXT
  5
55D8
330
1A
100
AcDbEntity
  8
SUNPOU
100
AcDbMText
 10
48100.61987142798
 20
45930.28896577039
 30
0.0
 40
10.5
 41
0.0
 71
     7
 72
     5
  1

 73
     1
 44
1.0
1001
ACAD
1000
MTEXTBEGIN
1070
    73
1070
     1
1070
    44
1040
1.0
1070
    74
1070
     0
1000
MTEXTEND
  0
MTEXT
  5
55D9
330
1A
100
AcDbEntity
  8
SUNPOU
100
AcDbMText
 10
52609.69799937853
 20
48366.58971339046
 30
0.0
 40
10.5
 41
0.0
 71
     7
 72
     5
  1

 73
     1
 44
1.0
1001
ACAD
1000
MTEXTBEGIN
1070
    73
1070
     1
1070
    44
1040
1.0
1070
    74
1070
     0
1000
MTEXTEND
  0
MTEXT
  5
55DA
330
1A
100
AcDbEntity
  8
SUNPOU
100
AcDbMText
 10
36210.53588614687
 20
27364.18586377937
 30
0.0
 40
10.5
 41
0.0
 71
     7
 72
     5
  1

 73
     1
 44
1.0
1001
ACAD
1000
MTEXTBEGIN
1070
    73
1070
     1
1070
    44
1040
1.0
1070
    74
1070
     0
1000
MTEXTEND
  0
MTEXT
  5
55DB
330
1A
100
AcDbEntity
  8
SUNPOU
100
AcDbMText
 10
38021.29879752181
 20
33691.59985125794
 30
0.0
 40
10.5
 41
0.0
 71
     9
 72
     5
  1

 73
     1
 44
1.0
1001
ACAD
1000
MTEXTBEGIN
1070
    73
1070
     1
1070
    44
1040
1.0
1070
    74
1070
     0
1000
MTEXTEND
  0
MTEXT
  5
55DC
330
1A
100
AcDbEntity
  8
SUNPOU
100
AcDbMText
 10
46743.46636343979
 20
41107.4343827954
 30
0.0
 40
10.5
 41
0.0
 71
     9
 72
     5
  1

 73
     1
 44
1.0
1001
ACAD
1000
MTEXTBEGIN
1070
    73
1070
     1
1070
    44
1040
1.0
1070
    74
1070
     0
1000
MTEXTEND
  0
MTEXT
  5
55DD
330
1A
100
AcDbEntity
  8
SUNPOU
100
AcDbMText
 10
65697.22508076974
 20
58574.01043528746
 30
0.0
 40
10.5
 41
0.0
 71
     9
 72
     5
  1

 73
     1
 44
1.0
1001
ACAD
1000
MTEXTBEGIN
1070
    73
1070
     1
1070
    44
1040
1.0
1070
    74
1070
     0
1000
MTEXTEND
  0
MTEXT
  5
55DE
330
1A
100
AcDbEntity
  8
SUNPOU
100
AcDbMText
 10
67640.63232747917
 20
56772.96135540945
 30
0.0
 40
3.5
 41
0.0
 71
     9
 72
     5
  1

 73
     1
 44
1.0
1001
ACAD
1000
MTEXTBEGIN
1070
    73
1070
     1
1070
    44
1040
1.0
1070
    74
1070
     0
1000
MTEXTEND
  0
MTEXT
  5
55DF
330
1A
100
AcDbEntity
  8
SUNPOU
100
AcDbMText
 10
98766.81216009886
 20
99267.9070230668
 30
0.0
 40
10.5
 41
0.0
 71
     9
 72
     5
  1

 73
     1
 44
1.0
1001
ACAD
1000
MTEXTBEGIN
1070
    73
1070
     1
1070
    44
1040
1.0
1070
    74
1070
     0
1000
MTEXTEND
  0
MTEXT
  5
55E0
330
1A
100
AcDbEntity
  8
SUNPOU
100
AcDbMText
 10
100710.2194068083
 20
97466.85794318876
 30
0.0
 40
3.5
 41
0.0
 71
     9
 72
     5
  1

 73
     1
 44
1.0
1001
ACAD
1000
MTEXTBEGIN
1070
    73
1070
     1
1070
    44
1040
1.0
1070
    74
1070
     0
1000
MTEXTEND
  0
MTEXT
  5
55E1
330
1A
100
AcDbEntity
  8
SUNPOU
100
AcDbMText
 10
49207.07986589443
 20
45101.07217804184
 30
0.0
 40
10.5
 41
0.0
 71
     9
 72
     5
  1

 73
     1
 44
1.0
1001
ACAD
1000
MTEXTBEGIN
1070
    73
1070
     1
1070
    44
1040
1.0
1070
    74
1070
     0
1000
MTEXTEND
  0
MTEXT
  5
55E2
330
1A
100
AcDbEntity
  8
SUNPOU
100
AcDbMText
 10
35259.07976551845
 20
25928.67303892964
 30
0.0
 40
3.5
 41
0.0
 71
     7
 72
     5
  1

 73
     1
 44
1.0
1001
ACAD
1000
MTEXTBEGIN
1070
    73
1070
     1
1070
    44
1040
1.0
1070
    74
1070
     0
1000
MTEXTEND
  0
MTEXT
  5
55E3
330
1A
100
AcDbEntity
  8
SUNPOU
100
AcDbMText
 10
48951.43044828905
 20
35287.73625995099
 30
0.0
 40
10.5
 41
0.0
 71
     9
 72
     5
  1

 73
     1
 44
1.0
1001
ACAD
1000
MTEXTBEGIN
1070
    73
1070
     1
1070
    44
1040
1.0
1070
    74
1070
     0
1000
MTEXTEND
  0
MTEXT
  5
55E4
330
1A
100
AcDbEntity
  8
SUNPOU
100
AcDbMText
 10
57673.59801420702
 20
42703.57079148847
 30
0.0
 40
10.5
 41
0.0
 71
     9
 72
     5
  1

 73
     1
 44
1.0
1001
ACAD
1000
MTEXTBEGIN
1070
    73
1070
     1
1070
    44
1040
1.0
1070
    74
1070
     0
1000
MTEXTEND
  0
MTEXT
  5
55E5
330
1A
100
AcDbEntity
  8
SUNPOU
100
AcDbMText
 10
76627.35673153699
 20
60170.14684398051
 30
0.0
 40
10.5
 41
0.0
 71
     9
 72
     5
  1

 73
     1
 44
1.0
1001
ACAD
1000
MTEXTBEGIN
1070
    73
1070
     1
1070
    44
1040
1.0
1070
    74
1070
     0
1000
MTEXTEND
  0
MTEXT
  5
55E6
330
1A
100
AcDbEntity
  8
SUNPOU
100
AcDbMText
 10
78570.76397824641
 20
58369.09776410251
 30
0.0
 40
3.5
 41
0.0
 71
     9
 72
     5
  1

 73
     1
 44
1.0
1001
ACAD
1000
MTEXTBEGIN
1070
    73
1070
     1
1070
    44
1040
1.0
1070
    74
1070
     0
1000
MTEXTEND
  0
MTEXT
  5
55E7
330
1A
100
AcDbEntity
  8
SUNPOU
100
AcDbMText
 10
109696.943810866
 20
100864.0434317598
 30
0.0
 40
10.5
 41
0.0
 71
     9
 72
     5
  1

 73
     1
 44
1.0
1001
ACAD
1000
MTEXTBEGIN
1070
    73
1070
     1
1070
    44
1040
1.0
1070
    74
1070
     0
1000
MTEXTEND
  0
MTEXT
  5
55E8
330
1A
100
AcDbEntity
  8
SUNPOU
100
AcDbMText
 10
111640.3510575755
 20
99062.99435188183
 30
0.0
 40
3.5
 41
0.0
 71
     9
 72
     5
  1

 73
     1
 44
1.0
1001
ACAD
1000
MTEXTBEGIN
1070
    73
1070
     1
1070
    44
1040
1.0
1070
    74
1070
     0
1000
MTEXTEND
  0
MTEXT
  5
55E9
330
1A
100
AcDbEntity
  8
SUNPOU
100
AcDbMText
 10
60137.21151666167
 20
46697.20858673491
 30
0.0
 40
10.5
 41
0.0
 71
     9
 72
     5
  1

 73
     1
 44
1.0
1001
ACAD
1000
MTEXTBEGIN
1070
    73
1070
     1
1070
    44
1040
1.0
1070
    74
1070
     0
1000
MTEXTEND
  0
MTEXT
  5
55EA
330
1A
100
AcDbEntity
  8
SUNPOU
100
AcDbMText
 10
46189.21141628568
 20
27524.80944762269
 30
0.0
 40
3.5
 41
0.0
 71
     7
 72
     5
  1

 73
     1
 44
1.0
1001
ACAD
1000
MTEXTBEGIN
1070
    73
1070
     1
1070
    44
1040
1.0
1070
    74
1070
     0
1000
MTEXTEND
  0
MTEXT
  5
55EB
330
1A
100
AcDbEntity
  8
SUNPOU
100
AcDbMText
 10
45007.68847015541
 20
38269.57947701873
 30
0.0
 40
10.5
 41
0.0
 71
     9
 72
     5
  1

 73
     1
 44
1.0
1001
ACAD
1000
MTEXTBEGIN
1070
    73
1070
     1
1070
    44
1040
1.0
1070
    74
1070
     0
1000
MTEXTEND
  0
MTEXT
  5
55EC
330
1A
100
AcDbEntity
  8
SUNPOU
100
AcDbMText
 10
63961.44718748539
 20
55736.15552951081
 30
0.0
 40
10.5
 41
0.0
 71
     9
 72
     5
  1

 73
     1
 44
1.0
1001
ACAD
1000
MTEXTBEGIN
1070
    73
1070
     1
1070
    44
1040
1.0
1070
    74
1070
     0
1000
MTEXTEND
  0
MTEXT
  5
55ED
330
1A
100
AcDbEntity
  8
SUNPOU
100
AcDbMText
 10
65904.85443419479
 20
53935.10644963278
 30
0.0
 40
3.5
 41
0.0
 71
     9
 72
     5
  1

 73
     1
 44
1.0
1001
ACAD
1000
MTEXTBEGIN
1070
    73
1070
     1
1070
    44
1040
1.0
1070
    74
1070
     0
1000
MTEXTEND
  0
MTEXT
  5
55EE
330
1A
100
AcDbEntity
  8
SUNPOU
100
AcDbMText
 10
97031.03426681453
 20
96430.05211729015
 30
0.0
 40
10.5
 41
0.0
 71
     9
 72
     5
  1

 73
     1
 44
1.0
1001
ACAD
1000
MTEXTBEGIN
1070
    73
1070
     1
1070
    44
1040
1.0
1070
    74
1070
     0
1000
MTEXTEND
  0
MTEXT
  5
55EF
330
1A
100
AcDbEntity
  8
SUNPOU
100
AcDbMText
 10
98974.44151352393
 20
94629.00303741212
 30
0.0
 40
3.5
 41
0.0
 71
     9
 72
     5
  1

 73
     1
 44
1.0
1001
ACAD
1000
MTEXTBEGIN
1070
    73
1070
     1
1070
    44
1040
1.0
1070
    74
1070
     0
1000
MTEXTEND
  0
MTEXT
  5
55F0
330
1A
100
AcDbEntity
  8
SUNPOU
100
AcDbMText
 10
47471.30197261006
 20
42263.21727226519
 30
0.0
 40
10.5
 41
0.0
 71
     9
 72
     5
  1

 73
     1
 44
1.0
1001
ACAD
1000
MTEXTBEGIN
1070
    73
1070
     1
1070
    44
1040
1.0
1070
    74
1070
     0
1000
MTEXTEND
  0
MTEXT
  5
55F1
330
1A
100
AcDbEntity
  8
SUNPOU
100
AcDbMText
 10
33523.30187223408
 20
23090.81813315298
 30
0.0
 40
3.5
 41
0.0
 71
     7
 72
     5
  1

 73
     1
 44
1.0
1001
ACAD
1000
MTEXTBEGIN
1070
    73
1070
     1
1070
    44
1040
1.0
1070
    74
1070
     0
1000
MTEXTEND
  0
MTEXT
  5
55F2
330
1A
100
AcDbEntity
  8
SUNPOU
100
AcDbMText
 10
57959.46254102503
 20
50038.08111611014
 30
0.0
 40
10.5
 41
0.0
 71
     9
 72
     5
  1

 73
     1
 44
1.0
1001
ACAD
1000
MTEXTBEGIN
1070
    73
1070
     1
1070
    44
1040
1.0
1070
    74
1070
     0
1000
MTEXTEND
  0
MTEXT
  5
55F3
330
1A
100
AcDbEntity
  8
SUNPOU
100
AcDbMText
 10
76913.22125835503
 20
67504.65716860222
 30
0.0
 40
10.5
 41
0.0
 71
     9
 72
     5
  1

 73
     1
 44
1.0
1001
ACAD
1000
MTEXTBEGIN
1070
    73
1070
     1
1070
    44
1040
1.0
1070
    74
1070
     0
1000
MTEXTEND
  0
MTEXT
  5
55F4
330
1A
100
AcDbEntity
  8
SUNPOU
100
AcDbMText
 10
78856.62850506443
 20
65703.6080887242
 30
0.0
 40
3.5
 41
0.0
 71
     9
 72
     5
  1

 73
     1
 44
1.0
1001
ACAD
1000
MTEXTBEGIN
1070
    73
1070
     1
1070
    44
1040
1.0
1070
    74
1070
     0
1000
MTEXTEND
  0
MTEXT
  5
55F5
330
1A
100
AcDbEntity
  8
SUNPOU
100
AcDbMText
 10
109982.8083376841
 20
108198.5537563815
 30
0.0
 40
10.5
 41
0.0
 71
     9
 72
     5
  1

 73
     1
 44
1.0
1001
ACAD
1000
MTEXTBEGIN
1070
    73
1070
     1
1070
    44
1040
1.0
1070
    74
1070
     0
1000
MTEXTEND
  0
MTEXT
  5
55F6
330
1A
100
AcDbEntity
  8
SUNPOU
100
AcDbMText
 10
111926.2155843934
 20
106397.5046765035
 30
0.0
 40
3.5
 41
0.0
 71
     9
 72
     5
  1

 73
     1
 44
1.0
1001
ACAD
1000
MTEXTBEGIN
1070
    73
1070
     1
1070
    44
1040
1.0
1070
    74
1070
     0
1000
MTEXTEND
  0
MTEXT
  5
55F7
330
1A
100
AcDbEntity
  8
SUNPOU
100
AcDbMText
 10
60423.07604347968
 20
54031.71891135658
 30
0.0
 40
10.5
 41
0.0
 71
     9
 72
     5
  1

 73
     1
 44
1.0
1001
ACAD
1000
MTEXTBEGIN
1070
    73
1070
     1
1070
    44
1040
1.0
1070
    74
1070
     0
1000
MTEXTEND
  0
MTEXT
  5
55F8
330
1A
100
AcDbEntity
  8
SUNPOU
100
AcDbMText
 10
46475.07594310369
 20
34859.3197722444
 30
0.0
 40
3.5
 41
0.0
 71
     7
 72
     5
  1

 73
     1
 44
1.0
1001
ACAD
1000
MTEXTBEGIN
1070
    73
1070
     1
1070
    44
1040
1.0
1070
    74
1070
     0
1000
MTEXTEND
  0
MTEXT
  5
55F9
330
1A
100
AcDbEntity
  8
SUNPOU
100
AcDbMText
 10
74027.35402123588
 20
68370.58278833383
 30
0.0
 40
10.5
 41
0.0
 71
     9
 72
     5
  1

 73
     1
 44
1.0
1001
ACAD
1000
MTEXTBEGIN
1070
    73
1070
     1
1070
    44
1040
1.0
1070
    74
1070
     0
1000
MTEXTEND
  0
MTEXT
  5
55FA
330
1A
100
AcDbEntity
  8
SUNPOU
100
AcDbMText
 10
75970.7612679453
 20
66569.53370845583
 30
0.0
 40
3.5
 41
0.0
 71
     9
 72
     5
  1

 73
     1
 44
1.0
1001
ACAD
1000
MTEXTBEGIN
1070
    73
1070
     1
1070
    44
1040
1.0
1070
    74
1070
     0
1000
MTEXTEND
  0
MTEXT
  5
55FB
330
1A
100
AcDbEntity
  8
SUNPOU
100
AcDbMText
 10
107096.941100565
 20
109064.4793761132
 30
0.0
 40
10.5
 41
0.0
 71
     9
 72
     5
  1

 73
     1
 44
1.0
1001
ACAD
1000
MTEXTBEGIN
1070
    73
1070
     1
1070
    44
1040
1.0
1070
    74
1070
     0
1000
MTEXTEND
  0
MTEXT
  5
55FC
330
1A
100
AcDbEntity
  8
SUNPOU
100
AcDbMText
 10
109040.3483472744
 20
107263.430296235
 30
0.0
 40
3.5
 41
0.0
 71
     9
 72
     5
  1

 73
     1
 44
1.0
1001
ACAD
1000
MTEXTBEGIN
1070
    73
1070
     1
1070
    44
1040
1.0
1070
    74
1070
     0
1000
MTEXTEND
  0
MTEXT
  5
55FD
330
1A
100
AcDbEntity
  8
SUNPOU
100
AcDbMText
 10
105709.1709283621
 20
108141.3777665285
 30
0.0
 40
10.5
 41
0.0
 71
     9
 72
     5
  1

 73
     1
 44
1.0
1001
ACAD
1000
MTEXTBEGIN
1070
    73
1070
     1
1070
    44
1040
1.0
1070
    74
1070
     0
1000
MTEXTEND
  0
MTEXT
  5
55FE
330
1A
100
AcDbEntity
  8
SUNPOU
100
AcDbMText
 10
107652.5781750715
 20
106340.3286866505
 30
0.0
 40
3.5
 41
0.0
 71
     9
 72
     5
  1

 73
     1
 44
1.0
1001
ACAD
1000
MTEXTBEGIN
1070
    73
1070
     1
1070
    44
1040
1.0
1070
    74
1070
     0
1000
MTEXTEND
  0
MTEXT
  5
55FF
330
1A
100
AcDbEntity
  8
SUNPOU
100
AcDbMText
 10
73193.09268743351
 20
66158.78082845057
 30
0.0
 40
10.5
 41
0.0
 71
     9
 72
     5
  1

 73
     1
 44
1.0
1001
ACAD
1000
MTEXTBEGIN
1070
    73
1070
     1
1070
    44
1040
1.0
1070
    74
1070
     0
1000
MTEXTEND
  0
MTEXT
  5
5600
330
1A
100
AcDbEntity
  8
SUNPOU
100
AcDbMText
 10
75916.39889159807
 20
66563.46252003162
 30
0.0
 40
3.5
 41
0.0
 71
     9
 72
     5
  1

 73
     1
 44
1.0
1001
ACAD
1000
MTEXTBEGIN
1070
    73
1070
     1
1070
    44
1040
1.0
1070
    74
1070
     0
1000
MTEXTEND
  0
MTEXT
  5
5601
330
1A
100
AcDbEntity
  8
SUNPOU
100
AcDbMText
 10
75124.04436649058
 20
63402.1566819768
 30
0.0
 40
10.5
 41
0.0
 71
     9
 72
     5
  1

 73
     1
 44
1.0
1001
ACAD
1000
MTEXTBEGIN
1070
    73
1070
     1
1070
    44
1040
1.0
1070
    74
1070
     0
1000
MTEXTEND
  0
MTEXT
  5
5602
330
1A
100
AcDbEntity
  8
SUNPOU
100
AcDbMText
 10
77067.4516132
 20
61601.1076020988
 30
0.0
 40
3.5
 41
0.0
 71
     9
 72
     5
  1

 73
     1
 44
1.0
1001
ACAD
1000
MTEXTBEGIN
1070
    73
1070
     1
1070
    44
1040
1.0
1070
    74
1070
     0
1000
MTEXTEND
  0
MTEXT
  5
5603
330
1A
100
AcDbEntity
  8
SUNPOU
100
AcDbMText
 10
77012.54710378659
 20
61488.33571981449
 30
0.0
 40
3.5
 41
0.0
 71
     9
 72
     5
  1

 73
     1
 44
1.0
1001
ACAD
1000
MTEXTBEGIN
1070
    73
1070
     1
1070
    44
1040
1.0
1070
    74
1070
     0
1000
MTEXTEND
  0
MTEXT
  5
5604
330
1A
100
AcDbEntity
  8
SUNPOU
100
AcDbMText
 10
76376.61896736668
 20
60677.01447874798
 30
0.0
 40
3.5
 41
0.0
 71
     9
 72
     5
  1

 73
     1
 44
1.0
1001
ACAD
1000
MTEXTBEGIN
1070
    73
1070
     1
1070
    44
1040
1.0
1070
    74
1070
     0
1000
MTEXTEND
  0
MTEXT
  5
5605
330
1A
100
AcDbEntity
  8
SUNPOU
100
AcDbMText
 10
76375.37854794595
 20
60676.76650181048
 30
0.0
 40
10.5
 41
0.0
 71
     9
 72
     5
  1

 73
     1
 44
1.0
1001
ACAD
1000
MTEXTBEGIN
1070
    73
1070
     1
1070
    44
1040
1.0
1070
    74
1070
     0
1000
MTEXTEND
  0
MTEXT
  5
5606
330
1A
100
AcDbEntity
  8
SUNPOU
100
AcDbMText
 10
84709.93991079748
 20
78034.0328293557
 30
0.0
 40
10.5
 41
0.0
 71
     9
 72
     5
  1

 73
     1
 44
1.0
1001
ACAD
1000
MTEXTBEGIN
1070
    73
1070
     1
1070
    44
1040
1.0
1070
    74
1070
     0
1000
MTEXTEND
  0
MTEXT
  5
5607
330
1A
100
AcDbEntity
  8
SUNPOU
100
AcDbMText
 10
93432.10747671546
 20
85449.86736089315
 30
0.0
 40
10.5
 41
0.0
 71
     9
 72
     5
  1

 73
     1
 44
1.0
1001
ACAD
1000
MTEXTBEGIN
1070
    73
1070
     1
1070
    44
1040
1.0
1070
    74
1070
     0
1000
MTEXTEND
  0
MTEXT
  5
5608
330
1A
100
AcDbEntity
  8
SUNPOU
100
AcDbMText
 10
112385.8661940454
 20
102916.4434133851
 30
0.0
 40
10.5
 41
0.0
 71
     9
 72
     5
  1

 73
     1
 44
1.0
1001
ACAD
1000
MTEXTBEGIN
1070
    73
1070
     1
1070
    44
1040
1.0
1070
    74
1070
     0
1000
MTEXTEND
  0
MTEXT
  5
5609
330
1A
100
AcDbEntity
  8
SUNPOU
100
AcDbMText
 10
114329.2734407548
 20
101115.3943335072
 30
0.0
 40
3.5
 41
0.0
 71
     9
 72
     5
  1

 73
     1
 44
1.0
1001
ACAD
1000
MTEXTBEGIN
1070
    73
1070
     1
1070
    44
1040
1.0
1070
    74
1070
     0
1000
MTEXTEND
  0
MTEXT
  5
560A
330
1A
100
AcDbEntity
  8
SUNPOU
100
AcDbMText
 10
145455.4532733745
 20
143610.3400011645
 30
0.0
 40
10.5
 41
0.0
 71
     9
 72
     5
  1

 73
     1
 44
1.0
1001
ACAD
1000
MTEXTBEGIN
1070
    73
1070
     1
1070
    44
1040
1.0
1070
    74
1070
     0
1000
MTEXTEND
  0
MTEXT
  5
560B
330
1A
100
AcDbEntity
  8
SUNPOU
100
AcDbMText
 10
147398.8605200839
 20
141809.2909212864
 30
0.0
 40
3.5
 41
0.0
 71
     9
 72
     5
  1

 73
     1
 44
1.0
1001
ACAD
1000
MTEXTBEGIN
1070
    73
1070
     1
1070
    44
1040
1.0
1070
    74
1070
     0
1000
MTEXTEND
  0
MTEXT
  5
560C
330
1A
100
AcDbEntity
  8
SUNPOU
100
AcDbMText
 10
95895.72097917011
 20
89443.50515613962
 30
0.0
 40
10.5
 41
0.0
 71
     9
 72
     5
  1

 73
     1
 44
1.0
1001
ACAD
1000
MTEXTBEGIN
1070
    73
1070
     1
1070
    44
1040
1.0
1070
    74
1070
     0
1000
MTEXTEND
  0
MTEXT
  5
560D
330
1A
100
AcDbEntity
  8
SUNPOU
100
AcDbMText
 10
81947.72087879414
 20
70271.1060170274
 30
0.0
 40
3.5
 41
0.0
 71
     7
 72
     5
  1

 73
     1
 44
1.0
1001
ACAD
1000
MTEXTBEGIN
1070
    73
1070
     1
1070
    44
1040
1.0
1070
    74
1070
     0
1000
MTEXTEND
  0
MTEXT
  5
560E
330
1A
100
AcDbEntity
  8
SUNPOU
100
AcDbMText
 10
62932.89027578729
 20
58033.25474784561
 30
0.0
 40
10.5
 41
0.0
 71
     7
 72
     5
  1

 73
     1
 44
1.0
1001
ACAD
1000
MTEXTBEGIN
1070
    73
1070
     1
1070
    44
1040
1.0
1070
    74
1070
     0
1000
MTEXTEND
  0
MTEXT
  5
560F
330
1A
100
AcDbEntity
  8
SUNPOU
100
AcDbMText
 10
50475.66201083918
 20
42188.32316974718
 30
0.0
 40
35.0
 41
0.0
 71
     9
 72
     5
  1

 73
     1
 44
1.0
1001
ACAD
1000
MTEXTBEGIN
1070
    73
1070
     1
1070
    44
1040
1.0
1070
    74
1070
     0
1000
MTEXTEND
  0
MTEXT
  5
5610
330
1A
100
AcDbEntity
  8
SUNPOU
100
AcDbMText
 10
49384.14706841413
 20
42797.0985797959
 30
0.0
 40
350.0000004171781
 41
0.0
 71
     7
 72
     5
  1

 73
     1
 44
1.0
1001
ACAD
1000
MTEXTBEGIN
1070
    73
1070
     1
1070
    44
1040
1.0
1070
    74
1070
     0
1000
MTEXTEND
  0
MTEXT
  5
5611
330
1A
100
AcDbEntity
  8
0
100
AcDbMText
 10
55428.09782635704
 20
40777.0209419321
 30
0.0
 40
8.0
 41
0.0
 71
     7
 72
     5
  1

 73
     1
 44
1.0
1001
ACAD
1000
MTEXTBEGIN
1070
    73
1070
     1
1070
    44
1040
1.0
1070
    74
1070
     0
1000
MTEXTEND
  0
MTEXT
  5
5612
330
1A
100
AcDbEntity
  8
0
100
AcDbMText
 10
57713.45551625193
 20
41747.81123668316
 30
0.0
 40
8.0
 41
0.0
 71
     7
 72
     5
  1

 73
     1
 44
1.0
1001
ACAD
1000
MTEXTBEGIN
1070
    73
1070
     1
1070
    44
1040
1.0
1070
    74
1070
     0
1000
MTEXTEND
  0
MTEXT
  5
5613
330
1A
100
AcDbEntity
  8
SUNPOU
100
AcDbMText
 10
60379.35253693407
 20
51259.9226290583
 30
0.0
 40
10.5
 41
0.0
 71
     1
 72
     5
  1

 73
     1
 44
1.0
1001
ACAD
1000
MTEXTBEGIN
1070
    73
1070
     1
1070
    44
1040
1.0
1070
    74
1070
     0
1000
MTEXTEND
  0
MTEXT
  5
5614
330
1A
100
AcDbEntity
  8
SUNPOU
100
AcDbMText
 10
52448.42934099813
 20
50313.12949514535
 30
0.0
 40
10.5
 41
0.0
 71
     7
 72
     5
  1

 73
     1
 44
1.0
1001
ACAD
1000
MTEXTBEGIN
1070
    73
1070
     1
1070
    44
1040
1.0
1070
    74
1070
     0
1000
MTEXTEND
  0
MTEXT
  5
5615
330
1A
100
AcDbEntity
  8
SUNPOU
100
AcDbMText
 10
55397.4130055109
 20
55213.80556698819
 30
0.0
 40
10.5
 41
0.0
 71
     7
 72
     5
  1

 73
     1
 44
1.0
1001
ACAD
1000
MTEXTBEGIN
1070
    73
1070
     1
1070
    44
1040
1.0
1070
    74
1070
     0
1000
MTEXTEND
  0
MTEXT
  5
5616
330
1A
100
AcDbEntity
  8
SUNPOU
100
AcDbMText
 10
59906.49113346147
 20
57650.10631460826
 30
0.0
 40
10.5
 41
0.0
 71
     7
 72
     5
  1

 73
     1
 44
1.0
1001
ACAD
1000
MTEXTBEGIN
1070
    73
1070
     1
1070
    44
1040
1.0
1070
    74
1070
     0
1000
MTEXTEND
  0
MTEXT
  5
5617
330
1A
100
AcDbEntity
  8
SUNPOU
100
AcDbMText
 10
43507.32902022978
 20
36647.70246499718
 30
0.0
 40
10.5
 41
0.0
 71
     7
 72
     5
  1

 73
     1
 44
1.0
1001
ACAD
1000
MTEXTBEGIN
1070
    73
1070
     1
1070
    44
1040
1.0
1070
    74
1070
     0
1000
MTEXTEND
  0
MTEXT
  5
5618
330
1A
100
AcDbEntity
  8
SUNPOU
100
AcDbMText
 10
94698.84745413006
 20
82320.68302864544
 30
0.0
 40
10.5
 41
0.0
 71
     9
 72
     5
  1

 73
     1
 44
1.0
1001
ACAD
1000
MTEXTBEGIN
1070
    73
1070
     1
1070
    44
1040
1.0
1070
    74
1070
     0
1000
MTEXTEND
  0
MTEXT
  5
5619
330
1A
100
AcDbEntity
  8
SUNPOU
100
AcDbMText
 10
103421.015020048
 20
89736.5175601829
 30
0.0
 40
10.5
 41
0.0
 71
     9
 72
     5
  1

 73
     1
 44
1.0
1001
ACAD
1000
MTEXTBEGIN
1070
    73
1070
     1
1070
    44
1040
1.0
1070
    74
1070
     0
1000
MTEXTEND
  0
MTEXT
  5
561A
330
1A
100
AcDbEntity
  8
SUNPOU
100
AcDbMText
 10
122374.773737378
 20
107203.0936126749
 30
0.0
 40
10.5
 41
0.0
 71
     9
 72
     5
  1

 73
     1
 44
1.0
1001
ACAD
1000
MTEXTBEGIN
1070
    73
1070
     1
1070
    44
1040
1.0
1070
    74
1070
     0
1000
MTEXTEND
  0
MTEXT
  5
561B
330
1A
100
AcDbEntity
  8
SUNPOU
100
AcDbMText
 10
124318.1809840874
 20
105402.0445327969
 30
0.0
 40
3.5
 41
0.0
 71
     9
 72
     5
  1

 73
     1
 44
1.0
1001
ACAD
1000
MTEXTBEGIN
1070
    73
1070
     1
1070
    44
1040
1.0
1070
    74
1070
     0
1000
MTEXTEND
  0
MTEXT
  5
561C
330
1A
100
AcDbEntity
  8
SUNPOU
100
AcDbMText
 10
155444.3608167071
 20
147896.9902004542
 30
0.0
 40
10.5
 41
0.0
 71
     9
 72
     5
  1

 73
     1
 44
1.0
1001
ACAD
1000
MTEXTBEGIN
1070
    73
1070
     1
1070
    44
1040
1.0
1070
    74
1070
     0
1000
MTEXTEND
  0
MTEXT
  5
561D
330
1A
100
AcDbEntity
  8
SUNPOU
100
AcDbMText
 10
157387.7680634165
 20
146095.9411205762
 30
0.0
 40
3.5
 41
0.0
 71
     9
 72
     5
  1

 73
     1
 44
1.0
1001
ACAD
1000
MTEXTBEGIN
1070
    73
1070
     1
1070
    44
1040
1.0
1070
    74
1070
     0
1000
MTEXTEND
  0
MTEXT
  5
561E
330
1A
100
AcDbEntity
  8
SUNPOU
100
AcDbMText
 10
105884.6285225027
 20
93730.15535542933
 30
0.0
 40
10.5
 41
0.0
 71
     9
 72
     5
  1

 73
     1
 44
1.0
1001
ACAD
1000
MTEXTBEGIN
1070
    73
1070
     1
1070
    44
1040
1.0
1070
    74
1070
     0
1000
MTEXTEND
  0
MTEXT
  5
561F
330
1A
100
AcDbEntity
  8
SUNPOU
100
AcDbMText
 10
91936.6284221267
 20
74557.75621631714
 30
0.0
 40
3.5
 41
0.0
 71
     7
 72
     5
  1

 73
     1
 44
1.0
1001
ACAD
1000
MTEXTBEGIN
1070
    73
1070
     1
1070
    44
1040
1.0
1070
    74
1070
     0
1000
MTEXTEND
  0
MTEXT
  5
5620
330
1A
100
AcDbEntity
  8
SUNPOU
100
AcDbMText
 10
72921.79781911986
 20
62319.90494713532
 30
0.0
 40
10.5
 41
0.0
 71
     7
 72
     5
  1

 73
     1
 44
1.0
1001
ACAD
1000
MTEXTBEGIN
1070
    73
1070
     1
1070
    44
1040
1.0
1070
    74
1070
     0
1000
MTEXTEND
  0
MTEXT
  5
5621
330
1A
100
AcDbEntity
  8
SUNPOU
100
AcDbMText
 10
60464.56955417175
 20
46474.97336903692
 30
0.0
 40
35.0
 41
0.0
 71
     9
 72
     5
  1

 73
     1
 44
1.0
1001
ACAD
1000
MTEXTBEGIN
1070
    73
1070
     1
1070
    44
1040
1.0
1070
    74
1070
     0
1000
MTEXTEND
  0
MTEXT
  5
5622
330
1A
100
AcDbEntity
  8
SUNPOU
100
AcDbMText
 10
59373.05461174673
 20
47083.74877908561
 30
0.0
 40
350.0000004171781
 41
0.0
 71
     7
 72
     5
  1

 73
     1
 44
1.0
1001
ACAD
1000
MTEXTBEGIN
1070
    73
1070
     1
1070
    44
1040
1.0
1070
    74
1070
     0
1000
MTEXTEND
  0
MTEXT
  5
5623
330
1A
100
AcDbEntity
  8
0
100
AcDbMText
 10
65417.00536968963
 20
45063.67114122186
 30
0.0
 40
8.0
 41
0.0
 71
     7
 72
     5
  1

 73
     1
 44
1.0
1001
ACAD
1000
MTEXTBEGIN
1070
    73
1070
     1
1070
    44
1040
1.0
1070
    74
1070
     0
1000
MTEXTEND
  0
MTEXT
  5
5624
330
1A
100
AcDbEntity
  8
0
100
AcDbMText
 10
67702.36305958452
 20
46034.46143597292
 30
0.0
 40
8.0
 41
0.0
 71
     7
 72
     5
  1

 73
     1
 44
1.0
1001
ACAD
1000
MTEXTBEGIN
1070
    73
1070
     1
1070
    44
1040
1.0
1070
    74
1070
     0
1000
MTEXTEND
  0
MTEXT
  5
5625
330
1A
100
AcDbEntity
  8
SUNPOU
100
AcDbMText
 10
70368.26008026666
 20
55546.57282834803
 30
0.0
 40
10.5
 41
0.0
 71
     1
 72
     5
  1

 73
     1
 44
1.0
1001
ACAD
1000
MTEXTBEGIN
1070
    73
1070
     1
1070
    44
1040
1.0
1070
    74
1070
     0
1000
MTEXTEND
  0
MTEXT
  5
5626
330
1A
100
AcDbEntity
  8
SUNPOU
100
AcDbMText
 10
62437.33688433072
 20
54599.77969443507
 30
0.0
 40
10.5
 41
0.0
 71
     7
 72
     5
  1

 73
     1
 44
1.0
1001
ACAD
1000
MTEXTBEGIN
1070
    73
1070
     1
1070
    44
1040
1.0
1070
    74
1070
     0
1000
MTEXTEND
  0
MTEXT
  5
5627
330
1A
100
AcDbEntity
  8
SUNPOU
100
AcDbMText
 10
65386.32054884348
 20
59500.45576627792
 30
0.0
 40
10.5
 41
0.0
 71
     7
 72
     5
  1

 73
     1
 44
1.0
1001
ACAD
1000
MTEXTBEGIN
1070
    73
1070
     1
1070
    44
1040
1.0
1070
    74
1070
     0
1000
MTEXTEND
  0
MTEXT
  5
5628
330
1A
100
AcDbEntity
  8
SUNPOU
100
AcDbMText
 10
69895.39867679405
 20
61936.756513898
 30
0.0
 40
10.5
 41
0.0
 71
     7
 72
     5
  1

 73
     1
 44
1.0
1001
ACAD
1000
MTEXTBEGIN
1070
    73
1070
     1
1070
    44
1040
1.0
1070
    74
1070
     0
1000
MTEXTEND
  0
MTEXT
  5
5629
330
1A
100
AcDbEntity
  8
SUNPOU
100
AcDbMText
 10
53496.23656356237
 20
40934.35266428691
 30
0.0
 40
10.5
 41
0.0
 71
     7
 72
     5
  1

 73
     1
 44
1.0
1001
ACAD
1000
MTEXTBEGIN
1070
    73
1070
     1
1070
    44
1040
1.0
1070
    74
1070
     0
1000
MTEXTEND
  0
MTEXT
  5
562A
330
1A
100
AcDbEntity
  8
SUNPOU
100
AcDbMText
 10
55306.99947493731
 20
47261.76665176546
 30
0.0
 40
10.5
 41
0.0
 71
     9
 72
     5
  1

 73
     1
 44
1.0
1001
ACAD
1000
MTEXTBEGIN
1070
    73
1070
     1
1070
    44
1040
1.0
1070
    74
1070
     0
1000
MTEXTEND
  0
MTEXT
  5
562B
330
1A
100
AcDbEntity
  8
SUNPOU
100
AcDbMText
 10
64029.16704085527
 20
54677.60118330295
 30
0.0
 40
10.5
 41
0.0
 71
     9
 72
     5
  1

 73
     1
 44
1.0
1001
ACAD
1000
MTEXTBEGIN
1070
    73
1070
     1
1070
    44
1040
1.0
1070
    74
1070
     0
1000
MTEXTEND
  0
MTEXT
  5
562C
330
1A
100
AcDbEntity
  8
SUNPOU
100
AcDbMText
 10
82982.92575818527
 20
72144.17723579499
 30
0.0
 40
10.5
 41
0.0
 71
     9
 72
     5
  1

 73
     1
 44
1.0
1001
ACAD
1000
MTEXTBEGIN
1070
    73
1070
     1
1070
    44
1040
1.0
1070
    74
1070
     0
1000
MTEXTEND
  0
MTEXT
  5
562D
330
1A
100
AcDbEntity
  8
SUNPOU
100
AcDbMText
 10
84926.33300489467
 20
70343.12815591697
 30
0.0
 40
3.5
 41
0.0
 71
     9
 72
     5
  1

 73
     1
 44
1.0
1001
ACAD
1000
MTEXTBEGIN
1070
    73
1070
     1
1070
    44
1040
1.0
1070
    74
1070
     0
1000
MTEXTEND
  0
MTEXT
  5
562E
330
1A
100
AcDbEntity
  8
SUNPOU
100
AcDbMText
 10
116052.5128375142
 20
112838.0738235742
 30
0.0
 40
10.5
 41
0.0
 71
     9
 72
     5
  1

 73
     1
 44
1.0
1001
ACAD
1000
MTEXTBEGIN
1070
    73
1070
     1
1070
    44
1040
1.0
1070
    74
1070
     0
1000
MTEXTEND
  0
MTEXT
  5
562F
330
1A
100
AcDbEntity
  8
SUNPOU
100
AcDbMText
 10
117995.9200842238
 20
111037.0247436963
 30
0.0
 40
3.5
 41
0.0
 71
     9
 72
     5
  1

 73
     1
 44
1.0
1001
ACAD
1000
MTEXTBEGIN
1070
    73
1070
     1
1070
    44
1040
1.0
1070
    74
1070
     0
1000
MTEXTEND
  0
MTEXT
  5
5630
330
1A
100
AcDbEntity
  8
SUNPOU
100
AcDbMText
 10
66492.78054330994
 20
58671.23897854939
 30
0.0
 40
10.5
 41
0.0
 71
     9
 72
     5
  1

 73
     1
 44
1.0
1001
ACAD
1000
MTEXTBEGIN
1070
    73
1070
     1
1070
    44
1040
1.0
1070
    74
1070
     0
1000
MTEXTEND
  0
MTEXT
  5
5631
330
1A
100
AcDbEntity
  8
SUNPOU
100
AcDbMText
 10
52544.78044293397
 20
39498.83983943717
 30
0.0
 40
3.5
 41
0.0
 71
     7
 72
     5
  1

 73
     1
 44
1.0
1001
ACAD
1000
MTEXTBEGIN
1070
    73
1070
     1
1070
    44
1040
1.0
1070
    74
1070
     0
1000
MTEXTEND
  0
MTEXT
  5
5632
330
1A
100
AcDbEntity
  8
SUNPOU
100
AcDbMText
 10
66237.13112570454
 20
48857.90306045851
 30
0.0
 40
10.5
 41
0.0
 71
     9
 72
     5
  1

 73
     1
 44
1.0
1001
ACAD
1000
MTEXTBEGIN
1070
    73
1070
     1
1070
    44
1040
1.0
1070
    74
1070
     0
1000
MTEXTEND
  0
MTEXT
  5
5633
330
1A
100
AcDbEntity
  8
SUNPOU
100
AcDbMText
 10
74959.29869162253
 20
56273.73759199599
 30
0.0
 40
10.5
 41
0.0
 71
     9
 72
     5
  1

 73
     1
 44
1.0
1001
ACAD
1000
MTEXTBEGIN
1070
    73
1070
     1
1070
    44
1040
1.0
1070
    74
1070
     0
1000
MTEXTEND
  0
MTEXT
  5
5634
330
1A
100
AcDbEntity
  8
SUNPOU
100
AcDbMText
 10
93913.0574089525
 20
73740.31364448805
 30
0.0
 40
10.5
 41
0.0
 71
     9
 72
     5
  1

 73
     1
 44
1.0
1001
ACAD
1000
MTEXTBEGIN
1070
    73
1070
     1
1070
    44
1040
1.0
1070
    74
1070
     0
1000
MTEXTEND
  0
MTEXT
  5
5635
330
1A
100
AcDbEntity
  8
SUNPOU
100
AcDbMText
 10
95856.46465566192
 20
71939.26456461004
 30
0.0
 40
3.5
 41
0.0
 71
     9
 72
     5
  1

 73
     1
 44
1.0
1001
ACAD
1000
MTEXTBEGIN
1070
    73
1070
     1
1070
    44
1040
1.0
1070
    74
1070
     0
1000
MTEXTEND
  0
MTEXT
  5
5636
330
1A
100
AcDbEntity
  8
SUNPOU
100
AcDbMText
 10
126982.6444882816
 20
114434.2102322673
 30
0.0
 40
10.5
 41
0.0
 71
     9
 72
     5
  1

 73
     1
 44
1.0
1001
ACAD
1000
MTEXTBEGIN
1070
    73
1070
     1
1070
    44
1040
1.0
1070
    74
1070
     0
1000
MTEXTEND
  0
MTEXT
  5
5637
330
1A
100
AcDbEntity
  8
SUNPOU
100
AcDbMText
 10
128926.051734991
 20
112633.1611523893
 30
0.0
 40
3.5
 41
0.0
 71
     9
 72
     5
  1

 73
     1
 44
1.0
1001
ACAD
1000
MTEXTBEGIN
1070
    73
1070
     1
1070
    44
1040
1.0
1070
    74
1070
     0
1000
MTEXTEND
  0
MTEXT
  5
5638
330
1A
100
AcDbEntity
  8
SUNPOU
100
AcDbMText
 10
77422.91219407717
 20
60267.37538724244
 30
0.0
 40
10.5
 41
0.0
 71
     9
 72
     5
  1

 73
     1
 44
1.0
1001
ACAD
1000
MTEXTBEGIN
1070
    73
1070
     1
1070
    44
1040
1.0
1070
    74
1070
     0
1000
MTEXTEND
  0
MTEXT
  5
5639
330
1A
100
AcDbEntity
  8
SUNPOU
100
AcDbMText
 10
63474.91209370119
 20
41094.97624813023
 30
0.0
 40
3.5
 41
0.0
 71
     7
 72
     5
  1

 73
     1
 44
1.0
1001
ACAD
1000
MTEXTBEGIN
1070
    73
1070
     1
1070
    44
1040
1.0
1070
    74
1070
     0
1000
MTEXTEND
  0
MTEXT
  5
563A
330
1A
100
AcDbEntity
  8
SUNPOU
100
AcDbMText
 10
48117.65086229006
 20
40806.11043916631
 30
0.0
 40
10.5
 41
0.0
 71
     9
 72
     5
  1

 73
     1
 44
1.0
1001
ACAD
1000
MTEXTBEGIN
1070
    73
1070
     1
1070
    44
1040
1.0
1070
    74
1070
     0
1000
MTEXTEND
  0
MTEXT
  5
563B
330
1A
100
AcDbEntity
  8
SUNPOU
100
AcDbMText
 10
67071.40957962004
 20
58272.68649165838
 30
0.0
 40
10.5
 41
0.0
 71
     9
 72
     5
  1

 73
     1
 44
1.0
1001
ACAD
1000
MTEXTBEGIN
1070
    73
1070
     1
1070
    44
1040
1.0
1070
    74
1070
     0
1000
MTEXTEND
  0
MTEXT
  5
563C
330
1A
100
AcDbEntity
  8
SUNPOU
100
AcDbMText
 10
69014.81682632945
 20
56471.63741178035
 30
0.0
 40
3.5
 41
0.0
 71
     9
 72
     5
  1

 73
     1
 44
1.0
1001
ACAD
1000
MTEXTBEGIN
1070
    73
1070
     1
1070
    44
1040
1.0
1070
    74
1070
     0
1000
MTEXTEND
  0
MTEXT
  5
563D
330
1A
100
AcDbEntity
  8
SUNPOU
100
AcDbMText
 10
100140.9966589491
 20
98966.58307943773
 30
0.0
 40
10.5
 41
0.0
 71
     9
 72
     5
  1

 73
     1
 44
1.0
1001
ACAD
1000
MTEXTBEGIN
1070
    73
1070
     1
1070
    44
1040
1.0
1070
    74
1070
     0
1000
MTEXTEND
  0
MTEXT
  5
563E
330
1A
100
AcDbEntity
  8
SUNPOU
100
AcDbMText
 10
102084.4039056586
 20
97165.53399955968
 30
0.0
 40
3.5
 41
0.0
 71
     9
 72
     5
  1

 73
     1
 44
1.0
1001
ACAD
1000
MTEXTBEGIN
1070
    73
1070
     1
1070
    44
1040
1.0
1070
    74
1070
     0
1000
MTEXTEND
  0
MTEXT
  5
563F
330
1A
100
AcDbEntity
  8
SUNPOU
100
AcDbMText
 10
50581.26436474472
 20
44799.74823441275
 30
0.0
 40
10.5
 41
0.0
 71
     9
 72
     5
  1

 73
     1
 44
1.0
1001
ACAD
1000
MTEXTBEGIN
1070
    73
1070
     1
1070
    44
1040
1.0
1070
    74
1070
     0
1000
MTEXTEND
  0
MTEXT
  5
5640
330
1A
100
AcDbEntity
  8
SUNPOU
100
AcDbMText
 10
36633.26426436873
 20
25627.34909530054
 30
0.0
 40
3.5
 41
0.0
 71
     7
 72
     5
  1

 73
     1
 44
1.0
1001
ACAD
1000
MTEXTBEGIN
1070
    73
1070
     1
1070
    44
1040
1.0
1070
    74
1070
     0
1000
MTEXTEND
  0
MTEXT
  5
5641
330
1A
100
AcDbEntity
  8
SUNPOU
100
AcDbMText
 10
61069.42493315968
 20
52574.61207825771
 30
0.0
 40
10.5
 41
0.0
 71
     9
 72
     5
  1

 73
     1
 44
1.0
1001
ACAD
1000
MTEXTBEGIN
1070
    73
1070
     1
1070
    44
1040
1.0
1070
    74
1070
     0
1000
MTEXTEND
  0
MTEXT
  5
5642
330
1A
100
AcDbEntity
  8
SUNPOU
100
AcDbMText
 10
80023.18365048967
 20
70041.18813074978
 30
0.0
 40
10.5
 41
0.0
 71
     9
 72
     5
  1

 73
     1
 44
1.0
1001
ACAD
1000
MTEXTBEGIN
1070
    73
1070
     1
1070
    44
1040
1.0
1070
    74
1070
     0
1000
MTEXTEND
  0
MTEXT
  5
5643
330
1A
100
AcDbEntity
  8
SUNPOU
100
AcDbMText
 10
81966.59089719908
 20
68240.13905087176
 30
0.0
 40
3.5
 41
0.0
 71
     9
 72
     5
  1

 73
     1
 44
1.0
1001
ACAD
1000
MTEXTBEGIN
1070
    73
1070
     1
1070
    44
1040
1.0
1070
    74
1070
     0
1000
MTEXTEND
  0
MTEXT
  5
5644
330
1A
100
AcDbEntity
  8
SUNPOU
100
AcDbMText
 10
113092.7707298186
 20
110735.0847185291
 30
0.0
 40
10.5
 41
0.0
 71
     9
 72
     5
  1

 73
     1
 44
1.0
1001
ACAD
1000
MTEXTBEGIN
1070
    73
1070
     1
1070
    44
1040
1.0
1070
    74
1070
     0
1000
MTEXTEND
  0
MTEXT
  5
5645
330
1A
100
AcDbEntity
  8
SUNPOU
100
AcDbMText
 10
115036.1779765282
 20
108934.0356386511
 30
0.0
 40
3.5
 41
0.0
 71
     9
 72
     5
  1

 73
     1
 44
1.0
1001
ACAD
1000
MTEXTBEGIN
1070
    73
1070
     1
1070
    44
1040
1.0
1070
    74
1070
     0
1000
MTEXTEND
  0
MTEXT
  5
5646
330
1A
100
AcDbEntity
  8
SUNPOU
100
AcDbMText
 10
63533.03843561432
 20
56568.24987350415
 30
0.0
 40
10.5
 41
0.0
 71
     9
 72
     5
  1

 73
     1
 44
1.0
1001
ACAD
1000
MTEXTBEGIN
1070
    73
1070
     1
1070
    44
1040
1.0
1070
    74
1070
     0
1000
MTEXTEND
  0
MTEXT
  5
5647
330
1A
100
AcDbEntity
  8
SUNPOU
100
AcDbMText
 10
49585.03833523835
 20
37395.85073439196
 30
0.0
 40
3.5
 41
0.0
 71
     7
 72
     5
  1

 73
     1
 44
1.0
1001
ACAD
1000
MTEXTBEGIN
1070
    73
1070
     1
1070
    44
1040
1.0
1070
    74
1070
     0
1000
MTEXTEND
  0
MTEXT
  5
5648
330
1A
100
AcDbEntity
  8
SUNPOU
100
AcDbMText
 10
77137.31641337052
 20
70907.11375048141
 30
0.0
 40
10.5
 41
0.0
 71
     9
 72
     5
  1

 73
     1
 44
1.0
1001
ACAD
1000
MTEXTBEGIN
1070
    73
1070
     1
1070
    44
1040
1.0
1070
    74
1070
     0
1000
MTEXTEND
  0
MTEXT
  5
5649
330
1A
100
AcDbEntity
  8
SUNPOU
100
AcDbMText
 10
79080.72366007995
 20
69106.06467060339
 30
0.0
 40
3.5
 41
0.0
 71
     9
 72
     5
  1

 73
     1
 44
1.0
1001
ACAD
1000
MTEXTBEGIN
1070
    73
1070
     1
1070
    44
1040
1.0
1070
    74
1070
     0
1000
MTEXTEND
  0
MTEXT
  5
564A
330
1A
100
AcDbEntity
  8
SUNPOU
100
AcDbMText
 10
110206.9034926996
 20
111601.0103382607
 30
0.0
 40
10.5
 41
0.0
 71
     9
 72
     5
  1

 73
     1
 44
1.0
1001
ACAD
1000
MTEXTBEGIN
1070
    73
1070
     1
1070
    44
1040
1.0
1070
    74
1070
     0
1000
MTEXTEND
  0
MTEXT
  5
564B
330
1A
100
AcDbEntity
  8
SUNPOU
100
AcDbMText
 10
112150.310739409
 20
109799.9612583826
 30
0.0
 40
3.5
 41
0.0
 71
     9
 72
     5
  1

 73
     1
 44
1.0
1001
ACAD
1000
MTEXTBEGIN
1070
    73
1070
     1
1070
    44
1040
1.0
1070
    74
1070
     0
1000
MTEXTEND
  0
MTEXT
  5
564C
330
1A
100
AcDbEntity
  8
SUNPOU
100
AcDbMText
 10
108819.1333204967
 20
110677.9087286761
 30
0.0
 40
10.5
 41
0.0
 71
     9
 72
     5
  1

 73
     1
 44
1.0
1001
ACAD
1000
MTEXTBEGIN
1070
    73
1070
     1
1070
    44
1040
1.0
1070
    74
1070
     0
1000
MTEXTEND
  0
MTEXT
  5
564D
330
1A
100
AcDbEntity
  8
SUNPOU
100
AcDbMText
 10
110762.5405672062
 20
108876.8596487981
 30
0.0
 40
3.5
 41
0.0
 71
     9
 72
     5
  1

 73
     1
 44
1.0
1001
ACAD
1000
MTEXTBEGIN
1070
    73
1070
     1
1070
    44
1040
1.0
1070
    74
1070
     0
1000
MTEXTEND
  0
MTEXT
  5
564E
330
1A
100
AcDbEntity
  8
SUNPOU
100
AcDbMText
 10
76303.05507956816
 20
68695.31179059812
 30
0.0
 40
10.5
 41
0.0
 71
     9
 72
     5
  1

 73
     1
 44
1.0
1001
ACAD
1000
MTEXTBEGIN
1070
    73
1070
     1
1070
    44
1040
1.0
1070
    74
1070
     0
1000
MTEXTEND
  0
MTEXT
  5
564F
330
1A
100
AcDbEntity
  8
SUNPOU
100
AcDbMText
 10
79026.36128373271
 20
69099.99348217918
 30
0.0
 40
3.5
 41
0.0
 71
     9
 72
     5
  1

 73
     1
 44
1.0
1001
ACAD
1000
MTEXTBEGIN
1070
    73
1070
     1
1070
    44
1040
1.0
1070
    74
1070
     0
1000
MTEXTEND
  0
MTEXT
  5
5650
330
1A
100
AcDbEntity
  8
SUNPOU
100
AcDbMText
 10
78234.00675862522
 20
65938.68764412436
 30
0.0
 40
10.5
 41
0.0
 71
     9
 72
     5
  1

 73
     1
 44
1.0
1001
ACAD
1000
MTEXTBEGIN
1070
    73
1070
     1
1070
    44
1040
1.0
1070
    74
1070
     0
1000
MTEXTEND
  0
MTEXT
  5
5651
330
1A
100
AcDbEntity
  8
SUNPOU
100
AcDbMText
 10
80177.41400533465
 20
64137.63856424636
 30
0.0
 40
3.5
 41
0.0
 71
     9
 72
     5
  1

 73
     1
 44
1.0
1001
ACAD
1000
MTEXTBEGIN
1070
    73
1070
     1
1070
    44
1040
1.0
1070
    74
1070
     0
1000
MTEXTEND
  0
MTEXT
  5
5652
330
1A
100
AcDbEntity
  8
SUNPOU
100
AcDbMText
 10
80122.50949592122
 20
64024.86668196204
 30
0.0
 40
3.5
 41
0.0
 71
     9
 72
     5
  1

 73
     1
 44
1.0
1001
ACAD
1000
MTEXTBEGIN
1070
    73
1070
     1
1070
    44
1040
1.0
1070
    74
1070
     0
1000
MTEXTEND
  0
MTEXT
  5
5653
330
1A
100
AcDbEntity
  8
SUNPOU
100
AcDbMText
 10
79486.58135950133
 20
63213.54544089553
 30
0.0
 40
3.5
 41
0.0
 71
     9
 72
     5
  1

 73
     1
 44
1.0
1001
ACAD
1000
MTEXTBEGIN
1070
    73
1070
     1
1070
    44
1040
1.0
1070
    74
1070
     0
1000
MTEXTEND
  0
MTEXT
  5
5654
330
1A
100
AcDbEntity
  8
SUNPOU
100
AcDbMText
 10
79485.3409400806
 20
63213.29746395804
 30
0.0
 40
10.5
 41
0.0
 71
     9
 72
     5
  1

 73
     1
 44
1.0
1001
ACAD
1000
MTEXTBEGIN
1070
    73
1070
     1
1070
    44
1040
1.0
1070
    74
1070
     0
1000
MTEXTEND
  0
MTEXT
  5
5655
330
1A
100
AcDbEntity
  8
SUNPOU
100
AcDbMText
 10
85473.63363627567
 20
80747.76348077064
 30
0.0
 40
10.5
 41
0.0
 71
     9
 72
     5
  1

 73
     1
 44
1.0
1001
ACAD
1000
MTEXTBEGIN
1070
    73
1070
     1
1070
    44
1040
1.0
1070
    74
1070
     0
1000
MTEXTEND
  0
MTEXT
  5
5656
330
1A
100
AcDbEntity
  8
SUNPOU
100
AcDbMText
 10
94195.80120219368
 20
88163.59801230808
 30
0.0
 40
10.5
 41
0.0
 71
     9
 72
     5
  1

 73
     1
 44
1.0
1001
ACAD
1000
MTEXTBEGIN
1070
    73
1070
     1
1070
    44
1040
1.0
1070
    74
1070
     0
1000
MTEXTEND
  0
MTEXT
  5
5657
330
1A
100
AcDbEntity
  8
SUNPOU
100
AcDbMText
 10
113149.5599195236
 20
105630.1740648001
 30
0.0
 40
10.5
 41
0.0
 71
     9
 72
     5
  1

 73
     1
 44
1.0
1001
ACAD
1000
MTEXTBEGIN
1070
    73
1070
     1
1070
    44
1040
1.0
1070
    74
1070
     0
1000
MTEXTEND
  0
MTEXT
  5
5658
330
1A
100
AcDbEntity
  8
SUNPOU
100
AcDbMText
 10
115092.967166233
 20
103829.1249849221
 30
0.0
 40
3.5
 41
0.0
 71
     9
 72
     5
  1

 73
     1
 44
1.0
1001
ACAD
1000
MTEXTBEGIN
1070
    73
1070
     1
1070
    44
1040
1.0
1070
    74
1070
     0
1000
MTEXTEND
  0
MTEXT
  5
5659
330
1A
100
AcDbEntity
  8
SUNPOU
100
AcDbMText
 10
146219.1469988527
 20
146324.0706525794
 30
0.0
 40
10.5
 41
0.0
 71
     9
 72
     5
  1

 73
     1
 44
1.0
1001
ACAD
1000
MTEXTBEGIN
1070
    73
1070
     1
1070
    44
1040
1.0
1070
    74
1070
     0
1000
MTEXTEND
  0
MTEXT
  5
565A
330
1A
100
AcDbEntity
  8
SUNPOU
100
AcDbMText
 10
148162.5542455621
 20
144523.0215727014
 30
0.0
 40
3.5
 41
0.0
 71
     9
 72
     5
  1

 73
     1
 44
1.0
1001
ACAD
1000
MTEXTBEGIN
1070
    73
1070
     1
1070
    44
1040
1.0
1070
    74
1070
     0
1000
MTEXTEND
  0
MTEXT
  5
565B
330
1A
100
AcDbEntity
  8
SUNPOU
100
AcDbMText
 10
96659.41470464833
 20
92157.23580755453
 30
0.0
 40
10.5
 41
0.0
 71
     9
 72
     5
  1

 73
     1
 44
1.0
1001
ACAD
1000
MTEXTBEGIN
1070
    73
1070
     1
1070
    44
1040
1.0
1070
    74
1070
     0
1000
MTEXTEND
  0
MTEXT
  5
565C
330
1A
100
AcDbEntity
  8
SUNPOU
100
AcDbMText
 10
82711.41460427234
 20
72984.83666844234
 30
0.0
 40
3.5
 41
0.0
 71
     7
 72
     5
  1

 73
     1
 44
1.0
1001
ACAD
1000
MTEXTBEGIN
1070
    73
1070
     1
1070
    44
1040
1.0
1070
    74
1070
     0
1000
MTEXTEND
  0
MTEXT
  5
565D
330
1A
100
AcDbEntity
  8
SUNPOU
100
AcDbMText
 10
63696.58400126548
 20
60746.98539926055
 30
0.0
 40
10.5
 41
0.0
 71
     7
 72
     5
  1

 73
     1
 44
1.0
1001
ACAD
1000
MTEXTBEGIN
1070
    73
1070
     1
1070
    44
1040
1.0
1070
    74
1070
     0
1000
MTEXTEND
  0
MTEXT
  5
565E
330
1A
100
AcDbEntity
  8
SUNPOU
100
AcDbMText
 10
51239.35573631738
 20
44902.05382116213
 30
0.0
 40
35.0
 41
0.0
 71
     9
 72
     5
  1

 73
     1
 44
1.0
1001
ACAD
1000
MTEXTBEGIN
1070
    73
1070
     1
1070
    44
1040
1.0
1070
    74
1070
     0
1000
MTEXTEND
  0
MTEXT
  5
565F
330
1A
100
AcDbEntity
  8
SUNPOU
100
AcDbMText
 10
50147.84079389233
 20
45510.82923121084
 30
0.0
 40
350.0000004171781
 41
0.0
 71
     7
 72
     5
  1

 73
     1
 44
1.0
1001
ACAD
1000
MTEXTBEGIN
1070
    73
1070
     1
1070
    44
1040
1.0
1070
    74
1070
     0
1000
MTEXTEND
  0
MTEXT
  5
5660
330
1A
100
AcDbEntity
  8
0
100
AcDbMText
 10
56191.79155183523
 20
43490.75159334705
 30
0.0
 40
8.0
 41
0.0
 71
     7
 72
     5
  1

 73
     1
 44
1.0
1001
ACAD
1000
MTEXTBEGIN
1070
    73
1070
     1
1070
    44
1040
1.0
1070
    74
1070
     0
1000
MTEXTEND
  0
MTEXT
  5
5661
330
1A
100
AcDbEntity
  8
0
100
AcDbMText
 10
58477.14924173012
 20
44461.54188809812
 30
0.0
 40
8.0
 41
0.0
 71
     7
 72
     5
  1

 73
     1
 44
1.0
1001
ACAD
1000
MTEXTBEGIN
1070
    73
1070
     1
1070
    44
1040
1.0
1070
    74
1070
     0
1000
MTEXTEND
  0
MTEXT
  5
5662
330
1A
100
AcDbEntity
  8
SUNPOU
100
AcDbMText
 10
61143.04626241227
 20
53973.65328047324
 30
0.0
 40
10.5
 41
0.0
 71
     1
 72
     5
  1

 73
     1
 44
1.0
1001
ACAD
1000
MTEXTBEGIN
1070
    73
1070
     1
1070
    44
1040
1.0
1070
    74
1070
     0
1000
MTEXTEND
  0
MTEXT
  5
5663
330
1A
100
AcDbEntity
  8
SUNPOU
100
AcDbMText
 10
53212.12306647633
 20
53026.86014656028
 30
0.0
 40
10.5
 41
0.0
 71
     7
 72
     5
  1

 73
     1
 44
1.0
1001
ACAD
1000
MTEXTBEGIN
1070
    73
1070
     1
1070
    44
1040
1.0
1070
    74
1070
     0
1000
MTEXTEND
  0
MTEXT
  5
5664
330
1A
100
AcDbEntity
  8
SUNPOU
100
AcDbMText
 10
56161.10673098909
 20
57927.53621840312
 30
0.0
 40
10.5
 41
0.0
 71
     7
 72
     5
  1

 73
     1
 44
1.0
1001
ACAD
1000
MTEXTBEGIN
1070
    73
1070
     1
1070
    44
1040
1.0
1070
    74
1070
     0
1000
MTEXTEND
  0
MTEXT
  5
5665
330
1A
100
AcDbEntity
  8
SUNPOU
100
AcDbMText
 10
60670.18485893966
 20
60363.8369660232
 30
0.0
 40
10.5
 41
0.0
 71
     7
 72
     5
  1

 73
     1
 44
1.0
1001
ACAD
1000
MTEXTBEGIN
1070
    73
1070
     1
1070
    44
1040
1.0
1070
    74
1070
     0
1000
MTEXTEND
  0
MTEXT
  5
5666
330
1A
100
AcDbEntity
  8
SUNPOU
100
AcDbMText
 10
44271.02274570799
 20
39361.43311641211
 30
0.0
 40
10.5
 41
0.0
 71
     7
 72
     5
  1

 73
     1
 44
1.0
1001
ACAD
1000
MTEXTBEGIN
1070
    73
1070
     1
1070
    44
1040
1.0
1070
    74
1070
     0
1000
MTEXTEND
  0
MTEXT
  5
5667
330
1A
100
AcDbEntity
  8
SUNPOU
100
AcDbMText
 10
95462.54117960824
 20
85034.41368006038
 30
0.0
 40
10.5
 41
0.0
 71
     9
 72
     5
  1

 73
     1
 44
1.0
1001
ACAD
1000
MTEXTBEGIN
1070
    73
1070
     1
1070
    44
1040
1.0
1070
    74
1070
     0
1000
MTEXTEND
  0
MTEXT
  5
5668
330
1A
100
AcDbEntity
  8
SUNPOU
100
AcDbMText
 10
104184.7087455262
 20
92450.24821159784
 30
0.0
 40
10.5
 41
0.0
 71
     9
 72
     5
  1

 73
     1
 44
1.0
1001
ACAD
1000
MTEXTBEGIN
1070
    73
1070
     1
1070
    44
1040
1.0
1070
    74
1070
     0
1000
MTEXTEND
  0
MTEXT
  5
5669
330
1A
100
AcDbEntity
  8
SUNPOU
100
AcDbMText
 10
123138.4674628562
 20
109916.8242640898
 30
0.0
 40
10.5
 41
0.0
 71
     9
 72
     5
  1

 73
     1
 44
1.0
1001
ACAD
1000
MTEXTBEGIN
1070
    73
1070
     1
1070
    44
1040
1.0
1070
    74
1070
     0
1000
MTEXTEND
  0
MTEXT
  5
566A
330
1A
100
AcDbEntity
  8
SUNPOU
100
AcDbMText
 10
125081.8747095656
 20
108115.7751842118
 30
0.0
 40
3.5
 41
0.0
 71
     9
 72
     5
  1

 73
     1
 44
1.0
1001
ACAD
1000
MTEXTBEGIN
1070
    73
1070
     1
1070
    44
1040
1.0
1070
    74
1070
     0
1000
MTEXTEND
  0
MTEXT
  5
566B
330
1A
100
AcDbEntity
  8
SUNPOU
100
AcDbMText
 10
156208.0545421853
 20
150610.7208518691
 30
0.0
 40
10.5
 41
0.0
 71
     9
 72
     5
  1

 73
     1
 44
1.0
1001
ACAD
1000
MTEXTBEGIN
1070
    73
1070
     1
1070
    44
1040
1.0
1070
    74
1070
     0
1000
MTEXTEND
  0
MTEXT
  5
566C
330
1A
100
AcDbEntity
  8
SUNPOU
100
AcDbMText
 10
158151.4617888947
 20
148809.6717719911
 30
0.0
 40
3.5
 41
0.0
 71
     9
 72
     5
  1

 73
     1
 44
1.0
1001
ACAD
1000
MTEXTBEGIN
1070
    73
1070
     1
1070
    44
1040
1.0
1070
    74
1070
     0
1000
MTEXTEND
  0
MTEXT
  5
566D
330
1A
100
AcDbEntity
  8
SUNPOU
100
AcDbMText
 10
106648.3222479809
 20
96443.88600684427
 30
0.0
 40
10.5
 41
0.0
 71
     9
 72
     5
  1

 73
     1
 44
1.0
1001
ACAD
1000
MTEXTBEGIN
1070
    73
1070
     1
1070
    44
1040
1.0
1070
    74
1070
     0
1000
MTEXTEND
  0
MTEXT
  5
566E
330
1A
100
AcDbEntity
  8
SUNPOU
100
AcDbMText
 10
92700.3221476049
 20
77271.48686773207
 30
0.0
 40
3.5
 41
0.0
 71
     7
 72
     5
  1

 73
     1
 44
1.0
1001
ACAD
1000
MTEXTBEGIN
1070
    73
1070
     1
1070
    44
1040
1.0
1070
    74
1070
     0
1000
MTEXTEND
  0
MTEXT
  5
566F
330
1A
100
AcDbEntity
  8
SUNPOU
100
AcDbMText
 10
73685.49154459807
 20
65033.63559855027
 30
0.0
 40
10.5
 41
0.0
 71
     7
 72
     5
  1

 73
     1
 44
1.0
1001
ACAD
1000
MTEXTBEGIN
1070
    73
1070
     1
1070
    44
1040
1.0
1070
    74
1070
     0
1000
MTEXTEND
  0
MTEXT
  5
5670
330
1A
100
AcDbEntity
  8
SUNPOU
100
AcDbMText
 10
61228.26327964995
 20
49188.70402045184
 30
0.0
 40
35.0
 41
0.0
 71
     9
 72
     5
  1

 73
     1
 44
1.0
1001
ACAD
1000
MTEXTBEGIN
1070
    73
1070
     1
1070
    44
1040
1.0
1070
    74
1070
     0
1000
MTEXTEND
  0
MTEXT
  5
5671
330
1A
100
AcDbEntity
  8
SUNPOU
100
AcDbMText
 10
60136.74833722491
 20
49797.47943050056
 30
0.0
 40
350.0000004171781
 41
0.0
 71
     7
 72
     5
  1

 73
     1
 44
1.0
1001
ACAD
1000
MTEXTBEGIN
1070
    73
1070
     1
1070
    44
1040
1.0
1070
    74
1070
     0
1000
MTEXTEND
  0
MTEXT
  5
5672
330
1A
100
AcDbEntity
  8
0
100
AcDbMText
 10
66180.69909516782
 20
47777.40179263677
 30
0.0
 40
8.0
 41
0.0
 71
     7
 72
     5
  1

 73
     1
 44
1.0
1001
ACAD
1000
MTEXTBEGIN
1070
    73
1070
     1
1070
    44
1040
1.0
1070
    74
1070
     0
1000
MTEXTEND
  0
MTEXT
  5
5673
330
1A
100
AcDbEntity
  8
0
100
AcDbMText
 10
68466.05678506271
 20
48748.19208738784
 30
0.0
 40
8.0
 41
0.0
 71
     7
 72
     5
  1

 73
     1
 44
1.0
1001
ACAD
1000
MTEXTBEGIN
1070
    73
1070
     1
1070
    44
1040
1.0
1070
    74
1070
     0
1000
MTEXTEND
  0
MTEXT
  5
5674
330
1A
100
AcDbEntity
  8
SUNPOU
100
AcDbMText
 10
71131.95380574485
 20
58260.30347976296
 30
0.0
 40
10.5
 41
0.0
 71
     1
 72
     5
  1

 73
     1
 44
1.0
1001
ACAD
1000
MTEXTBEGIN
1070
    73
1070
     1
1070
    44
1040
1.0
1070
    74
1070
     0
1000
MTEXTEND
  0
MTEXT
  5
5675
330
1A
100
AcDbEntity
  8
SUNPOU
100
AcDbMText
 10
63201.03060980891
 20
57313.51034585003
 30
0.0
 40
10.5
 41
0.0
 71
     7
 72
     5
  1

 73
     1
 44
1.0
1001
ACAD
1000
MTEXTBEGIN
1070
    73
1070
     1
1070
    44
1040
1.0
1070
    74
1070
     0
1000
MTEXTEND
  0
MTEXT
  5
5676
330
1A
100
AcDbEntity
  8
SUNPOU
100
AcDbMText
 10
66150.01427432169
 20
62214.18641769286
 30
0.0
 40
10.5
 41
0.0
 71
     7
 72
     5
  1

 73
     1
 44
1.0
1001
ACAD
1000
MTEXTBEGIN
1070
    73
1070
     1
1070
    44
1040
1.0
1070
    74
1070
     0
1000
MTEXTEND
  0
MTEXT
  5
5677
330
1A
100
AcDbEntity
  8
SUNPOU
100
AcDbMText
 10
70659.09240227225
 20
64650.48716531294
 30
0.0
 40
10.5
 41
0.0
 71
     7
 72
     5
  1

 73
     1
 44
1.0
1001
ACAD
1000
MTEXTBEGIN
1070
    73
1070
     1
1070
    44
1040
1.0
1070
    74
1070
     0
1000
MTEXTEND
  0
MTEXT
  5
5678
330
1A
100
AcDbEntity
  8
SUNPOU
100
AcDbMText
 10
54259.93028904056
 20
43648.08331570185
 30
0.0
 40
10.5
 41
0.0
 71
     7
 72
     5
  1

 73
     1
 44
1.0
1001
ACAD
1000
MTEXTBEGIN
1070
    73
1070
     1
1070
    44
1040
1.0
1070
    74
1070
     0
1000
MTEXTEND
  0
MTEXT
  5
5679
330
1A
100
AcDbEntity
  8
SUNPOU
100
AcDbMText
 10
56070.69320041551
 20
49975.4973031804
 30
0.0
 40
10.5
 41
0.0
 71
     9
 72
     5
  1

 73
     1
 44
1.0
1001
ACAD
1000
MTEXTBEGIN
1070
    73
1070
     1
1070
    44
1040
1.0
1070
    74
1070
     0
1000
MTEXTEND
  0
MTEXT
  5
567A
330
1A
100
AcDbEntity
  8
SUNPOU
100
AcDbMText
 10
64792.86076633347
 20
57391.33183471787
 30
0.0
 40
10.5
 41
0.0
 71
     9
 72
     5
  1

 73
     1
 44
1.0
1001
ACAD
1000
MTEXTBEGIN
1070
    73
1070
     1
1070
    44
1040
1.0
1070
    74
1070
     0
1000
MTEXTEND
  0
MTEXT
  5
567B
330
1A
100
AcDbEntity
  8
SUNPOU
100
AcDbMText
 10
83746.61948366345
 20
74857.90788720994
 30
0.0
 40
10.5
 41
0.0
 71
     9
 72
     5
  1

 73
     1
 44
1.0
1001
ACAD
1000
MTEXTBEGIN
1070
    73
1070
     1
1070
    44
1040
1.0
1070
    74
1070
     0
1000
MTEXTEND
  0
MTEXT
  5
567C
330
1A
100
AcDbEntity
  8
SUNPOU
100
AcDbMText
 10
85690.02673037287
 20
73056.85880733192
 30
0.0
 40
3.5
 41
0.0
 71
     9
 72
     5
  1

 73
     1
 44
1.0
1001
ACAD
1000
MTEXTBEGIN
1070
    73
1070
     1
1070
    44
1040
1.0
1070
    74
1070
     0
1000
MTEXTEND
  0
MTEXT
  5
567D
330
1A
100
AcDbEntity
  8
SUNPOU
100
AcDbMText
 10
116816.2065629925
 20
115551.8044749892
 30
0.0
 40
10.5
 41
0.0
 71
     9
 72
     5
  1

 73
     1
 44
1.0
1001
ACAD
1000
MTEXTBEGIN
1070
    73
1070
     1
1070
    44
1040
1.0
1070
    74
1070
     0
1000
MTEXTEND
  0
MTEXT
  5
567E
330
1A
100
AcDbEntity
  8
SUNPOU
100
AcDbMText
 10
118759.6138097019
 20
113750.7553951111
 30
0.0
 40
3.5
 41
0.0
 71
     9
 72
     5
  1

 73
     1
 44
1.0
1001
ACAD
1000
MTEXTBEGIN
1070
    73
1070
     1
1070
    44
1040
1.0
1070
    74
1070
     0
1000
MTEXTEND
  0
MTEXT
  5
567F
330
1A
100
AcDbEntity
  8
SUNPOU
100
AcDbMText
 10
67256.47426878814
 20
61384.96962996432
 30
0.0
 40
10.5
 41
0.0
 71
     9
 72
     5
  1

 73
     1
 44
1.0
1001
ACAD
1000
MTEXTBEGIN
1070
    73
1070
     1
1070
    44
1040
1.0
1070
    74
1070
     0
1000
MTEXTEND
  0
MTEXT
  5
5680
330
1A
100
AcDbEntity
  8
SUNPOU
100
AcDbMText
 10
53308.47416841216
 20
42212.57049085211
 30
0.0
 40
3.5
 41
0.0
 71
     7
 72
     5
  1

 73
     1
 44
1.0
1001
ACAD
1000
MTEXTBEGIN
1070
    73
1070
     1
1070
    44
1040
1.0
1070
    74
1070
     0
1000
MTEXTEND
  0
MTEXT
  5
5681
330
1A
100
AcDbEntity
  8
SUNPOU
100
AcDbMText
 10
67000.82485118274
 20
51571.63371187344
 30
0.0
 40
10.5
 41
0.0
 71
     9
 72
     5
  1

 73
     1
 44
1.0
1001
ACAD
1000
MTEXTBEGIN
1070
    73
1070
     1
1070
    44
1040
1.0
1070
    74
1070
     0
1000
MTEXTEND
  0
MTEXT
  5
5682
330
1A
100
AcDbEntity
  8
SUNPOU
100
AcDbMText
 10
75722.99241710071
 20
58987.46824341094
 30
0.0
 40
10.5
 41
0.0
 71
     9
 72
     5
  1

 73
     1
 44
1.0
1001
ACAD
1000
MTEXTBEGIN
1070
    73
1070
     1
1070
    44
1040
1.0
1070
    74
1070
     0
1000
MTEXTEND
  0
MTEXT
  5
5683
330
1A
100
AcDbEntity
  8
SUNPOU
100
AcDbMText
 10
94676.75113443068
 20
76454.04429590299
 30
0.0
 40
10.5
 41
0.0
 71
     9
 72
     5
  1

 73
     1
 44
1.0
1001
ACAD
1000
MTEXTBEGIN
1070
    73
1070
     1
1070
    44
1040
1.0
1070
    74
1070
     0
1000
MTEXTEND
  0
MTEXT
  5
5684
330
1A
100
AcDbEntity
  8
SUNPOU
100
AcDbMText
 10
96620.1583811401
 20
74652.99521602497
 30
0.0
 40
3.5
 41
0.0
 71
     9
 72
     5
  1

 73
     1
 44
1.0
1001
ACAD
1000
MTEXTBEGIN
1070
    73
1070
     1
1070
    44
1040
1.0
1070
    74
1070
     0
1000
MTEXTEND
  0
MTEXT
  5
5685
330
1A
100
AcDbEntity
  8
SUNPOU
100
AcDbMText
 10
127746.3382137598
 20
117147.9408836822
 30
0.0
 40
10.5
 41
0.0
 71
     9
 72
     5
  1

 73
     1
 44
1.0
1001
ACAD
1000
MTEXTBEGIN
1070
    73
1070
     1
1070
    44
1040
1.0
1070
    74
1070
     0
1000
MTEXTEND
  0
MTEXT
  5
5686
330
1A
100
AcDbEntity
  8
SUNPOU
100
AcDbMText
 10
129689.7454604692
 20
115346.8918038042
 30
0.0
 40
3.5
 41
0.0
 71
     9
 72
     5
  1

 73
     1
 44
1.0
1001
ACAD
1000
MTEXTBEGIN
1070
    73
1070
     1
1070
    44
1040
1.0
1070
    74
1070
     0
1000
MTEXTEND
  0
MTEXT
  5
5687
330
1A
100
AcDbEntity
  8
SUNPOU
100
AcDbMText
 10
78186.60591955537
 20
62981.10603865737
 30
0.0
 40
10.5
 41
0.0
 71
     9
 72
     5
  1

 73
     1
 44
1.0
1001
ACAD
1000
MTEXTBEGIN
1070
    73
1070
     1
1070
    44
1040
1.0
1070
    74
1070
     0
1000
MTEXTEND
  0
MTEXT
  5
5688
330
1A
100
AcDbEntity
  8
SUNPOU
100
AcDbMText
 10
64238.60581917939
 20
43808.70689954517
 30
0.0
 40
3.5
 41
0.0
 71
     7
 72
     5
  1

 73
     1
 44
1.0
1001
ACAD
1000
MTEXTBEGIN
1070
    73
1070
     1
1070
    44
1040
1.0
1070
    74
1070
     0
1000
MTEXTEND
  0
MTEXT
  5
5689
330
1A
100
AcDbEntity
  8
SUNPOU
100
AcDbMText
 10
33428.13481137435
 20
32770.04710035563
 30
0.0
 40
10.5
 41
0.0
 71
     9
 72
     5
  1

 73
     1
 44
1.0
1001
ACAD
1000
MTEXTBEGIN
1070
    73
1070
     1
1070
    44
1040
1.0
1070
    74
1070
     0
1000
MTEXTEND
  0
MTEXT
  5
568A
330
1A
100
AcDbEntity
  8
SUNPOU
100
AcDbMText
 10
52381.89352870431
 20
50236.62315284768
 30
0.0
 40
10.5
 41
0.0
 71
     9
 72
     5
  1

 73
     1
 44
1.0
1001
ACAD
1000
MTEXTBEGIN
1070
    73
1070
     1
1070
    44
1040
1.0
1070
    74
1070
     0
1000
MTEXTEND
  0
MTEXT
  5
568B
330
1A
100
AcDbEntity
  8
SUNPOU
100
AcDbMText
 10
54325.30077541374
 20
48435.57407296968
 30
0.0
 40
3.5
 41
0.0
 71
     9
 72
     5
  1

 73
     1
 44
1.0
1001
ACAD
1000
MTEXTBEGIN
1070
    73
1070
     1
1070
    44
1040
1.0
1070
    74
1070
     0
1000
MTEXTEND
  0
MTEXT
  5
568C
330
1A
100
AcDbEntity
  8
SUNPOU
100
AcDbMText
 10
85451.48060803342
 20
90930.51974062703
 30
0.0
 40
10.5
 41
0.0
 71
     9
 72
     5
  1

 73
     1
 44
1.0
1001
ACAD
1000
MTEXTBEGIN
1070
    73
1070
     1
1070
    44
1040
1.0
1070
    74
1070
     0
1000
MTEXTEND
  0
MTEXT
  5
568D
330
1A
100
AcDbEntity
  8
SUNPOU
100
AcDbMText
 10
87394.88785474286
 20
89129.47066074901
 30
0.0
 40
3.5
 41
0.0
 71
     9
 72
     5
  1

 73
     1
 44
1.0
1001
ACAD
1000
MTEXTBEGIN
1070
    73
1070
     1
1070
    44
1040
1.0
1070
    74
1070
     0
1000
MTEXTEND
  0
MTEXT
  5
568E
330
1A
100
AcDbEntity
  8
SUNPOU
100
AcDbMText
 10
35891.74831382901
 20
36763.68489560208
 30
0.0
 40
10.5
 41
0.0
 71
     9
 72
     5
  1

 73
     1
 44
1.0
1001
ACAD
1000
MTEXTBEGIN
1070
    73
1070
     1
1070
    44
1040
1.0
1070
    74
1070
     0
1000
MTEXTEND
  0
MTEXT
  5
568F
330
1A
100
AcDbEntity
  8
SUNPOU
100
AcDbMText
 10
21943.74821345303
 20
17591.28575648985
 30
0.0
 40
3.5
 41
0.0
 71
     7
 72
     5
  1

 73
     1
 44
1.0
1001
ACAD
1000
MTEXTBEGIN
1070
    73
1070
     1
1070
    44
1040
1.0
1070
    74
1070
     0
1000
MTEXTEND
  0
LINE
  5
13A70
330
1A
100
AcDbEntity
  8
ZISSEN1
 48
0.5
100
AcDbLine
 10
-1651.813174870865
 20
2152.687846718194
 30
0.0
 11
-1674.813174870865
 21
2152.687846718194
 31
0.0
  0
LINE
  5
13A71
330
1A
100
AcDbEntity
  8
ZISSEN1
 48
0.5
100
AcDbLine
 10
-1674.813174870865
 20
2149.687846718193
 30
0.0
 11
-1651.813174870865
 21
2149.687846718193
 31
0.0
  0
LINE
  5
13A73
330
1A
100
AcDbEntity
  8
ZISSEN1
 48
0.5
100
AcDbLine
 10
-1651.813174870865
 20
2106.187846718195
 30
0.0
 11
-1653.313174870864
 21
2106.187846718194
 31
0.0
  0
LINE
  5
13A74
330
1A
100
AcDbEntity
  8
ZISSEN1
 48
0.5
100
AcDbLine
 10
-1650.313174870865
 20
2152.687846718194
 30
0.0
 11
-1661.313174870865
 21
2152.687846718194
 31
0.0
  0
LINE
  5
13A75
330
1A
100
AcDbEntity
  8
ZISSEN1
 48
0.5
100
AcDbLine
 10
-1663.313174870864
 20
2154.187846718194
 30
0.0
 11
-1651.813174870865
 21
2154.187846718194
 31
0.0
  0
LINE
  5
13A76
330
1A
100
AcDbEntity
  8
ZISSEN1
 48
0.5
100
AcDbLine
 10
-1757.313174870865
 20
2104.687846718193
 30
0.0
 11
-1651.813174870865
 21
2104.687846718193
 31
0.0
  0
DIMENSION
  5
13A79
330
1A
100
AcDbEntity
  8
SUNPOU
 48
0.5
100
AcDbDimension
  2
*D0
 10
-1625.813174870865
 20
2157.187846718195
 30
0.0
 11
-1628.563174870865
 21
2129.437846718194
 31
0.0
 70
    32
  1
(<>)
 71
     5
 42
-1.0
  3
標準スタイル
100
AcDbAlignedDimension
 13
-1743.313174870865
 23
2101.687846718194
 33
0.0
 14
-1656.813174870864
 24
2157.187846718195
 34
0.0
 50
270.0
100
AcDbRotatedDimension
1001
ACAD
1000
DSTYLE
1002
{
1070
   340
1005
10
1070
    40
1040
1.0
1002
}
  0
DIMENSION
  5
13A7A
330
1A
100
AcDbEntity
  8
SUNPOU
 48
0.5
100
AcDbDimension
  2
*D1
 10
-1620.740567415209
 20
2071.695975297861
 30
0.0
 11
-1623.490567415211
 21
2076.69597529786
 31
0.0
 70
    32
 71
     5
 42
-1.0
  3
標準スタイル
100
AcDbAlignedDimension
 13
-1752.24056741521
 23
2081.695975297861
 33
0.0
 14
-1650.313174870865
 24
2071.695975297861
 34
0.0
 50
270.0
100
AcDbRotatedDimension
1001
ACAD
1000
DSTYLE
1002
{
1070
   340
1005
10
1070
    40
1040
1.0
1002
}
  0
DIMENSION
  5
13A7B
330
1A
100
AcDbEntity
  8
SUNPOU
 48
0.5
100
AcDbDimension
  2
*D2
 10
-1620.740567415209
 20
1961.69597529786
 30
0.0
 11
-1623.490567415211
 21
1956.69597529786
 31
0.0
 70
    32
 71
     5
 42
-1.0
  3
標準スタイル
100
AcDbAlignedDimension
 13
-1752.24056741521
 23
1951.695975297861
 33
0.0
 14
-1650.313174870865
 24
1961.69597529786
 34
0.0
 50
270.0
100
AcDbRotatedDimension
1001
ACAD
1000
DSTYLE
1002
{
1070
   340
1005
10
1070
    40
1040
1.0
1002
}
  0
DIMENSION
  5
13A7C
330
1A
100
AcDbEntity
  8
SUNPOU
 48
0.5
100
AcDbDimension
  2
*D3
 10
-1610.542599819861
 20
2081.695975297861
 30
0.0
 11
-1610.542599819861
 21
2016.69597529786
 31
0.0
 70
   160
 71
     5
 42
-1.0
  3
標準スタイル
100
AcDbAlignedDimension
 13
-1757.313174870865
 23
1951.695975297861
 33
0.0
 14
-1757.313174870865
 24
2081.695975297861
 34
0.0
 50
270.0
100
AcDbRotatedDimension
1001
ACAD
1000
DSTYLE
1002
{
1070
   340
1005
10
1070
    40
1040
1.0
1002
}
  0
DIMENSION
  5
13A7D
330
1A
100
AcDbEntity
  8
SUNPOU
 48
0.5
100
AcDbDimension
  2
*D4
 10
-1760.313174870864
 20
1931.695975297861
 30
0.0
 11
-1698.063174870864
 21
1934.445975297861
 31
0.0
 70
    32
  1
(<>)
 71
     5
 42
-1.0
  3
標準スタイル
100
AcDbAlignedDimension
 13
-1635.813174870865
 23
1970.65597529786
 33
0.0
 14
-1760.313174870864
 24
1951.695975297861
 34
0.0
100
AcDbRotatedDimension
1001
ACAD
1000
DSTYLE
1002
{
1070
   340
1005
10
1070
    40
1040
1.0
1002
}
  0
DIMENSION
  5
13A7E
330
1A
100
AcDbEntity
  8
SUNPOU
 48
0.5
100
AcDbDimension
  2
*D5
 10
-1650.313174870865
 20
1941.695975297861
 30
0.0
 11
-1705.313174870865
 21
1944.445975297861
 31
0.0
 70
    32
 71
     5
 42
-1.0
  3
標準スタイル
100
AcDbAlignedDimension
 13
-1760.313174870864
 23
1951.695975297861
 33
0.0
 14
-1650.313174870865
 24
1961.69597529786
 34
0.0
100
AcDbRotatedDimension
1001
ACAD
1000
DSTYLE
1002
{
1070
   340
1005
10
1070
    40
1040
1.0
1002
}
  0
LINE
  5
13A85
330
1A
100
AcDbEntity
  8
ZISSEN1
 48
0.5
100
AcDbLine
 10
-1757.313174870865
 20
1961.69597529786
 30
0.0
 11
-1757.313174870865
 21
2069.69597529786
 31
0.0
  0
LINE
  5
13A86
330
1A
100
AcDbEntity
  8
ZISSEN1
 48
0.5
100
AcDbLine
 10
-1760.313174870864
 20
2081.695975297861
 30
0.0
 11
-1760.313174870864
 21
1951.695975297861
 31
0.0
  0
LINE
  5
13A8F
330
1A
100
AcDbEntity
  8
ZISSEN1
 48
0.5
100
AcDbLine
 10
-1674.813174870865
 20
2154.687846718194
 30
0.0
 11
-1730.813174870865
 21
2154.687846718194
 31
0.0
  0
LINE
  5
13A9E
330
1A
100
AcDbEntity
  8
ZISSEN1
 48
0.5
100
AcDbLine
 10
-1757.313174870865
 20
2109.187846718194
 30
0.0
 11
-1757.313174870865
 21
2149.687846718193
 31
0.0
  0
LINE
  5
13A9F
330
1A
100
AcDbEntity
  8
ZISSEN1
 48
0.5
100
AcDbLine
 10
-1760.313174870864
 20
2149.687846718193
 30
0.0
 11
-1760.313174870864
 21
2109.187846718194
 31
0.0
  0
LINE
  5
13AA0
330
1A
100
AcDbEntity
  8
ZISSEN1
 48
0.5
100
AcDbLine
 10
-1757.313174870865
 20
2126.687846718194
 30
0.0
 11
-1757.313174870865
 21
2104.687846718193
 31
0.0
  0
LINE
  5
13AA1
330
1A
100
AcDbEntity
  8
ZISSEN1
 48
0.5
100
AcDbLine
 10
-1757.313174870865
 20
2132.687846718194
 30
0.0
 11
-1757.313174870865
 21
2148.187846718194
 31
0.0
  0
LINE
  5
13AA2
330
1A
100
AcDbEntity
  8
ZISSEN1
 48
0.5
100
AcDbLine
 10
-1730.813174870865
 20
2152.687846718194
 30
0.0
 11
-1757.313174870865
 21
2152.687846718195
 31
0.0
  0
LINE
  5
13AA3
330
1A
100
AcDbEntity
  8
ZISSEN1
 48
0.5
100
AcDbLine
 10
-1757.313174870865
 20
2149.687846718193
 30
0.0
 11
-1730.813174870865
 21
2149.687846718193
 31
0.0
  0
LINE
  5
13AA4
330
1A
100
AcDbEntity
  8
ZISSEN1
 48
0.5
100
AcDbLine
 10
-1731.313174870865
 20
2152.687846718194
 30
0.0
 11
-1731.313174870865
 21
2149.687846718193
 31
0.0
  0
ARC
  5
13AA6
330
1A
100
AcDbEntity
  8
ZISSEN1
 48
0.5
100
AcDbCircle
 10
-1757.313174870865
 20
2149.687846718193
 30
0.0
 40
3.000000000000055
100
AcDbArc
 50
89.99999999999998
 51
180.0
  0
LINE
  5
13AA8
330
1A
100
AcDbEntity
  8
ZISSEN1
 48
0.5
100
AcDbLine
 10
-1756.313174870864
 20
2149.187846718194
 30
0.0
 11
-1757.313174870865
 21
2148.187846718194
 31
0.0
  0
LINE
  5
13AA9
330
1A
100
AcDbEntity
  8
ZISSEN1
 48
0.5
100
AcDbLine
 10
-1730.813174870865
 20
2149.187846718194
 30
0.0
 11
-1756.313174870864
 21
2149.187846718194
 31
0.0
  0
LINE
  5
13AAA
330
1A
100
AcDbEntity
  8
ZISSEN1
 48
0.5
100
AcDbLine
 10
-1730.813174870865
 20
2154.687846718194
 30
0.0
 11
-1730.813174870865
 21
2149.187846718194
 31
0.0
  0
LINE
  5
13AAC
330
1A
100
AcDbEntity
  8
ZISSEN1
 48
0.5
100
AcDbLine
 10
-1760.313174870864
 20
2121.937846718194
 30
0.0
 11
-1757.313174870865
 21
2121.937846718194
 31
0.0
  0
LINE
  5
13AB1
330
1A
100
AcDbEntity
  8
ZISSEN1
 48
0.5
100
AcDbLine
 10
-1748.463174870864
 20
2104.687846718193
 30
0.0
 11
-1742.163174870865
 21
2104.687846718193
 31
0.0
  0
ARC
  5
13AB2
330
1A
100
AcDbEntity
  8
ZISSEN1
 48
0.5
100
AcDbCircle
 10
-1745.313174870864
 20
2107.862475706792
 30
0.0
 40
5.17462898859842
100
AcDbArc
 50
233.7083018726678
 51
306.2916981273322
  0
LINE
  5
13AB3
330
1A
100
AcDbEntity
  8
ZISSEN1
 48
0.5
100
AcDbLine
 10
-1748.463174870864
 20
2104.687846718193
 30
0.0
 11
-1748.376019128118
 21
2103.691652020102
 31
0.0
  0
LINE
  5
13AB4
330
1A
100
AcDbEntity
  8
ZISSEN1
 48
0.5
100
AcDbLine
 10
-1742.163174870865
 20
2104.687846718193
 30
0.0
 11
-1742.250330613613
 21
2103.691652020102
 31
0.0
  0
LINE
  5
13AB5
330
1A
100
AcDbEntity
  8
ZISSEN1
 48
0.5
100
AcDbLine
 10
-1742.163174870865
 20
2104.687846718193
 30
0.0
 11
-1748.463174870864
 21
2104.687846718193
 31
0.0
  0
LINE
  5
13AB8
330
1A
100
AcDbEntity
  8
ZISSEN1
 48
0.5
100
AcDbLine
 10
-1760.313174870864
 20
2117.437846718194
 30
0.0
 11
-1757.313174870865
 21
2117.437846718194
 31
0.0
  0
ARC
  5
13ABB
330
1A
100
AcDbEntity
  8
ZISSEN1
 48
0.5
100
AcDbCircle
 10
-1757.313174870865
 20
2109.187846718194
 30
0.0
 40
3.0
100
AcDbArc
 50
180.0
 51
270.0
  0
LINE
  5
13ABE
330
1A
100
AcDbEntity
  8
ZISSEN1
 48
0.5
100
AcDbLine
 10
-1652.313174870864
 20
2148.187846718194
 30
0.0
 11
-1652.313174870864
 21
2107.187846718195
 31
0.0
  0
LINE
  5
13AD8
330
1A
100
AcDbEntity
  8
ZISSEN1
 48
0.5
100
AcDbLine
 10
-1661.063174870864
 20
2155.087846718193
 30
0.0
 11
-1660.884435073691
 21
2155.087846718193
 31
0.0
  0
LINE
  5
13AD9
330
1A
100
AcDbEntity
  8
ZISSEN1
 48
0.5
100
AcDbLine
 10
-1661.063174870864
 20
2154.187846718194
 30
0.0
 11
-1661.063174870864
 21
2155.087846718193
 31
0.0
  0
LINE
  5
13ADA
330
1A
100
AcDbEntity
  8
ZISSEN1
 48
0.5
100
AcDbLine
 10
-1660.963174870864
 20
2154.187846718195
 30
0.0
 11
-1661.063174870864
 21
2154.187846718194
 31
0.0
  0
LINE
  5
13ADB
330
1A
100
AcDbEntity
  8
ZISSEN1
 48
0.5
100
AcDbLine
 10
-1654.563174870865
 20
2154.187846718195
 30
0.0
 11
-1654.663174870864
 21
2154.187846718195
 31
0.0
  0
LINE
  5
13ADC
330
1A
100
AcDbEntity
  8
ZISSEN1
 48
0.5
100
AcDbLine
 10
-1654.563174870865
 20
2155.087846718193
 30
0.0
 11
-1654.563174870865
 21
2154.187846718195
 31
0.0
  0
LINE
  5
13ADD
330
1A
100
AcDbEntity
  8
ZISSEN1
 48
0.5
100
AcDbLine
 10
-1654.741914668038
 20
2155.087846718193
 30
0.0
 11
-1654.563174870865
 21
2155.087846718193
 31
0.0
  0
ARC
  5
13ADE
330
1A
100
AcDbEntity
  8
ZISSEN1
 48
0.5
100
AcDbCircle
 10
-1657.813174870866
 20
2151.913217729596
 30
0.0
 40
5.17462898859842
100
AcDbArc
 50
53.70830187266779
 51
126.2916981273321
  0
LINE
  5
13ADF
330
1A
100
AcDbEntity
  8
ZISSEN1
 48
0.5
100
AcDbLine
 10
-1660.963174870864
 20
2155.087846718194
 30
0.0
 11
-1660.876019128118
 21
2156.084041416286
 31
0.0
  0
LINE
  5
13AE0
330
1A
100
AcDbEntity
  8
ZISSEN1
 48
0.5
100
AcDbLine
 10
-1654.663174870866
 20
2155.087846718194
 30
0.0
 11
-1654.750330613612
 21
2156.084041416286
 31
0.0
  0
LINE
  5
13AE1
330
1A
100
AcDbEntity
  8
ZISSEN1
 48
0.5
100
AcDbLine
 10
-1654.663174870864
 20
2154.187846718194
 30
0.0
 11
-1660.963174870864
 21
2154.187846718194
 31
0.0
  0
ARC
  5
13AE2
330
1A
100
AcDbEntity
  8
ZISSEN1
 48
0.5
100
AcDbCircle
 10
-1657.813174870865
 20
2151.013217729595
 30
0.0
 40
5.17462898859842
100
AcDbArc
 50
53.70830187266779
 51
126.2916981273321
  0
LINE
  5
13AE3
330
1A
100
AcDbEntity
  8
ZISSEN1
 48
0.5
100
AcDbLine
 10
-1654.663174870864
 20
2154.187846718195
 30
0.0
 11
-1654.750330613612
 21
2155.184041416287
 31
0.0
  0
LINE
  5
13AE4
330
1A
100
AcDbEntity
  8
ZISSEN1
 48
0.5
100
AcDbLine
 10
-1660.963174870864
 20
2154.187846718195
 30
0.0
 11
-1660.876019128117
 21
2155.184041416287
 31
0.0
  0
LINE
  5
13AE5
330
1A
100
AcDbEntity
  8
ZISSEN1
 48
0.5
100
AcDbLine
 10
-1660.963174870864
 20
2154.187846718195
 30
0.0
 11
-1654.663174870864
 21
2154.187846718195
 31
0.0
  0
LINE
  5
13AE6
330
1A
100
AcDbEntity
  8
ZISSEN1
 48
0.5
100
AcDbLine
 10
-1652.813174870864
 20
2149.687846718193
 30
0.0
 11
-1652.813174870864
 21
2152.687846718194
 31
0.0
  0
LINE
  5
13AE7
330
1A
100
AcDbEntity
  8
ZISSEN1
 48
0.5
100
AcDbLine
 10
-1674.313174870865
 20
2152.687846718194
 30
0.0
 11
-1674.313174870865
 21
2149.687846718193
 31
0.0
  0
LINE
  5
13AE8
330
1A
100
AcDbEntity
  8
ZISSEN1
 48
0.5
100
AcDbLine
 10
-1653.313174870864
 20
2149.187846718194
 30
0.0
 11
-1652.313174870864
 21
2148.187846718194
 31
0.0
  0
LINE
  5
13AE9
330
1A
100
AcDbEntity
  8
ZISSEN1
 48
0.5
100
AcDbLine
 10
-1662.313174870865
 20
2154.187846718194
 30
0.0
 11
-1662.313174870865
 21
2152.687846718194
 31
0.0
  0
LINE
  5
13AEA
330
1A
100
AcDbEntity
  8
ZISSEN1
 48
0.5
100
AcDbLine
 10
-1674.813174870865
 20
2149.187846718194
 30
0.0
 11
-1653.313174870864
 21
2149.187846718194
 31
0.0
  0
LINE
  5
13AEB
330
1A
100
AcDbEntity
  8
ZISSEN1
 48
0.5
100
AcDbLine
 10
-1674.813174870865
 20
2154.687846718194
 30
0.0
 11
-1674.813174870865
 21
2149.187846718194
 31
0.0
  0
LINE
  5
13AEC
330
1A
100
AcDbEntity
  8
ZISSEN1
 48
0.5
100
AcDbLine
 10
-1663.313174870864
 20
2154.187846718194
 30
0.0
 11
-1663.313174870864
 21
2152.687846718194
 31
0.0
  0
LINE
  5
13AED
330
1A
100
AcDbEntity
  8
ZISSEN1
 48
0.5
100
AcDbLine
 10
-1711.813174870864
 20
2113.687846718194
 30
0.0
 11
-1684.313174870865
 21
2113.687846718194
 31
0.0
  0
LINE
  5
13AEE
330
1A
100
AcDbEntity
  8
ZISSEN1
 48
0.5
100
AcDbLine
 10
-1684.313174870865
 20
2119.687846718194
 30
0.0
 11
-1711.813174870864
 21
2119.687846718194
 31
0.0
  0
LINE
  5
13AEF
330
1A
100
AcDbEntity
  8
ZISSEN1
 48
0.5
100
AcDbLine
 10
-1702.453174870864
 20
2113.687846718194
 30
0.0
 11
-1688.173174870865
 21
2113.687846718194
 31
0.0
  0
LWPOLYLINE
  5
13AF0
330
1A
100
AcDbEntity
  8
ZISSEN1
 48
0.5
100
AcDbPolyline
 90
        4
 70
     1
 43
0.0
 10
-1702.263174870864
 20
2113.687846718194
 10
-1688.363174870865
 20
2113.687846718194
 10
-1688.363174870865
 20
2114.887846718194
 10
-1702.263174870864
 20
2114.887846718194
  0
LINE
  5
13AF1
330
1A
100
AcDbEntity
  8
ZISSEN1
 48
0.5
100
AcDbLine
 10
-1711.813174870864
 20
2119.687846718194
 30
0.0
 11
-1711.813174870864
 21
2113.687846718194
 31
0.0
  0
LINE
  5
13AF4
330
1A
100
AcDbEntity
  8
ZISSEN1
 48
0.5
100
AcDbLine
 10
-1702.453174870864
 20
2113.787846718194
 30
0.0
 11
-1702.263174870864
 21
2113.787846718194
 31
0.0
  0
LINE
  5
13AF5
330
1A
100
AcDbEntity
  8
ZISSEN1
 48
0.5
100
AcDbLine
 10
-1702.453174870864
 20
2113.687846718194
 30
0.0
 11
-1702.453174870864
 21
2113.787846718194
 31
0.0
  0
LINE
  5
13B35
330
1A
100
AcDbEntity
  8
ZISSEN1
 48
0.5
100
AcDbLine
 10
-1710.513174870864
 20
2117.887846718193
 30
0.0
 11
-1705.113174870865
 21
2117.887846718193
 31
0.0
  0
LINE
  5
13B36
330
1A
100
AcDbEntity
  8
ZISSEN1
 48
0.5
100
AcDbLine
 10
-1710.513174870864
 20
2117.887846718193
 30
0.0
 11
-1710.813174870865
 21
2117.887846718193
 31
0.0
  0
LINE
  5
13B37
330
1A
100
AcDbEntity
  8
ZISSEN1
 48
0.5
100
AcDbLine
 10
-1704.813174870865
 20
2117.887846718193
 30
0.0
 11
-1705.113174870865
 21
2117.887846718193
 31
0.0
  0
LINE
  5
13B38
330
1A
100
AcDbEntity
  8
ZISSEN1
 48
0.5
100
AcDbLine
 10
-1704.813174870865
 20
2113.687846718194
 30
0.0
 11
-1704.813174870865
 21
2117.887846718193
 31
0.0
  0
LINE
  5
13B39
330
1A
100
AcDbEntity
  8
ZISSEN1
 48
0.5
100
AcDbLine
 10
-1705.113174870865
 20
2113.687846718194
 30
0.0
 11
-1704.813174870865
 21
2113.687846718194
 31
0.0
  0
LINE
  5
13B3A
330
1A
100
AcDbEntity
  8
ZISSEN1
 48
0.5
100
AcDbLine
 10
-1710.813174870865
 20
2113.687846718194
 30
0.0
 11
-1710.513174870864
 21
2113.687846718194
 31
0.0
  0
LINE
  5
13B3B
330
1A
100
AcDbEntity
  8
ZISSEN1
 48
0.5
100
AcDbLine
 10
-1710.813174870865
 20
2117.887846718193
 30
0.0
 11
-1710.813174870865
 21
2113.687846718194
 31
0.0
  0
LINE
  5
13B4C
330
1A
100
AcDbEntity
  8
ZISSEN1
 48
0.5
100
AcDbLine
 10
-1684.313174870865
 20
2113.687846718194
 30
0.0
 11
-1684.313174870865
 21
2119.687846718194
 31
0.0
  0
ARC
  5
13B4D
330
1A
100
AcDbEntity
  8
ZISSEN1
 48
0.5
100
AcDbCircle
 10
-1652.313174870864
 20
2106.187846718195
 30
0.0
 40
1.000000000000027
100
AcDbArc
 50
89.99999999999998
 51
180.0
  0
LINE
  5
13B4E
330
1A
100
AcDbEntity
  8
ZISSEN1
 48
0.5
100
AcDbLine
 10
-1653.313174870864
 20
2106.187846718195
 30
0.0
 11
-1653.313174870864
 21
2104.687846718193
 31
0.0
  0
LINE
  5
13B4F
330
1A
100
AcDbEntity
  8
ZISSEN1
 48
0.5
100
AcDbLine
 10
-1688.173174870865
 20
2113.787846718194
 30
0.0
 11
-1688.363174870865
 21
2113.787846718194
 31
0.0
  0
LINE
  5
13B50
330
1A
100
AcDbEntity
  8
ZISSEN1
 48
0.5
100
AcDbLine
 10
-1688.173174870865
 20
2113.687846718194
 30
0.0
 11
-1688.173174870865
 21
2113.787846718194
 31
0.0
  0
LINE
  5
13B51
330
1A
100
AcDbEntity
  8
ZISSEN1
 48
0.5
100
AcDbLine
 10
-1651.813174870865
 20
2071.695975297861
 30
0.0
 11
-1757.313174870865
 21
2071.695975297861
 31
0.0
  0
LINE
  5
13B67
330
1A
100
AcDbEntity
  8
ZISSEN1
 48
0.5
100
AcDbLine
 10
-1757.313174870865
 20
2069.69597529786
 30
0.0
 11
-1757.313174870865
 21
2081.695975297861
 31
0.0
  0
LINE
  5
13B68
330
1A
100
AcDbEntity
  8
ZISSEN1
 48
0.5
100
AcDbLine
 10
-1757.313174870865
 20
2079.69597529786
 30
0.0
 11
-1760.313174870864
 21
2079.69597529786
 31
0.0
  0
LINE
  5
13B69
330
1A
100
AcDbEntity
  8
ZISSEN1
 48
0.5
100
AcDbLine
 10
-1757.313174870865
 20
2081.695975297861
 30
0.0
 11
-1760.313174870864
 21
2081.695975297861
 31
0.0
  0
LINE
  5
13B6A
330
1A
100
AcDbEntity
  8
ZISSEN1
 48
0.5
100
AcDbLine
 10
-1757.313174870865
 20
2070.69597529786
 30
0.0
 11
-1760.313174870864
 21
2070.69597529786
 31
0.0
  0
LINE
  5
13B6B
330
1A
100
AcDbEntity
  8
ZISSEN1
 48
0.5
100
AcDbLine
 10
-1757.313174870865
 20
2071.695975297861
 30
0.0
 11
-1760.313174870864
 21
2071.695975297861
 31
0.0
  0
CIRCLE
  5
13B7F
330
1A
100
AcDbEntity
  8
ZISSEN1
  6
Continuous
 48
0.5
100
AcDbCircle
 10
-1745.313174870864
 20
2026.695975297861
 30
0.0
 40
3.149999999999999
  0
LINE
  5
13B97
330
1A
100
AcDbEntity
  8
ZISSEN1
 48
0.5
100
AcDbLine
 10
-1652.313174870864
 20
2071.695975297861
 30
0.0
 11
-1653.313174870864
 21
2071.695975297861
 31
0.0
  0
LINE
  5
13C0E
330
1A
100
AcDbEntity
  8
ZISSEN1
 48
0.5
100
AcDbLine
 10
-1652.813174870864
 20
1961.69597529786
 30
0.0
 11
-1757.313174870865
 21
1961.69597529786
 31
0.0
  0
LINE
  5
13C0F
330
1A
100
AcDbEntity
  8
ZISSEN1
 48
0.5
100
AcDbLine
 10
-1652.313174870864
 20
1961.69597529786
 30
0.0
 11
-1757.313174870865
 21
1961.69597529786
 31
0.0
  0
CIRCLE
  5
13C33
330
1A
100
AcDbEntity
  8
ZISSEN1
  6
Continuous
 48
0.5
100
AcDbCircle
 10
-1745.313174870864
 20
1981.695975297861
 30
0.0
 40
3.149999999999999
  0
LINE
  5
13C3A
330
1A
100
AcDbEntity
  8
ZISSEN1
 48
0.5
100
AcDbLine
 10
-1757.313174870865
 20
1961.69597529786
 30
0.0
 11
-1760.313174870864
 21
1961.69597529786
 31
0.0
  0
LINE
  5
13C3B
330
1A
100
AcDbEntity
  8
ZISSEN1
 48
0.5
100
AcDbLine
 10
-1757.313174870865
 20
1962.695975297861
 30
0.0
 11
-1760.313174870864
 21
1962.695975297861
 31
0.0
  0
LINE
  5
13C3C
330
1A
100
AcDbEntity
  8
ZISSEN1
 48
0.5
100
AcDbLine
 10
-1757.313174870865
 20
1961.69597529786
 30
0.0
 11
-1757.313174870865
 21
1951.695975297861
 31
0.0
  0
LINE
  5
13C3D
330
1A
100
AcDbEntity
  8
ZISSEN1
 48
0.5
100
AcDbLine
 10
-1757.313174870865
 20
1953.695975297861
 30
0.0
 11
-1760.313174870864
 21
1953.695975297861
 31
0.0
  0
LINE
  5
13C3E
330
1A
100
AcDbEntity
  8
ZISSEN1
 48
0.5
100
AcDbLine
 10
-1760.313174870864
 20
1951.695975297861
 30
0.0
 11
-1757.313174870865
 21
1951.695975297861
 31
0.0
  0
LINE
  5
13CB5
330
1A
100
AcDbEntity
  8
ZISSEN1
 48
0.5
100
AcDbLine
 10
-1652.313174870864
 20
1961.69597529786
 30
0.0
 11
-1653.313174870864
 21
1961.69597529786
 31
0.0
  0
LINE
  5
13CBC
330
1A
100
AcDbEntity
  8
ZISSEN1
 48
0.5
100
AcDbLine
 10
-1639.813174870867
 20
2001.535975297861
 30
0.0
 11
-1639.813174870867
 21
2040.855975297861
 31
0.0
  0
LINE
  5
13CBD
330
1A
100
AcDbEntity
  8
ZISSEN1
 48
0.5
100
AcDbLine
 10
-1636.013174870866
 20
2001.535975297861
 30
0.0
 11
-1636.013174870866
 21
2040.855975297861
 31
0.0
  0
LINE
  5
13CC1
330
1A
100
AcDbEntity
  8
ZISSEN1
 48
0.5
100
AcDbLine
 10
-1645.813174870864
 20
2016.775975297861
 30
0.0
 11
-1645.813174870864
 21
2010.375975297861
 31
0.0
  0
LINE
  5
13CC2
330
1A
100
AcDbEntity
  8
ZISSEN1
 48
0.5
100
AcDbLine
 10
-1645.813174870864
 20
2016.775975297861
 30
0.0
 11
-1645.813174870864
 21
2010.375975297861
 31
0.0
  0
LINE
  5
13CC3
330
1A
100
AcDbEntity
  8
ZISSEN1
 48
0.5
100
AcDbLine
 10
-1646.813174870866
 20
2016.775975297861
 30
0.0
 11
-1646.813174870866
 21
2010.375975297861
 31
0.0
  0
LINE
  5
13CC4
330
1A
100
AcDbEntity
  8
ZISSEN1
 48
0.5
100
AcDbLine
 10
-1538.140100336319
 20
2042.695975297861
 30
0.0
 11
-1538.140100336319
 21
1999.695975297861
 31
0.0
  0
LINE
  5
13CC5
330
1A
100
AcDbEntity
  8
ZISSEN1
 48
0.5
100
AcDbLine
 10
-1536.54010033632
 20
2042.695975297861
 30
0.0
 11
-1536.54010033632
 21
1999.695975297861
 31
0.0
  0
LINE
  5
13CC6
330
1A
100
AcDbEntity
  8
ZISSEN1
 48
0.5
100
AcDbLine
 10
-1569.74010033632
 20
2017.195973101516
 30
0.0
 11
-1569.740100336318
 21
1991.195973101516
 31
0.0
  0
LINE
  5
13CC7
330
1A
100
AcDbEntity
  8
ZISSEN1
 48
0.5
100
AcDbLine
 10
-1565.240100336319
 20
1968.195975297861
 30
0.0
 11
-1565.240100336319
 21
2017.195973101516
 31
0.0
  0
LINE
  5
13CC8
330
1A
100
AcDbEntity
  8
ZISSEN1
 48
0.5
100
AcDbLine
 10
-1533.240100336319
 20
2042.695975297859
 30
0.0
 11
-1533.240100336319
 21
1999.69597529786
 31
0.0
  0
LWPOLYLINE
  5
13CC9
330
1A
100
AcDbEntity
  8
ZISSEN1
 48
0.5
100
AcDbPolyline
 90
        4
 70
     1
 43
0.0
 10
-1533.740100336319
 20
2042.695975297859
 10
-1533.740100336319
 20
1999.69597529786
 10
-1531.740100336319
 20
1999.69597529786
 10
-1531.740100336319
 20
2042.695975297859
  0
LINE
  5
13CCA
330
1A
100
AcDbEntity
  8
ZISSEN1
 48
0.5
100
AcDbLine
 10
-1550.740100336319
 20
1999.695975297861
 30
0.0
 11
-1550.740100336319
 21
2042.695975297861
 31
0.0
  0
LINE
  5
13CCB
330
1A
100
AcDbEntity
  8
ZISSEN1
 48
0.5
100
AcDbLine
 10
-1536.240100336319
 20
1999.695975297861
 30
0.0
 11
-1536.240100336319
 21
2042.695975297861
 31
0.0
  0
LINE
  5
13CCC
330
1A
100
AcDbEntity
  8
ZISSEN1
 48
0.5
100
AcDbLine
 10
-1531.740100336319
 20
2061.195975297861
 30
0.0
 11
-1531.740100336319
 21
1981.19597529786
 31
0.0
  0
LINE
  5
13CCD
330
1A
100
AcDbEntity
  8
ZISSEN1
 48
0.5
100
AcDbLine
 10
-1581.240100336319
 20
2070.195975297861
 30
0.0
 11
-1581.240100336319
 21
1963.19597529786
 31
0.0
  0
LINE
  5
13CCE
330
1A
100
AcDbEntity
  8
ZISSEN1
 48
0.5
100
AcDbLine
 10
-1650.313174870865
 20
2071.695975297861
 30
0.0
 11
-1650.313174870865
 21
1961.69597529786
 31
0.0
  0
DIMENSION
  5
13CCF
330
1A
100
AcDbEntity
  8
SUNPOU
 48
0.5
100
AcDbDimension
  2
*D6
 10
-1620.740567415209
 20
2071.695975297861
 30
0.0
 11
-1623.490567415211
 21
2016.69597529786
 31
0.0
 70
    32
 71
     5
 42
-1.0
  3
標準スタイル
100
AcDbAlignedDimension
 13
-1645.24056741521
 23
1961.69597529786
 33
0.0
 14
-1645.24056741521
 24
2071.695975297861
 34
0.0
 50
270.0
100
AcDbRotatedDimension
1001
ACAD
1000
DSTYLE
1002
{
1070
   340
1005
10
1070
    40
1040
1.0
1002
}
  0
DIMENSION
  5
13CD1
330
1A
100
AcDbEntity
  8
SUNPOU
 48
0.5
100
AcDbDimension
  2
*D7
 10
-1518.740100336319
 20
1956.69597529786
 30
0.0
 11
-1521.49010033632
 21
2016.69597529786
 31
0.0
 70
    32
 71
     5
 42
-1.0
  3
標準スタイル
100
AcDbAlignedDimension
 13
-1542.740100336319
 23
2076.695975297861
 33
0.0
 14
-1542.740100336319
 24
1956.695975297861
 34
0.0
 50
270.0
100
AcDbRotatedDimension
1001
ACAD
1000
DSTYLE
1002
{
1070
   340
1005
10
1070
    40
1040
1.0
1002
}
  0
LINE
  5
13CD8
330
1A
100
AcDbEntity
  8
ZISSEN1
  6
Continuous
100
AcDbLine
 10
-1565.540099127141
 20
2017.195973101516
 30
0.0
 11
-1565.540099127141
 21
2005.895974160872
 31
0.0
  0
CIRCLE
  5
13CE0
330
1A
100
AcDbEntity
  8
ZISSEN1
100
AcDbCircle
 10
-1544.640100336319
 20
2013.575975297861
 30
0.0
 40
2.75
  0
LWPOLYLINE
  5
13CE1
330
1A
100
AcDbEntity
  8
ZISSEN1
100
AcDbPolyline
 90
        4
 70
     1
 43
0.0
 10
-1550.140100336319
 20
2041.84597529786
 10
-1550.140100336319
 20
2000.54597529786
 10
-1538.140100336319
 20
2000.54597529786
 10
-1538.140100336319
 20
2041.84597529786
  0
LINE
  5
13CE2
330
1A
100
AcDbEntity
  8
ZISSEN1
 48
0.5
100
AcDbLine
 10
-1651.813174870865
 20
2106.187846718195
 30
0.0
 11
-1651.813174870865
 21
2152.687846718194
 31
0.0
  0
LINE
  5
13CE3
330
1A
100
AcDbEntity
  8
ZISSEN1
 48
0.5
100
AcDbLine
 10
-1650.313174870865
 20
2152.687846718194
 30
0.0
 11
-1650.313174870865
 21
2106.187846718195
 31
0.0
  0
LINE
  5
13CE5
330
1A
100
AcDbEntity
  8
ZISSEN1
 48
0.5
100
AcDbLine
 10
-1637.813174870865
 20
2136.368296902284
 30
0.0
 11
-1637.813174870865
 21
2147.207396533781
 31
0.0
  0
LINE
  5
13CE6
330
1A
100
AcDbEntity
  8
ZISSEN1
 48
0.5
100
AcDbLine
 10
-1646.813174870865
 20
2137.287846718194
 30
0.0
 11
-1646.813174870865
 21
2146.287846718194
 31
0.0
  0
ARC
  5
13CE7
330
1A
100
AcDbEntity
  8
ZISSEN1
 48
0.5
100
AcDbCircle
 10
-1654.598742938269
 20
2141.77358537363
 30
0.0
 40
18.58557353901287
100
AcDbArc
 50
0.0439650103806703
 51
18.88067939218596
  0
ARC
  5
13CE8
330
1A
100
AcDbEntity
  8
ZISSEN1
 48
0.5
100
AcDbCircle
 10
-1656.328990866202
 20
2141.901383715619
 30
0.0
 40
19.31614967366757
100
AcDbArc
 50
359.6632233473306
 51
17.06974233324495
  0
LINE
  5
13CE9
330
1A
100
AcDbEntity
  8
ZISSEN1
 48
0.5
100
AcDbLine
 10
-1640.313174870865
 20
2147.787846718194
 30
0.0
 11
-1650.313174870865
 21
2147.787846718194
 31
0.0
  0
ARC
  5
13CEA
330
1A
100
AcDbEntity
  8
ZISSEN1
 48
0.5
100
AcDbCircle
 10
-1638.352177007208
 20
2147.340164981204
 30
0.0
 40
0.5403786544667506
100
AcDbArc
 50
25.33049306139468
 51
124.059202497296
  0
LINE
  5
13CEB
330
1A
100
AcDbEntity
  8
ZISSEN1
 48
0.5
100
AcDbLine
 10
-1639.248512509174
 20
2147.248963928653
 30
0.0
 11
-1638.654815657365
 21
2147.787846718194
 31
0.0
  0
ARC
  5
13CEC
330
1A
100
AcDbEntity
  8
ZISSEN1
 48
0.5
100
AcDbCircle
 10
-1638.413174870866
 20
2147.307846718195
 30
0.0
 40
1.479999999998431
100
AcDbArc
 50
18.92464441598643
 51
161.0753555839889
  0
LINE
  5
13CED
330
1A
100
AcDbEntity
  8
ZISSEN1
 48
0.5
100
AcDbLine
 10
-1639.234192101397
 20
2147.247518385352
 30
0.0
 11
-1639.813174870865
 21
2147.787846718194
 31
0.0
  0
LINE
  5
13CEE
330
1A
100
AcDbEntity
  8
ZISSEN1
 48
0.5
100
AcDbLine
 10
-1638.68385014748
 20
2147.710081139114
 30
0.0
 11
-1639.813174870865
 21
2146.787846718194
 31
0.0
  0
ARC
  5
13CEF
330
1A
100
AcDbEntity
  8
ZISSEN1
 48
0.5
100
AcDbCircle
 10
-1638.393625055275
 20
2147.207396533783
 30
0.0
 40
0.5804501844113476
100
AcDbArc
 50
359.9999999999478
 51
119.9999999999971
  0
LINE
  5
13CF0
330
1A
100
AcDbEntity
  8
ZISSEN1
 48
0.5
100
AcDbLine
 10
-1640.313174870865
 20
2147.787846718194
 30
0.0
 11
-1639.813174870865
 21
2146.787846718194
 31
0.0
  0
LINE
  5
13CF1
330
1A
100
AcDbEntity
  8
ZISSEN1
 48
0.5
100
AcDbLine
 10
-1649.313174870864
 20
2146.287846718194
 30
0.0
 11
-1646.813174870865
 21
2146.287846718194
 31
0.0
  0
LINE
  5
13CF2
330
1A
100
AcDbEntity
  8
ZISSEN1
 48
0.5
100
AcDbLine
 10
-1650.313174870865
 20
2147.287846718194
 30
0.0
 11
-1649.313174870864
 21
2146.287846718194
 31
0.0
  0
LINE
  5
13CF3
330
1A
100
AcDbEntity
  8
ZISSEN1
 48
0.5
100
AcDbLine
 10
-1651.813174870865
 20
2149.687846718193
 30
0.0
 11
-1651.813174870865
 21
2152.687846718194
 31
0.0
  0
LINE
  5
13CF4
330
1A
100
AcDbEntity
  8
ZISSEN1
 48
0.5
100
AcDbLine
 10
-1651.813174870865
 20
2151.687846718194
 30
0.0
 11
-1650.313174870865
 21
2151.687846718194
 31
0.0
  0
ARC
  5
13CF5
330
1A
100
AcDbEntity
  8
ZISSEN1
 48
0.5
100
AcDbCircle
 10
-1651.813174870865
 20
2152.687846718194
 30
0.0
 40
1.5
100
AcDbArc
 50
0.0
 51
89.99999999999998
  0
LINE
  5
13CF6
330
1A
100
AcDbEntity
  8
ZISSEN1
 48
0.5
100
AcDbLine
 10
-1637.813174870865
 20
2126.768296902283
 30
0.0
 11
-1637.813174870865
 21
2134.91492395585
 31
0.0
  0
LINE
  5
13CF7
330
1A
100
AcDbEntity
  8
ZISSEN1
 48
0.5
100
AcDbLine
 10
-1646.813174870865
 20
2127.687846718194
 30
0.0
 11
-1646.813174870865
 21
2135.787846717872
 31
0.0
  0
LINE
  5
13CF8
330
1A
100
AcDbEntity
  8
ZISSEN1
 48
0.5
100
AcDbLine
 10
-1640.313174870865
 20
2126.187846717872
 30
0.0
 11
-1650.313174870865
 21
2126.187846717872
 31
0.0
  0
ARC
  5
13CF9
330
1A
100
AcDbEntity
  8
ZISSEN1
 48
0.5
100
AcDbCircle
 10
-1654.598742938269
 20
2132.202108062436
 30
0.0
 40
18.58557353901287
100
AcDbArc
 50
341.1193206078138
 51
359.9560349896193
  0
ARC
  5
13CFA
330
1A
100
AcDbEntity
  8
ZISSEN1
 48
0.5
100
AcDbCircle
 10
-1656.328990866202
 20
2132.074309720447
 30
0.0
 40
19.31614967366757
100
AcDbArc
 50
342.930257666755
 51
0.3367766526693408
  0
ARC
  5
13CFB
330
1A
100
AcDbEntity
  8
ZISSEN1
 48
0.5
100
AcDbCircle
 10
-1638.352177007208
 20
2126.635528454863
 30
0.0
 40
0.5403786544667506
100
AcDbArc
 50
235.9407975027038
 51
334.6695069386052
  0
LINE
  5
13CFC
330
1A
100
AcDbEntity
  8
ZISSEN1
 48
0.5
100
AcDbLine
 10
-1639.248512509174
 20
2126.726729507411
 30
0.0
 11
-1638.654815657365
 21
2126.187846717872
 31
0.0
  0
ARC
  5
13CFD
330
1A
100
AcDbEntity
  8
ZISSEN1
 48
0.5
100
AcDbCircle
 10
-1638.413174870866
 20
2126.667846717871
 30
0.0
 40
1.479999999998431
100
AcDbArc
 50
198.924644416011
 51
341.0753555840134
  0
LINE
  5
13CFE
330
1A
100
AcDbEntity
  8
ZISSEN1
 48
0.5
100
AcDbLine
 10
-1639.234192101397
 20
2126.728175050712
 30
0.0
 11
-1639.813174870865
 21
2126.187846717872
 31
0.0
  0
LINE
  5
13CFF
330
1A
100
AcDbEntity
  8
ZISSEN1
 48
0.5
100
AcDbLine
 10
-1638.68385014748
 20
2126.265612296952
 30
0.0
 11
-1639.813174870865
 21
2127.187846717872
 31
0.0
  0
ARC
  5
13D00
330
1A
100
AcDbEntity
  8
ZISSEN1
 48
0.5
100
AcDbCircle
 10
-1638.393625055275
 20
2126.768296902283
 30
0.0
 40
0.5804501844113476
100
AcDbArc
 50
240.0000000000026
 51
0.0000000000781399
  0
LINE
  5
13D01
330
1A
100
AcDbEntity
  8
ZISSEN1
 48
0.5
100
AcDbLine
 10
-1640.313174870865
 20
2126.187846717872
 30
0.0
 11
-1639.813174870865
 21
2127.187846717872
 31
0.0
  0
ARC
  5
13D02
330
1A
100
AcDbEntity
  8
ZISSEN1
 48
0.5
100
AcDbCircle
 10
-1654.598742938261
 20
2132.173585373631
 30
0.0
 40
18.58557353900451
100
AcDbArc
 50
0.0439650103806703
 51
15.01264197443819
  0
ARC
  5
13D03
330
1A
100
AcDbEntity
  8
ZISSEN1
 48
0.5
100
AcDbCircle
 10
-1656.328990866164
 20
2132.301383715622
 30
0.0
 40
19.3161496736304
100
AcDbArc
 50
359.6632233473306
 51
9.07205128459509
  0
LINE
  5
13D04
330
1A
100
AcDbEntity
  8
ZISSEN1
 48
0.5
100
AcDbLine
 10
-1649.313174870864
 20
2127.687846718194
 30
0.0
 11
-1646.813174870865
 21
2127.687846718194
 31
0.0
  0
LINE
  5
13D05
330
1A
100
AcDbEntity
  8
ZISSEN1
 48
0.5
100
AcDbLine
 10
-1650.313174870865
 20
2126.687846718194
 30
0.0
 11
-1649.313174870864
 21
2127.687846718194
 31
0.0
  0
LINE
  5
13D06
330
1A
100
AcDbEntity
  8
ZISSEN1
 48
0.5
100
AcDbLine
 10
-1640.313174870865
 20
2135.787846717872
 30
0.0
 11
-1650.313174870865
 21
2135.787846717872
 31
0.0
  0
ARC
  5
13D07
330
1A
100
AcDbEntity
  8
ZISSEN1
 48
0.5
100
AcDbCircle
 10
-1654.598742938269
 20
2141.802108062435
 30
0.0
 40
18.58557353901287
100
AcDbArc
 50
341.1193206078138
 51
359.9560349896193
  0
ARC
  5
13D08
330
1A
100
AcDbEntity
  8
ZISSEN1
 48
0.5
100
AcDbCircle
 10
-1656.328990866202
 20
2141.674309720445
 30
0.0
 40
19.31614967366757
100
AcDbArc
 50
342.930257666755
 51
0.3367766526693408
  0
ARC
  5
13D09
330
1A
100
AcDbEntity
  8
ZISSEN1
 48
0.5
100
AcDbCircle
 10
-1638.352177007208
 20
2136.235528454862
 30
0.0
 40
0.5403786544667506
100
AcDbArc
 50
235.9407975027038
 51
334.6695069386052
  0
LINE
  5
13D0A
330
1A
100
AcDbEntity
  8
ZISSEN1
 48
0.5
100
AcDbLine
 10
-1639.248512509174
 20
2136.326729507412
 30
0.0
 11
-1638.654815657365
 21
2135.787846717872
 31
0.0
  0
ARC
  5
13D0B
330
1A
100
AcDbEntity
  8
ZISSEN1
 48
0.5
100
AcDbCircle
 10
-1638.413174870866
 20
2136.26784671787
 30
0.0
 40
1.479999999998431
100
AcDbArc
 50
198.924644416011
 51
341.0753555840134
  0
LINE
  5
13D0C
330
1A
100
AcDbEntity
  8
ZISSEN1
 48
0.5
100
AcDbLine
 10
-1639.234192101397
 20
2136.328175050713
 30
0.0
 11
-1639.813174870865
 21
2135.787846717872
 31
0.0
  0
LINE
  5
13D0D
330
1A
100
AcDbEntity
  8
ZISSEN1
 48
0.5
100
AcDbLine
 10
-1638.68385014748
 20
2135.865612296952
 30
0.0
 11
-1639.813174870865
 21
2136.787846717872
 31
0.0
  0
ARC
  5
13D0E
330
1A
100
AcDbEntity
  8
ZISSEN1
 48
0.5
100
AcDbCircle
 10
-1638.393625055275
 20
2136.368296902284
 30
0.0
 40
0.5804501844113476
100
AcDbArc
 50
240.0000000000026
 51
0.0000000000781399
  0
LINE
  5
13D0F
330
1A
100
AcDbEntity
  8
ZISSEN1
 48
0.5
100
AcDbLine
 10
-1640.313174870865
 20
2135.787846717872
 30
0.0
 11
-1639.813174870865
 21
2136.787846717872
 31
0.0
  0
LINE
  5
13D10
330
1A
100
AcDbEntity
  8
ZISSEN1
 48
0.5
100
AcDbLine
 10
-1649.313174870864
 20
2137.287846718194
 30
0.0
 11
-1646.813174870865
 21
2137.287846718194
 31
0.0
  0
LINE
  5
13D11
330
1A
100
AcDbEntity
  8
ZISSEN1
 48
0.5
100
AcDbLine
 10
-1650.313174870865
 20
2136.287846718194
 30
0.0
 11
-1649.313174870864
 21
2137.287846718194
 31
0.0
  0
LINE
  5
13D12
330
1A
100
AcDbEntity
  8
ZISSEN1
 48
0.5
100
AcDbLine
 10
-1651.813174870865
 20
2106.687846718195
 30
0.0
 11
-1650.313174870865
 21
2106.687846718195
 31
0.0
  0
ARC
  5
13D13
330
1A
100
AcDbEntity
  8
ZISSEN1
 48
0.5
100
AcDbCircle
 10
-1651.813174870865
 20
2106.187846718195
 30
0.0
 40
1.500000000000226
100
AcDbArc
 50
270.0
 51
0.0
  0
LINE
  5
13D22
330
1A
100
AcDbEntity
  8
ZISSEN1
 48
0.5
100
AcDbLine
 10
-1650.313174870865
 20
2071.695975297861
 30
0.0
 11
-1651.813174870865
 21
2071.695975297861
 31
0.0
  0
LINE
  5
13D23
330
1A
100
AcDbEntity
  8
ZISSEN1
 48
0.5
100
AcDbLine
 10
-1651.813174870865
 20
2071.695975297861
 30
0.0
 11
-1650.313174870865
 21
2071.695975297861
 31
0.0
  0
LINE
  5
13D25
330
1A
100
AcDbEntity
  8
ZISSEN1
  6
DASHEDX2
 48
0.5
100
AcDbLine
 10
-1650.313174870865
 20
2063.395975297861
 30
0.0
 11
-1647.863174870865
 21
2063.395975297861
 31
0.0
  0
LINE
  5
13D2A
330
1A
100
AcDbEntity
  8
ZISSEN1
 48
0.5
100
AcDbLine
 10
-1645.813174870864
 20
2039.635975297861
 30
0.0
 11
-1645.813174870864
 21
2033.235975297861
 31
0.0
  0
LINE
  5
13D2B
330
1A
100
AcDbEntity
  8
ZISSEN1
 48
0.5
100
AcDbLine
 10
-1646.813174870866
 20
2039.635975297861
 30
0.0
 11
-1646.813174870866
 21
2033.235975297861
 31
0.0
  0
LINE
  5
13D2D
330
1A
100
AcDbEntity
  8
ZISSEN1
 48
0.5
100
AcDbLine
 10
-1639.813174870867
 20
2040.855975297861
 30
0.0
 11
-1636.013174870866
 21
2040.855975297861
 31
0.0
  0
LINE
  5
13D2E
330
1A
100
AcDbEntity
  8
ZISSEN1
 48
0.5
100
AcDbLine
 10
-1645.813174870864
 20
2037.435975297861
 30
0.0
 11
-1645.813174870864
 21
2035.435975297861
 31
0.0
  0
LINE
  5
13D33
330
1A
100
AcDbEntity
  8
ZISSEN1
 48
0.5
100
AcDbLine
 10
-1637.813174870867
 20
2040.855975297861
 30
0.0
 11
-1637.813174870866
 21
2039.635975297861
 31
0.0
  0
LINE
  5
13D36
330
1A
100
AcDbEntity
  8
ZISSEN1
 48
0.5
100
AcDbLine
 10
-1637.813174870867
 20
2040.855975297861
 30
0.0
 11
-1647.863174870865
 21
2040.855975297861
 31
0.0
  0
LINE
  5
13D37
330
1A
100
AcDbEntity
  8
ZISSEN1
 48
0.5
100
AcDbLine
 10
-1637.813174870867
 20
2039.635975297861
 30
0.0
 11
-1647.863174870865
 21
2039.635975297861
 31
0.0
  0
LINE
  5
13D49
330
1A
100
AcDbEntity
  8
ZISSEN1
 48
0.5
100
AcDbLine
 10
-1645.813174870864
 20
2024.395975297861
 30
0.0
 11
-1645.813174870864
 21
2017.995975297861
 31
0.0
  0
LINE
  5
13D53
330
1A
100
AcDbEntity
  8
ZISSEN1
 48
0.5
100
AcDbLine
 10
-1645.813174870864
 20
2032.015975297861
 30
0.0
 11
-1645.813174870864
 21
2025.615975297861
 31
0.0
  0
LINE
  5
13D55
330
1A
100
AcDbEntity
  8
ZISSEN1
 48
0.5
100
AcDbLine
 10
-1637.813174870867
 20
2017.995975297861
 30
0.0
 11
-1637.813174870867
 21
2016.775975297861
 31
0.0
  0
LINE
  5
13D56
330
1A
100
AcDbEntity
  8
ZISSEN1
 48
0.5
100
AcDbLine
 10
-1637.813174870867
 20
2025.615975297861
 30
0.0
 11
-1637.813174870867
 21
2024.395975297861
 31
0.0
  0
LINE
  5
13D57
330
1A
100
AcDbEntity
  8
ZISSEN1
 48
0.5
100
AcDbLine
 10
-1637.813174870867
 20
2033.235975297861
 30
0.0
 11
-1637.813174870867
 21
2032.015975297861
 31
0.0
  0
LINE
  5
13D58
330
1A
100
AcDbEntity
  8
ZISSEN1
 48
0.5
100
AcDbLine
 10
-1645.813174870864
 20
2024.395975297861
 30
0.0
 11
-1645.813174870864
 21
2017.995975297861
 31
0.0
  0
LINE
  5
13D59
330
1A
100
AcDbEntity
  8
ZISSEN1
 48
0.5
100
AcDbLine
 10
-1645.813174870864
 20
2032.015975297861
 30
0.0
 11
-1645.813174870864
 21
2025.615975297861
 31
0.0
  0
LINE
  5
13D5A
330
1A
100
AcDbEntity
  8
ZISSEN1
 48
0.5
100
AcDbLine
 10
-1646.813174870866
 20
2024.395975297861
 30
0.0
 11
-1646.813174870866
 21
2017.995975297861
 31
0.0
  0
LINE
  5
13D5B
330
1A
100
AcDbEntity
  8
ZISSEN1
 48
0.5
100
AcDbLine
 10
-1646.813174870866
 20
2032.015975297861
 30
0.0
 11
-1646.813174870866
 21
2025.615975297861
 31
0.0
  0
LINE
  5
13D5C
330
1A
100
AcDbEntity
  8
ZISSEN1
 48
0.5
100
AcDbLine
 10
-1637.813174870867
 20
2016.775975297861
 30
0.0
 11
-1650.313174870865
 21
2016.775975297861
 31
0.0
  0
LINE
  5
13D5D
330
1A
100
AcDbEntity
  8
ZISSEN1
 48
0.5
100
AcDbLine
 10
-1637.813174870867
 20
2033.235975297861
 30
0.0
 11
-1647.863174870865
 21
2033.235975297861
 31
0.0
  0
LINE
  5
13D5E
330
1A
100
AcDbEntity
  8
ZISSEN1
 48
0.5
100
AcDbLine
 10
-1637.813174870867
 20
2032.015975297861
 30
0.0
 11
-1647.863174870865
 21
2032.015975297861
 31
0.0
  0
LINE
  5
13D5F
330
1A
100
AcDbEntity
  8
ZISSEN1
 48
0.5
100
AcDbLine
 10
-1637.813174870867
 20
2025.615975297861
 30
0.0
 11
-1650.313174870865
 21
2025.615975297861
 31
0.0
  0
LINE
  5
13D60
330
1A
100
AcDbEntity
  8
ZISSEN1
 48
0.5
100
AcDbLine
 10
-1637.813174870866
 20
2024.395975297861
 30
0.0
 11
-1650.313174870865
 21
2024.395975297861
 31
0.0
  0
LINE
  5
13D61
330
1A
100
AcDbEntity
  8
ZISSEN1
 48
0.5
100
AcDbLine
 10
-1637.813174870866
 20
2017.995975297861
 30
0.0
 11
-1650.313174870865
 21
2017.995975297861
 31
0.0
  0
ARC
  5
13D64
330
1A
100
AcDbEntity
  8
ZISSEN1
 48
0.5
100
AcDbCircle
 10
-1581.240100336319
 20
2071.695975297861
 30
0.0
 40
1.5
100
AcDbArc
 50
270.0
 51
0.0
  0
ARC
  5
13D65
330
1A
100
AcDbEntity
  8
ZISSEN1
 48
0.5
100
AcDbCircle
 10
-1579.740100336319
 20
2070.195975297861
 30
0.0
 40
1.499999999999943
100
AcDbArc
 50
89.99999999999998
 51
180.0
  0
DIMENSION
  5
13D66
330
1A
100
AcDbEntity
  8
SUNPOU
 48
0.5
100
AcDbDimension
  2
*D8
 10
-1568.490100336319
 20
2091.695975297861
 30
0.0
 11
-1578.990100336319
 21
2094.445975297861
 31
0.0
 70
    32
 71
     5
 42
-1.0
  3
標準スタイル
100
AcDbAlignedDimension
 13
-1563.990100336319
 23
2081.695975297861
 33
0.0
 14
-1568.490100336319
 24
2081.695975297861
 34
0.0
100
AcDbRotatedDimension
1001
ACAD
1000
DSTYLE
1002
{
1070
   340
1005
10
1070
    40
1040
1.0
1002
}
  0
LINE
  5
13D67
330
1A
100
AcDbEntity
  8
ZISSEN1
 48
0.5
100
AcDbLine
 10
-1581.240100336319
 20
2023.545975297861
 30
0.0
 11
-1581.240100336319
 21
2029.845975297861
 31
0.0
  0
ARC
  5
13D68
330
1A
100
AcDbEntity
  8
ZISSEN1
 48
0.5
100
AcDbCircle
 10
-1578.06547134772
 20
2026.695975297861
 30
0.0
 40
5.17462898859842
100
AcDbArc
 50
143.7083018726678
 51
216.2916981273321
  0
LINE
  5
13D69
330
1A
100
AcDbEntity
  8
ZISSEN1
 48
0.5
100
AcDbLine
 10
-1581.240100336319
 20
2023.545975297861
 30
0.0
 11
-1582.236295034411
 21
2023.633131040607
 31
0.0
  0
LINE
  5
13D6A
330
1A
100
AcDbEntity
  8
ZISSEN1
 48
0.5
100
AcDbLine
 10
-1581.240100336319
 20
2029.845975297861
 30
0.0
 11
-1582.236295034411
 21
2029.758819555112
 31
0.0
  0
LINE
  5
13D6B
330
1A
100
AcDbEntity
  8
ZISSEN1
 48
0.5
100
AcDbLine
 10
-1581.240100336319
 20
2029.845975297861
 30
0.0
 11
-1581.240100336319
 21
2023.545975297861
 31
0.0
  0
LINE
  5
13D6C
330
1A
100
AcDbEntity
  8
ZISSEN1
 48
0.5
100
AcDbLine
 10
-1572.240100336319
 20
2065.19597529786
 30
0.0
 11
-1572.240100336319
 21
2030.195975297861
 31
0.0
  0
LINE
  5
13D6D
330
1A
100
AcDbEntity
  8
ZISSEN1
 48
0.5
100
AcDbLine
 10
-1531.740100336319
 20
2059.34597529786
 30
0.0
 11
-1531.740100336319
 21
2053.04597529786
 31
0.0
  0
ARC
  5
13D6E
330
1A
100
AcDbEntity
  8
ZISSEN1
 48
0.5
100
AcDbCircle
 10
-1534.914729324917
 20
2056.19597529786
 30
0.0
 40
5.17462898859842
100
AcDbArc
 50
323.7083018726678
 51
36.29169812733217
  0
LINE
  5
13D6F
330
1A
100
AcDbEntity
  8
ZISSEN1
 48
0.5
100
AcDbLine
 10
-1531.740100336318
 20
2053.04597529786
 30
0.0
 11
-1531.740100336318
 21
2059.345975297861
 31
0.0
  0
LWPOLYLINE
  5
13D70
330
1A
100
AcDbEntity
  8
ZISSEN1
 48
0.5
100
AcDbPolyline
 90
        4
 70
     1
 43
0.0
 10
-1562.740100336319
 20
2065.19597529786
 10
-1562.740100336319
 20
2030.195975297861
 10
-1572.740100336319
 20
2030.195975297861
 10
-1572.740100336319
 20
2065.19597529786
  0
LINE
  5
13D78
330
1A
100
AcDbEntity
  8
ZISSEN1
 48
0.5
100
AcDbLine
 10
-1563.990100336319
 20
2081.695975297861
 30
0.0
 11
-1540.740100336319
 21
2081.695975297861
 31
0.0
  0
LINE
  5
13D79
330
1A
100
AcDbEntity
  8
ZISSEN1
 48
0.5
100
AcDbLine
 10
-1534.24010033632
 20
2071.695975297861
 30
0.0
 11
-1579.740100336319
 21
2071.695975297861
 31
0.0
  0
LINE
  5
13D7A
330
1A
100
AcDbEntity
  8
CL1
 48
0.5
100
AcDbLine
 10
-1549.740100336319
 20
2076.695975297861
 30
0.0
 11
-1542.740100336319
 21
2076.695975297861
 31
0.0
  0
ARC
  5
13D7B
330
1A
100
AcDbEntity
  8
ZISSEN1
 48
0.5
100
AcDbCircle
 10
-1566.24010033632
 20
2076.19597529786
 30
0.0
 40
2.25000000000005
100
AcDbArc
 50
180.0
 51
1.432096184177975
  0
CIRCLE
  5
13D7C
330
1A
100
AcDbEntity
  8
ZISSEN1
 48
0.5
100
AcDbCircle
 10
-1546.240100336319
 20
2076.695975297861
 30
0.0
 40
2.25
  0
LINE
  5
13D7D
330
1A
100
AcDbEntity
  8
ZISSEN1
 48
0.5
100
AcDbLine
 10
-1563.990100336319
 20
2076.19597529786
 30
0.0
 11
-1563.990100336319
 21
2081.695975297861
 31
0.0
  0
LINE
  5
13D7E
330
1A
100
AcDbEntity
  8
ZISSEN1
 48
0.5
100
AcDbLine
 10
-1568.490100336319
 20
2081.695975297861
 30
0.0
 11
-1568.490100336319
 21
2076.19597529786
 31
0.0
  0
LINE
  5
13D7F
330
1A
100
AcDbEntity
  8
ZISSEN1
 48
0.5
100
AcDbLine
 10
-1573.740100336319
 20
2071.695975297861
 30
0.0
 11
-1573.740100336319
 21
2079.69597529786
 31
0.0
  0
LINE
  5
13D80
330
1A
100
AcDbEntity
  8
CL1
 48
0.5
100
AcDbLine
 10
-1566.24010033632
 20
2073.195975297861
 30
0.0
 11
-1566.24010033632
 21
2080.195975297861
 31
0.0
  0
LINE
  5
13D81
330
1A
100
AcDbEntity
  8
CL1
 48
0.5
100
AcDbLine
 10
-1546.240100336319
 20
2073.195975297861
 30
0.0
 11
-1546.240100336319
 21
2080.195975297861
 31
0.0
  0
LINE
  5
13D82
330
1A
100
AcDbEntity
  8
ZISSEN1
 48
0.5
100
AcDbLine
 10
-1571.740100336319
 20
2081.695975297861
 30
0.0
 11
-1568.490100336319
 21
2081.695975297861
 31
0.0
  0
LINE
  5
13D83
330
1A
100
AcDbEntity
  8
ZISSEN1
 48
0.5
100
AcDbLine
 10
-1573.740100336319
 20
2079.69597529786
 30
0.0
 11
-1571.740100336319
 21
2081.695975297861
 31
0.0
  0
LINE
  5
13D87
330
1A
100
AcDbEntity
  8
CL1
 48
0.5
100
AcDbLine
 10
-1569.74010033632
 20
2076.695975297861
 30
0.0
 11
-1562.740100336319
 21
2076.695975297861
 31
0.0
  0
LINE
  5
13D91
330
1A
100
AcDbEntity
  8
ZISSEN1
 48
0.5
100
AcDbLine
 10
-1538.740100336319
 20
2079.69597529786
 30
0.0
 11
-1538.740100336319
 21
2071.695975297861
 31
0.0
  0
DIMENSION
  5
13D92
330
1A
100
AcDbEntity
  8
SUNPOU
 48
0.5
100
AcDbDimension
  2
*D9
 10
-1518.747664111188
 20
2076.695975297861
 30
0.0
 11
-1518.747664111188
 21
2092.19597529786
 31
0.0
 70
   160
  1
(<>)
 71
     5
 42
-1.0
  3
標準スタイル
100
AcDbAlignedDimension
 13
-1540.740100336319
 23
2081.695975297861
 33
0.0
 14
-1542.740100336319
 24
2076.695975297861
 34
0.0
 50
270.0
100
AcDbRotatedDimension
1001
ACAD
1000
DSTYLE
1002
{
1070
   340
1005
10
1070
    40
1040
1.0
1002
}
  0
LINE
  5
13D93
330
1A
100
AcDbEntity
  8
ZISSEN1
 48
0.5
100
AcDbLine
 10
-1540.740100336319
 20
2081.695975297861
 30
0.0
 11
-1538.740100336319
 21
2079.69597529786
 31
0.0
  0
LINE
  5
13D94
330
1A
100
AcDbEntity
  8
ZISSEN1
 48
0.5
100
AcDbLine
 10
-1531.740100336318
 20
2059.345975297861
 30
0.0
 11
-1530.743905638226
 21
2059.258819555112
 31
0.0
  0
LINE
  5
13D95
330
1A
100
AcDbEntity
  8
ZISSEN1
 48
0.5
100
AcDbLine
 10
-1531.240100336319
 20
2061.69597529786
 30
0.0
 11
-1532.740100336319
 21
2061.69597529786
 31
0.0
  0
LINE
  5
13D96
330
1A
100
AcDbEntity
  8
ZISSEN1
 48
0.5
100
AcDbLine
 10
-1533.240100336319
 20
2061.195975297861
 30
0.0
 11
-1531.740100336319
 21
2061.195975297861
 31
0.0
  0
ARC
  5
13D97
330
1A
100
AcDbEntity
  8
ZISSEN1
 48
0.5
100
AcDbCircle
 10
-1532.740100336319
 20
2070.195975297861
 30
0.0
 40
1.500000000000226
100
AcDbArc
 50
0.0
 51
89.99999999998696
  0
LINE
  5
13D98
330
1A
100
AcDbEntity
  8
ZISSEN1
 48
0.5
100
AcDbLine
 10
-1532.740100336319
 20
2070.195975297861
 30
0.0
 11
-1533.240100336319
 21
2070.195975297861
 31
0.0
  0
LINE
  5
13D99
330
1A
100
AcDbEntity
  8
ZISSEN1
 48
0.5
100
AcDbLine
 10
-1532.740100336319
 20
2061.195975297861
 30
0.0
 11
-1532.740100336319
 21
2070.195975297861
 31
0.0
  0
LINE
  5
13D9A
330
1A
100
AcDbEntity
  8
ZISSEN1
 48
0.5
100
AcDbLine
 10
-1531.240100336319
 20
2060.695975297861
 30
0.0
 11
-1531.740100336319
 21
2060.695975297861
 31
0.0
  0
LINE
  5
13D9B
330
1A
100
AcDbEntity
  8
ZISSEN1
 48
0.5
100
AcDbLine
 10
-1531.240100336319
 20
2070.195975297861
 30
0.0
 11
-1531.240100336319
 21
2060.695975297861
 31
0.0
  0
LINE
  5
13D9C
330
1A
100
AcDbEntity
  8
ZISSEN1
 48
0.5
100
AcDbLine
 10
-1534.24010033632
 20
2071.695975297861
 30
0.0
 11
-1532.740100336319
 21
2071.695975297861
 31
0.0
  0
LINE
  5
13D9D
330
1A
100
AcDbEntity
  8
ZISSEN1
 48
0.5
100
AcDbLine
 10
-1533.240100336319
 20
2070.69597529786
 30
0.0
 11
-1533.240100336319
 21
2061.195975297861
 31
0.0
  0
LINE
  5
13D9E
330
1A
100
AcDbEntity
  8
ZISSEN1
 48
0.5
100
AcDbLine
 10
-1536.240100336319
 20
2071.695975297861
 30
0.0
 11
-1536.740100336319
 21
2071.695975297861
 31
0.0
  0
LINE
  5
13D9F
330
1A
100
AcDbEntity
  8
ZISSEN1
 48
0.5
100
AcDbLine
 10
-1534.24010033632
 20
2071.695975297861
 30
0.0
 11
-1533.240100336319
 21
2070.69597529786
 31
0.0
  0
LINE
  5
13DA0
330
1A
100
AcDbEntity
  8
ZISSEN1
 48
0.5
100
AcDbLine
 10
-1536.240100336319
 20
2042.695975297861
 30
0.0
 11
-1550.740100336319
 21
2042.695975297861
 31
0.0
  0
LINE
  5
13DA2
330
1A
100
AcDbEntity
  8
ZISSEN1
100
AcDbLine
 10
-1550.140100336319
 20
2016.77597529786
 30
0.0
 11
-1538.140100336319
 21
2016.77597529786
 31
0.0
  0
LINE
  5
13DA3
330
1A
100
AcDbEntity
  8
ZISSEN1
100
AcDbLine
 10
-1550.140100336319
 20
2016.77597529786
 30
0.0
 11
-1538.140100336319
 21
2016.77597529786
 31
0.0
  0
LINE
  5
13DA4
330
1A
100
AcDbEntity
  8
ZISSEN1
100
AcDbLine
 10
-1550.140100336319
 20
2016.77597529786
 30
0.0
 11
-1538.140100336319
 21
2016.77597529786
 31
0.0
  0
CIRCLE
  5
13DAA
330
1A
100
AcDbEntity
  8
ZISSEN1
100
AcDbCircle
 10
-1544.640100336319
 20
2021.19597529786
 30
0.0
 40
2.75
  0
LINE
  5
13DAB
330
1A
100
AcDbEntity
  8
ZISSEN1
100
AcDbLine
 10
-1550.140100336319
 20
2024.395975297859
 30
0.0
 11
-1538.140100336319
 21
2024.395975297859
 31
0.0
  0
LINE
  5
13DAC
330
1A
100
AcDbEntity
  8
ZISSEN1
100
AcDbLine
 10
-1550.140100336319
 20
2017.995975297861
 30
0.0
 11
-1538.140100336319
 21
2017.995975297861
 31
0.0
  0
LINE
  5
13DAD
330
1A
100
AcDbEntity
  8
ZISSEN1
100
AcDbLine
 10
-1550.140100336319
 20
2017.995975297861
 30
0.0
 11
-1538.140100336319
 21
2017.995975297861
 31
0.0
  0
LINE
  5
13DAE
330
1A
100
AcDbEntity
  8
ZISSEN1
100
AcDbLine
 10
-1550.140100336319
 20
2024.395975297859
 30
0.0
 11
-1538.140100336319
 21
2024.395975297859
 31
0.0
  0
CIRCLE
  5
13DB4
330
1A
100
AcDbEntity
  8
ZISSEN1
100
AcDbCircle
 10
-1544.640100336319
 20
2028.81597529786
 30
0.0
 40
2.75
  0
LINE
  5
13DB5
330
1A
100
AcDbEntity
  8
ZISSEN1
100
AcDbLine
 10
-1550.140100336319
 20
2032.015975297861
 30
0.0
 11
-1538.140100336319
 21
2032.015975297861
 31
0.0
  0
LINE
  5
13DB6
330
1A
100
AcDbEntity
  8
ZISSEN1
100
AcDbLine
 10
-1550.140100336319
 20
2025.615975297861
 30
0.0
 11
-1538.140100336319
 21
2025.615975297861
 31
0.0
  0
CIRCLE
  5
13DBC
330
1A
100
AcDbEntity
  8
ZISSEN1
100
AcDbCircle
 10
-1544.640100336319
 20
2036.43597529786
 30
0.0
 40
2.75
  0
LINE
  5
13DBD
330
1A
100
AcDbEntity
  8
ZISSEN1
100
AcDbLine
 10
-1550.140100336319
 20
2039.63597529786
 30
0.0
 11
-1538.140100336319
 21
2039.63597529786
 31
0.0
  0
LINE
  5
13DBE
330
1A
100
AcDbEntity
  8
ZISSEN1
100
AcDbLine
 10
-1550.140100336319
 20
2016.77597529786
 30
0.0
 11
-1538.140100336319
 21
2016.77597529786
 31
0.0
  0
LINE
  5
13DBF
330
1A
100
AcDbEntity
  8
ZISSEN1
100
AcDbLine
 10
-1550.140100336319
 20
2017.995975297861
 30
0.0
 11
-1538.140100336319
 21
2017.995975297861
 31
0.0
  0
LINE
  5
13DC0
330
1A
100
AcDbEntity
  8
ZISSEN1
100
AcDbLine
 10
-1550.140100336319
 20
2024.395975297859
 30
0.0
 11
-1538.140100336319
 21
2024.395975297859
 31
0.0
  0
LINE
  5
13DC1
330
1A
100
AcDbEntity
  8
ZISSEN1
100
AcDbLine
 10
-1550.140100336319
 20
2025.615975297861
 30
0.0
 11
-1538.140100336319
 21
2025.615975297861
 31
0.0
  0
LINE
  5
13DC2
330
1A
100
AcDbEntity
  8
ZISSEN1
100
AcDbLine
 10
-1550.140100336319
 20
2032.015975297861
 30
0.0
 11
-1538.140100336319
 21
2032.015975297861
 31
0.0
  0
LINE
  5
13DC3
330
1A
100
AcDbEntity
  8
ZISSEN1
100
AcDbLine
 10
-1550.140100336319
 20
2033.235975297861
 30
0.0
 11
-1538.140100336319
 21
2033.235975297861
 31
0.0
  0
LINE
  5
13DC4
330
1A
100
AcDbEntity
  8
ZISSEN1
100
AcDbLine
 10
-1550.140100336319
 20
2040.85597529786
 30
0.0
 11
-1538.140100336319
 21
2040.85597529786
 31
0.0
  0
LINE
  5
13DEC
330
1A
100
AcDbEntity
  8
ZISSEN1
 48
0.5
100
AcDbLine
 10
-1572.240100336319
 20
2026.195975297861
 30
0.0
 11
-1572.240100336319
 21
2020.19597529786
 31
0.0
  0
LWPOLYLINE
  5
13DED
330
1A
100
AcDbEntity
  8
ZISSEN1
 48
0.5
100
AcDbPolyline
 90
        4
 70
     1
 43
0.0
 10
-1572.740100336319
 20
2020.19597529786
 10
-1568.740100336319
 20
2020.19597529786
 10
-1568.740100336319
 20
2026.195975297861
 10
-1572.740100336319
 20
2026.195975297861
  0
LINE
  5
13DEE
330
1A
100
AcDbEntity
  8
ZISSEN1
 48
0.5
100
AcDbLine
 10
-1569.74010033632
 20
2017.195973101516
 30
0.0
 11
-1565.240100336319
 21
2017.195973101516
 31
0.0
  0
LINE
  5
13DEF
330
1A
100
AcDbEntity
  8
ZISSEN1
 48
0.5
100
AcDbLine
 10
-1567.393342794937
 20
2017.177266196856
 30
0.0
 11
-1567.426599514331
 21
2017.195973101516
 31
0.0
  0
LINE
  5
13DF0
330
1A
100
AcDbEntity
  8
ZISSEN1
 48
0.5
100
AcDbLine
 10
-1567.393342794937
 20
2017.195973101516
 30
0.0
 11
-1567.393342794937
 21
2017.177266196856
 31
0.0
  0
LINE
  5
13DF1
330
1A
100
AcDbEntity
  8
ZISSEN1
 48
0.5
100
AcDbLine
 10
-1568.6887996954
 20
2017.172719529368
 30
0.0
 11
-1568.6887996954
 21
2017.195973101516
 31
0.0
  0
LINE
  5
13DF2
330
1A
100
AcDbEntity
  8
ZISSEN1
 48
0.5
100
AcDbLine
 10
-1568.759176374768
 20
2017.172719529368
 30
0.0
 11
-1568.6887996954
 21
2017.172719529368
 31
0.0
  0
LINE
  5
13DF3
330
1A
100
AcDbEntity
  8
ZISSEN1
 48
0.5
100
AcDbLine
 10
-1568.76965203672
 20
2017.195973101516
 30
0.0
 11
-1568.759176374768
 21
2017.172719529368
 31
0.0
  0
LINE
  5
13DF4
330
1A
100
AcDbEntity
  8
ZISSEN1
 48
0.5
100
AcDbLine
 10
-1569.1433464441
 20
2017.172719529368
 30
0.0
 11
-1569.1433464441
 21
2017.195973101516
 31
0.0
  0
LINE
  5
13DF5
330
1A
100
AcDbEntity
  8
ZISSEN1
 48
0.5
100
AcDbLine
 10
-1569.188799785638
 20
2017.172719529368
 30
0.0
 11
-1569.1433464441
 21
2017.172719529368
 31
0.0
  0
LINE
  5
13DF6
330
1A
100
AcDbEntity
  8
ZISSEN1
 48
0.5
100
AcDbLine
 10
-1569.188799785638
 20
2017.195973101516
 30
0.0
 11
-1569.188799785638
 21
2017.172719529368
 31
0.0
  0
ARC
  5
13DF7
330
1A
100
AcDbEntity
  8
ZISSEN1
 48
0.5
100
AcDbCircle
 10
-1569.666073205105
 20
2017.377266232951
 30
0.0
 40
0.2045433702488207
100
AcDbArc
 50
248.7822054844925
 51
297.5842368059322
  0
ARC
  5
13DF8
330
1A
100
AcDbEntity
  8
ZISSEN1
 48
0.5
100
AcDbCircle
 10
-1569.666073205105
 20
2017.377266232951
 30
0.0
 40
0.2500000451185271
100
AcDbArc
 50
252.7759819288179
 51
313.5168090586298
  0
LINE
  5
13E09
330
1A
100
AcDbEntity
  8
ZISSEN1
  6
Continuous
100
AcDbLine
 10
-1569.1433464441
 20
2017.172719529368
 30
0.0
 11
-1569.188799785638
 21
2017.172719529368
 31
0.0
  0
LINE
  5
13E0A
330
1A
100
AcDbEntity
  8
ZISSEN1
  6
Continuous
100
AcDbLine
 10
-1568.6887996954
 20
2017.172719529368
 30
0.0
 11
-1568.759176374768
 21
2017.172719529368
 31
0.0
  0
LINE
  5
13E32
330
1A
100
AcDbEntity
  8
ZISSEN1
 48
0.5
100
AcDbLine
 10
-1538.140100336319
 20
2040.695975297861
 30
0.0
 11
-1536.54010033632
 21
2040.695975297861
 31
0.0
  0
LINE
  5
13E33
330
1A
100
AcDbEntity
  8
ZISSEN1
 48
0.5
100
AcDbLine
 10
-1538.140100336319
 20
2041.69597529786
 30
0.0
 11
-1536.54010033632
 21
2041.69597529786
 31
0.0
  0
LINE
  5
13E34
330
1A
100
AcDbEntity
  8
ZISSEN1
 48
0.5
100
AcDbLine
 10
-1531.740100336318
 20
2053.04597529786
 30
0.0
 11
-1530.743905638226
 21
2053.133131040608
 31
0.0
  0
LINE
  5
13E35
330
1A
100
AcDbEntity
  8
ZISSEN1
 48
0.5
100
AcDbLine
 10
-1536.240100336319
 20
2035.93597529786
 30
0.0
 11
-1536.54010033632
 21
2035.93597529786
 31
0.0
  0
LINE
  5
13E36
330
1A
100
AcDbEntity
  8
ZISSEN1
 48
0.5
100
AcDbLine
 10
-1536.54010033632
 20
2036.935975297859
 30
0.0
 11
-1536.240100336319
 21
2036.935975297859
 31
0.0
  0
LINE
  5
13E39
330
1A
100
AcDbEntity
  8
ZISSEN1
 48
0.5
100
AcDbLine
 10
-1536.240100336319
 20
2020.695975297861
 30
0.0
 11
-1536.54010033632
 21
2020.695975297861
 31
0.0
  0
LINE
  5
13E3A
330
1A
100
AcDbEntity
  8
ZISSEN1
 48
0.5
100
AcDbLine
 10
-1536.54010033632
 20
2021.69597529786
 30
0.0
 11
-1536.240100336319
 21
2021.69597529786
 31
0.0
  0
LINE
  5
13E3B
330
1A
100
AcDbEntity
  8
ZISSEN1
 48
0.5
100
AcDbLine
 10
-1536.240100336319
 20
2028.31597529786
 30
0.0
 11
-1536.54010033632
 21
2028.31597529786
 31
0.0
  0
LINE
  5
13E3C
330
1A
100
AcDbEntity
  8
ZISSEN1
 48
0.5
100
AcDbLine
 10
-1536.54010033632
 20
2029.315975297861
 30
0.0
 11
-1536.240100336319
 21
2029.315975297861
 31
0.0
  0
LINE
  5
13E46
330
1A
100
AcDbEntity
  8
ZISSEN1
100
AcDbLine
 10
-1639.813174870866
 20
1971.655975297861
 30
0.0
 11
-1639.813174870866
 21
1995.735975297861
 31
0.0
  0
LINE
  5
13E47
330
1A
100
AcDbEntity
  8
ZISSEN1
100
AcDbLine
 10
-1636.013174870864
 20
1971.655975297861
 30
0.0
 11
-1636.013174870864
 21
1995.735975297861
 31
0.0
  0
LINE
  5
13E48
330
1A
100
AcDbEntity
  8
ZISSEN1
100
AcDbLine
 10
-1637.813174870866
 20
1972.875975297861
 30
0.0
 11
-1637.813174870866
 21
1971.655975297861
 31
0.0
  0
LINE
  5
13E49
330
1A
100
AcDbEntity
  8
ZISSEN1
 48
0.5
100
AcDbLine
 10
-1639.813174870866
 20
1971.655975297861
 30
0.0
 11
-1639.813174870866
 21
1995.735975297861
 31
0.0
  0
LINE
  5
13E4A
330
1A
100
AcDbEntity
  8
ZISSEN1
 48
0.5
100
AcDbLine
 10
-1636.013174870864
 20
1971.655975297861
 30
0.0
 11
-1636.013174870864
 21
1995.735975297861
 31
0.0
  0
LINE
  5
13E4B
330
1A
100
AcDbEntity
  8
ZISSEN1
 48
0.5
100
AcDbLine
 10
-1637.813174870866
 20
1972.875975297861
 30
0.0
 11
-1637.813174870866
 21
1971.655975297861
 31
0.0
  0
LINE
  5
13E50
330
1A
100
AcDbEntity
  8
ZISSEN1
100
AcDbLine
 10
-1645.813174870864
 20
1994.51597529786
 30
0.0
 11
-1645.813174870864
 21
1988.115975297861
 31
0.0
  0
LINE
  5
13E51
330
1A
100
AcDbEntity
  8
ZISSEN1
100
AcDbLine
 10
-1646.813174870865
 20
1994.51597529786
 30
0.0
 11
-1646.813174870865
 21
1988.115975297861
 31
0.0
  0
LINE
  5
13E56
330
1A
100
AcDbEntity
  8
ZISSEN1
 48
0.5
100
AcDbLine
 10
-1645.813174870864
 20
1994.51597529786
 30
0.0
 11
-1645.813174870864
 21
1988.115975297861
 31
0.0
  0
LINE
  5
13E57
330
1A
100
AcDbEntity
  8
ZISSEN1
 48
0.5
100
AcDbLine
 10
-1646.813174870865
 20
1994.51597529786
 30
0.0
 11
-1646.813174870865
 21
1988.115975297861
 31
0.0
  0
LINE
  5
13E58
330
1A
100
AcDbEntity
  8
ZISSEN1
 48
0.5
100
AcDbLine
 10
-1639.813174870867
 20
2001.535975297861
 30
0.0
 11
-1636.013174870866
 21
2001.535975297861
 31
0.0
  0
LINE
  5
13E62
330
1A
100
AcDbEntity
  8
ZISSEN1
 48
0.5
100
AcDbLine
 10
-1645.813174870864
 20
2009.155975297861
 30
0.0
 11
-1645.813174870864
 21
2002.755975297862
 31
0.0
  0
LINE
  5
13E66
330
1A
100
AcDbEntity
  8
ZISSEN1
 48
0.5
100
AcDbLine
 10
-1637.813174870867
 20
2002.755975297862
 30
0.0
 11
-1637.813174870867
 21
2001.535975297861
 31
0.0
  0
LINE
  5
13E67
330
1A
100
AcDbEntity
  8
ZISSEN1
 48
0.5
100
AcDbLine
 10
-1637.813174870867
 20
2010.375975297861
 30
0.0
 11
-1637.813174870867
 21
2009.155975297861
 31
0.0
  0
LINE
  5
13E68
330
1A
100
AcDbEntity
  8
ZISSEN1
 48
0.5
100
AcDbLine
 10
-1645.813174870864
 20
2009.155975297861
 30
0.0
 11
-1645.813174870864
 21
2002.755975297862
 31
0.0
  0
LINE
  5
13E6A
330
1A
100
AcDbEntity
  8
ZISSEN1
 48
0.5
100
AcDbLine
 10
-1646.813174870866
 20
2009.155975297861
 30
0.0
 11
-1646.813174870866
 21
2002.755975297862
 31
0.0
  0
LINE
  5
13E6B
330
1A
100
AcDbEntity
  8
ZISSEN1
 48
0.5
100
AcDbLine
 10
-1637.813174870867
 20
2001.535975297861
 30
0.0
 11
-1650.313174870865
 21
2001.535975297861
 31
0.0
  0
LINE
  5
13E6C
330
1A
100
AcDbEntity
  8
ZISSEN1
 48
0.5
100
AcDbLine
 10
-1637.813174870867
 20
2002.755975297862
 30
0.0
 11
-1650.313174870865
 21
2002.755975297862
 31
0.0
  0
LINE
  5
13E6D
330
1A
100
AcDbEntity
  8
ZISSEN1
 48
0.5
100
AcDbLine
 10
-1637.813174870867
 20
2009.155975297861
 30
0.0
 11
-1650.313174870865
 21
2009.155975297861
 31
0.0
  0
LINE
  5
13E6E
330
1A
100
AcDbEntity
  8
ZISSEN1
 48
0.5
100
AcDbLine
 10
-1637.813174870867
 20
2010.375975297861
 30
0.0
 11
-1650.313174870865
 21
2010.375975297861
 31
0.0
  0
LINE
  5
13E72
330
1A
100
AcDbEntity
  8
ZISSEN1
100
AcDbLine
 10
-1639.813174870866
 20
1995.735975297861
 30
0.0
 11
-1636.013174870864
 21
1995.735975297861
 31
0.0
  0
LINE
  5
13E74
330
1A
100
AcDbEntity
  8
ZISSEN1
100
AcDbLine
 10
-1637.813174870866
 20
1995.735975297861
 30
0.0
 11
-1637.813174870865
 21
1994.51597529786
 31
0.0
  0
LINE
  5
13E77
330
1A
100
AcDbEntity
  8
ZISSEN1
100
AcDbLine
 10
-1637.813174870866
 20
1995.735975297861
 30
0.0
 11
-1650.313174870865
 21
1995.735975297861
 31
0.0
  0
LINE
  5
13E78
330
1A
100
AcDbEntity
  8
ZISSEN1
100
AcDbLine
 10
-1637.813174870866
 20
1994.51597529786
 30
0.0
 11
-1650.313174870865
 21
1994.51597529786
 31
0.0
  0
LINE
  5
13E7B
330
1A
100
AcDbEntity
  8
ZISSEN1
 48
0.5
100
AcDbLine
 10
-1639.813174870866
 20
1995.735975297861
 30
0.0
 11
-1636.013174870864
 21
1995.735975297861
 31
0.0
  0
LINE
  5
13E7D
330
1A
100
AcDbEntity
  8
ZISSEN1
 48
0.5
100
AcDbLine
 10
-1637.813174870866
 20
1995.735975297861
 30
0.0
 11
-1637.813174870865
 21
1994.51597529786
 31
0.0
  0
LINE
  5
13E7F
330
1A
100
AcDbEntity
  8
ZISSEN1
 48
0.5
100
AcDbLine
 10
-1637.813174870866
 20
1995.735975297861
 30
0.0
 11
-1650.313174870865
 21
1995.735975297861
 31
0.0
  0
LINE
  5
13E80
330
1A
100
AcDbEntity
  8
ZISSEN1
 48
0.5
100
AcDbLine
 10
-1637.813174870866
 20
1994.51597529786
 30
0.0
 11
-1650.313174870865
 21
1994.51597529786
 31
0.0
  0
LINE
  5
13E81
330
1A
100
AcDbEntity
  8
ZISSEN1
 48
0.5
100
AcDbLine
 10
-1637.813174870865
 20
1988.115975297861
 30
0.0
 11
-1650.313174870865
 21
1988.115975297861
 31
0.0
  0
LINE
  5
13E82
330
1A
100
AcDbEntity
  8
ZISSEN1
 48
0.5
100
AcDbLine
 10
-1637.813174870865
 20
1986.89597529786
 30
0.0
 11
-1650.313174870865
 21
1986.89597529786
 31
0.0
  0
LINE
  5
13E83
330
1A
100
AcDbEntity
  8
ZISSEN1
 48
0.5
100
AcDbLine
 10
-1637.813174870865
 20
1980.495975297861
 30
0.0
 11
-1650.313174870865
 21
1980.495975297861
 31
0.0
  0
LINE
  5
13E92
330
1A
100
AcDbEntity
  8
ZISSEN1
100
AcDbLine
 10
-1645.813174870864
 20
1977.07597529786
 30
0.0
 11
-1645.813174870864
 21
1975.07597529786
 31
0.0
  0
LINE
  5
13E9A
330
1A
100
AcDbEntity
  8
ZISSEN1
100
AcDbLine
 10
-1645.813174870864
 20
1979.27597529786
 30
0.0
 11
-1645.813174870864
 21
1972.875975297861
 31
0.0
  0
LINE
  5
13E9B
330
1A
100
AcDbEntity
  8
ZISSEN1
100
AcDbLine
 10
-1645.813174870864
 20
1984.69597529786
 30
0.0
 11
-1645.813174870864
 21
1982.69597529786
 31
0.0
  0
LINE
  5
13EA3
330
1A
100
AcDbEntity
  8
ZISSEN1
100
AcDbLine
 10
-1645.813174870864
 20
1986.89597529786
 30
0.0
 11
-1645.813174870864
 21
1980.495975297861
 31
0.0
  0
LINE
  5
13EA4
330
1A
100
AcDbEntity
  8
ZISSEN1
100
AcDbLine
 10
-1645.813174870864
 20
1992.31597529786
 30
0.0
 11
-1645.813174870864
 21
1990.31597529786
 31
0.0
  0
LINE
  5
13EA9
330
1A
100
AcDbEntity
  8
ZISSEN1
100
AcDbLine
 10
-1637.813174870866
 20
1980.495975297861
 30
0.0
 11
-1637.813174870866
 21
1979.27597529786
 31
0.0
  0
LINE
  5
13EAA
330
1A
100
AcDbEntity
  8
ZISSEN1
100
AcDbLine
 10
-1637.813174870866
 20
1988.115975297861
 30
0.0
 11
-1637.813174870866
 21
1986.89597529786
 31
0.0
  0
LINE
  5
13EAB
330
1A
100
AcDbEntity
  8
ZISSEN1
100
AcDbLine
 10
-1645.813174870864
 20
1979.27597529786
 30
0.0
 11
-1645.813174870864
 21
1972.875975297861
 31
0.0
  0
LINE
  5
13EAC
330
1A
100
AcDbEntity
  8
ZISSEN1
100
AcDbLine
 10
-1645.813174870864
 20
1986.89597529786
 30
0.0
 11
-1645.813174870864
 21
1980.495975297861
 31
0.0
  0
LINE
  5
13EAD
330
1A
100
AcDbEntity
  8
ZISSEN1
100
AcDbLine
 10
-1646.813174870865
 20
1979.27597529786
 30
0.0
 11
-1646.813174870865
 21
1972.875975297861
 31
0.0
  0
LINE
  5
13EAE
330
1A
100
AcDbEntity
  8
ZISSEN1
100
AcDbLine
 10
-1646.813174870865
 20
1986.89597529786
 30
0.0
 11
-1646.813174870865
 21
1980.495975297861
 31
0.0
  0
LINE
  5
13EAF
330
1A
100
AcDbEntity
  8
ZISSEN1
100
AcDbLine
 10
-1637.813174870865
 20
1972.875975297861
 30
0.0
 11
-1650.313174870865
 21
1972.875975297861
 31
0.0
  0
LINE
  5
13EB0
330
1A
100
AcDbEntity
  8
ZISSEN1
100
AcDbLine
 10
-1637.813174870865
 20
1979.27597529786
 30
0.0
 11
-1650.313174870865
 21
1979.27597529786
 31
0.0
  0
LINE
  5
13EB1
330
1A
100
AcDbEntity
  8
ZISSEN1
100
AcDbLine
 10
-1637.813174870865
 20
1988.115975297861
 30
0.0
 11
-1650.313174870865
 21
1988.115975297861
 31
0.0
  0
LINE
  5
13EB2
330
1A
100
AcDbEntity
  8
ZISSEN1
100
AcDbLine
 10
-1637.813174870865
 20
1986.89597529786
 30
0.0
 11
-1650.313174870865
 21
1986.89597529786
 31
0.0
  0
LINE
  5
13EB3
330
1A
100
AcDbEntity
  8
ZISSEN1
100
AcDbLine
 10
-1637.813174870865
 20
1980.495975297861
 30
0.0
 11
-1650.313174870865
 21
1980.495975297861
 31
0.0
  0
LINE
  5
13EC2
330
1A
100
AcDbEntity
  8
ZISSEN1
 48
0.5
100
AcDbLine
 10
-1645.813174870864
 20
1977.07597529786
 30
0.0
 11
-1645.813174870864
 21
1975.07597529786
 31
0.0
  0
LINE
  5
13ECA
330
1A
100
AcDbEntity
  8
ZISSEN1
 48
0.5
100
AcDbLine
 10
-1645.813174870864
 20
1979.27597529786
 30
0.0
 11
-1645.813174870864
 21
1972.875975297861
 31
0.0
  0
LINE
  5
13ECB
330
1A
100
AcDbEntity
  8
ZISSEN1
 48
0.5
100
AcDbLine
 10
-1645.813174870864
 20
1984.69597529786
 30
0.0
 11
-1645.813174870864
 21
1982.69597529786
 31
0.0
  0
LINE
  5
13ED3
330
1A
100
AcDbEntity
  8
ZISSEN1
 48
0.5
100
AcDbLine
 10
-1645.813174870864
 20
1986.89597529786
 30
0.0
 11
-1645.813174870864
 21
1980.495975297861
 31
0.0
  0
LINE
  5
13ED4
330
1A
100
AcDbEntity
  8
ZISSEN1
 48
0.5
100
AcDbLine
 10
-1645.813174870864
 20
1992.31597529786
 30
0.0
 11
-1645.813174870864
 21
1990.31597529786
 31
0.0
  0
LINE
  5
13ED9
330
1A
100
AcDbEntity
  8
ZISSEN1
 48
0.5
100
AcDbLine
 10
-1637.813174870866
 20
1980.495975297861
 30
0.0
 11
-1637.813174870866
 21
1979.27597529786
 31
0.0
  0
LINE
  5
13EDA
330
1A
100
AcDbEntity
  8
ZISSEN1
 48
0.5
100
AcDbLine
 10
-1637.813174870866
 20
1988.115975297861
 30
0.0
 11
-1637.813174870866
 21
1986.89597529786
 31
0.0
  0
LINE
  5
13EDB
330
1A
100
AcDbEntity
  8
ZISSEN1
 48
0.5
100
AcDbLine
 10
-1645.813174870864
 20
1979.27597529786
 30
0.0
 11
-1645.813174870864
 21
1972.875975297861
 31
0.0
  0
LINE
  5
13EDC
330
1A
100
AcDbEntity
  8
ZISSEN1
 48
0.5
100
AcDbLine
 10
-1645.813174870864
 20
1986.89597529786
 30
0.0
 11
-1645.813174870864
 21
1980.495975297861
 31
0.0
  0
LINE
  5
13EDD
330
1A
100
AcDbEntity
  8
ZISSEN1
 48
0.5
100
AcDbLine
 10
-1646.813174870865
 20
1979.27597529786
 30
0.0
 11
-1646.813174870865
 21
1972.875975297861
 31
0.0
  0
LINE
  5
13EDE
330
1A
100
AcDbEntity
  8
ZISSEN1
 48
0.5
100
AcDbLine
 10
-1646.813174870865
 20
1986.89597529786
 30
0.0
 11
-1646.813174870865
 21
1980.495975297861
 31
0.0
  0
LINE
  5
13EDF
330
1A
100
AcDbEntity
  8
ZISSEN1
 48
0.5
100
AcDbLine
 10
-1637.813174870865
 20
1972.875975297861
 30
0.0
 11
-1650.313174870865
 21
1972.875975297861
 31
0.0
  0
LINE
  5
13EE0
330
1A
100
AcDbEntity
  8
ZISSEN1
 48
0.5
100
AcDbLine
 10
-1637.813174870865
 20
1979.27597529786
 30
0.0
 11
-1650.313174870865
 21
1979.27597529786
 31
0.0
  0
DIMENSION
  5
13EE1
330
1A
100
AcDbEntity
  8
SUNPOU
 48
0.5
100
AcDbDimension
  2
*D10
 10
-1635.813174870865
 20
1941.695975297861
 30
0.0
 11
-1624.813174870865
 21
1944.445975297861
 31
0.0
 70
    32
  1
(<>)
 71
     5
 42
-1.0
  3
標準スタイル
100
AcDbAlignedDimension
 13
-1650.313174870865
 23
1961.69597529786
 33
0.0
 14
-1635.813174870865
 24
1970.65597529786
 34
0.0
100
AcDbRotatedDimension
1001
ACAD
1000
DSTYLE
1002
{
1070
   340
1005
10
1070
    40
1040
1.0
1002
}
  0
LINE
  5
13EE3
330
1A
100
AcDbEntity
  8
ZISSEN1
 48
0.5
100
AcDbLine
 10
-1650.313174870865
 20
1961.69597529786
 30
0.0
 11
-1651.813174870865
 21
1961.69597529786
 31
0.0
  0
LINE
  5
13EE4
330
1A
100
AcDbEntity
  8
ZISSEN1
100
AcDbLine
 10
-1639.813174870866
 20
1971.655975297861
 30
0.0
 11
-1636.013174870864
 21
1971.655975297861
 31
0.0
  0
LINE
  5
13EE6
330
1A
100
AcDbEntity
  8
ZISSEN1
100
AcDbLine
 10
-1637.813174870865
 20
1971.655975297861
 30
0.0
 11
-1650.313174870865
 21
1971.655975297861
 31
0.0
  0
LINE
  5
13EE8
330
1A
100
AcDbEntity
  8
ZISSEN1
 48
0.5
100
AcDbLine
 10
-1639.813174870866
 20
1971.655975297861
 30
0.0
 11
-1636.013174870864
 21
1971.655975297861
 31
0.0
  0
LINE
  5
13EEA
330
1A
100
AcDbEntity
  8
ZISSEN1
 48
0.5
100
AcDbLine
 10
-1637.813174870865
 20
1971.655975297861
 30
0.0
 11
-1650.313174870865
 21
1971.655975297861
 31
0.0
  0
DIMENSION
  5
13EEB
330
1A
100
AcDbEntity
  8
SUNPOU
 48
0.5
100
AcDbDimension
  2
*D11
 10
-1584.24010033632
 20
1911.695975297861
 30
0.0
 11
-1556.490100336319
 21
1914.44597529786
 31
0.0
 70
    32
  1
(<>)
 71
     5
 42
-1.0
  3
標準スタイル
100
AcDbAlignedDimension
 13
-1528.740100336319
 23
1986.19597529786
 33
0.0
 14
-1584.24010033632
 24
1981.695975297861
 34
0.0
100
AcDbRotatedDimension
1001
ACAD
1000
DSTYLE
1002
{
1070
   340
1005
10
1070
    40
1040
1.0
1002
}
  0
DIMENSION
  5
13EED
330
1A
100
AcDbEntity
  8
SUNPOU
 48
0.5
100
AcDbDimension
  2
*D12
 10
-1528.740100336319
 20
1921.695975297861
 30
0.0
 11
-1518.240100336319
 21
1924.445975297861
 31
0.0
 70
    32
  1
(<>)
 71
     5
 42
-1.0
  3
標準スタイル
100
AcDbAlignedDimension
 13
-1531.740100336319
 23
1981.19597529786
 33
0.0
 14
-1528.740100336319
 24
1986.19597529786
 34
0.0
100
AcDbRotatedDimension
1001
ACAD
1000
DSTYLE
1002
{
1070
   340
1005
10
1070
    40
1040
1.0
1002
}
  0
DIMENSION
  5
13EEE
330
1A
100
AcDbEntity
  8
SUNPOU
 48
0.5
100
AcDbDimension
  2
*D13
 10
-1581.240100336338
 20
1921.695975297861
 30
0.0
 11
-1556.490100336329
 21
1924.445975297861
 31
0.0
 70
    32
 71
     5
 42
-1.0
  3
標準スタイル
100
AcDbAlignedDimension
 13
-1531.740100336319
 23
1981.19597529786
 33
0.0
 14
-1581.240100336338
 24
1963.19597529786
 34
0.0
100
AcDbRotatedDimension
1001
ACAD
1000
DSTYLE
1002
{
1070
   340
1005
10
1070
    40
1040
1.0
1002
}
  0
ARC
  5
13EEF
330
1A
100
AcDbEntity
  8
ZISSEN1
 48
0.5
100
AcDbCircle
 10
-1581.240100336319
 20
1961.69597529786
 30
0.0
 40
1.5
100
AcDbArc
 50
0.0
 51
89.99999999998696
  0
ARC
  5
13EF0
330
1A
100
AcDbEntity
  8
ZISSEN1
 48
0.5
100
AcDbCircle
 10
-1579.740100336319
 20
1963.19597529786
 30
0.0
 40
1.499999999999885
100
AcDbArc
 50
180.0
 51
270.0
  0
LINE
  5
13EF2
330
1A
100
AcDbEntity
  8
ZISSEN1
 48
0.5
100
AcDbLine
 10
-1581.240100336319
 20
1978.545975297861
 30
0.0
 11
-1581.240100336319
 21
1984.845975297861
 31
0.0
  0
ARC
  5
13EF3
330
1A
100
AcDbEntity
  8
ZISSEN1
 48
0.5
100
AcDbCircle
 10
-1578.06547134772
 20
1981.695975297861
 30
0.0
 40
5.17462898859842
100
AcDbArc
 50
143.7083018726678
 51
216.2916981273321
  0
LINE
  5
13EF4
330
1A
100
AcDbEntity
  8
ZISSEN1
 48
0.5
100
AcDbLine
 10
-1581.240100336319
 20
1978.545975297861
 30
0.0
 11
-1582.236295034411
 21
1978.633131040608
 31
0.0
  0
LINE
  5
13EF5
330
1A
100
AcDbEntity
  8
ZISSEN1
 48
0.5
100
AcDbLine
 10
-1581.240100336319
 20
1984.84597529786
 30
0.0
 11
-1582.236295034411
 21
1984.758819555112
 31
0.0
  0
LINE
  5
13EF6
330
1A
100
AcDbEntity
  8
ZISSEN1
 48
0.5
100
AcDbLine
 10
-1581.240100336319
 20
1984.84597529786
 30
0.0
 11
-1581.240100336319
 21
1978.545975297861
 31
0.0
  0
LINE
  5
13EF7
330
1A
100
AcDbEntity
  8
ZISSEN1
 48
0.5
100
AcDbLine
 10
-1546.140100336319
 20
1969.695975297861
 30
0.0
 11
-1546.140100336319
 21
1997.695975297861
 31
0.0
  0
LINE
  5
13EF8
330
1A
100
AcDbEntity
  8
ZISSEN1
 48
0.5
100
AcDbLine
 10
-1547.740100336319
 20
1997.695975297861
 30
0.0
 11
-1547.740100336319
 21
1969.695975297861
 31
0.0
  0
LINE
  5
13EF9
330
1A
100
AcDbEntity
  8
ZISSEN1
 48
0.5
100
AcDbLine
 10
-1570.740100336319
 20
1968.195975297861
 30
0.0
 11
-1570.740100336319
 21
1991.195973101516
 31
0.0
  0
LWPOLYLINE
  5
13EFA
330
1A
100
AcDbEntity
  8
ZISSEN1
 48
0.5
100
AcDbPolyline
 90
        4
 70
     1
 43
0.0
 10
-1545.74010033632
 20
1969.695975297861
 10
-1545.74010033632
 20
1997.695975297861
 10
-1560.240100336319
 20
1997.695975297861
 10
-1560.240100336319
 20
1969.695975297861
  0
LINE
  5
13EFB
330
1A
100
AcDbEntity
  8
ZISSEN1
 48
0.5
100
AcDbLine
 10
-1533.240100336319
 20
1981.19597529786
 30
0.0
 11
-1533.240100336319
 21
1962.695975297861
 31
0.0
  0
DIMENSION
  5
13EFC
330
1A
100
AcDbEntity
  8
SUNPOU
 48
0.5
100
AcDbDimension
  2
*D14
 10
-1546.240100336319
 20
1931.695975297861
 30
0.0
 11
-1538.990100336319
 21
1934.445975297861
 31
0.0
 70
    32
 71
     5
 42
-1.0
  3
標準スタイル
100
AcDbAlignedDimension
 13
-1531.740100336319
 23
1981.19597529786
 33
0.0
 14
-1546.240100336319
 24
1953.195975297861
 34
0.0
100
AcDbRotatedDimension
1001
ACAD
1000
DSTYLE
1002
{
1070
   340
1005
10
1070
    40
1040
1.0
1002
}
  0
LWPOLYLINE
  5
13F06
330
1A
100
AcDbEntity
  8
ZISSEN1
100
AcDbPolyline
 90
        4
 70
     1
 43
0.0
 10
-1559.740100336319
 20
1996.732686681307
 10
-1559.740100336319
 20
1970.659263914413
 10
-1547.740100336319
 20
1970.659263914413
 10
-1547.740100336319
 20
1996.732686681307
  0
LINE
  5
13F07
330
1A
100
AcDbEntity
  8
ZISSEN1
 48
0.5
100
AcDbLine
 10
-1536.240100336319
 20
1999.695975297861
 30
0.0
 11
-1550.740100336319
 21
1999.695975297861
 31
0.0
  0
CIRCLE
  5
13F0D
330
1A
100
AcDbEntity
  8
ZISSEN1
100
AcDbCircle
 10
-1544.640100336319
 20
2005.955975297859
 30
0.0
 40
2.75
  0
LINE
  5
13F0E
330
1A
100
AcDbEntity
  8
ZISSEN1
100
AcDbLine
 10
-1550.140100336319
 20
2009.155975297861
 30
0.0
 11
-1538.140100336319
 21
2009.155975297861
 31
0.0
  0
LINE
  5
13F0F
330
1A
100
AcDbEntity
  8
ZISSEN1
100
AcDbLine
 10
-1550.140100336319
 20
2002.755975297861
 30
0.0
 11
-1538.140100336319
 21
2002.755975297861
 31
0.0
  0
LINE
  5
13F10
330
1A
100
AcDbEntity
  8
ZISSEN1
100
AcDbLine
 10
-1550.140100336319
 20
2002.755975297861
 30
0.0
 11
-1538.140100336319
 21
2002.755975297861
 31
0.0
  0
LINE
  5
13F11
330
1A
100
AcDbEntity
  8
ZISSEN1
100
AcDbLine
 10
-1550.140100336319
 20
2009.155975297861
 30
0.0
 11
-1538.140100336319
 21
2009.155975297861
 31
0.0
  0
LINE
  5
13F12
330
1A
100
AcDbEntity
  8
ZISSEN1
100
AcDbLine
 10
-1550.140100336319
 20
2002.755975297861
 30
0.0
 11
-1538.140100336319
 21
2002.755975297861
 31
0.0
  0
LINE
  5
13F13
330
1A
100
AcDbEntity
  8
ZISSEN1
100
AcDbLine
 10
-1550.140100336319
 20
2009.155975297861
 30
0.0
 11
-1538.140100336319
 21
2009.155975297861
 31
0.0
  0
LINE
  5
13F14
330
1A
100
AcDbEntity
  8
ZISSEN1
100
AcDbLine
 10
-1550.140100336319
 20
2002.755975297861
 30
0.0
 11
-1538.140100336319
 21
2002.755975297861
 31
0.0
  0
LINE
  5
13F15
330
1A
100
AcDbEntity
  8
ZISSEN1
100
AcDbLine
 10
-1550.140100336319
 20
2009.155975297861
 30
0.0
 11
-1538.140100336319
 21
2009.155975297861
 31
0.0
  0
LINE
  5
13F18
330
1A
100
AcDbEntity
  8
ZISSEN1
100
AcDbLine
 10
-1550.140100336319
 20
2010.375975297861
 30
0.0
 11
-1538.140100336319
 21
2010.375975297861
 31
0.0
  0
LINE
  5
13F19
330
1A
100
AcDbEntity
  8
ZISSEN1
100
AcDbLine
 10
-1550.140100336319
 20
2010.375975297861
 30
0.0
 11
-1538.140100336319
 21
2010.375975297861
 31
0.0
  0
LINE
  5
13F1A
330
1A
100
AcDbEntity
  8
ZISSEN1
100
AcDbLine
 10
-1550.140100336319
 20
2010.375975297861
 30
0.0
 11
-1538.140100336319
 21
2010.375975297861
 31
0.0
  0
LINE
  5
13F1B
330
1A
100
AcDbEntity
  8
ZISSEN1
100
AcDbLine
 10
-1550.140100336319
 20
2001.535975297861
 30
0.0
 11
-1538.140100336319
 21
2001.535975297861
 31
0.0
  0
LINE
  5
13F1C
330
1A
100
AcDbEntity
  8
ZISSEN1
100
AcDbLine
 10
-1550.140100336319
 20
2002.755975297861
 30
0.0
 11
-1538.140100336319
 21
2002.755975297861
 31
0.0
  0
LINE
  5
13F1D
330
1A
100
AcDbEntity
  8
ZISSEN1
100
AcDbLine
 10
-1550.140100336319
 20
2009.155975297861
 30
0.0
 11
-1538.140100336319
 21
2009.155975297861
 31
0.0
  0
LINE
  5
13F1E
330
1A
100
AcDbEntity
  8
ZISSEN1
100
AcDbLine
 10
-1550.140100336319
 20
2010.375975297861
 30
0.0
 11
-1538.140100336319
 21
2010.375975297861
 31
0.0
  0
LINE
  5
13F23
330
1A
100
AcDbEntity
  8
ZISSEN1
  6
Continuous
100
AcDbLine
 10
-1565.540099127141
 20
2004.995973101516
 30
0.0
 11
-1565.540099127141
 21
1992.395974160872
 31
0.0
  0
CIRCLE
  5
13F29
330
1A
100
AcDbEntity
  8
ZISSEN1
100
AcDbCircle
 10
-1554.240100336319
 20
1991.322686681306
 30
0.0
 40
2.75
  0
LINE
  5
13F6D
330
1A
100
AcDbEntity
  8
ZISSEN1
  6
Continuous
100
AcDbLine
 10
-1569.740100336318
 20
2005.895974160872
 30
0.0
 11
-1565.540099127141
 21
2005.895974160872
 31
0.0
  0
LINE
  5
13FAF
330
1A
100
AcDbEntity
  8
ZISSEN1
  6
Continuous
100
AcDbLine
 10
-1569.740100336318
 20
2004.995973101516
 30
0.0
 11
-1565.540099127141
 21
2004.995973101516
 31
0.0
  0
LINE
  5
13FB9
330
1A
100
AcDbEntity
  8
ZISSEN1
100
AcDbLine
 10
-1559.740100336319
 20
1994.522686681307
 30
0.0
 11
-1547.740100336319
 21
1994.522686681307
 31
0.0
  0
LINE
  5
13FCE
330
1A
100
AcDbEntity
  8
ZISSEN1
 48
0.5
100
AcDbLine
 10
-1569.740100336318
 20
1991.195973101516
 30
0.0
 11
-1570.740100336319
 21
1991.195973101516
 31
0.0
  0
ARC
  5
13FE0
330
1A
100
AcDbEntity
  8
ZISSEN1
  6
Continuous
100
AcDbCircle
 10
-1565.340100336318
 20
1984.345975297861
 30
0.0
 40
0.2
100
AcDbArc
 50
89.99999499108866
 51
179.9999975852129
  0
ARC
  5
13FE1
330
1A
100
AcDbEntity
  8
ZISSEN1
  6
Continuous
100
AcDbCircle
 10
-1565.340100336318
 20
1991.045975297861
 30
0.0
 40
0.2
100
AcDbArc
 50
179.9999975852129
 51
270.0000000001042
  0
LINE
  5
13FF8
330
1A
100
AcDbEntity
  8
ZISSEN1
  6
Continuous
100
AcDbLine
 10
-1565.240100336319
 20
1990.99597529786
 30
0.0
 11
-1565.533748336318
 21
1990.99597529786
 31
0.0
  0
LINE
  5
13FF9
330
1A
100
AcDbEntity
  8
ZISSEN1
  6
Continuous
100
AcDbLine
 10
-1565.240100336319
 20
1984.395975297861
 30
0.0
 11
-1565.533748336318
 21
1984.395975297861
 31
0.0
  0
LINE
  5
13FFC
330
1A
100
AcDbEntity
  8
ZISSEN1
  6
Continuous
100
AcDbLine
 10
-1565.540100336319
 20
1991.37597529786
 30
0.0
 11
-1569.74010033632
 21
1991.37597529786
 31
0.0
  0
LINE
  5
13FFD
330
1A
100
AcDbEntity
  8
ZISSEN1
  6
Continuous
100
AcDbLine
 10
-1565.540100336319
 20
1984.015975297861
 30
0.0
 11
-1565.540100336319
 21
1984.345975297861
 31
0.0
  0
LINE
  5
14004
330
1A
100
AcDbEntity
  8
ZISSEN1
  6
Continuous
100
AcDbLine
 10
-1565.540100336319
 20
1984.015975297861
 30
0.0
 11
-1570.740100336319
 21
1984.015975297861
 31
0.0
  0
LINE
  5
14007
330
1A
100
AcDbEntity
  8
ZISSEN1
  6
Continuous
100
AcDbLine
 10
-1565.240100336318
 20
1990.84597529786
 30
0.0
 11
-1565.340100336318
 21
1990.84597529786
 31
0.0
  0
LINE
  5
14008
330
1A
100
AcDbEntity
  8
ZISSEN1
  6
Continuous
100
AcDbLine
 10
-1565.540100336319
 20
1991.37597529786
 30
0.0
 11
-1565.540100336319
 21
1991.045975297861
 31
0.0
  0
LINE
  5
14009
330
1A
100
AcDbEntity
  8
ZISSEN1
  6
Continuous
100
AcDbLine
 10
-1565.240100336318
 20
1984.545975297861
 30
0.0
 11
-1565.340100336318
 21
1984.545975297861
 31
0.0
  0
ARC
  5
1401B
330
1A
100
AcDbEntity
  8
ZISSEN1
  6
Continuous
100
AcDbCircle
 10
-1565.340100336318
 20
1976.34597529786
 30
0.0
 40
0.2
100
AcDbArc
 50
89.99999499108866
 51
179.9999975852129
  0
ARC
  5
1401C
330
1A
100
AcDbEntity
  8
ZISSEN1
  6
Continuous
100
AcDbCircle
 10
-1565.340100336318
 20
1983.045975297861
 30
0.0
 40
0.2
100
AcDbArc
 50
179.9999975852129
 51
270.0000000001042
  0
LINE
  5
14033
330
1A
100
AcDbEntity
  8
ZISSEN1
  6
Continuous
100
AcDbLine
 10
-1565.240100336319
 20
1982.99597529786
 30
0.0
 11
-1565.533748336318
 21
1982.99597529786
 31
0.0
  0
LINE
  5
14034
330
1A
100
AcDbEntity
  8
ZISSEN1
  6
Continuous
100
AcDbLine
 10
-1565.240100336319
 20
1976.395975297861
 30
0.0
 11
-1565.533748336318
 21
1976.395975297861
 31
0.0
  0
LINE
  5
14037
330
1A
100
AcDbEntity
  8
ZISSEN1
  6
Continuous
100
AcDbLine
 10
-1565.540100336319
 20
1983.375975297861
 30
0.0
 11
-1570.740100336319
 21
1983.375975297861
 31
0.0
  0
LINE
  5
14038
330
1A
100
AcDbEntity
  8
ZISSEN1
  6
Continuous
100
AcDbLine
 10
-1565.540100336319
 20
1976.01597529786
 30
0.0
 11
-1565.540100336319
 21
1976.34597529786
 31
0.0
  0
LINE
  5
1403F
330
1A
100
AcDbEntity
  8
ZISSEN1
  6
Continuous
100
AcDbLine
 10
-1565.540100336319
 20
1976.01597529786
 30
0.0
 11
-1570.740100336319
 21
1976.01597529786
 31
0.0
  0
LINE
  5
14042
330
1A
100
AcDbEntity
  8
ZISSEN1
  6
Continuous
100
AcDbLine
 10
-1565.240100336318
 20
1982.845975297861
 30
0.0
 11
-1565.340100336318
 21
1982.845975297861
 31
0.0
  0
LINE
  5
14043
330
1A
100
AcDbEntity
  8
ZISSEN1
  6
Continuous
100
AcDbLine
 10
-1565.540100336319
 20
1983.375975297861
 30
0.0
 11
-1565.540100336319
 21
1983.045975297861
 31
0.0
  0
LINE
  5
14044
330
1A
100
AcDbEntity
  8
ZISSEN1
  6
Continuous
100
AcDbLine
 10
-1565.240100336318
 20
1976.545975297861
 30
0.0
 11
-1565.340100336318
 21
1976.545975297861
 31
0.0
  0
LINE
  5
14047
330
1A
100
AcDbEntity
  8
ZISSEN1
  6
Continuous
100
AcDbLine
 10
-1569.740100336318
 20
1992.395974160872
 30
0.0
 11
-1565.540099127141
 21
1992.395974160872
 31
0.0
  0
ARC
  5
1404D
330
1A
100
AcDbEntity
  8
ZISSEN1
  6
Continuous
100
AcDbCircle
 10
-1565.340100336318
 20
1975.045975297861
 30
0.0
 40
0.2
100
AcDbArc
 50
179.9999975852129
 51
270.0000000001042
  0
LINE
  5
14050
330
1A
100
AcDbEntity
  8
ZISSEN1
  6
Continuous
100
AcDbLine
 10
-1565.240100336319
 20
1974.99597529786
 30
0.0
 11
-1565.533748336318
 21
1974.99597529786
 31
0.0
  0
LINE
  5
14052
330
1A
100
AcDbEntity
  8
ZISSEN1
  6
Continuous
100
AcDbLine
 10
-1565.540100336319
 20
1975.37597529786
 30
0.0
 11
-1570.740100336319
 21
1975.37597529786
 31
0.0
  0
LINE
  5
14057
330
1A
100
AcDbEntity
  8
ZISSEN1
  6
Continuous
100
AcDbLine
 10
-1565.240100336318
 20
1974.84597529786
 30
0.0
 11
-1565.340100336318
 21
1974.84597529786
 31
0.0
  0
LINE
  5
14058
330
1A
100
AcDbEntity
  8
ZISSEN1
  6
Continuous
100
AcDbLine
 10
-1565.540100336319
 20
1975.37597529786
 30
0.0
 11
-1565.540100336319
 21
1975.045975297861
 31
0.0
  0
LINE
  5
14059
330
1A
100
AcDbEntity
  8
ZISSEN1
 48
0.5
100
AcDbLine
 10
-1545.74010033632
 20
1975.582686681308
 30
0.0
 11
-1546.140100336319
 21
1975.582686681308
 31
0.0
  0
LINE
  5
1405A
330
1A
100
AcDbEntity
  8
ZISSEN1
 48
0.5
100
AcDbLine
 10
-1545.74010033632
 20
1976.582686681307
 30
0.0
 11
-1546.140100336319
 21
1976.582686681307
 31
0.0
  0
LINE
  5
1405B
330
1A
100
AcDbEntity
  8
ZISSEN1
 48
0.5
100
AcDbLine
 10
-1545.74010033632
 20
1983.202686681308
 30
0.0
 11
-1546.140100336319
 21
1983.202686681308
 31
0.0
  0
LINE
  5
1405C
330
1A
100
AcDbEntity
  8
ZISSEN1
 48
0.5
100
AcDbLine
 10
-1545.74010033632
 20
1984.202686681308
 30
0.0
 11
-1546.140100336319
 21
1984.202686681308
 31
0.0
  0
LINE
  5
1405D
330
1A
100
AcDbEntity
  8
ZISSEN1
 48
0.5
100
AcDbLine
 10
-1545.74010033632
 20
1990.822686681308
 30
0.0
 11
-1546.140100336319
 21
1990.822686681308
 31
0.0
  0
LINE
  5
1405E
330
1A
100
AcDbEntity
  8
ZISSEN1
 48
0.5
100
AcDbLine
 10
-1545.74010033632
 20
1991.822686681308
 30
0.0
 11
-1546.140100336319
 21
1991.822686681308
 31
0.0
  0
CIRCLE
  5
14076
330
1A
100
AcDbEntity
  8
ZISSEN1
100
AcDbCircle
 10
-1554.240100336319
 20
1976.082686681307
 30
0.0
 40
2.75
  0
LINE
  5
14077
330
1A
100
AcDbEntity
  8
ZISSEN1
100
AcDbLine
 10
-1559.740100336319
 20
1979.282686681306
 30
0.0
 11
-1547.740100336319
 21
1979.282686681306
 31
0.0
  0
LINE
  5
14078
330
1A
100
AcDbEntity
  8
ZISSEN1
100
AcDbLine
 10
-1559.740100336319
 20
1972.882686681307
 30
0.0
 11
-1547.740100336319
 21
1972.882686681307
 31
0.0
  0
LINE
  5
14079
330
1A
100
AcDbEntity
  8
ZISSEN1
100
AcDbLine
 10
-1559.740100336319
 20
1972.882686681307
 30
0.0
 11
-1547.740100336319
 21
1972.882686681307
 31
0.0
  0
LINE
  5
1407A
330
1A
100
AcDbEntity
  8
ZISSEN1
100
AcDbLine
 10
-1559.740100336319
 20
1979.282686681306
 30
0.0
 11
-1547.740100336319
 21
1979.282686681306
 31
0.0
  0
CIRCLE
  5
1408E
330
1A
100
AcDbEntity
  8
ZISSEN1
100
AcDbCircle
 10
-1554.240100336319
 20
1983.702686681307
 30
0.0
 40
2.75
  0
LINE
  5
1408F
330
1A
100
AcDbEntity
  8
ZISSEN1
100
AcDbLine
 10
-1559.740100336319
 20
1986.902686681307
 30
0.0
 11
-1547.740100336319
 21
1986.902686681307
 31
0.0
  0
LINE
  5
14090
330
1A
100
AcDbEntity
  8
ZISSEN1
100
AcDbLine
 10
-1559.740100336319
 20
1980.502686681307
 30
0.0
 11
-1547.740100336319
 21
1980.502686681307
 31
0.0
  0
LINE
  5
1409F
330
1A
100
AcDbEntity
  8
ZISSEN1
100
AcDbLine
 10
-1559.740100336319
 20
1972.882686681307
 30
0.0
 11
-1547.740100336319
 21
1972.882686681307
 31
0.0
  0
LINE
  5
140A0
330
1A
100
AcDbEntity
  8
ZISSEN1
100
AcDbLine
 10
-1559.740100336319
 20
1979.282686681306
 30
0.0
 11
-1547.740100336319
 21
1979.282686681306
 31
0.0
  0
LINE
  5
140A1
330
1A
100
AcDbEntity
  8
ZISSEN1
100
AcDbLine
 10
-1559.740100336319
 20
1980.502686681307
 30
0.0
 11
-1547.740100336319
 21
1980.502686681307
 31
0.0
  0
LINE
  5
140A2
330
1A
100
AcDbEntity
  8
ZISSEN1
100
AcDbLine
 10
-1559.740100336319
 20
1986.902686681307
 30
0.0
 11
-1547.740100336319
 21
1986.902686681307
 31
0.0
  0
LINE
  5
140A3
330
1A
100
AcDbEntity
  8
ZISSEN1
100
AcDbLine
 10
-1559.740100336319
 20
1988.122686681307
 30
0.0
 11
-1547.740100336319
 21
1988.122686681307
 31
0.0
  0
LINE
  5
140A4
330
1A
100
AcDbEntity
  8
ZISSEN1
 48
0.5
100
AcDbLine
 10
-1538.140100336319
 20
2001.695975297861
 30
0.0
 11
-1536.54010033632
 21
2001.695975297861
 31
0.0
  0
LINE
  5
140A5
330
1A
100
AcDbEntity
  8
ZISSEN1
 48
0.5
100
AcDbLine
 10
-1538.140100336319
 20
2000.695975297861
 30
0.0
 11
-1536.54010033632
 21
2000.695975297861
 31
0.0
  0
LINE
  5
140A6
330
1A
100
AcDbEntity
  8
ZISSEN1
 48
0.5
100
AcDbLine
 10
-1536.240100336319
 20
2005.455975297861
 30
0.0
 11
-1536.54010033632
 21
2005.455975297861
 31
0.0
  0
LINE
  5
140A7
330
1A
100
AcDbEntity
  8
ZISSEN1
 48
0.5
100
AcDbLine
 10
-1536.54010033632
 20
2006.455975297861
 30
0.0
 11
-1536.240100336319
 21
2006.455975297861
 31
0.0
  0
LINE
  5
140A8
330
1A
100
AcDbEntity
  8
ZISSEN1
 48
0.5
100
AcDbLine
 10
-1536.240100336319
 20
2013.075975297861
 30
0.0
 11
-1536.54010033632
 21
2013.075975297861
 31
0.0
  0
LINE
  5
140A9
330
1A
100
AcDbEntity
  8
ZISSEN1
 48
0.5
100
AcDbLine
 10
-1536.54010033632
 20
2014.075975297861
 30
0.0
 11
-1536.240100336319
 21
2014.075975297861
 31
0.0
  0
LWPOLYLINE
  5
140C0
330
1A
100
AcDbEntity
  8
ZISSEN1
 48
0.5
100
AcDbPolyline
 90
        4
 70
     1
 43
0.0
 10
-1531.740100336319
 20
1982.945975297861
 10
-1530.840100336319
 20
1982.945975297861
 10
-1530.840100336319
 20
1989.445975297861
 10
-1531.740100336319
 20
1989.445975297861
  0
LINE
  5
140C1
330
1A
100
AcDbEntity
  8
ZISSEN1
 48
0.5
100
AcDbLine
 10
-1530.84010033632
 20
1983.045975297861
 30
0.0
 11
-1530.84010033632
 21
1989.345975297861
 31
0.0
  0
ARC
  5
140C2
330
1A
100
AcDbEntity
  8
ZISSEN1
 48
0.5
100
AcDbCircle
 10
-1534.014729324917
 20
1986.19597529786
 30
0.0
 40
5.17462898859842
100
AcDbArc
 50
323.7083018726678
 51
36.29169812733217
  0
LINE
  5
140C3
330
1A
100
AcDbEntity
  8
ZISSEN1
 48
0.5
100
AcDbLine
 10
-1530.840100336319
 20
1983.045975297861
 30
0.0
 11
-1529.843905638227
 21
1983.133131040609
 31
0.0
  0
LINE
  5
140C4
330
1A
100
AcDbEntity
  8
ZISSEN1
 48
0.5
100
AcDbLine
 10
-1530.840100336319
 20
1989.34597529786
 30
0.0
 11
-1529.843905638227
 21
1989.258819555113
 31
0.0
  0
LINE
  5
140C5
330
1A
100
AcDbEntity
  8
ZISSEN1
 48
0.5
100
AcDbLine
 10
-1530.840100336319
 20
1989.34597529786
 30
0.0
 11
-1530.840100336319
 21
1983.045975297861
 31
0.0
  0
LINE
  5
140C6
330
1A
100
AcDbEntity
  8
ZISSEN1
 48
0.5
100
AcDbLine
 10
-1531.740100336319
 20
1981.19597529786
 30
0.0
 11
-1533.240100336319
 21
1981.19597529786
 31
0.0
  0
LINE
  5
140C7
330
1A
100
AcDbEntity
  8
ZISSEN1
 48
0.5
100
AcDbLine
 10
-1540.740100336319
 20
1951.695975297861
 30
0.0
 11
-1543.990100336319
 21
1951.695975297861
 31
0.0
  0
LINE
  5
140C8
330
1A
100
AcDbEntity
  8
ZISSEN1
 48
0.5
100
AcDbLine
 10
-1534.24010033632
 20
1961.69597529786
 30
0.0
 11
-1579.740100336319
 21
1961.69597529786
 31
0.0
  0
DIMENSION
  5
140C9
330
1A
100
AcDbEntity
  8
SUNPOU
 48
0.5
100
AcDbDimension
  2
*D15
 10
-1573.740100336319
 20
1941.695975297861
 30
0.0
 11
-1556.240100336319
 21
1944.445975297861
 31
0.0
 70
    32
 71
     5
 42
-1.0
  3
標準スタイル
100
AcDbAlignedDimension
 13
-1538.740100336319
 23
1953.695975297861
 33
0.0
 14
-1573.740100336319
 24
1953.695975297861
 34
0.0
100
AcDbRotatedDimension
1001
ACAD
1000
DSTYLE
1002
{
1070
   340
1005
10
1070
    40
1040
1.0
1002
}
  0
LINE
  5
140CA
330
1A
100
AcDbEntity
  8
CL1
 48
0.5
100
AcDbLine
 10
-1549.740100336319
 20
1956.695975297861
 30
0.0
 11
-1542.740100336319
 21
1956.695975297861
 31
0.0
  0
DIMENSION
  5
140CB
330
1A
100
AcDbEntity
  8
SUNPOU
 48
0.5
100
AcDbDimension
  2
*D16
 10
-1566.24010033632
 20
1931.73499860585
 30
0.0
 11
-1556.240100336319
 21
1934.48499860585
 31
0.0
 70
    32
 71
     5
 42
-1.0
  3
標準スタイル
100
AcDbAlignedDimension
 13
-1546.240100336319
 23
1953.195975297861
 33
0.0
 14
-1566.24010033632
 24
1953.195975297861
 34
0.0
100
AcDbRotatedDimension
1001
ACAD
1000
DSTYLE
1002
{
1070
   340
1005
10
1070
    40
1040
1.0
1002
}
  0
ARC
  5
140D1
330
1A
100
AcDbEntity
  8
ZISSEN1
 48
0.5
100
AcDbCircle
 10
-1566.24010033632
 20
1957.195975297861
 30
0.0
 40
2.25
100
AcDbArc
 50
0.0
 51
180.0
  0
ARC
  5
140D2
330
1A
100
AcDbEntity
  8
ZISSEN1
 48
0.5
100
AcDbCircle
 10
-1546.240100336319
 20
1957.195975297861
 30
0.0
 40
2.25
100
AcDbArc
 50
0.0
 51
180.0
  0
LINE
  5
140D3
330
1A
100
AcDbEntity
  8
ZISSEN1
 48
0.5
100
AcDbLine
 10
-1575.740100336319
 20
1961.69597529786
 30
0.0
 11
-1573.740100336319
 21
1961.69597529786
 31
0.0
  0
LINE
  5
140D4
330
1A
100
AcDbEntity
  8
ZISSEN1
 48
0.5
100
AcDbLine
 10
-1573.740100336319
 20
1953.695975297861
 30
0.0
 11
-1573.740100336319
 21
1961.69597529786
 31
0.0
  0
LINE
  5
140D5
330
1A
100
AcDbEntity
  8
ZISSEN1
 48
0.5
100
AcDbLine
 10
-1571.740100336319
 20
1951.695975297861
 30
0.0
 11
-1573.740100336319
 21
1953.695975297861
 31
0.0
  0
LINE
  5
140D6
330
1A
100
AcDbEntity
  8
ZISSEN1
 48
0.5
100
AcDbLine
 10
-1568.490100336319
 20
1951.695975297861
 30
0.0
 11
-1571.740100336319
 21
1951.695975297861
 31
0.0
  0
LINE
  5
140D7
330
1A
100
AcDbEntity
  8
ZISSEN1
 48
0.5
100
AcDbLine
 10
-1568.490100336319
 20
1957.195975297861
 30
0.0
 11
-1568.490100336319
 21
1951.695975297861
 31
0.0
  0
LINE
  5
140D8
330
1A
100
AcDbEntity
  8
ZISSEN1
 48
0.5
100
AcDbLine
 10
-1563.990100336319
 20
1951.695975297861
 30
0.0
 11
-1563.990100336319
 21
1957.195975297861
 31
0.0
  0
LINE
  5
140D9
330
1A
100
AcDbEntity
  8
ZISSEN1
 48
0.5
100
AcDbLine
 10
-1548.490100336319
 20
1951.695975297861
 30
0.0
 11
-1563.990100336319
 21
1951.695975297861
 31
0.0
  0
LINE
  5
140DA
330
1A
100
AcDbEntity
  8
ZISSEN1
 48
0.5
100
AcDbLine
 10
-1548.490100336319
 20
1957.195975297861
 30
0.0
 11
-1548.490100336319
 21
1951.695975297861
 31
0.0
  0
LINE
  5
140DB
330
1A
100
AcDbEntity
  8
ZISSEN1
 48
0.5
100
AcDbLine
 10
-1543.990100336319
 20
1951.695975297861
 30
0.0
 11
-1543.990100336319
 21
1957.195975297861
 31
0.0
  0
LINE
  5
140DC
330
1A
100
AcDbEntity
  8
ZISSEN1
 48
0.5
100
AcDbLine
 10
-1570.740100336319
 20
1968.195975297861
 30
0.0
 11
-1565.240100336319
 21
1968.195975297861
 31
0.0
  0
LINE
  5
140DD
330
1A
100
AcDbEntity
  8
CL1
 48
0.5
100
AcDbLine
 10
-1566.24010033632
 20
1953.195975297861
 30
0.0
 11
-1566.24010033632
 21
1960.195975297861
 31
0.0
  0
LINE
  5
140DE
330
1A
100
AcDbEntity
  8
CL1
 48
0.5
100
AcDbLine
 10
-1569.74010033632
 20
1956.695975297861
 30
0.0
 11
-1562.740100336319
 21
1956.695975297861
 31
0.0
  0
LINE
  5
140DF
330
1A
100
AcDbEntity
  8
CL1
 48
0.5
100
AcDbLine
 10
-1546.240100336319
 20
1953.195975297861
 30
0.0
 11
-1546.240100336319
 21
1960.195975297861
 31
0.0
  0
ARC
  5
140E8
330
1A
100
AcDbEntity
  8
ZISSEN1
  6
Continuous
100
AcDbCircle
 10
-1565.340100336318
 20
1968.345975297861
 30
0.0
 40
0.2
100
AcDbArc
 50
89.99999499108866
 51
179.9999975852129
  0
LINE
  5
140F7
330
1A
100
AcDbEntity
  8
ZISSEN1
  6
Continuous
100
AcDbLine
 10
-1565.240100336319
 20
1968.395975297861
 30
0.0
 11
-1565.533748336318
 21
1968.395975297861
 31
0.0
  0
LINE
  5
140F8
330
1A
100
AcDbEntity
  8
ZISSEN1
  6
Continuous
100
AcDbLine
 10
-1565.540100336319
 20
1968.195975297861
 30
0.0
 11
-1565.540100336319
 21
1968.345975297861
 31
0.0
  0
LINE
  5
140FC
330
1A
100
AcDbEntity
  8
ZISSEN1
  6
Continuous
100
AcDbLine
 10
-1565.240100336318
 20
1968.545975297861
 30
0.0
 11
-1565.340100336318
 21
1968.545975297861
 31
0.0
  0
LINE
  5
14103
330
1A
100
AcDbEntity
  8
ZISSEN1
100
AcDbLine
 10
-1559.740100336319
 20
1971.662686681307
 30
0.0
 11
-1547.740100336319
 21
1971.662686681307
 31
0.0
  0
DIMENSION
  5
14104
330
1A
100
AcDbEntity
  8
SUNPOU
 48
0.5
100
AcDbDimension
  2
*D17
 10
-1518.762193621286
 20
1956.69597529786
 30
0.0
 11
-1518.762193621286
 21
1941.195975297859
 31
0.0
 70
   160
  1
(<>)
 71
     5
 42
-1.0
  3
標準スタイル
100
AcDbAlignedDimension
 13
-1540.740100336319
 23
1951.695975297861
 33
0.0
 14
-1542.740100336319
 24
1956.695975297861
 34
0.0
 50
270.0
100
AcDbRotatedDimension
1001
ACAD
1000
DSTYLE
1002
{
1070
   340
1005
10
1070
    40
1040
1.0
1002
}
  0
LINE
  5
14105
330
1A
100
AcDbEntity
  8
ZISSEN1
 48
0.5
100
AcDbLine
 10
-1533.240100336319
 20
1961.69597529786
 30
0.0
 11
-1533.240100336319
 21
1962.695975297861
 31
0.0
  0
LINE
  5
14106
330
1A
100
AcDbEntity
  8
ZISSEN1
 48
0.5
100
AcDbLine
 10
-1538.740100336319
 20
1953.695975297861
 30
0.0
 11
-1540.740100336319
 21
1951.695975297861
 31
0.0
  0
LINE
  5
14107
330
1A
100
AcDbEntity
  8
ZISSEN1
 48
0.5
100
AcDbLine
 10
-1538.740100336319
 20
1961.69597529786
 30
0.0
 11
-1538.740100336319
 21
1953.695975297861
 31
0.0
  0
LINE
  5
14108
330
1A
100
AcDbEntity
  8
ZISSEN1
 48
0.5
100
AcDbLine
 10
-1533.240100336319
 20
1961.69597529786
 30
0.0
 11
-1538.740100336319
 21
1961.69597529786
 31
0.0
  0
LINE
  5
14109
330
1A
100
AcDbEntity
  8
ZISSEN1
 48
0.5
100
AcDbLine
 10
-1533.240100336319
 20
1962.695975297861
 30
0.0
 11
-1534.24010033632
 21
1961.69597529786
 31
0.0
  0
LINE
  5
152BB
330
1A
100
AcDbEntity
  8
CL1
100
AcDbLine
 10
-1762.638263093401
 20
2119.687846718194
 30
0.0
 11
-1755.01174039782
 21
2119.687846718194
 31
0.0
  0
LINE
  5
152BE
330
1A
100
AcDbEntity
  8
CL1
100
AcDbLine
 10
-1762.638263093401
 20
2076.695975297861
 30
0.0
 11
-1755.01174039782
 21
2076.695975297861
 31
0.0
  0
LINE
  5
152BF
330
1A
100
AcDbEntity
  8
CL1
100
AcDbLine
 10
-1762.638263093401
 20
1956.695975297861
 30
0.0
 11
-1755.01174039782
 21
1956.695975297861
 31
0.0
  0
LINE
  5
152C1
330
1A
100
AcDbEntity
  8
ZISSEN1
100
AcDbLine
 10
-1569.74010033632
 20
2076.695975297861
 30
0.0
 11
-1562.740100336319
 21
2076.695975297861
 31
0.0
  0
DIMENSION
  5
15E40
330
1A
100
AcDbEntity
  8
SUNPOU
100
AcDbDimension
  2
*D18
 10
-1628.947481990985
 20
1983.69597529786
 30
0.0
 11
-1631.697481990985
 21
1971.44597529786
 31
0.0
 70
    32
 71
     5
 42
-1.0
  3
標準スタイル
100
AcDbAlignedDimension
 13
-1639.813174870866
 23
1991.31597529786
 33
0.0
 14
-1639.813174870866
 24
1983.69597529786
 34
0.0
 50
90.0
100
AcDbRotatedDimension
1001
ACAD
1000
DSTYLE
1002
{
1070
   340
1005
10
1070
    40
1040
1.0
1002
}
  0
MTEXT
  5
15EA4
330
1A
100
AcDbEntity
  8
ZISSEN1
100
AcDbMText
 10
-1588.761498475677
 20
2115.202852957744
 30
0.0
 40
5.0
 41
108.3598999999999
 71
     1
 72
     5
  1
GD-5410v1 No.SS0001f128
 73
     1
 44
1.0
1001
ACAD
1000
MTEXTBEGIN
1070
    73
1070
     1
1070
    44
1040
1.0
1070
    74
1070
     0
1000
MTEXTEND
1000
MTEXTBEGIN
1070
    73
1070
     1
1070
    44
1040
1.0
1070
    74
1070
     0
1000
MTEXTEND
1000
MTEXTBEGIN
1070
    73
1070
     1
1070
    44
1040
1.0
1070
    74
1070
     0
1000
MTEXTEND
1000
MTEXTBEGIN
1070
    73
1070
     1
1070
    44
1040
1.0
1070
    74
1070
     0
1000
MTEXTEND
  0
LINE
  5
15EB9
330
1A
100
AcDbEntity
  8
ZISSEN1
 48
0.5
100
AcDbLine
 10
-1647.863174870865
 20
2113.687846718194
 30
0.0
 11
-1650.313174870865
 21
2113.687846718194
 31
0.0
  0
LINE
  5
15EBA
330
1A
100
AcDbEntity
  8
ZISSEN1
 48
0.5
100
AcDbLine
 10
-1647.863174870865
 20
2120.387846718194
 30
0.0
 11
-1647.863174870865
 21
2113.687846718194
 31
0.0
  0
LINE
  5
15EBB
330
1A
100
AcDbEntity
  8
ZISSEN1
 48
0.5
100
AcDbLine
 10
-1650.313174870865
 20
2120.387846718194
 30
0.0
 11
-1647.863174870865
 21
2120.387846718194
 31
0.0
  0
LINE
  5
15EBC
330
1A
100
AcDbEntity
  8
ZISSEN1
 48
0.5
100
AcDbLine
 10
-1647.863174870865
 20
2113.687846718194
 30
0.0
 11
-1650.313174870865
 21
2113.687846718194
 31
0.0
  0
LINE
  5
15EBE
330
1A
100
AcDbEntity
  8
ZISSEN1
 48
0.5
100
AcDbLine
 10
-1572.240100336319
 20
2032.64597529786
 30
0.0
 11
-1572.240100336319
 21
2030.99597529786
 31
0.0
  0
LINE
  5
15EBF
330
1A
100
AcDbEntity
  8
ZISSEN1
 48
0.5
100
AcDbLine
 10
-1571.240100336319
 20
2031.49597529786
 30
0.0
 11
-1571.240100336319
 21
2062.89597529786
 31
0.0
  0
LINE
  5
15EC0
330
1A
100
AcDbEntity
  8
ZISSEN1
 48
0.5
100
AcDbLine
 10
-1565.540100336319
 20
2061.24597529786
 30
0.0
 11
-1565.540100336319
 21
2063.395975297859
 31
0.0
  0
LINE
  5
15EC1
330
1A
100
AcDbEntity
  8
ZISSEN1
 48
0.5
100
AcDbLine
 10
-1566.340100336319
 20
2061.24597529786
 30
0.0
 11
-1565.540100336319
 21
2061.24597529786
 31
0.0
  0
LINE
  5
15EC2
330
1A
100
AcDbEntity
  8
ZISSEN1
 48
0.5
100
AcDbLine
 10
-1565.540100336319
 20
2062.39597529786
 30
0.0
 11
-1565.540100336319
 21
2061.24597529786
 31
0.0
  0
LINE
  5
15EC3
330
1A
100
AcDbEntity
  8
ZISSEN1
 48
0.5
100
AcDbLine
 10
-1566.040100336319
 20
2062.89597529786
 30
0.0
 11
-1571.240100336319
 21
2062.89597529786
 31
0.0
  0
LINE
  5
15EC4
330
1A
100
AcDbEntity
  8
ZISSEN1
 48
0.5
100
AcDbLine
 10
-1566.040100336319
 20
2061.74597529786
 30
0.0
 11
-1566.040100336319
 21
2062.89597529786
 31
0.0
  0
LINE
  5
15EC5
330
1A
100
AcDbEntity
  8
ZISSEN1
 48
0.5
100
AcDbLine
 10
-1566.040100336319
 20
2061.74597529786
 30
0.0
 11
-1566.540100336319
 21
2061.74597529786
 31
0.0
  0
LINE
  5
15EC6
330
1A
100
AcDbEntity
  8
ZISSEN1
 48
0.5
100
AcDbLine
 10
-1572.240100336319
 20
2063.39597529786
 30
0.0
 11
-1565.540100336319
 21
2063.39597529786
 31
0.0
  0
LINE
  5
15EC7
330
1A
100
AcDbEntity
  8
ZISSEN1
 48
0.5
100
AcDbLine
 10
-1565.540100336319
 20
2033.14597529786
 30
0.0
 11
-1565.540100336319
 21
2030.99597529786
 31
0.0
  0
LINE
  5
15EC8
330
1A
100
AcDbEntity
  8
ZISSEN1
 48
0.5
100
AcDbLine
 10
-1566.340100336319
 20
2033.14597529786
 30
0.0
 11
-1565.540100336319
 21
2033.14597529786
 31
0.0
  0
LINE
  5
15EC9
330
1A
100
AcDbEntity
  8
ZISSEN1
 48
0.5
100
AcDbLine
 10
-1565.540100336319
 20
2031.99597529786
 30
0.0
 11
-1565.540100336319
 21
2033.14597529786
 31
0.0
  0
LINE
  5
15ECA
330
1A
100
AcDbEntity
  8
ZISSEN1
 48
0.5
100
AcDbLine
 10
-1566.040100336319
 20
2031.49597529786
 30
0.0
 11
-1571.240100336319
 21
2031.49597529786
 31
0.0
  0
LINE
  5
15ECB
330
1A
100
AcDbEntity
  8
ZISSEN1
 48
0.5
100
AcDbLine
 10
-1566.040100336319
 20
2032.64597529786
 30
0.0
 11
-1566.040100336319
 21
2031.49597529786
 31
0.0
  0
LINE
  5
15ECC
330
1A
100
AcDbEntity
  8
ZISSEN1
 48
0.5
100
AcDbLine
 10
-1566.340100336319
 20
2033.14597529786
 30
0.0
 11
-1566.340100336319
 21
2061.24597529786
 31
0.0
  0
LINE
  5
15ECD
330
1A
100
AcDbEntity
  8
ZISSEN1
 48
0.5
100
AcDbLine
 10
-1566.540100336319
 20
2032.64597529786
 30
0.0
 11
-1566.540100336319
 21
2061.74597529786
 31
0.0
  0
LINE
  5
15ECE
330
1A
100
AcDbEntity
  8
ZISSEN1
 48
0.5
100
AcDbLine
 10
-1566.040100336319
 20
2032.64597529786
 30
0.0
 11
-1566.540100336319
 21
2032.64597529786
 31
0.0
  0
LINE
  5
15ECF
330
1A
100
AcDbEntity
  8
ZISSEN1
 48
0.5
100
AcDbLine
 10
-1572.240100336319
 20
2063.39597529786
 30
0.0
 11
-1572.240100336319
 21
2061.74597529786
 31
0.0
  0
LINE
  5
15ED0
330
1A
100
AcDbEntity
  8
ZISSEN1
 48
0.5
100
AcDbLine
 10
-1572.240100336319
 20
2030.99597529786
 30
0.0
 11
-1565.540100336319
 21
2030.99597529786
 31
0.0
  0
LINE
  5
1699A
330
1A
100
AcDbEntity
  8
ZISSEN1
100
AcDbLine
 10
-1559.740100336319
 20
1995.735975297861
 30
0.0
 11
-1547.740100336319
 21
1995.735975297861
 31
0.0
  0
LINE
  5
1699C
330
1A
100
AcDbEntity
  8
ZISSEN1
100
AcDbLine
 10
-1647.863174870865
 20
2041.84597529786
 30
0.0
 11
-1646.813174870866
 21
2041.84597529786
 31
0.0
  0
LINE
  5
1699D
330
1A
100
AcDbEntity
  8
ZISSEN1
100
AcDbLine
 10
-1646.813174870866
 20
2041.84597529786
 30
0.0
 11
-1646.813174870866
 21
2040.855975297861
 31
0.0
  0
LINE
  5
1699E
330
1A
100
AcDbEntity
  8
ZISSEN1
100
AcDbLine
 10
-1650.313174870865
 20
2000.54597529786
 30
0.0
 11
-1646.813174870866
 21
2000.54597529786
 31
0.0
  0
LINE
  5
1699F
330
1A
100
AcDbEntity
  8
ZISSEN1
100
AcDbLine
 10
-1646.813174870866
 20
2000.54597529786
 30
0.0
 11
-1646.813174870866
 21
2001.535975297861
 31
0.0
  0
LINE
  5
169A0
330
1A
100
AcDbEntity
  8
ZISSEN1
100
AcDbLine
 10
-1650.313174870865
 20
1996.732686681307
 30
0.0
 11
-1646.813174870866
 21
1996.732686681307
 31
0.0
  0
LINE
  5
169A1
330
1A
100
AcDbEntity
  8
ZISSEN1
100
AcDbLine
 10
-1646.813174870866
 20
1996.732686681307
 30
0.0
 11
-1646.813174870866
 21
1995.735975297861
 31
0.0
  0
LINE
  5
169A2
330
1A
100
AcDbEntity
  8
ZISSEN1
100
AcDbLine
 10
-1650.313174870865
 20
1970.659263914413
 30
0.0
 11
-1646.813174870866
 21
1970.659263914413
 31
0.0
  0
LINE
  5
169A3
330
1A
100
AcDbEntity
  8
ZISSEN1
100
AcDbLine
 10
-1646.813174870866
 20
1970.659263914413
 30
0.0
 11
-1646.813174870866
 21
1971.655975297861
 31
0.0
  0
LINE
  5
16EDB
330
1A
100
AcDbEntity
  8
ZISSEN1
 48
0.5
100
AcDbLine
 10
-1650.313174870865
 20
2063.395975297861
 30
0.0
 11
-1647.863174870865
 21
2063.395975297861
 31
0.0
  0
LINE
  5
16EDC
330
1A
100
AcDbEntity
  8
ZISSEN1
 48
0.5
100
AcDbLine
 10
-1647.863174870865
 20
2063.395975297861
 30
0.0
 11
-1647.863174870865
 21
2030.99597529786
 31
0.0
  0
LINE
  5
16EDD
330
1A
100
AcDbEntity
  8
ZISSEN1
 48
0.5
100
AcDbLine
 10
-1647.863174870865
 20
2030.99597529786
 30
0.0
 11
-1650.313174870865
 21
2030.99597529786
 31
0.0
  0
DIMENSION
  5
170A2
330
1A
100
AcDbEntity
  8
SUNPOU
100
AcDbDimension
  2
*D19
 10
-1584.24010033632
 20
1921.695975297861
 30
0.0
 11
-1594.740100336319
 21
1924.445975297861
 31
0.0
 70
    32
  1
(3)
 71
     5
 42
-1.0
  3
標準スタイル
100
AcDbAlignedDimension
 13
-1581.240100336338
 23
1963.19597529786
 33
0.0
 14
-1584.24010033632
 24
1911.195975297861
 34
0.0
100
AcDbRotatedDimension
1001
ACAD
1000
DSTYLE
1002
{
1070
   340
1005
10
1070
    40
1040
1.0
1002
}
  0
VIEWPORT
  5
5D8F
330
5D8E
100
AcDbEntity
 67
     1
  8
0
100
AcDbViewport
 10
235.3466249947919
 20
181.2366029990176
 30
0.0
 40
584.9148654750023
 41
328.2433633256342
 68
     1
 69
     1
 12
235.3466249947919
 22
181.2366029990176
 13
0.0
 23
0.0
 14
1.0
 24
1.0
 15
10.0
 25
10.0
 16
0.0
 26
0.0
 36
1.0
 17
0.0
 27
0.0
 37
0.0
 42
50.0
 43
0.0
 44
0.0
 45
328.2433633256342
 50
0.0
 51
0.0
 72
   100
 90
    32768
  1

281
     0
 71
     1
 74
     0
110
0.0
120
0.0
130
0.0
111
1.0
121
0.0
131
0.0
112
0.0
122
1.0
132
0.0
 79
     0
146
0.0
  0
VIEWPORT
  5
6001
330
5D8E
100
AcDbEntity
 67
     1
  8
ZISSEN1
100
AcDbViewport
 10
221.7861955525411
 20
157.6960273330388
 30
0.0
 40
385.4999999999997
 41
259.9999999999999
 68
     2
 69
     2
 12
-1625.074957724313
 22
2035.692947037552
 13
0.0
 23
0.0
 14
1.0
 24
1.0
 15
10.0
 25
10.0
 16
0.0
 26
0.0
 36
1.0
 17
0.0
 27
0.0
 37
0.0
 42
50.0
 43
0.0
 44
0.0
 45
260.00000090575
 50
0.0
 51
0.0
 72
   100
 90
    32768
  1

281
     0
 71
     1
 74
     0
110
0.0
120
0.0
130
0.0
111
1.0
121
0.0
131
0.0
112
0.0
122
1.0
132
0.0
 79
     0
146
0.0
  0
TEXT
  5
716F
330
5D8E
100
AcDbEntity
 67
     1
  8
SUNPOU
 62
     0
100
AcDbText
 10
374.1863124306943
 20
60.86794705907585
 30
0.0
 40
3.5
  1
縮尺 1/1
  7
ゴシック体
100
AcDbText
  0
ENDSEC
  0
SECTION
  2
OBJECTS
  0
DICTIONARY
  5
C
330
0
100
AcDbDictionary
281
     1
  3
ACAD_GROUP
350
D
  3
ACAD_LAYOUT
350
5C7D
  3
ACAD_MLINESTYLE
350
E
  3
ACAD_PLOTSETTINGS
350
5C7E
  3
ACAD_PLOTSTYLENAME
350
5C7B
  3
DWGPROPS
350
5E8E
  0
DICTIONARY
  5
1302F
330
2
100
AcDbDictionary
280
     1
281
     1
  3
ACAD_LAYERFILTERS
360
13030
  0
DICTIONARY
  5
170FA
330
1A
100
AcDbDictionary
280
     1
281
     1
  3
ACAD_LAYOUTSELFREF
360
170FB
  0
DICTIONARY
  5
170FC
330
5D8E
100
AcDbDictionary
280
     1
281
     1
  3
ACAD_LAYOUTSELFREF
360
170FD
  0
DICTIONARY
  5
D
102
{ACAD_REACTORS
330
C
102
}
330
C
100
AcDbDictionary
281
     1
  3
*A1
350
477D
  3
*A2
350
4C16
  3
*A3
350
4C17
  3
*A4
350
477E
  3
*A5
350
477F
  3
*A6
350
4780
  3
*A7
350
4781
  3
*A8
350
4C0E
  3
*A9
350
4C0F
  3
*A10
350
4C10
  3
*A11
350
4C11
  3
*A12
350
4C12
  3
*A13
350
4C13
  3
*A14
350
4C14
  3
*A15
350
4C15
  0
DICTIONARY
  5
5C7D
102
{ACAD_REACTORS
330
C
102
}
330
C
100
AcDbDictionary
281
     1
  3
Model
350
17104
  3
ﾚｲｱｳﾄ1
350
17105
  0
DICTIONARY
  5
E
102
{ACAD_REACTORS
330
C
102
}
330
C
100
AcDbDictionary
281
     1
  3
STANDARD
350
13
  0
DICTIONARY
  5
5C7E
102
{ACAD_REACTORS
330
C
102
}
330
C
100
AcDbDictionary
281
     1
  0
ACDBDICTIONARYWDFLT
  5
5C7B
102
{ACAD_REACTORS
330
C
102
}
330
C
100
AcDbDictionary
281
     1
  3
Normal
350
5C7C
100
AcDbDictionaryWithDefault
340
5C7C
  0
XRECORD
  5
5E8E
102
{ACAD_REACTORS
330
C
102
}
330
C
100
AcDbXrecord
280
     1
  1
DWGPROPS COOKIE
  2

  3

  4

  6

  7

  8

  9

300
=
301
=
302
=
303
=
304
=
305
=
306
=
307
=
308
=
309
=
 40
0.586753587962963
 41
2450495.493631364
 42
2453208.662277431
  1

 90
        0
  0
DICTIONARY
  5
13030
102
{ACAD_REACTORS
330
1302F
102
}
330
1302F
100
AcDbDictionary
280
     1
281
     1
  3
BASE
360
13031
  3
CASE
360
13032
  3
KIKOU
360
13033
  0
XRECORD
  5
170FB
102
{ACAD_REACTORS
330
170FA
102
}
330
170FA
100
AcDbXrecord
280
     1
340
1A
  0
XRECORD
  5
170FD
102
{ACAD_REACTORS
330
170FC
102
}
330
170FC
100
AcDbXrecord
280
     1
340
5D8E
  0
GROUP
  5
477D
102
{ACAD_REACTORS
330
D
102
}
330
D
100
AcDbGroup
300

 70
     1
 71
     1
  0
GROUP
  5
4C16
102
{ACAD_REACTORS
330
D
102
}
330
D
100
AcDbGroup
300

 70
     1
 71
     1
  0
GROUP
  5
4C17
102
{ACAD_REACTORS
330
D
102
}
330
D
100
AcDbGroup
300

 70
     1
 71
     1
  0
GROUP
  5
477E
102
{ACAD_REACTORS
330
D
102
}
330
D
100
AcDbGroup
300

 70
     1
 71
     1
  0
GROUP
  5
477F
102
{ACAD_REACTORS
330
D
102
}
330
D
100
AcDbGroup
300

 70
     1
 71
     1
  0
GROUP
  5
4780
102
{ACAD_REACTORS
330
D
102
}
330
D
100
AcDbGroup
300

 70
     1
 71
     1
  0
GROUP
  5
4781
102
{ACAD_REACTORS
330
D
102
}
330
D
100
AcDbGroup
300

 70
     1
 71
     1
  0
GROUP
  5
4C0E
102
{ACAD_REACTORS
330
D
102
}
330
D
100
AcDbGroup
300

 70
     1
 71
     1
  0
GROUP
  5
4C0F
102
{ACAD_REACTORS
330
D
102
}
330
D
100
AcDbGroup
300

 70
     1
 71
     1
  0
GROUP
  5
4C10
102
{ACAD_REACTORS
330
D
102
}
330
D
100
AcDbGroup
300

 70
     1
 71
     1
  0
GROUP
  5
4C11
102
{ACAD_REACTORS
330
D
102
}
330
D
100
AcDbGroup
300

 70
     1
 71
     1
  0
GROUP
  5
4C12
102
{ACAD_REACTORS
330
D
102
}
330
D
100
AcDbGroup
300

 70
     1
 71
     1
  0
GROUP
  5
4C13
102
{ACAD_REACTORS
330
D
102
}
330
D
100
AcDbGroup
300

 70
     1
 71
     1
  0
GROUP
  5
4C14
102
{ACAD_REACTORS
330
D
102
}
330
D
100
AcDbGroup
300

 70
     1
 71
     1
  0
GROUP
  5
4C15
102
{ACAD_REACTORS
330
D
102
}
330
D
100
AcDbGroup
300

 70
     1
 71
     1
  0
LAYOUT
  5
17104
102
{ACAD_REACTORS
330
5C7D
102
}
330
5C7D
100
AcDbPlotSettings
  1

  2
EPSON LP-8300F
  4

  6

 40
0.0
 41
0.0
 42
0.0
 43
0.0
 44
0.0
 45
0.0
 46
0.0
 47
0.0
 48
0.0
 49
0.0
140
0.0
141
0.0
142
1.0
143
1.0
 70
  1712
 72
     0
 73
     0
 74
     0
  7

 75
     0
147
1.0
148
0.0
149
0.0
100
AcDbLayout
  1
Model
 70
     1
 71
     0
 10
0.0
 20
0.0
 11
12.0
 21
9.0
 12
0.0
 22
0.0
 32
0.0
 14
0.0
 24
0.0
 34
0.0
 15
0.0
 25
0.0
 35
0.0
146
0.0
 13
0.0
 23
0.0
 33
0.0
 16
1.0
 26
0.0
 36
0.0
 17
0.0
 27
1.0
 37
0.0
 76
     0
330
1A
  0
LAYOUT
  5
17105
102
{ACAD_REACTORS
330
5C7D
102
}
330
5C7D
100
AcDbPlotSettings
  1

  2
EPSON LP-8300F
  4

  6

 40
0.0
 41
0.0
 42
0.0
 43
0.0
 44
0.0
 45
0.0
 46
0.0
 47
0.0
 48
0.0
 49
0.0
140
0.0
141
0.0
142
1.0
143
0.000000000000000E+99
 70
   688
 72
     0
 73
     1
 74
     1
  7

 75
     0
147
0.0
148
-737.3133992131148
149
-703.1117484191776
100
AcDbLayout
  1
ﾚｲｱｳﾄ1
 70
     1
 71
     1
 10
29.02808658319349
 20
27.68156489839281
 11
29.02808658319349
 21
27.68156489839281
 12
0.0
 22
0.0
 32
0.0
 14
29.02808658319349
 24
27.68156489839282
 34
-0.0015258207003583
 15
414.5580321383171
 25
287.7063768696434
 35
0.0000000349246037
146
0.0
 13
0.0
 23
0.0
 33
0.0
 16
1.0
 26
0.0
 36
0.0
 17
0.0
 27
1.0
 37
0.0
 76
     0
330
5D8E
331
5D8F
  0
MLINESTYLE
  5
13
102
{ACAD_REACTORS
330
E
102
}
330
E
100
AcDbMlineStyle
  2
STANDARD
 70
     0
  3

 62
     0
 51
90.0
 52
90.0
 71
     2
 49
0.5
 62
   256
  6
BYLAYER
 49
-0.5
 62
   256
  6
BYLAYER
  0
ACDBPLACEHOLDER
  5
5C7C
102
{ACAD_REACTORS
330
5C7B
102
}
330
5C7B
  0
XRECORD
  5
13031
102
{ACAD_REACTORS
330
13030
102
}
330
13030
100
AcDbXrecord
280
     1
  1
BASE
  1
BASE*
  1
*
  1
*
 70
     0
  1
*
  1
*
  0
XRECORD
  5
13032
102
{ACAD_REACTORS
330
13030
102
}
330
13030
100
AcDbXrecord
280
     1
  1
CASE
  1
CASE*
  1
*
  1
*
 70
     0
  1
*
  1
*
  0
XRECORD
  5
13033
102
{ACAD_REACTORS
330
13030
102
}
330
13030
100
AcDbXrecord
280
     1
  1
KIKOU
  1
KIKOU*
  1
*
  1
*
 70
     0
  1
*
  1
*
  0
ENDSEC
  0
EOF
