  0
SECTION
  2
HEADER
  9
$ACADVER
  1
AC1014
  9
$ACADMAINTVER
 70
     9
  9
$DWGCODEPAGE
  3
ANSI_932
  9
$INSBASE
 10
0.0
 20
0.0
 30
0.0
  9
$EXTMIN
 10
-58.61327650103731
 20
1552.42384245694
 30
0.0
  9
$EXTMAX
 10
236.6327321492951
 20
1792.947196897494
 30
0.0
  9
$LIMMIN
 10
0.0
 20
0.0
  9
$LIMMAX
 10
420.0
 20
297.0
  9
$ORTHOMODE
 70
     1
  9
$REGENMODE
 70
     1
  9
$FILLMODE
 70
     1
  9
$QTEXTMODE
 70
     0
  9
$MIRRTEXT
 70
     1
  9
$DRAGMODE
 70
     2
  9
$LTSCALE
 40
1.0
  9
$OSMODE
 70
    37
  9
$ATTMODE
 70
     1
  9
$TEXTSIZE
 40
2.5
  9
$TRACEWID
 40
1.0
  9
$TEXTSTYLE
  7
ゴシック体
  9
$CLAYER
  8
CL1
  9
$CELTYPE
  6
BYLAYER
  9
$CECOLOR
 62
   256
  9
$CELTSCALE
 40
1.0
  9
$DELOBJ
 70
     1
  9
$DISPSILH
 70
     0
  9
$DIMSCALE
 40
0.0
  9
$DIMASZ
 40
3.0
  9
$DIMEXO
 40
0.5
  9
$DIMDLI
 40
0.5
  9
$DIMRND
 40
0.0
  9
$DIMDLE
 40
0.0
  9
$DIMEXE
 40
0.5
  9
$DIMTP
 40
0.0
  9
$DIMTM
 40
0.0
  9
$DIMTXT
 40
3.5
  9
$DIMCEN
 40
0.0
  9
$DIMTSZ
 40
0.0
  9
$DIMTOL
 70
     0
  9
$DIMLIM
 70
     0
  9
$DIMTIH
 70
     0
  9
$DIMTOH
 70
     0
  9
$DIMSE1
 70
     0
  9
$DIMSE2
 70
     0
  9
$DIMTAD
 70
     1
  9
$DIMZIN
 70
     8
  9
$DIMBLK
  1

  9
$DIMASO
 70
     1
  9
$DIMSHO
 70
     1
  9
$DIMPOST
  1

  9
$DIMAPOST
  1

  9
$DIMALT
 70
     0
  9
$DIMALTD
 70
     2
  9
$DIMALTF
 40
25.4
  9
$DIMLFAC
 40
1.0
  9
$DIMTOFL
 70
     1
  9
$DIMTVP
 40
0.0
  9
$DIMTIX
 70
     0
  9
$DIMSOXD
 70
     0
  9
$DIMSAH
 70
     0
  9
$DIMBLK1
  1

  9
$DIMBLK2
  1

  9
$DIMSTYLE
  2
標準スタイル
  9
$DIMCLRD
 70
     1
  9
$DIMCLRE
 70
     1
  9
$DIMCLRT
 70
     1
  9
$DIMTFAC
 40
1.0
  9
$DIMGAP
 40
1.0
  9
$DIMJUST
 70
     0
  9
$DIMSD1
 70
     0
  9
$DIMSD2
 70
     0
  9
$DIMTOLJ
 70
     1
  9
$DIMTZIN
 70
     8
  9
$DIMALTZ
 70
     0
  9
$DIMALTTZ
 70
     0
  9
$DIMFIT
 70
     3
  9
$DIMUPT
 70
     0
  9
$DIMUNIT
 70
     2
  9
$DIMDEC
 70
     2
  9
$DIMTDEC
 70
     2
  9
$DIMALTU
 70
     2
  9
$DIMALTTD
 70
     2
  9
$DIMTXSTY
  7
ゴシック体
  9
$DIMAUNIT
 70
     0
  9
$LUNITS
 70
     2
  9
$LUPREC
 70
     4
  9
$SKETCHINC
 40
1.0
  9
$FILLETRAD
 40
0.0
  9
$AUNITS
 70
     0
  9
$AUPREC
 70
     0
  9
$MENU
  1
.
  9
$ELEVATION
 40
0.0
  9
$PELEVATION
 40
0.0
  9
$THICKNESS
 40
0.0
  9
$LIMCHECK
 70
     0
  9
$BLIPMODE
 70
     0
  9
$CHAMFERA
 40
10.0
  9
$CHAMFERB
 40
10.0
  9
$CHAMFERC
 40
2.0
  9
$CHAMFERD
 40
0.7853981633974483
  9
$SKPOLY
 70
     0
  9
$TDCREATE
 40
2450495.493631365
  9
$TDUPDATE
 40
2457778.550696608
  9
$TDINDWG
 40
1.8903667477
  9
$TDUSRTIMER
 40
1.8903665741
  9
$USRTIMER
 70
     1
  9
$ANGBASE
 50
0.0
  9
$ANGDIR
 70
     0
  9
$PDMODE
 70
    99
  9
$PDSIZE
 40
0.0
  9
$PLINEWID
 40
0.0
  9
$COORDS
 70
     1
  9
$SPLFRAME
 70
     0
  9
$SPLINETYPE
 70
     6
  9
$SPLINESEGS
 70
     8
  9
$ATTDIA
 70
     0
  9
$ATTREQ
 70
     1
  9
$HANDLING
 70
 10241
  9
$HANDSEED
  5
1E064
  9
$SURFTAB1
 70
     6
  9
$SURFTAB2
 70
     6
  9
$SURFTYPE
 70
     6
  9
$SURFU
 70
     6
  9
$SURFV
 70
     6
  9
$UCSNAME
  2

  9
$UCSORG
 10
0.0
 20
0.0
 30
0.0
  9
$UCSXDIR
 10
1.0
 20
0.0
 30
0.0
  9
$UCSYDIR
 10
0.0
 20
1.0
 30
0.0
  9
$PUCSNAME
  2

  9
$PUCSORG
 10
0.0
 20
0.0
 30
0.0
  9
$PUCSXDIR
 10
1.0
 20
0.0
 30
0.0
  9
$PUCSYDIR
 10
0.0
 20
1.0
 30
0.0
  9
$USERI1
 70
     0
  9
$USERI2
 70
     0
  9
$USERI3
 70
     0
  9
$USERI4
 70
     0
  9
$USERI5
 70
     0
  9
$USERR1
 40
0.0
  9
$USERR2
 40
0.0
  9
$USERR3
 40
0.0
  9
$USERR4
 40
0.0
  9
$USERR5
 40
0.0
  9
$WORLDVIEW
 70
     1
  9
$SHADEDGE
 70
     3
  9
$SHADEDIF
 70
    70
  9
$TILEMODE
 70
     0
  9
$MAXACTVP
 70
    16
  9
$PINSBASE
 10
0.0
 20
0.0
 30
0.0
  9
$PLIMCHECK
 70
     0
  9
$PEXTMIN
 10
29.03619555254133
 20
27.69602733303884
 30
0.0
  9
$PEXTMAX
 10
414.536195552541
 20
287.6960273330388
 30
0.0
  9
$PLIMMIN
 10
11.80913463208166
 20
9.18006735894051
  9
$PLIMMAX
 10
431.7557899055191
 20
306.1907179937061
  9
$UNITMODE
 70
     0
  9
$VISRETAIN
 70
     0
  9
$PLINEGEN
 70
     0
  9
$PSLTSCALE
 70
     1
  9
$TREEDEPTH
 70
  3020
  9
$PICKSTYLE
 70
     1
  9
$CMLSTYLE
  2
STANDARD
  9
$CMLJUST
 70
     0
  9
$CMLSCALE
 40
1.0
  9
$PROXYGRAPHICS
 70
     1
  9
$MEASUREMENT
 70
     1
  0
ENDSEC
  0
SECTION
  2
CLASSES
  0
CLASS
  1
LWPOLYLINE
  2
AcDbPolyline
  3
AutoCAD 2000
 90
        0
280
     0
281
     1
  0
CLASS
  1
HATCH
  2
AcDbHatch
  3
AutoCAD 2000
 90
        0
280
     0
281
     1
  0
CLASS
  1
ACDBDICTIONARYWDFLT
  2
AcDbDictionaryWithDefault
  3
AutoCAD 2000
 90
        0
280
     0
281
     0
  0
CLASS
  1
ACDBPLACEHOLDER
  2
AcDbPlaceHolder
  3
AutoCAD 2000
 90
        0
280
     0
281
     0
  0
CLASS
  1
LAYOUT
  2
AcDbLayout
  3
AutoCAD 2000
 90
        0
280
     0
281
     0
  0
CLASS
  1
DICTIONARYVAR
  2
AcDbDictionaryVar
  3
AutoCAD 2000
 90
        0
280
     0
281
     0
  0
CLASS
  1
LONG_TRANSACTION
  2
AcDbLongTransaction
  3
AutoCAD 2000
 90
        0
280
     0
281
     0
  0
CLASS
  1
LWPOLYLINE
  2
AcDbPolyline
  3
AutoCAD 2000
 90
        0
280
     0
281
     1
  0
CLASS
  1
HATCH
  2
AcDbHatch
  3
AutoCAD 2000
 90
        0
280
     0
281
     1
  0
CLASS
  1
XRECORD
  2
AcDbXrecord
  3
AutoCAD 2000
 90
        0
280
     0
281
     0
  0
CLASS
  1
LONG_TRANSACTION
  2
AcDbLongTransaction
  3
AutoCAD 2000
 90
        0
280
     0
281
     0
  0
CLASS
  1
LWPOLYLINE
  2
AcDbPolyline
  3
AutoCAD 2000
 90
        0
280
     0
281
     1
  0
CLASS
  1
HATCH
  2
AcDbHatch
  3
AutoCAD 2000
 90
        0
280
     0
281
     1
  0
CLASS
  1
XRECORD
  2
AcDbXrecord
  3
AutoCAD 2000
 90
        0
280
     0
281
     0
  0
ENDSEC
  0
SECTION
  2
TABLES
  0
TABLE
  2
VPORT
  5
8
330
0
100
AcDbSymbolTable
 70
     1
  0
VPORT
  5
1E03B
330
8
100
AcDbSymbolTableRecord
100
AcDbViewportTableRecord
  2
*ACTIVE
 70
     0
 10
0.0
 20
0.0
 11
1.0
 21
1.0
 12
89.00345665250679
 22
1672.694220347812
 13
0.0
 23
0.0
 14
5.0
 24
5.0
 15
0.0
 25
0.0
 16
0.0
 26
0.0
 36
1.0
 17
0.0
 27
0.0
 37
0.0
 40
243.3240103313423
 41
1.781954887218045
 42
50.0
 43
0.0
 44
0.0
 50
0.0
 51
0.0
 71
     0
 72
   100
 73
     1
 74
     0
 75
     0
 76
     0
 77
     0
 78
     0
  0
ENDTAB
  0
TABLE
  2
LTYPE
  5
5
330
0
100
AcDbSymbolTable
 70
     3
  0
LTYPE
  5
14
330
5
100
AcDbSymbolTableRecord
100
AcDbLinetypeTableRecord
  2
BYBLOCK
 70
     0
  3

 72
    65
 73
     0
 40
0.0
  0
LTYPE
  5
15
330
5
100
AcDbSymbolTableRecord
100
AcDbLinetypeTableRecord
  2
BYLAYER
 70
     0
  3

 72
    65
 73
     0
 40
0.0
  0
LTYPE
  5
16
330
5
100
AcDbSymbolTableRecord
100
AcDbLinetypeTableRecord
  2
CONTINUOUS
 70
     0
  3
Solid line
 72
    65
 73
     0
 40
0.0
  0
LTYPE
  5
1956
330
5
100
AcDbSymbolTableRecord
100
AcDbLinetypeTableRecord
  2
CENTERX2
 70
     0
  3
________  __  ________  __  ________  __  _____
 72
    65
 73
     4
 40
4.0
 49
2.5
 74
     0
 49
-0.5
 74
     0
 49
0.5
 74
     0
 49
-0.5
 74
     0
  0
LTYPE
  5
1958
330
5
100
AcDbSymbolTableRecord
100
AcDbLinetypeTableRecord
  2
PHANTOMX2
 70
     0
  3
____________    ____    ____    ____________   
 72
    65
 73
     6
 40
5.0
 49
2.5
 74
     0
 49
-0.5
 74
     0
 49
0.5
 74
     0
 49
-0.5
 74
     0
 49
0.5
 74
     0
 49
-0.5
 74
     0
  0
ENDTAB
  0
TABLE
  2
LAYER
  5
2
102
{ACAD_XDICTIONARY
360
14053
102
}
330
0
100
AcDbSymbolTable
 70
     6
  0
LAYER
  5
F
330
2
100
AcDbSymbolTableRecord
100
AcDbLayerTableRecord
  2
0
 70
     0
 62
     7
  6
CONTINUOUS
  0
LAYER
  5
18F
330
2
100
AcDbSymbolTableRecord
100
AcDbLayerTableRecord
  2
ZISSEN1
 70
     0
 62
     7
  6
CONTINUOUS
  0
LAYER
  5
529
330
2
100
AcDbSymbolTableRecord
100
AcDbLayerTableRecord
  2
SUNPOU
 70
     0
 62
     1
  6
CONTINUOUS
  0
LAYER
  5
195A
330
2
100
AcDbSymbolTableRecord
100
AcDbLayerTableRecord
  2
CL1
 70
     0
 62
   210
  6
CENTERX2
  0
LAYER
  5
195C
330
2
100
AcDbSymbolTableRecord
100
AcDbLayerTableRecord
  2
SOUZOUSEN
 70
     0
 62
     5
  6
PHANTOMX2
  0
LAYER
  5
3A9B
330
2
100
AcDbSymbolTableRecord
100
AcDbLayerTableRecord
  2
DEFPOINTS
 70
     0
 62
     7
  6
CONTINUOUS
  0
ENDTAB
  0
TABLE
  2
STYLE
  5
3
330
0
100
AcDbSymbolTable
 70
     2
  0
STYLE
  5
10
330
3
100
AcDbSymbolTableRecord
100
AcDbTextStyleTableRecord
  2
STANDARD
 70
     0
 40
0.0
 41
1.0
 50
0.0
 71
     0
 42
3.0
  3
txt
  4
BigFont
  0
STYLE
  5
1960
330
3
100
AcDbSymbolTableRecord
100
AcDbTextStyleTableRecord
  2
ゴシック体
 70
     0
 40
0.0
 41
1.0
 50
0.0
 71
     0
 42
2.5
  3
MS Gothic.ttf
  4

1001
ACAD
1000
MS Gothic
1071
    32817
  0
ENDTAB
  0
TABLE
  2
VIEW
  5
6
330
0
100
AcDbSymbolTable
 70
     0
  0
ENDTAB
  0
TABLE
  2
UCS
  5
7
330
0
100
AcDbSymbolTable
 70
     0
  0
ENDTAB
  0
TABLE
  2
APPID
  5
9
330
0
100
AcDbSymbolTable
 70
     5
  0
APPID
  5
11
330
9
100
AcDbSymbolTableRecord
100
AcDbRegAppTableRecord
  2
ACAD
 70
     0
  0
APPID
  5
4005
330
9
100
AcDbSymbolTableRecord
100
AcDbRegAppTableRecord
  2
CONTENTTABDATA
 70
     0
  0
APPID
  5
4006
330
9
100
AcDbSymbolTableRecord
100
AcDbRegAppTableRecord
  2
CONTENTCURRENTTAB
 70
     0
  0
APPID
  5
477B
330
9
100
AcDbSymbolTableRecord
100
AcDbRegAppTableRecord
  2
CONTENTBLOCKDESCRIPTION
 70
     0
  0
APPID
  5
477C
330
9
100
AcDbSymbolTableRecord
100
AcDbRegAppTableRecord
  2
CONTENTBLOCKICON
 70
     0
  0
ENDTAB
  0
TABLE
  2
DIMSTYLE
  5
A
330
0
100
AcDbSymbolTable
 70
     2
  0
DIMSTYLE
105
1D
330
A
100
AcDbSymbolTableRecord
100
AcDbDimStyleTableRecord
  2
STANDARD
 70
     0
  3

  4

  5

  6

  7

 40
1.0
 41
0.18
 42
0.0625
 43
0.38
 44
0.18
 45
0.0
 46
0.0
 47
0.0
 48
0.0
140
0.18
141
0.09
142
0.0
143
25.4
144
1.0
145
0.0
146
1.0
147
0.09
 71
     0
 72
     0
 73
     1
 74
     1
 75
     0
 76
     0
 77
     0
 78
     0
170
     0
171
     2
172
     0
173
     0
174
     0
175
     0
176
     0
177
     0
178
     0
270
     2
271
     4
272
     4
273
     2
274
     2
340
10
275
     0
280
     0
281
     0
282
     0
283
     1
284
     0
285
     0
286
     0
287
     3
288
     0
  0
DIMSTYLE
105
52E
102
{ACAD_REACTORS
330
1CF12
330
1CF13
330
1CF14
330
1CF15
330
1CF16
330
1CF19
330
1CF1A
330
1CF1B
330
1D2D4
330
1D2D5
330
1D361
330
1D362
330
1D363
330
1D364
330
1D365
330
1D366
330
1D367
330
1D368
330
1CF18
330
1CF17
330
1D202
330
1CF1E
330
1CF20
330
1CF1F
102
}
330
A
100
AcDbSymbolTableRecord
100
AcDbDimStyleTableRecord
  2
標準スタイル
 70
     0
  3

  4

  5

  6

  7

 40
0.0
 41
3.0
 42
0.5
 43
0.5
 44
0.5
 45
0.0
 46
0.0
 47
0.0
 48
0.0
140
3.5
141
0.0
142
0.0
143
25.4
144
1.0
145
0.0
146
1.0
147
1.0
 71
     0
 72
     0
 73
     0
 74
     0
 75
     0
 76
     0
 77
     1
 78
     8
170
     0
171
     2
172
     1
173
     0
174
     0
175
     0
176
     1
177
     1
178
     1
270
     2
271
     2
272
     2
273
     2
274
     2
340
1960
275
     0
280
     0
281
     0
282
     0
283
     1
284
     8
285
     0
286
     0
287
     3
288
     0
  0
ENDTAB
  0
TABLE
  2
BLOCK_RECORD
  5
1
330
0
100
AcDbSymbolTable
 70
    24
  0
BLOCK_RECORD
  5
1A
102
{ACAD_XDICTIONARY
360
1A073
102
}
330
1
100
AcDbSymbolTableRecord
100
AcDbBlockTableRecord
  2
*MODEL_SPACE
  0
BLOCK_RECORD
  5
5D8E
102
{ACAD_XDICTIONARY
360
1A075
102
}
330
1
100
AcDbSymbolTableRecord
100
AcDbBlockTableRecord
  2
*PAPER_SPACE
  0
BLOCK_RECORD
  5
1D41B
330
1
100
AcDbSymbolTableRecord
100
AcDbBlockTableRecord
  2
*D0
  0
BLOCK_RECORD
  5
1D427
330
1
100
AcDbSymbolTableRecord
100
AcDbBlockTableRecord
  2
*D1
  0
BLOCK_RECORD
  5
1D435
330
1
100
AcDbSymbolTableRecord
100
AcDbBlockTableRecord
  2
*D2
  0
BLOCK_RECORD
  5
1D441
330
1
100
AcDbSymbolTableRecord
100
AcDbBlockTableRecord
  2
*D3
  0
BLOCK_RECORD
  5
1D44D
330
1
100
AcDbSymbolTableRecord
100
AcDbBlockTableRecord
  2
*D4
  0
BLOCK_RECORD
  5
1D459
330
1
100
AcDbSymbolTableRecord
100
AcDbBlockTableRecord
  2
*D5
  0
BLOCK_RECORD
  5
1D465
330
1
100
AcDbSymbolTableRecord
100
AcDbBlockTableRecord
  2
*D6
  0
BLOCK_RECORD
  5
1D473
330
1
100
AcDbSymbolTableRecord
100
AcDbBlockTableRecord
  2
*D7
  0
BLOCK_RECORD
  5
1D47F
330
1
100
AcDbSymbolTableRecord
100
AcDbBlockTableRecord
  2
*D8
  0
BLOCK_RECORD
  5
1D48B
330
1
100
AcDbSymbolTableRecord
100
AcDbBlockTableRecord
  2
*D9
  0
BLOCK_RECORD
  5
1D497
330
1
100
AcDbSymbolTableRecord
100
AcDbBlockTableRecord
  2
*D10
  0
BLOCK_RECORD
  5
1D4A3
330
1
100
AcDbSymbolTableRecord
100
AcDbBlockTableRecord
  2
*D11
  0
BLOCK_RECORD
  5
1D4B1
330
1
100
AcDbSymbolTableRecord
100
AcDbBlockTableRecord
  2
*D12
  0
BLOCK_RECORD
  5
1D4BF
330
1
100
AcDbSymbolTableRecord
100
AcDbBlockTableRecord
  2
*D13
  0
BLOCK_RECORD
  5
1D4CD
330
1
100
AcDbSymbolTableRecord
100
AcDbBlockTableRecord
  2
*D14
  0
BLOCK_RECORD
  5
1D4D9
330
1
100
AcDbSymbolTableRecord
100
AcDbBlockTableRecord
  2
*D15
  0
BLOCK_RECORD
  5
1D4E5
330
1
100
AcDbSymbolTableRecord
100
AcDbBlockTableRecord
  2
*D16
  0
BLOCK_RECORD
  5
1D4F1
330
1
100
AcDbSymbolTableRecord
100
AcDbBlockTableRecord
  2
*D17
  0
BLOCK_RECORD
  5
1D4FD
330
1
100
AcDbSymbolTableRecord
100
AcDbBlockTableRecord
  2
*D18
  0
BLOCK_RECORD
  5
1D50B
330
1
100
AcDbSymbolTableRecord
100
AcDbBlockTableRecord
  2
*D19
  0
BLOCK_RECORD
  5
1D517
330
1
100
AcDbSymbolTableRecord
100
AcDbBlockTableRecord
  2
*D20
  0
BLOCK_RECORD
  5
1D523
330
1
100
AcDbSymbolTableRecord
100
AcDbBlockTableRecord
  2
*D21
  0
BLOCK_RECORD
  5
1D531
330
1
100
AcDbSymbolTableRecord
100
AcDbBlockTableRecord
  2
*D22
  0
BLOCK_RECORD
  5
1D53D
330
1
100
AcDbSymbolTableRecord
100
AcDbBlockTableRecord
  2
*D23
  0
ENDTAB
  0
ENDSEC
  0
SECTION
  2
BLOCKS
  0
BLOCK
  5
1B
330
1A
100
AcDbEntity
  8
0
100
AcDbBlockBegin
  2
*MODEL_SPACE
 70
     0
 10
0.0
 20
0.0
 30
0.0
  3
*MODEL_SPACE
  1

  0
ENDBLK
  5
1C
330
1A
100
AcDbEntity
  8
0
100
AcDbBlockEnd
  0
BLOCK
  5
5E60
330
5D8E
100
AcDbEntity
 67
     1
  8
0
100
AcDbBlockBegin
  2
*PAPER_SPACE
 70
     0
 10
0.0
 20
0.0
 30
0.0
  3
*PAPER_SPACE
  1

  0
ENDBLK
  5
5E61
330
5D8E
100
AcDbEntity
 67
     1
  8
0
100
AcDbBlockEnd
  0
BLOCK
  5
1D425
330
1D41B
100
AcDbEntity
  8
0
100
AcDbBlockBegin
  2
*D0
 70
     1
 10
0.0
 20
0.0
 30
0.0
  3
*D0
  1

  0
LINE
  5
1DDED
330
1D41B
100
AcDbEntity
  8
SUNPOU
 62
     1
100
AcDbLine
 10
-20.11327650103703
 20
1567.42384245694
 30
0.0
 11
-20.11327650103703
 21
1552.42384245694
 31
0.0
  0
LINE
  5
1DDEE
330
1D41B
100
AcDbEntity
  8
SUNPOU
 62
     1
100
AcDbLine
 10
111.886723498963
 20
1571.91384245694
 30
0.0
 11
111.886723498963
 21
1552.42384245694
 31
0.0
  0
LINE
  5
1DDEF
330
1D41B
100
AcDbEntity
  8
SUNPOU
 62
     1
100
AcDbLine
 10
-17.11327650103703
 20
1552.92384245694
 30
0.0
 11
108.886723498963
 21
1552.92384245694
 31
0.0
  0
SOLID
  5
1DDF0
330
1D41B
100
AcDbEntity
  8
SUNPOU
 62
     1
100
AcDbTrace
 10
-17.11327650103703
 20
1553.42384245694
 30
0.0
 11
-17.11327650103703
 21
1552.42384245694
 31
0.0
 12
-20.11327650103703
 22
1552.92384245694
 32
0.0
 13
-20.11327650103703
 23
1552.92384245694
 33
0.0
  0
SOLID
  5
1DDF1
330
1D41B
100
AcDbEntity
  8
SUNPOU
 62
     1
100
AcDbTrace
 10
108.886723498963
 20
1553.42384245694
 30
0.0
 11
108.886723498963
 21
1552.42384245694
 31
0.0
 12
111.886723498963
 22
1552.92384245694
 32
0.0
 13
111.886723498963
 23
1552.92384245694
 33
0.0
  0
MTEXT
  5
1DDF2
330
1D41B
100
AcDbEntity
  8
SUNPOU
 62
     1
100
AcDbMText
 10
45.88672349896299
 20
1555.67384245694
 30
0.0
 40
3.5
 41
0.0
 71
     5
 72
     1
  1
\A1;(132)
1001
ACAD
1000
MTEXTBEGIN
1070
    73
1070
     1
1070
    44
1040
1.0
1070
    74
1070
     0
1000
MTEXTEND
  0
POINT
  5
1DDF3
330
1D41B
100
AcDbEntity
  8
DEFPOINTS
 62
     0
100
AcDbPoint
 10
-20.11327650103703
 20
1567.92384245694
 30
0.0
  0
POINT
  5
1DDF4
330
1D41B
100
AcDbEntity
  8
DEFPOINTS
 62
     0
100
AcDbPoint
 10
111.886723498963
 20
1572.41384245694
 30
0.0
  0
POINT
  5
1DDF5
330
1D41B
100
AcDbEntity
  8
DEFPOINTS
 62
     0
100
AcDbPoint
 10
111.886723498963
 20
1552.92384245694
 30
0.0
  0
ENDBLK
  5
1D426
330
1D41B
100
AcDbEntity
  8
0
100
AcDbBlockEnd
  0
BLOCK
  5
1D433
330
1D427
100
AcDbEntity
  8
0
100
AcDbBlockBegin
  2
*D1
 70
     1
 10
0.0
 20
0.0
 30
0.0
  3
*D1
  1

  0
LINE
  5
1DDFF
330
1D427
100
AcDbEntity
  8
SUNPOU
 62
     1
100
AcDbLine
 10
107.8867234989629
 20
1575.738420296539
 30
0.0
 11
107.8867234989629
 21
1565.738420296539
 31
0.0
  0
LINE
  5
1DE00
330
1D427
100
AcDbEntity
  8
SUNPOU
 62
     1
100
AcDbLine
 10
111.886723498963
 20
1580.228420296539
 30
0.0
 11
111.886723498963
 21
1565.738420296539
 31
0.0
  0
LINE
  5
1DE01
330
1D427
100
AcDbEntity
  8
SUNPOU
 62
     1
100
AcDbLine
 10
104.8867234989629
 20
1566.238420296539
 30
0.0
 11
101.8867234989629
 21
1566.238420296539
 31
0.0
  0
LINE
  5
1DE02
330
1D427
100
AcDbEntity
  8
SUNPOU
 62
     1
100
AcDbLine
 10
114.886723498963
 20
1566.238420296539
 30
0.0
 11
126.886723498963
 21
1566.238420296539
 31
0.0
  0
LINE
  5
1DE03
330
1D427
100
AcDbEntity
  8
SUNPOU
 62
     1
100
AcDbLine
 10
107.8867234989629
 20
1566.238420296539
 30
0.0
 11
111.886723498963
 21
1566.238420296539
 31
0.0
  0
SOLID
  5
1DE04
330
1D427
100
AcDbEntity
  8
SUNPOU
 62
     1
100
AcDbTrace
 10
104.8867234989629
 20
1566.738420296539
 30
0.0
 11
104.8867234989629
 21
1565.738420296539
 31
0.0
 12
107.8867234989629
 22
1566.238420296539
 32
0.0
 13
107.8867234989629
 23
1566.238420296539
 33
0.0
  0
SOLID
  5
1DE05
330
1D427
100
AcDbEntity
  8
SUNPOU
 62
     1
100
AcDbTrace
 10
114.886723498963
 20
1566.738420296539
 30
0.0
 11
114.886723498963
 21
1565.738420296539
 31
0.0
 12
111.886723498963
 22
1566.238420296539
 32
0.0
 13
111.886723498963
 23
1566.238420296539
 33
0.0
  0
MTEXT
  5
1DE06
330
1D427
100
AcDbEntity
  8
SUNPOU
 62
     1
100
AcDbMText
 10
122.386723498963
 20
1568.988420296539
 30
0.0
 40
3.5
 41
0.0
 71
     5
 72
     1
  1
\A1;(4)
1001
ACAD
1000
MTEXTBEGIN
1070
    73
1070
     1
1070
    44
1040
1.0
1070
    74
1070
     0
1000
MTEXTEND
  0
POINT
  5
1DE07
330
1D427
100
AcDbEntity
  8
DEFPOINTS
 62
     0
100
AcDbPoint
 10
107.8867234989629
 20
1576.238420296539
 30
0.0
  0
POINT
  5
1DE08
330
1D427
100
AcDbEntity
  8
DEFPOINTS
 62
     0
100
AcDbPoint
 10
111.886723498963
 20
1580.728420296539
 30
0.0
  0
POINT
  5
1DE09
330
1D427
100
AcDbEntity
  8
DEFPOINTS
 62
     0
100
AcDbPoint
 10
111.886723498963
 20
1566.238420296539
 30
0.0
  0
ENDBLK
  5
1D434
330
1D427
100
AcDbEntity
  8
0
100
AcDbBlockEnd
  0
BLOCK
  5
1D43F
330
1D435
100
AcDbEntity
  8
0
100
AcDbBlockBegin
  2
*D2
 70
     1
 10
0.0
 20
0.0
 30
0.0
  3
*D2
  1

  0
LINE
  5
1DDE4
330
1D435
100
AcDbEntity
  8
SUNPOU
 62
     1
100
AcDbLine
 10
-20.11327650103703
 20
1575.738420296539
 30
0.0
 11
-20.11327650103703
 21
1565.738420296539
 31
0.0
  0
LINE
  5
1DDE5
330
1D435
100
AcDbEntity
  8
SUNPOU
 62
     1
100
AcDbLine
 10
-11.11327650103703
 20
1578.238420296539
 30
0.0
 11
-11.11327650103703
 21
1565.738420296539
 31
0.0
  0
LINE
  5
1DDE6
330
1D435
100
AcDbEntity
  8
SUNPOU
 62
     1
100
AcDbLine
 10
-17.11327650103703
 20
1566.238420296539
 30
0.0
 11
-14.11327650103703
 21
1566.238420296539
 31
0.0
  0
SOLID
  5
1DDE7
330
1D435
100
AcDbEntity
  8
SUNPOU
 62
     1
100
AcDbTrace
 10
-17.11327650103703
 20
1566.738420296539
 30
0.0
 11
-17.11327650103703
 21
1565.738420296539
 31
0.0
 12
-20.11327650103703
 22
1566.238420296539
 32
0.0
 13
-20.11327650103703
 23
1566.238420296539
 33
0.0
  0
SOLID
  5
1DDE8
330
1D435
100
AcDbEntity
  8
SUNPOU
 62
     1
100
AcDbTrace
 10
-14.11327650103703
 20
1566.738420296539
 30
0.0
 11
-14.11327650103703
 21
1565.738420296539
 31
0.0
 12
-11.11327650103703
 22
1566.238420296539
 32
0.0
 13
-11.11327650103703
 23
1566.238420296539
 33
0.0
  0
MTEXT
  5
1DDE9
330
1D435
100
AcDbEntity
  8
SUNPOU
 62
     1
100
AcDbMText
 10
-15.61327650103703
 20
1568.988420296539
 30
0.0
 40
3.5
 41
0.0
 71
     5
 72
     1
  1
\A1;9
1001
ACAD
1000
MTEXTBEGIN
1070
    73
1070
     1
1070
    44
1040
1.0
1070
    74
1070
     0
1000
MTEXTEND
  0
POINT
  5
1DDEA
330
1D435
100
AcDbEntity
  8
DEFPOINTS
 62
     0
100
AcDbPoint
 10
-20.11327650103703
 20
1576.238420296539
 30
0.0
  0
POINT
  5
1DDEB
330
1D435
100
AcDbEntity
  8
DEFPOINTS
 62
     0
100
AcDbPoint
 10
-11.11327650103703
 20
1578.738420296539
 30
0.0
  0
POINT
  5
1DDEC
330
1D435
100
AcDbEntity
  8
DEFPOINTS
 62
     0
100
AcDbPoint
 10
-11.11327650103703
 20
1566.238420296539
 30
0.0
  0
ENDBLK
  5
1D440
330
1D435
100
AcDbEntity
  8
0
100
AcDbBlockEnd
  0
BLOCK
  5
1D44B
330
1D441
100
AcDbEntity
  8
0
100
AcDbBlockBegin
  2
*D3
 70
     1
 10
0.0
 20
0.0
 30
0.0
  3
*D3
  1

  0
LINE
  5
1DDDB
330
1D441
100
AcDbEntity
  8
SUNPOU
 62
     1
100
AcDbLine
 10
-11.11327650103703
 20
1578.238420296539
 30
0.0
 11
-11.11327650103703
 21
1565.738420296539
 31
0.0
  0
LINE
  5
1DDDC
330
1D441
100
AcDbEntity
  8
SUNPOU
 62
     1
100
AcDbLine
 10
98.88672349896296
 20
1577.738420296539
 30
0.0
 11
98.88672349896296
 21
1565.738420296539
 31
0.0
  0
LINE
  5
1DDDD
330
1D441
100
AcDbEntity
  8
SUNPOU
 62
     1
100
AcDbLine
 10
-8.113276501037034
 20
1566.238420296539
 30
0.0
 11
95.88672349896297
 21
1566.238420296539
 31
0.0
  0
SOLID
  5
1DDDE
330
1D441
100
AcDbEntity
  8
SUNPOU
 62
     1
100
AcDbTrace
 10
-8.113276501037034
 20
1566.738420296539
 30
0.0
 11
-8.113276501037034
 21
1565.738420296539
 31
0.0
 12
-11.11327650103703
 22
1566.238420296539
 32
0.0
 13
-11.11327650103703
 23
1566.238420296539
 33
0.0
  0
SOLID
  5
1DDDF
330
1D441
100
AcDbEntity
  8
SUNPOU
 62
     1
100
AcDbTrace
 10
95.88672349896297
 20
1566.738420296539
 30
0.0
 11
95.88672349896297
 21
1565.738420296539
 31
0.0
 12
98.88672349896296
 22
1566.238420296539
 32
0.0
 13
98.88672349896296
 23
1566.238420296539
 33
0.0
  0
MTEXT
  5
1DDE0
330
1D441
100
AcDbEntity
  8
SUNPOU
 62
     1
100
AcDbMText
 10
43.88672349896296
 20
1568.988420296539
 30
0.0
 40
3.5
 41
0.0
 71
     5
 72
     1
  1
\A1;110
1001
ACAD
1000
MTEXTBEGIN
1070
    73
1070
     1
1070
    44
1040
1.0
1070
    74
1070
     0
1000
MTEXTEND
  0
POINT
  5
1DDE1
330
1D441
100
AcDbEntity
  8
DEFPOINTS
 62
     0
100
AcDbPoint
 10
-11.11327650103703
 20
1578.738420296539
 30
0.0
  0
POINT
  5
1DDE2
330
1D441
100
AcDbEntity
  8
DEFPOINTS
 62
     0
100
AcDbPoint
 10
98.88672349896296
 20
1578.238420296539
 30
0.0
  0
POINT
  5
1DDE3
330
1D441
100
AcDbEntity
  8
DEFPOINTS
 62
     0
100
AcDbPoint
 10
98.88672349896296
 20
1566.238420296539
 30
0.0
  0
ENDBLK
  5
1D44C
330
1D441
100
AcDbEntity
  8
0
100
AcDbBlockEnd
  0
BLOCK
  5
1D457
330
1D44D
100
AcDbEntity
  8
0
100
AcDbBlockBegin
  2
*D4
 70
     1
 10
0.0
 20
0.0
 30
0.0
  3
*D4
  1

  0
LINE
  5
1DDF6
330
1D44D
100
AcDbEntity
  8
SUNPOU
 62
     1
100
AcDbLine
 10
98.88672349896296
 20
1577.738420296539
 30
0.0
 11
98.88672349896296
 21
1565.738420296539
 31
0.0
  0
LINE
  5
1DDF7
330
1D44D
100
AcDbEntity
  8
SUNPOU
 62
     1
100
AcDbLine
 10
107.8867234989629
 20
1575.738420296539
 30
0.0
 11
107.8867234989629
 21
1565.738420296539
 31
0.0
  0
LINE
  5
1DDF8
330
1D44D
100
AcDbEntity
  8
SUNPOU
 62
     1
100
AcDbLine
 10
101.8867234989629
 20
1566.238420296539
 30
0.0
 11
104.8867234989629
 21
1566.238420296539
 31
0.0
  0
SOLID
  5
1DDF9
330
1D44D
100
AcDbEntity
  8
SUNPOU
 62
     1
100
AcDbTrace
 10
101.8867234989629
 20
1566.738420296539
 30
0.0
 11
101.8867234989629
 21
1565.738420296539
 31
0.0
 12
98.88672349896296
 22
1566.238420296539
 32
0.0
 13
98.88672349896296
 23
1566.238420296539
 33
0.0
  0
SOLID
  5
1DDFA
330
1D44D
100
AcDbEntity
  8
SUNPOU
 62
     1
100
AcDbTrace
 10
104.8867234989629
 20
1566.738420296539
 30
0.0
 11
104.8867234989629
 21
1565.738420296539
 31
0.0
 12
107.8867234989629
 22
1566.238420296539
 32
0.0
 13
107.8867234989629
 23
1566.238420296539
 33
0.0
  0
MTEXT
  5
1DDFB
330
1D44D
100
AcDbEntity
  8
SUNPOU
 62
     1
100
AcDbMText
 10
103.3867234989629
 20
1568.988420296539
 30
0.0
 40
3.5
 41
0.0
 71
     5
 72
     1
  1
\A1;9
1001
ACAD
1000
MTEXTBEGIN
1070
    73
1070
     1
1070
    44
1040
1.0
1070
    74
1070
     0
1000
MTEXTEND
  0
POINT
  5
1DDFC
330
1D44D
100
AcDbEntity
  8
DEFPOINTS
 62
     0
100
AcDbPoint
 10
98.88672349896296
 20
1578.238420296539
 30
0.0
  0
POINT
  5
1DDFD
330
1D44D
100
AcDbEntity
  8
DEFPOINTS
 62
     0
100
AcDbPoint
 10
107.8867234989629
 20
1576.238420296539
 30
0.0
  0
POINT
  5
1DDFE
330
1D44D
100
AcDbEntity
  8
DEFPOINTS
 62
     0
100
AcDbPoint
 10
107.8867234989629
 20
1566.238420296539
 30
0.0
  0
ENDBLK
  5
1D458
330
1D44D
100
AcDbEntity
  8
0
100
AcDbBlockEnd
  0
BLOCK
  5
1D463
330
1D459
100
AcDbEntity
  8
0
100
AcDbBlockBegin
  2
*D5
 70
     1
 10
0.0
 20
0.0
 30
0.0
  3
*D5
  1

  0
LINE
  5
1E017
330
1D459
100
AcDbEntity
  8
SUNPOU
 62
     1
100
AcDbLine
 10
99.38672349896297
 20
1777.947196897494
 30
0.0
 11
128.386723498963
 21
1777.947196897494
 31
0.0
  0
LINE
  5
1E018
330
1D459
100
AcDbEntity
  8
SUNPOU
 62
     1
100
AcDbLine
 10
107.8867234989629
 20
1746.747172753114
 30
0.0
 11
128.386723498963
 21
1746.747172753114
 31
0.0
  0
LINE
  5
1E019
330
1D459
100
AcDbEntity
  8
SUNPOU
 62
     1
100
AcDbLine
 10
127.886723498963
 20
1774.947196897494
 30
0.0
 11
127.886723498963
 21
1749.747172753114
 31
0.0
  0
SOLID
  5
1E01A
330
1D459
100
AcDbEntity
  8
SUNPOU
 62
     1
100
AcDbTrace
 10
127.386723498963
 20
1774.947196897494
 30
0.0
 11
128.386723498963
 21
1774.947196897494
 31
0.0
 12
127.886723498963
 22
1777.947196897494
 32
0.0
 13
127.886723498963
 23
1777.947196897494
 33
0.0
  0
SOLID
  5
1E01B
330
1D459
100
AcDbEntity
  8
SUNPOU
 62
     1
100
AcDbTrace
 10
127.386723498963
 20
1749.747172753114
 30
0.0
 11
128.386723498963
 21
1749.747172753114
 31
0.0
 12
127.886723498963
 22
1746.747172753114
 32
0.0
 13
127.886723498963
 23
1746.747172753114
 33
0.0
  0
MTEXT
  5
1E01C
330
1D459
100
AcDbEntity
  8
SUNPOU
 62
     1
100
AcDbMText
 10
125.1367234989627
 20
1762.347184825304
 30
0.0
 40
3.5
 41
0.0
 71
     5
 72
     1
  1
\A1;31.2
 11
0.0000000000000001
 21
1.0
 31
0.0
1001
ACAD
1000
MTEXTBEGIN
1070
    73
1070
     1
1070
    44
1040
1.0
1070
    74
1070
     0
1000
MTEXTEND
  0
POINT
  5
1E01D
330
1D459
100
AcDbEntity
  8
DEFPOINTS
 62
     0
100
AcDbPoint
 10
98.88672349896296
 20
1777.947196897494
 30
0.0
  0
POINT
  5
1E01E
330
1D459
100
AcDbEntity
  8
DEFPOINTS
 62
     0
100
AcDbPoint
 10
107.3867234989629
 20
1746.747172753114
 30
0.0
  0
POINT
  5
1E01F
330
1D459
100
AcDbEntity
  8
DEFPOINTS
 62
     0
100
AcDbPoint
 10
127.886723498963
 20
1746.747172753114
 30
0.0
  0
ENDBLK
  5
1D464
330
1D459
100
AcDbEntity
  8
0
100
AcDbBlockEnd
  0
BLOCK
  5
1D471
330
1D465
100
AcDbEntity
  8
0
100
AcDbBlockBegin
  2
*D6
 70
     1
 10
0.0
 20
0.0
 30
0.0
  3
*D6
  1

  0
LINE
  5
1E02B
330
1D465
100
AcDbEntity
  8
SUNPOU
 62
     1
100
AcDbLine
 10
108.3879028084679
 20
1748.747173912067
 30
0.0
 11
118.3879028084682
 21
1748.747173912067
 31
0.0
  0
LINE
  5
1E02C
330
1D465
100
AcDbEntity
  8
SUNPOU
 62
     1
100
AcDbLine
 10
108.3879028084679
 20
1744.747173912067
 30
0.0
 11
118.3879028084682
 21
1744.747173912067
 31
0.0
  0
LINE
  5
1E02D
330
1D465
100
AcDbEntity
  8
SUNPOU
 62
     1
100
AcDbLine
 10
117.8879028084682
 20
1741.747173912068
 30
0.0
 11
117.8879028084682
 21
1738.747173912067
 31
0.0
  0
LINE
  5
1E02E
330
1D465
100
AcDbEntity
  8
SUNPOU
 62
     1
100
AcDbLine
 10
117.8879028084682
 20
1751.747173912067
 30
0.0
 11
117.8879028084682
 21
1759.080507245401
 31
0.0
  0
LINE
  5
1E02F
330
1D465
100
AcDbEntity
  8
SUNPOU
 62
     1
100
AcDbLine
 10
117.8879028084682
 20
1744.747173912067
 30
0.0
 11
117.8879028084682
 21
1748.747173912067
 31
0.0
  0
SOLID
  5
1E030
330
1D465
100
AcDbEntity
  8
SUNPOU
 62
     1
100
AcDbTrace
 10
117.3879028084682
 20
1741.747173912068
 30
0.0
 11
118.3879028084682
 21
1741.747173912068
 31
0.0
 12
117.8879028084682
 22
1744.747173912067
 32
0.0
 13
117.8879028084682
 23
1744.747173912067
 33
0.0
  0
SOLID
  5
1E031
330
1D465
100
AcDbEntity
  8
SUNPOU
 62
     1
100
AcDbTrace
 10
117.3879028084682
 20
1751.747173912067
 30
0.0
 11
118.3879028084682
 21
1751.747173912067
 31
0.0
 12
117.8879028084682
 22
1748.747173912067
 32
0.0
 13
117.8879028084682
 23
1748.747173912067
 33
0.0
  0
MTEXT
  5
1E032
330
1D465
100
AcDbEntity
  8
SUNPOU
 62
     1
100
AcDbMText
 10
115.1379028084679
 20
1756.913840578734
 30
0.0
 40
3.5
 41
0.0
 71
     5
 72
     1
  1
\A1;4
 11
0.0000000000000001
 21
1.0
 31
0.0
1001
ACAD
1000
MTEXTBEGIN
1070
    73
1070
     1
1070
    44
1040
1.0
1070
    74
1070
     0
1000
MTEXTEND
  0
POINT
  5
1E033
330
1D465
100
AcDbEntity
  8
DEFPOINTS
 62
     0
100
AcDbPoint
 10
107.8879028084679
 20
1748.747173912067
 30
0.0
  0
POINT
  5
1E034
330
1D465
100
AcDbEntity
  8
DEFPOINTS
 62
     0
100
AcDbPoint
 10
107.8879028084679
 20
1744.747173912067
 30
0.0
  0
POINT
  5
1E035
330
1D465
100
AcDbEntity
  8
DEFPOINTS
 62
     0
100
AcDbPoint
 10
117.8879028084682
 20
1744.747173912067
 30
0.0
  0
ENDBLK
  5
1D472
330
1D465
100
AcDbEntity
  8
0
100
AcDbBlockEnd
  0
BLOCK
  5
1D47D
330
1D473
100
AcDbEntity
  8
0
100
AcDbBlockBegin
  2
*D7
 70
     1
 10
0.0
 20
0.0
 30
0.0
  3
*D7
  1

  0
LINE
  5
1DFFA
330
1D473
100
AcDbEntity
  8
SUNPOU
 62
     1
100
AcDbLine
 10
-20.11327650103703
 20
1763.747196897494
 30
0.0
 11
-38.61327650103703
 21
1763.747196897494
 31
0.0
  0
LINE
  5
1DFFB
330
1D473
100
AcDbEntity
  8
SUNPOU
 62
     1
100
AcDbLine
 10
-20.11327650103703
 20
1746.747196897494
 30
0.0
 11
-38.61327650103703
 21
1746.747196897494
 31
0.0
  0
LINE
  5
1DFFC
330
1D473
100
AcDbEntity
  8
SUNPOU
 62
     1
100
AcDbLine
 10
-38.11327650103703
 20
1760.747196897494
 30
0.0
 11
-38.11327650103703
 21
1749.747196897494
 31
0.0
  0
SOLID
  5
1DFFD
330
1D473
100
AcDbEntity
  8
SUNPOU
 62
     1
100
AcDbTrace
 10
-38.61327650103703
 20
1760.747196897494
 30
0.0
 11
-37.61327650103703
 21
1760.747196897494
 31
0.0
 12
-38.11327650103703
 22
1763.747196897494
 32
0.0
 13
-38.11327650103703
 23
1763.747196897494
 33
0.0
  0
SOLID
  5
1DFFE
330
1D473
100
AcDbEntity
  8
SUNPOU
 62
     1
100
AcDbTrace
 10
-38.61327650103703
 20
1749.747196897494
 30
0.0
 11
-37.61327650103703
 21
1749.747196897494
 31
0.0
 12
-38.11327650103703
 22
1746.747196897494
 32
0.0
 13
-38.11327650103703
 23
1746.747196897494
 33
0.0
  0
MTEXT
  5
1DFFF
330
1D473
100
AcDbEntity
  8
SUNPOU
 62
     1
100
AcDbMText
 10
-40.86327650103732
 20
1755.247196897494
 30
0.0
 40
3.5
 41
0.0
 71
     5
 72
     1
  1
\A1;17
 11
0.0000000000000001
 21
1.0
 31
0.0
1001
ACAD
1000
MTEXTBEGIN
1070
    73
1070
     1
1070
    44
1040
1.0
1070
    74
1070
     0
1000
MTEXTEND
  0
POINT
  5
1E000
330
1D473
100
AcDbEntity
  8
DEFPOINTS
 62
     0
100
AcDbPoint
 10
-19.61327650103703
 20
1763.747196897494
 30
0.0
  0
POINT
  5
1E001
330
1D473
100
AcDbEntity
  8
DEFPOINTS
 62
     0
100
AcDbPoint
 10
-19.61327650103703
 20
1746.747196897494
 30
0.0
  0
POINT
  5
1E002
330
1D473
100
AcDbEntity
  8
DEFPOINTS
 62
     0
100
AcDbPoint
 10
-38.11327650103703
 20
1746.747196897494
 30
0.0
  0
ENDBLK
  5
1D47E
330
1D473
100
AcDbEntity
  8
0
100
AcDbBlockEnd
  0
BLOCK
  5
1D489
330
1D47F
100
AcDbEntity
  8
0
100
AcDbBlockBegin
  2
*D8
 70
     1
 10
0.0
 20
0.0
 30
0.0
  3
*D8
  1

  0
LINE
  5
1DFF1
330
1D47F
100
AcDbEntity
  8
SUNPOU
 62
     1
100
AcDbLine
 10
-20.11327650103703
 20
1763.747196897494
 30
0.0
 11
-38.61327650103704
 21
1763.747196897494
 31
0.0
  0
LINE
  5
1DFF2
330
1D47F
100
AcDbEntity
  8
SUNPOU
 62
     1
100
AcDbLine
 10
-9.613276501037034
 20
1777.947196897494
 30
0.0
 11
-38.61327650103703
 21
1777.947196897494
 31
0.0
  0
LINE
  5
1DFF3
330
1D47F
100
AcDbEntity
  8
SUNPOU
 62
     1
100
AcDbLine
 10
-38.11327650103704
 20
1766.747196897494
 30
0.0
 11
-38.11327650103704
 21
1774.947196897494
 31
0.0
  0
SOLID
  5
1DFF4
330
1D47F
100
AcDbEntity
  8
SUNPOU
 62
     1
100
AcDbTrace
 10
-38.61327650103704
 20
1766.747196897494
 30
0.0
 11
-37.61327650103704
 21
1766.747196897494
 31
0.0
 12
-38.11327650103704
 22
1763.747196897494
 32
0.0
 13
-38.11327650103704
 23
1763.747196897494
 33
0.0
  0
SOLID
  5
1DFF5
330
1D47F
100
AcDbEntity
  8
SUNPOU
 62
     1
100
AcDbTrace
 10
-38.61327650103704
 20
1774.947196897494
 30
0.0
 11
-37.61327650103704
 21
1774.947196897494
 31
0.0
 12
-38.11327650103703
 22
1777.947196897494
 32
0.0
 13
-38.11327650103703
 23
1777.947196897494
 33
0.0
  0
MTEXT
  5
1DFF6
330
1D47F
100
AcDbEntity
  8
SUNPOU
 62
     1
100
AcDbMText
 10
-40.86327650103732
 20
1770.847196897494
 30
0.0
 40
3.5
 41
0.0
 71
     5
 72
     1
  1
\A1;14.2
 11
0.0000000000000001
 21
1.0
 31
0.0
1001
ACAD
1000
MTEXTBEGIN
1070
    73
1070
     1
1070
    44
1040
1.0
1070
    74
1070
     0
1000
MTEXTEND
  0
POINT
  5
1DFF7
330
1D47F
100
AcDbEntity
  8
DEFPOINTS
 62
     0
100
AcDbPoint
 10
-19.61327650103703
 20
1763.747196897494
 30
0.0
  0
POINT
  5
1DFF8
330
1D47F
100
AcDbEntity
  8
DEFPOINTS
 62
     0
100
AcDbPoint
 10
-9.113276501037034
 20
1777.947196897494
 30
0.0
  0
POINT
  5
1DFF9
330
1D47F
100
AcDbEntity
  8
DEFPOINTS
 62
     0
100
AcDbPoint
 10
-38.11327650103703
 20
1777.947196897494
 30
0.0
  0
ENDBLK
  5
1D48A
330
1D47F
100
AcDbEntity
  8
0
100
AcDbBlockEnd
  0
BLOCK
  5
1D495
330
1D48B
100
AcDbEntity
  8
0
100
AcDbBlockBegin
  2
*D9
 70
     1
 10
0.0
 20
0.0
 30
0.0
  3
*D9
  1

  0
LINE
  5
1DFDD
330
1D48B
100
AcDbEntity
  8
SUNPOU
 62
     1
100
AcDbLine
 10
-20.11327650103703
 20
1746.747196897494
 30
0.0
 11
-38.61327650103703
 21
1746.747196897494
 31
0.0
  0
LINE
  5
1DFDE
330
1D48B
100
AcDbEntity
  8
SUNPOU
 62
     1
100
AcDbLine
 10
-10.61327650103703
 20
1735.547196897494
 30
0.0
 11
-38.61327650103703
 21
1735.547196897494
 31
0.0
  0
LINE
  5
1DFDF
330
1D48B
100
AcDbEntity
  8
SUNPOU
 62
     1
100
AcDbLine
 10
-38.11327650103703
 20
1743.747196897494
 30
0.0
 11
-38.11327650103703
 21
1738.547196897494
 31
0.0
  0
SOLID
  5
1DFE0
330
1D48B
100
AcDbEntity
  8
SUNPOU
 62
     1
100
AcDbTrace
 10
-38.61327650103703
 20
1743.747196897494
 30
0.0
 11
-37.61327650103703
 21
1743.747196897494
 31
0.0
 12
-38.11327650103702
 22
1746.747196897494
 32
0.0
 13
-38.11327650103702
 23
1746.747196897494
 33
0.0
  0
SOLID
  5
1DFE1
330
1D48B
100
AcDbEntity
  8
SUNPOU
 62
     1
100
AcDbTrace
 10
-38.61327650103703
 20
1738.547196897494
 30
0.0
 11
-37.61327650103703
 21
1738.547196897494
 31
0.0
 12
-38.11327650103703
 22
1735.547196897494
 32
0.0
 13
-38.11327650103703
 23
1735.547196897494
 33
0.0
  0
MTEXT
  5
1DFE2
330
1D48B
100
AcDbEntity
  8
SUNPOU
 62
     1
100
AcDbMText
 10
-40.86327650103731
 20
1741.147196897494
 30
0.0
 40
3.5
 41
0.0
 71
     5
 72
     1
  1
\A1;11.2
 11
0.0000000000000001
 21
1.0
 31
0.0
1001
ACAD
1000
MTEXTBEGIN
1070
    73
1070
     1
1070
    44
1040
1.0
1070
    74
1070
     0
1000
MTEXTEND
  0
POINT
  5
1DFE3
330
1D48B
100
AcDbEntity
  8
DEFPOINTS
 62
     0
100
AcDbPoint
 10
-19.61327650103703
 20
1746.747196897494
 30
0.0
  0
POINT
  5
1DFE4
330
1D48B
100
AcDbEntity
  8
DEFPOINTS
 62
     0
100
AcDbPoint
 10
-10.11327650103703
 20
1735.547196897494
 30
0.0
  0
POINT
  5
1DFE5
330
1D48B
100
AcDbEntity
  8
DEFPOINTS
 62
     0
100
AcDbPoint
 10
-38.11327650103703
 20
1735.547196897494
 30
0.0
  0
ENDBLK
  5
1D496
330
1D48B
100
AcDbEntity
  8
0
100
AcDbBlockEnd
  0
BLOCK
  5
1D4A1
330
1D497
100
AcDbEntity
  8
0
100
AcDbBlockBegin
  2
*D10
 70
     1
 10
0.0
 20
0.0
 30
0.0
  3
*D10
  1

  0
LINE
  5
1DFB7
330
1D497
100
AcDbEntity
  8
SUNPOU
 62
     1
100
AcDbLine
 10
-16.11327650103703
 20
1742.747196897494
 30
0.0
 11
-16.11327650103703
 21
1717.103392989312
 31
0.0
  0
LINE
  5
1DFB8
330
1D497
100
AcDbEntity
  8
SUNPOU
 62
     1
100
AcDbLine
 10
103.8867234989629
 20
1742.747172753114
 30
0.0
 11
103.8867234989629
 21
1717.103392989312
 31
0.0
  0
LINE
  5
1DFB9
330
1D497
100
AcDbEntity
  8
SUNPOU
 62
     1
100
AcDbLine
 10
-13.11327650103703
 20
1717.603392989313
 30
0.0
 11
100.8867234989629
 21
1717.603392989313
 31
0.0
  0
SOLID
  5
1DFBA
330
1D497
100
AcDbEntity
  8
SUNPOU
 62
     1
100
AcDbTrace
 10
-13.11327650103703
 20
1718.103392989313
 30
0.0
 11
-13.11327650103703
 21
1717.103392989312
 31
0.0
 12
-16.11327650103703
 22
1717.603392989313
 32
0.0
 13
-16.11327650103703
 23
1717.603392989313
 33
0.0
  0
SOLID
  5
1DFBB
330
1D497
100
AcDbEntity
  8
SUNPOU
 62
     1
100
AcDbTrace
 10
100.8867234989629
 20
1718.103392989313
 30
0.0
 11
100.8867234989629
 21
1717.103392989312
 31
0.0
 12
103.8867234989629
 22
1717.603392989313
 32
0.0
 13
103.8867234989629
 23
1717.603392989313
 33
0.0
  0
MTEXT
  5
1DFBC
330
1D497
100
AcDbEntity
  8
SUNPOU
 62
     1
100
AcDbMText
 10
43.88672349896296
 20
1720.353392989313
 30
0.0
 40
3.5
 41
0.0
 71
     5
 72
     1
  1
\A1;120(ユーザー取付寸法)
1001
ACAD
1000
MTEXTBEGIN
1070
    73
1070
     1
1070
    44
1040
1.0
1070
    74
1070
     0
1000
MTEXTEND
  0
POINT
  5
1DFBD
330
1D497
100
AcDbEntity
  8
DEFPOINTS
 62
     0
100
AcDbPoint
 10
-16.11327650103703
 20
1743.247196897494
 30
0.0
  0
POINT
  5
1DFBE
330
1D497
100
AcDbEntity
  8
DEFPOINTS
 62
     0
100
AcDbPoint
 10
103.8867234989629
 20
1743.247172753114
 30
0.0
  0
POINT
  5
1DFBF
330
1D497
100
AcDbEntity
  8
DEFPOINTS
 62
     0
100
AcDbPoint
 10
103.8867234989629
 20
1717.603392989313
 30
0.0
  0
ENDBLK
  5
1D4A2
330
1D497
100
AcDbEntity
  8
0
100
AcDbBlockEnd
  0
BLOCK
  5
1D4AF
330
1D4A3
100
AcDbEntity
  8
0
100
AcDbBlockBegin
  2
*D11
 70
     1
 10
0.0
 20
0.0
 30
0.0
  3
*D11
  1

  0
LINE
  5
1DFE6
330
1D4A3
100
AcDbEntity
  8
SUNPOU
 62
     1
100
AcDbLine
 10
-20.11327650103703
 20
1737.947196897494
 30
0.0
 11
-20.11327650103703
 21
1717.183944395103
 31
0.0
  0
LINE
  5
1DFE7
330
1D4A3
100
AcDbEntity
  8
SUNPOU
 62
     1
100
AcDbLine
 10
-16.11327650103703
 20
1742.747196897494
 30
0.0
 11
-16.11327650103703
 21
1717.183944395103
 31
0.0
  0
LINE
  5
1DFE8
330
1D4A3
100
AcDbEntity
  8
SUNPOU
 62
     1
100
AcDbLine
 10
-13.11327650103703
 20
1717.683944395103
 30
0.0
 11
-10.11327650103703
 21
1717.683944395103
 31
0.0
  0
LINE
  5
1DFE9
330
1D4A3
100
AcDbEntity
  8
SUNPOU
 62
     1
100
AcDbLine
 10
-23.11327650103703
 20
1717.683944395103
 30
0.0
 11
-35.11327650103703
 21
1717.683944395103
 31
0.0
  0
LINE
  5
1DFEA
330
1D4A3
100
AcDbEntity
  8
SUNPOU
 62
     1
100
AcDbLine
 10
-16.11327650103703
 20
1717.683944395103
 30
0.0
 11
-20.11327650103703
 21
1717.683944395103
 31
0.0
  0
SOLID
  5
1DFEB
330
1D4A3
100
AcDbEntity
  8
SUNPOU
 62
     1
100
AcDbTrace
 10
-13.11327650103703
 20
1718.183944395103
 30
0.0
 11
-13.11327650103703
 21
1717.183944395103
 31
0.0
 12
-16.11327650103703
 22
1717.683944395103
 32
0.0
 13
-16.11327650103703
 23
1717.683944395103
 33
0.0
  0
SOLID
  5
1DFEC
330
1D4A3
100
AcDbEntity
  8
SUNPOU
 62
     1
100
AcDbTrace
 10
-23.11327650103703
 20
1718.183944395103
 30
0.0
 11
-23.11327650103703
 21
1717.183944395103
 31
0.0
 12
-20.11327650103703
 22
1717.683944395103
 32
0.0
 13
-20.11327650103703
 23
1717.683944395103
 33
0.0
  0
MTEXT
  5
1DFED
330
1D4A3
100
AcDbEntity
  8
SUNPOU
 62
     1
100
AcDbMText
 10
-30.61327650103703
 20
1720.433944395103
 30
0.0
 40
3.5
 41
0.0
 71
     5
 72
     1
  1
\A1;(4)
1001
ACAD
1000
MTEXTBEGIN
1070
    73
1070
     1
1070
    44
1040
1.0
1070
    74
1070
     0
1000
MTEXTEND
  0
POINT
  5
1DFEE
330
1D4A3
100
AcDbEntity
  8
DEFPOINTS
 62
     0
100
AcDbPoint
 10
-20.11327650103703
 20
1738.447196897494
 30
0.0
  0
POINT
  5
1DFEF
330
1D4A3
100
AcDbEntity
  8
DEFPOINTS
 62
     0
100
AcDbPoint
 10
-16.11327650103703
 20
1743.247196897494
 30
0.0
  0
POINT
  5
1DFF0
330
1D4A3
100
AcDbEntity
  8
DEFPOINTS
 62
     0
100
AcDbPoint
 10
-16.11327650103703
 20
1717.683944395103
 30
0.0
  0
ENDBLK
  5
1D4B0
330
1D4A3
100
AcDbEntity
  8
0
100
AcDbBlockEnd
  0
BLOCK
  5
1D4BD
330
1D4B1
100
AcDbEntity
  8
0
100
AcDbBlockBegin
  2
*D12
 70
     1
 10
0.0
 20
0.0
 30
0.0
  3
*D12
  1

  0
LINE
  5
1E020
330
1D4B1
100
AcDbEntity
  8
SUNPOU
 62
     1
100
AcDbLine
 10
107.8867234989629
 20
1737.947196897493
 30
0.0
 11
107.8867234989629
 21
1717.103392989312
 31
0.0
  0
LINE
  5
1E021
330
1D4B1
100
AcDbEntity
  8
SUNPOU
 62
     1
100
AcDbLine
 10
103.8867234989629
 20
1740.746211911817
 30
0.0
 11
103.8867234989629
 21
1717.103392989312
 31
0.0
  0
LINE
  5
1E022
330
1D4B1
100
AcDbEntity
  8
SUNPOU
 62
     1
100
AcDbLine
 10
100.8867234989629
 20
1717.603392989313
 30
0.0
 11
97.88672349896296
 21
1717.603392989313
 31
0.0
  0
LINE
  5
1E023
330
1D4B1
100
AcDbEntity
  8
SUNPOU
 62
     1
100
AcDbLine
 10
110.8867234989629
 20
1717.603392989313
 30
0.0
 11
124.7168684776288
 21
1717.603392989313
 31
0.0
  0
LINE
  5
1E024
330
1D4B1
100
AcDbEntity
  8
SUNPOU
 62
     1
100
AcDbLine
 10
103.8867234989629
 20
1717.603392989313
 30
0.0
 11
107.8867234989629
 21
1717.603392989313
 31
0.0
  0
SOLID
  5
1E025
330
1D4B1
100
AcDbEntity
  8
SUNPOU
 62
     1
100
AcDbTrace
 10
100.8867234989629
 20
1718.103392989313
 30
0.0
 11
100.8867234989629
 21
1717.103392989312
 31
0.0
 12
103.8867234989629
 22
1717.603392989313
 32
0.0
 13
103.8867234989629
 23
1717.603392989313
 33
0.0
  0
SOLID
  5
1E026
330
1D4B1
100
AcDbEntity
  8
SUNPOU
 62
     1
100
AcDbTrace
 10
110.8867234989629
 20
1718.103392989313
 30
0.0
 11
110.8867234989629
 21
1717.103392989312
 31
0.0
 12
107.8867234989629
 22
1717.603392989313
 32
0.0
 13
107.8867234989629
 23
1717.603392989313
 33
0.0
  0
MTEXT
  5
1E027
330
1D4B1
100
AcDbEntity
  8
SUNPOU
 62
     1
100
AcDbMText
 10
120.2168684776288
 20
1720.353392989313
 30
0.0
 40
3.5
 41
0.0
 71
     5
 72
     1
  1
\A1;(4)
1001
ACAD
1000
MTEXTBEGIN
1070
    73
1070
     1
1070
    44
1040
1.0
1070
    74
1070
     0
1000
MTEXTEND
  0
POINT
  5
1E028
330
1D4B1
100
AcDbEntity
  8
DEFPOINTS
 62
     0
100
AcDbPoint
 10
107.8867234989629
 20
1738.447196897493
 30
0.0
  0
POINT
  5
1E029
330
1D4B1
100
AcDbEntity
  8
DEFPOINTS
 62
     0
100
AcDbPoint
 10
103.8867234989629
 20
1741.246211911817
 30
0.0
  0
POINT
  5
1E02A
330
1D4B1
100
AcDbEntity
  8
DEFPOINTS
 62
     0
100
AcDbPoint
 10
103.8867234989629
 20
1717.603392989313
 30
0.0
  0
ENDBLK
  5
1D4BE
330
1D4B1
100
AcDbEntity
  8
0
100
AcDbBlockEnd
  0
BLOCK
  5
1D4CB
330
1D4BF
100
AcDbEntity
  8
0
100
AcDbBlockBegin
  2
*D13
 70
     1
 10
0.0
 20
0.0
 30
0.0
  3
*D13
  1

  0
LINE
  5
1DE0A
330
1D4BF
100
AcDbEntity
  8
SUNPOU
 62
     1
100
AcDbLine
 10
108.3867234989629
 20
1576.238420296539
 30
0.0
 11
123.386723498963
 21
1576.238420296539
 31
0.0
  0
LINE
  5
1DE0B
330
1D4BF
100
AcDbEntity
  8
SUNPOU
 62
     1
100
AcDbLine
 10
108.3867234989629
 20
1578.238420296539
 30
0.0
 11
123.386723498963
 21
1578.238420296539
 31
0.0
  0
LINE
  5
1DE0C
330
1D4BF
100
AcDbEntity
  8
SUNPOU
 62
     1
100
AcDbLine
 10
122.886723498963
 20
1573.238420296539
 30
0.0
 11
122.886723498963
 21
1570.238420296539
 31
0.0
  0
LINE
  5
1DE0D
330
1D4BF
100
AcDbEntity
  8
SUNPOU
 62
     1
100
AcDbLine
 10
122.886723498963
 20
1581.238420296539
 30
0.0
 11
122.886723498963
 21
1588.571753629872
 31
0.0
  0
LINE
  5
1DE0E
330
1D4BF
100
AcDbEntity
  8
SUNPOU
 62
     1
100
AcDbLine
 10
122.886723498963
 20
1576.238420296539
 30
0.0
 11
122.886723498963
 21
1578.238420296539
 31
0.0
  0
SOLID
  5
1DE0F
330
1D4BF
100
AcDbEntity
  8
SUNPOU
 62
     1
100
AcDbTrace
 10
122.386723498963
 20
1573.238420296539
 30
0.0
 11
123.386723498963
 21
1573.238420296539
 31
0.0
 12
122.886723498963
 22
1576.238420296539
 32
0.0
 13
122.886723498963
 23
1576.238420296539
 33
0.0
  0
SOLID
  5
1DE10
330
1D4BF
100
AcDbEntity
  8
SUNPOU
 62
     1
100
AcDbTrace
 10
122.386723498963
 20
1581.238420296539
 30
0.0
 11
123.386723498963
 21
1581.238420296539
 31
0.0
 12
122.886723498963
 22
1578.238420296539
 32
0.0
 13
122.886723498963
 23
1578.238420296539
 33
0.0
  0
MTEXT
  5
1DE11
330
1D4BF
100
AcDbEntity
  8
SUNPOU
 62
     1
100
AcDbMText
 10
120.1367234989627
 20
1586.405086963206
 30
0.0
 40
3.5
 41
0.0
 71
     5
 72
     1
  1
\A1;2
 11
0.0000000000000001
 21
1.0
 31
0.0
1001
ACAD
1000
MTEXTBEGIN
1070
    73
1070
     1
1070
    44
1040
1.0
1070
    74
1070
     0
1000
MTEXTEND
  0
POINT
  5
1DE12
330
1D4BF
100
AcDbEntity
  8
DEFPOINTS
 62
     0
100
AcDbPoint
 10
107.8867234989629
 20
1576.238420296539
 30
0.0
  0
POINT
  5
1DE13
330
1D4BF
100
AcDbEntity
  8
DEFPOINTS
 62
     0
100
AcDbPoint
 10
107.8867234989629
 20
1578.238420296539
 30
0.0
  0
POINT
  5
1DE14
330
1D4BF
100
AcDbEntity
  8
DEFPOINTS
 62
     0
100
AcDbPoint
 10
122.886723498963
 20
1578.238420296539
 30
0.0
  0
ENDBLK
  5
1D4CC
330
1D4BF
100
AcDbEntity
  8
0
100
AcDbBlockEnd
  0
BLOCK
  5
1D4D7
330
1D4CD
100
AcDbEntity
  8
0
100
AcDbBlockBegin
  2
*D14
 70
     1
 10
0.0
 20
0.0
 30
0.0
  3
*D14
  1

  0
LINE
  5
1DFAB
330
1D4CD
100
AcDbEntity
  8
SUNPOU
 62
     1
100
AcDbLine
 10
210.284865723117
 20
1577.738420296539
 30
0.0
 11
210.284865723117
 21
1565.738420296539
 31
0.0
  0
LINE
  5
1DFAC
330
1D4CD
100
AcDbEntity
  8
SUNPOU
 62
     1
100
AcDbLine
 10
167.8848657231248
 20
1578.238420296539
 30
0.0
 11
167.8848657231248
 21
1565.738420296539
 31
0.0
  0
LINE
  5
1DFAD
330
1D4CD
100
AcDbEntity
  8
SUNPOU
 62
     1
100
AcDbLine
 10
207.284865723117
 20
1566.238420296539
 30
0.0
 11
170.8848657231248
 21
1566.238420296539
 31
0.0
  0
SOLID
  5
1DFAE
330
1D4CD
100
AcDbEntity
  8
SUNPOU
 62
     1
100
AcDbTrace
 10
207.284865723117
 20
1566.738420296539
 30
0.0
 11
207.284865723117
 21
1565.738420296539
 31
0.0
 12
210.284865723117
 22
1566.238420296539
 32
0.0
 13
210.284865723117
 23
1566.238420296539
 33
0.0
  0
SOLID
  5
1DFAF
330
1D4CD
100
AcDbEntity
  8
SUNPOU
 62
     1
100
AcDbTrace
 10
170.8848657231248
 20
1566.738420296539
 30
0.0
 11
170.8848657231248
 21
1565.738420296539
 31
0.0
 12
167.8848657231248
 22
1566.238420296539
 32
0.0
 13
167.8848657231248
 23
1566.238420296539
 33
0.0
  0
MTEXT
  5
1DFB0
330
1D4CD
100
AcDbEntity
  8
SUNPOU
 62
     1
100
AcDbMText
 10
189.0848657231209
 20
1568.988420296539
 30
0.0
 40
3.5
 41
0.0
 71
     5
 72
     1
  1
\A1;42.4
1001
ACAD
1000
MTEXTBEGIN
1070
    73
1070
     1
1070
    44
1040
1.0
1070
    74
1070
     0
1000
MTEXTEND
  0
POINT
  5
1DFB1
330
1D4CD
100
AcDbEntity
  8
DEFPOINTS
 62
     0
100
AcDbPoint
 10
210.284865723117
 20
1578.238420296539
 30
0.0
  0
POINT
  5
1DFB2
330
1D4CD
100
AcDbEntity
  8
DEFPOINTS
 62
     0
100
AcDbPoint
 10
167.8848657231248
 20
1578.738420296539
 30
0.0
  0
POINT
  5
1DFB3
330
1D4CD
100
AcDbEntity
  8
DEFPOINTS
 62
     0
100
AcDbPoint
 10
167.8848657231248
 20
1566.238420296539
 30
0.0
  0
ENDBLK
  5
1D4D8
330
1D4CD
100
AcDbEntity
  8
0
100
AcDbBlockEnd
  0
BLOCK
  5
1D4E3
330
1D4D9
100
AcDbEntity
  8
0
100
AcDbBlockBegin
  2
*D15
 70
     1
 10
0.0
 20
0.0
 30
0.0
  3
*D15
  1

  0
LINE
  5
1DFA2
330
1D4D9
100
AcDbEntity
  8
SUNPOU
 62
     1
100
AcDbLine
 10
210.284865723117
 20
1578.238420296539
 30
0.0
 11
210.284865723117
 21
1557.738420296539
 31
0.0
  0
LINE
  5
1DFA3
330
1D4D9
100
AcDbEntity
  8
SUNPOU
 62
     1
100
AcDbLine
 10
164.8848657231176
 20
1635.238420296539
 30
0.0
 11
164.8848657231176
 21
1557.738420296539
 31
0.0
  0
LINE
  5
1DFA4
330
1D4D9
100
AcDbEntity
  8
SUNPOU
 62
     1
100
AcDbLine
 10
207.284865723117
 20
1558.238420296539
 30
0.0
 11
167.8848657231176
 21
1558.238420296539
 31
0.0
  0
SOLID
  5
1DFA5
330
1D4D9
100
AcDbEntity
  8
SUNPOU
 62
     1
100
AcDbTrace
 10
207.284865723117
 20
1558.738420296539
 30
0.0
 11
207.284865723117
 21
1557.738420296539
 31
0.0
 12
210.284865723117
 22
1558.238420296539
 32
0.0
 13
210.284865723117
 23
1558.238420296539
 33
0.0
  0
SOLID
  5
1DFA6
330
1D4D9
100
AcDbEntity
  8
SUNPOU
 62
     1
100
AcDbTrace
 10
167.8848657231176
 20
1558.738420296539
 30
0.0
 11
167.8848657231176
 21
1557.738420296539
 31
0.0
 12
164.8848657231176
 22
1558.238420296539
 32
0.0
 13
164.8848657231176
 23
1558.238420296539
 33
0.0
  0
MTEXT
  5
1DFA7
330
1D4D9
100
AcDbEntity
  8
SUNPOU
 62
     1
100
AcDbMText
 10
187.5848657231173
 20
1560.988420296539
 30
0.0
 40
3.5
 41
0.0
 71
     5
 72
     1
  1
\A1;(45.4)
1001
ACAD
1000
MTEXTBEGIN
1070
    73
1070
     1
1070
    44
1040
1.0
1070
    74
1070
     0
1000
MTEXTEND
  0
POINT
  5
1DFA8
330
1D4D9
100
AcDbEntity
  8
DEFPOINTS
 62
     0
100
AcDbPoint
 10
210.284865723117
 20
1578.738420296539
 30
0.0
  0
POINT
  5
1DFA9
330
1D4D9
100
AcDbEntity
  8
DEFPOINTS
 62
     0
100
AcDbPoint
 10
164.8848657231176
 20
1635.738420296539
 30
0.0
  0
POINT
  5
1DFAA
330
1D4D9
100
AcDbEntity
  8
DEFPOINTS
 62
     0
100
AcDbPoint
 10
164.8848657231176
 20
1558.238420296539
 30
0.0
  0
ENDBLK
  5
1D4E4
330
1D4D9
100
AcDbEntity
  8
0
100
AcDbBlockEnd
  0
BLOCK
  5
1D4EF
330
1D4E5
100
AcDbEntity
  8
0
100
AcDbBlockBegin
  2
*D16
 70
     1
 10
0.0
 20
0.0
 30
0.0
  3
*D16
  1

  0
LINE
  5
1DFC9
330
1D4E5
100
AcDbEntity
  8
SUNPOU
 62
     1
100
AcDbLine
 10
-9.613276501037034
 20
1777.947196897494
 30
0.0
 11
-46.61327650103702
 21
1777.947196897494
 31
0.0
  0
LINE
  5
1DFCA
330
1D4E5
100
AcDbEntity
  8
SUNPOU
 62
     1
100
AcDbLine
 10
-10.61327650103703
 20
1735.547196897494
 30
0.0
 11
-46.61327650103703
 21
1735.547196897494
 31
0.0
  0
LINE
  5
1DFCB
330
1D4E5
100
AcDbEntity
  8
SUNPOU
 62
     1
100
AcDbLine
 10
-46.11327650103702
 20
1774.947196897494
 30
0.0
 11
-46.11327650103703
 21
1738.547196897494
 31
0.0
  0
SOLID
  5
1DFCC
330
1D4E5
100
AcDbEntity
  8
SUNPOU
 62
     1
100
AcDbTrace
 10
-46.61327650103703
 20
1774.947196897494
 30
0.0
 11
-45.61327650103702
 21
1774.947196897494
 31
0.0
 12
-46.11327650103702
 22
1777.947196897494
 32
0.0
 13
-46.11327650103702
 23
1777.947196897494
 33
0.0
  0
SOLID
  5
1DFCD
330
1D4E5
100
AcDbEntity
  8
SUNPOU
 62
     1
100
AcDbTrace
 10
-46.61327650103703
 20
1738.547196897494
 30
0.0
 11
-45.61327650103703
 21
1738.547196897494
 31
0.0
 12
-46.11327650103703
 22
1735.547196897494
 32
0.0
 13
-46.11327650103703
 23
1735.547196897494
 33
0.0
  0
MTEXT
  5
1DFCE
330
1D4E5
100
AcDbEntity
  8
SUNPOU
 62
     1
100
AcDbMText
 10
-48.86327650103731
 20
1756.747196897494
 30
0.0
 40
3.5
 41
0.0
 71
     5
 72
     1
  1
\A1;42.4
 11
0.0000000000000001
 21
1.0
 31
0.0
1001
ACAD
1000
MTEXTBEGIN
1070
    73
1070
     1
1070
    44
1040
1.0
1070
    74
1070
     0
1000
MTEXTEND
  0
POINT
  5
1DFCF
330
1D4E5
100
AcDbEntity
  8
DEFPOINTS
 62
     0
100
AcDbPoint
 10
-9.113276501037034
 20
1777.947196897494
 30
0.0
  0
POINT
  5
1DFD0
330
1D4E5
100
AcDbEntity
  8
DEFPOINTS
 62
     0
100
AcDbPoint
 10
-10.11327650103703
 20
1735.547196897494
 30
0.0
  0
POINT
  5
1DFD1
330
1D4E5
100
AcDbEntity
  8
DEFPOINTS
 62
     0
100
AcDbPoint
 10
-46.11327650103703
 20
1735.547196897494
 30
0.0
  0
ENDBLK
  5
1D4F0
330
1D4E5
100
AcDbEntity
  8
0
100
AcDbBlockEnd
  0
BLOCK
  5
1D4FB
330
1D4F1
100
AcDbEntity
  8
0
100
AcDbBlockBegin
  2
*D17
 70
     1
 10
0.0
 20
0.0
 30
0.0
  3
*D17
  1

  0
LINE
  5
1DFC0
330
1D4F1
100
AcDbEntity
  8
SUNPOU
 62
     1
100
AcDbLine
 10
-9.613276501037034
 20
1777.947196897494
 30
0.0
 11
-54.61327650103702
 21
1777.947196897494
 31
0.0
  0
LINE
  5
1DFC1
330
1D4F1
100
AcDbEntity
  8
SUNPOU
 62
     1
100
AcDbLine
 10
85.38672349896193
 20
1732.547196897494
 30
0.0
 11
-54.61327650103704
 21
1732.547196897494
 31
0.0
  0
LINE
  5
1DFC2
330
1D4F1
100
AcDbEntity
  8
SUNPOU
 62
     1
100
AcDbLine
 10
-54.11327650103703
 20
1774.947196897494
 30
0.0
 11
-54.11327650103704
 21
1735.547196897494
 31
0.0
  0
SOLID
  5
1DFC3
330
1D4F1
100
AcDbEntity
  8
SUNPOU
 62
     1
100
AcDbTrace
 10
-54.61327650103703
 20
1774.947196897494
 30
0.0
 11
-53.61327650103703
 21
1774.947196897494
 31
0.0
 12
-54.11327650103702
 22
1777.947196897494
 32
0.0
 13
-54.11327650103702
 23
1777.947196897494
 33
0.0
  0
SOLID
  5
1DFC4
330
1D4F1
100
AcDbEntity
  8
SUNPOU
 62
     1
100
AcDbTrace
 10
-54.61327650103704
 20
1735.547196897494
 30
0.0
 11
-53.61327650103703
 21
1735.547196897494
 31
0.0
 12
-54.11327650103704
 22
1732.547196897494
 32
0.0
 13
-54.11327650103704
 23
1732.547196897494
 33
0.0
  0
MTEXT
  5
1DFC5
330
1D4F1
100
AcDbEntity
  8
SUNPOU
 62
     1
100
AcDbMText
 10
-56.86327650103731
 20
1755.247196897494
 30
0.0
 40
3.5
 41
0.0
 71
     5
 72
     1
  1
\A1;(45.4)
 11
0.0000000000000001
 21
1.0
 31
0.0
1001
ACAD
1000
MTEXTBEGIN
1070
    73
1070
     1
1070
    44
1040
1.0
1070
    74
1070
     0
1000
MTEXTEND
  0
POINT
  5
1DFC6
330
1D4F1
100
AcDbEntity
  8
DEFPOINTS
 62
     0
100
AcDbPoint
 10
-9.113276501037034
 20
1777.947196897494
 30
0.0
  0
POINT
  5
1DFC7
330
1D4F1
100
AcDbEntity
  8
DEFPOINTS
 62
     0
100
AcDbPoint
 10
85.88672349896194
 20
1732.547196897494
 30
0.0
  0
POINT
  5
1DFC8
330
1D4F1
100
AcDbEntity
  8
DEFPOINTS
 62
     0
100
AcDbPoint
 10
-54.11327650103704
 20
1732.547196897494
 30
0.0
  0
ENDBLK
  5
1D4FC
330
1D4F1
100
AcDbEntity
  8
0
100
AcDbBlockEnd
  0
BLOCK
  5
1D509
330
1D4FD
100
AcDbEntity
  8
0
100
AcDbBlockBegin
  2
*D18
 70
     1
 10
0.0
 20
0.0
 30
0.0
  3
*D18
  1

  0
LINE
  5
1DFD2
330
1D4FD
100
AcDbEntity
  8
SUNPOU
 62
     1
100
AcDbLine
 10
-11.11327650103703
 20
1735.547196897494
 30
0.0
 11
-46.61327650103703
 21
1735.547196897494
 31
0.0
  0
LINE
  5
1DFD3
330
1D4FD
100
AcDbEntity
  8
SUNPOU
 62
     1
100
AcDbLine
 10
-16.61327650103703
 20
1732.547196897494
 30
0.0
 11
-46.61327650103703
 21
1732.547196897494
 31
0.0
  0
LINE
  5
1DFD4
330
1D4FD
100
AcDbEntity
  8
SUNPOU
 62
     1
100
AcDbLine
 10
-46.11327650103703
 20
1738.547196897494
 30
0.0
 11
-46.11327650103703
 21
1741.547196897494
 31
0.0
  0
LINE
  5
1DFD5
330
1D4FD
100
AcDbEntity
  8
SUNPOU
 62
     1
100
AcDbLine
 10
-46.11327650103703
 20
1729.547196897494
 30
0.0
 11
-46.11327650103703
 21
1717.547196897494
 31
0.0
  0
LINE
  5
1DFD6
330
1D4FD
100
AcDbEntity
  8
SUNPOU
 62
     1
100
AcDbLine
 10
-46.11327650103703
 20
1735.547196897494
 30
0.0
 11
-46.11327650103703
 21
1732.547196897494
 31
0.0
  0
SOLID
  5
1DFD7
330
1D4FD
100
AcDbEntity
  8
SUNPOU
 62
     1
100
AcDbTrace
 10
-46.61327650103703
 20
1738.547196897494
 30
0.0
 11
-45.61327650103703
 21
1738.547196897494
 31
0.0
 12
-46.11327650103703
 22
1735.547196897494
 32
0.0
 13
-46.11327650103703
 23
1735.547196897494
 33
0.0
  0
SOLID
  5
1DFD8
330
1D4FD
100
AcDbEntity
  8
SUNPOU
 62
     1
100
AcDbTrace
 10
-46.61327650103703
 20
1729.547196897494
 30
0.0
 11
-45.61327650103703
 21
1729.547196897494
 31
0.0
 12
-46.11327650103703
 22
1732.547196897494
 32
0.0
 13
-46.11327650103703
 23
1732.547196897494
 33
0.0
  0
MTEXT
  5
1DFD9
330
1D4FD
100
AcDbEntity
  8
SUNPOU
 62
     1
100
AcDbMText
 10
-48.86327650103731
 20
1722.047196897494
 30
0.0
 40
3.5
 41
0.0
 71
     5
 72
     1
  1
\A1;(3)
 11
0.0000000000000001
 21
1.0
 31
0.0
1001
ACAD
1000
MTEXTBEGIN
1070
    73
1070
     1
1070
    44
1040
1.0
1070
    74
1070
     0
1000
MTEXTEND
  0
POINT
  5
1DFDA
330
1D4FD
100
AcDbEntity
  8
DEFPOINTS
 62
     0
100
AcDbPoint
 10
-10.61327650103703
 20
1735.547196897494
 30
0.0
  0
POINT
  5
1DFDB
330
1D4FD
100
AcDbEntity
  8
DEFPOINTS
 62
     0
100
AcDbPoint
 10
-16.11327650103703
 20
1732.547196897494
 30
0.0
  0
POINT
  5
1DFDC
330
1D4FD
100
AcDbEntity
  8
DEFPOINTS
 62
     0
100
AcDbPoint
 10
-46.11327650103703
 20
1732.547196897494
 30
0.0
  0
ENDBLK
  5
1D50A
330
1D4FD
100
AcDbEntity
  8
0
100
AcDbBlockEnd
  0
BLOCK
  5
1D515
330
1D50B
100
AcDbEntity
  8
0
100
AcDbBlockBegin
  2
*D19
 70
     1
 10
0.0
 20
0.0
 30
0.0
  3
*D19
  1

  0
LINE
  5
1DDD2
330
1D50B
100
AcDbEntity
  8
SUNPOU
 62
     1
100
AcDbLine
 10
-20.61327650103703
 20
1576.238420296539
 30
0.0
 11
-28.61327650103705
 21
1576.238420296539
 31
0.0
  0
LINE
  5
1DDD3
330
1D50B
100
AcDbEntity
  8
SUNPOU
 62
     1
100
AcDbLine
 10
-11.61327650103703
 20
1683.238420296539
 30
0.0
 11
-28.61327650103703
 21
1683.238420296539
 31
0.0
  0
LINE
  5
1DDD4
330
1D50B
100
AcDbEntity
  8
SUNPOU
 62
     1
100
AcDbLine
 10
-28.11327650103705
 20
1579.238420296539
 30
0.0
 11
-28.11327650103703
 21
1680.238420296539
 31
0.0
  0
SOLID
  5
1DDD5
330
1D50B
100
AcDbEntity
  8
SUNPOU
 62
     1
100
AcDbTrace
 10
-28.61327650103705
 20
1579.238420296539
 30
0.0
 11
-27.61327650103705
 21
1579.238420296539
 31
0.0
 12
-28.11327650103705
 22
1576.238420296539
 32
0.0
 13
-28.11327650103705
 23
1576.238420296539
 33
0.0
  0
SOLID
  5
1DDD6
330
1D50B
100
AcDbEntity
  8
SUNPOU
 62
     1
100
AcDbTrace
 10
-28.61327650103703
 20
1680.238420296539
 30
0.0
 11
-27.61327650103703
 21
1680.238420296539
 31
0.0
 12
-28.11327650103703
 22
1683.238420296539
 32
0.0
 13
-28.11327650103703
 23
1683.238420296539
 33
0.0
  0
MTEXT
  5
1DDD7
330
1D50B
100
AcDbEntity
  8
SUNPOU
 62
     1
100
AcDbMText
 10
-30.86327650103731
 20
1629.738420296539
 30
0.0
 40
3.5
 41
0.0
 71
     5
 72
     1
  1
\A1;107
 11
0.0000000000000001
 21
1.0
 31
0.0
1001
ACAD
1000
MTEXTBEGIN
1070
    73
1070
     1
1070
    44
1040
1.0
1070
    74
1070
     0
1000
MTEXTEND
  0
POINT
  5
1DDD8
330
1D50B
100
AcDbEntity
  8
DEFPOINTS
 62
     0
100
AcDbPoint
 10
-20.11327650103703
 20
1576.238420296539
 30
0.0
  0
POINT
  5
1DDD9
330
1D50B
100
AcDbEntity
  8
DEFPOINTS
 62
     0
100
AcDbPoint
 10
-11.11327650103703
 20
1683.238420296539
 30
0.0
  0
POINT
  5
1DDDA
330
1D50B
100
AcDbEntity
  8
DEFPOINTS
 62
     0
100
AcDbPoint
 10
-28.11327650103703
 20
1683.238420296539
 30
0.0
  0
ENDBLK
  5
1D516
330
1D50B
100
AcDbEntity
  8
0
100
AcDbBlockEnd
  0
BLOCK
  5
1D521
330
1D517
100
AcDbEntity
  8
0
100
AcDbBlockBegin
  2
*D20
 70
     1
 10
0.0
 20
0.0
 30
0.0
  3
*D20
  1

  0
LINE
  5
1DE15
330
1D517
100
AcDbEntity
  8
SUNPOU
 62
     1
100
AcDbLine
 10
-20.61327650103703
 20
1576.238420296539
 30
0.0
 11
-43.27471541079897
 21
1576.238420296539
 31
0.0
  0
LINE
  5
1DE16
330
1D517
100
AcDbEntity
  8
SUNPOU
 62
     1
100
AcDbLine
 10
30.88672349896274
 20
1686.238420296538
 30
0.0
 11
-43.27471541079893
 21
1686.238420296538
 31
0.0
  0
LINE
  5
1DE17
330
1D517
100
AcDbEntity
  8
SUNPOU
 62
     1
100
AcDbLine
 10
-42.77471541079896
 20
1579.238420296539
 30
0.0
 11
-42.77471541079894
 21
1683.238420296539
 31
0.0
  0
SOLID
  5
1DE18
330
1D517
100
AcDbEntity
  8
SUNPOU
 62
     1
100
AcDbTrace
 10
-43.27471541079897
 20
1579.238420296539
 30
0.0
 11
-42.27471541079896
 21
1579.238420296539
 31
0.0
 12
-42.77471541079896
 22
1576.238420296539
 32
0.0
 13
-42.77471541079896
 23
1576.238420296539
 33
0.0
  0
SOLID
  5
1DE19
330
1D517
100
AcDbEntity
  8
SUNPOU
 62
     1
100
AcDbTrace
 10
-43.27471541079893
 20
1683.238420296539
 30
0.0
 11
-42.27471541079894
 21
1683.238420296539
 31
0.0
 12
-42.77471541079894
 22
1686.238420296538
 32
0.0
 13
-42.77471541079894
 23
1686.238420296538
 33
0.0
  0
MTEXT
  5
1DE1A
330
1D517
100
AcDbEntity
  8
SUNPOU
 62
     1
100
AcDbMText
 10
-45.52471541079921
 20
1631.238420296539
 30
0.0
 40
3.5
 41
0.0
 71
     5
 72
     1
  1
\A1;(110)
 11
0.0000000000000001
 21
1.0
 31
0.0
1001
ACAD
1000
MTEXTBEGIN
1070
    73
1070
     1
1070
    44
1040
1.0
1070
    74
1070
     0
1000
MTEXTEND
  0
POINT
  5
1DE1B
330
1D517
100
AcDbEntity
  8
DEFPOINTS
 62
     0
100
AcDbPoint
 10
-20.11327650103703
 20
1576.238420296539
 30
0.0
  0
POINT
  5
1DE1C
330
1D517
100
AcDbEntity
  8
DEFPOINTS
 62
     0
100
AcDbPoint
 10
31.38672349896273
 20
1686.238420296538
 30
0.0
  0
POINT
  5
1DE1D
330
1D517
100
AcDbEntity
  8
DEFPOINTS
 62
     0
100
AcDbPoint
 10
-42.77471541079894
 20
1686.238420296538
 30
0.0
  0
ENDBLK
  5
1D522
330
1D517
100
AcDbEntity
  8
0
100
AcDbBlockEnd
  0
BLOCK
  5
1D52F
330
1D523
100
AcDbEntity
  8
0
100
AcDbBlockBegin
  2
*D21
 70
     1
 10
0.0
 20
0.0
 30
0.0
  3
*D21
  1

  0
LINE
  5
1DDBE
330
1D523
100
AcDbEntity
  8
SUNPOU
 62
     1
100
AcDbLine
 10
-11.61327650103703
 20
1683.238420296539
 30
0.0
 11
-28.61327650103703
 21
1683.238420296539
 31
0.0
  0
LINE
  5
1DDBF
330
1D523
100
AcDbEntity
  8
SUNPOU
 62
     1
100
AcDbLine
 10
-11.61327650103703
 20
1686.238420296538
 30
0.0
 11
-28.61327650103703
 21
1686.238420296538
 31
0.0
  0
LINE
  5
1DDC0
330
1D523
100
AcDbEntity
  8
SUNPOU
 62
     1
100
AcDbLine
 10
-28.11327650103703
 20
1680.238420296539
 30
0.0
 11
-28.11327650103703
 21
1677.238420296539
 31
0.0
  0
LINE
  5
1DDC1
330
1D523
100
AcDbEntity
  8
SUNPOU
 62
     1
100
AcDbLine
 10
-28.11327650103703
 20
1689.238420296538
 30
0.0
 11
-28.11327650103703
 21
1701.238420296538
 31
0.0
  0
LINE
  5
1DDC2
330
1D523
100
AcDbEntity
  8
SUNPOU
 62
     1
100
AcDbLine
 10
-28.11327650103703
 20
1683.238420296539
 30
0.0
 11
-28.11327650103703
 21
1686.238420296538
 31
0.0
  0
SOLID
  5
1DDC3
330
1D523
100
AcDbEntity
  8
SUNPOU
 62
     1
100
AcDbTrace
 10
-28.61327650103703
 20
1680.238420296539
 30
0.0
 11
-27.61327650103703
 21
1680.238420296539
 31
0.0
 12
-28.11327650103703
 22
1683.238420296539
 32
0.0
 13
-28.11327650103703
 23
1683.238420296539
 33
0.0
  0
SOLID
  5
1DDC4
330
1D523
100
AcDbEntity
  8
SUNPOU
 62
     1
100
AcDbTrace
 10
-28.61327650103703
 20
1689.238420296538
 30
0.0
 11
-27.61327650103703
 21
1689.238420296538
 31
0.0
 12
-28.11327650103703
 22
1686.238420296538
 32
0.0
 13
-28.11327650103703
 23
1686.238420296538
 33
0.0
  0
MTEXT
  5
1DDC5
330
1D523
100
AcDbEntity
  8
SUNPOU
 62
     1
100
AcDbMText
 10
-30.8632765010373
 20
1696.738420296538
 30
0.0
 40
3.5
 41
0.0
 71
     5
 72
     1
  1
\A1;(3)
 11
0.0000000000000001
 21
1.0
 31
0.0
1001
ACAD
1000
MTEXTBEGIN
1070
    73
1070
     1
1070
    44
1040
1.0
1070
    74
1070
     0
1000
MTEXTEND
  0
POINT
  5
1DDC6
330
1D523
100
AcDbEntity
  8
DEFPOINTS
 62
     0
100
AcDbPoint
 10
-11.11327650103703
 20
1683.238420296539
 30
0.0
  0
POINT
  5
1DDC7
330
1D523
100
AcDbEntity
  8
DEFPOINTS
 62
     0
100
AcDbPoint
 10
-11.11327650103703
 20
1686.238420296538
 30
0.0
  0
POINT
  5
1DDC8
330
1D523
100
AcDbEntity
  8
DEFPOINTS
 62
     0
100
AcDbPoint
 10
-28.11327650103703
 20
1686.238420296538
 30
0.0
  0
ENDBLK
  5
1D530
330
1D523
100
AcDbEntity
  8
0
100
AcDbBlockEnd
  0
BLOCK
  5
1D53B
330
1D531
100
AcDbEntity
  8
0
100
AcDbBlockBegin
  2
*D22
 70
     1
 10
0.0
 20
0.0
 30
0.0
  3
*D22
  1

  0
LINE
  5
1E00E
330
1D531
100
AcDbEntity
  8
SUNPOU
 62
     1
100
AcDbLine
 10
-19.61327650103703
 20
1774.447196897494
 30
0.0
 11
-30.61327650103702
 21
1774.447196897494
 31
0.0
  0
LINE
  5
1E00F
330
1D531
100
AcDbEntity
  8
SUNPOU
 62
     1
100
AcDbLine
 10
-19.61327650103703
 20
1737.447196897494
 30
0.0
 11
-30.61327650103703
 21
1737.447196897494
 31
0.0
  0
LINE
  5
1E010
330
1D531
100
AcDbEntity
  8
SUNPOU
 62
     1
100
AcDbLine
 10
-30.11327650103702
 20
1771.447196897494
 30
0.0
 11
-30.11327650103703
 21
1740.447196897494
 31
0.0
  0
SOLID
  5
1E011
330
1D531
100
AcDbEntity
  8
SUNPOU
 62
     1
100
AcDbTrace
 10
-30.61327650103702
 20
1771.447196897494
 30
0.0
 11
-29.61327650103703
 21
1771.447196897494
 31
0.0
 12
-30.11327650103702
 22
1774.447196897494
 32
0.0
 13
-30.11327650103702
 23
1774.447196897494
 33
0.0
  0
SOLID
  5
1E012
330
1D531
100
AcDbEntity
  8
SUNPOU
 62
     1
100
AcDbTrace
 10
-30.61327650103703
 20
1740.447196897494
 30
0.0
 11
-29.61327650103703
 21
1740.447196897494
 31
0.0
 12
-30.11327650103703
 22
1737.447196897494
 32
0.0
 13
-30.11327650103703
 23
1737.447196897494
 33
0.0
  0
MTEXT
  5
1E013
330
1D531
100
AcDbEntity
  8
SUNPOU
 62
     1
100
AcDbMText
 10
-32.86327650103731
 20
1755.947196897494
 30
0.0
 40
3.5
 41
0.0
 71
     5
 72
     1
  1
\A1;37
 11
0.0000000000000001
 21
1.0
 31
0.0
1001
ACAD
1000
MTEXTBEGIN
1070
    73
1070
     1
1070
    44
1040
1.0
1070
    74
1070
     0
1000
MTEXTEND
  0
POINT
  5
1E014
330
1D531
100
AcDbEntity
  8
DEFPOINTS
 62
     0
100
AcDbPoint
 10
-19.11327650103703
 20
1774.447196897494
 30
0.0
  0
POINT
  5
1E015
330
1D531
100
AcDbEntity
  8
DEFPOINTS
 62
     0
100
AcDbPoint
 10
-19.11327650103703
 20
1737.447196897494
 30
0.0
  0
POINT
  5
1E016
330
1D531
100
AcDbEntity
  8
DEFPOINTS
 62
     0
100
AcDbPoint
 10
-30.11327650103703
 20
1737.447196897494
 30
0.0
  0
ENDBLK
  5
1D53C
330
1D531
100
AcDbEntity
  8
0
100
AcDbBlockEnd
  0
BLOCK
  5
1D549
330
1D53D
100
AcDbEntity
  8
0
100
AcDbBlockBegin
  2
*D23
 70
     1
 10
0.0
 20
0.0
 30
0.0
  3
*D23
  1

  0
LINE
  5
1E003
330
1D53D
100
AcDbEntity
  8
SUNPOU
 62
     1
100
AcDbLine
 10
-19.61327650103703
 20
1774.447196897494
 30
0.0
 11
-30.61327650103703
 21
1774.447196897494
 31
0.0
  0
LINE
  5
1E004
330
1D53D
100
AcDbEntity
  8
SUNPOU
 62
     1
100
AcDbLine
 10
-19.61327650103703
 20
1777.947196897494
 30
0.0
 11
-30.61327650103703
 21
1777.947196897494
 31
0.0
  0
LINE
  5
1E005
330
1D53D
100
AcDbEntity
  8
SUNPOU
 62
     1
100
AcDbLine
 10
-30.11327650103703
 20
1771.447196897494
 30
0.0
 11
-30.11327650103703
 21
1768.447196897494
 31
0.0
  0
LINE
  5
1E006
330
1D53D
100
AcDbEntity
  8
SUNPOU
 62
     1
100
AcDbLine
 10
-30.11327650103703
 20
1780.947196897494
 30
0.0
 11
-30.11327650103703
 21
1792.947196897494
 31
0.0
  0
LINE
  5
1E007
330
1D53D
100
AcDbEntity
  8
SUNPOU
 62
     1
100
AcDbLine
 10
-30.11327650103703
 20
1774.447196897494
 30
0.0
 11
-30.11327650103703
 21
1777.947196897494
 31
0.0
  0
SOLID
  5
1E008
330
1D53D
100
AcDbEntity
  8
SUNPOU
 62
     1
100
AcDbTrace
 10
-30.61327650103703
 20
1771.447196897494
 30
0.0
 11
-29.61327650103703
 21
1771.447196897494
 31
0.0
 12
-30.11327650103703
 22
1774.447196897494
 32
0.0
 13
-30.11327650103703
 23
1774.447196897494
 33
0.0
  0
SOLID
  5
1E009
330
1D53D
100
AcDbEntity
  8
SUNPOU
 62
     1
100
AcDbTrace
 10
-30.61327650103703
 20
1780.947196897494
 30
0.0
 11
-29.61327650103703
 21
1780.947196897494
 31
0.0
 12
-30.11327650103703
 22
1777.947196897494
 32
0.0
 13
-30.11327650103703
 23
1777.947196897494
 33
0.0
  0
MTEXT
  5
1E00A
330
1D53D
100
AcDbEntity
  8
SUNPOU
 62
     1
100
AcDbMText
 10
-32.86327650103732
 20
1788.447196897494
 30
0.0
 40
3.5
 41
0.0
 71
     5
 72
     1
  1
\A1;3.5
 11
0.0000000000000001
 21
1.0
 31
0.0
1001
ACAD
1000
MTEXTBEGIN
1070
    73
1070
     1
1070
    44
1040
1.0
1070
    74
1070
     0
1000
MTEXTEND
  0
POINT
  5
1E00B
330
1D53D
100
AcDbEntity
  8
DEFPOINTS
 62
     0
100
AcDbPoint
 10
-19.11327650103703
 20
1774.447196897494
 30
0.0
  0
POINT
  5
1E00C
330
1D53D
100
AcDbEntity
  8
DEFPOINTS
 62
     0
100
AcDbPoint
 10
-19.11327650103703
 20
1777.947196897494
 30
0.0
  0
POINT
  5
1E00D
330
1D53D
100
AcDbEntity
  8
DEFPOINTS
 62
     0
100
AcDbPoint
 10
-30.11327650103703
 20
1777.947196897494
 30
0.0
  0
ENDBLK
  5
1D54A
330
1D53D
100
AcDbEntity
  8
0
100
AcDbBlockEnd
  0
ENDSEC
  0
SECTION
  2
ENTITIES
  0
MTEXT
  5
5084
330
1A
100
AcDbEntity
  8
0
100
AcDbMText
 10
1985.239088685434
 20
-948.5420423450428
 30
0.0
 40
8.0
 41
0.0
 71
     7
 72
     5
  1

1001
ACAD
1000
MTEXTBEGIN
1070
    73
1070
     1
1070
    44
1040
1.0
1070
    74
1070
     0
1000
MTEXTEND
1000
MTEXTBEGIN
1070
    73
1070
     1
1070
    44
1040
1.0
1070
    74
1070
     0
1000
MTEXTEND
  0
MTEXT
  5
5085
330
1A
100
AcDbEntity
  8
0
100
AcDbMText
 10
4270.596778580329
 20
22.24825240601648
 30
0.0
 40
8.0
 41
0.0
 71
     7
 72
     5
  1

1001
ACAD
1000
MTEXTBEGIN
1070
    73
1070
     1
1070
    44
1040
1.0
1070
    74
1070
     0
1000
MTEXTEND
1000
MTEXTBEGIN
1070
    73
1070
     1
1070
    44
1040
1.0
1070
    74
1070
     0
1000
MTEXTEND
  0
MTEXT
  5
5343
330
1A
100
AcDbEntity
  8
SUNPOU
100
AcDbMText
 10
6936.493799262471
 20
9534.359644781137
 30
0.0
 40
10.5
 41
0.0
 71
     1
 72
     5
  1

1001
ACAD
1000
MTEXTBEGIN
1070
    73
1070
     1
1070
    44
1040
1.0
1070
    74
1070
     0
1000
MTEXTEND
1000
MTEXTBEGIN
1070
    73
1070
     1
1070
    44
1040
1.0
1070
    74
1070
     0
1000
MTEXTEND
  0
MTEXT
  5
544F
330
1A
100
AcDbEntity
  8
0
100
AcDbMText
 10
16317.2832773148
 20
12833.35428897674
 30
0.0
 40
8.0
 41
0.0
 71
     7
 72
     5
  1

1001
ACAD
1000
MTEXTBEGIN
1070
    73
1070
     1
1070
    44
1040
1.0
1070
    74
1070
     0
1000
MTEXTEND
1000
MTEXTBEGIN
1070
    73
1070
     1
1070
    44
1040
1.0
1070
    74
1070
     0
1000
MTEXTEND
  0
MTEXT
  5
5450
330
1A
100
AcDbEntity
  8
0
100
AcDbMText
 10
18602.64096720968
 20
13804.1445837278
 30
0.0
 40
8.0
 41
0.0
 71
     7
 72
     5
  1

1001
ACAD
1000
MTEXTBEGIN
1070
    73
1070
     1
1070
    44
1040
1.0
1070
    74
1070
     0
1000
MTEXTEND
1000
MTEXTBEGIN
1070
    73
1070
     1
1070
    44
1040
1.0
1070
    74
1070
     0
1000
MTEXTEND
  0
MTEXT
  5
5451
330
1A
100
AcDbEntity
  8
SUNPOU
100
AcDbMText
 10
21268.53798789184
 20
23316.25597610292
 30
0.0
 40
10.5
 41
0.0
 71
     1
 72
     5
  1

1001
ACAD
1000
MTEXTBEGIN
1070
    73
1070
     1
1070
    44
1040
1.0
1070
    74
1070
     0
1000
MTEXTEND
1000
MTEXTBEGIN
1070
    73
1070
     1
1070
    44
1040
1.0
1070
    74
1070
     0
1000
MTEXTEND
  0
MTEXT
  5
5452
330
1A
100
AcDbEntity
  8
SUNPOU
100
AcDbMText
 10
13337.6147919559
 20
22369.46284218996
 30
0.0
 40
10.5
 41
0.0
 71
     7
 72
     5
  1

1001
ACAD
1000
MTEXTBEGIN
1070
    73
1070
     1
1070
    44
1040
1.0
1070
    74
1070
     0
1000
MTEXTEND
1000
MTEXTBEGIN
1070
    73
1070
     1
1070
    44
1040
1.0
1070
    74
1070
     0
1000
MTEXTEND
  0
MTEXT
  5
5453
330
1A
100
AcDbEntity
  8
SUNPOU
100
AcDbMText
 10
16286.59845646867
 20
27270.1389140328
 30
0.0
 40
10.5
 41
0.0
 71
     7
 72
     5
  1

1001
ACAD
1000
MTEXTBEGIN
1070
    73
1070
     1
1070
    44
1040
1.0
1070
    74
1070
     0
1000
MTEXTEND
1000
MTEXTBEGIN
1070
    73
1070
     1
1070
    44
1040
1.0
1070
    74
1070
     0
1000
MTEXTEND
  0
MTEXT
  5
5454
330
1A
100
AcDbEntity
  8
SUNPOU
100
AcDbMText
 10
20795.67658441924
 20
29706.43966165288
 30
0.0
 40
10.5
 41
0.0
 71
     7
 72
     5
  1

1001
ACAD
1000
MTEXTBEGIN
1070
    73
1070
     1
1070
    44
1040
1.0
1070
    74
1070
     0
1000
MTEXTEND
1000
MTEXTBEGIN
1070
    73
1070
     1
1070
    44
1040
1.0
1070
    74
1070
     0
1000
MTEXTEND
  0
MTEXT
  5
5455
330
1A
100
AcDbEntity
  8
0
100
AcDbMText
 10
16611.93789220313
 20
14707.52144344448
 30
0.0
 40
8.0
 41
0.0
 71
     7
 72
     5
  1

1001
ACAD
1000
MTEXTBEGIN
1070
    73
1070
     1
1070
    44
1040
1.0
1070
    74
1070
     0
1000
MTEXTEND
1000
MTEXTBEGIN
1070
    73
1070
     1
1070
    44
1040
1.0
1070
    74
1070
     0
1000
MTEXTEND
  0
MTEXT
  5
5456
330
1A
100
AcDbEntity
  8
0
100
AcDbMText
 10
18897.29558209803
 20
15678.31173819554
 30
0.0
 40
8.0
 41
0.0
 71
     7
 72
     5
  1

1001
ACAD
1000
MTEXTBEGIN
1070
    73
1070
     1
1070
    44
1040
1.0
1070
    74
1070
     0
1000
MTEXTEND
1000
MTEXTBEGIN
1070
    73
1070
     1
1070
    44
1040
1.0
1070
    74
1070
     0
1000
MTEXTEND
  0
MTEXT
  5
5457
330
1A
100
AcDbEntity
  8
SUNPOU
100
AcDbMText
 10
21563.19260278019
 20
25190.42313057066
 30
0.0
 40
10.5
 41
0.0
 71
     1
 72
     5
  1

1001
ACAD
1000
MTEXTBEGIN
1070
    73
1070
     1
1070
    44
1040
1.0
1070
    74
1070
     0
1000
MTEXTEND
1000
MTEXTBEGIN
1070
    73
1070
     1
1070
    44
1040
1.0
1070
    74
1070
     0
1000
MTEXTEND
  0
MTEXT
  5
5458
330
1A
100
AcDbEntity
  8
SUNPOU
100
AcDbMText
 10
13632.26940684425
 20
24243.6299966577
 30
0.0
 40
10.5
 41
0.0
 71
     7
 72
     5
  1

1001
ACAD
1000
MTEXTBEGIN
1070
    73
1070
     1
1070
    44
1040
1.0
1070
    74
1070
     0
1000
MTEXTEND
1000
MTEXTBEGIN
1070
    73
1070
     1
1070
    44
1040
1.0
1070
    74
1070
     0
1000
MTEXTEND
  0
MTEXT
  5
5459
330
1A
100
AcDbEntity
  8
SUNPOU
100
AcDbMText
 10
16581.25307135702
 20
29144.30606850055
 30
0.0
 40
10.5
 41
0.0
 71
     7
 72
     5
  1

1001
ACAD
1000
MTEXTBEGIN
1070
    73
1070
     1
1070
    44
1040
1.0
1070
    74
1070
     0
1000
MTEXTEND
1000
MTEXTBEGIN
1070
    73
1070
     1
1070
    44
1040
1.0
1070
    74
1070
     0
1000
MTEXTEND
  0
MTEXT
  5
545A
330
1A
100
AcDbEntity
  8
SUNPOU
100
AcDbMText
 10
21090.33119930759
 20
31580.60681612062
 30
0.0
 40
10.5
 41
0.0
 71
     7
 72
     5
  1

1001
ACAD
1000
MTEXTBEGIN
1070
    73
1070
     1
1070
    44
1040
1.0
1070
    74
1070
     0
1000
MTEXTEND
1000
MTEXTBEGIN
1070
    73
1070
     1
1070
    44
1040
1.0
1070
    74
1070
     0
1000
MTEXTEND
  0
MTEXT
  5
545B
330
1A
100
AcDbEntity
  8
0
100
AcDbMText
 10
22871.60517627166
 20
23974.88367124799
 30
0.0
 40
8.0
 41
0.0
 71
     7
 72
     5
  1

1001
ACAD
1000
MTEXTBEGIN
1070
    73
1070
     1
1070
    44
1040
1.0
1070
    74
1070
     0
1000
MTEXTEND
1000
MTEXTBEGIN
1070
    73
1070
     1
1070
    44
1040
1.0
1070
    74
1070
     0
1000
MTEXTEND
  0
MTEXT
  5
545C
330
1A
100
AcDbEntity
  8
0
100
AcDbMText
 10
25156.96286616656
 20
24945.67396599905
 30
0.0
 40
8.0
 41
0.0
 71
     7
 72
     5
  1

1001
ACAD
1000
MTEXTBEGIN
1070
    73
1070
     1
1070
    44
1040
1.0
1070
    74
1070
     0
1000
MTEXTEND
1000
MTEXTBEGIN
1070
    73
1070
     1
1070
    44
1040
1.0
1070
    74
1070
     0
1000
MTEXTEND
  0
MTEXT
  5
545D
330
1A
100
AcDbEntity
  8
SUNPOU
100
AcDbMText
 10
27822.85988684871
 20
34457.78535837418
 30
0.0
 40
10.5
 41
0.0
 71
     1
 72
     5
  1

1001
ACAD
1000
MTEXTBEGIN
1070
    73
1070
     1
1070
    44
1040
1.0
1070
    74
1070
     0
1000
MTEXTEND
1000
MTEXTBEGIN
1070
    73
1070
     1
1070
    44
1040
1.0
1070
    74
1070
     0
1000
MTEXTEND
  0
MTEXT
  5
545E
330
1A
100
AcDbEntity
  8
SUNPOU
100
AcDbMText
 10
19891.93669091278
 20
33510.99222446122
 30
0.0
 40
10.5
 41
0.0
 71
     7
 72
     5
  1

1001
ACAD
1000
MTEXTBEGIN
1070
    73
1070
     1
1070
    44
1040
1.0
1070
    74
1070
     0
1000
MTEXTEND
1000
MTEXTBEGIN
1070
    73
1070
     1
1070
    44
1040
1.0
1070
    74
1070
     0
1000
MTEXTEND
  0
MTEXT
  5
545F
330
1A
100
AcDbEntity
  8
SUNPOU
100
AcDbMText
 10
22840.92035542555
 20
38411.66829630406
 30
0.0
 40
10.5
 41
0.0
 71
     7
 72
     5
  1

1001
ACAD
1000
MTEXTBEGIN
1070
    73
1070
     1
1070
    44
1040
1.0
1070
    74
1070
     0
1000
MTEXTEND
1000
MTEXTBEGIN
1070
    73
1070
     1
1070
    44
1040
1.0
1070
    74
1070
     0
1000
MTEXTEND
  0
MTEXT
  5
5460
330
1A
100
AcDbEntity
  8
SUNPOU
100
AcDbMText
 10
27349.99848337611
 20
40847.96904392415
 30
0.0
 40
10.5
 41
0.0
 71
     7
 72
     5
  1

1001
ACAD
1000
MTEXTBEGIN
1070
    73
1070
     1
1070
    44
1040
1.0
1070
    74
1070
     0
1000
MTEXTEND
1000
MTEXTBEGIN
1070
    73
1070
     1
1070
    44
1040
1.0
1070
    74
1070
     0
1000
MTEXTEND
  0
MTEXT
  5
55B7
330
1A
100
AcDbEntity
  8
SUNPOU
100
AcDbMText
 10
67424.23923338197
 20
64463.86602884816
 30
0.0
 40
10.5
 41
0.0
 71
     9
 72
     5
  1

1001
ACAD
1000
MTEXTBEGIN
1070
    73
1070
     1
1070
    44
1040
1.0
1070
    74
1070
     0
1000
MTEXTEND
1000
MTEXTBEGIN
1070
    73
1070
     1
1070
    44
1040
1.0
1070
    74
1070
     0
1000
MTEXTEND
  0
MTEXT
  5
55B8
330
1A
100
AcDbEntity
  8
SUNPOU
100
AcDbMText
 10
76146.40679929998
 20
71879.70056038563
 30
0.0
 40
10.5
 41
0.0
 71
     9
 72
     5
  1

1001
ACAD
1000
MTEXTBEGIN
1070
    73
1070
     1
1070
    44
1040
1.0
1070
    74
1070
     0
1000
MTEXTEND
1000
MTEXTBEGIN
1070
    73
1070
     1
1070
    44
1040
1.0
1070
    74
1070
     0
1000
MTEXTEND
  0
MTEXT
  5
55B9
330
1A
100
AcDbEntity
  8
SUNPOU
100
AcDbMText
 10
95100.16551662994
 20
89346.27661287766
 30
0.0
 40
10.5
 41
0.0
 71
     9
 72
     5
  1

1001
ACAD
1000
MTEXTBEGIN
1070
    73
1070
     1
1070
    44
1040
1.0
1070
    74
1070
     0
1000
MTEXTEND
1000
MTEXTBEGIN
1070
    73
1070
     1
1070
    44
1040
1.0
1070
    74
1070
     0
1000
MTEXTEND
  0
MTEXT
  5
55BA
330
1A
100
AcDbEntity
  8
SUNPOU
100
AcDbMText
 10
97043.57276333935
 20
87545.22753299966
 30
0.0
 40
3.5
 41
0.0
 71
     9
 72
     5
  1

1001
ACAD
1000
MTEXTBEGIN
1070
    73
1070
     1
1070
    44
1040
1.0
1070
    74
1070
     0
1000
MTEXTEND
1000
MTEXTBEGIN
1070
    73
1070
     1
1070
    44
1040
1.0
1070
    74
1070
     0
1000
MTEXTEND
  0
MTEXT
  5
55BB
330
1A
100
AcDbEntity
  8
SUNPOU
100
AcDbMText
 10
128169.7525959589
 20
130040.1732006569
 30
0.0
 40
10.5
 41
0.0
 71
     9
 72
     5
  1

1001
ACAD
1000
MTEXTBEGIN
1070
    73
1070
     1
1070
    44
1040
1.0
1070
    74
1070
     0
1000
MTEXTEND
1000
MTEXTBEGIN
1070
    73
1070
     1
1070
    44
1040
1.0
1070
    74
1070
     0
1000
MTEXTEND
  0
MTEXT
  5
55BC
330
1A
100
AcDbEntity
  8
SUNPOU
100
AcDbMText
 10
130113.1598426684
 20
128239.1241207789
 30
0.0
 40
3.5
 41
0.0
 71
     9
 72
     5
  1

1001
ACAD
1000
MTEXTBEGIN
1070
    73
1070
     1
1070
    44
1040
1.0
1070
    74
1070
     0
1000
MTEXTEND
1000
MTEXTBEGIN
1070
    73
1070
     1
1070
    44
1040
1.0
1070
    74
1070
     0
1000
MTEXTEND
  0
MTEXT
  5
55BD
330
1A
100
AcDbEntity
  8
SUNPOU
100
AcDbMText
 10
78610.02030175463
 20
75873.33835563206
 30
0.0
 40
10.5
 41
0.0
 71
     9
 72
     5
  1

1001
ACAD
1000
MTEXTBEGIN
1070
    73
1070
     1
1070
    44
1040
1.0
1070
    74
1070
     0
1000
MTEXTEND
1000
MTEXTBEGIN
1070
    73
1070
     1
1070
    44
1040
1.0
1070
    74
1070
     0
1000
MTEXTEND
  0
MTEXT
  5
55BE
330
1A
100
AcDbEntity
  8
SUNPOU
100
AcDbMText
 10
64662.02020137862
 20
56700.93921651987
 30
0.0
 40
3.5
 41
0.0
 71
     7
 72
     5
  1

1001
ACAD
1000
MTEXTBEGIN
1070
    73
1070
     1
1070
    44
1040
1.0
1070
    74
1070
     0
1000
MTEXTEND
1000
MTEXTBEGIN
1070
    73
1070
     1
1070
    44
1040
1.0
1070
    74
1070
     0
1000
MTEXTEND
  0
MTEXT
  5
55BF
330
1A
100
AcDbEntity
  8
SUNPOU
100
AcDbMText
 10
45647.18959837177
 20
44463.08794733806
 30
0.0
 40
10.5
 41
0.0
 71
     7
 72
     5
  1

1001
ACAD
1000
MTEXTBEGIN
1070
    73
1070
     1
1070
    44
1040
1.0
1070
    74
1070
     0
1000
MTEXTEND
1000
MTEXTBEGIN
1070
    73
1070
     1
1070
    44
1040
1.0
1070
    74
1070
     0
1000
MTEXTEND
  0
MTEXT
  5
55C0
330
1A
100
AcDbEntity
  8
SUNPOU
100
AcDbMText
 10
33189.96133342368
 20
28618.15636923965
 30
0.0
 40
35.0
 41
0.0
 71
     9
 72
     5
  1

1001
ACAD
1000
MTEXTBEGIN
1070
    73
1070
     1
1070
    44
1040
1.0
1070
    74
1070
     0
1000
MTEXTEND
1000
MTEXTBEGIN
1070
    73
1070
     1
1070
    44
1040
1.0
1070
    74
1070
     0
1000
MTEXTEND
  0
MTEXT
  5
55C1
330
1A
100
AcDbEntity
  8
SUNPOU
100
AcDbMText
 10
32098.44639099864
 20
29226.93177928834
 30
0.0
 40
350.0000004171781
 41
0.0
 71
     7
 72
     5
  1

1001
ACAD
1000
MTEXTBEGIN
1070
    73
1070
     1
1070
    44
1040
1.0
1070
    74
1070
     0
1000
MTEXTEND
1000
MTEXTBEGIN
1070
    73
1070
     1
1070
    44
1040
1.0
1070
    74
1070
     0
1000
MTEXTEND
  0
MTEXT
  5
55C2
330
1A
100
AcDbEntity
  8
0
100
AcDbMText
 10
38142.39714894154
 20
27206.85414142458
 30
0.0
 40
8.0
 41
0.0
 71
     7
 72
     5
  1

1001
ACAD
1000
MTEXTBEGIN
1070
    73
1070
     1
1070
    44
1040
1.0
1070
    74
1070
     0
1000
MTEXTEND
1000
MTEXTBEGIN
1070
    73
1070
     1
1070
    44
1040
1.0
1070
    74
1070
     0
1000
MTEXTEND
  0
MTEXT
  5
55C3
330
1A
100
AcDbEntity
  8
0
100
AcDbMText
 10
40427.75483883644
 20
28177.64443617564
 30
0.0
 40
8.0
 41
0.0
 71
     7
 72
     5
  1

1001
ACAD
1000
MTEXTBEGIN
1070
    73
1070
     1
1070
    44
1040
1.0
1070
    74
1070
     0
1000
MTEXTEND
1000
MTEXTBEGIN
1070
    73
1070
     1
1070
    44
1040
1.0
1070
    74
1070
     0
1000
MTEXTEND
  0
MTEXT
  5
55C4
330
1A
100
AcDbEntity
  8
SUNPOU
100
AcDbMText
 10
43093.65185951858
 20
37689.75582855077
 30
0.0
 40
10.5
 41
0.0
 71
     1
 72
     5
  1

1001
ACAD
1000
MTEXTBEGIN
1070
    73
1070
     1
1070
    44
1040
1.0
1070
    74
1070
     0
1000
MTEXTEND
1000
MTEXTBEGIN
1070
    73
1070
     1
1070
    44
1040
1.0
1070
    74
1070
     0
1000
MTEXTEND
  0
MTEXT
  5
55C5
330
1A
100
AcDbEntity
  8
SUNPOU
100
AcDbMText
 10
35162.72866358265
 20
36742.96269463781
 30
0.0
 40
10.5
 41
0.0
 71
     7
 72
     5
  1

1001
ACAD
1000
MTEXTBEGIN
1070
    73
1070
     1
1070
    44
1040
1.0
1070
    74
1070
     0
1000
MTEXTEND
1000
MTEXTBEGIN
1070
    73
1070
     1
1070
    44
1040
1.0
1070
    74
1070
     0
1000
MTEXTEND
  0
MTEXT
  5
55C6
330
1A
100
AcDbEntity
  8
SUNPOU
100
AcDbMText
 10
38111.71232809542
 20
41643.63876648065
 30
0.0
 40
10.5
 41
0.0
 71
     7
 72
     5
  1

1001
ACAD
1000
MTEXTBEGIN
1070
    73
1070
     1
1070
    44
1040
1.0
1070
    74
1070
     0
1000
MTEXTEND
1000
MTEXTBEGIN
1070
    73
1070
     1
1070
    44
1040
1.0
1070
    74
1070
     0
1000
MTEXTEND
  0
MTEXT
  5
55C7
330
1A
100
AcDbEntity
  8
SUNPOU
100
AcDbMText
 10
42620.79045604596
 20
44079.93951410074
 30
0.0
 40
10.5
 41
0.0
 71
     7
 72
     5
  1

1001
ACAD
1000
MTEXTBEGIN
1070
    73
1070
     1
1070
    44
1040
1.0
1070
    74
1070
     0
1000
MTEXTEND
1000
MTEXTBEGIN
1070
    73
1070
     1
1070
    44
1040
1.0
1070
    74
1070
     0
1000
MTEXTEND
  0
MTEXT
  5
55C8
330
1A
100
AcDbEntity
  8
SUNPOU
100
AcDbMText
 10
26221.62834281429
 20
23077.53566448964
 30
0.0
 40
10.5
 41
0.0
 71
     7
 72
     5
  1

1001
ACAD
1000
MTEXTBEGIN
1070
    73
1070
     1
1070
    44
1040
1.0
1070
    74
1070
     0
1000
MTEXTEND
1000
MTEXTBEGIN
1070
    73
1070
     1
1070
    44
1040
1.0
1070
    74
1070
     0
1000
MTEXTEND
  0
MTEXT
  5
55C9
330
1A
100
AcDbEntity
  8
SUNPOU
100
AcDbMText
 10
77413.14677671455
 20
68750.51622813789
 30
0.0
 40
10.5
 41
0.0
 71
     9
 72
     5
  1

1001
ACAD
1000
MTEXTBEGIN
1070
    73
1070
     1
1070
    44
1040
1.0
1070
    74
1070
     0
1000
MTEXTEND
1000
MTEXTBEGIN
1070
    73
1070
     1
1070
    44
1040
1.0
1070
    74
1070
     0
1000
MTEXTEND
  0
MTEXT
  5
55CA
330
1A
100
AcDbEntity
  8
SUNPOU
100
AcDbMText
 10
86135.31434263256
 20
76166.35075967536
 30
0.0
 40
10.5
 41
0.0
 71
     9
 72
     5
  1

1001
ACAD
1000
MTEXTBEGIN
1070
    73
1070
     1
1070
    44
1040
1.0
1070
    74
1070
     0
1000
MTEXTEND
1000
MTEXTBEGIN
1070
    73
1070
     1
1070
    44
1040
1.0
1070
    74
1070
     0
1000
MTEXTEND
  0
MTEXT
  5
55CB
330
1A
100
AcDbEntity
  8
SUNPOU
100
AcDbMText
 10
105089.0730599624
 20
93632.92681216739
 30
0.0
 40
10.5
 41
0.0
 71
     9
 72
     5
  1

1001
ACAD
1000
MTEXTBEGIN
1070
    73
1070
     1
1070
    44
1040
1.0
1070
    74
1070
     0
1000
MTEXTEND
1000
MTEXTBEGIN
1070
    73
1070
     1
1070
    44
1040
1.0
1070
    74
1070
     0
1000
MTEXTEND
  0
MTEXT
  5
55CC
330
1A
100
AcDbEntity
  8
SUNPOU
100
AcDbMText
 10
107032.4803066718
 20
91831.87773228938
 30
0.0
 40
3.5
 41
0.0
 71
     9
 72
     5
  1

1001
ACAD
1000
MTEXTBEGIN
1070
    73
1070
     1
1070
    44
1040
1.0
1070
    74
1070
     0
1000
MTEXTEND
1000
MTEXTBEGIN
1070
    73
1070
     1
1070
    44
1040
1.0
1070
    74
1070
     0
1000
MTEXTEND
  0
MTEXT
  5
55CD
330
1A
100
AcDbEntity
  8
SUNPOU
100
AcDbMText
 10
138158.6601392916
 20
134326.8233999467
 30
0.0
 40
10.5
 41
0.0
 71
     9
 72
     5
  1

1001
ACAD
1000
MTEXTBEGIN
1070
    73
1070
     1
1070
    44
1040
1.0
1070
    74
1070
     0
1000
MTEXTEND
1000
MTEXTBEGIN
1070
    73
1070
     1
1070
    44
1040
1.0
1070
    74
1070
     0
1000
MTEXTEND
  0
MTEXT
  5
55CE
330
1A
100
AcDbEntity
  8
SUNPOU
100
AcDbMText
 10
140102.067386001
 20
132525.7743200686
 30
0.0
 40
3.5
 41
0.0
 71
     9
 72
     5
  1

1001
ACAD
1000
MTEXTBEGIN
1070
    73
1070
     1
1070
    44
1040
1.0
1070
    74
1070
     0
1000
MTEXTEND
1000
MTEXTBEGIN
1070
    73
1070
     1
1070
    44
1040
1.0
1070
    74
1070
     0
1000
MTEXTEND
  0
MTEXT
  5
55CF
330
1A
100
AcDbEntity
  8
SUNPOU
100
AcDbMText
 10
88598.92784508721
 20
80159.98855492179
 30
0.0
 40
10.5
 41
0.0
 71
     9
 72
     5
  1

1001
ACAD
1000
MTEXTBEGIN
1070
    73
1070
     1
1070
    44
1040
1.0
1070
    74
1070
     0
1000
MTEXTEND
1000
MTEXTBEGIN
1070
    73
1070
     1
1070
    44
1040
1.0
1070
    74
1070
     0
1000
MTEXTEND
  0
MTEXT
  5
55D0
330
1A
100
AcDbEntity
  8
SUNPOU
100
AcDbMText
 10
74650.92774471121
 20
60987.58941580959
 30
0.0
 40
3.5
 41
0.0
 71
     7
 72
     5
  1

1001
ACAD
1000
MTEXTBEGIN
1070
    73
1070
     1
1070
    44
1040
1.0
1070
    74
1070
     0
1000
MTEXTEND
1000
MTEXTBEGIN
1070
    73
1070
     1
1070
    44
1040
1.0
1070
    74
1070
     0
1000
MTEXTEND
  0
MTEXT
  5
55D1
330
1A
100
AcDbEntity
  8
SUNPOU
100
AcDbMText
 10
55636.09714170436
 20
48749.73814662781
 30
0.0
 40
10.5
 41
0.0
 71
     7
 72
     5
  1

1001
ACAD
1000
MTEXTBEGIN
1070
    73
1070
     1
1070
    44
1040
1.0
1070
    74
1070
     0
1000
MTEXTEND
1000
MTEXTBEGIN
1070
    73
1070
     1
1070
    44
1040
1.0
1070
    74
1070
     0
1000
MTEXTEND
  0
MTEXT
  5
55D2
330
1A
100
AcDbEntity
  8
SUNPOU
100
AcDbMText
 10
43178.86887675626
 20
32904.80656852937
 30
0.0
 40
35.0
 41
0.0
 71
     9
 72
     5
  1

1001
ACAD
1000
MTEXTBEGIN
1070
    73
1070
     1
1070
    44
1040
1.0
1070
    74
1070
     0
1000
MTEXTEND
1000
MTEXTBEGIN
1070
    73
1070
     1
1070
    44
1040
1.0
1070
    74
1070
     0
1000
MTEXTEND
  0
MTEXT
  5
55D3
330
1A
100
AcDbEntity
  8
SUNPOU
100
AcDbMText
 10
42087.3539343312
 20
33513.58197857808
 30
0.0
 40
350.0000004171781
 41
0.0
 71
     7
 72
     5
  1

1001
ACAD
1000
MTEXTBEGIN
1070
    73
1070
     1
1070
    44
1040
1.0
1070
    74
1070
     0
1000
MTEXTEND
1000
MTEXTBEGIN
1070
    73
1070
     1
1070
    44
1040
1.0
1070
    74
1070
     0
1000
MTEXTEND
  0
MTEXT
  5
55D4
330
1A
100
AcDbEntity
  8
0
100
AcDbMText
 10
48131.30469227412
 20
31493.50434071431
 30
0.0
 40
8.0
 41
0.0
 71
     7
 72
     5
  1

1001
ACAD
1000
MTEXTBEGIN
1070
    73
1070
     1
1070
    44
1040
1.0
1070
    74
1070
     0
1000
MTEXTEND
1000
MTEXTBEGIN
1070
    73
1070
     1
1070
    44
1040
1.0
1070
    74
1070
     0
1000
MTEXTEND
  0
MTEXT
  5
55D5
330
1A
100
AcDbEntity
  8
0
100
AcDbMText
 10
50416.66238216901
 20
32464.29463546537
 30
0.0
 40
8.0
 41
0.0
 71
     7
 72
     5
  1

1001
ACAD
1000
MTEXTBEGIN
1070
    73
1070
     1
1070
    44
1040
1.0
1070
    74
1070
     0
1000
MTEXTEND
1000
MTEXTBEGIN
1070
    73
1070
     1
1070
    44
1040
1.0
1070
    74
1070
     0
1000
MTEXTEND
  0
MTEXT
  5
55D6
330
1A
100
AcDbEntity
  8
SUNPOU
100
AcDbMText
 10
53082.55940285115
 20
41976.4060278405
 30
0.0
 40
10.5
 41
0.0
 71
     1
 72
     5
  1

1001
ACAD
1000
MTEXTBEGIN
1070
    73
1070
     1
1070
    44
1040
1.0
1070
    74
1070
     0
1000
MTEXTEND
1000
MTEXTBEGIN
1070
    73
1070
     1
1070
    44
1040
1.0
1070
    74
1070
     0
1000
MTEXTEND
  0
MTEXT
  5
55D7
330
1A
100
AcDbEntity
  8
SUNPOU
100
AcDbMText
 10
45151.63620691521
 20
41029.61289392755
 30
0.0
 40
10.5
 41
0.0
 71
     7
 72
     5
  1

1001
ACAD
1000
MTEXTBEGIN
1070
    73
1070
     1
1070
    44
1040
1.0
1070
    74
1070
     0
1000
MTEXTEND
1000
MTEXTBEGIN
1070
    73
1070
     1
1070
    44
1040
1.0
1070
    74
1070
     0
1000
MTEXTEND
  0
MTEXT
  5
55D8
330
1A
100
AcDbEntity
  8
SUNPOU
100
AcDbMText
 10
48100.61987142798
 20
45930.28896577039
 30
0.0
 40
10.5
 41
0.0
 71
     7
 72
     5
  1

1001
ACAD
1000
MTEXTBEGIN
1070
    73
1070
     1
1070
    44
1040
1.0
1070
    74
1070
     0
1000
MTEXTEND
1000
MTEXTBEGIN
1070
    73
1070
     1
1070
    44
1040
1.0
1070
    74
1070
     0
1000
MTEXTEND
  0
MTEXT
  5
55D9
330
1A
100
AcDbEntity
  8
SUNPOU
100
AcDbMText
 10
52609.69799937853
 20
48366.58971339046
 30
0.0
 40
10.5
 41
0.0
 71
     7
 72
     5
  1

1001
ACAD
1000
MTEXTBEGIN
1070
    73
1070
     1
1070
    44
1040
1.0
1070
    74
1070
     0
1000
MTEXTEND
1000
MTEXTBEGIN
1070
    73
1070
     1
1070
    44
1040
1.0
1070
    74
1070
     0
1000
MTEXTEND
  0
MTEXT
  5
55DA
330
1A
100
AcDbEntity
  8
SUNPOU
100
AcDbMText
 10
36210.53588614687
 20
27364.18586377937
 30
0.0
 40
10.5
 41
0.0
 71
     7
 72
     5
  1

1001
ACAD
1000
MTEXTBEGIN
1070
    73
1070
     1
1070
    44
1040
1.0
1070
    74
1070
     0
1000
MTEXTEND
1000
MTEXTBEGIN
1070
    73
1070
     1
1070
    44
1040
1.0
1070
    74
1070
     0
1000
MTEXTEND
  0
MTEXT
  5
55DB
330
1A
100
AcDbEntity
  8
SUNPOU
100
AcDbMText
 10
38021.29879752181
 20
33691.59985125794
 30
0.0
 40
10.5
 41
0.0
 71
     9
 72
     5
  1

1001
ACAD
1000
MTEXTBEGIN
1070
    73
1070
     1
1070
    44
1040
1.0
1070
    74
1070
     0
1000
MTEXTEND
1000
MTEXTBEGIN
1070
    73
1070
     1
1070
    44
1040
1.0
1070
    74
1070
     0
1000
MTEXTEND
  0
MTEXT
  5
55DC
330
1A
100
AcDbEntity
  8
SUNPOU
100
AcDbMText
 10
46743.46636343979
 20
41107.4343827954
 30
0.0
 40
10.5
 41
0.0
 71
     9
 72
     5
  1

1001
ACAD
1000
MTEXTBEGIN
1070
    73
1070
     1
1070
    44
1040
1.0
1070
    74
1070
     0
1000
MTEXTEND
1000
MTEXTBEGIN
1070
    73
1070
     1
1070
    44
1040
1.0
1070
    74
1070
     0
1000
MTEXTEND
  0
MTEXT
  5
55DD
330
1A
100
AcDbEntity
  8
SUNPOU
100
AcDbMText
 10
65697.22508076974
 20
58574.01043528746
 30
0.0
 40
10.5
 41
0.0
 71
     9
 72
     5
  1

1001
ACAD
1000
MTEXTBEGIN
1070
    73
1070
     1
1070
    44
1040
1.0
1070
    74
1070
     0
1000
MTEXTEND
1000
MTEXTBEGIN
1070
    73
1070
     1
1070
    44
1040
1.0
1070
    74
1070
     0
1000
MTEXTEND
  0
MTEXT
  5
55DE
330
1A
100
AcDbEntity
  8
SUNPOU
100
AcDbMText
 10
67640.63232747917
 20
56772.96135540945
 30
0.0
 40
3.5
 41
0.0
 71
     9
 72
     5
  1

1001
ACAD
1000
MTEXTBEGIN
1070
    73
1070
     1
1070
    44
1040
1.0
1070
    74
1070
     0
1000
MTEXTEND
1000
MTEXTBEGIN
1070
    73
1070
     1
1070
    44
1040
1.0
1070
    74
1070
     0
1000
MTEXTEND
  0
MTEXT
  5
55DF
330
1A
100
AcDbEntity
  8
SUNPOU
100
AcDbMText
 10
98766.81216009886
 20
99267.9070230668
 30
0.0
 40
10.5
 41
0.0
 71
     9
 72
     5
  1

1001
ACAD
1000
MTEXTBEGIN
1070
    73
1070
     1
1070
    44
1040
1.0
1070
    74
1070
     0
1000
MTEXTEND
1000
MTEXTBEGIN
1070
    73
1070
     1
1070
    44
1040
1.0
1070
    74
1070
     0
1000
MTEXTEND
  0
MTEXT
  5
55E0
330
1A
100
AcDbEntity
  8
SUNPOU
100
AcDbMText
 10
100710.2194068083
 20
97466.85794318876
 30
0.0
 40
3.5
 41
0.0
 71
     9
 72
     5
  1

1001
ACAD
1000
MTEXTBEGIN
1070
    73
1070
     1
1070
    44
1040
1.0
1070
    74
1070
     0
1000
MTEXTEND
1000
MTEXTBEGIN
1070
    73
1070
     1
1070
    44
1040
1.0
1070
    74
1070
     0
1000
MTEXTEND
  0
MTEXT
  5
55E1
330
1A
100
AcDbEntity
  8
SUNPOU
100
AcDbMText
 10
49207.07986589443
 20
45101.07217804184
 30
0.0
 40
10.5
 41
0.0
 71
     9
 72
     5
  1

1001
ACAD
1000
MTEXTBEGIN
1070
    73
1070
     1
1070
    44
1040
1.0
1070
    74
1070
     0
1000
MTEXTEND
1000
MTEXTBEGIN
1070
    73
1070
     1
1070
    44
1040
1.0
1070
    74
1070
     0
1000
MTEXTEND
  0
MTEXT
  5
55E2
330
1A
100
AcDbEntity
  8
SUNPOU
100
AcDbMText
 10
35259.07976551845
 20
25928.67303892964
 30
0.0
 40
3.5
 41
0.0
 71
     7
 72
     5
  1

1001
ACAD
1000
MTEXTBEGIN
1070
    73
1070
     1
1070
    44
1040
1.0
1070
    74
1070
     0
1000
MTEXTEND
1000
MTEXTBEGIN
1070
    73
1070
     1
1070
    44
1040
1.0
1070
    74
1070
     0
1000
MTEXTEND
  0
MTEXT
  5
55E3
330
1A
100
AcDbEntity
  8
SUNPOU
100
AcDbMText
 10
48951.43044828905
 20
35287.73625995099
 30
0.0
 40
10.5
 41
0.0
 71
     9
 72
     5
  1

1001
ACAD
1000
MTEXTBEGIN
1070
    73
1070
     1
1070
    44
1040
1.0
1070
    74
1070
     0
1000
MTEXTEND
1000
MTEXTBEGIN
1070
    73
1070
     1
1070
    44
1040
1.0
1070
    74
1070
     0
1000
MTEXTEND
  0
MTEXT
  5
55E4
330
1A
100
AcDbEntity
  8
SUNPOU
100
AcDbMText
 10
57673.59801420702
 20
42703.57079148847
 30
0.0
 40
10.5
 41
0.0
 71
     9
 72
     5
  1

1001
ACAD
1000
MTEXTBEGIN
1070
    73
1070
     1
1070
    44
1040
1.0
1070
    74
1070
     0
1000
MTEXTEND
1000
MTEXTBEGIN
1070
    73
1070
     1
1070
    44
1040
1.0
1070
    74
1070
     0
1000
MTEXTEND
  0
MTEXT
  5
55E5
330
1A
100
AcDbEntity
  8
SUNPOU
100
AcDbMText
 10
76627.35673153699
 20
60170.14684398051
 30
0.0
 40
10.5
 41
0.0
 71
     9
 72
     5
  1

1001
ACAD
1000
MTEXTBEGIN
1070
    73
1070
     1
1070
    44
1040
1.0
1070
    74
1070
     0
1000
MTEXTEND
1000
MTEXTBEGIN
1070
    73
1070
     1
1070
    44
1040
1.0
1070
    74
1070
     0
1000
MTEXTEND
  0
MTEXT
  5
55E6
330
1A
100
AcDbEntity
  8
SUNPOU
100
AcDbMText
 10
78570.76397824641
 20
58369.09776410251
 30
0.0
 40
3.5
 41
0.0
 71
     9
 72
     5
  1

1001
ACAD
1000
MTEXTBEGIN
1070
    73
1070
     1
1070
    44
1040
1.0
1070
    74
1070
     0
1000
MTEXTEND
1000
MTEXTBEGIN
1070
    73
1070
     1
1070
    44
1040
1.0
1070
    74
1070
     0
1000
MTEXTEND
  0
MTEXT
  5
55E7
330
1A
100
AcDbEntity
  8
SUNPOU
100
AcDbMText
 10
109696.943810866
 20
100864.0434317598
 30
0.0
 40
10.5
 41
0.0
 71
     9
 72
     5
  1

1001
ACAD
1000
MTEXTBEGIN
1070
    73
1070
     1
1070
    44
1040
1.0
1070
    74
1070
     0
1000
MTEXTEND
1000
MTEXTBEGIN
1070
    73
1070
     1
1070
    44
1040
1.0
1070
    74
1070
     0
1000
MTEXTEND
  0
MTEXT
  5
55E8
330
1A
100
AcDbEntity
  8
SUNPOU
100
AcDbMText
 10
111640.3510575755
 20
99062.99435188183
 30
0.0
 40
3.5
 41
0.0
 71
     9
 72
     5
  1

1001
ACAD
1000
MTEXTBEGIN
1070
    73
1070
     1
1070
    44
1040
1.0
1070
    74
1070
     0
1000
MTEXTEND
1000
MTEXTBEGIN
1070
    73
1070
     1
1070
    44
1040
1.0
1070
    74
1070
     0
1000
MTEXTEND
  0
MTEXT
  5
55E9
330
1A
100
AcDbEntity
  8
SUNPOU
100
AcDbMText
 10
60137.21151666167
 20
46697.20858673491
 30
0.0
 40
10.5
 41
0.0
 71
     9
 72
     5
  1

1001
ACAD
1000
MTEXTBEGIN
1070
    73
1070
     1
1070
    44
1040
1.0
1070
    74
1070
     0
1000
MTEXTEND
1000
MTEXTBEGIN
1070
    73
1070
     1
1070
    44
1040
1.0
1070
    74
1070
     0
1000
MTEXTEND
  0
MTEXT
  5
55EA
330
1A
100
AcDbEntity
  8
SUNPOU
100
AcDbMText
 10
46189.21141628568
 20
27524.80944762269
 30
0.0
 40
3.5
 41
0.0
 71
     7
 72
     5
  1

1001
ACAD
1000
MTEXTBEGIN
1070
    73
1070
     1
1070
    44
1040
1.0
1070
    74
1070
     0
1000
MTEXTEND
1000
MTEXTBEGIN
1070
    73
1070
     1
1070
    44
1040
1.0
1070
    74
1070
     0
1000
MTEXTEND
  0
MTEXT
  5
55EB
330
1A
100
AcDbEntity
  8
SUNPOU
100
AcDbMText
 10
45007.68847015541
 20
38269.57947701873
 30
0.0
 40
10.5
 41
0.0
 71
     9
 72
     5
  1

1001
ACAD
1000
MTEXTBEGIN
1070
    73
1070
     1
1070
    44
1040
1.0
1070
    74
1070
     0
1000
MTEXTEND
1000
MTEXTBEGIN
1070
    73
1070
     1
1070
    44
1040
1.0
1070
    74
1070
     0
1000
MTEXTEND
  0
MTEXT
  5
55EC
330
1A
100
AcDbEntity
  8
SUNPOU
100
AcDbMText
 10
63961.44718748539
 20
55736.15552951081
 30
0.0
 40
10.5
 41
0.0
 71
     9
 72
     5
  1

1001
ACAD
1000
MTEXTBEGIN
1070
    73
1070
     1
1070
    44
1040
1.0
1070
    74
1070
     0
1000
MTEXTEND
1000
MTEXTBEGIN
1070
    73
1070
     1
1070
    44
1040
1.0
1070
    74
1070
     0
1000
MTEXTEND
  0
MTEXT
  5
55ED
330
1A
100
AcDbEntity
  8
SUNPOU
100
AcDbMText
 10
65904.85443419479
 20
53935.10644963278
 30
0.0
 40
3.5
 41
0.0
 71
     9
 72
     5
  1

1001
ACAD
1000
MTEXTBEGIN
1070
    73
1070
     1
1070
    44
1040
1.0
1070
    74
1070
     0
1000
MTEXTEND
1000
MTEXTBEGIN
1070
    73
1070
     1
1070
    44
1040
1.0
1070
    74
1070
     0
1000
MTEXTEND
  0
MTEXT
  5
55EE
330
1A
100
AcDbEntity
  8
SUNPOU
100
AcDbMText
 10
97031.03426681453
 20
96430.05211729015
 30
0.0
 40
10.5
 41
0.0
 71
     9
 72
     5
  1

1001
ACAD
1000
MTEXTBEGIN
1070
    73
1070
     1
1070
    44
1040
1.0
1070
    74
1070
     0
1000
MTEXTEND
1000
MTEXTBEGIN
1070
    73
1070
     1
1070
    44
1040
1.0
1070
    74
1070
     0
1000
MTEXTEND
  0
MTEXT
  5
55EF
330
1A
100
AcDbEntity
  8
SUNPOU
100
AcDbMText
 10
98974.44151352393
 20
94629.00303741212
 30
0.0
 40
3.5
 41
0.0
 71
     9
 72
     5
  1

1001
ACAD
1000
MTEXTBEGIN
1070
    73
1070
     1
1070
    44
1040
1.0
1070
    74
1070
     0
1000
MTEXTEND
1000
MTEXTBEGIN
1070
    73
1070
     1
1070
    44
1040
1.0
1070
    74
1070
     0
1000
MTEXTEND
  0
MTEXT
  5
55F0
330
1A
100
AcDbEntity
  8
SUNPOU
100
AcDbMText
 10
47471.30197261006
 20
42263.21727226519
 30
0.0
 40
10.5
 41
0.0
 71
     9
 72
     5
  1

1001
ACAD
1000
MTEXTBEGIN
1070
    73
1070
     1
1070
    44
1040
1.0
1070
    74
1070
     0
1000
MTEXTEND
1000
MTEXTBEGIN
1070
    73
1070
     1
1070
    44
1040
1.0
1070
    74
1070
     0
1000
MTEXTEND
  0
MTEXT
  5
55F1
330
1A
100
AcDbEntity
  8
SUNPOU
100
AcDbMText
 10
33523.30187223408
 20
23090.81813315298
 30
0.0
 40
3.5
 41
0.0
 71
     7
 72
     5
  1

1001
ACAD
1000
MTEXTBEGIN
1070
    73
1070
     1
1070
    44
1040
1.0
1070
    74
1070
     0
1000
MTEXTEND
1000
MTEXTBEGIN
1070
    73
1070
     1
1070
    44
1040
1.0
1070
    74
1070
     0
1000
MTEXTEND
  0
MTEXT
  5
55F2
330
1A
100
AcDbEntity
  8
SUNPOU
100
AcDbMText
 10
57959.46254102503
 20
50038.08111611014
 30
0.0
 40
10.5
 41
0.0
 71
     9
 72
     5
  1

1001
ACAD
1000
MTEXTBEGIN
1070
    73
1070
     1
1070
    44
1040
1.0
1070
    74
1070
     0
1000
MTEXTEND
1000
MTEXTBEGIN
1070
    73
1070
     1
1070
    44
1040
1.0
1070
    74
1070
     0
1000
MTEXTEND
  0
MTEXT
  5
55F3
330
1A
100
AcDbEntity
  8
SUNPOU
100
AcDbMText
 10
76913.22125835503
 20
67504.65716860222
 30
0.0
 40
10.5
 41
0.0
 71
     9
 72
     5
  1

1001
ACAD
1000
MTEXTBEGIN
1070
    73
1070
     1
1070
    44
1040
1.0
1070
    74
1070
     0
1000
MTEXTEND
1000
MTEXTBEGIN
1070
    73
1070
     1
1070
    44
1040
1.0
1070
    74
1070
     0
1000
MTEXTEND
  0
MTEXT
  5
55F4
330
1A
100
AcDbEntity
  8
SUNPOU
100
AcDbMText
 10
78856.62850506443
 20
65703.6080887242
 30
0.0
 40
3.5
 41
0.0
 71
     9
 72
     5
  1

1001
ACAD
1000
MTEXTBEGIN
1070
    73
1070
     1
1070
    44
1040
1.0
1070
    74
1070
     0
1000
MTEXTEND
1000
MTEXTBEGIN
1070
    73
1070
     1
1070
    44
1040
1.0
1070
    74
1070
     0
1000
MTEXTEND
  0
MTEXT
  5
55F5
330
1A
100
AcDbEntity
  8
SUNPOU
100
AcDbMText
 10
109982.8083376841
 20
108198.5537563815
 30
0.0
 40
10.5
 41
0.0
 71
     9
 72
     5
  1

1001
ACAD
1000
MTEXTBEGIN
1070
    73
1070
     1
1070
    44
1040
1.0
1070
    74
1070
     0
1000
MTEXTEND
1000
MTEXTBEGIN
1070
    73
1070
     1
1070
    44
1040
1.0
1070
    74
1070
     0
1000
MTEXTEND
  0
MTEXT
  5
55F6
330
1A
100
AcDbEntity
  8
SUNPOU
100
AcDbMText
 10
111926.2155843934
 20
106397.5046765035
 30
0.0
 40
3.5
 41
0.0
 71
     9
 72
     5
  1

1001
ACAD
1000
MTEXTBEGIN
1070
    73
1070
     1
1070
    44
1040
1.0
1070
    74
1070
     0
1000
MTEXTEND
1000
MTEXTBEGIN
1070
    73
1070
     1
1070
    44
1040
1.0
1070
    74
1070
     0
1000
MTEXTEND
  0
MTEXT
  5
55F7
330
1A
100
AcDbEntity
  8
SUNPOU
100
AcDbMText
 10
60423.07604347968
 20
54031.71891135658
 30
0.0
 40
10.5
 41
0.0
 71
     9
 72
     5
  1

1001
ACAD
1000
MTEXTBEGIN
1070
    73
1070
     1
1070
    44
1040
1.0
1070
    74
1070
     0
1000
MTEXTEND
1000
MTEXTBEGIN
1070
    73
1070
     1
1070
    44
1040
1.0
1070
    74
1070
     0
1000
MTEXTEND
  0
MTEXT
  5
55F8
330
1A
100
AcDbEntity
  8
SUNPOU
100
AcDbMText
 10
46475.07594310369
 20
34859.3197722444
 30
0.0
 40
3.5
 41
0.0
 71
     7
 72
     5
  1

1001
ACAD
1000
MTEXTBEGIN
1070
    73
1070
     1
1070
    44
1040
1.0
1070
    74
1070
     0
1000
MTEXTEND
1000
MTEXTBEGIN
1070
    73
1070
     1
1070
    44
1040
1.0
1070
    74
1070
     0
1000
MTEXTEND
  0
MTEXT
  5
55F9
330
1A
100
AcDbEntity
  8
SUNPOU
100
AcDbMText
 10
74027.35402123588
 20
68370.58278833383
 30
0.0
 40
10.5
 41
0.0
 71
     9
 72
     5
  1

1001
ACAD
1000
MTEXTBEGIN
1070
    73
1070
     1
1070
    44
1040
1.0
1070
    74
1070
     0
1000
MTEXTEND
1000
MTEXTBEGIN
1070
    73
1070
     1
1070
    44
1040
1.0
1070
    74
1070
     0
1000
MTEXTEND
  0
MTEXT
  5
55FA
330
1A
100
AcDbEntity
  8
SUNPOU
100
AcDbMText
 10
75970.7612679453
 20
66569.53370845583
 30
0.0
 40
3.5
 41
0.0
 71
     9
 72
     5
  1

1001
ACAD
1000
MTEXTBEGIN
1070
    73
1070
     1
1070
    44
1040
1.0
1070
    74
1070
     0
1000
MTEXTEND
1000
MTEXTBEGIN
1070
    73
1070
     1
1070
    44
1040
1.0
1070
    74
1070
     0
1000
MTEXTEND
  0
MTEXT
  5
55FB
330
1A
100
AcDbEntity
  8
SUNPOU
100
AcDbMText
 10
107096.941100565
 20
109064.4793761132
 30
0.0
 40
10.5
 41
0.0
 71
     9
 72
     5
  1

1001
ACAD
1000
MTEXTBEGIN
1070
    73
1070
     1
1070
    44
1040
1.0
1070
    74
1070
     0
1000
MTEXTEND
1000
MTEXTBEGIN
1070
    73
1070
     1
1070
    44
1040
1.0
1070
    74
1070
     0
1000
MTEXTEND
  0
MTEXT
  5
55FC
330
1A
100
AcDbEntity
  8
SUNPOU
100
AcDbMText
 10
109040.3483472744
 20
107263.430296235
 30
0.0
 40
3.5
 41
0.0
 71
     9
 72
     5
  1

1001
ACAD
1000
MTEXTBEGIN
1070
    73
1070
     1
1070
    44
1040
1.0
1070
    74
1070
     0
1000
MTEXTEND
1000
MTEXTBEGIN
1070
    73
1070
     1
1070
    44
1040
1.0
1070
    74
1070
     0
1000
MTEXTEND
  0
MTEXT
  5
55FD
330
1A
100
AcDbEntity
  8
SUNPOU
100
AcDbMText
 10
105709.1709283621
 20
108141.3777665285
 30
0.0
 40
10.5
 41
0.0
 71
     9
 72
     5
  1

1001
ACAD
1000
MTEXTBEGIN
1070
    73
1070
     1
1070
    44
1040
1.0
1070
    74
1070
     0
1000
MTEXTEND
1000
MTEXTBEGIN
1070
    73
1070
     1
1070
    44
1040
1.0
1070
    74
1070
     0
1000
MTEXTEND
  0
MTEXT
  5
55FE
330
1A
100
AcDbEntity
  8
SUNPOU
100
AcDbMText
 10
107652.5781750715
 20
106340.3286866505
 30
0.0
 40
3.5
 41
0.0
 71
     9
 72
     5
  1

1001
ACAD
1000
MTEXTBEGIN
1070
    73
1070
     1
1070
    44
1040
1.0
1070
    74
1070
     0
1000
MTEXTEND
1000
MTEXTBEGIN
1070
    73
1070
     1
1070
    44
1040
1.0
1070
    74
1070
     0
1000
MTEXTEND
  0
MTEXT
  5
55FF
330
1A
100
AcDbEntity
  8
SUNPOU
100
AcDbMText
 10
73193.09268743351
 20
66158.78082845057
 30
0.0
 40
10.5
 41
0.0
 71
     9
 72
     5
  1

1001
ACAD
1000
MTEXTBEGIN
1070
    73
1070
     1
1070
    44
1040
1.0
1070
    74
1070
     0
1000
MTEXTEND
1000
MTEXTBEGIN
1070
    73
1070
     1
1070
    44
1040
1.0
1070
    74
1070
     0
1000
MTEXTEND
  0
MTEXT
  5
5600
330
1A
100
AcDbEntity
  8
SUNPOU
100
AcDbMText
 10
75916.39889159807
 20
66563.46252003162
 30
0.0
 40
3.5
 41
0.0
 71
     9
 72
     5
  1

1001
ACAD
1000
MTEXTBEGIN
1070
    73
1070
     1
1070
    44
1040
1.0
1070
    74
1070
     0
1000
MTEXTEND
1000
MTEXTBEGIN
1070
    73
1070
     1
1070
    44
1040
1.0
1070
    74
1070
     0
1000
MTEXTEND
  0
MTEXT
  5
5601
330
1A
100
AcDbEntity
  8
SUNPOU
100
AcDbMText
 10
75124.04436649058
 20
63402.1566819768
 30
0.0
 40
10.5
 41
0.0
 71
     9
 72
     5
  1

1001
ACAD
1000
MTEXTBEGIN
1070
    73
1070
     1
1070
    44
1040
1.0
1070
    74
1070
     0
1000
MTEXTEND
1000
MTEXTBEGIN
1070
    73
1070
     1
1070
    44
1040
1.0
1070
    74
1070
     0
1000
MTEXTEND
  0
MTEXT
  5
5602
330
1A
100
AcDbEntity
  8
SUNPOU
100
AcDbMText
 10
77067.4516132
 20
61601.1076020988
 30
0.0
 40
3.5
 41
0.0
 71
     9
 72
     5
  1

1001
ACAD
1000
MTEXTBEGIN
1070
    73
1070
     1
1070
    44
1040
1.0
1070
    74
1070
     0
1000
MTEXTEND
1000
MTEXTBEGIN
1070
    73
1070
     1
1070
    44
1040
1.0
1070
    74
1070
     0
1000
MTEXTEND
  0
MTEXT
  5
5603
330
1A
100
AcDbEntity
  8
SUNPOU
100
AcDbMText
 10
77012.54710378659
 20
61488.33571981449
 30
0.0
 40
3.5
 41
0.0
 71
     9
 72
     5
  1

1001
ACAD
1000
MTEXTBEGIN
1070
    73
1070
     1
1070
    44
1040
1.0
1070
    74
1070
     0
1000
MTEXTEND
1000
MTEXTBEGIN
1070
    73
1070
     1
1070
    44
1040
1.0
1070
    74
1070
     0
1000
MTEXTEND
  0
MTEXT
  5
5604
330
1A
100
AcDbEntity
  8
SUNPOU
100
AcDbMText
 10
76376.61896736668
 20
60677.01447874798
 30
0.0
 40
3.5
 41
0.0
 71
     9
 72
     5
  1

1001
ACAD
1000
MTEXTBEGIN
1070
    73
1070
     1
1070
    44
1040
1.0
1070
    74
1070
     0
1000
MTEXTEND
1000
MTEXTBEGIN
1070
    73
1070
     1
1070
    44
1040
1.0
1070
    74
1070
     0
1000
MTEXTEND
  0
MTEXT
  5
5605
330
1A
100
AcDbEntity
  8
SUNPOU
100
AcDbMText
 10
76375.37854794595
 20
60676.76650181048
 30
0.0
 40
10.5
 41
0.0
 71
     9
 72
     5
  1

1001
ACAD
1000
MTEXTBEGIN
1070
    73
1070
     1
1070
    44
1040
1.0
1070
    74
1070
     0
1000
MTEXTEND
1000
MTEXTBEGIN
1070
    73
1070
     1
1070
    44
1040
1.0
1070
    74
1070
     0
1000
MTEXTEND
  0
MTEXT
  5
5606
330
1A
100
AcDbEntity
  8
SUNPOU
100
AcDbMText
 10
84709.93991079748
 20
78034.0328293557
 30
0.0
 40
10.5
 41
0.0
 71
     9
 72
     5
  1

1001
ACAD
1000
MTEXTBEGIN
1070
    73
1070
     1
1070
    44
1040
1.0
1070
    74
1070
     0
1000
MTEXTEND
1000
MTEXTBEGIN
1070
    73
1070
     1
1070
    44
1040
1.0
1070
    74
1070
     0
1000
MTEXTEND
  0
MTEXT
  5
5607
330
1A
100
AcDbEntity
  8
SUNPOU
100
AcDbMText
 10
93432.10747671546
 20
85449.86736089315
 30
0.0
 40
10.5
 41
0.0
 71
     9
 72
     5
  1

1001
ACAD
1000
MTEXTBEGIN
1070
    73
1070
     1
1070
    44
1040
1.0
1070
    74
1070
     0
1000
MTEXTEND
1000
MTEXTBEGIN
1070
    73
1070
     1
1070
    44
1040
1.0
1070
    74
1070
     0
1000
MTEXTEND
  0
MTEXT
  5
5608
330
1A
100
AcDbEntity
  8
SUNPOU
100
AcDbMText
 10
112385.8661940454
 20
102916.4434133851
 30
0.0
 40
10.5
 41
0.0
 71
     9
 72
     5
  1

1001
ACAD
1000
MTEXTBEGIN
1070
    73
1070
     1
1070
    44
1040
1.0
1070
    74
1070
     0
1000
MTEXTEND
1000
MTEXTBEGIN
1070
    73
1070
     1
1070
    44
1040
1.0
1070
    74
1070
     0
1000
MTEXTEND
  0
MTEXT
  5
5609
330
1A
100
AcDbEntity
  8
SUNPOU
100
AcDbMText
 10
114329.2734407548
 20
101115.3943335072
 30
0.0
 40
3.5
 41
0.0
 71
     9
 72
     5
  1

1001
ACAD
1000
MTEXTBEGIN
1070
    73
1070
     1
1070
    44
1040
1.0
1070
    74
1070
     0
1000
MTEXTEND
1000
MTEXTBEGIN
1070
    73
1070
     1
1070
    44
1040
1.0
1070
    74
1070
     0
1000
MTEXTEND
  0
MTEXT
  5
560A
330
1A
100
AcDbEntity
  8
SUNPOU
100
AcDbMText
 10
145455.4532733745
 20
143610.3400011645
 30
0.0
 40
10.5
 41
0.0
 71
     9
 72
     5
  1

1001
ACAD
1000
MTEXTBEGIN
1070
    73
1070
     1
1070
    44
1040
1.0
1070
    74
1070
     0
1000
MTEXTEND
1000
MTEXTBEGIN
1070
    73
1070
     1
1070
    44
1040
1.0
1070
    74
1070
     0
1000
MTEXTEND
  0
MTEXT
  5
560B
330
1A
100
AcDbEntity
  8
SUNPOU
100
AcDbMText
 10
147398.8605200839
 20
141809.2909212864
 30
0.0
 40
3.5
 41
0.0
 71
     9
 72
     5
  1

1001
ACAD
1000
MTEXTBEGIN
1070
    73
1070
     1
1070
    44
1040
1.0
1070
    74
1070
     0
1000
MTEXTEND
1000
MTEXTBEGIN
1070
    73
1070
     1
1070
    44
1040
1.0
1070
    74
1070
     0
1000
MTEXTEND
  0
MTEXT
  5
560C
330
1A
100
AcDbEntity
  8
SUNPOU
100
AcDbMText
 10
95895.72097917011
 20
89443.50515613962
 30
0.0
 40
10.5
 41
0.0
 71
     9
 72
     5
  1

1001
ACAD
1000
MTEXTBEGIN
1070
    73
1070
     1
1070
    44
1040
1.0
1070
    74
1070
     0
1000
MTEXTEND
1000
MTEXTBEGIN
1070
    73
1070
     1
1070
    44
1040
1.0
1070
    74
1070
     0
1000
MTEXTEND
  0
MTEXT
  5
560D
330
1A
100
AcDbEntity
  8
SUNPOU
100
AcDbMText
 10
81947.72087879414
 20
70271.1060170274
 30
0.0
 40
3.5
 41
0.0
 71
     7
 72
     5
  1

1001
ACAD
1000
MTEXTBEGIN
1070
    73
1070
     1
1070
    44
1040
1.0
1070
    74
1070
     0
1000
MTEXTEND
1000
MTEXTBEGIN
1070
    73
1070
     1
1070
    44
1040
1.0
1070
    74
1070
     0
1000
MTEXTEND
  0
MTEXT
  5
560E
330
1A
100
AcDbEntity
  8
SUNPOU
100
AcDbMText
 10
62932.89027578729
 20
58033.25474784561
 30
0.0
 40
10.5
 41
0.0
 71
     7
 72
     5
  1

1001
ACAD
1000
MTEXTBEGIN
1070
    73
1070
     1
1070
    44
1040
1.0
1070
    74
1070
     0
1000
MTEXTEND
1000
MTEXTBEGIN
1070
    73
1070
     1
1070
    44
1040
1.0
1070
    74
1070
     0
1000
MTEXTEND
  0
MTEXT
  5
560F
330
1A
100
AcDbEntity
  8
SUNPOU
100
AcDbMText
 10
50475.66201083918
 20
42188.32316974718
 30
0.0
 40
35.0
 41
0.0
 71
     9
 72
     5
  1

1001
ACAD
1000
MTEXTBEGIN
1070
    73
1070
     1
1070
    44
1040
1.0
1070
    74
1070
     0
1000
MTEXTEND
1000
MTEXTBEGIN
1070
    73
1070
     1
1070
    44
1040
1.0
1070
    74
1070
     0
1000
MTEXTEND
  0
MTEXT
  5
5610
330
1A
100
AcDbEntity
  8
SUNPOU
100
AcDbMText
 10
49384.14706841413
 20
42797.0985797959
 30
0.0
 40
350.0000004171781
 41
0.0
 71
     7
 72
     5
  1

1001
ACAD
1000
MTEXTBEGIN
1070
    73
1070
     1
1070
    44
1040
1.0
1070
    74
1070
     0
1000
MTEXTEND
1000
MTEXTBEGIN
1070
    73
1070
     1
1070
    44
1040
1.0
1070
    74
1070
     0
1000
MTEXTEND
  0
MTEXT
  5
5611
330
1A
100
AcDbEntity
  8
0
100
AcDbMText
 10
55428.09782635704
 20
40777.0209419321
 30
0.0
 40
8.0
 41
0.0
 71
     7
 72
     5
  1

1001
ACAD
1000
MTEXTBEGIN
1070
    73
1070
     1
1070
    44
1040
1.0
1070
    74
1070
     0
1000
MTEXTEND
1000
MTEXTBEGIN
1070
    73
1070
     1
1070
    44
1040
1.0
1070
    74
1070
     0
1000
MTEXTEND
  0
MTEXT
  5
5612
330
1A
100
AcDbEntity
  8
0
100
AcDbMText
 10
57713.45551625193
 20
41747.81123668316
 30
0.0
 40
8.0
 41
0.0
 71
     7
 72
     5
  1

1001
ACAD
1000
MTEXTBEGIN
1070
    73
1070
     1
1070
    44
1040
1.0
1070
    74
1070
     0
1000
MTEXTEND
1000
MTEXTBEGIN
1070
    73
1070
     1
1070
    44
1040
1.0
1070
    74
1070
     0
1000
MTEXTEND
  0
MTEXT
  5
5613
330
1A
100
AcDbEntity
  8
SUNPOU
100
AcDbMText
 10
60379.35253693407
 20
51259.9226290583
 30
0.0
 40
10.5
 41
0.0
 71
     1
 72
     5
  1

1001
ACAD
1000
MTEXTBEGIN
1070
    73
1070
     1
1070
    44
1040
1.0
1070
    74
1070
     0
1000
MTEXTEND
1000
MTEXTBEGIN
1070
    73
1070
     1
1070
    44
1040
1.0
1070
    74
1070
     0
1000
MTEXTEND
  0
MTEXT
  5
5614
330
1A
100
AcDbEntity
  8
SUNPOU
100
AcDbMText
 10
52448.42934099813
 20
50313.12949514535
 30
0.0
 40
10.5
 41
0.0
 71
     7
 72
     5
  1

1001
ACAD
1000
MTEXTBEGIN
1070
    73
1070
     1
1070
    44
1040
1.0
1070
    74
1070
     0
1000
MTEXTEND
1000
MTEXTBEGIN
1070
    73
1070
     1
1070
    44
1040
1.0
1070
    74
1070
     0
1000
MTEXTEND
  0
MTEXT
  5
5615
330
1A
100
AcDbEntity
  8
SUNPOU
100
AcDbMText
 10
55397.4130055109
 20
55213.80556698819
 30
0.0
 40
10.5
 41
0.0
 71
     7
 72
     5
  1

1001
ACAD
1000
MTEXTBEGIN
1070
    73
1070
     1
1070
    44
1040
1.0
1070
    74
1070
     0
1000
MTEXTEND
1000
MTEXTBEGIN
1070
    73
1070
     1
1070
    44
1040
1.0
1070
    74
1070
     0
1000
MTEXTEND
  0
MTEXT
  5
5616
330
1A
100
AcDbEntity
  8
SUNPOU
100
AcDbMText
 10
59906.49113346147
 20
57650.10631460826
 30
0.0
 40
10.5
 41
0.0
 71
     7
 72
     5
  1

1001
ACAD
1000
MTEXTBEGIN
1070
    73
1070
     1
1070
    44
1040
1.0
1070
    74
1070
     0
1000
MTEXTEND
1000
MTEXTBEGIN
1070
    73
1070
     1
1070
    44
1040
1.0
1070
    74
1070
     0
1000
MTEXTEND
  0
MTEXT
  5
5617
330
1A
100
AcDbEntity
  8
SUNPOU
100
AcDbMText
 10
43507.32902022978
 20
36647.70246499718
 30
0.0
 40
10.5
 41
0.0
 71
     7
 72
     5
  1

1001
ACAD
1000
MTEXTBEGIN
1070
    73
1070
     1
1070
    44
1040
1.0
1070
    74
1070
     0
1000
MTEXTEND
1000
MTEXTBEGIN
1070
    73
1070
     1
1070
    44
1040
1.0
1070
    74
1070
     0
1000
MTEXTEND
  0
MTEXT
  5
5618
330
1A
100
AcDbEntity
  8
SUNPOU
100
AcDbMText
 10
94698.84745413006
 20
82320.68302864544
 30
0.0
 40
10.5
 41
0.0
 71
     9
 72
     5
  1

1001
ACAD
1000
MTEXTBEGIN
1070
    73
1070
     1
1070
    44
1040
1.0
1070
    74
1070
     0
1000
MTEXTEND
1000
MTEXTBEGIN
1070
    73
1070
     1
1070
    44
1040
1.0
1070
    74
1070
     0
1000
MTEXTEND
  0
MTEXT
  5
5619
330
1A
100
AcDbEntity
  8
SUNPOU
100
AcDbMText
 10
103421.015020048
 20
89736.5175601829
 30
0.0
 40
10.5
 41
0.0
 71
     9
 72
     5
  1

1001
ACAD
1000
MTEXTBEGIN
1070
    73
1070
     1
1070
    44
1040
1.0
1070
    74
1070
     0
1000
MTEXTEND
1000
MTEXTBEGIN
1070
    73
1070
     1
1070
    44
1040
1.0
1070
    74
1070
     0
1000
MTEXTEND
  0
MTEXT
  5
561A
330
1A
100
AcDbEntity
  8
SUNPOU
100
AcDbMText
 10
122374.773737378
 20
107203.0936126749
 30
0.0
 40
10.5
 41
0.0
 71
     9
 72
     5
  1

1001
ACAD
1000
MTEXTBEGIN
1070
    73
1070
     1
1070
    44
1040
1.0
1070
    74
1070
     0
1000
MTEXTEND
1000
MTEXTBEGIN
1070
    73
1070
     1
1070
    44
1040
1.0
1070
    74
1070
     0
1000
MTEXTEND
  0
MTEXT
  5
561B
330
1A
100
AcDbEntity
  8
SUNPOU
100
AcDbMText
 10
124318.1809840874
 20
105402.0445327969
 30
0.0
 40
3.5
 41
0.0
 71
     9
 72
     5
  1

1001
ACAD
1000
MTEXTBEGIN
1070
    73
1070
     1
1070
    44
1040
1.0
1070
    74
1070
     0
1000
MTEXTEND
1000
MTEXTBEGIN
1070
    73
1070
     1
1070
    44
1040
1.0
1070
    74
1070
     0
1000
MTEXTEND
  0
MTEXT
  5
561C
330
1A
100
AcDbEntity
  8
SUNPOU
100
AcDbMText
 10
155444.3608167071
 20
147896.9902004542
 30
0.0
 40
10.5
 41
0.0
 71
     9
 72
     5
  1

1001
ACAD
1000
MTEXTBEGIN
1070
    73
1070
     1
1070
    44
1040
1.0
1070
    74
1070
     0
1000
MTEXTEND
1000
MTEXTBEGIN
1070
    73
1070
     1
1070
    44
1040
1.0
1070
    74
1070
     0
1000
MTEXTEND
  0
MTEXT
  5
561D
330
1A
100
AcDbEntity
  8
SUNPOU
100
AcDbMText
 10
157387.7680634165
 20
146095.9411205762
 30
0.0
 40
3.5
 41
0.0
 71
     9
 72
     5
  1

1001
ACAD
1000
MTEXTBEGIN
1070
    73
1070
     1
1070
    44
1040
1.0
1070
    74
1070
     0
1000
MTEXTEND
1000
MTEXTBEGIN
1070
    73
1070
     1
1070
    44
1040
1.0
1070
    74
1070
     0
1000
MTEXTEND
  0
MTEXT
  5
561E
330
1A
100
AcDbEntity
  8
SUNPOU
100
AcDbMText
 10
105884.6285225027
 20
93730.15535542933
 30
0.0
 40
10.5
 41
0.0
 71
     9
 72
     5
  1

1001
ACAD
1000
MTEXTBEGIN
1070
    73
1070
     1
1070
    44
1040
1.0
1070
    74
1070
     0
1000
MTEXTEND
1000
MTEXTBEGIN
1070
    73
1070
     1
1070
    44
1040
1.0
1070
    74
1070
     0
1000
MTEXTEND
  0
MTEXT
  5
561F
330
1A
100
AcDbEntity
  8
SUNPOU
100
AcDbMText
 10
91936.6284221267
 20
74557.75621631714
 30
0.0
 40
3.5
 41
0.0
 71
     7
 72
     5
  1

1001
ACAD
1000
MTEXTBEGIN
1070
    73
1070
     1
1070
    44
1040
1.0
1070
    74
1070
     0
1000
MTEXTEND
1000
MTEXTBEGIN
1070
    73
1070
     1
1070
    44
1040
1.0
1070
    74
1070
     0
1000
MTEXTEND
  0
MTEXT
  5
5620
330
1A
100
AcDbEntity
  8
SUNPOU
100
AcDbMText
 10
72921.79781911986
 20
62319.90494713532
 30
0.0
 40
10.5
 41
0.0
 71
     7
 72
     5
  1

1001
ACAD
1000
MTEXTBEGIN
1070
    73
1070
     1
1070
    44
1040
1.0
1070
    74
1070
     0
1000
MTEXTEND
1000
MTEXTBEGIN
1070
    73
1070
     1
1070
    44
1040
1.0
1070
    74
1070
     0
1000
MTEXTEND
  0
MTEXT
  5
5621
330
1A
100
AcDbEntity
  8
SUNPOU
100
AcDbMText
 10
60464.56955417175
 20
46474.97336903692
 30
0.0
 40
35.0
 41
0.0
 71
     9
 72
     5
  1

1001
ACAD
1000
MTEXTBEGIN
1070
    73
1070
     1
1070
    44
1040
1.0
1070
    74
1070
     0
1000
MTEXTEND
1000
MTEXTBEGIN
1070
    73
1070
     1
1070
    44
1040
1.0
1070
    74
1070
     0
1000
MTEXTEND
  0
MTEXT
  5
5622
330
1A
100
AcDbEntity
  8
SUNPOU
100
AcDbMText
 10
59373.05461174673
 20
47083.74877908561
 30
0.0
 40
350.0000004171781
 41
0.0
 71
     7
 72
     5
  1

1001
ACAD
1000
MTEXTBEGIN
1070
    73
1070
     1
1070
    44
1040
1.0
1070
    74
1070
     0
1000
MTEXTEND
1000
MTEXTBEGIN
1070
    73
1070
     1
1070
    44
1040
1.0
1070
    74
1070
     0
1000
MTEXTEND
  0
MTEXT
  5
5623
330
1A
100
AcDbEntity
  8
0
100
AcDbMText
 10
65417.00536968963
 20
45063.67114122186
 30
0.0
 40
8.0
 41
0.0
 71
     7
 72
     5
  1

1001
ACAD
1000
MTEXTBEGIN
1070
    73
1070
     1
1070
    44
1040
1.0
1070
    74
1070
     0
1000
MTEXTEND
1000
MTEXTBEGIN
1070
    73
1070
     1
1070
    44
1040
1.0
1070
    74
1070
     0
1000
MTEXTEND
  0
MTEXT
  5
5624
330
1A
100
AcDbEntity
  8
0
100
AcDbMText
 10
67702.36305958452
 20
46034.46143597292
 30
0.0
 40
8.0
 41
0.0
 71
     7
 72
     5
  1

1001
ACAD
1000
MTEXTBEGIN
1070
    73
1070
     1
1070
    44
1040
1.0
1070
    74
1070
     0
1000
MTEXTEND
1000
MTEXTBEGIN
1070
    73
1070
     1
1070
    44
1040
1.0
1070
    74
1070
     0
1000
MTEXTEND
  0
MTEXT
  5
5625
330
1A
100
AcDbEntity
  8
SUNPOU
100
AcDbMText
 10
70368.26008026666
 20
55546.57282834803
 30
0.0
 40
10.5
 41
0.0
 71
     1
 72
     5
  1

1001
ACAD
1000
MTEXTBEGIN
1070
    73
1070
     1
1070
    44
1040
1.0
1070
    74
1070
     0
1000
MTEXTEND
1000
MTEXTBEGIN
1070
    73
1070
     1
1070
    44
1040
1.0
1070
    74
1070
     0
1000
MTEXTEND
  0
MTEXT
  5
5626
330
1A
100
AcDbEntity
  8
SUNPOU
100
AcDbMText
 10
62437.33688433072
 20
54599.77969443507
 30
0.0
 40
10.5
 41
0.0
 71
     7
 72
     5
  1

1001
ACAD
1000
MTEXTBEGIN
1070
    73
1070
     1
1070
    44
1040
1.0
1070
    74
1070
     0
1000
MTEXTEND
1000
MTEXTBEGIN
1070
    73
1070
     1
1070
    44
1040
1.0
1070
    74
1070
     0
1000
MTEXTEND
  0
MTEXT
  5
5627
330
1A
100
AcDbEntity
  8
SUNPOU
100
AcDbMText
 10
65386.32054884348
 20
59500.45576627792
 30
0.0
 40
10.5
 41
0.0
 71
     7
 72
     5
  1

1001
ACAD
1000
MTEXTBEGIN
1070
    73
1070
     1
1070
    44
1040
1.0
1070
    74
1070
     0
1000
MTEXTEND
1000
MTEXTBEGIN
1070
    73
1070
     1
1070
    44
1040
1.0
1070
    74
1070
     0
1000
MTEXTEND
  0
MTEXT
  5
5628
330
1A
100
AcDbEntity
  8
SUNPOU
100
AcDbMText
 10
69895.39867679405
 20
61936.756513898
 30
0.0
 40
10.5
 41
0.0
 71
     7
 72
     5
  1

1001
ACAD
1000
MTEXTBEGIN
1070
    73
1070
     1
1070
    44
1040
1.0
1070
    74
1070
     0
1000
MTEXTEND
1000
MTEXTBEGIN
1070
    73
1070
     1
1070
    44
1040
1.0
1070
    74
1070
     0
1000
MTEXTEND
  0
MTEXT
  5
5629
330
1A
100
AcDbEntity
  8
SUNPOU
100
AcDbMText
 10
53496.23656356237
 20
40934.35266428691
 30
0.0
 40
10.5
 41
0.0
 71
     7
 72
     5
  1

1001
ACAD
1000
MTEXTBEGIN
1070
    73
1070
     1
1070
    44
1040
1.0
1070
    74
1070
     0
1000
MTEXTEND
1000
MTEXTBEGIN
1070
    73
1070
     1
1070
    44
1040
1.0
1070
    74
1070
     0
1000
MTEXTEND
  0
MTEXT
  5
562A
330
1A
100
AcDbEntity
  8
SUNPOU
100
AcDbMText
 10
55306.99947493731
 20
47261.76665176546
 30
0.0
 40
10.5
 41
0.0
 71
     9
 72
     5
  1

1001
ACAD
1000
MTEXTBEGIN
1070
    73
1070
     1
1070
    44
1040
1.0
1070
    74
1070
     0
1000
MTEXTEND
1000
MTEXTBEGIN
1070
    73
1070
     1
1070
    44
1040
1.0
1070
    74
1070
     0
1000
MTEXTEND
  0
MTEXT
  5
562B
330
1A
100
AcDbEntity
  8
SUNPOU
100
AcDbMText
 10
64029.16704085527
 20
54677.60118330295
 30
0.0
 40
10.5
 41
0.0
 71
     9
 72
     5
  1

1001
ACAD
1000
MTEXTBEGIN
1070
    73
1070
     1
1070
    44
1040
1.0
1070
    74
1070
     0
1000
MTEXTEND
1000
MTEXTBEGIN
1070
    73
1070
     1
1070
    44
1040
1.0
1070
    74
1070
     0
1000
MTEXTEND
  0
MTEXT
  5
562C
330
1A
100
AcDbEntity
  8
SUNPOU
100
AcDbMText
 10
82982.92575818527
 20
72144.17723579499
 30
0.0
 40
10.5
 41
0.0
 71
     9
 72
     5
  1

1001
ACAD
1000
MTEXTBEGIN
1070
    73
1070
     1
1070
    44
1040
1.0
1070
    74
1070
     0
1000
MTEXTEND
1000
MTEXTBEGIN
1070
    73
1070
     1
1070
    44
1040
1.0
1070
    74
1070
     0
1000
MTEXTEND
  0
MTEXT
  5
562D
330
1A
100
AcDbEntity
  8
SUNPOU
100
AcDbMText
 10
84926.33300489467
 20
70343.12815591697
 30
0.0
 40
3.5
 41
0.0
 71
     9
 72
     5
  1

1001
ACAD
1000
MTEXTBEGIN
1070
    73
1070
     1
1070
    44
1040
1.0
1070
    74
1070
     0
1000
MTEXTEND
1000
MTEXTBEGIN
1070
    73
1070
     1
1070
    44
1040
1.0
1070
    74
1070
     0
1000
MTEXTEND
  0
MTEXT
  5
562E
330
1A
100
AcDbEntity
  8
SUNPOU
100
AcDbMText
 10
116052.5128375142
 20
112838.0738235742
 30
0.0
 40
10.5
 41
0.0
 71
     9
 72
     5
  1

1001
ACAD
1000
MTEXTBEGIN
1070
    73
1070
     1
1070
    44
1040
1.0
1070
    74
1070
     0
1000
MTEXTEND
1000
MTEXTBEGIN
1070
    73
1070
     1
1070
    44
1040
1.0
1070
    74
1070
     0
1000
MTEXTEND
  0
MTEXT
  5
562F
330
1A
100
AcDbEntity
  8
SUNPOU
100
AcDbMText
 10
117995.9200842238
 20
111037.0247436963
 30
0.0
 40
3.5
 41
0.0
 71
     9
 72
     5
  1

1001
ACAD
1000
MTEXTBEGIN
1070
    73
1070
     1
1070
    44
1040
1.0
1070
    74
1070
     0
1000
MTEXTEND
1000
MTEXTBEGIN
1070
    73
1070
     1
1070
    44
1040
1.0
1070
    74
1070
     0
1000
MTEXTEND
  0
MTEXT
  5
5630
330
1A
100
AcDbEntity
  8
SUNPOU
100
AcDbMText
 10
66492.78054330994
 20
58671.23897854939
 30
0.0
 40
10.5
 41
0.0
 71
     9
 72
     5
  1

1001
ACAD
1000
MTEXTBEGIN
1070
    73
1070
     1
1070
    44
1040
1.0
1070
    74
1070
     0
1000
MTEXTEND
1000
MTEXTBEGIN
1070
    73
1070
     1
1070
    44
1040
1.0
1070
    74
1070
     0
1000
MTEXTEND
  0
MTEXT
  5
5631
330
1A
100
AcDbEntity
  8
SUNPOU
100
AcDbMText
 10
52544.78044293397
 20
39498.83983943717
 30
0.0
 40
3.5
 41
0.0
 71
     7
 72
     5
  1

1001
ACAD
1000
MTEXTBEGIN
1070
    73
1070
     1
1070
    44
1040
1.0
1070
    74
1070
     0
1000
MTEXTEND
1000
MTEXTBEGIN
1070
    73
1070
     1
1070
    44
1040
1.0
1070
    74
1070
     0
1000
MTEXTEND
  0
MTEXT
  5
5632
330
1A
100
AcDbEntity
  8
SUNPOU
100
AcDbMText
 10
66237.13112570454
 20
48857.90306045851
 30
0.0
 40
10.5
 41
0.0
 71
     9
 72
     5
  1

1001
ACAD
1000
MTEXTBEGIN
1070
    73
1070
     1
1070
    44
1040
1.0
1070
    74
1070
     0
1000
MTEXTEND
1000
MTEXTBEGIN
1070
    73
1070
     1
1070
    44
1040
1.0
1070
    74
1070
     0
1000
MTEXTEND
  0
MTEXT
  5
5633
330
1A
100
AcDbEntity
  8
SUNPOU
100
AcDbMText
 10
74959.29869162253
 20
56273.73759199599
 30
0.0
 40
10.5
 41
0.0
 71
     9
 72
     5
  1

1001
ACAD
1000
MTEXTBEGIN
1070
    73
1070
     1
1070
    44
1040
1.0
1070
    74
1070
     0
1000
MTEXTEND
1000
MTEXTBEGIN
1070
    73
1070
     1
1070
    44
1040
1.0
1070
    74
1070
     0
1000
MTEXTEND
  0
MTEXT
  5
5634
330
1A
100
AcDbEntity
  8
SUNPOU
100
AcDbMText
 10
93913.0574089525
 20
73740.31364448805
 30
0.0
 40
10.5
 41
0.0
 71
     9
 72
     5
  1

1001
ACAD
1000
MTEXTBEGIN
1070
    73
1070
     1
1070
    44
1040
1.0
1070
    74
1070
     0
1000
MTEXTEND
1000
MTEXTBEGIN
1070
    73
1070
     1
1070
    44
1040
1.0
1070
    74
1070
     0
1000
MTEXTEND
  0
MTEXT
  5
5635
330
1A
100
AcDbEntity
  8
SUNPOU
100
AcDbMText
 10
95856.46465566192
 20
71939.26456461004
 30
0.0
 40
3.5
 41
0.0
 71
     9
 72
     5
  1

1001
ACAD
1000
MTEXTBEGIN
1070
    73
1070
     1
1070
    44
1040
1.0
1070
    74
1070
     0
1000
MTEXTEND
1000
MTEXTBEGIN
1070
    73
1070
     1
1070
    44
1040
1.0
1070
    74
1070
     0
1000
MTEXTEND
  0
MTEXT
  5
5636
330
1A
100
AcDbEntity
  8
SUNPOU
100
AcDbMText
 10
126982.6444882816
 20
114434.2102322673
 30
0.0
 40
10.5
 41
0.0
 71
     9
 72
     5
  1

1001
ACAD
1000
MTEXTBEGIN
1070
    73
1070
     1
1070
    44
1040
1.0
1070
    74
1070
     0
1000
MTEXTEND
1000
MTEXTBEGIN
1070
    73
1070
     1
1070
    44
1040
1.0
1070
    74
1070
     0
1000
MTEXTEND
  0
MTEXT
  5
5637
330
1A
100
AcDbEntity
  8
SUNPOU
100
AcDbMText
 10
128926.051734991
 20
112633.1611523893
 30
0.0
 40
3.5
 41
0.0
 71
     9
 72
     5
  1

1001
ACAD
1000
MTEXTBEGIN
1070
    73
1070
     1
1070
    44
1040
1.0
1070
    74
1070
     0
1000
MTEXTEND
1000
MTEXTBEGIN
1070
    73
1070
     1
1070
    44
1040
1.0
1070
    74
1070
     0
1000
MTEXTEND
  0
MTEXT
  5
5638
330
1A
100
AcDbEntity
  8
SUNPOU
100
AcDbMText
 10
77422.91219407717
 20
60267.37538724244
 30
0.0
 40
10.5
 41
0.0
 71
     9
 72
     5
  1

1001
ACAD
1000
MTEXTBEGIN
1070
    73
1070
     1
1070
    44
1040
1.0
1070
    74
1070
     0
1000
MTEXTEND
1000
MTEXTBEGIN
1070
    73
1070
     1
1070
    44
1040
1.0
1070
    74
1070
     0
1000
MTEXTEND
  0
MTEXT
  5
5639
330
1A
100
AcDbEntity
  8
SUNPOU
100
AcDbMText
 10
63474.91209370119
 20
41094.97624813023
 30
0.0
 40
3.5
 41
0.0
 71
     7
 72
     5
  1

1001
ACAD
1000
MTEXTBEGIN
1070
    73
1070
     1
1070
    44
1040
1.0
1070
    74
1070
     0
1000
MTEXTEND
1000
MTEXTBEGIN
1070
    73
1070
     1
1070
    44
1040
1.0
1070
    74
1070
     0
1000
MTEXTEND
  0
MTEXT
  5
563A
330
1A
100
AcDbEntity
  8
SUNPOU
100
AcDbMText
 10
48117.65086229006
 20
40806.11043916631
 30
0.0
 40
10.5
 41
0.0
 71
     9
 72
     5
  1

1001
ACAD
1000
MTEXTBEGIN
1070
    73
1070
     1
1070
    44
1040
1.0
1070
    74
1070
     0
1000
MTEXTEND
1000
MTEXTBEGIN
1070
    73
1070
     1
1070
    44
1040
1.0
1070
    74
1070
     0
1000
MTEXTEND
  0
MTEXT
  5
563B
330
1A
100
AcDbEntity
  8
SUNPOU
100
AcDbMText
 10
67071.40957962004
 20
58272.68649165838
 30
0.0
 40
10.5
 41
0.0
 71
     9
 72
     5
  1

1001
ACAD
1000
MTEXTBEGIN
1070
    73
1070
     1
1070
    44
1040
1.0
1070
    74
1070
     0
1000
MTEXTEND
1000
MTEXTBEGIN
1070
    73
1070
     1
1070
    44
1040
1.0
1070
    74
1070
     0
1000
MTEXTEND
  0
MTEXT
  5
563C
330
1A
100
AcDbEntity
  8
SUNPOU
100
AcDbMText
 10
69014.81682632945
 20
56471.63741178035
 30
0.0
 40
3.5
 41
0.0
 71
     9
 72
     5
  1

1001
ACAD
1000
MTEXTBEGIN
1070
    73
1070
     1
1070
    44
1040
1.0
1070
    74
1070
     0
1000
MTEXTEND
1000
MTEXTBEGIN
1070
    73
1070
     1
1070
    44
1040
1.0
1070
    74
1070
     0
1000
MTEXTEND
  0
MTEXT
  5
563D
330
1A
100
AcDbEntity
  8
SUNPOU
100
AcDbMText
 10
100140.9966589491
 20
98966.58307943773
 30
0.0
 40
10.5
 41
0.0
 71
     9
 72
     5
  1

1001
ACAD
1000
MTEXTBEGIN
1070
    73
1070
     1
1070
    44
1040
1.0
1070
    74
1070
     0
1000
MTEXTEND
1000
MTEXTBEGIN
1070
    73
1070
     1
1070
    44
1040
1.0
1070
    74
1070
     0
1000
MTEXTEND
  0
MTEXT
  5
563E
330
1A
100
AcDbEntity
  8
SUNPOU
100
AcDbMText
 10
102084.4039056586
 20
97165.53399955968
 30
0.0
 40
3.5
 41
0.0
 71
     9
 72
     5
  1

1001
ACAD
1000
MTEXTBEGIN
1070
    73
1070
     1
1070
    44
1040
1.0
1070
    74
1070
     0
1000
MTEXTEND
1000
MTEXTBEGIN
1070
    73
1070
     1
1070
    44
1040
1.0
1070
    74
1070
     0
1000
MTEXTEND
  0
MTEXT
  5
563F
330
1A
100
AcDbEntity
  8
SUNPOU
100
AcDbMText
 10
50581.26436474472
 20
44799.74823441275
 30
0.0
 40
10.5
 41
0.0
 71
     9
 72
     5
  1

1001
ACAD
1000
MTEXTBEGIN
1070
    73
1070
     1
1070
    44
1040
1.0
1070
    74
1070
     0
1000
MTEXTEND
1000
MTEXTBEGIN
1070
    73
1070
     1
1070
    44
1040
1.0
1070
    74
1070
     0
1000
MTEXTEND
  0
MTEXT
  5
5640
330
1A
100
AcDbEntity
  8
SUNPOU
100
AcDbMText
 10
36633.26426436873
 20
25627.34909530054
 30
0.0
 40
3.5
 41
0.0
 71
     7
 72
     5
  1

1001
ACAD
1000
MTEXTBEGIN
1070
    73
1070
     1
1070
    44
1040
1.0
1070
    74
1070
     0
1000
MTEXTEND
1000
MTEXTBEGIN
1070
    73
1070
     1
1070
    44
1040
1.0
1070
    74
1070
     0
1000
MTEXTEND
  0
MTEXT
  5
5641
330
1A
100
AcDbEntity
  8
SUNPOU
100
AcDbMText
 10
61069.42493315968
 20
52574.61207825771
 30
0.0
 40
10.5
 41
0.0
 71
     9
 72
     5
  1

1001
ACAD
1000
MTEXTBEGIN
1070
    73
1070
     1
1070
    44
1040
1.0
1070
    74
1070
     0
1000
MTEXTEND
1000
MTEXTBEGIN
1070
    73
1070
     1
1070
    44
1040
1.0
1070
    74
1070
     0
1000
MTEXTEND
  0
MTEXT
  5
5642
330
1A
100
AcDbEntity
  8
SUNPOU
100
AcDbMText
 10
80023.18365048967
 20
70041.18813074978
 30
0.0
 40
10.5
 41
0.0
 71
     9
 72
     5
  1

1001
ACAD
1000
MTEXTBEGIN
1070
    73
1070
     1
1070
    44
1040
1.0
1070
    74
1070
     0
1000
MTEXTEND
1000
MTEXTBEGIN
1070
    73
1070
     1
1070
    44
1040
1.0
1070
    74
1070
     0
1000
MTEXTEND
  0
MTEXT
  5
5643
330
1A
100
AcDbEntity
  8
SUNPOU
100
AcDbMText
 10
81966.59089719908
 20
68240.13905087176
 30
0.0
 40
3.5
 41
0.0
 71
     9
 72
     5
  1

1001
ACAD
1000
MTEXTBEGIN
1070
    73
1070
     1
1070
    44
1040
1.0
1070
    74
1070
     0
1000
MTEXTEND
1000
MTEXTBEGIN
1070
    73
1070
     1
1070
    44
1040
1.0
1070
    74
1070
     0
1000
MTEXTEND
  0
MTEXT
  5
5644
330
1A
100
AcDbEntity
  8
SUNPOU
100
AcDbMText
 10
113092.7707298186
 20
110735.0847185291
 30
0.0
 40
10.5
 41
0.0
 71
     9
 72
     5
  1

1001
ACAD
1000
MTEXTBEGIN
1070
    73
1070
     1
1070
    44
1040
1.0
1070
    74
1070
     0
1000
MTEXTEND
1000
MTEXTBEGIN
1070
    73
1070
     1
1070
    44
1040
1.0
1070
    74
1070
     0
1000
MTEXTEND
  0
MTEXT
  5
5645
330
1A
100
AcDbEntity
  8
SUNPOU
100
AcDbMText
 10
115036.1779765282
 20
108934.0356386511
 30
0.0
 40
3.5
 41
0.0
 71
     9
 72
     5
  1

1001
ACAD
1000
MTEXTBEGIN
1070
    73
1070
     1
1070
    44
1040
1.0
1070
    74
1070
     0
1000
MTEXTEND
1000
MTEXTBEGIN
1070
    73
1070
     1
1070
    44
1040
1.0
1070
    74
1070
     0
1000
MTEXTEND
  0
MTEXT
  5
5646
330
1A
100
AcDbEntity
  8
SUNPOU
100
AcDbMText
 10
63533.03843561432
 20
56568.24987350415
 30
0.0
 40
10.5
 41
0.0
 71
     9
 72
     5
  1

1001
ACAD
1000
MTEXTBEGIN
1070
    73
1070
     1
1070
    44
1040
1.0
1070
    74
1070
     0
1000
MTEXTEND
1000
MTEXTBEGIN
1070
    73
1070
     1
1070
    44
1040
1.0
1070
    74
1070
     0
1000
MTEXTEND
  0
MTEXT
  5
5647
330
1A
100
AcDbEntity
  8
SUNPOU
100
AcDbMText
 10
49585.03833523835
 20
37395.85073439196
 30
0.0
 40
3.5
 41
0.0
 71
     7
 72
     5
  1

1001
ACAD
1000
MTEXTBEGIN
1070
    73
1070
     1
1070
    44
1040
1.0
1070
    74
1070
     0
1000
MTEXTEND
1000
MTEXTBEGIN
1070
    73
1070
     1
1070
    44
1040
1.0
1070
    74
1070
     0
1000
MTEXTEND
  0
MTEXT
  5
5648
330
1A
100
AcDbEntity
  8
SUNPOU
100
AcDbMText
 10
77137.31641337052
 20
70907.11375048141
 30
0.0
 40
10.5
 41
0.0
 71
     9
 72
     5
  1

1001
ACAD
1000
MTEXTBEGIN
1070
    73
1070
     1
1070
    44
1040
1.0
1070
    74
1070
     0
1000
MTEXTEND
1000
MTEXTBEGIN
1070
    73
1070
     1
1070
    44
1040
1.0
1070
    74
1070
     0
1000
MTEXTEND
  0
MTEXT
  5
5649
330
1A
100
AcDbEntity
  8
SUNPOU
100
AcDbMText
 10
79080.72366007995
 20
69106.06467060339
 30
0.0
 40
3.5
 41
0.0
 71
     9
 72
     5
  1

1001
ACAD
1000
MTEXTBEGIN
1070
    73
1070
     1
1070
    44
1040
1.0
1070
    74
1070
     0
1000
MTEXTEND
1000
MTEXTBEGIN
1070
    73
1070
     1
1070
    44
1040
1.0
1070
    74
1070
     0
1000
MTEXTEND
  0
MTEXT
  5
564A
330
1A
100
AcDbEntity
  8
SUNPOU
100
AcDbMText
 10
110206.9034926996
 20
111601.0103382607
 30
0.0
 40
10.5
 41
0.0
 71
     9
 72
     5
  1

1001
ACAD
1000
MTEXTBEGIN
1070
    73
1070
     1
1070
    44
1040
1.0
1070
    74
1070
     0
1000
MTEXTEND
1000
MTEXTBEGIN
1070
    73
1070
     1
1070
    44
1040
1.0
1070
    74
1070
     0
1000
MTEXTEND
  0
MTEXT
  5
564B
330
1A
100
AcDbEntity
  8
SUNPOU
100
AcDbMText
 10
112150.310739409
 20
109799.9612583826
 30
0.0
 40
3.5
 41
0.0
 71
     9
 72
     5
  1

1001
ACAD
1000
MTEXTBEGIN
1070
    73
1070
     1
1070
    44
1040
1.0
1070
    74
1070
     0
1000
MTEXTEND
1000
MTEXTBEGIN
1070
    73
1070
     1
1070
    44
1040
1.0
1070
    74
1070
     0
1000
MTEXTEND
  0
MTEXT
  5
564C
330
1A
100
AcDbEntity
  8
SUNPOU
100
AcDbMText
 10
108819.1333204967
 20
110677.9087286761
 30
0.0
 40
10.5
 41
0.0
 71
     9
 72
     5
  1

1001
ACAD
1000
MTEXTBEGIN
1070
    73
1070
     1
1070
    44
1040
1.0
1070
    74
1070
     0
1000
MTEXTEND
1000
MTEXTBEGIN
1070
    73
1070
     1
1070
    44
1040
1.0
1070
    74
1070
     0
1000
MTEXTEND
  0
MTEXT
  5
564D
330
1A
100
AcDbEntity
  8
SUNPOU
100
AcDbMText
 10
110762.5405672062
 20
108876.8596487981
 30
0.0
 40
3.5
 41
0.0
 71
     9
 72
     5
  1

1001
ACAD
1000
MTEXTBEGIN
1070
    73
1070
     1
1070
    44
1040
1.0
1070
    74
1070
     0
1000
MTEXTEND
1000
MTEXTBEGIN
1070
    73
1070
     1
1070
    44
1040
1.0
1070
    74
1070
     0
1000
MTEXTEND
  0
MTEXT
  5
564E
330
1A
100
AcDbEntity
  8
SUNPOU
100
AcDbMText
 10
76303.05507956816
 20
68695.31179059812
 30
0.0
 40
10.5
 41
0.0
 71
     9
 72
     5
  1

1001
ACAD
1000
MTEXTBEGIN
1070
    73
1070
     1
1070
    44
1040
1.0
1070
    74
1070
     0
1000
MTEXTEND
1000
MTEXTBEGIN
1070
    73
1070
     1
1070
    44
1040
1.0
1070
    74
1070
     0
1000
MTEXTEND
  0
MTEXT
  5
564F
330
1A
100
AcDbEntity
  8
SUNPOU
100
AcDbMText
 10
79026.36128373271
 20
69099.99348217918
 30
0.0
 40
3.5
 41
0.0
 71
     9
 72
     5
  1

1001
ACAD
1000
MTEXTBEGIN
1070
    73
1070
     1
1070
    44
1040
1.0
1070
    74
1070
     0
1000
MTEXTEND
1000
MTEXTBEGIN
1070
    73
1070
     1
1070
    44
1040
1.0
1070
    74
1070
     0
1000
MTEXTEND
  0
MTEXT
  5
5650
330
1A
100
AcDbEntity
  8
SUNPOU
100
AcDbMText
 10
78234.00675862522
 20
65938.68764412436
 30
0.0
 40
10.5
 41
0.0
 71
     9
 72
     5
  1

1001
ACAD
1000
MTEXTBEGIN
1070
    73
1070
     1
1070
    44
1040
1.0
1070
    74
1070
     0
1000
MTEXTEND
1000
MTEXTBEGIN
1070
    73
1070
     1
1070
    44
1040
1.0
1070
    74
1070
     0
1000
MTEXTEND
  0
MTEXT
  5
5651
330
1A
100
AcDbEntity
  8
SUNPOU
100
AcDbMText
 10
80177.41400533465
 20
64137.63856424636
 30
0.0
 40
3.5
 41
0.0
 71
     9
 72
     5
  1

1001
ACAD
1000
MTEXTBEGIN
1070
    73
1070
     1
1070
    44
1040
1.0
1070
    74
1070
     0
1000
MTEXTEND
1000
MTEXTBEGIN
1070
    73
1070
     1
1070
    44
1040
1.0
1070
    74
1070
     0
1000
MTEXTEND
  0
MTEXT
  5
5652
330
1A
100
AcDbEntity
  8
SUNPOU
100
AcDbMText
 10
80122.50949592122
 20
64024.86668196204
 30
0.0
 40
3.5
 41
0.0
 71
     9
 72
     5
  1

1001
ACAD
1000
MTEXTBEGIN
1070
    73
1070
     1
1070
    44
1040
1.0
1070
    74
1070
     0
1000
MTEXTEND
1000
MTEXTBEGIN
1070
    73
1070
     1
1070
    44
1040
1.0
1070
    74
1070
     0
1000
MTEXTEND
  0
MTEXT
  5
5653
330
1A
100
AcDbEntity
  8
SUNPOU
100
AcDbMText
 10
79486.58135950133
 20
63213.54544089553
 30
0.0
 40
3.5
 41
0.0
 71
     9
 72
     5
  1

1001
ACAD
1000
MTEXTBEGIN
1070
    73
1070
     1
1070
    44
1040
1.0
1070
    74
1070
     0
1000
MTEXTEND
1000
MTEXTBEGIN
1070
    73
1070
     1
1070
    44
1040
1.0
1070
    74
1070
     0
1000
MTEXTEND
  0
MTEXT
  5
5654
330
1A
100
AcDbEntity
  8
SUNPOU
100
AcDbMText
 10
79485.3409400806
 20
63213.29746395804
 30
0.0
 40
10.5
 41
0.0
 71
     9
 72
     5
  1

1001
ACAD
1000
MTEXTBEGIN
1070
    73
1070
     1
1070
    44
1040
1.0
1070
    74
1070
     0
1000
MTEXTEND
1000
MTEXTBEGIN
1070
    73
1070
     1
1070
    44
1040
1.0
1070
    74
1070
     0
1000
MTEXTEND
  0
MTEXT
  5
5655
330
1A
100
AcDbEntity
  8
SUNPOU
100
AcDbMText
 10
85473.63363627567
 20
80747.76348077064
 30
0.0
 40
10.5
 41
0.0
 71
     9
 72
     5
  1

1001
ACAD
1000
MTEXTBEGIN
1070
    73
1070
     1
1070
    44
1040
1.0
1070
    74
1070
     0
1000
MTEXTEND
1000
MTEXTBEGIN
1070
    73
1070
     1
1070
    44
1040
1.0
1070
    74
1070
     0
1000
MTEXTEND
  0
MTEXT
  5
5656
330
1A
100
AcDbEntity
  8
SUNPOU
100
AcDbMText
 10
94195.80120219368
 20
88163.59801230808
 30
0.0
 40
10.5
 41
0.0
 71
     9
 72
     5
  1

1001
ACAD
1000
MTEXTBEGIN
1070
    73
1070
     1
1070
    44
1040
1.0
1070
    74
1070
     0
1000
MTEXTEND
1000
MTEXTBEGIN
1070
    73
1070
     1
1070
    44
1040
1.0
1070
    74
1070
     0
1000
MTEXTEND
  0
MTEXT
  5
5657
330
1A
100
AcDbEntity
  8
SUNPOU
100
AcDbMText
 10
113149.5599195236
 20
105630.1740648001
 30
0.0
 40
10.5
 41
0.0
 71
     9
 72
     5
  1

1001
ACAD
1000
MTEXTBEGIN
1070
    73
1070
     1
1070
    44
1040
1.0
1070
    74
1070
     0
1000
MTEXTEND
1000
MTEXTBEGIN
1070
    73
1070
     1
1070
    44
1040
1.0
1070
    74
1070
     0
1000
MTEXTEND
  0
MTEXT
  5
5658
330
1A
100
AcDbEntity
  8
SUNPOU
100
AcDbMText
 10
115092.967166233
 20
103829.1249849221
 30
0.0
 40
3.5
 41
0.0
 71
     9
 72
     5
  1

1001
ACAD
1000
MTEXTBEGIN
1070
    73
1070
     1
1070
    44
1040
1.0
1070
    74
1070
     0
1000
MTEXTEND
1000
MTEXTBEGIN
1070
    73
1070
     1
1070
    44
1040
1.0
1070
    74
1070
     0
1000
MTEXTEND
  0
MTEXT
  5
5659
330
1A
100
AcDbEntity
  8
SUNPOU
100
AcDbMText
 10
146219.1469988527
 20
146324.0706525794
 30
0.0
 40
10.5
 41
0.0
 71
     9
 72
     5
  1

1001
ACAD
1000
MTEXTBEGIN
1070
    73
1070
     1
1070
    44
1040
1.0
1070
    74
1070
     0
1000
MTEXTEND
1000
MTEXTBEGIN
1070
    73
1070
     1
1070
    44
1040
1.0
1070
    74
1070
     0
1000
MTEXTEND
  0
MTEXT
  5
565A
330
1A
100
AcDbEntity
  8
SUNPOU
100
AcDbMText
 10
148162.5542455621
 20
144523.0215727014
 30
0.0
 40
3.5
 41
0.0
 71
     9
 72
     5
  1

1001
ACAD
1000
MTEXTBEGIN
1070
    73
1070
     1
1070
    44
1040
1.0
1070
    74
1070
     0
1000
MTEXTEND
1000
MTEXTBEGIN
1070
    73
1070
     1
1070
    44
1040
1.0
1070
    74
1070
     0
1000
MTEXTEND
  0
MTEXT
  5
565B
330
1A
100
AcDbEntity
  8
SUNPOU
100
AcDbMText
 10
96659.41470464833
 20
92157.23580755453
 30
0.0
 40
10.5
 41
0.0
 71
     9
 72
     5
  1

1001
ACAD
1000
MTEXTBEGIN
1070
    73
1070
     1
1070
    44
1040
1.0
1070
    74
1070
     0
1000
MTEXTEND
1000
MTEXTBEGIN
1070
    73
1070
     1
1070
    44
1040
1.0
1070
    74
1070
     0
1000
MTEXTEND
  0
MTEXT
  5
565C
330
1A
100
AcDbEntity
  8
SUNPOU
100
AcDbMText
 10
82711.41460427234
 20
72984.83666844234
 30
0.0
 40
3.5
 41
0.0
 71
     7
 72
     5
  1

1001
ACAD
1000
MTEXTBEGIN
1070
    73
1070
     1
1070
    44
1040
1.0
1070
    74
1070
     0
1000
MTEXTEND
1000
MTEXTBEGIN
1070
    73
1070
     1
1070
    44
1040
1.0
1070
    74
1070
     0
1000
MTEXTEND
  0
MTEXT
  5
565D
330
1A
100
AcDbEntity
  8
SUNPOU
100
AcDbMText
 10
63696.58400126548
 20
60746.98539926055
 30
0.0
 40
10.5
 41
0.0
 71
     7
 72
     5
  1

1001
ACAD
1000
MTEXTBEGIN
1070
    73
1070
     1
1070
    44
1040
1.0
1070
    74
1070
     0
1000
MTEXTEND
1000
MTEXTBEGIN
1070
    73
1070
     1
1070
    44
1040
1.0
1070
    74
1070
     0
1000
MTEXTEND
  0
MTEXT
  5
565E
330
1A
100
AcDbEntity
  8
SUNPOU
100
AcDbMText
 10
51239.35573631738
 20
44902.05382116213
 30
0.0
 40
35.0
 41
0.0
 71
     9
 72
     5
  1

1001
ACAD
1000
MTEXTBEGIN
1070
    73
1070
     1
1070
    44
1040
1.0
1070
    74
1070
     0
1000
MTEXTEND
1000
MTEXTBEGIN
1070
    73
1070
     1
1070
    44
1040
1.0
1070
    74
1070
     0
1000
MTEXTEND
  0
MTEXT
  5
565F
330
1A
100
AcDbEntity
  8
SUNPOU
100
AcDbMText
 10
50147.84079389233
 20
45510.82923121084
 30
0.0
 40
350.0000004171781
 41
0.0
 71
     7
 72
     5
  1

1001
ACAD
1000
MTEXTBEGIN
1070
    73
1070
     1
1070
    44
1040
1.0
1070
    74
1070
     0
1000
MTEXTEND
1000
MTEXTBEGIN
1070
    73
1070
     1
1070
    44
1040
1.0
1070
    74
1070
     0
1000
MTEXTEND
  0
MTEXT
  5
5660
330
1A
100
AcDbEntity
  8
0
100
AcDbMText
 10
56191.79155183523
 20
43490.75159334705
 30
0.0
 40
8.0
 41
0.0
 71
     7
 72
     5
  1

1001
ACAD
1000
MTEXTBEGIN
1070
    73
1070
     1
1070
    44
1040
1.0
1070
    74
1070
     0
1000
MTEXTEND
1000
MTEXTBEGIN
1070
    73
1070
     1
1070
    44
1040
1.0
1070
    74
1070
     0
1000
MTEXTEND
  0
MTEXT
  5
5661
330
1A
100
AcDbEntity
  8
0
100
AcDbMText
 10
58477.14924173012
 20
44461.54188809812
 30
0.0
 40
8.0
 41
0.0
 71
     7
 72
     5
  1

1001
ACAD
1000
MTEXTBEGIN
1070
    73
1070
     1
1070
    44
1040
1.0
1070
    74
1070
     0
1000
MTEXTEND
1000
MTEXTBEGIN
1070
    73
1070
     1
1070
    44
1040
1.0
1070
    74
1070
     0
1000
MTEXTEND
  0
MTEXT
  5
5662
330
1A
100
AcDbEntity
  8
SUNPOU
100
AcDbMText
 10
61143.04626241227
 20
53973.65328047324
 30
0.0
 40
10.5
 41
0.0
 71
     1
 72
     5
  1

1001
ACAD
1000
MTEXTBEGIN
1070
    73
1070
     1
1070
    44
1040
1.0
1070
    74
1070
     0
1000
MTEXTEND
1000
MTEXTBEGIN
1070
    73
1070
     1
1070
    44
1040
1.0
1070
    74
1070
     0
1000
MTEXTEND
  0
MTEXT
  5
5663
330
1A
100
AcDbEntity
  8
SUNPOU
100
AcDbMText
 10
53212.12306647633
 20
53026.86014656028
 30
0.0
 40
10.5
 41
0.0
 71
     7
 72
     5
  1

1001
ACAD
1000
MTEXTBEGIN
1070
    73
1070
     1
1070
    44
1040
1.0
1070
    74
1070
     0
1000
MTEXTEND
1000
MTEXTBEGIN
1070
    73
1070
     1
1070
    44
1040
1.0
1070
    74
1070
     0
1000
MTEXTEND
  0
MTEXT
  5
5664
330
1A
100
AcDbEntity
  8
SUNPOU
100
AcDbMText
 10
56161.10673098909
 20
57927.53621840312
 30
0.0
 40
10.5
 41
0.0
 71
     7
 72
     5
  1

1001
ACAD
1000
MTEXTBEGIN
1070
    73
1070
     1
1070
    44
1040
1.0
1070
    74
1070
     0
1000
MTEXTEND
1000
MTEXTBEGIN
1070
    73
1070
     1
1070
    44
1040
1.0
1070
    74
1070
     0
1000
MTEXTEND
  0
MTEXT
  5
5665
330
1A
100
AcDbEntity
  8
SUNPOU
100
AcDbMText
 10
60670.18485893966
 20
60363.8369660232
 30
0.0
 40
10.5
 41
0.0
 71
     7
 72
     5
  1

1001
ACAD
1000
MTEXTBEGIN
1070
    73
1070
     1
1070
    44
1040
1.0
1070
    74
1070
     0
1000
MTEXTEND
1000
MTEXTBEGIN
1070
    73
1070
     1
1070
    44
1040
1.0
1070
    74
1070
     0
1000
MTEXTEND
  0
MTEXT
  5
5666
330
1A
100
AcDbEntity
  8
SUNPOU
100
AcDbMText
 10
44271.02274570799
 20
39361.43311641211
 30
0.0
 40
10.5
 41
0.0
 71
     7
 72
     5
  1

1001
ACAD
1000
MTEXTBEGIN
1070
    73
1070
     1
1070
    44
1040
1.0
1070
    74
1070
     0
1000
MTEXTEND
1000
MTEXTBEGIN
1070
    73
1070
     1
1070
    44
1040
1.0
1070
    74
1070
     0
1000
MTEXTEND
  0
MTEXT
  5
5667
330
1A
100
AcDbEntity
  8
SUNPOU
100
AcDbMText
 10
95462.54117960824
 20
85034.41368006038
 30
0.0
 40
10.5
 41
0.0
 71
     9
 72
     5
  1

1001
ACAD
1000
MTEXTBEGIN
1070
    73
1070
     1
1070
    44
1040
1.0
1070
    74
1070
     0
1000
MTEXTEND
1000
MTEXTBEGIN
1070
    73
1070
     1
1070
    44
1040
1.0
1070
    74
1070
     0
1000
MTEXTEND
  0
MTEXT
  5
5668
330
1A
100
AcDbEntity
  8
SUNPOU
100
AcDbMText
 10
104184.7087455262
 20
92450.24821159784
 30
0.0
 40
10.5
 41
0.0
 71
     9
 72
     5
  1

1001
ACAD
1000
MTEXTBEGIN
1070
    73
1070
     1
1070
    44
1040
1.0
1070
    74
1070
     0
1000
MTEXTEND
1000
MTEXTBEGIN
1070
    73
1070
     1
1070
    44
1040
1.0
1070
    74
1070
     0
1000
MTEXTEND
  0
MTEXT
  5
5669
330
1A
100
AcDbEntity
  8
SUNPOU
100
AcDbMText
 10
123138.4674628562
 20
109916.8242640898
 30
0.0
 40
10.5
 41
0.0
 71
     9
 72
     5
  1

1001
ACAD
1000
MTEXTBEGIN
1070
    73
1070
     1
1070
    44
1040
1.0
1070
    74
1070
     0
1000
MTEXTEND
1000
MTEXTBEGIN
1070
    73
1070
     1
1070
    44
1040
1.0
1070
    74
1070
     0
1000
MTEXTEND
  0
MTEXT
  5
566A
330
1A
100
AcDbEntity
  8
SUNPOU
100
AcDbMText
 10
125081.8747095656
 20
108115.7751842118
 30
0.0
 40
3.5
 41
0.0
 71
     9
 72
     5
  1

1001
ACAD
1000
MTEXTBEGIN
1070
    73
1070
     1
1070
    44
1040
1.0
1070
    74
1070
     0
1000
MTEXTEND
1000
MTEXTBEGIN
1070
    73
1070
     1
1070
    44
1040
1.0
1070
    74
1070
     0
1000
MTEXTEND
  0
MTEXT
  5
566B
330
1A
100
AcDbEntity
  8
SUNPOU
100
AcDbMText
 10
156208.0545421853
 20
150610.7208518691
 30
0.0
 40
10.5
 41
0.0
 71
     9
 72
     5
  1

1001
ACAD
1000
MTEXTBEGIN
1070
    73
1070
     1
1070
    44
1040
1.0
1070
    74
1070
     0
1000
MTEXTEND
1000
MTEXTBEGIN
1070
    73
1070
     1
1070
    44
1040
1.0
1070
    74
1070
     0
1000
MTEXTEND
  0
MTEXT
  5
566C
330
1A
100
AcDbEntity
  8
SUNPOU
100
AcDbMText
 10
158151.4617888947
 20
148809.6717719911
 30
0.0
 40
3.5
 41
0.0
 71
     9
 72
     5
  1

1001
ACAD
1000
MTEXTBEGIN
1070
    73
1070
     1
1070
    44
1040
1.0
1070
    74
1070
     0
1000
MTEXTEND
1000
MTEXTBEGIN
1070
    73
1070
     1
1070
    44
1040
1.0
1070
    74
1070
     0
1000
MTEXTEND
  0
MTEXT
  5
566D
330
1A
100
AcDbEntity
  8
SUNPOU
100
AcDbMText
 10
106648.3222479809
 20
96443.88600684427
 30
0.0
 40
10.5
 41
0.0
 71
     9
 72
     5
  1

1001
ACAD
1000
MTEXTBEGIN
1070
    73
1070
     1
1070
    44
1040
1.0
1070
    74
1070
     0
1000
MTEXTEND
1000
MTEXTBEGIN
1070
    73
1070
     1
1070
    44
1040
1.0
1070
    74
1070
     0
1000
MTEXTEND
  0
MTEXT
  5
566E
330
1A
100
AcDbEntity
  8
SUNPOU
100
AcDbMText
 10
92700.3221476049
 20
77271.48686773207
 30
0.0
 40
3.5
 41
0.0
 71
     7
 72
     5
  1

1001
ACAD
1000
MTEXTBEGIN
1070
    73
1070
     1
1070
    44
1040
1.0
1070
    74
1070
     0
1000
MTEXTEND
1000
MTEXTBEGIN
1070
    73
1070
     1
1070
    44
1040
1.0
1070
    74
1070
     0
1000
MTEXTEND
  0
MTEXT
  5
566F
330
1A
100
AcDbEntity
  8
SUNPOU
100
AcDbMText
 10
73685.49154459807
 20
65033.63559855027
 30
0.0
 40
10.5
 41
0.0
 71
     7
 72
     5
  1

1001
ACAD
1000
MTEXTBEGIN
1070
    73
1070
     1
1070
    44
1040
1.0
1070
    74
1070
     0
1000
MTEXTEND
1000
MTEXTBEGIN
1070
    73
1070
     1
1070
    44
1040
1.0
1070
    74
1070
     0
1000
MTEXTEND
  0
MTEXT
  5
5670
330
1A
100
AcDbEntity
  8
SUNPOU
100
AcDbMText
 10
61228.26327964995
 20
49188.70402045184
 30
0.0
 40
35.0
 41
0.0
 71
     9
 72
     5
  1

1001
ACAD
1000
MTEXTBEGIN
1070
    73
1070
     1
1070
    44
1040
1.0
1070
    74
1070
     0
1000
MTEXTEND
1000
MTEXTBEGIN
1070
    73
1070
     1
1070
    44
1040
1.0
1070
    74
1070
     0
1000
MTEXTEND
  0
MTEXT
  5
5671
330
1A
100
AcDbEntity
  8
SUNPOU
100
AcDbMText
 10
60136.74833722491
 20
49797.47943050056
 30
0.0
 40
350.0000004171781
 41
0.0
 71
     7
 72
     5
  1

1001
ACAD
1000
MTEXTBEGIN
1070
    73
1070
     1
1070
    44
1040
1.0
1070
    74
1070
     0
1000
MTEXTEND
1000
MTEXTBEGIN
1070
    73
1070
     1
1070
    44
1040
1.0
1070
    74
1070
     0
1000
MTEXTEND
  0
MTEXT
  5
5672
330
1A
100
AcDbEntity
  8
0
100
AcDbMText
 10
66180.69909516782
 20
47777.40179263677
 30
0.0
 40
8.0
 41
0.0
 71
     7
 72
     5
  1

1001
ACAD
1000
MTEXTBEGIN
1070
    73
1070
     1
1070
    44
1040
1.0
1070
    74
1070
     0
1000
MTEXTEND
1000
MTEXTBEGIN
1070
    73
1070
     1
1070
    44
1040
1.0
1070
    74
1070
     0
1000
MTEXTEND
  0
MTEXT
  5
5673
330
1A
100
AcDbEntity
  8
0
100
AcDbMText
 10
68466.05678506271
 20
48748.19208738784
 30
0.0
 40
8.0
 41
0.0
 71
     7
 72
     5
  1

1001
ACAD
1000
MTEXTBEGIN
1070
    73
1070
     1
1070
    44
1040
1.0
1070
    74
1070
     0
1000
MTEXTEND
1000
MTEXTBEGIN
1070
    73
1070
     1
1070
    44
1040
1.0
1070
    74
1070
     0
1000
MTEXTEND
  0
MTEXT
  5
5674
330
1A
100
AcDbEntity
  8
SUNPOU
100
AcDbMText
 10
71131.95380574485
 20
58260.30347976296
 30
0.0
 40
10.5
 41
0.0
 71
     1
 72
     5
  1

1001
ACAD
1000
MTEXTBEGIN
1070
    73
1070
     1
1070
    44
1040
1.0
1070
    74
1070
     0
1000
MTEXTEND
1000
MTEXTBEGIN
1070
    73
1070
     1
1070
    44
1040
1.0
1070
    74
1070
     0
1000
MTEXTEND
  0
MTEXT
  5
5675
330
1A
100
AcDbEntity
  8
SUNPOU
100
AcDbMText
 10
63201.03060980891
 20
57313.51034585003
 30
0.0
 40
10.5
 41
0.0
 71
     7
 72
     5
  1

1001
ACAD
1000
MTEXTBEGIN
1070
    73
1070
     1
1070
    44
1040
1.0
1070
    74
1070
     0
1000
MTEXTEND
1000
MTEXTBEGIN
1070
    73
1070
     1
1070
    44
1040
1.0
1070
    74
1070
     0
1000
MTEXTEND
  0
MTEXT
  5
5676
330
1A
100
AcDbEntity
  8
SUNPOU
100
AcDbMText
 10
66150.01427432169
 20
62214.18641769286
 30
0.0
 40
10.5
 41
0.0
 71
     7
 72
     5
  1

1001
ACAD
1000
MTEXTBEGIN
1070
    73
1070
     1
1070
    44
1040
1.0
1070
    74
1070
     0
1000
MTEXTEND
1000
MTEXTBEGIN
1070
    73
1070
     1
1070
    44
1040
1.0
1070
    74
1070
     0
1000
MTEXTEND
  0
MTEXT
  5
5677
330
1A
100
AcDbEntity
  8
SUNPOU
100
AcDbMText
 10
70659.09240227225
 20
64650.48716531294
 30
0.0
 40
10.5
 41
0.0
 71
     7
 72
     5
  1

1001
ACAD
1000
MTEXTBEGIN
1070
    73
1070
     1
1070
    44
1040
1.0
1070
    74
1070
     0
1000
MTEXTEND
1000
MTEXTBEGIN
1070
    73
1070
     1
1070
    44
1040
1.0
1070
    74
1070
     0
1000
MTEXTEND
  0
MTEXT
  5
5678
330
1A
100
AcDbEntity
  8
SUNPOU
100
AcDbMText
 10
54259.93028904056
 20
43648.08331570185
 30
0.0
 40
10.5
 41
0.0
 71
     7
 72
     5
  1

1001
ACAD
1000
MTEXTBEGIN
1070
    73
1070
     1
1070
    44
1040
1.0
1070
    74
1070
     0
1000
MTEXTEND
1000
MTEXTBEGIN
1070
    73
1070
     1
1070
    44
1040
1.0
1070
    74
1070
     0
1000
MTEXTEND
  0
MTEXT
  5
5679
330
1A
100
AcDbEntity
  8
SUNPOU
100
AcDbMText
 10
56070.69320041551
 20
49975.4973031804
 30
0.0
 40
10.5
 41
0.0
 71
     9
 72
     5
  1

1001
ACAD
1000
MTEXTBEGIN
1070
    73
1070
     1
1070
    44
1040
1.0
1070
    74
1070
     0
1000
MTEXTEND
1000
MTEXTBEGIN
1070
    73
1070
     1
1070
    44
1040
1.0
1070
    74
1070
     0
1000
MTEXTEND
  0
MTEXT
  5
567A
330
1A
100
AcDbEntity
  8
SUNPOU
100
AcDbMText
 10
64792.86076633347
 20
57391.33183471787
 30
0.0
 40
10.5
 41
0.0
 71
     9
 72
     5
  1

1001
ACAD
1000
MTEXTBEGIN
1070
    73
1070
     1
1070
    44
1040
1.0
1070
    74
1070
     0
1000
MTEXTEND
1000
MTEXTBEGIN
1070
    73
1070
     1
1070
    44
1040
1.0
1070
    74
1070
     0
1000
MTEXTEND
  0
MTEXT
  5
567B
330
1A
100
AcDbEntity
  8
SUNPOU
100
AcDbMText
 10
83746.61948366345
 20
74857.90788720994
 30
0.0
 40
10.5
 41
0.0
 71
     9
 72
     5
  1

1001
ACAD
1000
MTEXTBEGIN
1070
    73
1070
     1
1070
    44
1040
1.0
1070
    74
1070
     0
1000
MTEXTEND
1000
MTEXTBEGIN
1070
    73
1070
     1
1070
    44
1040
1.0
1070
    74
1070
     0
1000
MTEXTEND
  0
MTEXT
  5
567C
330
1A
100
AcDbEntity
  8
SUNPOU
100
AcDbMText
 10
85690.02673037287
 20
73056.85880733192
 30
0.0
 40
3.5
 41
0.0
 71
     9
 72
     5
  1

1001
ACAD
1000
MTEXTBEGIN
1070
    73
1070
     1
1070
    44
1040
1.0
1070
    74
1070
     0
1000
MTEXTEND
1000
MTEXTBEGIN
1070
    73
1070
     1
1070
    44
1040
1.0
1070
    74
1070
     0
1000
MTEXTEND
  0
MTEXT
  5
567D
330
1A
100
AcDbEntity
  8
SUNPOU
100
AcDbMText
 10
116816.2065629925
 20
115551.8044749892
 30
0.0
 40
10.5
 41
0.0
 71
     9
 72
     5
  1

1001
ACAD
1000
MTEXTBEGIN
1070
    73
1070
     1
1070
    44
1040
1.0
1070
    74
1070
     0
1000
MTEXTEND
1000
MTEXTBEGIN
1070
    73
1070
     1
1070
    44
1040
1.0
1070
    74
1070
     0
1000
MTEXTEND
  0
MTEXT
  5
567E
330
1A
100
AcDbEntity
  8
SUNPOU
100
AcDbMText
 10
118759.6138097019
 20
113750.7553951111
 30
0.0
 40
3.5
 41
0.0
 71
     9
 72
     5
  1

1001
ACAD
1000
MTEXTBEGIN
1070
    73
1070
     1
1070
    44
1040
1.0
1070
    74
1070
     0
1000
MTEXTEND
1000
MTEXTBEGIN
1070
    73
1070
     1
1070
    44
1040
1.0
1070
    74
1070
     0
1000
MTEXTEND
  0
MTEXT
  5
567F
330
1A
100
AcDbEntity
  8
SUNPOU
100
AcDbMText
 10
67256.47426878814
 20
61384.96962996432
 30
0.0
 40
10.5
 41
0.0
 71
     9
 72
     5
  1

1001
ACAD
1000
MTEXTBEGIN
1070
    73
1070
     1
1070
    44
1040
1.0
1070
    74
1070
     0
1000
MTEXTEND
1000
MTEXTBEGIN
1070
    73
1070
     1
1070
    44
1040
1.0
1070
    74
1070
     0
1000
MTEXTEND
  0
MTEXT
  5
5680
330
1A
100
AcDbEntity
  8
SUNPOU
100
AcDbMText
 10
53308.47416841216
 20
42212.57049085211
 30
0.0
 40
3.5
 41
0.0
 71
     7
 72
     5
  1

1001
ACAD
1000
MTEXTBEGIN
1070
    73
1070
     1
1070
    44
1040
1.0
1070
    74
1070
     0
1000
MTEXTEND
1000
MTEXTBEGIN
1070
    73
1070
     1
1070
    44
1040
1.0
1070
    74
1070
     0
1000
MTEXTEND
  0
MTEXT
  5
5681
330
1A
100
AcDbEntity
  8
SUNPOU
100
AcDbMText
 10
67000.82485118274
 20
51571.63371187344
 30
0.0
 40
10.5
 41
0.0
 71
     9
 72
     5
  1

1001
ACAD
1000
MTEXTBEGIN
1070
    73
1070
     1
1070
    44
1040
1.0
1070
    74
1070
     0
1000
MTEXTEND
1000
MTEXTBEGIN
1070
    73
1070
     1
1070
    44
1040
1.0
1070
    74
1070
     0
1000
MTEXTEND
  0
MTEXT
  5
5682
330
1A
100
AcDbEntity
  8
SUNPOU
100
AcDbMText
 10
75722.99241710071
 20
58987.46824341094
 30
0.0
 40
10.5
 41
0.0
 71
     9
 72
     5
  1

1001
ACAD
1000
MTEXTBEGIN
1070
    73
1070
     1
1070
    44
1040
1.0
1070
    74
1070
     0
1000
MTEXTEND
1000
MTEXTBEGIN
1070
    73
1070
     1
1070
    44
1040
1.0
1070
    74
1070
     0
1000
MTEXTEND
  0
MTEXT
  5
5683
330
1A
100
AcDbEntity
  8
SUNPOU
100
AcDbMText
 10
94676.75113443068
 20
76454.04429590299
 30
0.0
 40
10.5
 41
0.0
 71
     9
 72
     5
  1

1001
ACAD
1000
MTEXTBEGIN
1070
    73
1070
     1
1070
    44
1040
1.0
1070
    74
1070
     0
1000
MTEXTEND
1000
MTEXTBEGIN
1070
    73
1070
     1
1070
    44
1040
1.0
1070
    74
1070
     0
1000
MTEXTEND
  0
MTEXT
  5
5684
330
1A
100
AcDbEntity
  8
SUNPOU
100
AcDbMText
 10
96620.1583811401
 20
74652.99521602497
 30
0.0
 40
3.5
 41
0.0
 71
     9
 72
     5
  1

1001
ACAD
1000
MTEXTBEGIN
1070
    73
1070
     1
1070
    44
1040
1.0
1070
    74
1070
     0
1000
MTEXTEND
1000
MTEXTBEGIN
1070
    73
1070
     1
1070
    44
1040
1.0
1070
    74
1070
     0
1000
MTEXTEND
  0
MTEXT
  5
5685
330
1A
100
AcDbEntity
  8
SUNPOU
100
AcDbMText
 10
127746.3382137598
 20
117147.9408836822
 30
0.0
 40
10.5
 41
0.0
 71
     9
 72
     5
  1

1001
ACAD
1000
MTEXTBEGIN
1070
    73
1070
     1
1070
    44
1040
1.0
1070
    74
1070
     0
1000
MTEXTEND
1000
MTEXTBEGIN
1070
    73
1070
     1
1070
    44
1040
1.0
1070
    74
1070
     0
1000
MTEXTEND
  0
MTEXT
  5
5686
330
1A
100
AcDbEntity
  8
SUNPOU
100
AcDbMText
 10
129689.7454604692
 20
115346.8918038042
 30
0.0
 40
3.5
 41
0.0
 71
     9
 72
     5
  1

1001
ACAD
1000
MTEXTBEGIN
1070
    73
1070
     1
1070
    44
1040
1.0
1070
    74
1070
     0
1000
MTEXTEND
1000
MTEXTBEGIN
1070
    73
1070
     1
1070
    44
1040
1.0
1070
    74
1070
     0
1000
MTEXTEND
  0
MTEXT
  5
5687
330
1A
100
AcDbEntity
  8
SUNPOU
100
AcDbMText
 10
78186.60591955537
 20
62981.10603865737
 30
0.0
 40
10.5
 41
0.0
 71
     9
 72
     5
  1

1001
ACAD
1000
MTEXTBEGIN
1070
    73
1070
     1
1070
    44
1040
1.0
1070
    74
1070
     0
1000
MTEXTEND
1000
MTEXTBEGIN
1070
    73
1070
     1
1070
    44
1040
1.0
1070
    74
1070
     0
1000
MTEXTEND
  0
MTEXT
  5
5688
330
1A
100
AcDbEntity
  8
SUNPOU
100
AcDbMText
 10
64238.60581917939
 20
43808.70689954517
 30
0.0
 40
3.5
 41
0.0
 71
     7
 72
     5
  1

1001
ACAD
1000
MTEXTBEGIN
1070
    73
1070
     1
1070
    44
1040
1.0
1070
    74
1070
     0
1000
MTEXTEND
1000
MTEXTBEGIN
1070
    73
1070
     1
1070
    44
1040
1.0
1070
    74
1070
     0
1000
MTEXTEND
  0
MTEXT
  5
5689
330
1A
100
AcDbEntity
  8
SUNPOU
100
AcDbMText
 10
33428.13481137435
 20
32770.04710035563
 30
0.0
 40
10.5
 41
0.0
 71
     9
 72
     5
  1

1001
ACAD
1000
MTEXTBEGIN
1070
    73
1070
     1
1070
    44
1040
1.0
1070
    74
1070
     0
1000
MTEXTEND
1000
MTEXTBEGIN
1070
    73
1070
     1
1070
    44
1040
1.0
1070
    74
1070
     0
1000
MTEXTEND
  0
MTEXT
  5
568A
330
1A
100
AcDbEntity
  8
SUNPOU
100
AcDbMText
 10
52381.89352870431
 20
50236.62315284768
 30
0.0
 40
10.5
 41
0.0
 71
     9
 72
     5
  1

1001
ACAD
1000
MTEXTBEGIN
1070
    73
1070
     1
1070
    44
1040
1.0
1070
    74
1070
     0
1000
MTEXTEND
1000
MTEXTBEGIN
1070
    73
1070
     1
1070
    44
1040
1.0
1070
    74
1070
     0
1000
MTEXTEND
  0
MTEXT
  5
568B
330
1A
100
AcDbEntity
  8
SUNPOU
100
AcDbMText
 10
54325.30077541374
 20
48435.57407296968
 30
0.0
 40
3.5
 41
0.0
 71
     9
 72
     5
  1

1001
ACAD
1000
MTEXTBEGIN
1070
    73
1070
     1
1070
    44
1040
1.0
1070
    74
1070
     0
1000
MTEXTEND
1000
MTEXTBEGIN
1070
    73
1070
     1
1070
    44
1040
1.0
1070
    74
1070
     0
1000
MTEXTEND
  0
MTEXT
  5
568C
330
1A
100
AcDbEntity
  8
SUNPOU
100
AcDbMText
 10
85451.48060803342
 20
90930.51974062703
 30
0.0
 40
10.5
 41
0.0
 71
     9
 72
     5
  1

1001
ACAD
1000
MTEXTBEGIN
1070
    73
1070
     1
1070
    44
1040
1.0
1070
    74
1070
     0
1000
MTEXTEND
1000
MTEXTBEGIN
1070
    73
1070
     1
1070
    44
1040
1.0
1070
    74
1070
     0
1000
MTEXTEND
  0
MTEXT
  5
568D
330
1A
100
AcDbEntity
  8
SUNPOU
100
AcDbMText
 10
87394.88785474286
 20
89129.47066074901
 30
0.0
 40
3.5
 41
0.0
 71
     9
 72
     5
  1

1001
ACAD
1000
MTEXTBEGIN
1070
    73
1070
     1
1070
    44
1040
1.0
1070
    74
1070
     0
1000
MTEXTEND
1000
MTEXTBEGIN
1070
    73
1070
     1
1070
    44
1040
1.0
1070
    74
1070
     0
1000
MTEXTEND
  0
MTEXT
  5
568E
330
1A
100
AcDbEntity
  8
SUNPOU
100
AcDbMText
 10
35891.74831382901
 20
36763.68489560208
 30
0.0
 40
10.5
 41
0.0
 71
     9
 72
     5
  1

1001
ACAD
1000
MTEXTBEGIN
1070
    73
1070
     1
1070
    44
1040
1.0
1070
    74
1070
     0
1000
MTEXTEND
1000
MTEXTBEGIN
1070
    73
1070
     1
1070
    44
1040
1.0
1070
    74
1070
     0
1000
MTEXTEND
  0
MTEXT
  5
568F
330
1A
100
AcDbEntity
  8
SUNPOU
100
AcDbMText
 10
21943.74821345303
 20
17591.28575648985
 30
0.0
 40
3.5
 41
0.0
 71
     7
 72
     5
  1

1001
ACAD
1000
MTEXTBEGIN
1070
    73
1070
     1
1070
    44
1040
1.0
1070
    74
1070
     0
1000
MTEXTEND
1000
MTEXTBEGIN
1070
    73
1070
     1
1070
    44
1040
1.0
1070
    74
1070
     0
1000
MTEXTEND
  0
LINE
  5
1CEA8
330
1A
100
AcDbEntity
  8
ZISSEN1
 48
0.5
100
AcDbLine
 10
106.8867234989629
 20
1578.238420296539
 30
0.0
 11
106.8867234989629
 21
1576.238420296539
 31
0.0
  0
LINE
  5
1CEA9
330
1A
100
AcDbEntity
  8
ZISSEN1
 48
0.5
100
AcDbLine
 10
107.8867234989629
 20
1578.238420296539
 30
0.0
 11
107.8867234989629
 21
1576.238420296539
 31
0.0
  0
LINE
  5
1CEAA
330
1A
100
AcDbEntity
  8
ZISSEN1
 48
0.5
100
AcDbLine
 10
107.8867234989629
 20
1576.238420296539
 30
0.0
 11
-20.11327650103703
 21
1576.238420296539
 31
0.0
  0
LINE
  5
1CEAB
330
1A
100
AcDbEntity
  8
ZISSEN1
 48
0.5
100
AcDbLine
 10
107.8879028084679
 20
1748.747173912067
 30
0.0
 11
107.8867234989629
 21
1756.047196897494
 31
0.0
  0
LINE
  5
1CEAC
330
1A
100
AcDbEntity
  8
ZISSEN1
 48
0.5
100
AcDbLine
 10
106.8867234989629
 20
1737.447196897494
 30
0.0
 11
107.8867234989629
 21
1738.447196897493
 31
0.0
  0
LINE
  5
1CEAD
330
1A
100
AcDbEntity
  8
ZISSEN1
 48
0.5
100
AcDbLine
 10
102.7446398244731
 20
1748.742119426447
 30
0.0
 11
107.8867234989629
 21
1748.747172753114
 31
0.0
  0
LINE
  5
1CEAE
330
1A
100
AcDbEntity
  8
ZISSEN1
 48
0.5
100
AcDbLine
 10
102.8867234989629
 20
1744.747172753114
 30
0.0
 11
107.8867234989629
 21
1744.747172753114
 31
0.0
  0
ARC
  5
1CEAF
330
1A
100
AcDbEntity
  8
ZISSEN1
 48
0.5
100
AcDbCircle
 10
102.8867234989629
 20
1746.747172753114
 30
0.0
 40
2.0
100
AcDbArc
 50
90.0
 51
270.0
  0
LINE
  5
1CEB0
330
1A
100
AcDbEntity
  8
ZISSEN1
 48
0.5
100
AcDbLine
 10
107.8867234989629
 20
1744.747196897494
 30
0.0
 11
107.8867234989629
 21
1738.447196897493
 31
0.0
  0
LINE
  5
1CEB6
330
1A
100
AcDbEntity
  8
ZISSEN1
 48
0.5
100
AcDbLine
 10
210.284865723117
 20
1683.238420296539
 30
0.0
 11
169.3848657231313
 21
1683.238420296558
 31
0.0
  0
CIRCLE
  5
1CEB7
330
1A
100
AcDbEntity
  8
ZISSEN1
 48
0.5
100
AcDbCircle
 10
85.8867234989629
 20
1638.738420296539
 30
0.0
 40
3.149999999999999
  0
LINE
  5
1CEC4
330
1A
100
AcDbEntity
  8
ZISSEN1
 48
0.5
100
AcDbLine
 10
85.47854142427325
 20
1641.861861890983
 30
0.0
 11
85.48523823689169
 21
1641.948920455016
 31
0.0
  0
LINE
  5
1CEC5
330
1A
100
AcDbEntity
  8
ZISSEN1
 48
0.5
100
AcDbLine
 10
86.29490557337334
 20
1641.861861891019
 30
0.0
 11
86.28820876075854
 21
1641.948920455016
 31
0.0
  0
ARC
  5
1CEC6
330
1A
100
AcDbEntity
  8
ZISSEN1
 48
0.5
100
AcDbCircle
 10
85.88672349882466
 20
1639.943180465157
 30
0.0
 40
2.045527639136289
100
AcDbArc
 50
78.68080412315959
 51
101.3191958768403
  0
LINE
  5
1CEC7
330
1A
100
AcDbEntity
  8
ZISSEN1
 48
0.5
100
AcDbLine
 10
83.97150665633484
 20
1641.239309027358
 30
0.0
 11
83.93377698416946
 21
1641.318052361736
 31
0.0
  0
LINE
  5
1CEC8
330
1A
100
AcDbEntity
  8
ZISSEN1
 48
0.5
100
AcDbLine
 10
84.67849874817687
 20
1641.64749110194
 30
0.0
 11
84.62916985632904
 21
1641.71953762367
 31
0.0
  0
ARC
  5
1CEC9
330
1A
100
AcDbEntity
  8
ZISSEN1
 48
0.5
100
AcDbCircle
 10
85.28434341517998
 20
1639.781773208098
 30
0.0
 40
2.045527639136289
100
AcDbArc
 50
108.6808041231499
 51
131.3191958768678
  0
LINE
  5
1CECA
330
1A
100
AcDbEntity
  8
ZISSEN1
 48
0.5
100
AcDbLine
 10
82.97765269472614
 20
1639.946645048289
 30
0.0
 11
82.90560617296609
 21
1639.995973940158
 31
0.0
  0
LINE
  5
1CECB
330
1A
100
AcDbEntity
  8
ZISSEN1
 48
0.5
100
AcDbLine
 10
83.38583476924572
 20
1640.653637140168
 30
0.0
 11
83.30709143489906
 21
1640.691366812316
 31
0.0
  0
ARC
  5
1CECC
330
1A
100
AcDbEntity
  8
ZISSEN1
 48
0.5
100
AcDbCircle
 10
84.8433705885381
 20
1639.340800381308
 30
0.0
 40
2.045527639136289
100
AcDbArc
 50
138.6808041231757
 51
161.3191958768489
  0
LINE
  5
1CECD
330
1A
100
AcDbEntity
  8
ZISSEN1
 48
0.5
100
AcDbLine
 10
82.7632819058544
 20
1638.330238223056
 30
0.0
 11
82.67622334182119
 21
1638.336935035674
 31
0.0
  0
LINE
  5
1CECE
330
1A
100
AcDbEntity
  8
ZISSEN1
 48
0.5
100
AcDbLine
 10
82.76328190581802
 20
1639.146602372156
 30
0.0
 11
82.67622334182119
 21
1639.139905559541
 31
0.0
  0
ARC
  5
1CECF
330
1A
100
AcDbEntity
  8
ZISSEN1
 48
0.5
100
AcDbCircle
 10
84.68196333168084
 20
1638.738420297608
 30
0.0
 40
2.045527639136289
100
AcDbArc
 50
168.6808041231587
 51
191.3191958768413
  0
LINE
  5
1CED0
330
1A
100
AcDbEntity
  8
ZISSEN1
 48
0.5
100
AcDbLine
 10
83.38583476948036
 20
1636.823203455118
 30
0.0
 11
83.30709143510096
 21
1636.785473782953
 31
0.0
  0
LINE
  5
1CED1
330
1A
100
AcDbEntity
  8
ZISSEN1
 48
0.5
100
AcDbLine
 10
82.97765269489895
 20
1637.53019554696
 30
0.0
 11
82.90560617316799
 21
1637.480866655112
 31
0.0
  0
ARC
  5
1CED2
330
1A
100
AcDbEntity
  8
ZISSEN1
 48
0.5
100
AcDbCircle
 10
84.84337058874002
 20
1638.136040213963
 30
0.0
 40
2.045527639136289
100
AcDbArc
 50
198.680804123151
 51
221.319195876824
  0
LINE
  5
1CED3
330
1A
100
AcDbEntity
  8
ZISSEN1
 48
0.5
100
AcDbLine
 10
84.67849874854795
 20
1635.829349493508
 30
0.0
 11
84.62916985668011
 21
1635.757302971748
 31
0.0
  0
LINE
  5
1CED4
330
1A
100
AcDbEntity
  8
ZISSEN1
 48
0.5
100
AcDbLine
 10
83.97150665666954
 20
1636.237531568027
 30
0.0
 11
83.93377698452054
 21
1636.158788233682
 31
0.0
  0
ARC
  5
1CED5
330
1A
100
AcDbEntity
  8
ZISSEN1
 48
0.5
100
AcDbCircle
 10
85.28434341552923
 20
1637.69506738732
 30
0.0
 40
2.045527639136289
100
AcDbArc
 50
228.6808041231711
 51
251.31919587685
  0
LINE
  5
1CED6
330
1A
100
AcDbEntity
  8
ZISSEN1
 48
0.5
100
AcDbLine
 10
86.2949055737808
 20
1635.614978704638
 30
0.0
 11
86.28820876116327
 21
1635.527920140605
 31
0.0
  0
LINE
  5
1CED7
330
1A
100
AcDbEntity
  8
ZISSEN1
 48
0.5
100
AcDbLine
 10
85.47854142468072
 20
1635.614978704601
 30
0.0
 11
85.48523823729551
 21
1635.527920140605
 31
0.0
  0
ARC
  5
1CED8
330
1A
100
AcDbEntity
  8
ZISSEN1
 48
0.5
100
AcDbCircle
 10
85.88672349922939
 20
1637.533660130464
 30
0.0
 40
2.045527639136289
100
AcDbArc
 50
258.6808041231595
 51
281.3191958768403
  0
LINE
  5
1CED9
330
1A
100
AcDbEntity
  8
ZISSEN1
 48
0.5
100
AcDbLine
 10
87.80194034172012
 20
1636.237531568262
 30
0.0
 11
87.8396700138855
 21
1636.158788233883
 31
0.0
  0
LINE
  5
1CEDA
330
1A
100
AcDbEntity
  8
ZISSEN1
 48
0.5
100
AcDbLine
 10
87.09494824987899
 20
1635.829349493681
 30
0.0
 11
87.14427714172591
 21
1635.75730297195
 31
0.0
  0
ARC
  5
1CEDB
330
1A
100
AcDbEntity
  8
ZISSEN1
 48
0.5
100
AcDbCircle
 10
86.48910358287679
 20
1637.695067387521
 30
0.0
 40
2.045527639136289
100
AcDbArc
 50
288.6808041231499
 51
311.3191958768678
  0
LINE
  5
1CEDC
330
1A
100
AcDbEntity
  8
ZISSEN1
 48
0.5
100
AcDbLine
 10
88.79579430332881
 20
1637.530195547332
 30
0.0
 11
88.86784082508979
 21
1637.480866655462
 31
0.0
  0
LINE
  5
1CEDD
330
1A
100
AcDbEntity
  8
ZISSEN1
 48
0.5
100
AcDbLine
 10
88.38761222881107
 20
1636.823203455452
 30
0.0
 11
88.4663555631559
 21
1636.785473783304
 31
0.0
  0
ARC
  5
1CEDE
330
1A
100
AcDbEntity
  8
ZISSEN1
 48
0.5
100
AcDbCircle
 10
86.93007640951867
 20
1638.136040214313
 30
0.0
 40
2.045527639136289
100
AcDbArc
 50
318.6808041231757
 51
341.3191958768489
  0
LINE
  5
1CEDF
330
1A
100
AcDbEntity
  8
ZISSEN1
 48
0.5
100
AcDbLine
 10
89.01016509219966
 20
1639.146602372565
 30
0.0
 11
89.09722365623286
 21
1639.139905559947
 31
0.0
  0
LINE
  5
1CEE0
330
1A
100
AcDbEntity
  8
ZISSEN1
 48
0.5
100
AcDbLine
 10
89.01016509223694
 20
1638.330238223464
 30
0.0
 11
89.09722365623286
 21
1638.33693503608
 31
0.0
  0
ARC
  5
1CEE1
330
1A
100
AcDbEntity
  8
ZISSEN1
 48
0.5
100
AcDbCircle
 10
87.09148366637412
 20
1638.738420298013
 30
0.0
 40
2.045527639136289
100
AcDbArc
 50
348.6808041231586
 51
11.31919587684131
  0
LINE
  5
1CEE2
330
1A
100
AcDbEntity
  8
ZISSEN1
 48
0.5
100
AcDbLine
 10
88.38761222857369
 20
1640.653637140503
 30
0.0
 11
88.46635556295217
 21
1640.691366812668
 31
0.0
  0
LINE
  5
1CEE3
330
1A
100
AcDbEntity
  8
ZISSEN1
 48
0.5
100
AcDbLine
 10
88.79579430315601
 20
1639.946645048661
 30
0.0
 11
88.86784082488606
 21
1639.995973940509
 31
0.0
  0
ARC
  5
1CEE4
330
1A
100
AcDbEntity
  8
ZISSEN1
 48
0.5
100
AcDbCircle
 10
86.93007640931586
 20
1639.340800381658
 30
0.0
 40
2.045527639136289
100
AcDbArc
 50
18.68080412315105
 51
41.31919587682401
  0
LINE
  5
1CEE5
330
1A
100
AcDbEntity
  8
ZISSEN1
 48
0.5
100
AcDbLine
 10
87.094948249507
 20
1641.647491102112
 30
0.0
 11
87.14427714137576
 21
1641.719537623873
 31
0.0
  0
LINE
  5
1CEE6
330
1A
100
AcDbEntity
  8
ZISSEN1
 48
0.5
100
AcDbLine
 10
87.80194034138544
 20
1641.239309027593
 30
0.0
 11
87.83967001353444
 21
1641.318052361939
 31
0.0
  0
ARC
  5
1CEE7
330
1A
100
AcDbEntity
  8
ZISSEN1
 48
0.5
100
AcDbCircle
 10
86.48910358252573
 20
1639.781773208301
 30
0.0
 40
2.045527639136289
100
AcDbArc
 50
48.68080412317112
 51
71.31919587685001
  0
LWPOLYLINE
  5
1CEE8
330
1A
100
AcDbEntity
  8
ZISSEN1
 48
0.5
100
AcDbPolyline
 90
        6
 70
     1
 43
0.0
 10
98.88672349896296
 20
1768.047196897494
 10
98.88672349896296
 20
1756.047196897494
 10
110.1867234989631
 20
1756.047196897494
 42
0.4142135623730966
 10
110.686723498963
 20
1756.547196897494
 10
110.686723498963
 20
1767.547196897494
 42
0.4142135623730951
 10
110.186723498963
 20
1768.047196897494
  0
LINE
  5
1CEE9
330
1A
100
AcDbEntity
  8
ZISSEN1
 48
0.5
100
AcDbLine
 10
110.686723498963
 20
1757.047196897494
 30
0.0
 11
98.88672349896296
 21
1757.047196897494
 31
0.0
  0
LINE
  5
1CEEA
330
1A
100
AcDbEntity
  8
ZISSEN1
 48
0.5
100
AcDbLine
 10
110.686723498963
 20
1767.047196897494
 30
0.0
 11
98.88672349896296
 21
1767.047196897494
 31
0.0
  0
LINE
  5
1CEEC
330
1A
100
AcDbEntity
  8
ZISSEN1
 48
0.5
100
AcDbLine
 10
108.986723498963
 20
1768.897196897493
 30
0.0
 11
110.986723498963
 21
1768.897196897493
 31
0.0
  0
LINE
  5
1CEED
330
1A
100
AcDbEntity
  8
ZISSEN1
 48
0.5
100
AcDbLine
 10
111.486723498963
 20
1768.397196897494
 30
0.0
 11
111.4867234989629
 21
1755.697196897494
 31
0.0
  0
LINE
  5
1CEEE
330
1A
100
AcDbEntity
  8
ZISSEN1
 48
0.5
100
AcDbLine
 10
110.9867234989629
 20
1755.197196897493
 30
0.0
 11
108.9867234989629
 21
1755.197196897493
 31
0.0
  0
LINE
  5
1CEEF
330
1A
100
AcDbEntity
  8
ZISSEN1
 48
0.5
100
AcDbLine
 10
108.9867234989629
 20
1755.197196897493
 30
0.0
 11
108.9867234989629
 21
1755.997196897493
 31
0.0
  0
LINE
  5
1CEF0
330
1A
100
AcDbEntity
  8
ZISSEN1
 48
0.5
100
AcDbLine
 10
108.9867234989629
 20
1755.997196897493
 30
0.0
 11
110.686723498963
 21
1755.997196897493
 31
0.0
  0
LINE
  5
1CEF1
330
1A
100
AcDbEntity
  8
ZISSEN1
 48
0.5
100
AcDbLine
 10
108.986723498963
 20
1768.897196897493
 30
0.0
 11
108.986723498963
 21
1768.097196897494
 31
0.0
  0
LINE
  5
1CEF2
330
1A
100
AcDbEntity
  8
ZISSEN1
 48
0.5
100
AcDbLine
 10
108.986723498963
 20
1768.097196897494
 30
0.0
 11
110.686723498963
 21
1768.097196897494
 31
0.0
  0
LINE
  5
1CEF3
330
1A
100
AcDbEntity
  8
ZISSEN1
 48
0.5
100
AcDbLine
 10
110.686723498963
 20
1767.047196897494
 30
0.0
 11
110.686723498963
 21
1768.097196897494
 31
0.0
  0
LINE
  5
1CEF4
330
1A
100
AcDbEntity
  8
ZISSEN1
 48
0.5
100
AcDbLine
 10
110.686723498963
 20
1756.547196897494
 30
0.0
 11
110.686723498963
 21
1755.997196897493
 31
0.0
  0
ARC
  5
1CEF5
330
1A
100
AcDbEntity
  8
ZISSEN1
 48
0.5
100
AcDbCircle
 10
110.986723498963
 20
1768.397196897494
 30
0.0
 40
0.5
100
AcDbArc
 50
0.0
 51
90.0
  0
ARC
  5
1CEF6
330
1A
100
AcDbEntity
  8
ZISSEN1
 48
0.5
100
AcDbCircle
 10
110.986723498963
 20
1755.697196897494
 30
0.0
 40
0.5
100
AcDbArc
 50
270.0
 51
0.0
  0
LINE
  5
1CEFD
330
1A
100
AcDbEntity
  8
ZISSEN1
 48
0.5
100
AcDbLine
 10
107.8867234989629
 20
1773.447196897494
 30
0.0
 11
107.8867234989629
 21
1768.047196897494
 31
0.0
  0
DIMENSION
  5
1CF12
330
1A
100
AcDbEntity
  8
SUNPOU
 48
0.5
100
AcDbDimension
  2
*D0
 10
111.886723498963
 20
1552.92384245694
 30
0.0
 11
45.88672349896299
 21
1555.67384245694
 31
0.0
 70
    32
  1
(<>)
  3
標準スタイル
100
AcDbAlignedDimension
 13
-20.11327650103703
 23
1567.92384245694
 33
0.0
 14
111.886723498963
 24
1572.41384245694
 34
0.0
100
AcDbRotatedDimension
1001
ACAD
1000
DSTYLE
1002
{
1070
   340
1005
10
1070
    40
1040
1.0
1002
}
  0
DIMENSION
  5
1CF13
330
1A
100
AcDbEntity
  8
SUNPOU
 48
0.5
100
AcDbDimension
  2
*D1
 10
111.886723498963
 20
1566.238420296539
 30
0.0
 11
122.386723498963
 21
1568.988420296539
 31
0.0
 70
    32
  1
(<>)
  3
標準スタイル
100
AcDbAlignedDimension
 13
107.8867234989629
 23
1576.238420296539
 33
0.0
 14
111.886723498963
 24
1580.728420296539
 34
0.0
100
AcDbRotatedDimension
1001
ACAD
1000
DSTYLE
1002
{
1070
   340
1005
10
1070
    40
1040
1.0
1002
}
  0
DIMENSION
  5
1CF14
330
1A
100
AcDbEntity
  8
SUNPOU
 48
0.5
100
AcDbDimension
  2
*D2
 10
-11.11327650103703
 20
1566.238420296539
 30
0.0
 11
-15.61327650103703
 21
1568.988420296539
 31
0.0
 70
    32
  3
標準スタイル
100
AcDbAlignedDimension
 13
-20.11327650103703
 23
1576.238420296539
 33
0.0
 14
-11.11327650103703
 24
1578.738420296539
 34
0.0
100
AcDbRotatedDimension
1001
ACAD
1000
DSTYLE
1002
{
1070
   340
1005
10
1070
    40
1040
1.0
1002
}
  0
DIMENSION
  5
1CF15
330
1A
100
AcDbEntity
  8
SUNPOU
 48
0.5
100
AcDbDimension
  2
*D3
 10
98.88672349896296
 20
1566.238420296539
 30
0.0
 11
43.88672349896296
 21
1568.988420296539
 31
0.0
 70
    32
  3
標準スタイル
100
AcDbAlignedDimension
 13
-11.11327650103703
 23
1578.738420296539
 33
0.0
 14
98.88672349896296
 24
1578.238420296539
 34
0.0
100
AcDbRotatedDimension
1001
ACAD
1000
DSTYLE
1002
{
1070
   340
1005
10
1070
    40
1040
1.0
1002
}
  0
DIMENSION
  5
1CF16
330
1A
100
AcDbEntity
  8
SUNPOU
 48
0.5
100
AcDbDimension
  2
*D4
 10
107.8867234989629
 20
1566.238420296539
 30
0.0
 11
103.3867234989629
 21
1568.988420296539
 31
0.0
 70
    32
  3
標準スタイル
100
AcDbAlignedDimension
 13
98.88672349896296
 23
1578.238420296539
 33
0.0
 14
107.8867234989629
 24
1576.238420296539
 34
0.0
100
AcDbRotatedDimension
1001
ACAD
1000
DSTYLE
1002
{
1070
   340
1005
10
1070
    40
1040
1.0
1002
}
  0
DIMENSION
  5
1CF17
330
1A
100
AcDbEntity
  8
SUNPOU
 48
0.5
100
AcDbDimension
  2
*D5
 10
127.886723498963
 20
1746.747172753114
 30
0.0
 11
125.1367234989627
 21
1762.347184825304
 31
0.0
 70
    32
  3
標準スタイル
100
AcDbAlignedDimension
 13
98.88672349896296
 23
1777.947196897494
 33
0.0
 14
107.3867234989629
 24
1746.747172753114
 34
0.0
 50
90.0
100
AcDbRotatedDimension
1001
ACAD
1000
DSTYLE
1002
{
1070
   340
1005
10
1070
    40
1040
1.0
1002
}
  0
DIMENSION
  5
1CF18
330
1A
100
AcDbEntity
  8
SUNPOU
 48
0.5
100
AcDbDimension
  2
*D6
 10
117.8879028084682
 20
1744.747173912067
 30
0.0
 11
117.8879028084679
 21
1756.913840578734
 31
0.0
 70
   160
  3
標準スタイル
100
AcDbAlignedDimension
 13
107.8879028084679
 23
1748.747173912067
 33
0.0
 14
107.8879028084679
 24
1744.747173912067
 34
0.0
 50
90.0
100
AcDbRotatedDimension
1001
ACAD
1000
DSTYLE
1002
{
1070
   340
1005
10
1070
    40
1040
1.0
1002
}
  0
DIMENSION
  5
1CF19
330
1A
100
AcDbEntity
  8
SUNPOU
 48
0.5
100
AcDbDimension
  2
*D7
 10
-38.11327650103703
 20
1746.747196897494
 30
0.0
 11
-40.86327650103732
 21
1755.247196897494
 31
0.0
 70
    32
  3
標準スタイル
100
AcDbAlignedDimension
 13
-19.61327650103703
 23
1763.747196897494
 33
0.0
 14
-19.61327650103703
 24
1746.747196897494
 34
0.0
 50
90.0
100
AcDbRotatedDimension
1001
ACAD
1000
DSTYLE
1002
{
1070
   340
1005
10
1070
    40
1040
1.0
1002
}
  0
DIMENSION
  5
1CF1A
330
1A
100
AcDbEntity
  8
SUNPOU
 48
0.5
100
AcDbDimension
  2
*D8
 10
-38.11327650103703
 20
1777.947196897494
 30
0.0
 11
-40.86327650103732
 21
1770.847196897494
 31
0.0
 70
    32
  3
標準スタイル
100
AcDbAlignedDimension
 13
-19.61327650103703
 23
1763.747196897494
 33
0.0
 14
-9.113276501037034
 24
1777.947196897494
 34
0.0
 50
90.0
100
AcDbRotatedDimension
1001
ACAD
1000
DSTYLE
1002
{
1070
   340
1005
10
1070
    40
1040
1.0
1002
}
  0
DIMENSION
  5
1CF1B
330
1A
100
AcDbEntity
  8
SUNPOU
 48
0.5
100
AcDbDimension
  2
*D9
 10
-38.11327650103703
 20
1735.547196897494
 30
0.0
 11
-40.86327650103731
 21
1741.147196897494
 31
0.0
 70
    32
  3
標準スタイル
100
AcDbAlignedDimension
 13
-19.61327650103703
 23
1746.747196897494
 33
0.0
 14
-10.11327650103703
 24
1735.547196897494
 34
0.0
 50
90.0
100
AcDbRotatedDimension
1001
ACAD
1000
DSTYLE
1002
{
1070
   340
1005
10
1070
    40
1040
1.0
1002
}
  0
LINE
  5
1CF1C
330
1A
100
AcDbEntity
  8
CL1
 48
0.5
100
AcDbLine
 10
100.3867234989629
 20
1746.747172753114
 30
0.0
 11
107.3867234989629
 21
1746.747172753114
 31
0.0
  0
LINE
  5
1CF1D
330
1A
100
AcDbEntity
  8
CL1
 48
0.5
100
AcDbLine
 10
103.8867234989629
 20
1743.247172753114
 30
0.0
 11
103.8867234989629
 21
1750.247172753114
 31
0.0
  0
DIMENSION
  5
1CF1E
330
1A
100
AcDbEntity
  8
SUNPOU
 48
0.5
100
AcDbDimension
  2
*D10
 10
103.8867234989629
 20
1717.603392989313
 30
0.0
 11
43.88672349896296
 21
1717.603392989313
 31
0.0
 70
   160
  1
<>(ユーザー取付寸法)
  3
標準スタイル
100
AcDbAlignedDimension
 13
-16.11327650103703
 23
1743.247196897494
 33
0.0
 14
103.8867234989629
 24
1743.247172753114
 34
0.0
100
AcDbRotatedDimension
1001
ACAD
1000
DSTYLE
1002
{
1070
   340
1005
10
1070
    40
1040
1.0
1002
}
  0
DIMENSION
  5
1CF1F
330
1A
100
AcDbEntity
  8
SUNPOU
 48
0.5
100
AcDbDimension
  2
*D11
 10
-16.11327650103703
 20
1717.683944395103
 30
0.0
 11
-30.61327650103703
 21
1717.683944395103
 31
0.0
 70
   160
  1
(4)
  3
標準スタイル
100
AcDbAlignedDimension
 13
-20.11327650103703
 23
1738.447196897494
 33
0.0
 14
-16.11327650103703
 24
1743.247196897494
 34
0.0
100
AcDbRotatedDimension
1001
ACAD
1000
DSTYLE
1002
{
1070
   340
1005
10
1070
    40
1040
1.0
1002
}
  0
DIMENSION
  5
1CF20
330
1A
100
AcDbEntity
  8
SUNPOU
 48
0.5
100
AcDbDimension
  2
*D12
 10
103.8867234989629
 20
1717.603392989313
 30
0.0
 11
120.2168684776288
 21
1717.603392989313
 31
0.0
 70
   160
  1
(4)
  3
標準スタイル
100
AcDbAlignedDimension
 13
107.8867234989629
 23
1738.447196897493
 33
0.0
 14
103.8867234989629
 24
1741.246211911817
 34
0.0
100
AcDbRotatedDimension
1001
ACAD
1000
DSTYLE
1002
{
1070
   340
1005
10
1070
    40
1040
1.0
1002
}
  0
LINE
  5
1CF21
330
1A
100
AcDbEntity
  8
ZISSEN1
 48
0.5
100
AcDbLine
 10
97.38672349896297
 20
1683.238420296539
 30
0.0
 11
97.38672349896297
 21
1681.738420296539
 31
0.0
  0
LINE
  5
1CF22
330
1A
100
AcDbEntity
  8
ZISSEN1
 48
0.5
100
AcDbLine
 10
98.88672349896296
 20
1681.738420296539
 30
0.0
 11
96.88672349896302
 21
1681.738420296539
 31
0.0
  0
ARC
  5
1CF23
330
1A
100
AcDbEntity
  8
ZISSEN1
 48
0.5
100
AcDbCircle
 10
96.88672349896297
 20
1683.238420296539
 30
0.0
 40
1.5
100
AcDbArc
 50
180.0
 51
270.0
  0
ARC
  5
1CF24
330
1A
100
AcDbEntity
  8
ZISSEN1
 48
0.5
100
AcDbCircle
 10
169.384865723117
 20
1681.738420296558
 30
0.0
 40
1.500000000000113
100
AcDbArc
 50
89.99999999969874
 51
179.9999999997003
  0
ARC
  5
1CF25
330
1A
100
AcDbEntity
  8
ZISSEN1
 48
0.5
100
AcDbCircle
 10
167.8848657231358
 20
1683.238420296539
 30
0.0
 40
1.49999999997334
100
AcDbArc
 50
269.9999999992769
 51
0.0000000007295429
  0
LINE
  5
1CF26
330
1A
100
AcDbEntity
  8
ZISSEN1
 48
0.5
100
AcDbLine
 10
-11.11327650103703
 20
1774.447196897494
 30
0.0
 11
-19.11327650103703
 21
1774.447196897494
 31
0.0
  0
LINE
  5
1CF27
330
1A
100
AcDbEntity
  8
ZISSEN1
 48
0.5
100
AcDbLine
 10
-19.11327650103703
 20
1774.447196897494
 30
0.0
 11
-20.11327650103703
 21
1773.447196897494
 31
0.0
  0
LINE
  5
1CF28
330
1A
100
AcDbEntity
  8
ZISSEN1
 48
0.5
100
AcDbLine
 10
-20.11327650103703
 20
1773.447196897494
 30
0.0
 11
-20.11327650103703
 21
1765.747196897494
 31
0.0
  0
LINE
  5
1CF29
330
1A
100
AcDbEntity
  8
ZISSEN1
 48
0.5
100
AcDbLine
 10
-20.11327650103703
 20
1765.747196897494
 30
0.0
 11
-15.11327650103703
 21
1765.747196897494
 31
0.0
  0
LINE
  5
1CF2A
330
1A
100
AcDbEntity
  8
ZISSEN1
 48
0.5
100
AcDbLine
 10
-15.11327650103703
 20
1761.747196897494
 30
0.0
 11
-20.11327650103703
 21
1761.747196897494
 31
0.0
  0
LINE
  5
1CF2B
330
1A
100
AcDbEntity
  8
ZISSEN1
 48
0.5
100
AcDbLine
 10
-20.11327650103703
 20
1761.747196897494
 30
0.0
 11
-20.11327650103703
 21
1748.747196897494
 31
0.0
  0
LINE
  5
1CF2C
330
1A
100
AcDbEntity
  8
ZISSEN1
 48
0.5
100
AcDbLine
 10
-20.11327650103703
 20
1748.747196897494
 30
0.0
 11
-15.11327650103703
 21
1748.747196897494
 31
0.0
  0
LINE
  5
1CF2D
330
1A
100
AcDbEntity
  8
ZISSEN1
 48
0.5
100
AcDbLine
 10
-15.11327650103703
 20
1744.747196897494
 30
0.0
 11
-20.11327650103703
 21
1744.747196897494
 31
0.0
  0
LINE
  5
1CF2E
330
1A
100
AcDbEntity
  8
ZISSEN1
 48
0.5
100
AcDbLine
 10
-20.11327650103703
 20
1744.747196897494
 30
0.0
 11
-20.11327650103703
 21
1738.447196897494
 31
0.0
  0
LINE
  5
1CF2F
330
1A
100
AcDbEntity
  8
ZISSEN1
 48
0.5
100
AcDbLine
 10
-20.11327650103703
 20
1738.447196897494
 30
0.0
 11
-19.11327650103703
 21
1737.447196897494
 31
0.0
  0
LINE
  5
1CF30
330
1A
100
AcDbEntity
  8
ZISSEN1
 48
0.5
100
AcDbLine
 10
-19.11327650103703
 20
1737.447196897494
 30
0.0
 11
-8.613276501037034
 21
1737.447196897494
 31
0.0
  0
LINE
  5
1CF31
330
1A
100
AcDbEntity
  8
ZISSEN1
 48
0.5
100
AcDbLine
 10
-11.11327650103703
 20
1738.447196897494
 30
0.0
 11
-9.113276501037034
 21
1738.447196897494
 31
0.0
  0
LINE
  5
1CF32
330
1A
100
AcDbEntity
  8
ZISSEN1
 48
0.5
100
AcDbLine
 10
-11.11327650103703
 20
1737.547196897494
 30
0.0
 11
-11.11327650103703
 21
1775.947196897494
 31
0.0
  0
LINE
  5
1CF33
330
1A
100
AcDbEntity
  8
ZISSEN1
 48
0.5
100
AcDbLine
 10
-9.113276501037034
 20
1775.947196897494
 30
0.0
 11
-9.113276501037034
 21
1737.447196897494
 31
0.0
  0
ARC
  5
1CF34
330
1A
100
AcDbEntity
  8
ZISSEN1
 48
0.5
100
AcDbCircle
 10
-15.11327650103703
 20
1746.747196897494
 30
0.0
 40
2.0
100
AcDbArc
 50
270.0
 51
90.0
  0
ARC
  5
1CF35
330
1A
100
AcDbEntity
  8
ZISSEN1
 48
0.5
100
AcDbCircle
 10
-15.11327650103703
 20
1763.747196897494
 30
0.0
 40
2.0
100
AcDbArc
 50
270.0
 51
90.0
  0
LINE
  5
1CF36
330
1A
100
AcDbEntity
  8
ZISSEN1
 48
0.5
100
AcDbLine
 10
-9.113276501037034
 20
1775.947196897494
 30
0.0
 11
29.38672349896296
 21
1775.947196897494
 31
0.0
  0
LINE
  5
1CF37
330
1A
100
AcDbEntity
  8
ZISSEN1
 48
0.5
100
AcDbLine
 10
-9.113276501037034
 20
1777.947196897494
 30
0.0
 11
98.88672349896296
 21
1777.947196897494
 31
0.0
  0
LINE
  5
1CF38
330
1A
100
AcDbEntity
  8
ZISSEN1
 48
0.5
100
AcDbLine
 10
98.88672349896296
 20
1777.947196897494
 30
0.0
 11
98.88672349896296
 21
1775.447196897494
 31
0.0
  0
LINE
  5
1CF39
330
1A
100
AcDbEntity
  8
ZISSEN1
 48
0.5
100
AcDbLine
 10
97.88672349896296
 20
1777.947196897494
 30
0.0
 11
97.88672349896296
 21
1775.947196897494
 31
0.0
  0
ARC
  5
1CF3A
330
1A
100
AcDbEntity
  8
ZISSEN1
 48
0.5
100
AcDbCircle
 10
-9.113276501037034
 20
1775.947196897494
 30
0.0
 40
2.0
100
AcDbArc
 50
90.0
 51
180.0
  0
LINE
  5
1CF3B
330
1A
100
AcDbEntity
  8
ZISSEN1
 48
0.5
100
AcDbLine
 10
-7.613276501037034
 20
1775.447196897494
 30
0.0
 11
-8.613276501037034
 21
1774.447196897494
 31
0.0
  0
LINE
  5
1CF3C
330
1A
100
AcDbEntity
  8
ZISSEN1
 48
0.5
100
AcDbLine
 10
-8.613276501037034
 20
1774.447196897494
 30
0.0
 11
-8.613276501037034
 21
1735.547196897494
 31
0.0
  0
LINE
  5
1CF3D
330
1A
100
AcDbEntity
  8
ZISSEN1
 48
0.5
100
AcDbLine
 10
-8.613276501037034
 20
1737.047196897494
 30
0.0
 11
-10.11327650103703
 21
1737.047196897494
 31
0.0
  0
LINE
  5
1CF3E
330
1A
100
AcDbEntity
  8
ZISSEN1
 48
0.5
100
AcDbLine
 10
-11.11327650103703
 20
1738.447196897494
 30
0.0
 11
-11.11327650103703
 21
1737.447196897494
 31
0.0
  0
LINE
  5
1CF3F
330
1A
100
AcDbEntity
  8
ZISSEN1
 48
0.5
100
AcDbLine
 10
-10.11327650103703
 20
1735.547196897494
 30
0.0
 11
97.38672349896297
 21
1735.547196897494
 31
0.0
  0
LINE
  5
1CF40
330
1A
100
AcDbEntity
  8
ZISSEN1
 48
0.5
100
AcDbLine
 10
98.88672349896296
 20
1737.047196897494
 30
0.0
 11
98.88672349896296
 21
1775.447196897494
 31
0.0
  0
LINE
  5
1CF41
330
1A
100
AcDbEntity
  8
ZISSEN1
 48
0.5
100
AcDbLine
 10
98.88672349896296
 20
1775.447196897494
 30
0.0
 11
97.38672349896297
 21
1775.447196897494
 31
0.0
  0
LINE
  5
1CF42
330
1A
100
AcDbEntity
  8
ZISSEN1
 48
0.5
100
AcDbLine
 10
98.88672349896285
 20
1737.047196897494
 30
0.0
 11
95.88672349896285
 21
1737.047196897494
 31
0.0
  0
ARC
  5
1CF43
330
1A
100
AcDbEntity
  8
ZISSEN1
 48
0.5
100
AcDbCircle
 10
97.38672349896274
 20
1737.547196897494
 30
0.0
 40
1.499999999999886
100
AcDbArc
 50
90.0
 51
180.0
  0
LINE
  5
1CF44
330
1A
100
AcDbEntity
  8
ZISSEN1
 48
0.5
100
AcDbLine
 10
95.88672349896285
 20
1737.547196897494
 30
0.0
 11
95.88672349896285
 21
1735.547196897494
 31
0.0
  0
ARC
  5
1CF45
330
1A
100
AcDbEntity
  8
ZISSEN1
 48
0.5
100
AcDbCircle
 10
97.3867234989629
 20
1737.047196897494
 30
0.0
 40
1.500000000000056
100
AcDbArc
 50
270.0000000000016
 51
0.0
  0
ARC
  5
1CF46
330
1A
100
AcDbEntity
  8
ZISSEN1
 48
0.5
100
AcDbCircle
 10
76.38672349896302
 20
1739.552697766109
 30
0.0
 40
1.0
100
AcDbArc
 50
0.0
 51
180.0
  0
LINE
  5
1CF47
330
1A
100
AcDbEntity
  8
ZISSEN1
 48
0.5
100
AcDbLine
 10
77.38672349896302
 20
1735.547196897494
 30
0.0
 11
77.38672349896302
 21
1739.552697766109
 31
0.0
  0
LINE
  5
1CF48
330
1A
100
AcDbEntity
  8
ZISSEN1
 48
0.5
100
AcDbLine
 10
75.38672349896302
 20
1739.552697766109
 30
0.0
 11
75.38672349896302
 21
1735.547196897494
 31
0.0
  0
LINE
  5
1CF49
330
1A
100
AcDbEntity
  8
ZISSEN1
 48
2.0
100
AcDbLine
 10
76.38672349896302
 20
1740.552697766108
 30
0.0
 11
6.386723498962965
 21
1740.552697766108
 31
0.0
  0
LINE
  5
1CF4A
330
1A
100
AcDbEntity
  8
ZISSEN1
 48
0.5
100
AcDbLine
 10
5.386723498962965
 20
1735.547196897494
 30
0.0
 11
5.386723498962965
 21
1739.552697766109
 31
0.0
  0
LINE
  5
1CF4B
330
1A
100
AcDbEntity
  8
ZISSEN1
 48
0.5
100
AcDbLine
 10
7.386723498962965
 20
1735.547196897494
 30
0.0
 11
7.386723498962965
 21
1739.552697766109
 31
0.0
  0
ARC
  5
1CF4C
330
1A
100
AcDbEntity
  8
ZISSEN1
 48
0.5
100
AcDbCircle
 10
6.386723498962965
 20
1739.552697766109
 30
0.0
 40
1.0
100
AcDbArc
 50
0.0
 51
180.0
  0
LINE
  5
1CF4D
330
1A
100
AcDbEntity
  8
ZISSEN1
 48
0.5
100
AcDbLine
 10
77.38672349896302
 20
1737.047196897494
 30
0.0
 11
75.38672349896302
 21
1737.047196897494
 31
0.0
  0
LINE
  5
1CF4E
330
1A
100
AcDbEntity
  8
ZISSEN1
 48
0.5
100
AcDbLine
 10
7.386723498962965
 20
1737.047196897494
 30
0.0
 11
5.386723498962965
 21
1737.047196897494
 31
0.0
  0
LINE
  5
1CF50
330
1A
100
AcDbEntity
  8
ZISSEN1
100
AcDbLine
 10
-4.563276001037138
 20
1760.747196897494
 30
0.0
 11
-4.763276001036956
 21
1760.947196897493
 31
0.0
  0
LINE
  5
1CF51
330
1A
100
AcDbEntity
  8
ZISSEN1
100
AcDbLine
 10
1.536725998962992
 20
1760.947196897493
 30
0.0
 11
1.336723998962952
 21
1760.747194897494
 31
0.0
  0
LINE
  5
1CF52
330
1A
100
AcDbEntity
  8
ZISSEN1
100
AcDbLine
 10
-4.563276001037138
 20
1760.747196897494
 30
0.0
 11
-4.313276001037138
 21
1760.747196897494
 31
0.0
  0
LINE
  5
1CF53
330
1A
100
AcDbEntity
  8
ZISSEN1
100
AcDbLine
 10
1.336723998962952
 20
1760.747196897494
 30
0.0
 11
1.086723998962952
 21
1760.747196897494
 31
0.0
  0
LINE
  5
1CF54
330
1A
100
AcDbEntity
  8
ZISSEN1
100
AcDbLine
 10
-4.313276001037138
 20
1760.647196897494
 30
0.0
 11
-4.313276001037138
 21
1760.747196897494
 31
0.0
  0
LINE
  5
1CF55
330
1A
100
AcDbEntity
  8
ZISSEN1
100
AcDbLine
 10
1.086723998962952
 20
1760.647196897494
 30
0.0
 11
1.086723998962952
 21
1760.747196897494
 31
0.0
  0
LINE
  5
1CF56
330
1A
100
AcDbEntity
  8
ZISSEN1
100
AcDbLine
 10
-4.763276001036956
 20
1760.947196897493
 30
0.0
 11
-4.763276001036956
 21
1761.147196897493
 31
0.0
  0
LINE
  5
1CF57
330
1A
100
AcDbEntity
  8
ZISSEN1
100
AcDbLine
 10
2.06672399896297
 20
1761.347196897493
 30
0.0
 11
1.736723998963043
 21
1761.347196897493
 31
0.0
  0
LINE
  5
1CF58
330
1A
100
AcDbEntity
  8
ZISSEN1
100
AcDbLine
 10
1.53672399896277
 20
1760.947196897493
 30
0.0
 11
1.53672399896277
 21
1761.147196897493
 31
0.0
  0
LINE
  5
1CF59
330
1A
100
AcDbEntity
  8
ZISSEN1
100
AcDbLine
 10
1.086723998962952
 20
1760.697196897494
 30
0.0
 11
1.686723998962861
 21
1760.697196897494
 31
0.0
  0
LINE
  5
1CF5A
330
1A
100
AcDbEntity
  8
ZISSEN1
100
AcDbLine
 10
1.386725998962901
 20
1760.797196897494
 30
0.0
 11
1.686723998962861
 21
1760.797196897494
 31
0.0
  0
LINE
  5
1CF5D
330
1A
100
AcDbEntity
  8
ZISSEN1
100
AcDbLine
 10
-5.293276001037156
 20
1761.347196897493
 30
0.0
 11
-5.293276001037156
 21
1766.647196897494
 31
0.0
  0
LINE
  5
1CF65
330
1A
100
AcDbEntity
  8
ZISSEN1
100
AcDbLine
 10
-5.293276001037156
 20
1761.347196897493
 30
0.0
 11
-4.963276001037229
 21
1761.347196897493
 31
0.0
  0
LINE
  5
1CF66
330
1A
100
AcDbEntity
  8
ZISSEN1
100
AcDbLine
 10
2.06672399896297
 20
1761.347196897493
 30
0.0
 11
2.06672399896297
 21
1766.647196897494
 31
0.0
  0
LINE
  5
1CF69
330
1A
100
AcDbEntity
  8
ZISSEN1
100
AcDbLine
 10
-4.913276001037047
 20
1760.647196897493
 30
0.0
 11
-4.913276001037047
 21
1761.340844897494
 31
0.0
  0
LINE
  5
1CF6A
330
1A
100
AcDbEntity
  8
ZISSEN1
100
AcDbLine
 10
1.686723998962861
 20
1760.647196897493
 30
0.0
 11
1.686723998962861
 21
1761.340844897494
 31
0.0
  0
LINE
  5
1CF6D
330
1A
100
AcDbEntity
  8
ZISSEN1
100
AcDbLine
 10
-4.913276001037047
 20
1760.697196897494
 30
0.0
 11
-4.313276001037138
 21
1760.697196897494
 31
0.0
  0
LINE
  5
1CF6E
330
1A
100
AcDbEntity
  8
ZISSEN1
100
AcDbLine
 10
-4.913276001037047
 20
1760.797196897494
 30
0.0
 11
-4.613276001036865
 21
1760.797196897494
 31
0.0
  0
ARC
  5
1CF83
330
1A
100
AcDbEntity
  8
ZISSEN1
100
AcDbCircle
 10
1.7367239989631
 20
1761.147196897493
 30
0.0
 40
0.2
100
AcDbArc
 50
89.99999758521296
 51
180.0000000001042
  0
ARC
  5
1CF84
330
1A
100
AcDbEntity
  8
ZISSEN1
100
AcDbCircle
 10
-4.963276001037172
 20
1761.147196897493
 30
0.0
 40
0.2
100
AcDbArc
 50
359.9999949910886
 51
89.99999758521296
  0
LINE
  5
1CF97
330
1A
100
AcDbEntity
  8
ZISSEN1
100
AcDbLine
 10
3.936723998962861
 20
1760.747196897494
 30
0.0
 11
3.736723998963043
 21
1760.947196897493
 31
0.0
  0
LINE
  5
1CF98
330
1A
100
AcDbEntity
  8
ZISSEN1
100
AcDbLine
 10
10.03672599896299
 20
1760.947196897493
 30
0.0
 11
9.836723998962952
 21
1760.747194897494
 31
0.0
  0
LINE
  5
1CF99
330
1A
100
AcDbEntity
  8
ZISSEN1
100
AcDbLine
 10
3.936723998962861
 20
1760.747196897494
 30
0.0
 11
4.186723998962861
 21
1760.747196897494
 31
0.0
  0
LINE
  5
1CF9A
330
1A
100
AcDbEntity
  8
ZISSEN1
100
AcDbLine
 10
9.836723998962952
 20
1760.747196897494
 30
0.0
 11
9.586723998962952
 21
1760.747196897494
 31
0.0
  0
LINE
  5
1CF9B
330
1A
100
AcDbEntity
  8
ZISSEN1
100
AcDbLine
 10
4.186723998962861
 20
1760.647196897494
 30
0.0
 11
4.186723998962861
 21
1760.747196897494
 31
0.0
  0
LINE
  5
1CF9C
330
1A
100
AcDbEntity
  8
ZISSEN1
100
AcDbLine
 10
9.586723998962952
 20
1760.647196897494
 30
0.0
 11
9.586723998962952
 21
1760.747196897494
 31
0.0
  0
LINE
  5
1CF9D
330
1A
100
AcDbEntity
  8
ZISSEN1
100
AcDbLine
 10
3.736723998963043
 20
1760.947196897493
 30
0.0
 11
3.736723998963043
 21
1761.147196897493
 31
0.0
  0
LINE
  5
1CF9E
330
1A
100
AcDbEntity
  8
ZISSEN1
100
AcDbLine
 10
10.56672399896297
 20
1761.347196897493
 30
0.0
 11
10.23672399896304
 21
1761.347196897493
 31
0.0
  0
LINE
  5
1CF9F
330
1A
100
AcDbEntity
  8
ZISSEN1
100
AcDbLine
 10
10.03672399896277
 20
1760.947196897493
 30
0.0
 11
10.03672399896277
 21
1761.147196897493
 31
0.0
  0
LINE
  5
1CFA0
330
1A
100
AcDbEntity
  8
ZISSEN1
100
AcDbLine
 10
9.586723998962952
 20
1760.697196897494
 30
0.0
 11
10.18672399896286
 21
1760.697196897494
 31
0.0
  0
LINE
  5
1CFA1
330
1A
100
AcDbEntity
  8
ZISSEN1
100
AcDbLine
 10
9.886725998962901
 20
1760.797196897494
 30
0.0
 11
10.18672399896286
 21
1760.797196897494
 31
0.0
  0
LINE
  5
1CFA4
330
1A
100
AcDbEntity
  8
ZISSEN1
100
AcDbLine
 10
3.206723998962843
 20
1761.347196897493
 30
0.0
 11
3.206723998962843
 21
1766.647196897494
 31
0.0
  0
LINE
  5
1CFAC
330
1A
100
AcDbEntity
  8
ZISSEN1
100
AcDbLine
 10
3.206723998962843
 20
1761.347196897493
 30
0.0
 11
3.53672399896277
 21
1761.347196897493
 31
0.0
  0
LINE
  5
1CFAD
330
1A
100
AcDbEntity
  8
ZISSEN1
100
AcDbLine
 10
10.56672399896297
 20
1761.347196897493
 30
0.0
 11
10.56672399896297
 21
1766.647196897494
 31
0.0
  0
LINE
  5
1CFB0
330
1A
100
AcDbEntity
  8
ZISSEN1
100
AcDbLine
 10
3.586723998962952
 20
1760.647196897493
 30
0.0
 11
3.586723998962952
 21
1761.340844897494
 31
0.0
  0
LINE
  5
1CFB1
330
1A
100
AcDbEntity
  8
ZISSEN1
100
AcDbLine
 10
10.18672399896286
 20
1760.647196897493
 30
0.0
 11
10.18672399896286
 21
1761.340844897494
 31
0.0
  0
LINE
  5
1CFB4
330
1A
100
AcDbEntity
  8
ZISSEN1
100
AcDbLine
 10
3.586723998962952
 20
1760.697196897494
 30
0.0
 11
4.186723998962861
 21
1760.697196897494
 31
0.0
  0
LINE
  5
1CFB5
330
1A
100
AcDbEntity
  8
ZISSEN1
100
AcDbLine
 10
3.586723998962952
 20
1760.797196897494
 30
0.0
 11
3.886723998963134
 21
1760.797196897494
 31
0.0
  0
ARC
  5
1CFCA
330
1A
100
AcDbEntity
  8
ZISSEN1
100
AcDbCircle
 10
10.23672399896309
 20
1761.147196897493
 30
0.0
 40
0.2
100
AcDbArc
 50
89.99999758521296
 51
180.0000000001042
  0
ARC
  5
1CFCB
330
1A
100
AcDbEntity
  8
ZISSEN1
100
AcDbCircle
 10
3.536723998962827
 20
1761.147196897493
 30
0.0
 40
0.2
100
AcDbArc
 50
359.9999949910886
 51
89.99999758521296
  0
LINE
  5
1CFDD
330
1A
100
AcDbEntity
  8
ZISSEN1
 48
0.5
100
AcDbLine
 10
-5.613276501037034
 20
1766.647196897494
 30
0.0
 11
-5.613276501037034
 21
1760.647196897494
 31
0.0
  0
LINE
  5
1CFDE
330
1A
100
AcDbEntity
  8
ZISSEN1
 48
0.5
100
AcDbLine
 10
10.88672349896296
 20
1766.647196897494
 30
0.0
 11
-5.613276501037034
 21
1766.647196897494
 31
0.0
  0
LINE
  5
1CFDF
330
1A
100
AcDbEntity
  8
ZISSEN1
 48
0.5
100
AcDbLine
 10
-7.613276501037034
 20
1775.447196897494
 30
0.0
 11
97.38672349896297
 21
1775.447196897494
 31
0.0
  0
CIRCLE
  5
1CFE0
330
1A
100
AcDbEntity
  8
ZISSEN1
 48
0.5
100
AcDbCircle
 10
32.38672349896296
 20
1762.947196897494
 30
0.0
 40
3.149999999999999
  0
LINE
  5
1CFED
330
1A
100
AcDbEntity
  8
ZISSEN1
 48
0.5
100
AcDbLine
 10
31.97854142427331
 20
1766.070638491938
 30
0.0
 11
31.98523823689174
 21
1766.157697055971
 31
0.0
  0
LINE
  5
1CFEE
330
1A
100
AcDbEntity
  8
ZISSEN1
 48
0.5
100
AcDbLine
 10
32.79490557337339
 20
1766.070638491974
 30
0.0
 11
32.7882087607586
 21
1766.157697055971
 31
0.0
  0
ARC
  5
1CFEF
330
1A
100
AcDbEntity
  8
ZISSEN1
 48
0.5
100
AcDbCircle
 10
32.38672349882472
 20
1764.151957066112
 30
0.0
 40
2.045527639136289
100
AcDbArc
 50
78.68080412315959
 51
101.3191958768403
  0
LINE
  5
1CFF0
330
1A
100
AcDbEntity
  8
ZISSEN1
 48
0.5
100
AcDbLine
 10
30.47150665633489
 20
1765.448085628313
 30
0.0
 11
30.43377698416952
 21
1765.526828962691
 31
0.0
  0
LINE
  5
1CFF1
330
1A
100
AcDbEntity
  8
ZISSEN1
 48
0.5
100
AcDbLine
 10
31.17849874817693
 20
1765.856267702895
 30
0.0
 11
31.1291698563291
 21
1765.928314224625
 31
0.0
  0
ARC
  5
1CFF2
330
1A
100
AcDbEntity
  8
ZISSEN1
 48
0.5
100
AcDbCircle
 10
31.78434341518004
 20
1763.990549809054
 30
0.0
 40
2.045527639136289
100
AcDbArc
 50
108.6808041231499
 51
131.3191958768678
  0
LINE
  5
1CFF3
330
1A
100
AcDbEntity
  8
ZISSEN1
 48
0.5
100
AcDbLine
 10
29.4776526947262
 20
1764.155421649244
 30
0.0
 11
29.40560617296614
 21
1764.204750541113
 31
0.0
  0
LINE
  5
1CFF4
330
1A
100
AcDbEntity
  8
ZISSEN1
 48
0.5
100
AcDbLine
 10
29.88583476924577
 20
1764.862413741123
 30
0.0
 11
29.80709143489912
 21
1764.900143413271
 31
0.0
  0
ARC
  5
1CFF5
330
1A
100
AcDbEntity
  8
ZISSEN1
 48
0.5
100
AcDbCircle
 10
31.34337058853816
 20
1763.549576982263
 30
0.0
 40
2.045527639136289
100
AcDbArc
 50
138.6808041231757
 51
161.3191958768489
  0
LINE
  5
1CFF6
330
1A
100
AcDbEntity
  8
ZISSEN1
 48
0.5
100
AcDbLine
 10
29.26328190585445
 20
1762.539014824011
 30
0.0
 11
29.17622334182124
 21
1762.545711636629
 31
0.0
  0
LINE
  5
1CFF7
330
1A
100
AcDbEntity
  8
ZISSEN1
 48
0.5
100
AcDbLine
 10
29.26328190581807
 20
1763.355378973112
 30
0.0
 11
29.17622334182124
 21
1763.348682160496
 31
0.0
  0
ARC
  5
1CFF8
330
1A
100
AcDbEntity
  8
ZISSEN1
 48
0.5
100
AcDbCircle
 10
31.18196333168089
 20
1762.947196898563
 30
0.0
 40
2.045527639136289
100
AcDbArc
 50
168.6808041231587
 51
191.3191958768413
  0
LINE
  5
1CFF9
330
1A
100
AcDbEntity
  8
ZISSEN1
 48
0.5
100
AcDbLine
 10
29.88583476948042
 20
1761.031980056073
 30
0.0
 11
29.80709143510102
 21
1760.994250383908
 31
0.0
  0
LINE
  5
1CFFA
330
1A
100
AcDbEntity
  8
ZISSEN1
 48
0.5
100
AcDbLine
 10
29.47765269489901
 20
1761.738972147915
 30
0.0
 11
29.40560617316805
 21
1761.689643256067
 31
0.0
  0
ARC
  5
1CFFB
330
1A
100
AcDbEntity
  8
ZISSEN1
 48
0.5
100
AcDbCircle
 10
31.34337058874007
 20
1762.344816814918
 30
0.0
 40
2.045527639136289
100
AcDbArc
 50
198.680804123151
 51
221.319195876824
  0
LINE
  5
1CFFC
330
1A
100
AcDbEntity
  8
ZISSEN1
 48
0.5
100
AcDbLine
 10
31.17849874854801
 20
1760.038126094464
 30
0.0
 11
31.12916985668016
 21
1759.966079572703
 31
0.0
  0
LINE
  5
1CFFD
330
1A
100
AcDbEntity
  8
ZISSEN1
 48
0.5
100
AcDbLine
 10
30.47150665666959
 20
1760.446308168982
 30
0.0
 11
30.43377698452059
 21
1760.367564834636
 31
0.0
  0
ARC
  5
1CFFE
330
1A
100
AcDbEntity
  8
ZISSEN1
 48
0.5
100
AcDbCircle
 10
31.78434341552929
 20
1761.903843988275
 30
0.0
 40
2.045527639136289
100
AcDbArc
 50
228.6808041231711
 51
251.31919587685
  0
LINE
  5
1CFFF
330
1A
100
AcDbEntity
  8
ZISSEN1
 48
0.5
100
AcDbLine
 10
32.79490557378085
 20
1759.823755305593
 30
0.0
 11
32.78820876116333
 21
1759.736696741559
 31
0.0
  0
LINE
  5
1D000
330
1A
100
AcDbEntity
  8
ZISSEN1
 48
0.5
100
AcDbLine
 10
31.97854142468077
 20
1759.823755305556
 30
0.0
 11
31.98523823729556
 21
1759.736696741559
 31
0.0
  0
ARC
  5
1D001
330
1A
100
AcDbEntity
  8
ZISSEN1
 48
0.5
100
AcDbCircle
 10
32.38672349922945
 20
1761.742436731418
 30
0.0
 40
2.045527639136289
100
AcDbArc
 50
258.6808041231595
 51
281.3191958768403
  0
LINE
  5
1D002
330
1A
100
AcDbEntity
  8
ZISSEN1
 48
0.5
100
AcDbLine
 10
34.30194034172018
 20
1760.446308169217
 30
0.0
 11
34.33967001388555
 21
1760.367564834838
 31
0.0
  0
LINE
  5
1D003
330
1A
100
AcDbEntity
  8
ZISSEN1
 48
0.5
100
AcDbLine
 10
33.59494824987905
 20
1760.038126094636
 30
0.0
 11
33.64427714172598
 21
1759.966079572904
 31
0.0
  0
ARC
  5
1D004
330
1A
100
AcDbEntity
  8
ZISSEN1
 48
0.5
100
AcDbCircle
 10
32.98910358287685
 20
1761.903843988476
 30
0.0
 40
2.045527639136289
100
AcDbArc
 50
288.6808041231499
 51
311.3191958768678
  0
LINE
  5
1D005
330
1A
100
AcDbEntity
  8
ZISSEN1
 48
0.5
100
AcDbLine
 10
35.29579430332887
 20
1761.738972148286
 30
0.0
 11
35.36784082508984
 21
1761.689643256417
 31
0.0
  0
LINE
  5
1D006
330
1A
100
AcDbEntity
  8
ZISSEN1
 48
0.5
100
AcDbLine
 10
34.88761222881112
 20
1761.031980056407
 30
0.0
 11
34.96635556315595
 21
1760.994250384259
 31
0.0
  0
ARC
  5
1D007
330
1A
100
AcDbEntity
  8
ZISSEN1
 48
0.5
100
AcDbCircle
 10
33.43007640951873
 20
1762.344816815268
 30
0.0
 40
2.045527639136289
100
AcDbArc
 50
318.6808041231757
 51
341.3191958768489
  0
LINE
  5
1D008
330
1A
100
AcDbEntity
  8
ZISSEN1
 48
0.5
100
AcDbLine
 10
35.51016509219971
 20
1763.35537897352
 30
0.0
 11
35.59722365623292
 21
1763.348682160902
 31
0.0
  0
LINE
  5
1D009
330
1A
100
AcDbEntity
  8
ZISSEN1
 48
0.5
100
AcDbLine
 10
35.510165092237
 20
1762.53901482442
 30
0.0
 11
35.59722365623292
 21
1762.545711637035
 31
0.0
  0
ARC
  5
1D00A
330
1A
100
AcDbEntity
  8
ZISSEN1
 48
0.5
100
AcDbCircle
 10
33.59148366637418
 20
1762.947196898968
 30
0.0
 40
2.045527639136289
100
AcDbArc
 50
348.6808041231586
 51
11.31919587684131
  0
LINE
  5
1D00B
330
1A
100
AcDbEntity
  8
ZISSEN1
 48
0.5
100
AcDbLine
 10
34.88761222857374
 20
1764.862413741458
 30
0.0
 11
34.96635556295223
 21
1764.900143413623
 31
0.0
  0
LINE
  5
1D00C
330
1A
100
AcDbEntity
  8
ZISSEN1
 48
0.5
100
AcDbLine
 10
35.29579430315607
 20
1764.155421649616
 30
0.0
 11
35.36784082488611
 21
1764.204750541464
 31
0.0
  0
ARC
  5
1D00D
330
1A
100
AcDbEntity
  8
ZISSEN1
 48
0.5
100
AcDbCircle
 10
33.43007640931591
 20
1763.549576982613
 30
0.0
 40
2.045527639136289
100
AcDbArc
 50
18.68080412315105
 51
41.31919587682401
  0
LINE
  5
1D00E
330
1A
100
AcDbEntity
  8
ZISSEN1
 48
0.5
100
AcDbLine
 10
33.59494824950707
 20
1765.856267703067
 30
0.0
 11
33.64427714137582
 21
1765.928314224828
 31
0.0
  0
LINE
  5
1D00F
330
1A
100
AcDbEntity
  8
ZISSEN1
 48
0.5
100
AcDbLine
 10
34.30194034138549
 20
1765.448085628548
 30
0.0
 11
34.33967001353448
 21
1765.526828962894
 31
0.0
  0
ARC
  5
1D010
330
1A
100
AcDbEntity
  8
ZISSEN1
 48
0.5
100
AcDbCircle
 10
32.98910358252578
 20
1763.990549809256
 30
0.0
 40
2.045527639136289
100
AcDbArc
 50
48.68080412317112
 51
71.31919587685001
  0
LINE
  5
1D011
330
1A
100
AcDbEntity
  8
ZISSEN1
 48
0.5
100
AcDbLine
 10
27.38672349896296
 20
1777.947196897494
 30
0.0
 11
27.38672349896296
 21
1775.947196897494
 31
0.0
  0
LINE
  5
1D012
330
1A
100
AcDbEntity
  8
ZISSEN1
 48
0.5
100
AcDbLine
 10
39.38672349896296
 20
1777.947196897494
 30
0.0
 11
39.38672349896296
 21
1775.947196897494
 31
0.0
  0
LINE
  5
1D013
330
1A
100
AcDbEntity
  8
ZISSEN1
 48
0.5
100
AcDbLine
 10
37.38672349896296
 20
1777.947196897494
 30
0.0
 11
37.38672349896296
 21
1775.447196897494
 31
0.0
  0
LINE
  5
1D014
330
1A
100
AcDbEntity
  8
ZISSEN1
 48
0.5
100
AcDbLine
 10
29.38672349896296
 20
1777.947196897494
 30
0.0
 11
29.38672349896296
 21
1775.447196897494
 31
0.0
  0
LINE
  5
1D015
330
1A
100
AcDbEntity
  8
ZISSEN1
 48
0.5
100
AcDbLine
 10
37.38672349896296
 20
1775.947196897494
 30
0.0
 11
98.88672349896296
 21
1775.947196897494
 31
0.0
  0
LINE
  5
1D016
330
1A
100
AcDbEntity
  8
ZISSEN1
 48
0.5
100
AcDbLine
 10
106.8867234989629
 20
1737.447196897494
 30
0.0
 11
98.88672349896296
 21
1737.447196897494
 31
0.0
  0
LINE
  5
1D017
330
1A
100
AcDbEntity
  8
ZISSEN1
 48
0.5
100
AcDbLine
 10
89.03672349896163
 20
1734.647196897494
 30
0.0
 11
88.94956775621443
 21
1733.651002199402
 31
0.0
  0
LINE
  5
1D018
330
1A
100
AcDbEntity
  8
ZISSEN1
 48
0.5
100
AcDbLine
 10
82.73672349896191
 20
1734.647196897494
 30
0.0
 11
82.82387924170956
 21
1733.651002199402
 31
0.0
  0
ARC
  5
1D019
330
1A
100
AcDbEntity
  8
ZISSEN1
 48
0.5
100
AcDbCircle
 10
85.88672349896194
 20
1737.821825886092
 30
0.0
 40
5.174628988598421
100
AcDbArc
 50
233.7083018726678
 51
306.2916981273321
  0
LWPOLYLINE
  5
1D01A
330
1A
100
AcDbEntity
  8
ZISSEN1
 48
0.5
100
AcDbPolyline
 90
        4
 70
     1
 43
0.0
 10
89.13672349896177
 20
1734.647196897494
 10
89.13672349896177
 20
1735.547196897494
 10
82.63672349896177
 20
1735.547196897494
 10
82.63672349896177
 20
1734.647196897494
  0
LWPOLYLINE
  5
1D01B
330
1A
100
AcDbEntity
  8
ZISSEN1
 48
0.5
100
AcDbPolyline
 90
        4
 70
     1
 43
0.0
 10
89.13672349896177
 20
1734.872196897494
 10
89.13672349896177
 20
1735.322196897494
 10
82.63672349896177
 20
1735.322196897494
 10
82.63672349896177
 20
1734.872196897494
  0
LWPOLYLINE
  5
1D01C
330
1A
100
AcDbEntity
  8
ZISSEN1
 48
0.5
100
AcDbPolyline
 90
        4
 70
     1
 43
0.0
 10
85.48523823716477
 20
1734.872196897494
 10
85.48523823716477
 20
1734.872196897494
 10
86.28820876103253
 20
1734.872196897494
 10
86.28820876103253
 20
1734.872196897494
  0
LINE
  5
1D01D
330
1A
100
AcDbEntity
  8
ZISSEN1
 48
0.5
100
AcDbLine
 10
85.88672349896176
 20
1735.547196897494
 30
0.0
 11
85.88672349896176
 21
1734.647196897494
 31
0.0
  0
LINE
  5
1D01E
330
1A
100
AcDbEntity
  8
ZISSEN1
 48
0.5
100
AcDbLine
 10
85.43672349896196
 20
1735.547196897494
 30
0.0
 11
86.33672349896205
 21
1734.647196897494
 31
0.0
  0
LINE
  5
1D01F
330
1A
100
AcDbEntity
  8
ZISSEN1
 48
0.5
100
AcDbLine
 10
84.43672349896194
 20
1735.547196897494
 30
0.0
 11
85.33672349896205
 21
1734.647196897494
 31
0.0
  0
LINE
  5
1D020
330
1A
100
AcDbEntity
  8
ZISSEN1
 48
0.5
100
AcDbLine
 10
83.43672349896195
 20
1735.547196897494
 30
0.0
 11
84.33672349896204
 21
1734.647196897494
 31
0.0
  0
LINE
  5
1D021
330
1A
100
AcDbEntity
  8
ZISSEN1
 48
0.5
100
AcDbLine
 10
82.63672349896177
 20
1735.347196897494
 30
0.0
 11
83.33672349896204
 21
1734.647196897494
 31
0.0
  0
LINE
  5
1D022
330
1A
100
AcDbEntity
  8
ZISSEN1
 48
0.5
100
AcDbLine
 10
86.43672349896196
 20
1735.547196897494
 30
0.0
 11
87.33672349896204
 21
1734.647196897494
 31
0.0
  0
LINE
  5
1D023
330
1A
100
AcDbEntity
  8
ZISSEN1
 48
0.5
100
AcDbLine
 10
87.43672349896195
 20
1735.547196897494
 30
0.0
 11
88.33672349896204
 21
1734.647196897494
 31
0.0
  0
LINE
  5
1D024
330
1A
100
AcDbEntity
  8
ZISSEN1
 48
0.5
100
AcDbLine
 10
88.43672349896195
 20
1735.547196897494
 30
0.0
 11
89.13672349896177
 21
1734.847196897494
 31
0.0
  0
LINE
  5
1D025
330
1A
100
AcDbEntity
  8
CL1
 48
0.5
100
AcDbLine
 10
-19.61327650103703
 20
1763.747196897494
 30
0.0
 11
-12.61327650103703
 21
1763.747196897494
 31
0.0
  0
LINE
  5
1D026
330
1A
100
AcDbEntity
  8
CL1
 48
0.5
100
AcDbLine
 10
-16.11327650103703
 20
1760.247196897494
 30
0.0
 11
-16.11327650103703
 21
1767.247196897494
 31
0.0
  0
LINE
  5
1D027
330
1A
100
AcDbEntity
  8
CL1
 48
0.5
100
AcDbLine
 10
-19.61327650103703
 20
1746.747196897494
 30
0.0
 11
-12.61327650103703
 21
1746.747196897494
 31
0.0
  0
LINE
  5
1D028
330
1A
100
AcDbEntity
  8
CL1
 48
0.5
100
AcDbLine
 10
-16.11327650103703
 20
1743.247196897494
 30
0.0
 11
-16.11327650103703
 21
1750.247196897494
 31
0.0
  0
LWPOLYLINE
  5
1D029
330
1A
100
AcDbEntity
  8
ZISSEN1
 48
0.5
100
AcDbPolyline
 90
        4
 70
     1
 43
0.0
 10
200.384865723117
 20
1581.728420296539
 10
200.384865723117
 20
1644.248420296539
 10
188.384865723117
 20
1644.248420296539
 10
188.384865723117
 20
1581.728420296539
  0
LWPOLYLINE
  5
1D085
330
1A
100
AcDbEntity
  8
ZISSEN1
 48
0.5
100
AcDbPolyline
 90
        4
 70
     1
 43
0.0
 10
200.384865723117
 20
1581.858420296539
 10
200.384865723117
 20
1583.158420296539
 10
188.384865723117
 20
1583.158420296539
 10
188.384865723117
 20
1581.858420296539
  0
LWPOLYLINE
  5
1D086
330
1A
100
AcDbEntity
  8
ZISSEN1
 48
0.5
100
AcDbPolyline
 90
        4
 70
     1
 43
0.0
 10
200.384865723117
 20
1597.098420296539
 10
200.384865723117
 20
1598.398420296539
 10
188.384865723117
 20
1598.398420296539
 10
188.384865723117
 20
1597.098420296539
  0
LWPOLYLINE
  5
1D087
330
1A
100
AcDbEntity
  8
ZISSEN1
 48
0.5
100
AcDbPolyline
 90
        4
 70
     1
 43
0.0
 10
200.384865723117
 20
1604.718420296539
 10
200.384865723117
 20
1606.018420296539
 10
188.384865723117
 20
1606.018420296539
 10
188.384865723117
 20
1604.718420296539
  0
LWPOLYLINE
  5
1D088
330
1A
100
AcDbEntity
  8
ZISSEN1
 48
0.5
100
AcDbPolyline
 90
        4
 70
     1
 43
0.0
 10
200.384865723117
 20
1612.338420296539
 10
200.384865723117
 20
1613.638420296539
 10
188.384865723117
 20
1613.638420296539
 10
188.384865723117
 20
1612.338420296539
  0
LWPOLYLINE
  5
1D089
330
1A
100
AcDbEntity
  8
ZISSEN1
 48
0.5
100
AcDbPolyline
 90
        4
 70
     1
 43
0.0
 10
200.384865723117
 20
1619.958420296539
 10
200.384865723117
 20
1621.258420296539
 10
188.384865723117
 20
1621.258420296539
 10
188.384865723117
 20
1619.958420296539
  0
LWPOLYLINE
  5
1D08A
330
1A
100
AcDbEntity
  8
ZISSEN1
 48
0.5
100
AcDbPolyline
 90
        4
 70
     1
 43
0.0
 10
200.384865723117
 20
1627.578420296539
 10
200.384865723117
 20
1628.878420296539
 10
188.384865723117
 20
1628.878420296539
 10
188.384865723117
 20
1627.578420296539
  0
LWPOLYLINE
  5
1D08B
330
1A
100
AcDbEntity
  8
ZISSEN1
 48
0.5
100
AcDbPolyline
 90
        4
 70
     1
 43
0.0
 10
200.384865723117
 20
1635.198420296539
 10
200.384865723117
 20
1636.498420296539
 10
188.384865723117
 20
1636.498420296539
 10
188.384865723117
 20
1635.198420296539
  0
LWPOLYLINE
  5
1D08C
330
1A
100
AcDbEntity
  8
ZISSEN1
 48
0.5
100
AcDbPolyline
 90
        4
 70
     1
 43
0.0
 10
200.384865723117
 20
1642.818420296539
 10
200.384865723117
 20
1644.118420296539
 10
188.384865723117
 20
1644.118420296539
 10
188.384865723117
 20
1642.818420296539
  0
LINE
  5
1D08D
330
1A
100
AcDbEntity
  8
ZISSEN1
 48
0.5
100
AcDbLine
 10
198.884865723117
 20
1644.248420296539
 30
0.0
 11
198.884865723117
 21
1644.118420296539
 31
0.0
  0
LINE
  5
1D095
330
1A
100
AcDbEntity
  8
ZISSEN1
 48
0.5
100
AcDbLine
 10
198.884865723117
 20
1581.858420296539
 30
0.0
 11
198.884865723117
 21
1581.728420296539
 31
0.0
  0
LINE
  5
1D096
330
1A
100
AcDbEntity
  8
ZISSEN1
 48
0.5
100
AcDbLine
 10
189.884865723117
 20
1644.248420296539
 30
0.0
 11
189.884865723117
 21
1644.118420296539
 31
0.0
  0
LINE
  5
1D09E
330
1A
100
AcDbEntity
  8
ZISSEN1
 48
0.5
100
AcDbLine
 10
189.884865723117
 20
1581.858420296539
 30
0.0
 11
189.884865723117
 21
1581.728420296539
 31
0.0
  0
LWPOLYLINE
  5
1D0E5
330
1A
100
AcDbEntity
  8
ZISSEN1
 48
0.5
100
AcDbPolyline
 90
        4
 70
     1
 43
0.0
 10
200.384865723117
 20
1589.478420296539
 10
200.384865723117
 20
1590.778420296539
 10
188.384865723117
 20
1590.778420296539
 10
188.384865723117
 20
1589.478420296539
  0
LINE
  5
1D100
330
1A
100
AcDbEntity
  8
ZISSEN1
 48
0.5
100
AcDbLine
 10
193.684865723117
 20
1678.238420296539
 30
0.0
 11
193.684865723117
 21
1663.238420296539
 31
0.0
  0
LINE
  5
1D102
330
1A
100
AcDbEntity
  8
ZISSEN1
 48
0.5
100
AcDbLine
 10
200.384865723117
 20
1663.238420296539
 30
0.0
 11
200.384865723117
 21
1664.038420296539
 31
0.0
  0
LINE
  5
1D104
330
1A
100
AcDbEntity
  8
ZISSEN1
 48
0.5
100
AcDbLine
 10
200.384865723117
 20
1678.238420296539
 30
0.0
 11
200.384865723117
 21
1677.438420296539
 31
0.0
  0
LINE
  5
1D13D
330
1A
100
AcDbEntity
  8
ZISSEN1
 48
0.5
100
AcDbLine
 10
193.6848657231169
 20
1660.238420296539
 30
0.0
 11
193.6848657231169
 21
1655.238420296539
 31
0.0
  0
LWPOLYLINE
  5
1D158
330
1A
100
AcDbEntity
  8
ZISSEN1
 48
0.5
100
AcDbPolyline
 90
        4
 70
     1
 43
0.0
 10
189.884865723117
 20
1680.238420296539
 10
202.384865723117
 20
1680.238420296539
 10
202.384865723117
 20
1653.238420296539
 10
189.884865723117
 20
1653.238420296539
  0
LINE
  5
1D159
330
1A
100
AcDbEntity
  8
ZISSEN1
 48
0.5
100
AcDbLine
 10
200.384865723117
 20
1680.238420296539
 30
0.0
 11
200.384865723117
 21
1653.238420296539
 31
0.0
  0
LINE
  5
1D15A
330
1A
100
AcDbEntity
  8
ZISSEN1
 48
0.5
100
AcDbLine
 10
201.984865723117
 20
1653.238420296539
 30
0.0
 11
201.984865723117
 21
1680.238420296539
 31
0.0
  0
LINE
  5
1D15B
330
1A
100
AcDbEntity
  8
ZISSEN1
 48
0.5
100
AcDbLine
 10
200.384865723117
 20
1678.738420296539
 30
0.0
 11
201.984865723117
 21
1678.738420296539
 31
0.0
  0
LINE
  5
1D15C
330
1A
100
AcDbEntity
  8
ZISSEN1
 48
0.5
100
AcDbLine
 10
201.984865723117
 20
1654.738420296539
 30
0.0
 11
200.384865723117
 21
1654.738420296539
 31
0.0
  0
LINE
  5
1D15D
330
1A
100
AcDbEntity
  8
ZISSEN1
 48
0.5
100
AcDbLine
 10
200.384865723117
 20
1653.738420296539
 30
0.0
 11
201.984865723117
 21
1653.738420296539
 31
0.0
  0
LINE
  5
1D15E
330
1A
100
AcDbEntity
  8
ZISSEN1
 48
0.5
100
AcDbLine
 10
201.984865723117
 20
1644.738420296539
 30
0.0
 11
200.384865723117
 21
1644.738420296539
 31
0.0
  0
LINE
  5
1D15F
330
1A
100
AcDbEntity
  8
ZISSEN1
 48
0.5
100
AcDbLine
 10
201.984865723117
 20
1643.738420296539
 30
0.0
 11
200.384865723117
 21
1643.738420296539
 31
0.0
  0
LINE
  5
1D160
330
1A
100
AcDbEntity
  8
ZISSEN1
 48
0.5
100
AcDbLine
 10
200.384865723117
 20
1645.238420296539
 30
0.0
 11
200.384865723117
 21
1580.738420296539
 31
0.0
  0
LINE
  5
1D161
330
1A
100
AcDbEntity
  8
ZISSEN1
 48
0.5
100
AcDbLine
 10
201.984865723117
 20
1581.238420296539
 30
0.0
 11
200.384865723117
 21
1581.238420296539
 31
0.0
  0
LINE
  5
1D162
330
1A
100
AcDbEntity
  8
ZISSEN1
 48
0.5
100
AcDbLine
 10
201.984865723117
 20
1582.238420296539
 30
0.0
 11
200.384865723117
 21
1582.238420296539
 31
0.0
  0
LINE
  5
1D163
330
1A
100
AcDbEntity
  8
ZISSEN1
 48
0.5
100
AcDbLine
 10
201.984865723117
 20
1580.738420296539
 30
0.0
 11
201.984865723117
 21
1645.238420296539
 31
0.0
  0
LINE
  5
1D164
330
1A
100
AcDbEntity
  8
ZISSEN1
 48
0.5
100
AcDbLine
 10
202.384865723117
 20
1677.308420296539
 30
0.0
 11
201.984865723117
 21
1677.308420296539
 31
0.0
  0
LINE
  5
1D165
330
1A
100
AcDbEntity
  8
ZISSEN1
 48
0.5
100
AcDbLine
 10
202.384865723117
 20
1676.668420296539
 30
0.0
 11
201.984865723117
 21
1676.668420296539
 31
0.0
  0
LINE
  5
1D166
330
1A
100
AcDbEntity
  8
ZISSEN1
 48
0.5
100
AcDbLine
 10
202.384865723117
 20
1674.808420296539
 30
0.0
 11
201.984865723117
 21
1674.808420296539
 31
0.0
  0
LINE
  5
1D167
330
1A
100
AcDbEntity
  8
ZISSEN1
 48
0.5
100
AcDbLine
 10
202.384865723117
 20
1674.168420296539
 30
0.0
 11
201.984865723117
 21
1674.168420296539
 31
0.0
  0
LINE
  5
1D168
330
1A
100
AcDbEntity
  8
ZISSEN1
 48
0.5
100
AcDbLine
 10
202.384865723117
 20
1672.308420296539
 30
0.0
 11
201.984865723117
 21
1672.308420296539
 31
0.0
  0
LINE
  5
1D169
330
1A
100
AcDbEntity
  8
ZISSEN1
 48
0.5
100
AcDbLine
 10
202.384865723117
 20
1671.668420296539
 30
0.0
 11
201.984865723117
 21
1671.668420296539
 31
0.0
  0
LINE
  5
1D16A
330
1A
100
AcDbEntity
  8
ZISSEN1
 48
0.5
100
AcDbLine
 10
202.384865723117
 20
1669.808420296539
 30
0.0
 11
201.984865723117
 21
1669.808420296539
 31
0.0
  0
LINE
  5
1D16B
330
1A
100
AcDbEntity
  8
ZISSEN1
 48
0.5
100
AcDbLine
 10
202.384865723117
 20
1669.168420296539
 30
0.0
 11
201.984865723117
 21
1669.168420296539
 31
0.0
  0
LINE
  5
1D16C
330
1A
100
AcDbEntity
  8
ZISSEN1
 48
0.5
100
AcDbLine
 10
202.384865723117
 20
1667.308420296539
 30
0.0
 11
201.984865723117
 21
1667.308420296539
 31
0.0
  0
LINE
  5
1D16D
330
1A
100
AcDbEntity
  8
ZISSEN1
 48
0.5
100
AcDbLine
 10
202.384865723117
 20
1666.668420296539
 30
0.0
 11
201.984865723117
 21
1666.668420296539
 31
0.0
  0
LINE
  5
1D16E
330
1A
100
AcDbEntity
  8
ZISSEN1
 48
0.5
100
AcDbLine
 10
202.384865723117
 20
1664.808420296539
 30
0.0
 11
201.984865723117
 21
1664.808420296539
 31
0.0
  0
LINE
  5
1D16F
330
1A
100
AcDbEntity
  8
ZISSEN1
 48
0.5
100
AcDbLine
 10
202.384865723117
 20
1664.168420296538
 30
0.0
 11
201.984865723117
 21
1664.168420296538
 31
0.0
  0
LINE
  5
1D170
330
1A
100
AcDbEntity
  8
ZISSEN1
 48
0.5
100
AcDbLine
 10
201.984865723117
 20
1659.308420296539
 30
0.0
 11
202.384865723117
 21
1659.308420296539
 31
0.0
  0
LINE
  5
1D171
330
1A
100
AcDbEntity
  8
ZISSEN1
 48
0.5
100
AcDbLine
 10
201.984865723117
 20
1658.668420296539
 30
0.0
 11
202.384865723117
 21
1658.668420296539
 31
0.0
  0
LINE
  5
1D172
330
1A
100
AcDbEntity
  8
ZISSEN1
 48
0.5
100
AcDbLine
 10
201.984865723117
 20
1656.808420296539
 30
0.0
 11
202.384865723117
 21
1656.808420296539
 31
0.0
  0
LINE
  5
1D173
330
1A
100
AcDbEntity
  8
ZISSEN1
 48
0.5
100
AcDbLine
 10
201.984865723117
 20
1656.168420296539
 30
0.0
 11
202.384865723117
 21
1656.168420296539
 31
0.0
  0
LINE
  5
1D174
330
1A
100
AcDbEntity
  8
ZISSEN1
 48
0.5
100
AcDbLine
 10
201.984865723117
 20
1585.568420296539
 30
0.0
 11
202.384865723117
 21
1585.568420296539
 31
0.0
  0
LINE
  5
1D175
330
1A
100
AcDbEntity
  8
ZISSEN1
 48
0.5
100
AcDbLine
 10
202.0098657231169
 20
1587.068420296539
 30
0.0
 11
202.384865723117
 21
1587.068420296539
 31
0.0
  0
LINE
  5
1D176
330
1A
100
AcDbEntity
  8
ZISSEN1
 48
0.5
100
AcDbLine
 10
201.984865723117
 20
1593.188420296539
 30
0.0
 11
202.384865723117
 21
1593.188420296539
 31
0.0
  0
LINE
  5
1D177
330
1A
100
AcDbEntity
  8
ZISSEN1
 48
0.5
100
AcDbLine
 10
202.0098657231169
 20
1594.688420296539
 30
0.0
 11
202.384865723117
 21
1594.688420296539
 31
0.0
  0
LINE
  5
1D178
330
1A
100
AcDbEntity
  8
ZISSEN1
 48
0.5
100
AcDbLine
 10
201.984865723117
 20
1600.808420296539
 30
0.0
 11
202.384865723117
 21
1600.808420296539
 31
0.0
  0
LINE
  5
1D179
330
1A
100
AcDbEntity
  8
ZISSEN1
 48
0.5
100
AcDbLine
 10
201.984865723117
 20
1602.308420296539
 30
0.0
 11
202.384865723117
 21
1602.308420296539
 31
0.0
  0
LINE
  5
1D17A
330
1A
100
AcDbEntity
  8
ZISSEN1
 48
0.5
100
AcDbLine
 10
202.0098657231169
 20
1608.428420296539
 30
0.0
 11
202.384865723117
 21
1608.428420296539
 31
0.0
  0
LINE
  5
1D17B
330
1A
100
AcDbEntity
  8
ZISSEN1
 48
0.5
100
AcDbLine
 10
201.984865723117
 20
1609.928420296539
 30
0.0
 11
202.384865723117
 21
1609.928420296539
 31
0.0
  0
LINE
  5
1D17C
330
1A
100
AcDbEntity
  8
ZISSEN1
 48
0.5
100
AcDbLine
 10
201.984865723117
 20
1616.048420296539
 30
0.0
 11
202.384865723117
 21
1616.048420296539
 31
0.0
  0
LINE
  5
1D17D
330
1A
100
AcDbEntity
  8
ZISSEN1
 48
0.5
100
AcDbLine
 10
201.984865723117
 20
1617.548420296539
 30
0.0
 11
202.384865723117
 21
1617.548420296539
 31
0.0
  0
LINE
  5
1D17E
330
1A
100
AcDbEntity
  8
ZISSEN1
 48
0.5
100
AcDbLine
 10
201.984865723117
 20
1623.668420296539
 30
0.0
 11
202.384865723117
 21
1623.668420296539
 31
0.0
  0
LINE
  5
1D17F
330
1A
100
AcDbEntity
  8
ZISSEN1
 48
0.5
100
AcDbLine
 10
201.984865723117
 20
1625.168420296539
 30
0.0
 11
202.384865723117
 21
1625.168420296539
 31
0.0
  0
LINE
  5
1D180
330
1A
100
AcDbEntity
  8
ZISSEN1
 48
0.5
100
AcDbLine
 10
201.984865723117
 20
1631.288420296539
 30
0.0
 11
202.384865723117
 21
1631.288420296539
 31
0.0
  0
LINE
  5
1D181
330
1A
100
AcDbEntity
  8
ZISSEN1
 48
0.5
100
AcDbLine
 10
201.984865723117
 20
1632.788420296539
 30
0.0
 11
202.384865723117
 21
1632.788420296539
 31
0.0
  0
LINE
  5
1D182
330
1A
100
AcDbEntity
  8
ZISSEN1
 48
0.5
100
AcDbLine
 10
201.984865723117
 20
1638.908420296539
 30
0.0
 11
202.384865723117
 21
1638.908420296539
 31
0.0
  0
LINE
  5
1D183
330
1A
100
AcDbEntity
  8
ZISSEN1
 48
0.5
100
AcDbLine
 10
201.984865723117
 20
1640.408420296539
 30
0.0
 11
202.384865723117
 21
1640.408420296539
 31
0.0
  0
LINE
  5
1D184
330
1A
100
AcDbEntity
  8
ZISSEN1
 48
0.5
100
AcDbLine
 10
170.784865723117
 20
1578.238420296539
 30
0.0
 11
170.784865723117
 21
1576.238420296539
 31
0.0
  0
LINE
  5
1D185
330
1A
100
AcDbEntity
  8
ZISSEN1
 48
0.5
100
AcDbLine
 10
169.784865723117
 20
1576.238420296539
 30
0.0
 11
208.284865723117
 21
1576.238420296539
 31
0.0
  0
LINE
  5
1D186
330
1A
100
AcDbEntity
  8
ZISSEN1
 48
0.5
100
AcDbLine
 10
208.284865723117
 20
1578.238420296539
 30
0.0
 11
169.784865723117
 21
1578.238420296539
 31
0.0
  0
LINE
  5
1D187
330
1A
100
AcDbEntity
  8
ZISSEN1
 48
0.5
100
AcDbLine
 10
170.784865723117
 20
1578.238420296539
 30
0.0
 11
170.784865723117
 21
1576.238420296539
 31
0.0
  0
LINE
  5
1D188
330
1A
100
AcDbEntity
  8
ZISSEN1
 48
0.5
100
AcDbLine
 10
177.084865723117
 20
1578.238420296539
 30
0.0
 11
177.084865723117
 21
1576.238420296539
 31
0.0
  0
LINE
  5
1D189
330
1A
100
AcDbEntity
  8
ZISSEN1
 48
0.5
100
AcDbLine
 10
181.0848657231171
 20
1578.238420296539
 30
0.0
 11
181.0848657231171
 21
1576.238420296539
 31
0.0
  0
LINE
  5
1D18A
330
1A
100
AcDbEntity
  8
ZISSEN1
 48
0.5
100
AcDbLine
 10
206.784865723117
 20
1576.238420296539
 30
0.0
 11
206.784865723117
 21
1578.238420296539
 31
0.0
  0
LINE
  5
1D18B
330
1A
100
AcDbEntity
  8
ZISSEN1
 48
0.5
100
AcDbLine
 10
208.284865723117
 20
1578.238420296539
 30
0.0
 11
208.284865723117
 21
1683.238420296539
 31
0.0
  0
LINE
  5
1D18C
330
1A
100
AcDbEntity
  8
ZISSEN1
 48
0.5
100
AcDbLine
 10
208.284865723117
 20
1682.238420296539
 30
0.0
 11
210.284865723117
 21
1682.238420296539
 31
0.0
  0
LINE
  5
1D18D
330
1A
100
AcDbEntity
  8
ZISSEN1
 48
0.5
100
AcDbLine
 10
210.284865723117
 20
1683.238420296539
 30
0.0
 11
210.284865723117
 21
1578.238420296539
 31
0.0
  0
ARC
  5
1D18E
330
1A
100
AcDbEntity
  8
ZISSEN1
 48
0.5
100
AcDbCircle
 10
208.284865723117
 20
1578.238420296539
 30
0.0
 40
2.0
100
AcDbArc
 50
270.0
 51
0.0
  0
LINE
  5
1D18F
330
1A
100
AcDbEntity
  8
ZISSEN1
 48
0.5
100
AcDbLine
 10
207.784865723117
 20
1579.738420296539
 30
0.0
 11
206.784865723117
 21
1578.738420296539
 31
0.0
  0
LINE
  5
1D190
330
1A
100
AcDbEntity
  8
ZISSEN1
 48
0.5
100
AcDbLine
 10
206.784865723117
 20
1578.738420296539
 30
0.0
 11
167.8848657231248
 21
1578.738420296539
 31
0.0
  0
LINE
  5
1D191
330
1A
100
AcDbEntity
  8
ZISSEN1
 48
0.5
100
AcDbLine
 10
207.784865723117
 20
1683.238420296539
 30
0.0
 11
207.784865723117
 21
1579.738420296539
 31
0.0
  0
LINE
  5
1D192
330
1A
100
AcDbEntity
  8
ZISSEN1
 48
0.5
100
AcDbLine
 10
208.284865723117
 20
1578.738420296539
 30
0.0
 11
206.784865723117
 21
1578.738420296539
 31
0.0
  0
LINE
  5
1D193
330
1A
100
AcDbEntity
  8
ZISSEN1
 48
0.5
100
AcDbLine
 10
192.1348657231176
 20
1684.138420296539
 30
0.0
 11
198.4348657231173
 21
1684.138420296539
 31
0.0
  0
LINE
  5
1D194
330
1A
100
AcDbEntity
  8
ZISSEN1
 48
0.5
100
AcDbLine
 10
192.1348657231176
 20
1684.138420296539
 30
0.0
 11
192.2220214658648
 21
1685.134614994631
 31
0.0
  0
LINE
  5
1D195
330
1A
100
AcDbEntity
  8
ZISSEN1
 48
0.5
100
AcDbLine
 10
198.4348657231173
 20
1684.138420296539
 30
0.0
 11
198.3477099803696
 21
1685.134614994631
 31
0.0
  0
ARC
  5
1D196
330
1A
100
AcDbEntity
  8
ZISSEN1
 48
0.5
100
AcDbCircle
 10
195.2848657231172
 20
1680.963791307941
 30
0.0
 40
5.174628988598421
100
AcDbArc
 50
53.70830187266782
 51
126.2916981273321
  0
LINE
  5
1D197
330
1A
100
AcDbEntity
  8
ZISSEN1
 48
0.5
100
AcDbLine
 10
198.4348657231168
 20
1684.138420296539
 30
0.0
 11
192.1348657231171
 21
1684.138420296539
 31
0.0
  0
LWPOLYLINE
  5
1D198
330
1A
100
AcDbEntity
  8
ZISSEN1
 48
0.5
100
AcDbPolyline
 90
        4
 70
     1
 43
0.0
 10
192.034865723117
 20
1684.138420296539
 10
192.034865723117
 20
1683.238420296539
 10
198.534865723117
 20
1683.238420296539
 10
198.534865723117
 20
1684.138420296539
  0
LWPOLYLINE
  5
1D199
330
1A
100
AcDbEntity
  8
ZISSEN1
 48
0.5
100
AcDbPolyline
 90
        4
 70
     1
 43
0.0
 10
192.034865723117
 20
1683.913420296539
 10
192.034865723117
 20
1683.463420296539
 10
198.534865723117
 20
1683.463420296539
 10
198.534865723117
 20
1683.913420296539
  0
LWPOLYLINE
  5
1D19A
330
1A
100
AcDbEntity
  8
ZISSEN1
 48
0.5
100
AcDbPolyline
 90
        4
 70
     1
 43
0.0
 10
195.686350984914
 20
1683.913420296539
 10
195.686350984914
 20
1683.913420296539
 10
194.8833804610462
 20
1683.913420296539
 10
194.8833804610462
 20
1683.913420296539
  0
LINE
  5
1D19B
330
1A
100
AcDbEntity
  8
ZISSEN1
 48
0.5
100
AcDbLine
 10
195.284865723117
 20
1683.238420296539
 30
0.0
 11
195.284865723117
 21
1684.138420296539
 31
0.0
  0
LINE
  5
1D19C
330
1A
100
AcDbEntity
  8
ZISSEN1
 48
0.5
100
AcDbLine
 10
195.7348657231168
 20
1683.238420296539
 30
0.0
 11
194.8348657231167
 21
1684.138420296539
 31
0.0
  0
LINE
  5
1D19D
330
1A
100
AcDbEntity
  8
ZISSEN1
 48
0.5
100
AcDbLine
 10
196.7348657231168
 20
1683.238420296539
 30
0.0
 11
195.8348657231167
 21
1684.138420296539
 31
0.0
  0
LINE
  5
1D19E
330
1A
100
AcDbEntity
  8
ZISSEN1
 48
0.5
100
AcDbLine
 10
197.7348657231168
 20
1683.238420296539
 30
0.0
 11
196.8348657231167
 21
1684.138420296539
 31
0.0
  0
LINE
  5
1D19F
330
1A
100
AcDbEntity
  8
ZISSEN1
 48
0.5
100
AcDbLine
 10
198.534865723117
 20
1683.438420296539
 30
0.0
 11
197.8348657231167
 21
1684.138420296539
 31
0.0
  0
LINE
  5
1D1A0
330
1A
100
AcDbEntity
  8
ZISSEN1
 48
0.5
100
AcDbLine
 10
194.7348657231168
 20
1683.238420296539
 30
0.0
 11
193.8348657231167
 21
1684.138420296539
 31
0.0
  0
LINE
  5
1D1A1
330
1A
100
AcDbEntity
  8
ZISSEN1
 48
0.5
100
AcDbLine
 10
193.7348657231168
 20
1683.238420296539
 30
0.0
 11
192.8348657231167
 21
1684.138420296539
 31
0.0
  0
LINE
  5
1D1A2
330
1A
100
AcDbEntity
  8
ZISSEN1
 48
0.5
100
AcDbLine
 10
192.7348657231168
 20
1683.238420296539
 30
0.0
 11
192.034865723117
 21
1683.938420296539
 31
0.0
  0
LINE
  5
1D1A3
330
1A
100
AcDbEntity
  8
ZISSEN1
 48
0.5
100
AcDbLine
 10
166.9848657231174
 20
1635.588420296539
 30
0.0
 11
165.9886710250254
 21
1635.675576039286
 31
0.0
  0
LINE
  5
1D1A4
330
1A
100
AcDbEntity
  8
ZISSEN1
 48
0.5
100
AcDbLine
 10
166.9848657231174
 20
1641.888420296539
 30
0.0
 11
165.9886710250254
 21
1641.801264553791
 31
0.0
  0
ARC
  5
1D1A5
330
1A
100
AcDbEntity
  8
ZISSEN1
 48
0.5
100
AcDbCircle
 10
170.1594947117161
 20
1638.738420296538
 30
0.0
 40
5.174628988598421
100
AcDbArc
 50
143.7083018726667
 51
216.2916981273332
  0
LWPOLYLINE
  5
1D1A6
330
1A
100
AcDbEntity
  8
ZISSEN1
 48
0.5
100
AcDbPolyline
 90
        4
 70
     1
 43
0.0
 10
166.9848657231175
 20
1635.488420296539
 10
167.8848657231176
 20
1635.488420296539
 10
167.8848657231176
 20
1641.988420296539
 10
166.9848657231175
 20
1641.988420296539
  0
LWPOLYLINE
  5
1D1A7
330
1A
100
AcDbEntity
  8
ZISSEN1
 48
0.5
100
AcDbPolyline
 90
        4
 70
     1
 43
0.0
 10
167.2098657231179
 20
1635.488420296539
 10
167.6598657231177
 20
1635.488420296539
 10
167.6598657231177
 20
1641.988420296539
 10
167.2098657231179
 20
1641.988420296539
  0
LINE
  5
1D1A8
330
1A
100
AcDbEntity
  8
ZISSEN1
 48
0.5
100
AcDbLine
 10
167.8848657231176
 20
1638.738420296539
 30
0.0
 11
166.9848657231175
 21
1638.738420296539
 31
0.0
  0
LINE
  5
1D1A9
330
1A
100
AcDbEntity
  8
ZISSEN1
 48
0.5
100
AcDbLine
 10
167.8848657231176
 20
1639.188420296539
 30
0.0
 11
166.9848657231175
 21
1638.288420296539
 31
0.0
  0
LINE
  5
1D1AA
330
1A
100
AcDbEntity
  8
ZISSEN1
 48
0.5
100
AcDbLine
 10
167.8848657231176
 20
1640.188420296539
 30
0.0
 11
166.9848657231175
 21
1639.288420296539
 31
0.0
  0
LINE
  5
1D1AB
330
1A
100
AcDbEntity
  8
ZISSEN1
 48
0.5
100
AcDbLine
 10
167.8848657231176
 20
1641.188420296539
 30
0.0
 11
166.9848657231175
 21
1640.288420296538
 31
0.0
  0
LINE
  5
1D1AC
330
1A
100
AcDbEntity
  8
ZISSEN1
 48
0.5
100
AcDbLine
 10
167.6848657231178
 20
1641.988420296539
 30
0.0
 11
166.9848657231175
 21
1641.288420296539
 31
0.0
  0
LINE
  5
1D1AD
330
1A
100
AcDbEntity
  8
ZISSEN1
 48
0.5
100
AcDbLine
 10
167.8848657231176
 20
1638.188420296539
 30
0.0
 11
166.9848657231175
 21
1637.288420296539
 31
0.0
  0
LINE
  5
1D1AE
330
1A
100
AcDbEntity
  8
ZISSEN1
 48
0.5
100
AcDbLine
 10
167.8848657231176
 20
1637.188420296538
 30
0.0
 11
166.9848657231175
 21
1636.288420296539
 31
0.0
  0
LINE
  5
1D1AF
330
1A
100
AcDbEntity
  8
ZISSEN1
 48
0.5
100
AcDbLine
 10
167.8848657231176
 20
1636.188420296539
 30
0.0
 11
167.1848657231178
 21
1635.488420296539
 31
0.0
  0
LINE
  5
1D1B0
330
1A
100
AcDbEntity
  8
ZISSEN1
 48
0.5
100
AcDbLine
 10
102.6867234989629
 20
1644.248420296539
 30
0.0
 11
98.88672349896303
 21
1644.248420296539
 31
0.0
  0
LINE
  5
1D1B1
330
1A
100
AcDbEntity
  8
ZISSEN1
 48
0.5
100
AcDbLine
 10
98.88672349896296
 20
1581.728420296539
 30
0.0
 11
102.6867234989629
 21
1581.728420296539
 31
0.0
  0
LWPOLYLINE
  5
1D1B4
330
1A
100
AcDbEntity
  8
ZISSEN1
 48
0.5
100
AcDbPolyline
 90
        4
 70
     1
 43
0.0
 10
98.88672349896296
 20
1644.118420296539
 10
98.88672349896296
 20
1642.818420296539
 10
110.6867234989629
 20
1642.818420296539
 10
110.6867234989629
 20
1644.118420296539
  0
LWPOLYLINE
  5
1D1B8
330
1A
100
AcDbEntity
  8
ZISSEN1
 48
0.5
100
AcDbPolyline
 90
        4
 70
     1
 43
0.0
 10
98.88672349896303
 20
1636.498420296539
 10
98.88672349896303
 20
1635.198420296539
 10
110.6867234989629
 20
1635.198420296539
 10
110.6867234989629
 20
1636.498420296539
  0
LWPOLYLINE
  5
1D1B9
330
1A
100
AcDbEntity
  8
ZISSEN1
 48
0.5
100
AcDbPolyline
 90
        4
 70
     1
 43
0.0
 10
98.88672349896296
 20
1621.258420296539
 10
98.88672349896296
 20
1619.958420296539
 10
110.6867234989629
 20
1619.958420296539
 10
110.6867234989629
 20
1621.258420296539
  0
LWPOLYLINE
  5
1D1BA
330
1A
100
AcDbEntity
  8
ZISSEN1
 48
0.5
100
AcDbPolyline
 90
        4
 70
     1
 43
0.0
 10
98.88672349896296
 20
1613.638420296539
 10
98.88672349896296
 20
1612.338420296539
 10
110.6867234989629
 20
1612.338420296539
 10
110.6867234989629
 20
1613.638420296539
  0
LWPOLYLINE
  5
1D1BB
330
1A
100
AcDbEntity
  8
ZISSEN1
 48
0.5
100
AcDbPolyline
 90
        4
 70
     1
 43
0.0
 10
98.88672349896296
 20
1606.018420296539
 10
98.88672349896296
 20
1604.718420296539
 10
110.6867234989629
 20
1604.718420296539
 10
110.6867234989629
 20
1606.018420296539
  0
LWPOLYLINE
  5
1D1BC
330
1A
100
AcDbEntity
  8
ZISSEN1
 48
0.5
100
AcDbPolyline
 90
        4
 70
     1
 43
0.0
 10
98.88672349896296
 20
1598.398420296539
 10
98.88672349896296
 20
1597.098420296539
 10
110.6867234989628
 20
1597.098420296539
 10
110.6867234989628
 20
1598.398420296539
  0
LWPOLYLINE
  5
1D1BD
330
1A
100
AcDbEntity
  8
ZISSEN1
 48
0.5
100
AcDbPolyline
 90
        4
 70
     1
 43
0.0
 10
98.88672349896296
 20
1590.778420296539
 10
98.88672349896296
 20
1589.478420296539
 10
110.6867234989629
 20
1589.478420296539
 10
110.6867234989629
 20
1590.778420296539
  0
LWPOLYLINE
  5
1D1BE
330
1A
100
AcDbEntity
  8
ZISSEN1
 48
0.5
100
AcDbPolyline
 90
        4
 70
     1
 43
0.0
 10
98.88672349896296
 20
1583.158420296539
 10
98.88672349896296
 20
1581.858420296539
 10
110.6867234989629
 20
1581.858420296539
 10
110.6867234989629
 20
1583.158420296539
  0
LINE
  5
1D1D7
330
1A
100
AcDbEntity
  8
ZISSEN1
 48
0.5
100
AcDbLine
 10
102.6867234989629
 20
1581.858420296539
 30
0.0
 11
102.6867234989629
 21
1581.728420296539
 31
0.0
  0
LWPOLYLINE
  5
1D1D8
330
1A
100
AcDbEntity
  8
ZISSEN1
 48
0.5
100
AcDbPolyline
 90
        4
 70
     1
 43
0.0
 10
108.986723498963
 20
1644.248420296539
 10
108.986723498963
 20
1581.728420296539
 10
111.486723498963
 20
1581.728420296539
 10
111.486723498963
 20
1644.248420296539
  0
LINE
  5
1D1D9
330
1A
100
AcDbEntity
  8
ZISSEN1
 48
0.5
100
AcDbLine
 10
110.6867234989629
 20
1644.248420296539
 30
0.0
 11
110.6867234989629
 21
1581.728420296539
 31
0.0
  0
LWPOLYLINE
  5
1D1DA
330
1A
100
AcDbEntity
  8
ZISSEN1
 48
0.5
100
AcDbPolyline
 90
        4
 70
     1
 43
0.0
 10
98.88672349896296
 20
1628.878420296539
 10
98.88672349896296
 20
1627.578420296539
 10
110.6867234989629
 20
1627.578420296539
 10
110.6867234989629
 20
1628.878420296539
  0
LINE
  5
1D1E1
330
1A
100
AcDbEntity
  8
ZISSEN1
 48
0.5
100
AcDbLine
 10
98.88672349896296
 20
1678.238420296539
 30
0.0
 11
101.2867234989629
 21
1678.238420296539
 31
0.0
  0
LINE
  5
1D1E2
330
1A
100
AcDbEntity
  8
ZISSEN1
 48
0.5
100
AcDbLine
 10
101.2867234989629
 20
1678.238420296539
 30
0.0
 11
101.2867234989629
 21
1663.238420296539
 31
0.0
  0
LINE
  5
1D1E3
330
1A
100
AcDbEntity
  8
ZISSEN1
 48
0.5
100
AcDbLine
 10
101.2867234989629
 20
1663.238420296539
 30
0.0
 11
98.88672349896296
 21
1663.238420296539
 31
0.0
  0
LINE
  5
1D1EF
330
1A
100
AcDbEntity
  8
ZISSEN1
 48
0.5
100
AcDbLine
 10
98.88672349896296
 20
1660.238420296539
 30
0.0
 11
101.2867234989629
 21
1660.238420296539
 31
0.0
  0
LINE
  5
1D1F0
330
1A
100
AcDbEntity
  8
ZISSEN1
 48
0.5
100
AcDbLine
 10
101.286723498963
 20
1660.238420296539
 30
0.0
 11
101.286723498963
 21
1655.238420296539
 31
0.0
  0
LINE
  5
1D1F1
330
1A
100
AcDbEntity
  8
ZISSEN1
 48
0.5
100
AcDbLine
 10
101.2867234989629
 20
1655.238420296539
 30
0.0
 11
98.88672349896296
 21
1655.238420296539
 31
0.0
  0
LINE
  5
1D1F7
330
1A
100
AcDbEntity
  8
ZISSEN1
 48
0.5
100
AcDbLine
 10
-20.11327650103703
 20
1576.238420296539
 30
0.0
 11
-20.11327650103703
 21
1578.238420296539
 31
0.0
  0
LINE
  5
1D1F8
330
1A
100
AcDbEntity
  8
ZISSEN1
 48
0.5
100
AcDbLine
 10
-19.11327650103703
 20
1576.238420296539
 30
0.0
 11
-19.11327650103703
 21
1578.238420296539
 31
0.0
  0
LINE
  5
1D1F9
330
1A
100
AcDbEntity
  8
ZISSEN1
 48
0.5
100
AcDbLine
 10
-20.11327650103703
 20
1578.238420296539
 30
0.0
 11
107.8867234989629
 21
1578.238420296539
 31
0.0
  0
LINE
  5
1D1FA
330
1A
100
AcDbEntity
  8
ZISSEN1
 48
0.5
100
AcDbLine
 10
98.88672349896303
 20
1683.238420296539
 30
0.0
 11
98.88672349896296
 21
1578.238420296539
 31
0.0
  0
LINE
  5
1D1FB
330
1A
100
AcDbEntity
  8
ZISSEN1
 48
0.5
100
AcDbLine
 10
98.88672349896296
 20
1683.238420296539
 30
0.0
 11
-11.11327650103703
 21
1683.238420296539
 31
0.0
  0
LINE
  5
1D1FC
330
1A
100
AcDbEntity
  8
ZISSEN1
 48
0.5
100
AcDbLine
 10
-11.11327650103703
 20
1683.238420296539
 30
0.0
 11
-11.11327650103703
 21
1578.738420296539
 31
0.0
  0
LINE
  5
1D1FD
330
1A
100
AcDbEntity
  8
ZISSEN1
 48
0.5
100
AcDbLine
 10
-11.11327650103703
 20
1578.738420296539
 30
0.0
 11
-9.113276501037034
 21
1578.738420296539
 31
0.0
  0
LINE
  5
1D1FE
330
1A
100
AcDbEntity
  8
ZISSEN1
 48
0.5
100
AcDbLine
 10
-10.11327650103703
 20
1579.738420296539
 30
0.0
 11
-9.113276501037034
 21
1578.738420296539
 31
0.0
  0
LINE
  5
1D1FF
330
1A
100
AcDbEntity
  8
ZISSEN1
 48
0.5
100
AcDbLine
 10
-10.11327650103703
 20
1578.738420296539
 30
0.0
 11
98.88672349896296
 21
1578.738420296539
 31
0.0
  0
LINE
  5
1D200
330
1A
100
AcDbEntity
  8
ZISSEN1
 48
0.5
100
AcDbLine
 10
-9.113276501037034
 20
1683.238420296539
 30
0.0
 11
-9.113276501037034
 21
1593.738420296539
 31
0.0
  0
LINE
  5
1D201
330
1A
100
AcDbEntity
  8
ZISSEN1
 48
0.5
100
AcDbLine
 10
-9.113276501037034
 20
1682.238420296539
 30
0.0
 11
-11.11327650103703
 21
1682.238420296539
 31
0.0
  0
DIMENSION
  5
1D202
330
1A
100
AcDbEntity
  8
SUNPOU
 48
0.5
100
AcDbDimension
  2
*D13
 10
122.886723498963
 20
1578.238420296539
 30
0.0
 11
120.1367234989627
 21
1586.405086963206
 31
0.0
 70
    32
  3
標準スタイル
100
AcDbAlignedDimension
 13
107.8867234989629
 23
1576.238420296539
 33
0.0
 14
107.8867234989629
 24
1578.238420296539
 34
0.0
 50
90.0
100
AcDbRotatedDimension
1001
ACAD
1000
DSTYLE
1002
{
1070
   340
1005
10
1070
    40
1040
1.0
1002
}
  0
LINE
  5
1D204
330
1A
100
AcDbEntity
  8
ZISSEN1
 48
0.5
100
AcDbLine
 10
29.2367234989631
 20
1684.138420296538
 30
0.0
 11
29.3238792417103
 21
1685.13461499463
 31
0.0
  0
LINE
  5
1D205
330
1A
100
AcDbEntity
  8
ZISSEN1
 48
0.5
100
AcDbLine
 10
35.53672349896283
 20
1684.138420296538
 30
0.0
 11
35.44956775621517
 21
1685.13461499463
 31
0.0
  0
ARC
  5
1D206
330
1A
100
AcDbEntity
  8
ZISSEN1
 48
0.5
100
AcDbCircle
 10
32.38672349896273
 20
1680.96379130794
 30
0.0
 40
5.174628988598421
100
AcDbArc
 50
53.70830187266782
 51
126.2916981273321
  0
LINE
  5
1D207
330
1A
100
AcDbEntity
  8
ZISSEN1
 48
0.5
100
AcDbLine
 10
35.53672349896237
 20
1684.138420296538
 30
0.0
 11
29.23672349896264
 21
1684.138420296538
 31
0.0
  0
LWPOLYLINE
  5
1D208
330
1A
100
AcDbEntity
  8
ZISSEN1
 48
0.5
100
AcDbPolyline
 90
        4
 70
     1
 43
0.0
 10
29.13672349896296
 20
1684.138420296538
 10
29.13672349896296
 20
1683.238420296539
 10
35.63672349896296
 20
1683.238420296539
 10
35.63672349896296
 20
1684.138420296538
  0
LWPOLYLINE
  5
1D209
330
1A
100
AcDbEntity
  8
ZISSEN1
 48
0.5
100
AcDbPolyline
 90
        4
 70
     1
 43
0.0
 10
29.13672349896296
 20
1683.913420296538
 10
29.13672349896296
 20
1683.463420296538
 10
35.63672349896296
 20
1683.463420296538
 10
35.63672349896296
 20
1683.913420296538
  0
LWPOLYLINE
  5
1D20A
330
1A
100
AcDbEntity
  8
ZISSEN1
 48
0.5
100
AcDbPolyline
 90
        4
 70
     1
 43
0.0
 10
32.78820876075997
 20
1683.913420296538
 10
32.78820876075997
 20
1683.913420296538
 10
31.9852382368922
 20
1683.913420296538
 10
31.9852382368922
 20
1683.913420296538
  0
LINE
  5
1D20B
330
1A
100
AcDbEntity
  8
ZISSEN1
 48
0.5
100
AcDbLine
 10
32.38672349896296
 20
1683.238420296539
 30
0.0
 11
32.38672349896296
 21
1684.138420296538
 31
0.0
  0
LINE
  5
1D20C
330
1A
100
AcDbEntity
  8
ZISSEN1
 48
0.5
100
AcDbLine
 10
32.83672349896278
 20
1683.238420296539
 30
0.0
 11
31.93672349896269
 21
1684.138420296538
 31
0.0
  0
LINE
  5
1D20D
330
1A
100
AcDbEntity
  8
ZISSEN1
 48
0.5
100
AcDbLine
 10
33.83672349896278
 20
1683.238420296539
 30
0.0
 11
32.93672349896269
 21
1684.138420296538
 31
0.0
  0
LINE
  5
1D20E
330
1A
100
AcDbEntity
  8
ZISSEN1
 48
0.5
100
AcDbLine
 10
34.83672349896278
 20
1683.238420296539
 30
0.0
 11
33.93672349896269
 21
1684.138420296538
 31
0.0
  0
LINE
  5
1D20F
330
1A
100
AcDbEntity
  8
ZISSEN1
 48
0.5
100
AcDbLine
 10
35.63672349896296
 20
1683.438420296538
 30
0.0
 11
34.93672349896269
 21
1684.138420296538
 31
0.0
  0
LINE
  5
1D210
330
1A
100
AcDbEntity
  8
ZISSEN1
 48
0.5
100
AcDbLine
 10
31.83672349896278
 20
1683.238420296539
 30
0.0
 11
30.93672349896269
 21
1684.138420296538
 31
0.0
  0
LINE
  5
1D211
330
1A
100
AcDbEntity
  8
ZISSEN1
 48
0.5
100
AcDbLine
 10
30.83672349896278
 20
1683.238420296539
 30
0.0
 11
29.93672349896269
 21
1684.138420296538
 31
0.0
  0
LINE
  5
1D212
330
1A
100
AcDbEntity
  8
ZISSEN1
 48
0.5
100
AcDbLine
 10
29.83672349896278
 20
1683.238420296539
 30
0.0
 11
29.13672349896296
 21
1683.938420296538
 31
0.0
  0
LINE
  5
1D244
330
1A
100
AcDbEntity
  8
ZISSEN1
 48
0.5
100
AcDbLine
 10
167.8848657231325
 20
1681.738420296558
 30
0.0
 11
167.8848657231248
 21
1578.738420296539
 31
0.0
  0
LINE
  5
1D246
330
1A
100
AcDbEntity
  8
ZISSEN1
 48
0.5
100
AcDbLine
 10
171.884865723117
 20
1681.238420296539
 30
0.0
 11
171.8848657231175
 21
1581.738420296541
 31
0.0
  0
LINE
  5
1D247
330
1A
100
AcDbEntity
  8
ZISSEN1
 48
0.5
100
AcDbLine
 10
172.884865723117
 20
1682.238420296539
 30
0.0
 11
188.3848657231169
 21
1682.238420296539
 31
0.0
  0
LINE
  5
1D248
330
1A
100
AcDbEntity
  8
ZISSEN1
 48
0.5
100
AcDbLine
 10
172.8848657231175
 20
1580.738420296541
 30
0.0
 11
186.3848657231173
 21
1580.738420296539
 31
0.0
  0
LINE
  5
1D249
330
1A
100
AcDbEntity
  8
ZISSEN1
 48
0.5
100
AcDbLine
 10
187.3848657231173
 20
1581.738420296539
 30
0.0
 11
187.3848657231169
 21
1645.738420296539
 31
0.0
  0
LINE
  5
1D24A
330
1A
100
AcDbEntity
  8
ZISSEN1
 48
0.5
100
AcDbLine
 10
189.3848657231169
 20
1681.238420296539
 30
0.0
 11
189.3848657231169
 21
1645.738420296539
 31
0.0
  0
LINE
  5
1D24B
330
1A
100
AcDbEntity
  8
ZISSEN1
 48
0.5
100
AcDbLine
 10
187.3848657231169
 20
1645.738420296539
 30
0.0
 11
189.3848657231169
 21
1645.738420296539
 31
0.0
  0
ARC
  5
1D251
330
1A
100
AcDbEntity
  8
ZISSEN1
 48
0.5
100
AcDbCircle
 10
172.8848657231175
 20
1581.738420296541
 30
0.0
 40
1.0
100
AcDbArc
 50
180.0
 51
270.0
  0
ARC
  5
1D252
330
1A
100
AcDbEntity
  8
ZISSEN1
 48
0.5
100
AcDbCircle
 10
186.3848657231173
 20
1581.738420296539
 30
0.0
 40
1.0
100
AcDbArc
 50
270.0
 51
0.0
  0
ARC
  5
1D253
330
1A
100
AcDbEntity
  8
ZISSEN1
 48
0.5
100
AcDbCircle
 10
172.8848657231171
 20
1681.238420296539
 30
0.0
 40
1.0
100
AcDbArc
 50
90.0
 51
180.0
  0
ARC
  5
1D254
330
1A
100
AcDbEntity
  8
ZISSEN1
 48
0.5
100
AcDbCircle
 10
188.3848657231169
 20
1681.238420296539
 30
0.0
 40
1.0
100
AcDbArc
 50
0.0
 51
90.0
  0
LINE
  5
1D2AF
330
1A
100
AcDbEntity
  8
ZISSEN1
 48
0.5
100
AcDbLine
 10
27.88672349896296
 20
1760.047196897494
 30
0.0
 11
-6.113276501037034
 21
1760.047196897494
 31
0.0
  0
LINE
  5
1D2B0
330
1A
100
AcDbEntity
  8
ZISSEN1
 48
0.5
100
AcDbLine
 10
-6.113276501037034
 20
1749.047196897494
 30
0.0
 11
58.88672349896296
 21
1749.047196897494
 31
0.0
  0
LINE
  5
1D2B1
330
1A
100
AcDbEntity
  8
ZISSEN1
 48
0.5
100
AcDbLine
 10
-7.113276501037034
 20
1759.047196897494
 30
0.0
 11
-7.113276501037034
 21
1750.047196897494
 31
0.0
  0
ARC
  5
1D2B7
330
1A
100
AcDbEntity
  8
ZISSEN1
 48
0.5
100
AcDbCircle
 10
-6.113276501037034
 20
1759.047196897494
 30
0.0
 40
1.0
100
AcDbArc
 50
90.0
 51
180.0
  0
ARC
  5
1D2B8
330
1A
100
AcDbEntity
  8
ZISSEN1
 48
0.5
100
AcDbCircle
 10
-6.113276501037034
 20
1750.047196897494
 30
0.0
 40
1.0
100
AcDbArc
 50
180.0
 51
270.0
  0
LINE
  5
1D2B9
330
1A
100
AcDbEntity
  8
ZISSEN1
 48
0.5
100
AcDbLine
 10
187.884865723117
 20
1580.738420296539
 30
0.0
 11
202.384865723117
 21
1580.738420296539
 31
0.0
  0
LINE
  5
1D2BA
330
1A
100
AcDbEntity
  8
ZISSEN1
 48
0.5
100
AcDbLine
 10
202.384865723117
 20
1580.738420296539
 30
0.0
 11
202.384865723117
 21
1645.238420296539
 31
0.0
  0
LINE
  5
1D2BB
330
1A
100
AcDbEntity
  8
ZISSEN1
 48
0.5
100
AcDbLine
 10
187.884865723117
 20
1645.238420296539
 30
0.0
 11
187.884865723117
 21
1580.738420296539
 31
0.0
  0
LINE
  5
1D2BC
330
1A
100
AcDbEntity
  8
ZISSEN1
 48
0.5
100
AcDbLine
 10
202.384865723117
 20
1645.238420296539
 30
0.0
 11
200.384865723117
 21
1645.238420296539
 31
0.0
  0
LINE
  5
1D2BD
330
1A
100
AcDbEntity
  8
ZISSEN1
 48
0.5
100
AcDbLine
 10
200.384865723117
 20
1645.238420296539
 30
0.0
 11
200.384865723117
 21
1650.238420296539
 31
0.0
  0
LINE
  5
1D2BE
330
1A
100
AcDbEntity
  8
ZISSEN1
 48
0.5
100
AcDbLine
 10
196.3848657231176
 20
1650.238420296539
 30
0.0
 11
196.3848657231175
 21
1645.238420296539
 31
0.0
  0
LINE
  5
1D2BF
330
1A
100
AcDbEntity
  8
ZISSEN1
 48
0.5
100
AcDbLine
 10
187.884865723117
 20
1645.238420296539
 30
0.0
 11
196.3848657231175
 21
1645.238420296539
 31
0.0
  0
LINE
  5
1D2C0
330
1A
100
AcDbEntity
  8
ZISSEN1
 48
0.5
100
AcDbLine
 10
200.384865723117
 20
1650.238420296539
 30
0.0
 11
196.3848657231176
 21
1650.238420296539
 31
0.0
  0
LINE
  5
1D2C3
330
1A
100
AcDbEntity
  8
ZISSEN1
 48
0.5
100
AcDbLine
 10
98.88672349896296
 20
1774.447196897494
 30
0.0
 11
106.8867234989629
 21
1774.447196897494
 31
0.0
  0
LINE
  5
1D2C4
330
1A
100
AcDbEntity
  8
ZISSEN1
 48
0.5
100
AcDbLine
 10
106.8867234989629
 20
1774.447196897494
 30
0.0
 11
107.8867234989629
 21
1773.447196897494
 31
0.0
  0
LINE
  5
1D2C5
330
1A
100
AcDbEntity
  8
ZISSEN1
 48
0.5
100
AcDbLine
 10
-9.113276501037034
 20
1738.447196897494
 30
0.0
 11
-11.11327650103703
 21
1738.447196897493
 31
0.0
  0
LINE
  5
1D2C6
330
1A
100
AcDbEntity
  8
ZISSEN1
 48
0.5
100
AcDbLine
 10
-10.11327650103703
 20
1737.047196897494
 30
0.0
 11
-10.11327650103703
 21
1735.547196897494
 31
0.0
  0
LINE
  5
1D2C7
330
1A
100
AcDbEntity
  8
ZISSEN1
 48
0.5
100
AcDbLine
 10
-9.113276501037034
 20
1737.047196897494
 30
0.0
 11
-9.113276501037034
 21
1735.547196897494
 31
0.0
  0
LINE
  5
1D2C8
330
1A
100
AcDbEntity
  8
ZISSEN1
 48
0.5
100
AcDbLine
 10
97.38672349896308
 20
1739.047196897494
 30
0.0
 11
98.88672349896296
 21
1739.047196897494
 31
0.0
  0
LINE
  5
1D2D1
330
1A
100
AcDbEntity
  8
ZISSEN1
 48
0.5
100
AcDbLine
 10
205.784865723117
 20
1578.238420296539
 30
0.0
 11
205.784865723117
 21
1576.238420296539
 31
0.0
  0
LINE
  5
1D2D2
330
1A
100
AcDbEntity
  8
ZISSEN1
 48
0.5
100
AcDbLine
 10
169.784865723117
 20
1578.238420296539
 30
0.0
 11
169.784865723117
 21
1576.238420296539
 31
0.0
  0
LINE
  5
1D2D3
330
1A
100
AcDbEntity
  8
ZISSEN1
 48
0.5
100
AcDbLine
 10
169.784865723117
 20
1578.238420296539
 30
0.0
 11
169.784865723117
 21
1576.238420296539
 31
0.0
  0
DIMENSION
  5
1D2D4
330
1A
100
AcDbEntity
  8
SUNPOU
 48
0.5
100
AcDbDimension
  2
*D14
 10
167.8848657231248
 20
1566.238420296539
 30
0.0
 11
189.0848657231209
 21
1568.988420296539
 31
0.0
 70
    32
  3
標準スタイル
100
AcDbAlignedDimension
 13
210.284865723117
 23
1578.238420296539
 33
0.0
 14
167.8848657231248
 24
1578.738420296539
 34
0.0
100
AcDbRotatedDimension
1001
ACAD
1000
DSTYLE
1002
{
1070
   340
1005
10
1070
    40
1040
1.0
1002
}
  0
DIMENSION
  5
1D2D5
330
1A
100
AcDbEntity
  8
SUNPOU
 48
0.5
100
AcDbDimension
  2
*D15
 10
164.8848657231176
 20
1558.238420296539
 30
0.0
 11
187.5848657231173
 21
1560.988420296539
 31
0.0
 70
    32
  1
(<>)
  3
標準スタイル
100
AcDbAlignedDimension
 13
210.284865723117
 23
1578.738420296539
 33
0.0
 14
164.8848657231176
 24
1635.738420296539
 34
0.0
100
AcDbRotatedDimension
1001
ACAD
1000
DSTYLE
1002
{
1070
   340
1005
10
1070
    40
1040
1.0
1002
}
  0
LINE
  5
1D2D6
330
1A
100
AcDbEntity
  8
ZISSEN1
 48
0.5
100
AcDbLine
 10
-8.613276501037034
 20
1681.738420296539
 30
0.0
 11
-8.613276501037034
 21
1683.238420296539
 31
0.0
  0
LINE
  5
1D2DC
330
1A
100
AcDbEntity
  8
ZISSEN1
 48
0.5
100
AcDbLine
 10
97.38672349896274
 20
1739.047196897494
 30
0.0
 11
97.38672349896274
 21
1737.047196897494
 31
0.0
  0
LINE
  5
1D2DD
330
1A
100
AcDbEntity
  8
ZISSEN1
 48
0.5
100
AcDbLine
 10
64.08672349896346
 20
1767.547196897494
 30
0.0
 11
58.68672349896292
 21
1767.547196897494
 31
0.0
  0
LINE
  5
1D2E0
330
1A
100
AcDbEntity
  8
ZISSEN1
 48
0.5
100
AcDbLine
 10
64.08672349896301
 20
1763.847196897494
 30
0.0
 11
64.08672349896301
 21
1765.397196897493
 31
0.0
  0
LINE
  5
1D2E1
330
1A
100
AcDbEntity
  8
ZISSEN1
 48
0.5
100
AcDbLine
 10
64.08672349896301
 20
1765.397196897493
 30
0.0
 11
63.88672349896319
 21
1765.297196897494
 31
0.0
  0
LINE
  5
1D2E2
330
1A
100
AcDbEntity
  8
ZISSEN1
 48
0.5
100
AcDbLine
 10
63.88672349896319
 20
1765.297196897494
 30
0.0
 11
63.88672349896319
 21
1765.797196897494
 31
0.0
  0
LINE
  5
1D2E3
330
1A
100
AcDbEntity
  8
ZISSEN1
 48
0.5
100
AcDbLine
 10
63.88672349896319
 20
1765.797196897494
 30
0.0
 11
64.08672349896301
 21
1765.697196897494
 31
0.0
  0
LINE
  5
1D2E4
330
1A
100
AcDbEntity
  8
ZISSEN1
 48
0.5
100
AcDbLine
 10
64.08672349896301
 20
1765.697196897494
 30
0.0
 11
64.08672349896346
 21
1767.247196897494
 31
0.0
  0
LINE
  5
1D2E5
330
1A
100
AcDbEntity
  8
ZISSEN1
 48
0.5
100
AcDbLine
 10
64.08672349896346
 20
1767.547196897494
 30
0.0
 11
64.08672349896346
 21
1768.047196897494
 31
0.0
  0
LINE
  5
1D2E6
330
1A
100
AcDbEntity
  8
ZISSEN1
 48
0.5
100
AcDbLine
 10
58.68672349896292
 20
1763.847196897494
 30
0.0
 11
58.68672349896292
 21
1765.397196897493
 31
0.0
  0
LINE
  5
1D2E7
330
1A
100
AcDbEntity
  8
ZISSEN1
 48
0.5
100
AcDbLine
 10
58.68672349896292
 20
1765.397196897493
 30
0.0
 11
58.88672349896319
 21
1765.297196897494
 31
0.0
  0
LINE
  5
1D2E8
330
1A
100
AcDbEntity
  8
ZISSEN1
 48
0.5
100
AcDbLine
 10
58.88672349896319
 20
1765.297196897494
 30
0.0
 11
58.88672349896319
 21
1765.797196897494
 31
0.0
  0
LINE
  5
1D2E9
330
1A
100
AcDbEntity
  8
ZISSEN1
 48
0.5
100
AcDbLine
 10
58.88672349896319
 20
1765.797196897494
 30
0.0
 11
58.68672349896292
 21
1765.697196897494
 31
0.0
  0
LINE
  5
1D2EA
330
1A
100
AcDbEntity
  8
ZISSEN1
 48
0.5
100
AcDbLine
 10
58.68672349896292
 20
1765.697196897494
 30
0.0
 11
58.68672349896292
 21
1767.247196897494
 31
0.0
  0
LINE
  5
1D2EB
330
1A
100
AcDbEntity
  8
ZISSEN1
 48
0.5
100
AcDbLine
 10
58.68672349896292
 20
1767.547196897494
 30
0.0
 11
58.68672349896292
 21
1768.047196897494
 31
0.0
  0
LINE
  5
1D2EC
330
1A
100
AcDbEntity
  8
ZISSEN1
 48
0.5
100
AcDbLine
 10
64.38672349896319
 20
1763.847196897494
 30
0.0
 11
64.38672349896319
 21
1768.047196897494
 31
0.0
  0
LINE
  5
1D2ED
330
1A
100
AcDbEntity
  8
ZISSEN1
 48
0.5
100
AcDbLine
 10
64.38672349896319
 20
1768.047196897494
 30
0.0
 11
64.08672349896346
 21
1768.047196897494
 31
0.0
  0
LINE
  5
1D2EE
330
1A
100
AcDbEntity
  8
ZISSEN1
 48
0.5
100
AcDbLine
 10
58.68672349896292
 20
1768.047196897494
 30
0.0
 11
58.38672349896319
 21
1768.047196897494
 31
0.0
  0
LINE
  5
1D2EF
330
1A
100
AcDbEntity
  8
ZISSEN1
 48
0.5
100
AcDbLine
 10
58.38672349896319
 20
1768.047196897494
 30
0.0
 11
58.38672349896319
 21
1763.847196897494
 31
0.0
  0
LINE
  5
1D2F0
330
1A
100
AcDbEntity
  8
ZISSEN1
 48
0.5
100
AcDbLine
 10
58.38672349896319
 20
1763.847196897494
 30
0.0
 11
58.68672349896292
 21
1763.847196897494
 31
0.0
  0
LINE
  5
1D2F1
330
1A
100
AcDbEntity
  8
ZISSEN1
 48
0.5
100
AcDbLine
 10
64.08672349896301
 20
1763.847196897494
 30
0.0
 11
64.38672349896319
 21
1763.847196897494
 31
0.0
  0
LINE
  5
1D2F2
330
1A
100
AcDbEntity
  8
ZISSEN1
 48
0.5
100
AcDbLine
 10
64.08672349896301
 20
1763.847196897494
 30
0.0
 11
58.68672349896292
 21
1763.847196897494
 31
0.0
  0
LINE
  5
1D338
330
1A
100
AcDbEntity
  8
ZISSEN1
 48
0.5
100
AcDbLine
 10
-9.113276501037034
 20
1578.738420296539
 30
0.0
 11
-9.113276501037034
 21
1578.238420296539
 31
0.0
  0
LWPOLYLINE
  5
1D339
330
1A
100
AcDbEntity
  8
ZISSEN1
 48
0.5
100
AcDbPolyline
 90
        4
 70
     1
 43
0.0
 10
199.584865723117
 20
1647.613420296539
 10
200.384865723117
 20
1647.613420296539
 10
200.384865723117
 20
1648.863420296539
 10
199.584865723117
 20
1648.863420296539
  0
LWPOLYLINE
  5
1D33A
330
1A
100
AcDbEntity
  8
ZISSEN1
 48
0.5
100
AcDbPolyline
 90
        4
 70
     1
 43
0.0
 10
200.384865723117
 20
1647.613420296539
 10
200.134865723117
 20
1647.613420296539
 10
200.134865723117
 20
1648.863420296539
 10
200.384865723117
 20
1648.863420296539
  0
LWPOLYLINE
  5
1D33B
330
1A
100
AcDbEntity
  8
ZISSEN1
 48
0.5
100
AcDbPolyline
 90
        4
 70
     1
 43
0.0
 10
199.584865723117
 20
1645.613420296539
 10
200.384865723117
 20
1645.613420296539
 10
200.384865723117
 20
1646.863420296539
 10
199.584865723117
 20
1646.863420296539
  0
LWPOLYLINE
  5
1D33C
330
1A
100
AcDbEntity
  8
ZISSEN1
 48
0.5
100
AcDbPolyline
 90
        4
 70
     1
 43
0.0
 10
200.384865723117
 20
1645.613420296539
 10
200.134865723117
 20
1645.613420296539
 10
200.134865723117
 20
1646.863420296539
 10
200.384865723117
 20
1646.863420296539
  0
LINE
  5
1D33D
330
1A
100
AcDbEntity
  8
ZISSEN1
 48
0.5
100
AcDbLine
 10
98.88672349896303
 20
1679.438420296539
 30
0.0
 11
101.6367234989627
 21
1679.438420296539
 31
0.0
  0
LINE
  5
1D33E
330
1A
100
AcDbEntity
  8
ZISSEN1
 48
0.5
100
AcDbLine
 10
101.6367234989627
 20
1679.438420296539
 30
0.0
 11
101.6367234989627
 21
1662.03842029654
 31
0.0
  0
LINE
  5
1D33F
330
1A
100
AcDbEntity
  8
ZISSEN1
 48
0.5
100
AcDbLine
 10
101.6367234989627
 20
1662.03842029654
 30
0.0
 11
98.88672349896296
 21
1662.03842029654
 31
0.0
  0
LINE
  5
1D340
330
1A
100
AcDbEntity
  8
ZISSEN1
 48
0.5
100
AcDbLine
 10
98.88672349896296
 20
1661.438420296539
 30
0.0
 11
101.6367234989627
 21
1661.438420296539
 31
0.0
  0
LINE
  5
1D341
330
1A
100
AcDbEntity
  8
ZISSEN1
 48
0.5
100
AcDbLine
 10
101.6367234989627
 20
1661.438420296539
 30
0.0
 11
101.6367234989627
 21
1654.038420296539
 31
0.0
  0
LINE
  5
1D342
330
1A
100
AcDbEntity
  8
ZISSEN1
 48
0.5
100
AcDbLine
 10
101.6367234989627
 20
1654.038420296539
 30
0.0
 11
98.88672349896303
 21
1654.038420296539
 31
0.0
  0
LINE
  5
1D343
330
1A
100
AcDbEntity
  8
ZISSEN1
 48
0.5
100
AcDbLine
 10
200.384865723117
 20
1679.438420296539
 30
0.0
 11
193.6848657231167
 21
1679.438420296539
 31
0.0
  0
LINE
  5
1D344
330
1A
100
AcDbEntity
  8
ZISSEN1
 48
0.5
100
AcDbLine
 10
193.6848657231167
 20
1679.438420296539
 30
0.0
 11
193.684865723117
 21
1677.288420296538
 31
0.0
  0
LINE
  5
1D348
330
1A
100
AcDbEntity
  8
ZISSEN1
 48
0.5
100
AcDbLine
 10
193.684865723117
 20
1664.188420296539
 30
0.0
 11
193.6848657231167
 21
1662.03842029654
 31
0.0
  0
LINE
  5
1D349
330
1A
100
AcDbEntity
  8
ZISSEN1
 48
0.5
100
AcDbLine
 10
193.6848657231167
 20
1662.03842029654
 30
0.0
 11
200.384865723117
 21
1662.03842029654
 31
0.0
  0
LINE
  5
1D34A
330
1A
100
AcDbEntity
  8
ZISSEN1
 48
0.5
100
AcDbLine
 10
199.3848657231169
 20
1662.538420296539
 30
0.0
 11
194.1848657231167
 21
1662.538420296539
 31
0.0
  0
LINE
  5
1D34B
330
1A
100
AcDbEntity
  8
ZISSEN1
 48
0.5
100
AcDbLine
 10
194.1848657231167
 20
1662.538420296539
 30
0.0
 11
194.1848657231167
 21
1663.688420296539
 31
0.0
  0
LINE
  5
1D34C
330
1A
100
AcDbEntity
  8
ZISSEN1
 48
0.5
100
AcDbLine
 10
194.1848657231167
 20
1663.688420296539
 30
0.0
 11
194.6848657231167
 21
1663.688420296539
 31
0.0
  0
LINE
  5
1D34D
330
1A
100
AcDbEntity
  8
ZISSEN1
 48
0.5
100
AcDbLine
 10
194.6848657231167
 20
1663.688420296539
 30
0.0
 11
194.6848657231167
 21
1677.788420296538
 31
0.0
  0
LINE
  5
1D34E
330
1A
100
AcDbEntity
  8
ZISSEN1
 48
0.5
100
AcDbLine
 10
194.6848657231167
 20
1677.788420296538
 30
0.0
 11
194.1848657231167
 21
1677.788420296538
 31
0.0
  0
LINE
  5
1D34F
330
1A
100
AcDbEntity
  8
ZISSEN1
 48
0.5
100
AcDbLine
 10
194.1848657231167
 20
1677.788420296538
 30
0.0
 11
194.1848657231167
 21
1678.938420296539
 31
0.0
  0
LINE
  5
1D350
330
1A
100
AcDbEntity
  8
ZISSEN1
 48
0.5
100
AcDbLine
 10
194.1848657231167
 20
1678.938420296539
 30
0.0
 11
199.3848657231169
 21
1678.938420296539
 31
0.0
  0
LINE
  5
1D351
330
1A
100
AcDbEntity
  8
ZISSEN1
 48
0.5
100
AcDbLine
 10
199.3848657231169
 20
1678.938420296539
 30
0.0
 11
199.3848657231169
 21
1662.538420296539
 31
0.0
  0
LINE
  5
1D352
330
1A
100
AcDbEntity
  8
ZISSEN1
 48
0.5
100
AcDbLine
 10
200.384865723117
 20
1661.438420296539
 30
0.0
 11
193.6848657231161
 21
1661.438420296539
 31
0.0
  0
LINE
  5
1D353
330
1A
100
AcDbEntity
  8
ZISSEN1
 48
0.5
100
AcDbLine
 10
193.6848657231161
 20
1661.438420296539
 30
0.0
 11
193.6848657231161
 21
1659.288420296539
 31
0.0
  0
LINE
  5
1D357
330
1A
100
AcDbEntity
  8
ZISSEN1
 48
0.5
100
AcDbLine
 10
193.6848657231169
 20
1656.188420296539
 30
0.0
 11
193.6848657231169
 21
1654.038420296539
 31
0.0
  0
LINE
  5
1D358
330
1A
100
AcDbEntity
  8
ZISSEN1
 48
0.5
100
AcDbLine
 10
193.6848657231169
 20
1654.038420296539
 30
0.0
 11
200.3848657231162
 21
1654.038420296539
 31
0.0
  0
LINE
  5
1D359
330
1A
100
AcDbEntity
  8
ZISSEN1
 48
0.5
100
AcDbLine
 10
194.1848657231161
 20
1660.938420296539
 30
0.0
 11
194.1848657231161
 21
1659.788420296538
 31
0.0
  0
LINE
  5
1D35A
330
1A
100
AcDbEntity
  8
ZISSEN1
 48
0.5
100
AcDbLine
 10
194.1848657231161
 20
1659.788420296538
 30
0.0
 11
194.6848657231162
 21
1659.788420296538
 31
0.0
  0
LINE
  5
1D35B
330
1A
100
AcDbEntity
  8
ZISSEN1
 48
0.5
100
AcDbLine
 10
194.6848657231162
 20
1659.788420296538
 30
0.0
 11
194.6848657231162
 21
1655.688420296539
 31
0.0
  0
LINE
  5
1D35C
330
1A
100
AcDbEntity
  8
ZISSEN1
 48
0.5
100
AcDbLine
 10
194.6848657231162
 20
1655.688420296539
 30
0.0
 11
194.1848657231161
 21
1655.688420296539
 31
0.0
  0
LINE
  5
1D35D
330
1A
100
AcDbEntity
  8
ZISSEN1
 48
0.5
100
AcDbLine
 10
194.1848657231161
 20
1655.688420296539
 30
0.0
 11
194.1848657231162
 21
1654.538420296539
 31
0.0
  0
LINE
  5
1D35E
330
1A
100
AcDbEntity
  8
ZISSEN1
 48
0.5
100
AcDbLine
 10
194.1848657231162
 20
1654.538420296539
 30
0.0
 11
199.3848657231163
 21
1654.538420296539
 31
0.0
  0
LINE
  5
1D35F
330
1A
100
AcDbEntity
  8
ZISSEN1
 48
0.5
100
AcDbLine
 10
194.1848657231161
 20
1660.938420296539
 30
0.0
 11
199.3848657231164
 21
1660.938420296539
 31
0.0
  0
LINE
  5
1D360
330
1A
100
AcDbEntity
  8
ZISSEN1
 48
0.5
100
AcDbLine
 10
199.3848657231164
 20
1660.938420296539
 30
0.0
 11
199.3848657231164
 21
1654.538420296539
 31
0.0
  0
DIMENSION
  5
1D361
330
1A
100
AcDbEntity
  8
SUNPOU
 48
0.5
100
AcDbDimension
  2
*D16
 10
-46.11327650103703
 20
1735.547196897494
 30
0.0
 11
-48.86327650103731
 21
1756.747196897494
 31
0.0
 70
    32
  3
標準スタイル
100
AcDbAlignedDimension
 13
-9.113276501037034
 23
1777.947196897494
 33
0.0
 14
-10.11327650103703
 24
1735.547196897494
 34
0.0
 50
90.0
100
AcDbRotatedDimension
1001
ACAD
1000
DSTYLE
1002
{
1070
   340
1005
10
1070
    40
1040
1.0
1002
}
  0
DIMENSION
  5
1D362
330
1A
100
AcDbEntity
  8
SUNPOU
 48
0.5
100
AcDbDimension
  2
*D17
 10
-54.11327650103704
 20
1732.547196897494
 30
0.0
 11
-56.86327650103731
 21
1755.247196897494
 31
0.0
 70
    32
  1
(<>)
  3
標準スタイル
100
AcDbAlignedDimension
 13
-9.113276501037034
 23
1777.947196897494
 33
0.0
 14
85.88672349896194
 24
1732.547196897494
 34
0.0
 50
90.0
100
AcDbRotatedDimension
1001
ACAD
1000
DSTYLE
1002
{
1070
   340
1005
10
1070
    40
1040
1.0
1002
}
  0
DIMENSION
  5
1D363
330
1A
100
AcDbEntity
  8
SUNPOU
 48
0.5
100
AcDbDimension
  2
*D18
 10
-46.11327650103703
 20
1732.547196897494
 30
0.0
 11
-48.86327650103731
 21
1722.047196897494
 31
0.0
 70
    32
  1
(<>)
  3
標準スタイル
100
AcDbAlignedDimension
 13
-10.61327650103703
 23
1735.547196897494
 33
0.0
 14
-16.11327650103703
 24
1732.547196897494
 34
0.0
 50
90.0
100
AcDbRotatedDimension
1001
ACAD
1000
DSTYLE
1002
{
1070
   340
1005
10
1070
    40
1040
1.0
1002
}
  0
DIMENSION
  5
1D364
330
1A
100
AcDbEntity
  8
SUNPOU
 48
0.5
100
AcDbDimension
  2
*D19
 10
-28.11327650103703
 20
1683.238420296539
 30
0.0
 11
-30.86327650103731
 21
1629.738420296539
 31
0.0
 70
    32
  3
標準スタイル
100
AcDbAlignedDimension
 13
-20.11327650103703
 23
1576.238420296539
 33
0.0
 14
-11.11327650103703
 24
1683.238420296539
 34
0.0
 50
90.0
100
AcDbRotatedDimension
1001
ACAD
1000
DSTYLE
1002
{
1070
   340
1005
10
1070
    40
1040
1.0
1002
}
  0
DIMENSION
  5
1D365
330
1A
100
AcDbEntity
  8
SUNPOU
 48
0.5
100
AcDbDimension
  2
*D20
 10
-42.77471541079894
 20
1686.238420296538
 30
0.0
 11
-42.77471541079921
 21
1631.238420296539
 31
0.0
 70
   160
  1
(<>)
  3
標準スタイル
100
AcDbAlignedDimension
 13
-20.11327650103703
 23
1576.238420296539
 33
0.0
 14
31.38672349896273
 24
1686.238420296538
 34
0.0
 50
90.0
100
AcDbRotatedDimension
1001
ACAD
1000
DSTYLE
1002
{
1070
   340
1005
10
1070
    40
1040
1.0
1002
}
  0
DIMENSION
  5
1D366
330
1A
100
AcDbEntity
  8
SUNPOU
 48
0.5
100
AcDbDimension
  2
*D21
 10
-28.11327650103703
 20
1686.238420296538
 30
0.0
 11
-30.8632765010373
 21
1696.738420296538
 31
0.0
 70
    32
  1
(<>)
  3
標準スタイル
100
AcDbAlignedDimension
 13
-11.11327650103703
 23
1683.238420296539
 33
0.0
 14
-11.11327650103703
 24
1686.238420296538
 34
0.0
 50
90.0
100
AcDbRotatedDimension
1001
ACAD
1000
DSTYLE
1002
{
1070
   340
1005
10
1070
    40
1040
1.0
1002
}
  0
DIMENSION
  5
1D367
330
1A
100
AcDbEntity
  8
SUNPOU
 48
0.5
100
AcDbDimension
  2
*D22
 10
-30.11327650103703
 20
1737.447196897494
 30
0.0
 11
-32.86327650103731
 21
1755.947196897494
 31
0.0
 70
    32
  3
標準スタイル
100
AcDbAlignedDimension
 13
-19.11327650103703
 23
1774.447196897494
 33
0.0
 14
-19.11327650103703
 24
1737.447196897494
 34
0.0
 50
90.0
100
AcDbRotatedDimension
1001
ACAD
1000
DSTYLE
1002
{
1070
   340
1005
10
1070
    40
1040
1.0
1002
}
  0
DIMENSION
  5
1D368
330
1A
100
AcDbEntity
  8
SUNPOU
 48
0.5
100
AcDbDimension
  2
*D23
 10
-30.11327650103703
 20
1777.947196897494
 30
0.0
 11
-32.86327650103732
 21
1788.447196897494
 31
0.0
 70
    32
  3
標準スタイル
100
AcDbAlignedDimension
 13
-19.11327650103703
 23
1774.447196897494
 33
0.0
 14
-19.11327650103703
 24
1777.947196897494
 34
0.0
 50
90.0
100
AcDbRotatedDimension
1001
ACAD
1000
DSTYLE
1002
{
1070
   340
1005
10
1070
    40
1040
1.0
1002
}
  0
LINE
  5
1D36B
330
1A
100
AcDbEntity
  8
ZISSEN1
 48
0.5
100
AcDbLine
 10
10.88672349896296
 20
1766.647196897494
 30
0.0
 11
10.88672349896296
 21
1764.647196897493
 31
0.0
  0
LINE
  5
1D36C
330
1A
100
AcDbEntity
  8
ZISSEN1
 48
0.5
100
AcDbLine
 10
10.88672349896296
 20
1764.647196897493
 30
0.0
 11
23.88672349896296
 21
1764.647196897493
 31
0.0
  0
LINE
  5
1D36D
330
1A
100
AcDbEntity
  8
ZISSEN1
 48
0.5
100
AcDbLine
 10
23.88672349896296
 20
1764.647196897493
 30
0.0
 11
23.88672349896296
 21
1760.647196897494
 31
0.0
  0
LINE
  5
1D36E
330
1A
100
AcDbEntity
  8
ZISSEN1
 48
0.5
100
AcDbLine
 10
23.88672349896296
 20
1760.647196897494
 30
0.0
 11
-5.613276501037034
 21
1760.647196897494
 31
0.0
  0
LINE
  5
1D36F
330
1A
100
AcDbEntity
  8
ZISSEN1
 48
0.5
100
AcDbLine
 10
11.58672236197435
 20
1761.347195688315
 30
0.0
 11
22.88672349896296
 21
1761.347195688315
 31
0.0
  0
LINE
  5
1D370
330
1A
100
AcDbEntity
  8
ZISSEN1
100
AcDbLine
 10
23.88672349896296
 20
1761.347195688315
 30
0.0
 11
11.58672236197435
 21
1761.347195688315
 31
0.0
  0
LINE
  5
1D373
330
1A
100
AcDbEntity
  8
ZISSEN1
100
AcDbLine
 10
22.39672431290273
 20
1764.647196897493
 30
0.0
 11
22.39672431290273
 21
1761.347195688315
 31
0.0
  0
ARC
  5
1D376
330
1A
100
AcDbEntity
  8
ZISSEN1
100
AcDbCircle
 10
22.29672429485526
 20
1761.447195706363
 30
0.0
 40
0.1000000180474414
100
AcDbArc
 50
270.000002414787
 51
0.0000050084944671
  0
LINE
  5
1D37F
330
1A
100
AcDbEntity
  8
ZISSEN1
100
AcDbLine
 10
11.58672236197435
 20
1764.647196897493
 30
0.0
 11
11.58672236197435
 21
1761.347195688315
 31
0.0
  0
LINE
  5
1D380
330
1A
100
AcDbEntity
  8
ZISSEN1
100
AcDbLine
 10
13.37672268502319
 20
1764.647196897493
 30
0.0
 11
13.37672268502319
 21
1761.347195688315
 31
0.0
  0
ARC
  5
1D393
330
1A
100
AcDbEntity
  8
ZISSEN1
100
AcDbCircle
 10
13.47671936973665
 20
1761.447195706363
 30
0.0
 40
0.1000000180474414
100
AcDbArc
 50
180.0000000001042
 51
270.000002414787
  0
LWPOLYLINE
  5
1D39F
330
1A
100
AcDbEntity
  8
ZISSEN1
 48
0.5
100
AcDbPolyline
 90
        4
 70
     1
 43
0.0
 10
37.88828114575437
 20
1773.647196897494
 10
59.88828114575472
 20
1773.647196897494
 10
59.88828114575472
 20
1769.647196897494
 10
37.88828114575437
 20
1769.647196897494
  0
LINE
  5
1D3A0
330
1A
100
AcDbEntity
  8
ZISSEN1
100
AcDbLine
 10
54.88828114575472
 20
1761.347195688315
 30
0.0
 11
42.88828114575472
 21
1761.347195688315
 31
0.0
  0
LINE
  5
1D3A3
330
1A
100
AcDbEntity
  8
ZISSEN1
100
AcDbLine
 10
53.39672431290273
 20
1764.647196897493
 30
0.0
 11
53.39672431290273
 21
1761.347195688315
 31
0.0
  0
LINE
  5
1D3AF
330
1A
100
AcDbEntity
  8
ZISSEN1
100
AcDbLine
 10
44.37672268502319
 20
1764.647196897493
 30
0.0
 11
44.37672268502319
 21
1761.347195688315
 31
0.0
  0
LWPOLYLINE
  5
1D3CA
330
1A
100
AcDbEntity
  8
ZISSEN1
 48
0.5
100
AcDbPolyline
 90
        4
 70
     1
 43
0.0
 10
57.38672349896313
 20
1768.147196897493
 10
65.38672349896279
 20
1768.147196897493
 10
65.38672349896279
 20
1762.147196897494
 10
57.38672349896313
 20
1762.147196897494
  0
LWPOLYLINE
  5
1D3CB
330
1A
100
AcDbEntity
  8
ZISSEN1
 48
0.5
100
AcDbPolyline
 90
        4
 70
     1
 43
0.0
 10
42.88828114575472
 20
1760.647196897494
 10
54.88828114575472
 20
1760.647196897494
 10
54.88828114575472
 20
1764.647196897493
 10
42.88828114575472
 20
1764.647196897493
  0
LINE
  5
1D3CC
330
1A
100
AcDbEntity
  8
ZISSEN1
 48
0.5
100
AcDbLine
 10
64.08672349896346
 20
1767.247196897494
 30
0.0
 11
58.68672349896292
 21
1767.247196897494
 31
0.0
  0
LINE
  5
1D3D7
330
1A
100
AcDbEntity
  8
ZISSEN1
 48
0.5
100
AcDbLine
 10
36.88672349896296
 20
1759.047196897494
 30
0.0
 11
36.88672349896296
 21
1760.047196897494
 31
0.0
  0
LINE
  5
1D3D8
330
1A
100
AcDbEntity
  8
ZISSEN1
 48
0.5
100
AcDbLine
 10
36.88672349896296
 20
1760.047196897494
 30
0.0
 11
58.88672349896296
 21
1760.047196897494
 31
0.0
  0
LINE
  5
1D3DB
330
1A
100
AcDbEntity
  8
ZISSEN1
 48
0.5
100
AcDbLine
 10
59.88672349896297
 20
1759.047196897494
 30
0.0
 11
59.88672349896297
 21
1750.047196897494
 31
0.0
  0
ARC
  5
1D3DC
330
1A
100
AcDbEntity
  8
ZISSEN1
 48
0.5
100
AcDbCircle
 10
58.88672349896296
 20
1750.047196897494
 30
0.0
 40
1.0
100
AcDbArc
 50
270.0
 51
0.0
  0
ARC
  5
1D3DD
330
1A
100
AcDbEntity
  8
ZISSEN1
 48
0.5
100
AcDbCircle
 10
58.88672349896296
 20
1759.047196897494
 30
0.0
 40
1.0
100
AcDbArc
 50
0.0
 51
90.0
  0
LINE
  5
1D3DE
330
1A
100
AcDbEntity
  8
ZISSEN1
 48
0.5
100
AcDbLine
 10
36.88672349896296
 20
1759.047196897494
 30
0.0
 11
27.88672349896296
 21
1759.047196897494
 31
0.0
  0
LINE
  5
1D3DF
330
1A
100
AcDbEntity
  8
ZISSEN1
 48
0.5
100
AcDbLine
 10
27.88672349896296
 20
1759.047196897494
 30
0.0
 11
27.88672349896296
 21
1760.047196897494
 31
0.0
  0
LINE
  5
1D3E0
330
1A
100
AcDbEntity
  8
ZISSEN1
 48
0.5
100
AcDbLine
 10
-10.11327650103703
 20
1579.738420296539
 30
0.0
 11
-10.11327650103703
 21
1592.738420296539
 31
0.0
  0
LINE
  5
1D3E1
330
1A
100
AcDbEntity
  8
ZISSEN1
 48
0.5
100
AcDbLine
 10
-10.11327650103703
 20
1592.738420296539
 30
0.0
 11
-9.113276501037034
 21
1593.738420296539
 31
0.0
  0
LINE
  5
1D3E2
330
1A
100
AcDbEntity
  8
ZISSEN1
 48
0.5
100
AcDbLine
 10
-9.113276501037034
 20
1593.738420296539
 30
0.0
 11
-8.613276501037034
 21
1593.738420296539
 31
0.0
  0
LINE
  5
1D3E3
330
1A
100
AcDbEntity
  8
ZISSEN1
 48
0.5
100
AcDbLine
 10
-8.613276501037034
 20
1593.738420296539
 30
0.0
 11
-8.613276501036978
 21
1683.238420296539
 31
0.0
  0
LINE
  5
1D3E4
330
1A
100
AcDbEntity
  8
ZISSEN1
 48
0.5
100
AcDbLine
 10
-9.113276501037034
 20
1595.738420296539
 30
0.0
 11
-11.11327650103703
 21
1595.738420296539
 31
0.0
  0
CIRCLE
  5
1D3E7
330
1A
100
AcDbEntity
  8
ZISSEN1
 48
0.5
100
AcDbCircle
 10
30.38672349896296
 20
1601.238420296539
 30
0.0
 40
3.149999999999999
  0
LINE
  5
1D3F6
330
1A
100
AcDbEntity
  8
ZISSEN1
 48
0.5
100
AcDbLine
 10
167.8848657231264
 20
1598.088420296539
 30
0.0
 11
166.8886710250343
 21
1598.175576039286
 31
0.0
  0
LINE
  5
1D3F7
330
1A
100
AcDbEntity
  8
ZISSEN1
 48
0.5
100
AcDbLine
 10
167.8848657231264
 20
1604.388420296539
 30
0.0
 11
166.8886710250343
 21
1604.301264553791
 31
0.0
  0
ARC
  5
1D3F8
330
1A
100
AcDbEntity
  8
ZISSEN1
 48
0.5
100
AcDbCircle
 10
171.059494711725
 20
1601.238420296539
 30
0.0
 40
5.174628988598421
100
AcDbArc
 50
143.7083018726667
 51
216.2916981273332
  0
LINE
  5
1D418
330
1A
100
AcDbEntity
  8
ZISSEN1
 48
0.5
100
AcDbLine
 10
33.5367234989655
 20
1735.547196897494
 30
0.0
 11
33.4495677562183
 21
1734.551002199402
 31
0.0
  0
LINE
  5
1D419
330
1A
100
AcDbEntity
  8
ZISSEN1
 48
0.5
100
AcDbLine
 10
27.23672349896577
 20
1735.547196897494
 30
0.0
 11
27.32387924171343
 21
1734.551002199402
 31
0.0
  0
ARC
  5
1D41A
330
1A
100
AcDbEntity
  8
ZISSEN1
 48
0.5
100
AcDbCircle
 10
30.38672349896581
 20
1738.721825886092
 30
0.0
 40
5.174628988598421
100
AcDbArc
 50
233.7083018726678
 51
306.2916981273321
  0
XLINE
  5
1D844
330
1A
100
AcDbEntity
  8
SOUZOUSEN
100
AcDbXline
 10
-394.5618216101852
 20
1237.657465975985
 30
0.0
 11
-1.0
 21
0.0
 31
0.0
  0
LINE
  5
1DF7D
330
1A
100
AcDbEntity
  8
CL1
100
AcDbLine
 10
179.0848657231171
 20
1580.73842029654
 30
0.0
 11
179.0848657231171
 21
1572.845047268577
 31
0.0
  0
LINE
  5
1DF81
330
1A
100
AcDbEntity
  8
CL1
100
AcDbLine
 10
-16.11327650103703
 20
1580.355872128555
 30
0.0
 11
-16.11327650103703
 21
1572.856087672936
 31
0.0
  0
LINE
  5
1DF82
330
1A
100
AcDbEntity
  8
CL1
100
AcDbLine
 10
-16.11327650103703
 20
1572.856087672936
 30
0.0
 11
-16.11327650103703
 21
1580.355872128555
 31
0.0
  0
LINE
  5
1DF83
330
1A
100
AcDbEntity
  8
CL1
100
AcDbLine
 10
103.8867234989629
 20
1572.856087672936
 30
0.0
 11
103.8867234989629
 21
1580.355872128555
 31
0.0
  0
LINE
  5
1DF84
330
1A
100
AcDbEntity
  8
CL1
100
AcDbLine
 10
103.8867234989629
 20
1580.355872128555
 30
0.0
 11
103.8867234989629
 21
1572.856087672936
 31
0.0
  0
MTEXT
  5
1DF9F
330
1A
100
AcDbEntity
  8
ZISSEN1
100
AcDbMText
 10
141.9660654826285
 20
1742.167903899634
 30
0.0
 40
5.0
 41
108.3598999999999
 71
     1
 72
     5
  1
D-2620v1 No.SS0001f122
1001
ACAD
1000
MTEXTBEGIN
1070
    73
1070
     1
1070
    44
1040
1.0
1070
    74
1070
     0
1000
MTEXTEND
1000
MTEXTBEGIN
1070
    73
1070
     1
1070
    44
1040
1.0
1070
    74
1070
     0
1000
MTEXTEND
1000
MTEXTBEGIN
1070
    73
1070
     1
1070
    44
1040
1.0
1070
    74
1070
     0
1000
MTEXTEND
1000
MTEXTBEGIN
1070
    73
1070
     1
1070
    44
1040
1.0
1070
    74
1070
     0
1000
MTEXTEND
  0
VIEWPORT
  5
5D8F
330
5D8E
100
AcDbEntity
 67
     1
  8
0
100
AcDbViewport
 10
221.7824622688004
 20
157.6853926763233
 30
0.0
 40
559.9566361207892
 41
314.2372683715821
 68
     1
 69
     1
1001
ACAD
1000
MVIEW
1002
{
1070
    16
1010
0.0
1020
0.0
1030
0.0
1010
0.0
1020
0.0
1030
1.0
1040
0.0
1040
314.2372683715821
1040
221.7824622688004
1040
157.6853926763233
1040
50.0
1040
0.0
1040
0.0
1070
     0
1070
   100
1070
     1
1070
     0
1070
     0
1070
     0
1070
     0
1070
     0
1040
0.0
1040
0.0
1040
0.0
1040
1.0
1040
1.0
1040
10.0
1040
10.0
1070
     0
1002
{
1002
}
1002
}
  0
VIEWPORT
  5
6001
330
5D8E
100
AcDbEntity
 67
     1
  8
ZISSEN1
100
AcDbViewport
 10
221.7861955525411
 20
157.6960273330388
 30
0.0
 40
385.4999999999997
 41
259.9999999999999
 68
     2
 69
     2
1001
ACAD
1000
MVIEW
1002
{
1070
    16
1010
0.0
1020
0.0
1030
0.0
1010
0.0
1020
0.0
1030
1.0
1040
0.0
1040
259.9999999999999
1040
79.60452355056337
1040
1675.814449716184
1040
50.0
1040
0.0
1040
0.0
1070
     0
1070
   100
1070
     1
1070
     0
1070
     0
1070
     0
1070
     0
1070
     0
1040
0.0
1040
0.0
1040
0.0
1040
1.0
1040
1.0
1040
10.0
1040
10.0
1070
     0
1002
{
1002
}
1002
}
  0
TEXT
  5
716F
330
5D8E
100
AcDbEntity
 67
     1
  8
SUNPOU
 62
     0
100
AcDbText
 10
374.1863124306943
 20
60.86794705907585
 30
0.0
 40
3.5
  1
縮尺 1/1
  7
ゴシック体
100
AcDbText
  0
ENDSEC
  0
SECTION
  2
OBJECTS
  0
DICTIONARY
  5
C
330
0
100
AcDbDictionary
  3
ACAD_GROUP
350
D
  3
ACAD_LAYOUT
350
5C7D
  3
ACAD_MLINESTYLE
350
E
  3
ACAD_PLOTSETTINGS
350
5C7E
  3
ACAD_PLOTSTYLENAME
350
5C7B
  3
DWGPROPS
350
1E03C
  3
ACDBHEADERROUNDTRIPXREC
350
1E042
  0
DICTIONARY
  5
14053
330
2
100
AcDbDictionary
280
     1
  3
ACAD_LAYERFILTERS
360
14054
  0
DICTIONARY
  5
1A073
330
1A
100
AcDbDictionary
280
     1
  3
ACAD_LAYOUTSELFREF
360
1E062
  0
DICTIONARY
  5
1A075
330
5D8E
100
AcDbDictionary
280
     1
  3
ACAD_LAYOUTSELFREF
360
1E063
  0
DICTIONARY
  5
D
102
{ACAD_REACTORS
330
C
102
}
330
C
100
AcDbDictionary
  3
*A1
350
477D
  3
*A2
350
4C11
  3
*A3
350
4C12
  3
*A4
350
19E0C
  3
*A5
350
19B1E
  3
*A6
350
4C13
  3
*A7
350
19B97
  3
*A8
350
19BD5
  3
*A9
350
19B98
  3
*A10
350
19B99
  3
*A11
350
19B9A
  3
*A12
350
477E
  3
*A13
350
19BD3
  3
*A14
350
4781
  3
*A15
350
19BD6
  3
*A16
350
19E0D
  3
*A17
350
19DAA
  3
*A18
350
4C14
  3
*A19
350
19DAB
  3
*A20
350
19DB9
  3
*A21
350
19B30
  3
*A22
350
477F
  3
*A23
350
4C15
  3
*A24
350
4C16
  3
*A25
350
4C0E
  3
*A26
350
4C17
  3
*A27
350
1AA43
  3
*A28
350
1AA47
  3
*A29
350
1AA48
  3
*A30
350
1AA52
  3
*A31
350
1AADA
  3
*A32
350
1AADB
  3
*A33
350
19BD4
  3
*A34
350
1AAE4
  3
*A35
350
4780
  3
*A36
350
4C0F
  3
*A37
350
13E2E
  3
*A38
350
19B96
  3
*A39
350
4C10
  0
DICTIONARY
  5
5C7D
102
{ACAD_REACTORS
330
C
102
}
330
C
100
AcDbDictionary
  0
DICTIONARY
  5
E
102
{ACAD_REACTORS
330
C
102
}
330
C
100
AcDbDictionary
  3
STANDARD
350
13
  0
DICTIONARY
  5
5C7E
102
{ACAD_REACTORS
330
C
102
}
330
C
100
AcDbDictionary
  0
ACDBDICTIONARYWDFLT
  5
5C7B
102
{ACAD_REACTORS
330
C
102
}
330
C
100
AcDbDictionary
281
     1
  3
Normal
350
5C7C
100
AcDbDictionaryWithDefault
340
5C7C
  0
XRECORD
  5
1E03C
102
{ACAD_REACTORS
330
C
102
}
330
C
100
AcDbXrecord
  1
DWGPROPS COOKIE
  2

  3

  4

  6

  7

  8

  9

300
=
301
=
302
=
303
=
304
=
305
=
306
=
307
=
308
=
309
=
 40
1.890209953703703
 41
2450495.493631365
 42
2457778.508217049
  1

 90
        0
  0
DICTIONARY
  5
1E042
102
{ACAD_REACTORS
330
C
102
}
330
C
100
AcDbDictionary
  3
TSTACKALIGN
350
1E043
  3
TSTACKSIZE
350
1E044
  3
HYPERLINKBASE
350
1E045
  3
STYLESHEET
350
1E046
  3
LAYOUTDICT
350
1E047
  3
PLOTSETDICT
350
1E048
  3
PLOTSTYLNAMDICT
350
1E049
  3
LWETCUNION
350
1E04A
  3
INSUNITS
350
1E04B
  3
CEPSNTYPE
350
1E04C
  3
FINGERPRINTGUID
350
1E04D
  3
VERSIONGUID
350
1E04E
  3
PSVPSCALE
350
1E04F
  3
PUCSORTHOREF
350
1E050
  3
PUCSORTHOVIEW
350
1E051
  3
PUCSBASE
350
1E052
  3
PUCSORGTOP
350
1E053
  3
PUCSORGBOTTOM
350
1E054
  3
PUCSORGLEFT
350
1E055
  3
PUCSORGRIGHT
350
1E056
  3
PUCSORGFRONT
350
1E057
  3
PUCSORGBACK
350
1E058
  3
UCSORTHOREF
350
1E059
  3
UCSORTHOVIEW
350
1E05A
  3
UCSBASE
350
1E05B
  3
UCSORGTOP
350
1E05C
  3
UCSORGBOTTOM
350
1E05D
  3
UCSORGLEFT
350
1E05E
  3
UCSORGRIGHT
350
1E05F
  3
UCSORGFRONT
350
1E060
  3
UCSORGBACK
350
1E061
  0
DICTIONARY
  5
14054
102
{ACAD_REACTORS
330
14053
102
}
330
14053
100
AcDbDictionary
280
     1
  3
BASE
360
14055
  3
CASE
360
14056
  3
KIKOU
360
14057
  0
XRECORD
  5
1E062
102
{ACAD_REACTORS
330
1A073
102
}
330
1A073
100
AcDbXrecord
340
1A
  0
XRECORD
  5
1E063
102
{ACAD_REACTORS
330
1A075
102
}
330
1A075
100
AcDbXrecord
340
5D8E
  0
GROUP
  5
477D
102
{ACAD_REACTORS
330
D
102
}
330
D
100
AcDbGroup
300

 70
     1
 71
     1
  0
GROUP
  5
4C11
102
{ACAD_REACTORS
330
D
102
}
330
D
100
AcDbGroup
300

 70
     1
 71
     1
  0
GROUP
  5
4C12
102
{ACAD_REACTORS
330
D
102
}
330
D
100
AcDbGroup
300

 70
     1
 71
     1
  0
GROUP
  5
19E0C
102
{ACAD_REACTORS
330
D
102
}
330
D
100
AcDbGroup
300

 70
     1
 71
     1
  0
GROUP
  5
19B1E
102
{ACAD_REACTORS
330
D
102
}
330
D
100
AcDbGroup
300

 70
     1
 71
     1
  0
GROUP
  5
4C13
102
{ACAD_REACTORS
330
D
102
}
330
D
100
AcDbGroup
300

 70
     1
 71
     1
  0
GROUP
  5
19B97
102
{ACAD_REACTORS
330
D
102
}
330
D
100
AcDbGroup
300

 70
     1
 71
     1
  0
GROUP
  5
19BD5
102
{ACAD_REACTORS
330
D
102
}
330
D
100
AcDbGroup
300

 70
     1
 71
     1
  0
GROUP
  5
19B98
102
{ACAD_REACTORS
330
D
102
}
330
D
100
AcDbGroup
300

 70
     1
 71
     1
  0
GROUP
  5
19B99
102
{ACAD_REACTORS
330
D
102
}
330
D
100
AcDbGroup
300

 70
     1
 71
     1
  0
GROUP
  5
19B9A
102
{ACAD_REACTORS
330
D
102
}
330
D
100
AcDbGroup
300

 70
     1
 71
     1
  0
GROUP
  5
477E
102
{ACAD_REACTORS
330
D
102
}
330
D
100
AcDbGroup
300

 70
     1
 71
     1
  0
GROUP
  5
19BD3
102
{ACAD_REACTORS
330
D
102
}
330
D
100
AcDbGroup
300

 70
     1
 71
     1
  0
GROUP
  5
4781
102
{ACAD_REACTORS
330
D
102
}
330
D
100
AcDbGroup
300

 70
     1
 71
     1
  0
GROUP
  5
19BD6
102
{ACAD_REACTORS
330
D
102
}
330
D
100
AcDbGroup
300

 70
     1
 71
     1
  0
GROUP
  5
19E0D
102
{ACAD_REACTORS
330
D
102
}
330
D
100
AcDbGroup
300

 70
     1
 71
     1
  0
GROUP
  5
19DAA
102
{ACAD_REACTORS
330
D
102
}
330
D
100
AcDbGroup
300

 70
     1
 71
     1
  0
GROUP
  5
4C14
102
{ACAD_REACTORS
330
D
102
}
330
D
100
AcDbGroup
300

 70
     1
 71
     1
  0
GROUP
  5
19DAB
102
{ACAD_REACTORS
330
D
102
}
330
D
100
AcDbGroup
300

 70
     1
 71
     1
  0
GROUP
  5
19DB9
102
{ACAD_REACTORS
330
D
102
}
330
D
100
AcDbGroup
300

 70
     1
 71
     1
  0
GROUP
  5
19B30
102
{ACAD_REACTORS
330
D
102
}
330
D
100
AcDbGroup
300

 70
     1
 71
     1
  0
GROUP
  5
477F
102
{ACAD_REACTORS
330
D
102
}
330
D
100
AcDbGroup
300

 70
     1
 71
     1
  0
GROUP
  5
4C15
102
{ACAD_REACTORS
330
D
102
}
330
D
100
AcDbGroup
300

 70
     1
 71
     1
  0
GROUP
  5
4C16
102
{ACAD_REACTORS
330
D
102
}
330
D
100
AcDbGroup
300

 70
     1
 71
     1
  0
GROUP
  5
4C0E
102
{ACAD_REACTORS
330
D
102
}
330
D
100
AcDbGroup
300

 70
     1
 71
     1
  0
GROUP
  5
4C17
102
{ACAD_REACTORS
330
D
102
}
330
D
100
AcDbGroup
300

 70
     1
 71
     1
  0
GROUP
  5
1AA43
102
{ACAD_REACTORS
330
D
102
}
330
D
100
AcDbGroup
300

 70
     1
 71
     1
  0
GROUP
  5
1AA47
102
{ACAD_REACTORS
330
D
102
}
330
D
100
AcDbGroup
300

 70
     1
 71
     1
  0
GROUP
  5
1AA48
102
{ACAD_REACTORS
330
D
102
}
330
D
100
AcDbGroup
300

 70
     1
 71
     1
  0
GROUP
  5
1AA52
102
{ACAD_REACTORS
330
D
102
}
330
D
100
AcDbGroup
300

 70
     1
 71
     1
  0
GROUP
  5
1AADA
102
{ACAD_REACTORS
330
D
102
}
330
D
100
AcDbGroup
300

 70
     1
 71
     1
  0
GROUP
  5
1AADB
102
{ACAD_REACTORS
330
D
102
}
330
D
100
AcDbGroup
300

 70
     1
 71
     1
  0
GROUP
  5
19BD4
102
{ACAD_REACTORS
330
D
102
}
330
D
100
AcDbGroup
300

 70
     1
 71
     1
  0
GROUP
  5
1AAE4
102
{ACAD_REACTORS
330
D
102
}
330
D
100
AcDbGroup
300

 70
     1
 71
     1
  0
GROUP
  5
4780
102
{ACAD_REACTORS
330
D
102
}
330
D
100
AcDbGroup
300

 70
     1
 71
     1
  0
GROUP
  5
4C0F
102
{ACAD_REACTORS
330
D
102
}
330
D
100
AcDbGroup
300

 70
     1
 71
     1
  0
GROUP
  5
13E2E
102
{ACAD_REACTORS
330
D
102
}
330
D
100
AcDbGroup
300

 70
     1
 71
     1
  0
GROUP
  5
19B96
102
{ACAD_REACTORS
330
D
102
}
330
D
100
AcDbGroup
300

 70
     1
 71
     1
  0
GROUP
  5
4C10
102
{ACAD_REACTORS
330
D
102
}
330
D
100
AcDbGroup
300

 70
     1
 71
     1
  0
MLINESTYLE
  5
13
102
{ACAD_REACTORS
330
E
102
}
330
E
100
AcDbMlineStyle
  2
STANDARD
 70
     0
  3

 62
     0
 51
90.0
 52
90.0
 71
     2
 49
0.5
 62
   256
  6
BYLAYER
 49
-0.5
 62
   256
  6
BYLAYER
  0
ACDBPLACEHOLDER
  5
5C7C
102
{ACAD_REACTORS
330
5C7B
102
}
330
5C7B
100
AcDbPlaceHolder
280
     0
  0
XRECORD
  5
1E043
102
{ACAD_REACTORS
330
1E042
102
}
330
1E042
100
AcDbXrecord
 90
        1
  0
XRECORD
  5
1E044
102
{ACAD_REACTORS
330
1E042
102
}
330
1E042
100
AcDbXrecord
 90
       70
  0
XRECORD
  5
1E045
102
{ACAD_REACTORS
330
1E042
102
}
330
1E042
100
AcDbXrecord
  1

  0
XRECORD
  5
1E046
102
{ACAD_REACTORS
330
1E042
102
}
330
1E042
100
AcDbXrecord
  1

  0
XRECORD
  5
1E047
102
{ACAD_REACTORS
330
1E042
102
}
330
1E042
100
AcDbXrecord
340
5C7D
  0
XRECORD
  5
1E048
102
{ACAD_REACTORS
330
1E042
102
}
330
1E042
100
AcDbXrecord
340
5C7E
  0
XRECORD
  5
1E049
102
{ACAD_REACTORS
330
1E042
102
}
330
1E042
100
AcDbXrecord
340
5C7B
  0
XRECORD
  5
1E04A
102
{ACAD_REACTORS
330
1E042
102
}
330
1E042
100
AcDbXrecord
 90
    10781
  0
XRECORD
  5
1E04B
102
{ACAD_REACTORS
330
1E042
102
}
330
1E042
100
AcDbXrecord
 90
        0
  0
XRECORD
  5
1E04C
102
{ACAD_REACTORS
330
1E042
102
}
330
1E042
100
AcDbXrecord
 90
        0
  0
XRECORD
  5
1E04D
102
{ACAD_REACTORS
330
1E042
102
}
330
1E042
100
AcDbXrecord
  1
{225A7F0D-DA29-11D8-946A-0000E2416295}
  0
XRECORD
  5
1E04E
102
{ACAD_REACTORS
330
1E042
102
}
330
1E042
100
AcDbXrecord
  1
{2AE9DA59-B5AD-440E-BF74-AA4B66570D17}
  0
XRECORD
  5
1E04F
102
{ACAD_REACTORS
330
1E042
102
}
330
1E042
100
AcDbXrecord
 40
0.0
  0
XRECORD
  5
1E050
102
{ACAD_REACTORS
330
1E042
102
}
330
1E042
100
AcDbXrecord
340
0
  0
XRECORD
  5
1E051
102
{ACAD_REACTORS
330
1E042
102
}
330
1E042
100
AcDbXrecord
 70
     0
  0
XRECORD
  5
1E052
102
{ACAD_REACTORS
330
1E042
102
}
330
1E042
100
AcDbXrecord
340
0
  0
XRECORD
  5
1E053
102
{ACAD_REACTORS
330
1E042
102
}
330
1E042
100
AcDbXrecord
 10
0.0
 20
0.0
 30
0.0
  0
XRECORD
  5
1E054
102
{ACAD_REACTORS
330
1E042
102
}
330
1E042
100
AcDbXrecord
 10
0.0
 20
0.0
 30
0.0
  0
XRECORD
  5
1E055
102
{ACAD_REACTORS
330
1E042
102
}
330
1E042
100
AcDbXrecord
 10
0.0
 20
0.0
 30
0.0
  0
XRECORD
  5
1E056
102
{ACAD_REACTORS
330
1E042
102
}
330
1E042
100
AcDbXrecord
 10
0.0
 20
0.0
 30
0.0
  0
XRECORD
  5
1E057
102
{ACAD_REACTORS
330
1E042
102
}
330
1E042
100
AcDbXrecord
 10
0.0
 20
0.0
 30
0.0
  0
XRECORD
  5
1E058
102
{ACAD_REACTORS
330
1E042
102
}
330
1E042
100
AcDbXrecord
 10
0.0
 20
0.0
 30
0.0
  0
XRECORD
  5
1E059
102
{ACAD_REACTORS
330
1E042
102
}
330
1E042
100
AcDbXrecord
340
0
  0
XRECORD
  5
1E05A
102
{ACAD_REACTORS
330
1E042
102
}
330
1E042
100
AcDbXrecord
 70
     0
  0
XRECORD
  5
1E05B
102
{ACAD_REACTORS
330
1E042
102
}
330
1E042
100
AcDbXrecord
340
0
  0
XRECORD
  5
1E05C
102
{ACAD_REACTORS
330
1E042
102
}
330
1E042
100
AcDbXrecord
 10
0.0
 20
0.0
 30
0.0
  0
XRECORD
  5
1E05D
102
{ACAD_REACTORS
330
1E042
102
}
330
1E042
100
AcDbXrecord
 10
0.0
 20
0.0
 30
0.0
  0
XRECORD
  5
1E05E
102
{ACAD_REACTORS
330
1E042
102
}
330
1E042
100
AcDbXrecord
 10
0.0
 20
0.0
 30
0.0
  0
XRECORD
  5
1E05F
102
{ACAD_REACTORS
330
1E042
102
}
330
1E042
100
AcDbXrecord
 10
0.0
 20
0.0
 30
0.0
  0
XRECORD
  5
1E060
102
{ACAD_REACTORS
330
1E042
102
}
330
1E042
100
AcDbXrecord
 10
0.0
 20
0.0
 30
0.0
  0
XRECORD
  5
1E061
102
{ACAD_REACTORS
330
1E042
102
}
330
1E042
100
AcDbXrecord
 10
0.0
 20
0.0
 30
0.0
  0
XRECORD
  5
14055
102
{ACAD_REACTORS
330
14054
102
}
330
14054
100
AcDbXrecord
  1
BASE
  1
BASE*
  1
*
  1
*
 70
     0
  1
*
  1
*
  0
XRECORD
  5
14056
102
{ACAD_REACTORS
330
14054
102
}
330
14054
100
AcDbXrecord
  1
CASE
  1
CASE*
  1
*
  1
*
 70
     0
  1
*
  1
*
  0
XRECORD
  5
14057
102
{ACAD_REACTORS
330
14054
102
}
330
14054
100
AcDbXrecord
  1
KIKOU
  1
KIKOU*
  1
*
  1
*
 70
     0
  1
*
  1
*
  0
ENDSEC
  0
EOF
