  0
SECTION
  2
HEADER
  9
$ACADVER
  1
AC1014
  9
$ACADMAINTVER
 70
     9
  9
$DWGCODEPAGE
  3
ANSI_932
  9
$INSBASE
 10
0.0
 20
0.0
 30
0.0
  9
$EXTMIN
 10
-2168.599885736451
 20
1730.821805105529
 30
0.0
  9
$EXTMAX
 10
-2011.984337453206
 20
1933.584629918286
 30
0.0
  9
$LIMMIN
 10
0.0
 20
0.0
  9
$LIMMAX
 10
420.0
 20
297.0
  9
$ORTHOMODE
 70
     1
  9
$REGENMODE
 70
     1
  9
$FILLMODE
 70
     1
  9
$QTEXTMODE
 70
     0
  9
$MIRRTEXT
 70
     1
  9
$DRAGMODE
 70
     2
  9
$LTSCALE
 40
1.0
  9
$OSMODE
 70
    37
  9
$ATTMODE
 70
     1
  9
$TEXTSIZE
 40
2.5
  9
$TRACEWID
 40
1.0
  9
$TEXTSTYLE
  7
ゴシック体
  9
$CLAYER
  8
SUNPOU
  9
$CELTYPE
  6
BYLAYER
  9
$CECOLOR
 62
   256
  9
$CELTSCALE
 40
1.0
  9
$DELOBJ
 70
     1
  9
$DISPSILH
 70
     0
  9
$DIMSCALE
 40
0.0
  9
$DIMASZ
 40
3.0
  9
$DIMEXO
 40
0.5
  9
$DIMDLI
 40
0.5
  9
$DIMRND
 40
0.0
  9
$DIMDLE
 40
0.0
  9
$DIMEXE
 40
0.5
  9
$DIMTP
 40
0.0
  9
$DIMTM
 40
0.0
  9
$DIMTXT
 40
3.5
  9
$DIMCEN
 40
0.0
  9
$DIMTSZ
 40
0.0
  9
$DIMTOL
 70
     0
  9
$DIMLIM
 70
     0
  9
$DIMTIH
 70
     0
  9
$DIMTOH
 70
     0
  9
$DIMSE1
 70
     0
  9
$DIMSE2
 70
     0
  9
$DIMTAD
 70
     1
  9
$DIMZIN
 70
     8
  9
$DIMBLK
  1

  9
$DIMASO
 70
     1
  9
$DIMSHO
 70
     1
  9
$DIMPOST
  1

  9
$DIMAPOST
  1

  9
$DIMALT
 70
     0
  9
$DIMALTD
 70
     2
  9
$DIMALTF
 40
25.4
  9
$DIMLFAC
 40
1.0
  9
$DIMTOFL
 70
     1
  9
$DIMTVP
 40
0.0
  9
$DIMTIX
 70
     0
  9
$DIMSOXD
 70
     0
  9
$DIMSAH
 70
     0
  9
$DIMBLK1
  1

  9
$DIMBLK2
  1

  9
$DIMSTYLE
  2
標準スタイル
  9
$DIMCLRD
 70
     1
  9
$DIMCLRE
 70
     1
  9
$DIMCLRT
 70
     1
  9
$DIMTFAC
 40
1.0
  9
$DIMGAP
 40
1.0
  9
$DIMJUST
 70
     0
  9
$DIMSD1
 70
     0
  9
$DIMSD2
 70
     0
  9
$DIMTOLJ
 70
     1
  9
$DIMTZIN
 70
     8
  9
$DIMALTZ
 70
     0
  9
$DIMALTTZ
 70
     0
  9
$DIMFIT
 70
     3
  9
$DIMUPT
 70
     0
  9
$DIMUNIT
 70
     2
  9
$DIMDEC
 70
     2
  9
$DIMTDEC
 70
     2
  9
$DIMALTU
 70
     2
  9
$DIMALTTD
 70
     2
  9
$DIMTXSTY
  7
ゴシック体
  9
$DIMAUNIT
 70
     0
  9
$LUNITS
 70
     2
  9
$LUPREC
 70
     4
  9
$SKETCHINC
 40
1.0
  9
$FILLETRAD
 40
0.0
  9
$AUNITS
 70
     0
  9
$AUPREC
 70
     0
  9
$MENU
  1
.
  9
$ELEVATION
 40
0.0
  9
$PELEVATION
 40
0.0
  9
$THICKNESS
 40
0.0
  9
$LIMCHECK
 70
     0
  9
$BLIPMODE
 70
     0
  9
$CHAMFERA
 40
10.0
  9
$CHAMFERB
 40
10.0
  9
$CHAMFERC
 40
2.0
  9
$CHAMFERD
 40
0.7853981633974483
  9
$SKPOLY
 70
     0
  9
$TDCREATE
 40
2450495.493631365
  9
$TDUPDATE
 40
2457500.581192129
  9
$TDINDWG
 40
1.7893142708
  9
$TDUSRTIMER
 40
1.7893142708
  9
$USRTIMER
 70
     1
  9
$ANGBASE
 50
0.0
  9
$ANGDIR
 70
     0
  9
$PDMODE
 70
    99
  9
$PDSIZE
 40
0.0
  9
$PLINEWID
 40
0.0
  9
$COORDS
 70
     1
  9
$SPLFRAME
 70
     0
  9
$SPLINETYPE
 70
     6
  9
$SPLINESEGS
 70
     8
  9
$ATTDIA
 70
     0
  9
$ATTREQ
 70
     1
  9
$HANDLING
 70
 10241
  9
$HANDSEED
  5
141A9
  9
$SURFTAB1
 70
     6
  9
$SURFTAB2
 70
     6
  9
$SURFTYPE
 70
     6
  9
$SURFU
 70
     6
  9
$SURFV
 70
     6
  9
$UCSNAME
  2

  9
$UCSORG
 10
0.0
 20
0.0
 30
0.0
  9
$UCSXDIR
 10
1.0
 20
0.0
 30
0.0
  9
$UCSYDIR
 10
0.0
 20
1.0
 30
0.0
  9
$PUCSNAME
  2

  9
$PUCSORG
 10
0.0
 20
0.0
 30
0.0
  9
$PUCSXDIR
 10
1.0
 20
0.0
 30
0.0
  9
$PUCSYDIR
 10
0.0
 20
1.0
 30
0.0
  9
$USERI1
 70
     0
  9
$USERI2
 70
     0
  9
$USERI3
 70
     0
  9
$USERI4
 70
     0
  9
$USERI5
 70
     0
  9
$USERR1
 40
0.0
  9
$USERR2
 40
0.0
  9
$USERR3
 40
0.0
  9
$USERR4
 40
0.0
  9
$USERR5
 40
0.0
  9
$WORLDVIEW
 70
     1
  9
$SHADEDGE
 70
     3
  9
$SHADEDIF
 70
    70
  9
$TILEMODE
 70
     0
  9
$MAXACTVP
 70
    16
  9
$PINSBASE
 10
0.0
 20
0.0
 30
0.0
  9
$PLIMCHECK
 70
     0
  9
$PEXTMIN
 10
29.03619555254135
 20
27.69602733303884
 30
0.0
  9
$PEXTMAX
 10
414.5361955525411
 20
287.6960273330388
 30
0.0
  9
$PLIMMIN
 10
11.80641799422963
 20
9.191695569508402
  9
$PLIMMAX
 10
431.7530732676671
 20
306.202346204274
  9
$UNITMODE
 70
     0
  9
$VISRETAIN
 70
     0
  9
$PLINEGEN
 70
     0
  9
$PSLTSCALE
 70
     1
  9
$TREEDEPTH
 70
  3020
  9
$PICKSTYLE
 70
     1
  9
$CMLSTYLE
  2
STANDARD
  9
$CMLJUST
 70
     0
  9
$CMLSCALE
 40
1.0
  9
$PROXYGRAPHICS
 70
     1
  9
$MEASUREMENT
 70
     1
  0
ENDSEC
  0
SECTION
  2
CLASSES
  0
CLASS
  1
LWPOLYLINE
  2
AcDbPolyline
  3
AutoCAD 2000
 90
        0
280
     0
281
     1
  0
CLASS
  1
HATCH
  2
AcDbHatch
  3
AutoCAD 2000
 90
        0
280
     0
281
     1
  0
CLASS
  1
ACDBDICTIONARYWDFLT
  2
AcDbDictionaryWithDefault
  3
AutoCAD 2000
 90
        0
280
     0
281
     0
  0
CLASS
  1
ACDBPLACEHOLDER
  2
AcDbPlaceHolder
  3
AutoCAD 2000
 90
        0
280
     0
281
     0
  0
CLASS
  1
LAYOUT
  2
AcDbLayout
  3
AutoCAD 2000
 90
        0
280
     0
281
     0
  0
CLASS
  1
LONG_TRANSACTION
  2
AcDbLongTransaction
  3
AutoCAD 2000
 90
        0
280
     0
281
     0
  0
CLASS
  1
LWPOLYLINE
  2
AcDbPolyline
  3
AutoCAD 2000
 90
        0
280
     0
281
     1
  0
CLASS
  1
HATCH
  2
AcDbHatch
  3
AutoCAD 2000
 90
        0
280
     0
281
     1
  0
CLASS
  1
XRECORD
  2
AcDbXrecord
  3
AutoCAD 2000
 90
        0
280
     0
281
     0
  0
ENDSEC
  0
SECTION
  2
TABLES
  0
TABLE
  2
VPORT
  5
8
330
0
100
AcDbSymbolTable
 70
     1
  0
VPORT
  5
14136
330
8
100
AcDbSymbolTableRecord
100
AcDbViewportTableRecord
  2
*ACTIVE
 70
     0
 10
0.0
 20
0.0
 11
1.0
 21
1.0
 12
-2090.27356317125
 22
1832.22309373946
 13
0.0
 23
0.0
 14
5.0
 24
5.0
 15
0.0
 25
0.0
 16
0.0
 26
0.0
 36
1.0
 17
0.0
 27
0.0
 37
0.0
 40
205.1244874726935
 41
1.781954887218045
 42
50.0
 43
0.0
 44
0.0
 50
0.0
 51
0.0
 71
     0
 72
   100
 73
     1
 74
     0
 75
     0
 76
     0
 77
     0
 78
     0
  0
ENDTAB
  0
TABLE
  2
LTYPE
  5
5
330
0
100
AcDbSymbolTable
 70
     2
  0
LTYPE
  5
14
330
5
100
AcDbSymbolTableRecord
100
AcDbLinetypeTableRecord
  2
BYBLOCK
 70
     0
  3

 72
    65
 73
     0
 40
0.0
  0
LTYPE
  5
15
330
5
100
AcDbSymbolTableRecord
100
AcDbLinetypeTableRecord
  2
BYLAYER
 70
     0
  3

 72
    65
 73
     0
 40
0.0
  0
LTYPE
  5
16
330
5
100
AcDbSymbolTableRecord
100
AcDbLinetypeTableRecord
  2
CONTINUOUS
 70
     0
  3
Solid line
 72
    65
 73
     0
 40
0.0
  0
LTYPE
  5
1956
330
5
100
AcDbSymbolTableRecord
100
AcDbLinetypeTableRecord
  2
CENTERX2
 70
     0
  3
________  __  ________  __  ________  __  _____
 72
    65
 73
     4
 40
4.0
 49
2.5
 74
     0
 49
-0.5
 74
     0
 49
0.5
 74
     0
 49
-0.5
 74
     0
  0
ENDTAB
  0
TABLE
  2
LAYER
  5
2
102
{ACAD_XDICTIONARY
360
12E5E
102
}
330
0
100
AcDbSymbolTable
 70
     6
  0
LAYER
  5
F
330
2
100
AcDbSymbolTableRecord
100
AcDbLayerTableRecord
  2
0
 70
     0
 62
     7
  6
CONTINUOUS
  0
LAYER
  5
18F
330
2
100
AcDbSymbolTableRecord
100
AcDbLayerTableRecord
  2
ZISSEN1
 70
     0
 62
     7
  6
CONTINUOUS
  0
LAYER
  5
191
330
2
100
AcDbSymbolTableRecord
100
AcDbLayerTableRecord
  2
SAISEN
 70
     0
 62
     1
  6
CONTINUOUS
  0
LAYER
  5
529
330
2
100
AcDbSymbolTableRecord
100
AcDbLayerTableRecord
  2
SUNPOU
 70
     0
 62
     1
  6
CONTINUOUS
  0
LAYER
  5
195A
330
2
100
AcDbSymbolTableRecord
100
AcDbLayerTableRecord
  2
CL1
 70
     0
 62
   210
  6
CENTERX2
  0
LAYER
  5
3A9B
330
2
100
AcDbSymbolTableRecord
100
AcDbLayerTableRecord
  2
DEFPOINTS
 70
     0
 62
     7
  6
CONTINUOUS
  0
ENDTAB
  0
TABLE
  2
STYLE
  5
3
330
0
100
AcDbSymbolTable
 70
     2
  0
STYLE
  5
10
330
3
100
AcDbSymbolTableRecord
100
AcDbTextStyleTableRecord
  2
STANDARD
 70
     0
 40
0.0
 41
1.0
 50
0.0
 71
     0
 42
3.0
  3
txt
  4
BigFont
  0
STYLE
  5
1960
330
3
100
AcDbSymbolTableRecord
100
AcDbTextStyleTableRecord
  2
ゴシック体
 70
     0
 40
0.0
 41
1.0
 50
0.0
 71
     0
 42
2.5
  3
MS Gothic.ttf
  4

1001
ACAD
1000
MS Gothic
1071
    32817
  0
ENDTAB
  0
TABLE
  2
VIEW
  5
6
330
0
100
AcDbSymbolTable
 70
     0
  0
ENDTAB
  0
TABLE
  2
UCS
  5
7
330
0
100
AcDbSymbolTable
 70
     0
  0
ENDTAB
  0
TABLE
  2
APPID
  5
9
330
0
100
AcDbSymbolTable
 70
     5
  0
APPID
  5
11
330
9
100
AcDbSymbolTableRecord
100
AcDbRegAppTableRecord
  2
ACAD
 70
     0
  0
APPID
  5
4005
330
9
100
AcDbSymbolTableRecord
100
AcDbRegAppTableRecord
  2
CONTENTTABDATA
 70
     0
  0
APPID
  5
4006
330
9
100
AcDbSymbolTableRecord
100
AcDbRegAppTableRecord
  2
CONTENTCURRENTTAB
 70
     0
  0
APPID
  5
477B
330
9
100
AcDbSymbolTableRecord
100
AcDbRegAppTableRecord
  2
CONTENTBLOCKDESCRIPTION
 70
     0
  0
APPID
  5
477C
330
9
100
AcDbSymbolTableRecord
100
AcDbRegAppTableRecord
  2
CONTENTBLOCKICON
 70
     0
  0
ENDTAB
  0
TABLE
  2
DIMSTYLE
  5
A
330
0
100
AcDbSymbolTable
 70
     3
  0
DIMSTYLE
105
1D
330
A
100
AcDbSymbolTableRecord
100
AcDbDimStyleTableRecord
  2
STANDARD
 70
     0
  3

  4

  5

  6

  7

 40
1.0
 41
0.18
 42
0.0625
 43
0.38
 44
0.18
 45
0.0
 46
0.0
 47
0.0
 48
0.0
140
0.18
141
0.09
142
0.0
143
25.4
144
1.0
145
0.0
146
1.0
147
0.09
 71
     0
 72
     0
 73
     1
 74
     1
 75
     0
 76
     0
 77
     0
 78
     0
170
     0
171
     2
172
     0
173
     0
174
     0
175
     0
176
     0
177
     0
178
     0
270
     2
271
     4
272
     4
273
     2
274
     2
340
10
275
     0
280
     0
281
     0
282
     0
283
     1
284
     0
285
     0
286
     0
287
     3
288
     0
  0
DIMSTYLE
105
52E
102
{ACAD_REACTORS
330
13D1D
330
13D65
330
13D7F
330
13D8C
330
13D99
330
13DC4
330
13FA4
330
13DB5
330
13DD1
102
}
330
A
100
AcDbSymbolTableRecord
100
AcDbDimStyleTableRecord
  2
標準スタイル
 70
     0
  3

  4

  5

  6

  7

 40
0.0
 41
3.0
 42
0.5
 43
0.5
 44
0.5
 45
0.0
 46
0.0
 47
0.0
 48
0.0
140
3.5
141
0.0
142
0.0
143
25.4
144
1.0
145
0.0
146
1.0
147
1.0
 71
     0
 72
     0
 73
     0
 74
     0
 75
     0
 76
     0
 77
     1
 78
     8
170
     0
171
     2
172
     1
173
     0
174
     0
175
     0
176
     1
177
     1
178
     1
270
     2
271
     2
272
     2
273
     2
274
     2
340
1960
275
     0
280
     0
281
     0
282
     0
283
     1
284
     8
285
     0
286
     0
287
     3
288
     0
  0
DIMSTYLE
105
12F69
102
{ACAD_REACTORS
330
13218
330
1321C
330
1325E
330
1326C
330
133BA
330
13225
330
13231
330
13223
330
13224
330
1325F
102
}
330
A
100
AcDbSymbolTableRecord
100
AcDbDimStyleTableRecord
  2
矢2_5-字2_5
 70
     0
  3

  4

  5

  6

  7

 40
1.0
 41
2.5
 42
0.5
 43
0.5
 44
0.5
 45
0.0
 46
0.0
 47
0.0
 48
0.0
140
2.5
141
0.0
142
0.0
143
25.4
144
1.0
145
0.0
146
1.0
147
1.0
 71
     0
 72
     0
 73
     0
 74
     0
 75
     0
 76
     0
 77
     1
 78
     8
170
     0
171
     2
172
     1
173
     0
174
     0
175
     0
176
     1
177
     1
178
     1
270
     2
271
     2
272
     2
273
     2
274
     2
340
1960
275
     0
280
     0
281
     0
282
     0
283
     1
284
     8
285
     0
286
     0
287
     3
288
     0
  0
ENDTAB
  0
TABLE
  2
BLOCK_RECORD
  5
1
330
0
100
AcDbSymbolTable
 70
    19
  0
BLOCK_RECORD
  5
1A
102
{ACAD_XDICTIONARY
360
1415C
102
}
330
1
100
AcDbSymbolTableRecord
100
AcDbBlockTableRecord
  2
*MODEL_SPACE
  0
BLOCK_RECORD
  5
5D8E
102
{ACAD_XDICTIONARY
360
1415E
102
}
330
1
100
AcDbSymbolTableRecord
100
AcDbBlockTableRecord
  2
*PAPER_SPACE
  0
BLOCK_RECORD
  5
134B8
330
1
100
AcDbSymbolTableRecord
100
AcDbBlockTableRecord
  2
*D0
  0
BLOCK_RECORD
  5
134C4
330
1
100
AcDbSymbolTableRecord
100
AcDbBlockTableRecord
  2
*D1
  0
BLOCK_RECORD
  5
134D0
330
1
100
AcDbSymbolTableRecord
100
AcDbBlockTableRecord
  2
*D2
  0
BLOCK_RECORD
  5
134DC
330
1
100
AcDbSymbolTableRecord
100
AcDbBlockTableRecord
  2
*D3
  0
BLOCK_RECORD
  5
134EA
330
1
100
AcDbSymbolTableRecord
100
AcDbBlockTableRecord
  2
*D4
  0
BLOCK_RECORD
  5
1352C
330
1
100
AcDbSymbolTableRecord
100
AcDbBlockTableRecord
  2
*D5
  0
BLOCK_RECORD
  5
13560
330
1
100
AcDbSymbolTableRecord
100
AcDbBlockTableRecord
  2
*D6
  0
BLOCK_RECORD
  5
1356C
330
1
100
AcDbSymbolTableRecord
100
AcDbBlockTableRecord
  2
*D7
  0
BLOCK_RECORD
  5
1357A
330
1
100
AcDbSymbolTableRecord
100
AcDbBlockTableRecord
  2
*D8
  0
BLOCK_RECORD
  5
13588
330
1
100
AcDbSymbolTableRecord
100
AcDbBlockTableRecord
  2
*D9
  0
BLOCK_RECORD
  5
13D1E
330
1
100
AcDbSymbolTableRecord
100
AcDbBlockTableRecord
  2
*D10
  0
BLOCK_RECORD
  5
13D66
330
1
100
AcDbSymbolTableRecord
100
AcDbBlockTableRecord
  2
*D11
  0
BLOCK_RECORD
  5
13D80
330
1
100
AcDbSymbolTableRecord
100
AcDbBlockTableRecord
  2
*D12
  0
BLOCK_RECORD
  5
13D8D
330
1
100
AcDbSymbolTableRecord
100
AcDbBlockTableRecord
  2
*D13
  0
BLOCK_RECORD
  5
13D9A
330
1
100
AcDbSymbolTableRecord
100
AcDbBlockTableRecord
  2
*D14
  0
BLOCK_RECORD
  5
13DB6
330
1
100
AcDbSymbolTableRecord
100
AcDbBlockTableRecord
  2
*D15
  0
BLOCK_RECORD
  5
13DC5
330
1
100
AcDbSymbolTableRecord
100
AcDbBlockTableRecord
  2
*D16
  0
BLOCK_RECORD
  5
13DD2
330
1
100
AcDbSymbolTableRecord
100
AcDbBlockTableRecord
  2
*D17
  0
BLOCK_RECORD
  5
13FA5
330
1
100
AcDbSymbolTableRecord
100
AcDbBlockTableRecord
  2
*D18
  0
ENDTAB
  0
ENDSEC
  0
SECTION
  2
BLOCKS
  0
BLOCK
  5
1B
330
1A
100
AcDbEntity
  8
0
100
AcDbBlockBegin
  2
*MODEL_SPACE
 70
     0
 10
0.0
 20
0.0
 30
0.0
  3
*MODEL_SPACE
  1

  0
ENDBLK
  5
1C
330
1A
100
AcDbEntity
  8
0
100
AcDbBlockEnd
  0
BLOCK
  5
5E60
330
5D8E
100
AcDbEntity
 67
     1
  8
0
100
AcDbBlockBegin
  2
*PAPER_SPACE
 70
     0
 10
0.0
 20
0.0
 30
0.0
  3
*PAPER_SPACE
  1

  0
ENDBLK
  5
5E61
330
5D8E
100
AcDbEntity
 67
     1
  8
0
100
AcDbBlockEnd
  0
BLOCK
  5
134C2
330
134B8
100
AcDbEntity
  8
0
100
AcDbBlockBegin
  2
*D0
 70
     1
 10
0.0
 20
0.0
 30
0.0
  3
*D0
  1

  0
LINE
  5
13FD4
330
134B8
100
AcDbEntity
  8
SUNPOU
 62
     1
100
AcDbLine
 10
-2082.034337453208
 20
1765.12180510553
 30
0.0
 11
-2062.489301917225
 21
1765.12180510553
 31
0.0
  0
LINE
  5
13FD5
330
134B8
100
AcDbEntity
  8
SUNPOU
 62
     1
100
AcDbLine
 10
-2104.984337453205
 20
1739.321805105529
 30
0.0
 11
-2062.489301917225
 21
1739.321805105529
 31
0.0
  0
LINE
  5
13FD6
330
134B8
100
AcDbEntity
  8
SUNPOU
 62
     1
100
AcDbLine
 10
-2062.989301917224
 20
1762.62180510553
 30
0.0
 11
-2062.989301917224
 21
1741.821805105529
 31
0.0
  0
SOLID
  5
13FD7
330
134B8
100
AcDbEntity
  8
SUNPOU
 62
     1
100
AcDbTrace
 10
-2063.405968583891
 20
1762.62180510553
 30
0.0
 11
-2062.572635250558
 21
1762.62180510553
 31
0.0
 12
-2062.989301917224
 22
1765.12180510553
 32
0.0
 13
-2062.989301917224
 23
1765.12180510553
 33
0.0
  0
SOLID
  5
13FD8
330
134B8
100
AcDbEntity
  8
SUNPOU
 62
     1
100
AcDbTrace
 10
-2063.405968583891
 20
1741.821805105529
 30
0.0
 11
-2062.572635250558
 21
1741.821805105529
 31
0.0
 12
-2062.989301917224
 22
1739.321805105529
 32
0.0
 13
-2062.989301917224
 23
1739.321805105529
 33
0.0
  0
MTEXT
  5
13FD9
330
134B8
100
AcDbEntity
  8
SUNPOU
 62
     1
100
AcDbMText
 10
-2065.739301917225
 20
1752.221805105529
 30
0.0
 40
3.5
 41
0.0
 71
     5
 72
     1
  1
\A1;25.8
 11
0.0000000000000001
 21
1.0
 31
0.0
1001
ACAD
1000
MTEXTBEGIN
1070
    73
1070
     1
1070
    44
1040
1.0
1070
    74
1070
     0
1000
MTEXTEND
  0
POINT
  5
13FDA
330
134B8
100
AcDbEntity
  8
DEFPOINTS
 62
     0
100
AcDbPoint
 10
-2082.534337453208
 20
1765.12180510553
 30
0.0
  0
POINT
  5
13FDB
330
134B8
100
AcDbEntity
  8
DEFPOINTS
 62
     0
100
AcDbPoint
 10
-2105.484337453205
 20
1739.321805105529
 30
0.0
  0
POINT
  5
13FDC
330
134B8
100
AcDbEntity
  8
DEFPOINTS
 62
     0
100
AcDbPoint
 10
-2062.989301917224
 20
1739.321805105529
 30
0.0
  0
ENDBLK
  5
134C3
330
134B8
100
AcDbEntity
  8
0
100
AcDbBlockEnd
  0
BLOCK
  5
134CE
330
134C4
100
AcDbEntity
  8
0
100
AcDbBlockBegin
  2
*D1
 70
     1
 10
0.0
 20
0.0
 30
0.0
  3
*D1
  1

  0
LINE
  5
14039
330
134C4
100
AcDbEntity
  8
SUNPOU
 62
     1
100
AcDbLine
 10
-2079.484337453205
 20
1806.321805105529
 30
0.0
 11
-2070.629301917225
 21
1806.321805105529
 31
0.0
  0
LINE
  5
1403A
330
134C4
100
AcDbEntity
  8
SUNPOU
 62
     1
100
AcDbLine
 10
-2079.484337453205
 20
1894.321805105529
 30
0.0
 11
-2070.629301917225
 21
1894.321805105529
 31
0.0
  0
LINE
  5
1403B
330
134C4
100
AcDbEntity
  8
SUNPOU
 62
     1
100
AcDbLine
 10
-2071.129301917225
 20
1808.821805105529
 30
0.0
 11
-2071.129301917225
 21
1891.821805105529
 31
0.0
  0
SOLID
  5
1403C
330
134C4
100
AcDbEntity
  8
SUNPOU
 62
     1
100
AcDbTrace
 10
-2071.545968583892
 20
1808.821805105529
 30
0.0
 11
-2070.712635250559
 21
1808.821805105529
 31
0.0
 12
-2071.129301917225
 22
1806.321805105529
 32
0.0
 13
-2071.129301917225
 23
1806.321805105529
 33
0.0
  0
SOLID
  5
1403D
330
134C4
100
AcDbEntity
  8
SUNPOU
 62
     1
100
AcDbTrace
 10
-2071.545968583892
 20
1891.821805105529
 30
0.0
 11
-2070.712635250559
 21
1891.821805105529
 31
0.0
 12
-2071.129301917225
 22
1894.321805105529
 32
0.0
 13
-2071.129301917225
 23
1894.321805105529
 33
0.0
  0
MTEXT
  5
1403E
330
134C4
100
AcDbEntity
  8
SUNPOU
 62
     1
100
AcDbMText
 10
-2073.879301917226
 20
1850.321805105529
 30
0.0
 40
3.5
 41
0.0
 71
     5
 72
     1
  1
\A1;88
 11
0.0000000000000001
 21
1.0
 31
0.0
1001
ACAD
1000
MTEXTBEGIN
1070
    73
1070
     1
1070
    44
1040
1.0
1070
    74
1070
     0
1000
MTEXTEND
  0
POINT
  5
1403F
330
134C4
100
AcDbEntity
  8
DEFPOINTS
 62
     0
100
AcDbPoint
 10
-2079.984337453205
 20
1806.321805105529
 30
0.0
  0
POINT
  5
14040
330
134C4
100
AcDbEntity
  8
DEFPOINTS
 62
     0
100
AcDbPoint
 10
-2079.984337453205
 20
1894.321805105529
 30
0.0
  0
POINT
  5
14041
330
134C4
100
AcDbEntity
  8
DEFPOINTS
 62
     0
100
AcDbPoint
 10
-2071.129301917225
 20
1894.321805105529
 30
0.0
  0
ENDBLK
  5
134CF
330
134C4
100
AcDbEntity
  8
0
100
AcDbBlockEnd
  0
BLOCK
  5
134DA
330
134D0
100
AcDbEntity
  8
0
100
AcDbBlockBegin
  2
*D2
 70
     1
 10
0.0
 20
0.0
 30
0.0
  3
*D2
  1

  0
LINE
  5
14160
330
134D0
100
AcDbEntity
  8
SUNPOU
 62
     1
100
AcDbLine
 10
-2145.484337453205
 20
1808.821805105529
 30
0.0
 11
-2145.484337453205
 21
1794.842997137765
 31
0.0
  0
LINE
  5
14161
330
134D0
100
AcDbEntity
  8
SUNPOU
 62
     1
100
AcDbLine
 10
-2155.984337453205
 20
1805.821805105529
 30
0.0
 11
-2155.984337453205
 21
1794.842997137765
 31
0.0
  0
LINE
  5
14162
330
134D0
100
AcDbEntity
  8
SUNPOU
 62
     1
100
AcDbLine
 10
-2147.984337453205
 20
1795.342997137765
 30
0.0
 11
-2153.484337453205
 21
1795.342997137765
 31
0.0
  0
MTEXT
  5
14163
330
134D0
100
AcDbEntity
  8
SUNPOU
 62
     1
100
AcDbMText
 10
-2150.619948847357
 20
1798.104126710715
 30
0.0
 40
3.5
 41
0.0
 71
     5
 72
     1
  1
\A1;10.5
  0
SOLID
  5
14164
330
134D0
100
AcDbEntity
  8
SUNPOU
 62
     1
100
AcDbTrace
 10
-2147.984337453205
 20
1795.759663804432
 30
0.0
 11
-2147.984337453205
 21
1794.926330471098
 31
0.0
 12
-2145.484337453205
 22
1795.342997137765
 32
0.0
 13
-2145.484337453205
 23
1795.342997137765
 33
0.0
  0
SOLID
  5
14165
330
134D0
100
AcDbEntity
  8
SUNPOU
 62
     1
100
AcDbTrace
 10
-2153.484337453205
 20
1795.759663804432
 30
0.0
 11
-2153.484337453205
 21
1794.926330471098
 31
0.0
 12
-2155.984337453205
 22
1795.342997137765
 32
0.0
 13
-2155.984337453205
 23
1795.342997137765
 33
0.0
  0
POINT
  5
14166
330
134D0
100
AcDbEntity
  8
DEFPOINTS
 62
     0
100
AcDbPoint
 10
-2145.484337453205
 20
1809.321805105529
 30
0.0
  0
POINT
  5
14167
330
134D0
100
AcDbEntity
  8
DEFPOINTS
 62
     0
100
AcDbPoint
 10
-2155.984337453205
 20
1806.321805105529
 30
0.0
  0
POINT
  5
14168
330
134D0
100
AcDbEntity
  8
DEFPOINTS
 62
     0
100
AcDbPoint
 10
-2155.984337453205
 20
1795.342997137765
 30
0.0
  0
ENDBLK
  5
134DB
330
134D0
100
AcDbEntity
  8
0
100
AcDbBlockEnd
  0
BLOCK
  5
134E8
330
134DC
100
AcDbEntity
  8
0
100
AcDbBlockBegin
  2
*D3
 70
     1
 10
0.0
 20
0.0
 30
0.0
  3
*D3
  1

  0
LINE
  5
14169
330
134DC
100
AcDbEntity
  8
SUNPOU
 62
     1
100
AcDbLine
 10
-2156.484337453205
 20
1806.321805105529
 30
0.0
 11
-2164.484553949666
 21
1806.321805105529
 31
0.0
  0
LINE
  5
1416A
330
134DC
100
AcDbEntity
  8
SUNPOU
 62
     1
100
AcDbLine
 10
-2157.87553545837
 20
1810.321805105529
 30
0.0
 11
-2164.484553949666
 21
1810.321805105529
 31
0.0
  0
LINE
  5
1416B
330
134DC
100
AcDbEntity
  8
SUNPOU
 62
     1
100
AcDbLine
 10
-2163.984553949666
 20
1803.821805105529
 30
0.0
 11
-2163.984553949666
 21
1801.321805105529
 31
0.0
  0
LINE
  5
1416C
330
134DC
100
AcDbEntity
  8
SUNPOU
 62
     1
100
AcDbLine
 10
-2163.984553949666
 20
1812.821805105529
 30
0.0
 11
-2163.984553949666
 21
1815.321805105529
 31
0.0
  0
MTEXT
  5
1416D
330
134DC
100
AcDbEntity
  8
SUNPOU
 62
     1
100
AcDbMText
 10
-2166.754728593523
 20
1808.010496721473
 30
0.0
 40
3.5
 41
0.0
 71
     5
 72
     1
  1
\A1;4
 11
0.0000000000000001
 21
1.0
 31
0.0
  0
LINE
  5
1416E
330
134DC
100
AcDbEntity
  8
SUNPOU
 62
     1
100
AcDbLine
 10
-2163.984553949666
 20
1806.321805105529
 30
0.0
 11
-2163.984553949666
 21
1810.321805105529
 31
0.0
  0
SOLID
  5
1416F
330
134DC
100
AcDbEntity
  8
SUNPOU
 62
     1
100
AcDbTrace
 10
-2164.401220616332
 20
1803.821805105529
 30
0.0
 11
-2163.567887282999
 21
1803.821805105529
 31
0.0
 12
-2163.984553949666
 22
1806.321805105529
 32
0.0
 13
-2163.984553949666
 23
1806.321805105529
 33
0.0
  0
SOLID
  5
14170
330
134DC
100
AcDbEntity
  8
SUNPOU
 62
     1
100
AcDbTrace
 10
-2164.401220616332
 20
1812.821805105529
 30
0.0
 11
-2163.567887282999
 21
1812.821805105529
 31
0.0
 12
-2163.984553949666
 22
1810.321805105529
 32
0.0
 13
-2163.984553949666
 23
1810.321805105529
 33
0.0
  0
POINT
  5
14171
330
134DC
100
AcDbEntity
  8
DEFPOINTS
 62
     0
100
AcDbPoint
 10
-2155.984337453205
 20
1806.321805105529
 30
0.0
  0
POINT
  5
14172
330
134DC
100
AcDbEntity
  8
DEFPOINTS
 62
     0
100
AcDbPoint
 10
-2157.37553545837
 20
1810.321805105529
 30
0.0
  0
POINT
  5
14173
330
134DC
100
AcDbEntity
  8
DEFPOINTS
 62
     0
100
AcDbPoint
 10
-2163.984553949666
 20
1810.321805105529
 30
0.0
  0
ENDBLK
  5
134E9
330
134DC
100
AcDbEntity
  8
0
100
AcDbBlockEnd
  0
BLOCK
  5
134F6
330
134EA
100
AcDbEntity
  8
0
100
AcDbBlockBegin
  2
*D4
 70
     1
 10
0.0
 20
0.0
 30
0.0
  3
*D4
  1

  0
LINE
  5
140FC
330
134EA
100
AcDbEntity
  8
ZISSEN1
 62
     1
100
AcDbLine
 10
-2139.484337453205
 20
1809.821805105529
 30
0.0
 11
-2139.484337453205
 21
1794.842997137765
 31
0.0
  0
LINE
  5
140FD
330
134EA
100
AcDbEntity
  8
ZISSEN1
 62
     1
100
AcDbLine
 10
-2145.484337453205
 20
1808.321805105529
 30
0.0
 11
-2145.484337453205
 21
1794.842997137765
 31
0.0
  0
LINE
  5
140FE
330
134EA
100
AcDbEntity
  8
ZISSEN1
 62
     1
100
AcDbLine
 10
-2136.984337453205
 20
1795.342997137765
 30
0.0
 11
-2134.484337453205
 21
1795.342997137765
 31
0.0
  0
LINE
  5
140FF
330
134EA
100
AcDbEntity
  8
ZISSEN1
 62
     1
100
AcDbLine
 10
-2147.984337453205
 20
1795.342997137765
 30
0.0
 11
-2150.484337453205
 21
1795.342997137765
 31
0.0
  0
LINE
  5
14100
330
134EA
100
AcDbEntity
  8
ZISSEN1
 62
     1
100
AcDbLine
 10
-2139.484337453205
 20
1795.342997137765
 30
0.0
 11
-2145.484337453205
 21
1795.342997137765
 31
0.0
  0
SOLID
  5
14101
330
134EA
100
AcDbEntity
  8
ZISSEN1
 62
     1
100
AcDbTrace
 10
-2136.984337453205
 20
1795.759663804432
 30
0.0
 11
-2136.984337453205
 21
1794.926330471098
 31
0.0
 12
-2139.484337453205
 22
1795.342997137765
 32
0.0
 13
-2139.484337453205
 23
1795.342997137765
 33
0.0
  0
SOLID
  5
14102
330
134EA
100
AcDbEntity
  8
ZISSEN1
 62
     1
100
AcDbTrace
 10
-2147.984337453205
 20
1795.759663804432
 30
0.0
 11
-2147.984337453205
 21
1794.926330471098
 31
0.0
 12
-2145.484337453205
 22
1795.342997137765
 32
0.0
 13
-2145.484337453205
 23
1795.342997137765
 33
0.0
  0
MTEXT
  5
14103
330
134EA
100
AcDbEntity
  8
ZISSEN1
 62
     1
100
AcDbMText
 10
-2142.484337453205
 20
1798.092997137765
 30
0.0
 40
3.5
 41
0.0
 71
     5
 72
     1
  1
\A1;6
1001
ACAD
1000
MTEXTBEGIN
1070
    73
1070
     1
1070
    44
1040
1.0
1070
    74
1070
     0
1000
MTEXTEND
  0
POINT
  5
14104
330
134EA
100
AcDbEntity
  8
DEFPOINTS
 62
     0
100
AcDbPoint
 10
-2139.484337453205
 20
1810.321805105529
 30
0.0
  0
POINT
  5
14105
330
134EA
100
AcDbEntity
  8
DEFPOINTS
 62
     0
100
AcDbPoint
 10
-2145.484337453205
 20
1808.821805105529
 30
0.0
  0
POINT
  5
14106
330
134EA
100
AcDbEntity
  8
DEFPOINTS
 62
     0
100
AcDbPoint
 10
-2145.484337453205
 20
1795.342997137765
 30
0.0
  0
ENDBLK
  5
134F7
330
134EA
100
AcDbEntity
  8
0
100
AcDbBlockEnd
  0
BLOCK
  5
13536
330
1352C
100
AcDbEntity
  8
0
100
AcDbBlockBegin
  2
*D5
 70
     1
 10
0.0
 20
0.0
 30
0.0
  3
*D5
  1

  0
LINE
  5
14005
330
1352C
100
AcDbEntity
  8
SUNPOU
 62
     1
100
AcDbLine
 10
-2078.984337453205
 20
1806.821805105529
 30
0.0
 11
-2078.984337453205
 21
1794.842997137765
 31
0.0
  0
LINE
  5
14006
330
1352C
100
AcDbEntity
  8
SUNPOU
 62
     1
100
AcDbLine
 10
-2139.484337453205
 20
1809.821805105529
 30
0.0
 11
-2139.484337453205
 21
1794.842997137765
 31
0.0
  0
LINE
  5
14007
330
1352C
100
AcDbEntity
  8
SUNPOU
 62
     1
100
AcDbLine
 10
-2081.484337453205
 20
1795.342997137765
 30
0.0
 11
-2136.984337453205
 21
1795.342997137765
 31
0.0
  0
SOLID
  5
14008
330
1352C
100
AcDbEntity
  8
SUNPOU
 62
     1
100
AcDbTrace
 10
-2081.484337453205
 20
1795.759663804432
 30
0.0
 11
-2081.484337453205
 21
1794.926330471098
 31
0.0
 12
-2078.984337453205
 22
1795.342997137765
 32
0.0
 13
-2078.984337453205
 23
1795.342997137765
 33
0.0
  0
SOLID
  5
14009
330
1352C
100
AcDbEntity
  8
SUNPOU
 62
     1
100
AcDbTrace
 10
-2136.984337453205
 20
1795.759663804432
 30
0.0
 11
-2136.984337453205
 21
1794.926330471098
 31
0.0
 12
-2139.484337453205
 22
1795.342997137765
 32
0.0
 13
-2139.484337453205
 23
1795.342997137765
 33
0.0
  0
MTEXT
  5
1400A
330
1352C
100
AcDbEntity
  8
SUNPOU
 62
     1
100
AcDbMText
 10
-2109.234337453205
 20
1798.092997137765
 30
0.0
 40
3.5
 41
0.0
 71
     5
 72
     1
  1
\A1;60.5
1001
ACAD
1000
MTEXTBEGIN
1070
    73
1070
     1
1070
    44
1040
1.0
1070
    74
1070
     0
1000
MTEXTEND
  0
POINT
  5
1400B
330
1352C
100
AcDbEntity
  8
DEFPOINTS
 62
     0
100
AcDbPoint
 10
-2078.984337453205
 20
1807.321805105529
 30
0.0
  0
POINT
  5
1400C
330
1352C
100
AcDbEntity
  8
DEFPOINTS
 62
     0
100
AcDbPoint
 10
-2139.484337453205
 20
1810.321805105529
 30
0.0
  0
POINT
  5
1400D
330
1352C
100
AcDbEntity
  8
DEFPOINTS
 62
     0
100
AcDbPoint
 10
-2139.484337453205
 20
1795.342997137765
 30
0.0
  0
ENDBLK
  5
13537
330
1352C
100
AcDbEntity
  8
0
100
AcDbBlockEnd
  0
BLOCK
  5
1356A
330
13560
100
AcDbEntity
  8
0
100
AcDbBlockBegin
  2
*D6
 70
     1
 10
0.0
 20
0.0
 30
0.0
  3
*D6
  1

  0
LINE
  5
14122
330
13560
100
AcDbEntity
  8
SUNPOU
 62
     1
100
AcDbLine
 10
-2157.87553545837
 20
1890.321805105531
 30
0.0
 11
-2164.484553949666
 21
1890.321805105531
 31
0.0
  0
LINE
  5
14123
330
13560
100
AcDbEntity
  8
SUNPOU
 62
     1
100
AcDbLine
 10
-2157.87553545837
 20
1810.321805105529
 30
0.0
 11
-2164.484553949666
 21
1810.321805105529
 31
0.0
  0
LINE
  5
14124
330
13560
100
AcDbEntity
  8
SUNPOU
 62
     1
100
AcDbLine
 10
-2163.984553949666
 20
1887.821805105531
 30
0.0
 11
-2163.984553949666
 21
1812.821805105529
 31
0.0
  0
SOLID
  5
14125
330
13560
100
AcDbEntity
  8
SUNPOU
 62
     1
100
AcDbTrace
 10
-2164.401220616332
 20
1887.821805105531
 30
0.0
 11
-2163.567887282999
 21
1887.821805105531
 31
0.0
 12
-2163.984553949666
 22
1890.321805105531
 32
0.0
 13
-2163.984553949666
 23
1890.321805105531
 33
0.0
  0
SOLID
  5
14126
330
13560
100
AcDbEntity
  8
SUNPOU
 62
     1
100
AcDbTrace
 10
-2164.401220616332
 20
1812.821805105529
 30
0.0
 11
-2163.567887282999
 21
1812.821805105529
 31
0.0
 12
-2163.984553949666
 22
1810.321805105529
 32
0.0
 13
-2163.984553949666
 23
1810.321805105529
 33
0.0
  0
MTEXT
  5
14127
330
13560
100
AcDbEntity
  8
SUNPOU
 62
     1
100
AcDbMText
 10
-2166.734553949666
 20
1850.32180510553
 30
0.0
 40
3.5
 41
0.0
 71
     5
 72
     1
  1
\A1;80
 11
0.0000000000000001
 21
1.0
 31
0.0
1001
ACAD
1000
MTEXTBEGIN
1070
    73
1070
     1
1070
    44
1040
1.0
1070
    74
1070
     0
1000
MTEXTEND
  0
POINT
  5
14128
330
13560
100
AcDbEntity
  8
DEFPOINTS
 62
     0
100
AcDbPoint
 10
-2157.37553545837
 20
1890.321805105531
 30
0.0
  0
POINT
  5
14129
330
13560
100
AcDbEntity
  8
DEFPOINTS
 62
     0
100
AcDbPoint
 10
-2157.37553545837
 20
1810.321805105529
 30
0.0
  0
POINT
  5
1412A
330
13560
100
AcDbEntity
  8
DEFPOINTS
 62
     0
100
AcDbPoint
 10
-2163.984553949666
 20
1810.321805105529
 30
0.0
  0
ENDBLK
  5
1356B
330
13560
100
AcDbEntity
  8
0
100
AcDbBlockEnd
  0
BLOCK
  5
13578
330
1356C
100
AcDbEntity
  8
0
100
AcDbBlockBegin
  2
*D7
 70
     1
 10
0.0
 20
0.0
 30
0.0
  3
*D7
  1

  0
LINE
  5
14174
330
1356C
100
AcDbEntity
  8
SUNPOU
 62
     1
100
AcDbLine
 10
-2156.484337453205
 20
1894.321805105529
 30
0.0
 11
-2164.484553949666
 21
1894.321805105529
 31
0.0
  0
LINE
  5
14175
330
1356C
100
AcDbEntity
  8
SUNPOU
 62
     1
100
AcDbLine
 10
-2157.87553545837
 20
1890.321805105531
 30
0.0
 11
-2164.484553949666
 21
1890.321805105531
 31
0.0
  0
LINE
  5
14176
330
1356C
100
AcDbEntity
  8
SUNPOU
 62
     1
100
AcDbLine
 10
-2163.984553949666
 20
1896.821805105529
 30
0.0
 11
-2163.984553949666
 21
1899.321805105529
 31
0.0
  0
LINE
  5
14177
330
1356C
100
AcDbEntity
  8
SUNPOU
 62
     1
100
AcDbLine
 10
-2163.984553949666
 20
1887.821805105531
 30
0.0
 11
-2163.984553949666
 21
1885.321805105531
 31
0.0
  0
MTEXT
  5
14178
330
1356C
100
AcDbEntity
  8
SUNPOU
 62
     1
100
AcDbMText
 10
-2166.728875147219
 20
1892.100023760309
 30
0.0
 40
3.5
 41
0.0
 71
     5
 72
     1
  1
\A1;4
 11
0.0000000000000001
 21
1.0
 31
0.0
  0
LINE
  5
14179
330
1356C
100
AcDbEntity
  8
SUNPOU
 62
     1
100
AcDbLine
 10
-2163.984553949666
 20
1894.321805105529
 30
0.0
 11
-2163.984553949666
 21
1890.321805105531
 31
0.0
  0
SOLID
  5
1417A
330
1356C
100
AcDbEntity
  8
SUNPOU
 62
     1
100
AcDbTrace
 10
-2164.401220616332
 20
1896.821805105529
 30
0.0
 11
-2163.567887282999
 21
1896.821805105529
 31
0.0
 12
-2163.984553949666
 22
1894.321805105529
 32
0.0
 13
-2163.984553949666
 23
1894.321805105529
 33
0.0
  0
SOLID
  5
1417B
330
1356C
100
AcDbEntity
  8
SUNPOU
 62
     1
100
AcDbTrace
 10
-2164.401220616332
 20
1887.821805105531
 30
0.0
 11
-2163.567887282999
 21
1887.821805105531
 31
0.0
 12
-2163.984553949666
 22
1890.321805105531
 32
0.0
 13
-2163.984553949666
 23
1890.321805105531
 33
0.0
  0
POINT
  5
1417C
330
1356C
100
AcDbEntity
  8
DEFPOINTS
 62
     0
100
AcDbPoint
 10
-2155.984337453205
 20
1894.321805105529
 30
0.0
  0
POINT
  5
1417D
330
1356C
100
AcDbEntity
  8
DEFPOINTS
 62
     0
100
AcDbPoint
 10
-2157.37553545837
 20
1890.321805105531
 30
0.0
  0
POINT
  5
1417E
330
1356C
100
AcDbEntity
  8
DEFPOINTS
 62
     0
100
AcDbPoint
 10
-2163.984553949666
 20
1890.321805105531
 30
0.0
  0
ENDBLK
  5
13579
330
1356C
100
AcDbEntity
  8
0
100
AcDbBlockEnd
  0
BLOCK
  5
13586
330
1357A
100
AcDbEntity
  8
0
100
AcDbBlockBegin
  2
*D8
 70
     1
 10
0.0
 20
0.0
 30
0.0
  3
*D8
  1

  0
LINE
  5
14022
330
1357A
100
AcDbEntity
  8
SUNPOU
 62
     1
100
AcDbLine
 10
-2143.734337453205
 20
1894.821805105529
 30
0.0
 11
-2143.734337453205
 21
1901.684296689886
 31
0.0
  0
LINE
  5
14023
330
1357A
100
AcDbEntity
  8
SUNPOU
 62
     1
100
AcDbLine
 10
-2147.234337453205
 20
1894.821805105529
 30
0.0
 11
-2147.234337453205
 21
1901.684296689886
 31
0.0
  0
LINE
  5
14024
330
1357A
100
AcDbEntity
  8
SUNPOU
 62
     1
100
AcDbLine
 10
-2141.234337453205
 20
1901.184296689886
 30
0.0
 11
-2138.734337453205
 21
1901.184296689886
 31
0.0
  0
LINE
  5
14025
330
1357A
100
AcDbEntity
  8
SUNPOU
 62
     1
100
AcDbLine
 10
-2149.734337453205
 20
1901.184296689886
 30
0.0
 11
-2161.234337453205
 21
1901.184296689886
 31
0.0
  0
LINE
  5
14026
330
1357A
100
AcDbEntity
  8
SUNPOU
 62
     1
100
AcDbLine
 10
-2143.734337453205
 20
1901.184296689886
 30
0.0
 11
-2147.234337453205
 21
1901.184296689886
 31
0.0
  0
SOLID
  5
14027
330
1357A
100
AcDbEntity
  8
SUNPOU
 62
     1
100
AcDbTrace
 10
-2141.234337453205
 20
1901.600963356553
 30
0.0
 11
-2141.234337453205
 21
1900.767630023219
 31
0.0
 12
-2143.734337453205
 22
1901.184296689886
 32
0.0
 13
-2143.734337453205
 23
1901.184296689886
 33
0.0
  0
SOLID
  5
14028
330
1357A
100
AcDbEntity
  8
SUNPOU
 62
     1
100
AcDbTrace
 10
-2149.734337453205
 20
1901.600963356553
 30
0.0
 11
-2149.734337453205
 21
1900.767630023219
 31
0.0
 12
-2147.234337453205
 22
1901.184296689886
 32
0.0
 13
-2147.234337453205
 23
1901.184296689886
 33
0.0
  0
MTEXT
  5
14029
330
1357A
100
AcDbEntity
  8
SUNPOU
 62
     1
100
AcDbMText
 10
-2156.734337453205
 20
1903.934296689886
 30
0.0
 40
3.5
 41
0.0
 71
     5
 72
     1
  1
\A1;3.5
1001
ACAD
1000
MTEXTBEGIN
1070
    73
1070
     1
1070
    44
1040
1.0
1070
    74
1070
     0
1000
MTEXTEND
  0
POINT
  5
1402A
330
1357A
100
AcDbEntity
  8
DEFPOINTS
 62
     0
100
AcDbPoint
 10
-2143.734337453205
 20
1894.321805105529
 30
0.0
  0
POINT
  5
1402B
330
1357A
100
AcDbEntity
  8
DEFPOINTS
 62
     0
100
AcDbPoint
 10
-2147.234337453205
 20
1894.321805105529
 30
0.0
  0
POINT
  5
1402C
330
1357A
100
AcDbEntity
  8
DEFPOINTS
 62
     0
100
AcDbPoint
 10
-2147.234337453205
 20
1901.184296689886
 30
0.0
  0
ENDBLK
  5
13587
330
1357A
100
AcDbEntity
  8
0
100
AcDbBlockEnd
  0
BLOCK
  5
13592
330
13588
100
AcDbEntity
  8
0
100
AcDbBlockBegin
  2
*D9
 70
     1
 10
0.0
 20
0.0
 30
0.0
  3
*D9
  1

  0
LINE
  5
13FDD
330
13588
100
AcDbEntity
  8
SUNPOU
 62
     1
100
AcDbLine
 10
-2078.984337453205
 20
1742.821805105529
 30
0.0
 11
-2078.984337453205
 21
1730.821805105529
 31
0.0
  0
LINE
  5
13FDE
330
13588
100
AcDbEntity
  8
SUNPOU
 62
     1
100
AcDbLine
 10
-2155.984337453205
 20
1741.821805105529
 30
0.0
 11
-2155.984337453205
 21
1730.821805105529
 31
0.0
  0
LINE
  5
13FDF
330
13588
100
AcDbEntity
  8
SUNPOU
 62
     1
100
AcDbLine
 10
-2081.484337453205
 20
1731.321805105529
 30
0.0
 11
-2153.484337453205
 21
1731.321805105529
 31
0.0
  0
SOLID
  5
13FE0
330
13588
100
AcDbEntity
  8
SUNPOU
 62
     1
100
AcDbTrace
 10
-2081.484337453205
 20
1731.738471772196
 30
0.0
 11
-2081.484337453205
 21
1730.905138438862
 31
0.0
 12
-2078.984337453205
 22
1731.321805105529
 32
0.0
 13
-2078.984337453205
 23
1731.321805105529
 33
0.0
  0
SOLID
  5
13FE1
330
13588
100
AcDbEntity
  8
SUNPOU
 62
     1
100
AcDbTrace
 10
-2153.484337453205
 20
1731.738471772196
 30
0.0
 11
-2153.484337453205
 21
1730.905138438862
 31
0.0
 12
-2155.984337453205
 22
1731.321805105529
 32
0.0
 13
-2155.984337453205
 23
1731.321805105529
 33
0.0
  0
MTEXT
  5
13FE2
330
13588
100
AcDbEntity
  8
SUNPOU
 62
     1
100
AcDbMText
 10
-2117.484337453205
 20
1734.071805105529
 30
0.0
 40
3.5
 41
0.0
 71
     5
 72
     1
  1
\A1;77
1001
ACAD
1000
MTEXTBEGIN
1070
    73
1070
     1
1070
    44
1040
1.0
1070
    74
1070
     0
1000
MTEXTEND
  0
POINT
  5
13FE3
330
13588
100
AcDbEntity
  8
DEFPOINTS
 62
     0
100
AcDbPoint
 10
-2078.984337453205
 20
1743.321805105529
 30
0.0
  0
POINT
  5
13FE4
330
13588
100
AcDbEntity
  8
DEFPOINTS
 62
     0
100
AcDbPoint
 10
-2155.984337453205
 20
1742.321805105529
 30
0.0
  0
POINT
  5
13FE5
330
13588
100
AcDbEntity
  8
DEFPOINTS
 62
     0
100
AcDbPoint
 10
-2155.984337453205
 20
1731.321805105529
 30
0.0
  0
ENDBLK
  5
13593
330
13588
100
AcDbEntity
  8
0
100
AcDbBlockEnd
  0
BLOCK
  5
13D2A
330
13D1E
100
AcDbEntity
  8
0
100
AcDbBlockBegin
  2
*D10
 70
     1
 10
0.0
 20
0.0
 30
0.0
  3
*D10
  1

  0
LINE
  5
14056
330
13D1E
100
AcDbEntity
  8
SUNPOU
 62
     1
100
AcDbLine
 10
-2033.734337453205
 20
1894.821805105529
 30
0.0
 11
-2033.734337453205
 21
1901.684296689886
 31
0.0
  0
LINE
  5
14057
330
13D1E
100
AcDbEntity
  8
SUNPOU
 62
     1
100
AcDbLine
 10
-2030.234337453205
 20
1894.821805105529
 30
0.0
 11
-2030.234337453205
 21
1901.684296689886
 31
0.0
  0
LINE
  5
14058
330
13D1E
100
AcDbEntity
  8
SUNPOU
 62
     1
100
AcDbLine
 10
-2036.734337453205
 20
1901.184296689886
 30
0.0
 11
-2039.734337453205
 21
1901.184296689886
 31
0.0
  0
LINE
  5
14059
330
13D1E
100
AcDbEntity
  8
SUNPOU
 62
     1
100
AcDbLine
 10
-2027.234337453206
 20
1901.184296689886
 30
0.0
 11
-2015.234337453205
 21
1901.184296689886
 31
0.0
  0
LINE
  5
1405A
330
13D1E
100
AcDbEntity
  8
SUNPOU
 62
     1
100
AcDbLine
 10
-2033.734337453205
 20
1901.184296689886
 30
0.0
 11
-2030.234337453205
 21
1901.184296689886
 31
0.0
  0
SOLID
  5
1405B
330
13D1E
100
AcDbEntity
  8
SUNPOU
 62
     1
100
AcDbTrace
 10
-2036.734337453205
 20
1901.684296689886
 30
0.0
 11
-2036.734337453205
 21
1900.684296689886
 31
0.0
 12
-2033.734337453205
 22
1901.184296689886
 32
0.0
 13
-2033.734337453205
 23
1901.184296689886
 33
0.0
  0
SOLID
  5
1405C
330
13D1E
100
AcDbEntity
  8
SUNPOU
 62
     1
100
AcDbTrace
 10
-2027.234337453206
 20
1901.684296689886
 30
0.0
 11
-2027.234337453206
 21
1900.684296689886
 31
0.0
 12
-2030.234337453205
 22
1901.184296689886
 32
0.0
 13
-2030.234337453205
 23
1901.184296689886
 33
0.0
  0
MTEXT
  5
1405D
330
13D1E
100
AcDbEntity
  8
SUNPOU
 62
     1
100
AcDbMText
 10
-2019.734337453205
 20
1903.934296689886
 30
0.0
 40
3.5
 41
0.0
 71
     5
 72
     1
  1
\A1;3.5
1001
ACAD
1000
MTEXTBEGIN
1070
    73
1070
     1
1070
    44
1040
1.0
1070
    74
1070
     0
1000
MTEXTEND
  0
POINT
  5
1405E
330
13D1E
100
AcDbEntity
  8
DEFPOINTS
 62
     0
100
AcDbPoint
 10
-2033.734337453205
 20
1894.321805105529
 30
0.0
  0
POINT
  5
1405F
330
13D1E
100
AcDbEntity
  8
DEFPOINTS
 62
     0
100
AcDbPoint
 10
-2030.234337453205
 20
1894.321805105529
 30
0.0
  0
POINT
  5
14060
330
13D1E
100
AcDbEntity
  8
DEFPOINTS
 62
     0
100
AcDbPoint
 10
-2030.234337453205
 20
1901.184296689886
 30
0.0
  0
ENDBLK
  5
13D2B
330
13D1E
100
AcDbEntity
  8
0
100
AcDbBlockEnd
  0
BLOCK
  5
13D72
330
13D66
100
AcDbEntity
  8
0
100
AcDbBlockBegin
  2
*D11
 70
     1
 10
0.0
 20
0.0
 30
0.0
  3
*D11
  1

  0
LINE
  5
13FF1
330
13D66
100
AcDbEntity
  8
SUNPOU
 62
     1
100
AcDbLine
 10
-2155.984337453205
 20
1769.821805105529
 30
0.0
 11
-2155.984337453205
 21
1776.400251702036
 31
0.0
  0
LINE
  5
13FF2
330
13D66
100
AcDbEntity
  8
SUNPOU
 62
     1
100
AcDbLine
 10
-2152.984337453205
 20
1769.821805105529
 30
0.0
 11
-2152.984337453205
 21
1776.400251702036
 31
0.0
  0
LINE
  5
13FF3
330
13D66
100
AcDbEntity
  8
SUNPOU
 62
     1
100
AcDbLine
 10
-2158.984337453205
 20
1775.900251702036
 30
0.0
 11
-2161.984337453205
 21
1775.900251702036
 31
0.0
  0
LINE
  5
13FF4
330
13D66
100
AcDbEntity
  8
SUNPOU
 62
     1
100
AcDbLine
 10
-2149.984337453205
 20
1775.900251702036
 30
0.0
 11
-2142.651004119872
 21
1775.900251702036
 31
0.0
  0
LINE
  5
13FF5
330
13D66
100
AcDbEntity
  8
SUNPOU
 62
     1
100
AcDbLine
 10
-2155.984337453205
 20
1775.900251702036
 30
0.0
 11
-2152.984337453205
 21
1775.900251702036
 31
0.0
  0
SOLID
  5
13FF6
330
13D66
100
AcDbEntity
  8
SUNPOU
 62
     1
100
AcDbTrace
 10
-2158.984337453205
 20
1776.400251702036
 30
0.0
 11
-2158.984337453205
 21
1775.400251702036
 31
0.0
 12
-2155.984337453205
 22
1775.900251702036
 32
0.0
 13
-2155.984337453205
 23
1775.900251702036
 33
0.0
  0
SOLID
  5
13FF7
330
13D66
100
AcDbEntity
  8
SUNPOU
 62
     1
100
AcDbTrace
 10
-2149.984337453205
 20
1776.400251702036
 30
0.0
 11
-2149.984337453205
 21
1775.400251702036
 31
0.0
 12
-2152.984337453205
 22
1775.900251702036
 32
0.0
 13
-2152.984337453205
 23
1775.900251702036
 33
0.0
  0
MTEXT
  5
13FF8
330
13D66
100
AcDbEntity
  8
SUNPOU
 62
     1
100
AcDbMText
 10
-2144.817670786539
 20
1778.650251702036
 30
0.0
 40
3.5
 41
0.0
 71
     5
 72
     1
  1
\A1;3
1001
ACAD
1000
MTEXTBEGIN
1070
    73
1070
     1
1070
    44
1040
1.0
1070
    74
1070
     0
1000
MTEXTEND
  0
POINT
  5
13FF9
330
13D66
100
AcDbEntity
  8
DEFPOINTS
 62
     0
100
AcDbPoint
 10
-2155.984337453205
 20
1769.321805105529
 30
0.0
  0
POINT
  5
13FFA
330
13D66
100
AcDbEntity
  8
DEFPOINTS
 62
     0
100
AcDbPoint
 10
-2152.984337453205
 20
1769.321805105529
 30
0.0
  0
POINT
  5
13FFB
330
13D66
100
AcDbEntity
  8
DEFPOINTS
 62
     0
100
AcDbPoint
 10
-2152.984337453205
 20
1775.900251702036
 30
0.0
  0
ENDBLK
  5
13D73
330
13D66
100
AcDbEntity
  8
0
100
AcDbBlockEnd
  0
BLOCK
  5
13D8A
330
13D80
100
AcDbEntity
  8
0
100
AcDbBlockBegin
  2
*D12
 70
     1
 10
0.0
 20
0.0
 30
0.0
  3
*D12
  1

  0
LINE
  5
14080
330
13D80
100
AcDbEntity
  8
SUNPOU
 62
     1
100
AcDbLine
 10
-2041.984337453206
 20
1806.821805105529
 30
0.0
 11
-2041.984337453206
 21
1787.52428706854
 31
0.0
  0
LINE
  5
14081
330
13D80
100
AcDbEntity
  8
SUNPOU
 62
     1
100
AcDbLine
 10
-2011.984337453206
 20
1805.821805105529
 30
0.0
 11
-2011.984337453206
 21
1787.52428706854
 31
0.0
  0
LINE
  5
14082
330
13D80
100
AcDbEntity
  8
SUNPOU
 62
     1
100
AcDbLine
 10
-2038.984337453205
 20
1788.02428706854
 30
0.0
 11
-2014.984337453205
 21
1788.02428706854
 31
0.0
  0
SOLID
  5
14083
330
13D80
100
AcDbEntity
  8
SUNPOU
 62
     1
100
AcDbTrace
 10
-2038.984337453205
 20
1788.524287068541
 30
0.0
 11
-2038.984337453205
 21
1787.52428706854
 31
0.0
 12
-2041.984337453206
 22
1788.02428706854
 32
0.0
 13
-2041.984337453206
 23
1788.02428706854
 33
0.0
  0
SOLID
  5
14084
330
13D80
100
AcDbEntity
  8
SUNPOU
 62
     1
100
AcDbTrace
 10
-2014.984337453205
 20
1788.524287068541
 30
0.0
 11
-2014.984337453205
 21
1787.52428706854
 31
0.0
 12
-2011.984337453206
 22
1788.02428706854
 32
0.0
 13
-2011.984337453206
 23
1788.02428706854
 33
0.0
  0
MTEXT
  5
14085
330
13D80
100
AcDbEntity
  8
SUNPOU
 62
     1
100
AcDbMText
 10
-2026.984337453205
 20
1790.77428706854
 30
0.0
 40
3.5
 41
0.0
 71
     5
 72
     1
  1
\A1;30
1001
ACAD
1000
MTEXTBEGIN
1070
    73
1070
     1
1070
    44
1040
1.0
1070
    74
1070
     0
1000
MTEXTEND
  0
POINT
  5
14086
330
13D80
100
AcDbEntity
  8
DEFPOINTS
 62
     0
100
AcDbPoint
 10
-2041.984337453206
 20
1807.321805105529
 30
0.0
  0
POINT
  5
14087
330
13D80
100
AcDbEntity
  8
DEFPOINTS
 62
     0
100
AcDbPoint
 10
-2011.984337453206
 20
1806.321805105529
 30
0.0
  0
POINT
  5
14088
330
13D80
100
AcDbEntity
  8
DEFPOINTS
 62
     0
100
AcDbPoint
 10
-2011.984337453206
 20
1788.02428706854
 30
0.0
  0
ENDBLK
  5
13D8B
330
13D80
100
AcDbEntity
  8
0
100
AcDbBlockEnd
  0
BLOCK
  5
13D97
330
13D8D
100
AcDbEntity
  8
0
100
AcDbBlockBegin
  2
*D13
 70
     1
 10
0.0
 20
0.0
 30
0.0
  3
*D13
  1

  0
LINE
  5
14077
330
13D8D
100
AcDbEntity
  8
SUNPOU
 62
     1
100
AcDbLine
 10
-2041.984337453206
 20
1806.821805105529
 30
0.0
 11
-2041.984337453206
 21
1798.018572417828
 31
0.0
  0
LINE
  5
14078
330
13D8D
100
AcDbEntity
  8
SUNPOU
 62
     1
100
AcDbLine
 10
-2031.984337453205
 20
1807.657846801734
 30
0.0
 11
-2031.984337453205
 21
1798.018572417828
 31
0.0
  0
LINE
  5
14079
330
13D8D
100
AcDbEntity
  8
SUNPOU
 62
     1
100
AcDbLine
 10
-2038.984337453205
 20
1798.518572417828
 30
0.0
 11
-2034.984337453205
 21
1798.518572417828
 31
0.0
  0
SOLID
  5
1407A
330
13D8D
100
AcDbEntity
  8
SUNPOU
 62
     1
100
AcDbTrace
 10
-2038.984337453205
 20
1799.018572417828
 30
0.0
 11
-2038.984337453205
 21
1798.018572417828
 31
0.0
 12
-2041.984337453206
 22
1798.518572417828
 32
0.0
 13
-2041.984337453206
 23
1798.518572417828
 33
0.0
  0
SOLID
  5
1407B
330
13D8D
100
AcDbEntity
  8
SUNPOU
 62
     1
100
AcDbTrace
 10
-2034.984337453205
 20
1799.018572417828
 30
0.0
 11
-2034.984337453205
 21
1798.018572417828
 31
0.0
 12
-2031.984337453205
 22
1798.518572417828
 32
0.0
 13
-2031.984337453205
 23
1798.518572417828
 33
0.0
  0
MTEXT
  5
1407C
330
13D8D
100
AcDbEntity
  8
SUNPOU
 62
     1
100
AcDbMText
 10
-2036.984337453206
 20
1801.268572417828
 30
0.0
 40
3.5
 41
0.0
 71
     5
 72
     1
  1
\A1;10
1001
ACAD
1000
MTEXTBEGIN
1070
    73
1070
     1
1070
    44
1040
1.0
1070
    74
1070
     0
1000
MTEXTEND
  0
POINT
  5
1407D
330
13D8D
100
AcDbEntity
  8
DEFPOINTS
 62
     0
100
AcDbPoint
 10
-2041.984337453206
 20
1807.321805105529
 30
0.0
  0
POINT
  5
1407E
330
13D8D
100
AcDbEntity
  8
DEFPOINTS
 62
     0
100
AcDbPoint
 10
-2031.984337453205
 20
1808.157846801734
 30
0.0
  0
POINT
  5
1407F
330
13D8D
100
AcDbEntity
  8
DEFPOINTS
 62
     0
100
AcDbPoint
 10
-2031.984337453205
 20
1798.518572417828
 30
0.0
  0
ENDBLK
  5
13D98
330
13D8D
100
AcDbEntity
  8
0
100
AcDbBlockEnd
  0
BLOCK
  5
13DA6
330
13D9A
100
AcDbEntity
  8
0
100
AcDbBlockBegin
  2
*D14
 70
     1
 10
0.0
 20
0.0
 30
0.0
  3
*D14
  1

  0
LINE
  5
1417F
330
13D9A
100
AcDbEntity
  8
SUNPOU
 62
     1
100
AcDbLine
 10
-2031.984337453205
 20
1807.657846801734
 30
0.0
 11
-2031.984337453205
 21
1798.018572417828
 31
0.0
  0
LINE
  5
14180
330
13D9A
100
AcDbEntity
  8
SUNPOU
 62
     1
100
AcDbLine
 10
-2025.984337453206
 20
1809.821795105529
 30
0.0
 11
-2025.984337453206
 21
1798.018572417828
 31
0.0
  0
LINE
  5
14181
330
13D9A
100
AcDbEntity
  8
SUNPOU
 62
     1
100
AcDbLine
 10
-2034.984337453205
 20
1798.518572417828
 30
0.0
 11
-2037.984337453206
 21
1798.518572417828
 31
0.0
  0
LINE
  5
14182
330
13D9A
100
AcDbEntity
  8
SUNPOU
 62
     1
100
AcDbLine
 10
-2022.984337453206
 20
1798.518572417828
 30
0.0
 11
-2019.984337453206
 21
1798.518572417828
 31
0.0
  0
LINE
  5
14183
330
13D9A
100
AcDbEntity
  8
SUNPOU
 62
     1
100
AcDbLine
 10
-2031.984337453205
 20
1798.518572417828
 30
0.0
 11
-2025.984337453206
 21
1798.518572417828
 31
0.0
  0
SOLID
  5
14184
330
13D9A
100
AcDbEntity
  8
SUNPOU
 62
     1
100
AcDbTrace
 10
-2034.984337453205
 20
1799.018572417828
 30
0.0
 11
-2034.984337453205
 21
1798.018572417828
 31
0.0
 12
-2031.984337453205
 22
1798.518572417828
 32
0.0
 13
-2031.984337453205
 23
1798.518572417828
 33
0.0
  0
SOLID
  5
14185
330
13D9A
100
AcDbEntity
  8
SUNPOU
 62
     1
100
AcDbTrace
 10
-2022.984337453206
 20
1799.018572417828
 30
0.0
 11
-2022.984337453206
 21
1798.018572417828
 31
0.0
 12
-2025.984337453206
 22
1798.518572417828
 32
0.0
 13
-2025.984337453206
 23
1798.518572417828
 33
0.0
  0
MTEXT
  5
14186
330
13D9A
100
AcDbEntity
  8
SUNPOU
 62
     1
100
AcDbMText
 10
-2028.984337453206
 20
1801.268572417828
 30
0.0
 40
3.5
 41
0.0
 71
     5
 72
     1
  1
\A1;6
  0
POINT
  5
14187
330
13D9A
100
AcDbEntity
  8
DEFPOINTS
 62
     0
100
AcDbPoint
 10
-2031.984337453205
 20
1808.157846801734
 30
0.0
  0
POINT
  5
14188
330
13D9A
100
AcDbEntity
  8
DEFPOINTS
 62
     0
100
AcDbPoint
 10
-2025.984337453206
 20
1810.321795105529
 30
0.0
  0
POINT
  5
14189
330
13D9A
100
AcDbEntity
  8
DEFPOINTS
 62
     0
100
AcDbPoint
 10
-2025.984337453206
 20
1798.518572417828
 30
0.0
  0
ENDBLK
  5
13DA7
330
13D9A
100
AcDbEntity
  8
0
100
AcDbBlockEnd
  0
BLOCK
  5
13DC2
330
13DB6
100
AcDbEntity
  8
0
100
AcDbBlockBegin
  2
*D15
 70
     1
 10
0.0
 20
0.0
 30
0.0
  3
*D15
  1

  0
LINE
  5
1418A
330
13DB6
100
AcDbEntity
  8
SUNPOU
 62
     1
100
AcDbLine
 10
-2041.484337453205
 20
1894.321805105529
 30
0.0
 11
-2050.134895956907
 21
1894.321805105529
 31
0.0
  0
LINE
  5
1418B
330
13DB6
100
AcDbEntity
  8
SUNPOU
 62
     1
100
AcDbLine
 10
-2032.484337453206
 20
1890.321805105531
 30
0.0
 11
-2050.134895956907
 21
1890.321805105531
 31
0.0
  0
LINE
  5
1418C
330
13DB6
100
AcDbEntity
  8
SUNPOU
 62
     1
100
AcDbLine
 10
-2049.634895956907
 20
1897.321805105529
 30
0.0
 11
-2049.634895956907
 21
1900.321805105529
 31
0.0
  0
LINE
  5
1418D
330
13DB6
100
AcDbEntity
  8
SUNPOU
 62
     1
100
AcDbLine
 10
-2049.634895956907
 20
1887.321805105531
 30
0.0
 11
-2049.634895956907
 21
1884.321805105531
 31
0.0
  0
MTEXT
  5
1418E
330
13DB6
100
AcDbEntity
  8
SUNPOU
 62
     1
100
AcDbMText
 10
-2051.98855353122
 20
1892.08311577711
 30
0.0
 40
3.5
 41
0.0
 71
     5
 72
     1
  1
\A1;4
 11
0.0000000000000001
 21
1.0
 31
0.0
  0
LINE
  5
1418F
330
13DB6
100
AcDbEntity
  8
SUNPOU
 62
     1
100
AcDbLine
 10
-2049.634895956907
 20
1894.321805105529
 30
0.0
 11
-2049.634895956907
 21
1890.321805105531
 31
0.0
  0
SOLID
  5
14190
330
13DB6
100
AcDbEntity
  8
SUNPOU
 62
     1
100
AcDbTrace
 10
-2050.134895956907
 20
1897.321805105529
 30
0.0
 11
-2049.134895956907
 21
1897.321805105529
 31
0.0
 12
-2049.634895956907
 22
1894.321805105529
 32
0.0
 13
-2049.634895956907
 23
1894.321805105529
 33
0.0
  0
SOLID
  5
14191
330
13DB6
100
AcDbEntity
  8
SUNPOU
 62
     1
100
AcDbTrace
 10
-2050.134895956907
 20
1887.321805105531
 30
0.0
 11
-2049.134895956907
 21
1887.321805105531
 31
0.0
 12
-2049.634895956907
 22
1890.321805105531
 32
0.0
 13
-2049.634895956907
 23
1890.321805105531
 33
0.0
  0
POINT
  5
14192
330
13DB6
100
AcDbEntity
  8
DEFPOINTS
 62
     0
100
AcDbPoint
 10
-2040.984337453206
 20
1894.321805105529
 30
0.0
  0
POINT
  5
14193
330
13DB6
100
AcDbEntity
  8
DEFPOINTS
 62
     0
100
AcDbPoint
 10
-2031.984337453205
 20
1890.321805105531
 30
0.0
  0
POINT
  5
14194
330
13DB6
100
AcDbEntity
  8
DEFPOINTS
 62
     0
100
AcDbPoint
 10
-2049.634895956907
 20
1890.321805105531
 30
0.0
  0
ENDBLK
  5
13DC3
330
13DB6
100
AcDbEntity
  8
0
100
AcDbBlockEnd
  0
BLOCK
  5
13DCF
330
13DC5
100
AcDbEntity
  8
0
100
AcDbBlockBegin
  2
*D16
 70
     1
 10
0.0
 20
0.0
 30
0.0
  3
*D16
  1

  0
LINE
  5
14195
330
13DC5
100
AcDbEntity
  8
SUNPOU
 62
     1
100
AcDbLine
 10
-2032.484337453206
 20
1890.321805105531
 30
0.0
 11
-2050.134895956907
 21
1890.321805105531
 31
0.0
  0
LINE
  5
14196
330
13DC5
100
AcDbEntity
  8
SUNPOU
 62
     1
100
AcDbLine
 10
-2034.234337453205
 20
1810.321805105529
 30
0.0
 11
-2050.134895956907
 21
1810.321805105529
 31
0.0
  0
LINE
  5
14197
330
13DC5
100
AcDbEntity
  8
SUNPOU
 62
     1
100
AcDbLine
 10
-2049.634895956907
 20
1887.321805105531
 30
0.0
 11
-2049.634895956907
 21
1813.321805105529
 31
0.0
  0
SOLID
  5
14198
330
13DC5
100
AcDbEntity
  8
SUNPOU
 62
     1
100
AcDbTrace
 10
-2050.134895956907
 20
1887.321805105531
 30
0.0
 11
-2049.134895956907
 21
1887.321805105531
 31
0.0
 12
-2049.634895956907
 22
1890.321805105531
 32
0.0
 13
-2049.634895956907
 23
1890.321805105531
 33
0.0
  0
SOLID
  5
14199
330
13DC5
100
AcDbEntity
  8
SUNPOU
 62
     1
100
AcDbTrace
 10
-2050.134895956907
 20
1813.321805105529
 30
0.0
 11
-2049.134895956907
 21
1813.321805105529
 31
0.0
 12
-2049.634895956907
 22
1810.321805105529
 32
0.0
 13
-2049.634895956907
 23
1810.321805105529
 33
0.0
  0
MTEXT
  5
1419A
330
13DC5
100
AcDbEntity
  8
SUNPOU
 62
     1
100
AcDbMText
 10
-2052.384895956907
 20
1850.32180510553
 30
0.0
 40
3.5
 41
0.0
 71
     5
 72
     1
  1
\A1;80
 11
0.0000000000000001
 21
1.0
 31
0.0
  0
POINT
  5
1419B
330
13DC5
100
AcDbEntity
  8
DEFPOINTS
 62
     0
100
AcDbPoint
 10
-2031.984337453205
 20
1890.321805105531
 30
0.0
  0
POINT
  5
1419C
330
13DC5
100
AcDbEntity
  8
DEFPOINTS
 62
     0
100
AcDbPoint
 10
-2033.734337453205
 20
1810.321805105529
 30
0.0
  0
POINT
  5
1419D
330
13DC5
100
AcDbEntity
  8
DEFPOINTS
 62
     0
100
AcDbPoint
 10
-2049.634895956907
 20
1810.321805105529
 30
0.0
  0
ENDBLK
  5
13DD0
330
13DC5
100
AcDbEntity
  8
0
100
AcDbBlockEnd
  0
BLOCK
  5
13DDE
330
13DD2
100
AcDbEntity
  8
0
100
AcDbBlockBegin
  2
*D17
 70
     1
 10
0.0
 20
0.0
 30
0.0
  3
*D17
  1

  0
LINE
  5
1419E
330
13DD2
100
AcDbEntity
  8
SUNPOU
 62
     1
100
AcDbLine
 10
-2034.234337453205
 20
1810.321805105529
 30
0.0
 11
-2050.134895956907
 21
1810.321805105529
 31
0.0
  0
LINE
  5
1419F
330
13DD2
100
AcDbEntity
  8
SUNPOU
 62
     1
100
AcDbLine
 10
-2041.484337453205
 20
1806.321805105529
 30
0.0
 11
-2050.134895956907
 21
1806.321805105529
 31
0.0
  0
LINE
  5
141A0
330
13DD2
100
AcDbEntity
  8
SUNPOU
 62
     1
100
AcDbLine
 10
-2049.634895956907
 20
1813.321805105529
 30
0.0
 11
-2049.634895956907
 21
1816.321805105529
 31
0.0
  0
LINE
  5
141A1
330
13DD2
100
AcDbEntity
  8
SUNPOU
 62
     1
100
AcDbLine
 10
-2049.634895956907
 20
1803.321805105529
 30
0.0
 11
-2049.634895956907
 21
1800.321805105529
 31
0.0
  0
MTEXT
  5
141A2
330
13DD2
100
AcDbEntity
  8
SUNPOU
 62
     1
100
AcDbMText
 10
-2051.846214061181
 20
1808.158736620074
 30
0.0
 40
3.5
 41
0.0
 71
     5
 72
     1
  1
\A1;4
 11
0.0000000000000001
 21
1.0
 31
0.0
  0
LINE
  5
141A3
330
13DD2
100
AcDbEntity
  8
SUNPOU
 62
     1
100
AcDbLine
 10
-2049.634895956907
 20
1810.321805105529
 30
0.0
 11
-2049.634895956907
 21
1806.321805105529
 31
0.0
  0
SOLID
  5
141A4
330
13DD2
100
AcDbEntity
  8
SUNPOU
 62
     1
100
AcDbTrace
 10
-2050.134895956907
 20
1813.321805105529
 30
0.0
 11
-2049.134895956907
 21
1813.321805105529
 31
0.0
 12
-2049.634895956907
 22
1810.321805105529
 32
0.0
 13
-2049.634895956907
 23
1810.321805105529
 33
0.0
  0
SOLID
  5
141A5
330
13DD2
100
AcDbEntity
  8
SUNPOU
 62
     1
100
AcDbTrace
 10
-2050.134895956907
 20
1803.321805105529
 30
0.0
 11
-2049.134895956907
 21
1803.321805105529
 31
0.0
 12
-2049.634895956907
 22
1806.321805105529
 32
0.0
 13
-2049.634895956907
 23
1806.321805105529
 33
0.0
  0
POINT
  5
141A6
330
13DD2
100
AcDbEntity
  8
DEFPOINTS
 62
     0
100
AcDbPoint
 10
-2033.734337453205
 20
1810.321805105529
 30
0.0
  0
POINT
  5
141A7
330
13DD2
100
AcDbEntity
  8
DEFPOINTS
 62
     0
100
AcDbPoint
 10
-2040.984337453206
 20
1806.321805105529
 30
0.0
  0
POINT
  5
141A8
330
13DD2
100
AcDbEntity
  8
DEFPOINTS
 62
     0
100
AcDbPoint
 10
-2049.634895956907
 20
1806.321805105529
 30
0.0
  0
ENDBLK
  5
13DDF
330
13DD2
100
AcDbEntity
  8
0
100
AcDbBlockEnd
  0
BLOCK
  5
13FB1
330
13FA5
100
AcDbEntity
  8
0
100
AcDbBlockBegin
  2
*D18
 70
     1
 10
0.0
 20
0.0
 30
0.0
  3
*D18
  1

  0
LINE
  5
1408A
330
13FA5
100
AcDbEntity
  8
SUNPOU
 62
     1
100
AcDbLine
 10
-2156.484337453205
 20
1761.071805105529
 30
0.0
 11
-2164.599885736451
 21
1761.071805105529
 31
0.0
  0
LINE
  5
1408B
330
13FA5
100
AcDbEntity
  8
SUNPOU
 62
     1
100
AcDbLine
 10
-2156.484337453207
 20
1757.571805105529
 30
0.0
 11
-2164.599885736451
 21
1757.571805105529
 31
0.0
  0
LINE
  5
1408C
330
13FA5
100
AcDbEntity
  8
SUNPOU
 62
     1
100
AcDbLine
 10
-2164.099885736451
 20
1764.071805105529
 30
0.0
 11
-2164.099885736451
 21
1767.071805105529
 31
0.0
  0
LINE
  5
1408D
330
13FA5
100
AcDbEntity
  8
SUNPOU
 62
     1
100
AcDbLine
 10
-2164.099885736451
 20
1754.571805105529
 30
0.0
 11
-2164.099885736451
 21
1742.571805105529
 31
0.0
  0
LINE
  5
1408E
330
13FA5
100
AcDbEntity
  8
SUNPOU
 62
     1
100
AcDbLine
 10
-2164.099885736451
 20
1761.071805105529
 30
0.0
 11
-2164.099885736451
 21
1757.571805105529
 31
0.0
  0
SOLID
  5
1408F
330
13FA5
100
AcDbEntity
  8
SUNPOU
 62
     1
100
AcDbTrace
 10
-2164.599885736451
 20
1764.071805105529
 30
0.0
 11
-2163.599885736451
 21
1764.071805105529
 31
0.0
 12
-2164.099885736451
 22
1761.071805105529
 32
0.0
 13
-2164.099885736451
 23
1761.071805105529
 33
0.0
  0
SOLID
  5
14090
330
13FA5
100
AcDbEntity
  8
SUNPOU
 62
     1
100
AcDbTrace
 10
-2164.599885736451
 20
1754.571805105529
 30
0.0
 11
-2163.599885736451
 21
1754.571805105529
 31
0.0
 12
-2164.099885736451
 22
1757.571805105529
 32
0.0
 13
-2164.099885736451
 23
1757.571805105529
 33
0.0
  0
MTEXT
  5
14091
330
13FA5
100
AcDbEntity
  8
SUNPOU
 62
     1
100
AcDbMText
 10
-2166.849885736451
 20
1747.071805105529
 30
0.0
 40
3.5
 41
0.0
 71
     5
 72
     1
  1
\A1;3.5
 11
0.0000000000000001
 21
1.0
 31
0.0
1001
ACAD
1000
MTEXTBEGIN
1070
    73
1070
     1
1070
    44
1040
1.0
1070
    74
1070
     0
1000
MTEXTEND
  0
POINT
  5
14092
330
13FA5
100
AcDbEntity
  8
DEFPOINTS
 62
     0
100
AcDbPoint
 10
-2155.984337453205
 20
1761.071805105529
 30
0.0
  0
POINT
  5
14093
330
13FA5
100
AcDbEntity
  8
DEFPOINTS
 62
     0
100
AcDbPoint
 10
-2155.984337453206
 20
1757.571805105529
 30
0.0
  0
POINT
  5
14094
330
13FA5
100
AcDbEntity
  8
DEFPOINTS
 62
     0
100
AcDbPoint
 10
-2164.099885736451
 20
1757.571805105529
 30
0.0
  0
ENDBLK
  5
13FB2
330
13FA5
100
AcDbEntity
  8
0
100
AcDbBlockEnd
  0
ENDSEC
  0
SECTION
  2
ENTITIES
  0
MTEXT
  5
5084
330
1A
100
AcDbEntity
  8
0
100
AcDbMText
 10
1985.239088685435
 20
-948.5420423450428
 30
0.0
 40
8.0
 41
0.0
 71
     7
 72
     5
  1

1001
ACAD
1000
MTEXTBEGIN
1070
    73
1070
     1
1070
    44
1040
1.0
1070
    74
1070
     0
1000
MTEXTEND
  0
MTEXT
  5
5085
330
1A
100
AcDbEntity
  8
0
100
AcDbMText
 10
4270.596778580329
 20
22.24825240601649
 30
0.0
 40
8.0
 41
0.0
 71
     7
 72
     5
  1

1001
ACAD
1000
MTEXTBEGIN
1070
    73
1070
     1
1070
    44
1040
1.0
1070
    74
1070
     0
1000
MTEXTEND
  0
MTEXT
  5
5343
330
1A
100
AcDbEntity
  8
SUNPOU
100
AcDbMText
 10
6936.493799262471
 20
9534.359644781135
 30
0.0
 40
10.5
 41
0.0
 71
     1
 72
     5
  1

1001
ACAD
1000
MTEXTBEGIN
1070
    73
1070
     1
1070
    44
1040
1.0
1070
    74
1070
     0
1000
MTEXTEND
  0
MTEXT
  5
544F
330
1A
100
AcDbEntity
  8
0
100
AcDbMText
 10
16317.2832773148
 20
12833.35428897674
 30
0.0
 40
8.0
 41
0.0
 71
     7
 72
     5
  1

1001
ACAD
1000
MTEXTBEGIN
1070
    73
1070
     1
1070
    44
1040
1.0
1070
    74
1070
     0
1000
MTEXTEND
  0
MTEXT
  5
5450
330
1A
100
AcDbEntity
  8
0
100
AcDbMText
 10
18602.64096720969
 20
13804.1445837278
 30
0.0
 40
8.0
 41
0.0
 71
     7
 72
     5
  1

1001
ACAD
1000
MTEXTBEGIN
1070
    73
1070
     1
1070
    44
1040
1.0
1070
    74
1070
     0
1000
MTEXTEND
  0
MTEXT
  5
5451
330
1A
100
AcDbEntity
  8
SUNPOU
100
AcDbMText
 10
21268.53798789184
 20
23316.25597610292
 30
0.0
 40
10.5
 41
0.0
 71
     1
 72
     5
  1

1001
ACAD
1000
MTEXTBEGIN
1070
    73
1070
     1
1070
    44
1040
1.0
1070
    74
1070
     0
1000
MTEXTEND
  0
MTEXT
  5
5452
330
1A
100
AcDbEntity
  8
SUNPOU
100
AcDbMText
 10
13337.6147919559
 20
22369.46284218996
 30
0.0
 40
10.5
 41
0.0
 71
     7
 72
     5
  1

1001
ACAD
1000
MTEXTBEGIN
1070
    73
1070
     1
1070
    44
1040
1.0
1070
    74
1070
     0
1000
MTEXTEND
  0
MTEXT
  5
5453
330
1A
100
AcDbEntity
  8
SUNPOU
100
AcDbMText
 10
16286.59845646867
 20
27270.13891403281
 30
0.0
 40
10.5
 41
0.0
 71
     7
 72
     5
  1

1001
ACAD
1000
MTEXTBEGIN
1070
    73
1070
     1
1070
    44
1040
1.0
1070
    74
1070
     0
1000
MTEXTEND
  0
MTEXT
  5
5454
330
1A
100
AcDbEntity
  8
SUNPOU
100
AcDbMText
 10
20795.67658441924
 20
29706.43966165288
 30
0.0
 40
10.5
 41
0.0
 71
     7
 72
     5
  1

1001
ACAD
1000
MTEXTBEGIN
1070
    73
1070
     1
1070
    44
1040
1.0
1070
    74
1070
     0
1000
MTEXTEND
  0
MTEXT
  5
5455
330
1A
100
AcDbEntity
  8
0
100
AcDbMText
 10
16611.93789220314
 20
14707.52144344448
 30
0.0
 40
8.0
 41
0.0
 71
     7
 72
     5
  1

1001
ACAD
1000
MTEXTBEGIN
1070
    73
1070
     1
1070
    44
1040
1.0
1070
    74
1070
     0
1000
MTEXTEND
  0
MTEXT
  5
5456
330
1A
100
AcDbEntity
  8
0
100
AcDbMText
 10
18897.29558209804
 20
15678.31173819554
 30
0.0
 40
8.0
 41
0.0
 71
     7
 72
     5
  1

1001
ACAD
1000
MTEXTBEGIN
1070
    73
1070
     1
1070
    44
1040
1.0
1070
    74
1070
     0
1000
MTEXTEND
  0
MTEXT
  5
5457
330
1A
100
AcDbEntity
  8
SUNPOU
100
AcDbMText
 10
21563.19260278019
 20
25190.42313057066
 30
0.0
 40
10.5
 41
0.0
 71
     1
 72
     5
  1

1001
ACAD
1000
MTEXTBEGIN
1070
    73
1070
     1
1070
    44
1040
1.0
1070
    74
1070
     0
1000
MTEXTEND
  0
MTEXT
  5
5458
330
1A
100
AcDbEntity
  8
SUNPOU
100
AcDbMText
 10
13632.26940684426
 20
24243.6299966577
 30
0.0
 40
10.5
 41
0.0
 71
     7
 72
     5
  1

1001
ACAD
1000
MTEXTBEGIN
1070
    73
1070
     1
1070
    44
1040
1.0
1070
    74
1070
     0
1000
MTEXTEND
  0
MTEXT
  5
5459
330
1A
100
AcDbEntity
  8
SUNPOU
100
AcDbMText
 10
16581.25307135702
 20
29144.30606850055
 30
0.0
 40
10.5
 41
0.0
 71
     7
 72
     5
  1

1001
ACAD
1000
MTEXTBEGIN
1070
    73
1070
     1
1070
    44
1040
1.0
1070
    74
1070
     0
1000
MTEXTEND
  0
MTEXT
  5
545A
330
1A
100
AcDbEntity
  8
SUNPOU
100
AcDbMText
 10
21090.33119930759
 20
31580.60681612062
 30
0.0
 40
10.5
 41
0.0
 71
     7
 72
     5
  1

1001
ACAD
1000
MTEXTBEGIN
1070
    73
1070
     1
1070
    44
1040
1.0
1070
    74
1070
     0
1000
MTEXTEND
  0
MTEXT
  5
545B
330
1A
100
AcDbEntity
  8
0
100
AcDbMText
 10
22871.60517627167
 20
23974.88367124799
 30
0.0
 40
8.0
 41
0.0
 71
     7
 72
     5
  1

1001
ACAD
1000
MTEXTBEGIN
1070
    73
1070
     1
1070
    44
1040
1.0
1070
    74
1070
     0
1000
MTEXTEND
  0
MTEXT
  5
545C
330
1A
100
AcDbEntity
  8
0
100
AcDbMText
 10
25156.96286616657
 20
24945.67396599906
 30
0.0
 40
8.0
 41
0.0
 71
     7
 72
     5
  1

1001
ACAD
1000
MTEXTBEGIN
1070
    73
1070
     1
1070
    44
1040
1.0
1070
    74
1070
     0
1000
MTEXTEND
  0
MTEXT
  5
545D
330
1A
100
AcDbEntity
  8
SUNPOU
100
AcDbMText
 10
27822.85988684871
 20
34457.78535837418
 30
0.0
 40
10.5
 41
0.0
 71
     1
 72
     5
  1

1001
ACAD
1000
MTEXTBEGIN
1070
    73
1070
     1
1070
    44
1040
1.0
1070
    74
1070
     0
1000
MTEXTEND
  0
MTEXT
  5
545E
330
1A
100
AcDbEntity
  8
SUNPOU
100
AcDbMText
 10
19891.93669091278
 20
33510.99222446122
 30
0.0
 40
10.5
 41
0.0
 71
     7
 72
     5
  1

1001
ACAD
1000
MTEXTBEGIN
1070
    73
1070
     1
1070
    44
1040
1.0
1070
    74
1070
     0
1000
MTEXTEND
  0
MTEXT
  5
545F
330
1A
100
AcDbEntity
  8
SUNPOU
100
AcDbMText
 10
22840.92035542555
 20
38411.66829630407
 30
0.0
 40
10.5
 41
0.0
 71
     7
 72
     5
  1

1001
ACAD
1000
MTEXTBEGIN
1070
    73
1070
     1
1070
    44
1040
1.0
1070
    74
1070
     0
1000
MTEXTEND
  0
MTEXT
  5
5460
330
1A
100
AcDbEntity
  8
SUNPOU
100
AcDbMText
 10
27349.99848337611
 20
40847.96904392415
 30
0.0
 40
10.5
 41
0.0
 71
     7
 72
     5
  1

1001
ACAD
1000
MTEXTBEGIN
1070
    73
1070
     1
1070
    44
1040
1.0
1070
    74
1070
     0
1000
MTEXTEND
  0
MTEXT
  5
55B7
330
1A
100
AcDbEntity
  8
SUNPOU
100
AcDbMText
 10
67424.23923338197
 20
64463.86602884816
 30
0.0
 40
10.5
 41
0.0
 71
     9
 72
     5
  1

1001
ACAD
1000
MTEXTBEGIN
1070
    73
1070
     1
1070
    44
1040
1.0
1070
    74
1070
     0
1000
MTEXTEND
  0
MTEXT
  5
55B8
330
1A
100
AcDbEntity
  8
SUNPOU
100
AcDbMText
 10
76146.40679929998
 20
71879.70056038563
 30
0.0
 40
10.5
 41
0.0
 71
     9
 72
     5
  1

1001
ACAD
1000
MTEXTBEGIN
1070
    73
1070
     1
1070
    44
1040
1.0
1070
    74
1070
     0
1000
MTEXTEND
  0
MTEXT
  5
55B9
330
1A
100
AcDbEntity
  8
SUNPOU
100
AcDbMText
 10
95100.16551662994
 20
89346.27661287766
 30
0.0
 40
10.5
 41
0.0
 71
     9
 72
     5
  1

1001
ACAD
1000
MTEXTBEGIN
1070
    73
1070
     1
1070
    44
1040
1.0
1070
    74
1070
     0
1000
MTEXTEND
  0
MTEXT
  5
55BA
330
1A
100
AcDbEntity
  8
SUNPOU
100
AcDbMText
 10
97043.57276333936
 20
87545.22753299966
 30
0.0
 40
3.5
 41
0.0
 71
     9
 72
     5
  1

1001
ACAD
1000
MTEXTBEGIN
1070
    73
1070
     1
1070
    44
1040
1.0
1070
    74
1070
     0
1000
MTEXTEND
  0
MTEXT
  5
55BB
330
1A
100
AcDbEntity
  8
SUNPOU
100
AcDbMText
 10
128169.752595959
 20
130040.1732006569
 30
0.0
 40
10.5
 41
0.0
 71
     9
 72
     5
  1

1001
ACAD
1000
MTEXTBEGIN
1070
    73
1070
     1
1070
    44
1040
1.0
1070
    74
1070
     0
1000
MTEXTEND
  0
MTEXT
  5
55BC
330
1A
100
AcDbEntity
  8
SUNPOU
100
AcDbMText
 10
130113.1598426684
 20
128239.1241207789
 30
0.0
 40
3.5
 41
0.0
 71
     9
 72
     5
  1

1001
ACAD
1000
MTEXTBEGIN
1070
    73
1070
     1
1070
    44
1040
1.0
1070
    74
1070
     0
1000
MTEXTEND
  0
MTEXT
  5
55BD
330
1A
100
AcDbEntity
  8
SUNPOU
100
AcDbMText
 10
78610.02030175463
 20
75873.33835563206
 30
0.0
 40
10.5
 41
0.0
 71
     9
 72
     5
  1

1001
ACAD
1000
MTEXTBEGIN
1070
    73
1070
     1
1070
    44
1040
1.0
1070
    74
1070
     0
1000
MTEXTEND
  0
MTEXT
  5
55BE
330
1A
100
AcDbEntity
  8
SUNPOU
100
AcDbMText
 10
64662.02020137863
 20
56700.93921651987
 30
0.0
 40
3.5
 41
0.0
 71
     7
 72
     5
  1

1001
ACAD
1000
MTEXTBEGIN
1070
    73
1070
     1
1070
    44
1040
1.0
1070
    74
1070
     0
1000
MTEXTEND
  0
MTEXT
  5
55BF
330
1A
100
AcDbEntity
  8
SUNPOU
100
AcDbMText
 10
45647.18959837178
 20
44463.08794733807
 30
0.0
 40
10.5
 41
0.0
 71
     7
 72
     5
  1

1001
ACAD
1000
MTEXTBEGIN
1070
    73
1070
     1
1070
    44
1040
1.0
1070
    74
1070
     0
1000
MTEXTEND
  0
MTEXT
  5
55C0
330
1A
100
AcDbEntity
  8
SUNPOU
100
AcDbMText
 10
33189.96133342368
 20
28618.15636923965
 30
0.0
 40
35.0
 41
0.0
 71
     9
 72
     5
  1

1001
ACAD
1000
MTEXTBEGIN
1070
    73
1070
     1
1070
    44
1040
1.0
1070
    74
1070
     0
1000
MTEXTEND
  0
MTEXT
  5
55C1
330
1A
100
AcDbEntity
  8
SUNPOU
100
AcDbMText
 10
32098.44639099864
 20
29226.93177928835
 30
0.0
 40
350.0000004171781
 41
0.0
 71
     7
 72
     5
  1

1001
ACAD
1000
MTEXTBEGIN
1070
    73
1070
     1
1070
    44
1040
1.0
1070
    74
1070
     0
1000
MTEXTEND
  0
MTEXT
  5
55C2
330
1A
100
AcDbEntity
  8
0
100
AcDbMText
 10
38142.39714894154
 20
27206.85414142458
 30
0.0
 40
8.0
 41
0.0
 71
     7
 72
     5
  1

1001
ACAD
1000
MTEXTBEGIN
1070
    73
1070
     1
1070
    44
1040
1.0
1070
    74
1070
     0
1000
MTEXTEND
  0
MTEXT
  5
55C3
330
1A
100
AcDbEntity
  8
0
100
AcDbMText
 10
40427.75483883644
 20
28177.64443617564
 30
0.0
 40
8.0
 41
0.0
 71
     7
 72
     5
  1

1001
ACAD
1000
MTEXTBEGIN
1070
    73
1070
     1
1070
    44
1040
1.0
1070
    74
1070
     0
1000
MTEXTEND
  0
MTEXT
  5
55C4
330
1A
100
AcDbEntity
  8
SUNPOU
100
AcDbMText
 10
43093.65185951858
 20
37689.75582855077
 30
0.0
 40
10.5
 41
0.0
 71
     1
 72
     5
  1

1001
ACAD
1000
MTEXTBEGIN
1070
    73
1070
     1
1070
    44
1040
1.0
1070
    74
1070
     0
1000
MTEXTEND
  0
MTEXT
  5
55C5
330
1A
100
AcDbEntity
  8
SUNPOU
100
AcDbMText
 10
35162.72866358265
 20
36742.96269463781
 30
0.0
 40
10.5
 41
0.0
 71
     7
 72
     5
  1

1001
ACAD
1000
MTEXTBEGIN
1070
    73
1070
     1
1070
    44
1040
1.0
1070
    74
1070
     0
1000
MTEXTEND
  0
MTEXT
  5
55C6
330
1A
100
AcDbEntity
  8
SUNPOU
100
AcDbMText
 10
38111.71232809542
 20
41643.63876648066
 30
0.0
 40
10.5
 41
0.0
 71
     7
 72
     5
  1

1001
ACAD
1000
MTEXTBEGIN
1070
    73
1070
     1
1070
    44
1040
1.0
1070
    74
1070
     0
1000
MTEXTEND
  0
MTEXT
  5
55C7
330
1A
100
AcDbEntity
  8
SUNPOU
100
AcDbMText
 10
42620.79045604597
 20
44079.93951410074
 30
0.0
 40
10.5
 41
0.0
 71
     7
 72
     5
  1

1001
ACAD
1000
MTEXTBEGIN
1070
    73
1070
     1
1070
    44
1040
1.0
1070
    74
1070
     0
1000
MTEXTEND
  0
MTEXT
  5
55C8
330
1A
100
AcDbEntity
  8
SUNPOU
100
AcDbMText
 10
26221.62834281429
 20
23077.53566448964
 30
0.0
 40
10.5
 41
0.0
 71
     7
 72
     5
  1

1001
ACAD
1000
MTEXTBEGIN
1070
    73
1070
     1
1070
    44
1040
1.0
1070
    74
1070
     0
1000
MTEXTEND
  0
MTEXT
  5
55C9
330
1A
100
AcDbEntity
  8
SUNPOU
100
AcDbMText
 10
77413.14677671455
 20
68750.51622813789
 30
0.0
 40
10.5
 41
0.0
 71
     9
 72
     5
  1

1001
ACAD
1000
MTEXTBEGIN
1070
    73
1070
     1
1070
    44
1040
1.0
1070
    74
1070
     0
1000
MTEXTEND
  0
MTEXT
  5
55CA
330
1A
100
AcDbEntity
  8
SUNPOU
100
AcDbMText
 10
86135.31434263256
 20
76166.35075967536
 30
0.0
 40
10.5
 41
0.0
 71
     9
 72
     5
  1

1001
ACAD
1000
MTEXTBEGIN
1070
    73
1070
     1
1070
    44
1040
1.0
1070
    74
1070
     0
1000
MTEXTEND
  0
MTEXT
  5
55CB
330
1A
100
AcDbEntity
  8
SUNPOU
100
AcDbMText
 10
105089.0730599625
 20
93632.92681216739
 30
0.0
 40
10.5
 41
0.0
 71
     9
 72
     5
  1

1001
ACAD
1000
MTEXTBEGIN
1070
    73
1070
     1
1070
    44
1040
1.0
1070
    74
1070
     0
1000
MTEXTEND
  0
MTEXT
  5
55CC
330
1A
100
AcDbEntity
  8
SUNPOU
100
AcDbMText
 10
107032.4803066719
 20
91831.8777322894
 30
0.0
 40
3.5
 41
0.0
 71
     9
 72
     5
  1

1001
ACAD
1000
MTEXTBEGIN
1070
    73
1070
     1
1070
    44
1040
1.0
1070
    74
1070
     0
1000
MTEXTEND
  0
MTEXT
  5
55CD
330
1A
100
AcDbEntity
  8
SUNPOU
100
AcDbMText
 10
138158.6601392916
 20
134326.8233999467
 30
0.0
 40
10.5
 41
0.0
 71
     9
 72
     5
  1

1001
ACAD
1000
MTEXTBEGIN
1070
    73
1070
     1
1070
    44
1040
1.0
1070
    74
1070
     0
1000
MTEXTEND
  0
MTEXT
  5
55CE
330
1A
100
AcDbEntity
  8
SUNPOU
100
AcDbMText
 10
140102.067386001
 20
132525.7743200686
 30
0.0
 40
3.5
 41
0.0
 71
     9
 72
     5
  1

1001
ACAD
1000
MTEXTBEGIN
1070
    73
1070
     1
1070
    44
1040
1.0
1070
    74
1070
     0
1000
MTEXTEND
  0
MTEXT
  5
55CF
330
1A
100
AcDbEntity
  8
SUNPOU
100
AcDbMText
 10
88598.92784508721
 20
80159.98855492179
 30
0.0
 40
10.5
 41
0.0
 71
     9
 72
     5
  1

1001
ACAD
1000
MTEXTBEGIN
1070
    73
1070
     1
1070
    44
1040
1.0
1070
    74
1070
     0
1000
MTEXTEND
  0
MTEXT
  5
55D0
330
1A
100
AcDbEntity
  8
SUNPOU
100
AcDbMText
 10
74650.92774471121
 20
60987.5894158096
 30
0.0
 40
3.5
 41
0.0
 71
     7
 72
     5
  1

1001
ACAD
1000
MTEXTBEGIN
1070
    73
1070
     1
1070
    44
1040
1.0
1070
    74
1070
     0
1000
MTEXTEND
  0
MTEXT
  5
55D1
330
1A
100
AcDbEntity
  8
SUNPOU
100
AcDbMText
 10
55636.09714170436
 20
48749.73814662781
 30
0.0
 40
10.5
 41
0.0
 71
     7
 72
     5
  1

1001
ACAD
1000
MTEXTBEGIN
1070
    73
1070
     1
1070
    44
1040
1.0
1070
    74
1070
     0
1000
MTEXTEND
  0
MTEXT
  5
55D2
330
1A
100
AcDbEntity
  8
SUNPOU
100
AcDbMText
 10
43178.86887675626
 20
32904.80656852938
 30
0.0
 40
35.0
 41
0.0
 71
     9
 72
     5
  1

1001
ACAD
1000
MTEXTBEGIN
1070
    73
1070
     1
1070
    44
1040
1.0
1070
    74
1070
     0
1000
MTEXTEND
  0
MTEXT
  5
55D3
330
1A
100
AcDbEntity
  8
SUNPOU
100
AcDbMText
 10
42087.35393433121
 20
33513.58197857809
 30
0.0
 40
350.0000004171781
 41
0.0
 71
     7
 72
     5
  1

1001
ACAD
1000
MTEXTBEGIN
1070
    73
1070
     1
1070
    44
1040
1.0
1070
    74
1070
     0
1000
MTEXTEND
  0
MTEXT
  5
55D4
330
1A
100
AcDbEntity
  8
0
100
AcDbMText
 10
48131.30469227412
 20
31493.50434071431
 30
0.0
 40
8.0
 41
0.0
 71
     7
 72
     5
  1

1001
ACAD
1000
MTEXTBEGIN
1070
    73
1070
     1
1070
    44
1040
1.0
1070
    74
1070
     0
1000
MTEXTEND
  0
MTEXT
  5
55D5
330
1A
100
AcDbEntity
  8
0
100
AcDbMText
 10
50416.66238216901
 20
32464.29463546537
 30
0.0
 40
8.0
 41
0.0
 71
     7
 72
     5
  1

1001
ACAD
1000
MTEXTBEGIN
1070
    73
1070
     1
1070
    44
1040
1.0
1070
    74
1070
     0
1000
MTEXTEND
  0
MTEXT
  5
55D6
330
1A
100
AcDbEntity
  8
SUNPOU
100
AcDbMText
 10
53082.55940285115
 20
41976.4060278405
 30
0.0
 40
10.5
 41
0.0
 71
     1
 72
     5
  1

1001
ACAD
1000
MTEXTBEGIN
1070
    73
1070
     1
1070
    44
1040
1.0
1070
    74
1070
     0
1000
MTEXTEND
  0
MTEXT
  5
55D7
330
1A
100
AcDbEntity
  8
SUNPOU
100
AcDbMText
 10
45151.63620691522
 20
41029.61289392755
 30
0.0
 40
10.5
 41
0.0
 71
     7
 72
     5
  1

1001
ACAD
1000
MTEXTBEGIN
1070
    73
1070
     1
1070
    44
1040
1.0
1070
    74
1070
     0
1000
MTEXTEND
  0
MTEXT
  5
55D8
330
1A
100
AcDbEntity
  8
SUNPOU
100
AcDbMText
 10
48100.61987142798
 20
45930.28896577039
 30
0.0
 40
10.5
 41
0.0
 71
     7
 72
     5
  1

1001
ACAD
1000
MTEXTBEGIN
1070
    73
1070
     1
1070
    44
1040
1.0
1070
    74
1070
     0
1000
MTEXTEND
  0
MTEXT
  5
55D9
330
1A
100
AcDbEntity
  8
SUNPOU
100
AcDbMText
 10
52609.69799937854
 20
48366.58971339046
 30
0.0
 40
10.5
 41
0.0
 71
     7
 72
     5
  1

1001
ACAD
1000
MTEXTBEGIN
1070
    73
1070
     1
1070
    44
1040
1.0
1070
    74
1070
     0
1000
MTEXTEND
  0
MTEXT
  5
55DA
330
1A
100
AcDbEntity
  8
SUNPOU
100
AcDbMText
 10
36210.53588614687
 20
27364.18586377937
 30
0.0
 40
10.5
 41
0.0
 71
     7
 72
     5
  1

1001
ACAD
1000
MTEXTBEGIN
1070
    73
1070
     1
1070
    44
1040
1.0
1070
    74
1070
     0
1000
MTEXTEND
  0
MTEXT
  5
55DB
330
1A
100
AcDbEntity
  8
SUNPOU
100
AcDbMText
 10
38021.29879752181
 20
33691.59985125794
 30
0.0
 40
10.5
 41
0.0
 71
     9
 72
     5
  1

1001
ACAD
1000
MTEXTBEGIN
1070
    73
1070
     1
1070
    44
1040
1.0
1070
    74
1070
     0
1000
MTEXTEND
  0
MTEXT
  5
55DC
330
1A
100
AcDbEntity
  8
SUNPOU
100
AcDbMText
 10
46743.46636343979
 20
41107.43438279541
 30
0.0
 40
10.5
 41
0.0
 71
     9
 72
     5
  1

1001
ACAD
1000
MTEXTBEGIN
1070
    73
1070
     1
1070
    44
1040
1.0
1070
    74
1070
     0
1000
MTEXTEND
  0
MTEXT
  5
55DD
330
1A
100
AcDbEntity
  8
SUNPOU
100
AcDbMText
 10
65697.22508076975
 20
58574.01043528746
 30
0.0
 40
10.5
 41
0.0
 71
     9
 72
     5
  1

1001
ACAD
1000
MTEXTBEGIN
1070
    73
1070
     1
1070
    44
1040
1.0
1070
    74
1070
     0
1000
MTEXTEND
  0
MTEXT
  5
55DE
330
1A
100
AcDbEntity
  8
SUNPOU
100
AcDbMText
 10
67640.63232747917
 20
56772.96135540945
 30
0.0
 40
3.5
 41
0.0
 71
     9
 72
     5
  1

1001
ACAD
1000
MTEXTBEGIN
1070
    73
1070
     1
1070
    44
1040
1.0
1070
    74
1070
     0
1000
MTEXTEND
  0
MTEXT
  5
55DF
330
1A
100
AcDbEntity
  8
SUNPOU
100
AcDbMText
 10
98766.81216009888
 20
99267.9070230668
 30
0.0
 40
10.5
 41
0.0
 71
     9
 72
     5
  1

1001
ACAD
1000
MTEXTBEGIN
1070
    73
1070
     1
1070
    44
1040
1.0
1070
    74
1070
     0
1000
MTEXTEND
  0
MTEXT
  5
55E0
330
1A
100
AcDbEntity
  8
SUNPOU
100
AcDbMText
 10
100710.2194068083
 20
97466.85794318878
 30
0.0
 40
3.5
 41
0.0
 71
     9
 72
     5
  1

1001
ACAD
1000
MTEXTBEGIN
1070
    73
1070
     1
1070
    44
1040
1.0
1070
    74
1070
     0
1000
MTEXTEND
  0
MTEXT
  5
55E1
330
1A
100
AcDbEntity
  8
SUNPOU
100
AcDbMText
 10
49207.07986589444
 20
45101.07217804185
 30
0.0
 40
10.5
 41
0.0
 71
     9
 72
     5
  1

1001
ACAD
1000
MTEXTBEGIN
1070
    73
1070
     1
1070
    44
1040
1.0
1070
    74
1070
     0
1000
MTEXTEND
  0
MTEXT
  5
55E2
330
1A
100
AcDbEntity
  8
SUNPOU
100
AcDbMText
 10
35259.07976551845
 20
25928.67303892964
 30
0.0
 40
3.5
 41
0.0
 71
     7
 72
     5
  1

1001
ACAD
1000
MTEXTBEGIN
1070
    73
1070
     1
1070
    44
1040
1.0
1070
    74
1070
     0
1000
MTEXTEND
  0
MTEXT
  5
55E3
330
1A
100
AcDbEntity
  8
SUNPOU
100
AcDbMText
 10
48951.43044828905
 20
35287.73625995099
 30
0.0
 40
10.5
 41
0.0
 71
     9
 72
     5
  1

1001
ACAD
1000
MTEXTBEGIN
1070
    73
1070
     1
1070
    44
1040
1.0
1070
    74
1070
     0
1000
MTEXTEND
  0
MTEXT
  5
55E4
330
1A
100
AcDbEntity
  8
SUNPOU
100
AcDbMText
 10
57673.59801420702
 20
42703.57079148847
 30
0.0
 40
10.5
 41
0.0
 71
     9
 72
     5
  1

1001
ACAD
1000
MTEXTBEGIN
1070
    73
1070
     1
1070
    44
1040
1.0
1070
    74
1070
     0
1000
MTEXTEND
  0
MTEXT
  5
55E5
330
1A
100
AcDbEntity
  8
SUNPOU
100
AcDbMText
 10
76627.35673153699
 20
60170.14684398051
 30
0.0
 40
10.5
 41
0.0
 71
     9
 72
     5
  1

1001
ACAD
1000
MTEXTBEGIN
1070
    73
1070
     1
1070
    44
1040
1.0
1070
    74
1070
     0
1000
MTEXTEND
  0
MTEXT
  5
55E6
330
1A
100
AcDbEntity
  8
SUNPOU
100
AcDbMText
 10
78570.76397824641
 20
58369.09776410251
 30
0.0
 40
3.5
 41
0.0
 71
     9
 72
     5
  1

1001
ACAD
1000
MTEXTBEGIN
1070
    73
1070
     1
1070
    44
1040
1.0
1070
    74
1070
     0
1000
MTEXTEND
  0
MTEXT
  5
55E7
330
1A
100
AcDbEntity
  8
SUNPOU
100
AcDbMText
 10
109696.9438108661
 20
100864.0434317598
 30
0.0
 40
10.5
 41
0.0
 71
     9
 72
     5
  1

1001
ACAD
1000
MTEXTBEGIN
1070
    73
1070
     1
1070
    44
1040
1.0
1070
    74
1070
     0
1000
MTEXTEND
  0
MTEXT
  5
55E8
330
1A
100
AcDbEntity
  8
SUNPOU
100
AcDbMText
 10
111640.3510575755
 20
99062.99435188183
 30
0.0
 40
3.5
 41
0.0
 71
     9
 72
     5
  1

1001
ACAD
1000
MTEXTBEGIN
1070
    73
1070
     1
1070
    44
1040
1.0
1070
    74
1070
     0
1000
MTEXTEND
  0
MTEXT
  5
55E9
330
1A
100
AcDbEntity
  8
SUNPOU
100
AcDbMText
 10
60137.21151666167
 20
46697.20858673491
 30
0.0
 40
10.5
 41
0.0
 71
     9
 72
     5
  1

1001
ACAD
1000
MTEXTBEGIN
1070
    73
1070
     1
1070
    44
1040
1.0
1070
    74
1070
     0
1000
MTEXTEND
  0
MTEXT
  5
55EA
330
1A
100
AcDbEntity
  8
SUNPOU
100
AcDbMText
 10
46189.21141628568
 20
27524.80944762269
 30
0.0
 40
3.5
 41
0.0
 71
     7
 72
     5
  1

1001
ACAD
1000
MTEXTBEGIN
1070
    73
1070
     1
1070
    44
1040
1.0
1070
    74
1070
     0
1000
MTEXTEND
  0
MTEXT
  5
55EB
330
1A
100
AcDbEntity
  8
SUNPOU
100
AcDbMText
 10
45007.68847015541
 20
38269.57947701874
 30
0.0
 40
10.5
 41
0.0
 71
     9
 72
     5
  1

1001
ACAD
1000
MTEXTBEGIN
1070
    73
1070
     1
1070
    44
1040
1.0
1070
    74
1070
     0
1000
MTEXTEND
  0
MTEXT
  5
55EC
330
1A
100
AcDbEntity
  8
SUNPOU
100
AcDbMText
 10
63961.44718748539
 20
55736.15552951081
 30
0.0
 40
10.5
 41
0.0
 71
     9
 72
     5
  1

1001
ACAD
1000
MTEXTBEGIN
1070
    73
1070
     1
1070
    44
1040
1.0
1070
    74
1070
     0
1000
MTEXTEND
  0
MTEXT
  5
55ED
330
1A
100
AcDbEntity
  8
SUNPOU
100
AcDbMText
 10
65904.85443419479
 20
53935.10644963279
 30
0.0
 40
3.5
 41
0.0
 71
     9
 72
     5
  1

1001
ACAD
1000
MTEXTBEGIN
1070
    73
1070
     1
1070
    44
1040
1.0
1070
    74
1070
     0
1000
MTEXTEND
  0
MTEXT
  5
55EE
330
1A
100
AcDbEntity
  8
SUNPOU
100
AcDbMText
 10
97031.03426681451
 20
96430.05211729015
 30
0.0
 40
10.5
 41
0.0
 71
     9
 72
     5
  1

1001
ACAD
1000
MTEXTBEGIN
1070
    73
1070
     1
1070
    44
1040
1.0
1070
    74
1070
     0
1000
MTEXTEND
  0
MTEXT
  5
55EF
330
1A
100
AcDbEntity
  8
SUNPOU
100
AcDbMText
 10
98974.44151352393
 20
94629.00303741212
 30
0.0
 40
3.5
 41
0.0
 71
     9
 72
     5
  1

1001
ACAD
1000
MTEXTBEGIN
1070
    73
1070
     1
1070
    44
1040
1.0
1070
    74
1070
     0
1000
MTEXTEND
  0
MTEXT
  5
55F0
330
1A
100
AcDbEntity
  8
SUNPOU
100
AcDbMText
 10
47471.30197261006
 20
42263.21727226519
 30
0.0
 40
10.5
 41
0.0
 71
     9
 72
     5
  1

1001
ACAD
1000
MTEXTBEGIN
1070
    73
1070
     1
1070
    44
1040
1.0
1070
    74
1070
     0
1000
MTEXTEND
  0
MTEXT
  5
55F1
330
1A
100
AcDbEntity
  8
SUNPOU
100
AcDbMText
 10
33523.30187223408
 20
23090.81813315298
 30
0.0
 40
3.5
 41
0.0
 71
     7
 72
     5
  1

1001
ACAD
1000
MTEXTBEGIN
1070
    73
1070
     1
1070
    44
1040
1.0
1070
    74
1070
     0
1000
MTEXTEND
  0
MTEXT
  5
55F2
330
1A
100
AcDbEntity
  8
SUNPOU
100
AcDbMText
 10
57959.46254102503
 20
50038.08111611015
 30
0.0
 40
10.5
 41
0.0
 71
     9
 72
     5
  1

1001
ACAD
1000
MTEXTBEGIN
1070
    73
1070
     1
1070
    44
1040
1.0
1070
    74
1070
     0
1000
MTEXTEND
  0
MTEXT
  5
55F3
330
1A
100
AcDbEntity
  8
SUNPOU
100
AcDbMText
 10
76913.22125835503
 20
67504.65716860222
 30
0.0
 40
10.5
 41
0.0
 71
     9
 72
     5
  1

1001
ACAD
1000
MTEXTBEGIN
1070
    73
1070
     1
1070
    44
1040
1.0
1070
    74
1070
     0
1000
MTEXTEND
  0
MTEXT
  5
55F4
330
1A
100
AcDbEntity
  8
SUNPOU
100
AcDbMText
 10
78856.62850506443
 20
65703.6080887242
 30
0.0
 40
3.5
 41
0.0
 71
     9
 72
     5
  1

1001
ACAD
1000
MTEXTBEGIN
1070
    73
1070
     1
1070
    44
1040
1.0
1070
    74
1070
     0
1000
MTEXTEND
  0
MTEXT
  5
55F5
330
1A
100
AcDbEntity
  8
SUNPOU
100
AcDbMText
 10
109982.8083376841
 20
108198.5537563815
 30
0.0
 40
10.5
 41
0.0
 71
     9
 72
     5
  1

1001
ACAD
1000
MTEXTBEGIN
1070
    73
1070
     1
1070
    44
1040
1.0
1070
    74
1070
     0
1000
MTEXTEND
  0
MTEXT
  5
55F6
330
1A
100
AcDbEntity
  8
SUNPOU
100
AcDbMText
 10
111926.2155843935
 20
106397.5046765035
 30
0.0
 40
3.5
 41
0.0
 71
     9
 72
     5
  1

1001
ACAD
1000
MTEXTBEGIN
1070
    73
1070
     1
1070
    44
1040
1.0
1070
    74
1070
     0
1000
MTEXTEND
  0
MTEXT
  5
55F7
330
1A
100
AcDbEntity
  8
SUNPOU
100
AcDbMText
 10
60423.07604347968
 20
54031.71891135659
 30
0.0
 40
10.5
 41
0.0
 71
     9
 72
     5
  1

1001
ACAD
1000
MTEXTBEGIN
1070
    73
1070
     1
1070
    44
1040
1.0
1070
    74
1070
     0
1000
MTEXTEND
  0
MTEXT
  5
55F8
330
1A
100
AcDbEntity
  8
SUNPOU
100
AcDbMText
 10
46475.07594310369
 20
34859.3197722444
 30
0.0
 40
3.5
 41
0.0
 71
     7
 72
     5
  1

1001
ACAD
1000
MTEXTBEGIN
1070
    73
1070
     1
1070
    44
1040
1.0
1070
    74
1070
     0
1000
MTEXTEND
  0
MTEXT
  5
55F9
330
1A
100
AcDbEntity
  8
SUNPOU
100
AcDbMText
 10
74027.35402123588
 20
68370.58278833383
 30
0.0
 40
10.5
 41
0.0
 71
     9
 72
     5
  1

1001
ACAD
1000
MTEXTBEGIN
1070
    73
1070
     1
1070
    44
1040
1.0
1070
    74
1070
     0
1000
MTEXTEND
  0
MTEXT
  5
55FA
330
1A
100
AcDbEntity
  8
SUNPOU
100
AcDbMText
 10
75970.7612679453
 20
66569.53370845583
 30
0.0
 40
3.5
 41
0.0
 71
     9
 72
     5
  1

1001
ACAD
1000
MTEXTBEGIN
1070
    73
1070
     1
1070
    44
1040
1.0
1070
    74
1070
     0
1000
MTEXTEND
  0
MTEXT
  5
55FB
330
1A
100
AcDbEntity
  8
SUNPOU
100
AcDbMText
 10
107096.941100565
 20
109064.4793761132
 30
0.0
 40
10.5
 41
0.0
 71
     9
 72
     5
  1

1001
ACAD
1000
MTEXTBEGIN
1070
    73
1070
     1
1070
    44
1040
1.0
1070
    74
1070
     0
1000
MTEXTEND
  0
MTEXT
  5
55FC
330
1A
100
AcDbEntity
  8
SUNPOU
100
AcDbMText
 10
109040.3483472744
 20
107263.4302962351
 30
0.0
 40
3.5
 41
0.0
 71
     9
 72
     5
  1

1001
ACAD
1000
MTEXTBEGIN
1070
    73
1070
     1
1070
    44
1040
1.0
1070
    74
1070
     0
1000
MTEXTEND
  0
MTEXT
  5
55FD
330
1A
100
AcDbEntity
  8
SUNPOU
100
AcDbMText
 10
105709.1709283621
 20
108141.3777665285
 30
0.0
 40
10.5
 41
0.0
 71
     9
 72
     5
  1

1001
ACAD
1000
MTEXTBEGIN
1070
    73
1070
     1
1070
    44
1040
1.0
1070
    74
1070
     0
1000
MTEXTEND
  0
MTEXT
  5
55FE
330
1A
100
AcDbEntity
  8
SUNPOU
100
AcDbMText
 10
107652.5781750715
 20
106340.3286866505
 30
0.0
 40
3.5
 41
0.0
 71
     9
 72
     5
  1

1001
ACAD
1000
MTEXTBEGIN
1070
    73
1070
     1
1070
    44
1040
1.0
1070
    74
1070
     0
1000
MTEXTEND
  0
MTEXT
  5
55FF
330
1A
100
AcDbEntity
  8
SUNPOU
100
AcDbMText
 10
73193.09268743351
 20
66158.78082845056
 30
0.0
 40
10.5
 41
0.0
 71
     9
 72
     5
  1

1001
ACAD
1000
MTEXTBEGIN
1070
    73
1070
     1
1070
    44
1040
1.0
1070
    74
1070
     0
1000
MTEXTEND
  0
MTEXT
  5
5600
330
1A
100
AcDbEntity
  8
SUNPOU
100
AcDbMText
 10
75916.39889159806
 20
66563.46252003162
 30
0.0
 40
3.5
 41
0.0
 71
     9
 72
     5
  1

1001
ACAD
1000
MTEXTBEGIN
1070
    73
1070
     1
1070
    44
1040
1.0
1070
    74
1070
     0
1000
MTEXTEND
  0
MTEXT
  5
5601
330
1A
100
AcDbEntity
  8
SUNPOU
100
AcDbMText
 10
75124.04436649058
 20
63402.1566819768
 30
0.0
 40
10.5
 41
0.0
 71
     9
 72
     5
  1

1001
ACAD
1000
MTEXTBEGIN
1070
    73
1070
     1
1070
    44
1040
1.0
1070
    74
1070
     0
1000
MTEXTEND
  0
MTEXT
  5
5602
330
1A
100
AcDbEntity
  8
SUNPOU
100
AcDbMText
 10
77067.4516132
 20
61601.1076020988
 30
0.0
 40
3.5
 41
0.0
 71
     9
 72
     5
  1

1001
ACAD
1000
MTEXTBEGIN
1070
    73
1070
     1
1070
    44
1040
1.0
1070
    74
1070
     0
1000
MTEXTEND
  0
MTEXT
  5
5603
330
1A
100
AcDbEntity
  8
SUNPOU
100
AcDbMText
 10
77012.54710378659
 20
61488.33571981449
 30
0.0
 40
3.5
 41
0.0
 71
     9
 72
     5
  1

1001
ACAD
1000
MTEXTBEGIN
1070
    73
1070
     1
1070
    44
1040
1.0
1070
    74
1070
     0
1000
MTEXTEND
  0
MTEXT
  5
5604
330
1A
100
AcDbEntity
  8
SUNPOU
100
AcDbMText
 10
76376.61896736668
 20
60677.01447874797
 30
0.0
 40
3.5
 41
0.0
 71
     9
 72
     5
  1

1001
ACAD
1000
MTEXTBEGIN
1070
    73
1070
     1
1070
    44
1040
1.0
1070
    74
1070
     0
1000
MTEXTEND
  0
MTEXT
  5
5605
330
1A
100
AcDbEntity
  8
SUNPOU
100
AcDbMText
 10
76375.37854794595
 20
60676.76650181047
 30
0.0
 40
10.5
 41
0.0
 71
     9
 72
     5
  1

1001
ACAD
1000
MTEXTBEGIN
1070
    73
1070
     1
1070
    44
1040
1.0
1070
    74
1070
     0
1000
MTEXTEND
  0
MTEXT
  5
5606
330
1A
100
AcDbEntity
  8
SUNPOU
100
AcDbMText
 10
84709.93991079748
 20
78034.0328293557
 30
0.0
 40
10.5
 41
0.0
 71
     9
 72
     5
  1

1001
ACAD
1000
MTEXTBEGIN
1070
    73
1070
     1
1070
    44
1040
1.0
1070
    74
1070
     0
1000
MTEXTEND
  0
MTEXT
  5
5607
330
1A
100
AcDbEntity
  8
SUNPOU
100
AcDbMText
 10
93432.10747671548
 20
85449.86736089315
 30
0.0
 40
10.5
 41
0.0
 71
     9
 72
     5
  1

1001
ACAD
1000
MTEXTBEGIN
1070
    73
1070
     1
1070
    44
1040
1.0
1070
    74
1070
     0
1000
MTEXTEND
  0
MTEXT
  5
5608
330
1A
100
AcDbEntity
  8
SUNPOU
100
AcDbMText
 10
112385.8661940454
 20
102916.4434133851
 30
0.0
 40
10.5
 41
0.0
 71
     9
 72
     5
  1

1001
ACAD
1000
MTEXTBEGIN
1070
    73
1070
     1
1070
    44
1040
1.0
1070
    74
1070
     0
1000
MTEXTEND
  0
MTEXT
  5
5609
330
1A
100
AcDbEntity
  8
SUNPOU
100
AcDbMText
 10
114329.2734407548
 20
101115.3943335072
 30
0.0
 40
3.5
 41
0.0
 71
     9
 72
     5
  1

1001
ACAD
1000
MTEXTBEGIN
1070
    73
1070
     1
1070
    44
1040
1.0
1070
    74
1070
     0
1000
MTEXTEND
  0
MTEXT
  5
560A
330
1A
100
AcDbEntity
  8
SUNPOU
100
AcDbMText
 10
145455.4532733745
 20
143610.3400011645
 30
0.0
 40
10.5
 41
0.0
 71
     9
 72
     5
  1

1001
ACAD
1000
MTEXTBEGIN
1070
    73
1070
     1
1070
    44
1040
1.0
1070
    74
1070
     0
1000
MTEXTEND
  0
MTEXT
  5
560B
330
1A
100
AcDbEntity
  8
SUNPOU
100
AcDbMText
 10
147398.8605200839
 20
141809.2909212864
 30
0.0
 40
3.5
 41
0.0
 71
     9
 72
     5
  1

1001
ACAD
1000
MTEXTBEGIN
1070
    73
1070
     1
1070
    44
1040
1.0
1070
    74
1070
     0
1000
MTEXTEND
  0
MTEXT
  5
560C
330
1A
100
AcDbEntity
  8
SUNPOU
100
AcDbMText
 10
95895.72097917013
 20
89443.5051561396
 30
0.0
 40
10.5
 41
0.0
 71
     9
 72
     5
  1

1001
ACAD
1000
MTEXTBEGIN
1070
    73
1070
     1
1070
    44
1040
1.0
1070
    74
1070
     0
1000
MTEXTEND
  0
MTEXT
  5
560D
330
1A
100
AcDbEntity
  8
SUNPOU
100
AcDbMText
 10
81947.72087879414
 20
70271.1060170274
 30
0.0
 40
3.5
 41
0.0
 71
     7
 72
     5
  1

1001
ACAD
1000
MTEXTBEGIN
1070
    73
1070
     1
1070
    44
1040
1.0
1070
    74
1070
     0
1000
MTEXTEND
  0
MTEXT
  5
560E
330
1A
100
AcDbEntity
  8
SUNPOU
100
AcDbMText
 10
62932.89027578729
 20
58033.25474784561
 30
0.0
 40
10.5
 41
0.0
 71
     7
 72
     5
  1

1001
ACAD
1000
MTEXTBEGIN
1070
    73
1070
     1
1070
    44
1040
1.0
1070
    74
1070
     0
1000
MTEXTEND
  0
MTEXT
  5
560F
330
1A
100
AcDbEntity
  8
SUNPOU
100
AcDbMText
 10
50475.66201083918
 20
42188.32316974719
 30
0.0
 40
35.0
 41
0.0
 71
     9
 72
     5
  1

1001
ACAD
1000
MTEXTBEGIN
1070
    73
1070
     1
1070
    44
1040
1.0
1070
    74
1070
     0
1000
MTEXTEND
  0
MTEXT
  5
5610
330
1A
100
AcDbEntity
  8
SUNPOU
100
AcDbMText
 10
49384.14706841413
 20
42797.0985797959
 30
0.0
 40
350.0000004171781
 41
0.0
 71
     7
 72
     5
  1

1001
ACAD
1000
MTEXTBEGIN
1070
    73
1070
     1
1070
    44
1040
1.0
1070
    74
1070
     0
1000
MTEXTEND
  0
MTEXT
  5
5611
330
1A
100
AcDbEntity
  8
0
100
AcDbMText
 10
55428.09782635704
 20
40777.02094193211
 30
0.0
 40
8.0
 41
0.0
 71
     7
 72
     5
  1

1001
ACAD
1000
MTEXTBEGIN
1070
    73
1070
     1
1070
    44
1040
1.0
1070
    74
1070
     0
1000
MTEXTEND
  0
MTEXT
  5
5612
330
1A
100
AcDbEntity
  8
0
100
AcDbMText
 10
57713.45551625194
 20
41747.81123668317
 30
0.0
 40
8.0
 41
0.0
 71
     7
 72
     5
  1

1001
ACAD
1000
MTEXTBEGIN
1070
    73
1070
     1
1070
    44
1040
1.0
1070
    74
1070
     0
1000
MTEXTEND
  0
MTEXT
  5
5613
330
1A
100
AcDbEntity
  8
SUNPOU
100
AcDbMText
 10
60379.35253693408
 20
51259.9226290583
 30
0.0
 40
10.5
 41
0.0
 71
     1
 72
     5
  1

1001
ACAD
1000
MTEXTBEGIN
1070
    73
1070
     1
1070
    44
1040
1.0
1070
    74
1070
     0
1000
MTEXTEND
  0
MTEXT
  5
5614
330
1A
100
AcDbEntity
  8
SUNPOU
100
AcDbMText
 10
52448.42934099814
 20
50313.12949514535
 30
0.0
 40
10.5
 41
0.0
 71
     7
 72
     5
  1

1001
ACAD
1000
MTEXTBEGIN
1070
    73
1070
     1
1070
    44
1040
1.0
1070
    74
1070
     0
1000
MTEXTEND
  0
MTEXT
  5
5615
330
1A
100
AcDbEntity
  8
SUNPOU
100
AcDbMText
 10
55397.41300551091
 20
55213.80556698819
 30
0.0
 40
10.5
 41
0.0
 71
     7
 72
     5
  1

1001
ACAD
1000
MTEXTBEGIN
1070
    73
1070
     1
1070
    44
1040
1.0
1070
    74
1070
     0
1000
MTEXTEND
  0
MTEXT
  5
5616
330
1A
100
AcDbEntity
  8
SUNPOU
100
AcDbMText
 10
59906.49113346147
 20
57650.10631460826
 30
0.0
 40
10.5
 41
0.0
 71
     7
 72
     5
  1

1001
ACAD
1000
MTEXTBEGIN
1070
    73
1070
     1
1070
    44
1040
1.0
1070
    74
1070
     0
1000
MTEXTEND
  0
MTEXT
  5
5617
330
1A
100
AcDbEntity
  8
SUNPOU
100
AcDbMText
 10
43507.32902022979
 20
36647.70246499718
 30
0.0
 40
10.5
 41
0.0
 71
     7
 72
     5
  1

1001
ACAD
1000
MTEXTBEGIN
1070
    73
1070
     1
1070
    44
1040
1.0
1070
    74
1070
     0
1000
MTEXTEND
  0
MTEXT
  5
5618
330
1A
100
AcDbEntity
  8
SUNPOU
100
AcDbMText
 10
94698.84745413006
 20
82320.68302864542
 30
0.0
 40
10.5
 41
0.0
 71
     9
 72
     5
  1

1001
ACAD
1000
MTEXTBEGIN
1070
    73
1070
     1
1070
    44
1040
1.0
1070
    74
1070
     0
1000
MTEXTEND
  0
MTEXT
  5
5619
330
1A
100
AcDbEntity
  8
SUNPOU
100
AcDbMText
 10
103421.015020048
 20
89736.5175601829
 30
0.0
 40
10.5
 41
0.0
 71
     9
 72
     5
  1

1001
ACAD
1000
MTEXTBEGIN
1070
    73
1070
     1
1070
    44
1040
1.0
1070
    74
1070
     0
1000
MTEXTEND
  0
MTEXT
  5
561A
330
1A
100
AcDbEntity
  8
SUNPOU
100
AcDbMText
 10
122374.773737378
 20
107203.0936126749
 30
0.0
 40
10.5
 41
0.0
 71
     9
 72
     5
  1

1001
ACAD
1000
MTEXTBEGIN
1070
    73
1070
     1
1070
    44
1040
1.0
1070
    74
1070
     0
1000
MTEXTEND
  0
MTEXT
  5
561B
330
1A
100
AcDbEntity
  8
SUNPOU
100
AcDbMText
 10
124318.1809840874
 20
105402.0445327969
 30
0.0
 40
3.5
 41
0.0
 71
     9
 72
     5
  1

1001
ACAD
1000
MTEXTBEGIN
1070
    73
1070
     1
1070
    44
1040
1.0
1070
    74
1070
     0
1000
MTEXTEND
  0
MTEXT
  5
561C
330
1A
100
AcDbEntity
  8
SUNPOU
100
AcDbMText
 10
155444.3608167071
 20
147896.9902004542
 30
0.0
 40
10.5
 41
0.0
 71
     9
 72
     5
  1

1001
ACAD
1000
MTEXTBEGIN
1070
    73
1070
     1
1070
    44
1040
1.0
1070
    74
1070
     0
1000
MTEXTEND
  0
MTEXT
  5
561D
330
1A
100
AcDbEntity
  8
SUNPOU
100
AcDbMText
 10
157387.7680634165
 20
146095.9411205762
 30
0.0
 40
3.5
 41
0.0
 71
     9
 72
     5
  1

1001
ACAD
1000
MTEXTBEGIN
1070
    73
1070
     1
1070
    44
1040
1.0
1070
    74
1070
     0
1000
MTEXTEND
  0
MTEXT
  5
561E
330
1A
100
AcDbEntity
  8
SUNPOU
100
AcDbMText
 10
105884.6285225027
 20
93730.15535542933
 30
0.0
 40
10.5
 41
0.0
 71
     9
 72
     5
  1

1001
ACAD
1000
MTEXTBEGIN
1070
    73
1070
     1
1070
    44
1040
1.0
1070
    74
1070
     0
1000
MTEXTEND
  0
MTEXT
  5
561F
330
1A
100
AcDbEntity
  8
SUNPOU
100
AcDbMText
 10
91936.6284221267
 20
74557.75621631714
 30
0.0
 40
3.5
 41
0.0
 71
     7
 72
     5
  1

1001
ACAD
1000
MTEXTBEGIN
1070
    73
1070
     1
1070
    44
1040
1.0
1070
    74
1070
     0
1000
MTEXTEND
  0
MTEXT
  5
5620
330
1A
100
AcDbEntity
  8
SUNPOU
100
AcDbMText
 10
72921.79781911986
 20
62319.90494713533
 30
0.0
 40
10.5
 41
0.0
 71
     7
 72
     5
  1

1001
ACAD
1000
MTEXTBEGIN
1070
    73
1070
     1
1070
    44
1040
1.0
1070
    74
1070
     0
1000
MTEXTEND
  0
MTEXT
  5
5621
330
1A
100
AcDbEntity
  8
SUNPOU
100
AcDbMText
 10
60464.56955417175
 20
46474.97336903692
 30
0.0
 40
35.0
 41
0.0
 71
     9
 72
     5
  1

1001
ACAD
1000
MTEXTBEGIN
1070
    73
1070
     1
1070
    44
1040
1.0
1070
    74
1070
     0
1000
MTEXTEND
  0
MTEXT
  5
5622
330
1A
100
AcDbEntity
  8
SUNPOU
100
AcDbMText
 10
59373.05461174672
 20
47083.74877908562
 30
0.0
 40
350.0000004171781
 41
0.0
 71
     7
 72
     5
  1

1001
ACAD
1000
MTEXTBEGIN
1070
    73
1070
     1
1070
    44
1040
1.0
1070
    74
1070
     0
1000
MTEXTEND
  0
MTEXT
  5
5623
330
1A
100
AcDbEntity
  8
0
100
AcDbMText
 10
65417.00536968962
 20
45063.67114122186
 30
0.0
 40
8.0
 41
0.0
 71
     7
 72
     5
  1

1001
ACAD
1000
MTEXTBEGIN
1070
    73
1070
     1
1070
    44
1040
1.0
1070
    74
1070
     0
1000
MTEXTEND
  0
MTEXT
  5
5624
330
1A
100
AcDbEntity
  8
0
100
AcDbMText
 10
67702.36305958452
 20
46034.46143597292
 30
0.0
 40
8.0
 41
0.0
 71
     7
 72
     5
  1

1001
ACAD
1000
MTEXTBEGIN
1070
    73
1070
     1
1070
    44
1040
1.0
1070
    74
1070
     0
1000
MTEXTEND
  0
MTEXT
  5
5625
330
1A
100
AcDbEntity
  8
SUNPOU
100
AcDbMText
 10
70368.26008026666
 20
55546.57282834803
 30
0.0
 40
10.5
 41
0.0
 71
     1
 72
     5
  1

1001
ACAD
1000
MTEXTBEGIN
1070
    73
1070
     1
1070
    44
1040
1.0
1070
    74
1070
     0
1000
MTEXTEND
  0
MTEXT
  5
5626
330
1A
100
AcDbEntity
  8
SUNPOU
100
AcDbMText
 10
62437.33688433072
 20
54599.77969443508
 30
0.0
 40
10.5
 41
0.0
 71
     7
 72
     5
  1

1001
ACAD
1000
MTEXTBEGIN
1070
    73
1070
     1
1070
    44
1040
1.0
1070
    74
1070
     0
1000
MTEXTEND
  0
MTEXT
  5
5627
330
1A
100
AcDbEntity
  8
SUNPOU
100
AcDbMText
 10
65386.32054884349
 20
59500.45576627792
 30
0.0
 40
10.5
 41
0.0
 71
     7
 72
     5
  1

1001
ACAD
1000
MTEXTBEGIN
1070
    73
1070
     1
1070
    44
1040
1.0
1070
    74
1070
     0
1000
MTEXTEND
  0
MTEXT
  5
5628
330
1A
100
AcDbEntity
  8
SUNPOU
100
AcDbMText
 10
69895.39867679405
 20
61936.756513898
 30
0.0
 40
10.5
 41
0.0
 71
     7
 72
     5
  1

1001
ACAD
1000
MTEXTBEGIN
1070
    73
1070
     1
1070
    44
1040
1.0
1070
    74
1070
     0
1000
MTEXTEND
  0
MTEXT
  5
5629
330
1A
100
AcDbEntity
  8
SUNPOU
100
AcDbMText
 10
53496.23656356237
 20
40934.35266428691
 30
0.0
 40
10.5
 41
0.0
 71
     7
 72
     5
  1

1001
ACAD
1000
MTEXTBEGIN
1070
    73
1070
     1
1070
    44
1040
1.0
1070
    74
1070
     0
1000
MTEXTEND
  0
MTEXT
  5
562A
330
1A
100
AcDbEntity
  8
SUNPOU
100
AcDbMText
 10
55306.99947493731
 20
47261.76665176547
 30
0.0
 40
10.5
 41
0.0
 71
     9
 72
     5
  1

1001
ACAD
1000
MTEXTBEGIN
1070
    73
1070
     1
1070
    44
1040
1.0
1070
    74
1070
     0
1000
MTEXTEND
  0
MTEXT
  5
562B
330
1A
100
AcDbEntity
  8
SUNPOU
100
AcDbMText
 10
64029.16704085528
 20
54677.60118330295
 30
0.0
 40
10.5
 41
0.0
 71
     9
 72
     5
  1

1001
ACAD
1000
MTEXTBEGIN
1070
    73
1070
     1
1070
    44
1040
1.0
1070
    74
1070
     0
1000
MTEXTEND
  0
MTEXT
  5
562C
330
1A
100
AcDbEntity
  8
SUNPOU
100
AcDbMText
 10
82982.92575818527
 20
72144.17723579499
 30
0.0
 40
10.5
 41
0.0
 71
     9
 72
     5
  1

1001
ACAD
1000
MTEXTBEGIN
1070
    73
1070
     1
1070
    44
1040
1.0
1070
    74
1070
     0
1000
MTEXTEND
  0
MTEXT
  5
562D
330
1A
100
AcDbEntity
  8
SUNPOU
100
AcDbMText
 10
84926.33300489467
 20
70343.12815591698
 30
0.0
 40
3.5
 41
0.0
 71
     9
 72
     5
  1

1001
ACAD
1000
MTEXTBEGIN
1070
    73
1070
     1
1070
    44
1040
1.0
1070
    74
1070
     0
1000
MTEXTEND
  0
MTEXT
  5
562E
330
1A
100
AcDbEntity
  8
SUNPOU
100
AcDbMText
 10
116052.5128375143
 20
112838.0738235743
 30
0.0
 40
10.5
 41
0.0
 71
     9
 72
     5
  1

1001
ACAD
1000
MTEXTBEGIN
1070
    73
1070
     1
1070
    44
1040
1.0
1070
    74
1070
     0
1000
MTEXTEND
  0
MTEXT
  5
562F
330
1A
100
AcDbEntity
  8
SUNPOU
100
AcDbMText
 10
117995.9200842238
 20
111037.0247436963
 30
0.0
 40
3.5
 41
0.0
 71
     9
 72
     5
  1

1001
ACAD
1000
MTEXTBEGIN
1070
    73
1070
     1
1070
    44
1040
1.0
1070
    74
1070
     0
1000
MTEXTEND
  0
MTEXT
  5
5630
330
1A
100
AcDbEntity
  8
SUNPOU
100
AcDbMText
 10
66492.78054330994
 20
58671.23897854939
 30
0.0
 40
10.5
 41
0.0
 71
     9
 72
     5
  1

1001
ACAD
1000
MTEXTBEGIN
1070
    73
1070
     1
1070
    44
1040
1.0
1070
    74
1070
     0
1000
MTEXTEND
  0
MTEXT
  5
5631
330
1A
100
AcDbEntity
  8
SUNPOU
100
AcDbMText
 10
52544.78044293396
 20
39498.83983943717
 30
0.0
 40
3.5
 41
0.0
 71
     7
 72
     5
  1

1001
ACAD
1000
MTEXTBEGIN
1070
    73
1070
     1
1070
    44
1040
1.0
1070
    74
1070
     0
1000
MTEXTEND
  0
MTEXT
  5
5632
330
1A
100
AcDbEntity
  8
SUNPOU
100
AcDbMText
 10
66237.13112570454
 20
48857.90306045851
 30
0.0
 40
10.5
 41
0.0
 71
     9
 72
     5
  1

1001
ACAD
1000
MTEXTBEGIN
1070
    73
1070
     1
1070
    44
1040
1.0
1070
    74
1070
     0
1000
MTEXTEND
  0
MTEXT
  5
5633
330
1A
100
AcDbEntity
  8
SUNPOU
100
AcDbMText
 10
74959.29869162252
 20
56273.737591996
 30
0.0
 40
10.5
 41
0.0
 71
     9
 72
     5
  1

1001
ACAD
1000
MTEXTBEGIN
1070
    73
1070
     1
1070
    44
1040
1.0
1070
    74
1070
     0
1000
MTEXTEND
  0
MTEXT
  5
5634
330
1A
100
AcDbEntity
  8
SUNPOU
100
AcDbMText
 10
93913.0574089525
 20
73740.31364448805
 30
0.0
 40
10.5
 41
0.0
 71
     9
 72
     5
  1

1001
ACAD
1000
MTEXTBEGIN
1070
    73
1070
     1
1070
    44
1040
1.0
1070
    74
1070
     0
1000
MTEXTEND
  0
MTEXT
  5
5635
330
1A
100
AcDbEntity
  8
SUNPOU
100
AcDbMText
 10
95856.46465566192
 20
71939.26456461004
 30
0.0
 40
3.5
 41
0.0
 71
     9
 72
     5
  1

1001
ACAD
1000
MTEXTBEGIN
1070
    73
1070
     1
1070
    44
1040
1.0
1070
    74
1070
     0
1000
MTEXTEND
  0
MTEXT
  5
5636
330
1A
100
AcDbEntity
  8
SUNPOU
100
AcDbMText
 10
126982.6444882816
 20
114434.2102322673
 30
0.0
 40
10.5
 41
0.0
 71
     9
 72
     5
  1

1001
ACAD
1000
MTEXTBEGIN
1070
    73
1070
     1
1070
    44
1040
1.0
1070
    74
1070
     0
1000
MTEXTEND
  0
MTEXT
  5
5637
330
1A
100
AcDbEntity
  8
SUNPOU
100
AcDbMText
 10
128926.051734991
 20
112633.1611523893
 30
0.0
 40
3.5
 41
0.0
 71
     9
 72
     5
  1

1001
ACAD
1000
MTEXTBEGIN
1070
    73
1070
     1
1070
    44
1040
1.0
1070
    74
1070
     0
1000
MTEXTEND
  0
MTEXT
  5
5638
330
1A
100
AcDbEntity
  8
SUNPOU
100
AcDbMText
 10
77422.91219407717
 20
60267.37538724244
 30
0.0
 40
10.5
 41
0.0
 71
     9
 72
     5
  1

1001
ACAD
1000
MTEXTBEGIN
1070
    73
1070
     1
1070
    44
1040
1.0
1070
    74
1070
     0
1000
MTEXTEND
  0
MTEXT
  5
5639
330
1A
100
AcDbEntity
  8
SUNPOU
100
AcDbMText
 10
63474.91209370119
 20
41094.97624813023
 30
0.0
 40
3.5
 41
0.0
 71
     7
 72
     5
  1

1001
ACAD
1000
MTEXTBEGIN
1070
    73
1070
     1
1070
    44
1040
1.0
1070
    74
1070
     0
1000
MTEXTEND
  0
MTEXT
  5
563A
330
1A
100
AcDbEntity
  8
SUNPOU
100
AcDbMText
 10
48117.65086229006
 20
40806.11043916631
 30
0.0
 40
10.5
 41
0.0
 71
     9
 72
     5
  1

1001
ACAD
1000
MTEXTBEGIN
1070
    73
1070
     1
1070
    44
1040
1.0
1070
    74
1070
     0
1000
MTEXTEND
  0
MTEXT
  5
563B
330
1A
100
AcDbEntity
  8
SUNPOU
100
AcDbMText
 10
67071.40957962004
 20
58272.68649165837
 30
0.0
 40
10.5
 41
0.0
 71
     9
 72
     5
  1

1001
ACAD
1000
MTEXTBEGIN
1070
    73
1070
     1
1070
    44
1040
1.0
1070
    74
1070
     0
1000
MTEXTEND
  0
MTEXT
  5
563C
330
1A
100
AcDbEntity
  8
SUNPOU
100
AcDbMText
 10
69014.81682632945
 20
56471.63741178035
 30
0.0
 40
3.5
 41
0.0
 71
     9
 72
     5
  1

1001
ACAD
1000
MTEXTBEGIN
1070
    73
1070
     1
1070
    44
1040
1.0
1070
    74
1070
     0
1000
MTEXTEND
  0
MTEXT
  5
563D
330
1A
100
AcDbEntity
  8
SUNPOU
100
AcDbMText
 10
100140.9966589491
 20
98966.58307943772
 30
0.0
 40
10.5
 41
0.0
 71
     9
 72
     5
  1

1001
ACAD
1000
MTEXTBEGIN
1070
    73
1070
     1
1070
    44
1040
1.0
1070
    74
1070
     0
1000
MTEXTEND
  0
MTEXT
  5
563E
330
1A
100
AcDbEntity
  8
SUNPOU
100
AcDbMText
 10
102084.4039056586
 20
97165.53399955969
 30
0.0
 40
3.5
 41
0.0
 71
     9
 72
     5
  1

1001
ACAD
1000
MTEXTBEGIN
1070
    73
1070
     1
1070
    44
1040
1.0
1070
    74
1070
     0
1000
MTEXTEND
  0
MTEXT
  5
563F
330
1A
100
AcDbEntity
  8
SUNPOU
100
AcDbMText
 10
50581.26436474472
 20
44799.74823441275
 30
0.0
 40
10.5
 41
0.0
 71
     9
 72
     5
  1

1001
ACAD
1000
MTEXTBEGIN
1070
    73
1070
     1
1070
    44
1040
1.0
1070
    74
1070
     0
1000
MTEXTEND
  0
MTEXT
  5
5640
330
1A
100
AcDbEntity
  8
SUNPOU
100
AcDbMText
 10
36633.26426436873
 20
25627.34909530054
 30
0.0
 40
3.5
 41
0.0
 71
     7
 72
     5
  1

1001
ACAD
1000
MTEXTBEGIN
1070
    73
1070
     1
1070
    44
1040
1.0
1070
    74
1070
     0
1000
MTEXTEND
  0
MTEXT
  5
5641
330
1A
100
AcDbEntity
  8
SUNPOU
100
AcDbMText
 10
61069.42493315968
 20
52574.61207825771
 30
0.0
 40
10.5
 41
0.0
 71
     9
 72
     5
  1

1001
ACAD
1000
MTEXTBEGIN
1070
    73
1070
     1
1070
    44
1040
1.0
1070
    74
1070
     0
1000
MTEXTEND
  0
MTEXT
  5
5642
330
1A
100
AcDbEntity
  8
SUNPOU
100
AcDbMText
 10
80023.18365048967
 20
70041.18813074978
 30
0.0
 40
10.5
 41
0.0
 71
     9
 72
     5
  1

1001
ACAD
1000
MTEXTBEGIN
1070
    73
1070
     1
1070
    44
1040
1.0
1070
    74
1070
     0
1000
MTEXTEND
  0
MTEXT
  5
5643
330
1A
100
AcDbEntity
  8
SUNPOU
100
AcDbMText
 10
81966.59089719908
 20
68240.13905087176
 30
0.0
 40
3.5
 41
0.0
 71
     9
 72
     5
  1

1001
ACAD
1000
MTEXTBEGIN
1070
    73
1070
     1
1070
    44
1040
1.0
1070
    74
1070
     0
1000
MTEXTEND
  0
MTEXT
  5
5644
330
1A
100
AcDbEntity
  8
SUNPOU
100
AcDbMText
 10
113092.7707298187
 20
110735.0847185291
 30
0.0
 40
10.5
 41
0.0
 71
     9
 72
     5
  1

1001
ACAD
1000
MTEXTBEGIN
1070
    73
1070
     1
1070
    44
1040
1.0
1070
    74
1070
     0
1000
MTEXTEND
  0
MTEXT
  5
5645
330
1A
100
AcDbEntity
  8
SUNPOU
100
AcDbMText
 10
115036.1779765282
 20
108934.0356386511
 30
0.0
 40
3.5
 41
0.0
 71
     9
 72
     5
  1

1001
ACAD
1000
MTEXTBEGIN
1070
    73
1070
     1
1070
    44
1040
1.0
1070
    74
1070
     0
1000
MTEXTEND
  0
MTEXT
  5
5646
330
1A
100
AcDbEntity
  8
SUNPOU
100
AcDbMText
 10
63533.03843561433
 20
56568.24987350415
 30
0.0
 40
10.5
 41
0.0
 71
     9
 72
     5
  1

1001
ACAD
1000
MTEXTBEGIN
1070
    73
1070
     1
1070
    44
1040
1.0
1070
    74
1070
     0
1000
MTEXTEND
  0
MTEXT
  5
5647
330
1A
100
AcDbEntity
  8
SUNPOU
100
AcDbMText
 10
49585.03833523835
 20
37395.85073439196
 30
0.0
 40
3.5
 41
0.0
 71
     7
 72
     5
  1

1001
ACAD
1000
MTEXTBEGIN
1070
    73
1070
     1
1070
    44
1040
1.0
1070
    74
1070
     0
1000
MTEXTEND
  0
MTEXT
  5
5648
330
1A
100
AcDbEntity
  8
SUNPOU
100
AcDbMText
 10
77137.31641337052
 20
70907.11375048141
 30
0.0
 40
10.5
 41
0.0
 71
     9
 72
     5
  1

1001
ACAD
1000
MTEXTBEGIN
1070
    73
1070
     1
1070
    44
1040
1.0
1070
    74
1070
     0
1000
MTEXTEND
  0
MTEXT
  5
5649
330
1A
100
AcDbEntity
  8
SUNPOU
100
AcDbMText
 10
79080.72366007995
 20
69106.06467060339
 30
0.0
 40
3.5
 41
0.0
 71
     9
 72
     5
  1

1001
ACAD
1000
MTEXTBEGIN
1070
    73
1070
     1
1070
    44
1040
1.0
1070
    74
1070
     0
1000
MTEXTEND
  0
MTEXT
  5
564A
330
1A
100
AcDbEntity
  8
SUNPOU
100
AcDbMText
 10
110206.9034926996
 20
111601.0103382607
 30
0.0
 40
10.5
 41
0.0
 71
     9
 72
     5
  1

1001
ACAD
1000
MTEXTBEGIN
1070
    73
1070
     1
1070
    44
1040
1.0
1070
    74
1070
     0
1000
MTEXTEND
  0
MTEXT
  5
564B
330
1A
100
AcDbEntity
  8
SUNPOU
100
AcDbMText
 10
112150.310739409
 20
109799.9612583827
 30
0.0
 40
3.5
 41
0.0
 71
     9
 72
     5
  1

1001
ACAD
1000
MTEXTBEGIN
1070
    73
1070
     1
1070
    44
1040
1.0
1070
    74
1070
     0
1000
MTEXTEND
  0
MTEXT
  5
564C
330
1A
100
AcDbEntity
  8
SUNPOU
100
AcDbMText
 10
108819.1333204968
 20
110677.9087286761
 30
0.0
 40
10.5
 41
0.0
 71
     9
 72
     5
  1

1001
ACAD
1000
MTEXTBEGIN
1070
    73
1070
     1
1070
    44
1040
1.0
1070
    74
1070
     0
1000
MTEXTEND
  0
MTEXT
  5
564D
330
1A
100
AcDbEntity
  8
SUNPOU
100
AcDbMText
 10
110762.5405672062
 20
108876.8596487981
 30
0.0
 40
3.5
 41
0.0
 71
     9
 72
     5
  1

1001
ACAD
1000
MTEXTBEGIN
1070
    73
1070
     1
1070
    44
1040
1.0
1070
    74
1070
     0
1000
MTEXTEND
  0
MTEXT
  5
564E
330
1A
100
AcDbEntity
  8
SUNPOU
100
AcDbMText
 10
76303.05507956816
 20
68695.31179059812
 30
0.0
 40
10.5
 41
0.0
 71
     9
 72
     5
  1

1001
ACAD
1000
MTEXTBEGIN
1070
    73
1070
     1
1070
    44
1040
1.0
1070
    74
1070
     0
1000
MTEXTEND
  0
MTEXT
  5
564F
330
1A
100
AcDbEntity
  8
SUNPOU
100
AcDbMText
 10
79026.36128373271
 20
69099.99348217918
 30
0.0
 40
3.5
 41
0.0
 71
     9
 72
     5
  1

1001
ACAD
1000
MTEXTBEGIN
1070
    73
1070
     1
1070
    44
1040
1.0
1070
    74
1070
     0
1000
MTEXTEND
  0
MTEXT
  5
5650
330
1A
100
AcDbEntity
  8
SUNPOU
100
AcDbMText
 10
78234.00675862522
 20
65938.68764412436
 30
0.0
 40
10.5
 41
0.0
 71
     9
 72
     5
  1

1001
ACAD
1000
MTEXTBEGIN
1070
    73
1070
     1
1070
    44
1040
1.0
1070
    74
1070
     0
1000
MTEXTEND
  0
MTEXT
  5
5651
330
1A
100
AcDbEntity
  8
SUNPOU
100
AcDbMText
 10
80177.41400533465
 20
64137.63856424636
 30
0.0
 40
3.5
 41
0.0
 71
     9
 72
     5
  1

1001
ACAD
1000
MTEXTBEGIN
1070
    73
1070
     1
1070
    44
1040
1.0
1070
    74
1070
     0
1000
MTEXTEND
  0
MTEXT
  5
5652
330
1A
100
AcDbEntity
  8
SUNPOU
100
AcDbMText
 10
80122.50949592123
 20
64024.86668196205
 30
0.0
 40
3.5
 41
0.0
 71
     9
 72
     5
  1

1001
ACAD
1000
MTEXTBEGIN
1070
    73
1070
     1
1070
    44
1040
1.0
1070
    74
1070
     0
1000
MTEXTEND
  0
MTEXT
  5
5653
330
1A
100
AcDbEntity
  8
SUNPOU
100
AcDbMText
 10
79486.58135950133
 20
63213.54544089553
 30
0.0
 40
3.5
 41
0.0
 71
     9
 72
     5
  1

1001
ACAD
1000
MTEXTBEGIN
1070
    73
1070
     1
1070
    44
1040
1.0
1070
    74
1070
     0
1000
MTEXTEND
  0
MTEXT
  5
5654
330
1A
100
AcDbEntity
  8
SUNPOU
100
AcDbMText
 10
79485.3409400806
 20
63213.29746395804
 30
0.0
 40
10.5
 41
0.0
 71
     9
 72
     5
  1

1001
ACAD
1000
MTEXTBEGIN
1070
    73
1070
     1
1070
    44
1040
1.0
1070
    74
1070
     0
1000
MTEXTEND
  0
MTEXT
  5
5655
330
1A
100
AcDbEntity
  8
SUNPOU
100
AcDbMText
 10
85473.63363627567
 20
80747.76348077064
 30
0.0
 40
10.5
 41
0.0
 71
     9
 72
     5
  1

1001
ACAD
1000
MTEXTBEGIN
1070
    73
1070
     1
1070
    44
1040
1.0
1070
    74
1070
     0
1000
MTEXTEND
  0
MTEXT
  5
5656
330
1A
100
AcDbEntity
  8
SUNPOU
100
AcDbMText
 10
94195.80120219368
 20
88163.59801230809
 30
0.0
 40
10.5
 41
0.0
 71
     9
 72
     5
  1

1001
ACAD
1000
MTEXTBEGIN
1070
    73
1070
     1
1070
    44
1040
1.0
1070
    74
1070
     0
1000
MTEXTEND
  0
MTEXT
  5
5657
330
1A
100
AcDbEntity
  8
SUNPOU
100
AcDbMText
 10
113149.5599195236
 20
105630.1740648001
 30
0.0
 40
10.5
 41
0.0
 71
     9
 72
     5
  1

1001
ACAD
1000
MTEXTBEGIN
1070
    73
1070
     1
1070
    44
1040
1.0
1070
    74
1070
     0
1000
MTEXTEND
  0
MTEXT
  5
5658
330
1A
100
AcDbEntity
  8
SUNPOU
100
AcDbMText
 10
115092.967166233
 20
103829.1249849221
 30
0.0
 40
3.5
 41
0.0
 71
     9
 72
     5
  1

1001
ACAD
1000
MTEXTBEGIN
1070
    73
1070
     1
1070
    44
1040
1.0
1070
    74
1070
     0
1000
MTEXTEND
  0
MTEXT
  5
5659
330
1A
100
AcDbEntity
  8
SUNPOU
100
AcDbMText
 10
146219.1469988527
 20
146324.0706525794
 30
0.0
 40
10.5
 41
0.0
 71
     9
 72
     5
  1

1001
ACAD
1000
MTEXTBEGIN
1070
    73
1070
     1
1070
    44
1040
1.0
1070
    74
1070
     0
1000
MTEXTEND
  0
MTEXT
  5
565A
330
1A
100
AcDbEntity
  8
SUNPOU
100
AcDbMText
 10
148162.5542455621
 20
144523.0215727014
 30
0.0
 40
3.5
 41
0.0
 71
     9
 72
     5
  1

1001
ACAD
1000
MTEXTBEGIN
1070
    73
1070
     1
1070
    44
1040
1.0
1070
    74
1070
     0
1000
MTEXTEND
  0
MTEXT
  5
565B
330
1A
100
AcDbEntity
  8
SUNPOU
100
AcDbMText
 10
96659.41470464833
 20
92157.23580755453
 30
0.0
 40
10.5
 41
0.0
 71
     9
 72
     5
  1

1001
ACAD
1000
MTEXTBEGIN
1070
    73
1070
     1
1070
    44
1040
1.0
1070
    74
1070
     0
1000
MTEXTEND
  0
MTEXT
  5
565C
330
1A
100
AcDbEntity
  8
SUNPOU
100
AcDbMText
 10
82711.41460427234
 20
72984.83666844234
 30
0.0
 40
3.5
 41
0.0
 71
     7
 72
     5
  1

1001
ACAD
1000
MTEXTBEGIN
1070
    73
1070
     1
1070
    44
1040
1.0
1070
    74
1070
     0
1000
MTEXTEND
  0
MTEXT
  5
565D
330
1A
100
AcDbEntity
  8
SUNPOU
100
AcDbMText
 10
63696.58400126548
 20
60746.98539926055
 30
0.0
 40
10.5
 41
0.0
 71
     7
 72
     5
  1

1001
ACAD
1000
MTEXTBEGIN
1070
    73
1070
     1
1070
    44
1040
1.0
1070
    74
1070
     0
1000
MTEXTEND
  0
MTEXT
  5
565E
330
1A
100
AcDbEntity
  8
SUNPOU
100
AcDbMText
 10
51239.35573631738
 20
44902.05382116213
 30
0.0
 40
35.0
 41
0.0
 71
     9
 72
     5
  1

1001
ACAD
1000
MTEXTBEGIN
1070
    73
1070
     1
1070
    44
1040
1.0
1070
    74
1070
     0
1000
MTEXTEND
  0
MTEXT
  5
565F
330
1A
100
AcDbEntity
  8
SUNPOU
100
AcDbMText
 10
50147.84079389233
 20
45510.82923121084
 30
0.0
 40
350.0000004171781
 41
0.0
 71
     7
 72
     5
  1

1001
ACAD
1000
MTEXTBEGIN
1070
    73
1070
     1
1070
    44
1040
1.0
1070
    74
1070
     0
1000
MTEXTEND
  0
MTEXT
  5
5660
330
1A
100
AcDbEntity
  8
0
100
AcDbMText
 10
56191.79155183523
 20
43490.75159334705
 30
0.0
 40
8.0
 41
0.0
 71
     7
 72
     5
  1

1001
ACAD
1000
MTEXTBEGIN
1070
    73
1070
     1
1070
    44
1040
1.0
1070
    74
1070
     0
1000
MTEXTEND
  0
MTEXT
  5
5661
330
1A
100
AcDbEntity
  8
0
100
AcDbMText
 10
58477.14924173013
 20
44461.54188809812
 30
0.0
 40
8.0
 41
0.0
 71
     7
 72
     5
  1

1001
ACAD
1000
MTEXTBEGIN
1070
    73
1070
     1
1070
    44
1040
1.0
1070
    74
1070
     0
1000
MTEXTEND
  0
MTEXT
  5
5662
330
1A
100
AcDbEntity
  8
SUNPOU
100
AcDbMText
 10
61143.04626241227
 20
53973.65328047324
 30
0.0
 40
10.5
 41
0.0
 71
     1
 72
     5
  1

1001
ACAD
1000
MTEXTBEGIN
1070
    73
1070
     1
1070
    44
1040
1.0
1070
    74
1070
     0
1000
MTEXTEND
  0
MTEXT
  5
5663
330
1A
100
AcDbEntity
  8
SUNPOU
100
AcDbMText
 10
53212.12306647634
 20
53026.86014656028
 30
0.0
 40
10.5
 41
0.0
 71
     7
 72
     5
  1

1001
ACAD
1000
MTEXTBEGIN
1070
    73
1070
     1
1070
    44
1040
1.0
1070
    74
1070
     0
1000
MTEXTEND
  0
MTEXT
  5
5664
330
1A
100
AcDbEntity
  8
SUNPOU
100
AcDbMText
 10
56161.1067309891
 20
57927.53621840312
 30
0.0
 40
10.5
 41
0.0
 71
     7
 72
     5
  1

1001
ACAD
1000
MTEXTBEGIN
1070
    73
1070
     1
1070
    44
1040
1.0
1070
    74
1070
     0
1000
MTEXTEND
  0
MTEXT
  5
5665
330
1A
100
AcDbEntity
  8
SUNPOU
100
AcDbMText
 10
60670.18485893966
 20
60363.8369660232
 30
0.0
 40
10.5
 41
0.0
 71
     7
 72
     5
  1

1001
ACAD
1000
MTEXTBEGIN
1070
    73
1070
     1
1070
    44
1040
1.0
1070
    74
1070
     0
1000
MTEXTEND
  0
MTEXT
  5
5666
330
1A
100
AcDbEntity
  8
SUNPOU
100
AcDbMText
 10
44271.02274570799
 20
39361.43311641212
 30
0.0
 40
10.5
 41
0.0
 71
     7
 72
     5
  1

1001
ACAD
1000
MTEXTBEGIN
1070
    73
1070
     1
1070
    44
1040
1.0
1070
    74
1070
     0
1000
MTEXTEND
  0
MTEXT
  5
5667
330
1A
100
AcDbEntity
  8
SUNPOU
100
AcDbMText
 10
95462.54117960824
 20
85034.41368006038
 30
0.0
 40
10.5
 41
0.0
 71
     9
 72
     5
  1

1001
ACAD
1000
MTEXTBEGIN
1070
    73
1070
     1
1070
    44
1040
1.0
1070
    74
1070
     0
1000
MTEXTEND
  0
MTEXT
  5
5668
330
1A
100
AcDbEntity
  8
SUNPOU
100
AcDbMText
 10
104184.7087455262
 20
92450.24821159784
 30
0.0
 40
10.5
 41
0.0
 71
     9
 72
     5
  1

1001
ACAD
1000
MTEXTBEGIN
1070
    73
1070
     1
1070
    44
1040
1.0
1070
    74
1070
     0
1000
MTEXTEND
  0
MTEXT
  5
5669
330
1A
100
AcDbEntity
  8
SUNPOU
100
AcDbMText
 10
123138.4674628562
 20
109916.8242640898
 30
0.0
 40
10.5
 41
0.0
 71
     9
 72
     5
  1

1001
ACAD
1000
MTEXTBEGIN
1070
    73
1070
     1
1070
    44
1040
1.0
1070
    74
1070
     0
1000
MTEXTEND
  0
MTEXT
  5
566A
330
1A
100
AcDbEntity
  8
SUNPOU
100
AcDbMText
 10
125081.8747095656
 20
108115.7751842118
 30
0.0
 40
3.5
 41
0.0
 71
     9
 72
     5
  1

1001
ACAD
1000
MTEXTBEGIN
1070
    73
1070
     1
1070
    44
1040
1.0
1070
    74
1070
     0
1000
MTEXTEND
  0
MTEXT
  5
566B
330
1A
100
AcDbEntity
  8
SUNPOU
100
AcDbMText
 10
156208.0545421853
 20
150610.7208518691
 30
0.0
 40
10.5
 41
0.0
 71
     9
 72
     5
  1

1001
ACAD
1000
MTEXTBEGIN
1070
    73
1070
     1
1070
    44
1040
1.0
1070
    74
1070
     0
1000
MTEXTEND
  0
MTEXT
  5
566C
330
1A
100
AcDbEntity
  8
SUNPOU
100
AcDbMText
 10
158151.4617888947
 20
148809.6717719911
 30
0.0
 40
3.5
 41
0.0
 71
     9
 72
     5
  1

1001
ACAD
1000
MTEXTBEGIN
1070
    73
1070
     1
1070
    44
1040
1.0
1070
    74
1070
     0
1000
MTEXTEND
  0
MTEXT
  5
566D
330
1A
100
AcDbEntity
  8
SUNPOU
100
AcDbMText
 10
106648.3222479809
 20
96443.88600684427
 30
0.0
 40
10.5
 41
0.0
 71
     9
 72
     5
  1

1001
ACAD
1000
MTEXTBEGIN
1070
    73
1070
     1
1070
    44
1040
1.0
1070
    74
1070
     0
1000
MTEXTEND
  0
MTEXT
  5
566E
330
1A
100
AcDbEntity
  8
SUNPOU
100
AcDbMText
 10
92700.3221476049
 20
77271.48686773207
 30
0.0
 40
3.5
 41
0.0
 71
     7
 72
     5
  1

1001
ACAD
1000
MTEXTBEGIN
1070
    73
1070
     1
1070
    44
1040
1.0
1070
    74
1070
     0
1000
MTEXTEND
  0
MTEXT
  5
566F
330
1A
100
AcDbEntity
  8
SUNPOU
100
AcDbMText
 10
73685.49154459806
 20
65033.63559855027
 30
0.0
 40
10.5
 41
0.0
 71
     7
 72
     5
  1

1001
ACAD
1000
MTEXTBEGIN
1070
    73
1070
     1
1070
    44
1040
1.0
1070
    74
1070
     0
1000
MTEXTEND
  0
MTEXT
  5
5670
330
1A
100
AcDbEntity
  8
SUNPOU
100
AcDbMText
 10
61228.26327964995
 20
49188.70402045185
 30
0.0
 40
35.0
 41
0.0
 71
     9
 72
     5
  1

1001
ACAD
1000
MTEXTBEGIN
1070
    73
1070
     1
1070
    44
1040
1.0
1070
    74
1070
     0
1000
MTEXTEND
  0
MTEXT
  5
5671
330
1A
100
AcDbEntity
  8
SUNPOU
100
AcDbMText
 10
60136.74833722491
 20
49797.47943050056
 30
0.0
 40
350.0000004171781
 41
0.0
 71
     7
 72
     5
  1

1001
ACAD
1000
MTEXTBEGIN
1070
    73
1070
     1
1070
    44
1040
1.0
1070
    74
1070
     0
1000
MTEXTEND
  0
MTEXT
  5
5672
330
1A
100
AcDbEntity
  8
0
100
AcDbMText
 10
66180.69909516782
 20
47777.40179263678
 30
0.0
 40
8.0
 41
0.0
 71
     7
 72
     5
  1

1001
ACAD
1000
MTEXTBEGIN
1070
    73
1070
     1
1070
    44
1040
1.0
1070
    74
1070
     0
1000
MTEXTEND
  0
MTEXT
  5
5673
330
1A
100
AcDbEntity
  8
0
100
AcDbMText
 10
68466.05678506271
 20
48748.19208738784
 30
0.0
 40
8.0
 41
0.0
 71
     7
 72
     5
  1

1001
ACAD
1000
MTEXTBEGIN
1070
    73
1070
     1
1070
    44
1040
1.0
1070
    74
1070
     0
1000
MTEXTEND
  0
MTEXT
  5
5674
330
1A
100
AcDbEntity
  8
SUNPOU
100
AcDbMText
 10
71131.95380574485
 20
58260.30347976296
 30
0.0
 40
10.5
 41
0.0
 71
     1
 72
     5
  1

1001
ACAD
1000
MTEXTBEGIN
1070
    73
1070
     1
1070
    44
1040
1.0
1070
    74
1070
     0
1000
MTEXTEND
  0
MTEXT
  5
5675
330
1A
100
AcDbEntity
  8
SUNPOU
100
AcDbMText
 10
63201.03060980891
 20
57313.51034585002
 30
0.0
 40
10.5
 41
0.0
 71
     7
 72
     5
  1

1001
ACAD
1000
MTEXTBEGIN
1070
    73
1070
     1
1070
    44
1040
1.0
1070
    74
1070
     0
1000
MTEXTEND
  0
MTEXT
  5
5676
330
1A
100
AcDbEntity
  8
SUNPOU
100
AcDbMText
 10
66150.01427432169
 20
62214.18641769286
 30
0.0
 40
10.5
 41
0.0
 71
     7
 72
     5
  1

1001
ACAD
1000
MTEXTBEGIN
1070
    73
1070
     1
1070
    44
1040
1.0
1070
    74
1070
     0
1000
MTEXTEND
  0
MTEXT
  5
5677
330
1A
100
AcDbEntity
  8
SUNPOU
100
AcDbMText
 10
70659.09240227225
 20
64650.48716531294
 30
0.0
 40
10.5
 41
0.0
 71
     7
 72
     5
  1

1001
ACAD
1000
MTEXTBEGIN
1070
    73
1070
     1
1070
    44
1040
1.0
1070
    74
1070
     0
1000
MTEXTEND
  0
MTEXT
  5
5678
330
1A
100
AcDbEntity
  8
SUNPOU
100
AcDbMText
 10
54259.93028904056
 20
43648.08331570185
 30
0.0
 40
10.5
 41
0.0
 71
     7
 72
     5
  1

1001
ACAD
1000
MTEXTBEGIN
1070
    73
1070
     1
1070
    44
1040
1.0
1070
    74
1070
     0
1000
MTEXTEND
  0
MTEXT
  5
5679
330
1A
100
AcDbEntity
  8
SUNPOU
100
AcDbMText
 10
56070.69320041551
 20
49975.4973031804
 30
0.0
 40
10.5
 41
0.0
 71
     9
 72
     5
  1

1001
ACAD
1000
MTEXTBEGIN
1070
    73
1070
     1
1070
    44
1040
1.0
1070
    74
1070
     0
1000
MTEXTEND
  0
MTEXT
  5
567A
330
1A
100
AcDbEntity
  8
SUNPOU
100
AcDbMText
 10
64792.86076633348
 20
57391.33183471788
 30
0.0
 40
10.5
 41
0.0
 71
     9
 72
     5
  1

1001
ACAD
1000
MTEXTBEGIN
1070
    73
1070
     1
1070
    44
1040
1.0
1070
    74
1070
     0
1000
MTEXTEND
  0
MTEXT
  5
567B
330
1A
100
AcDbEntity
  8
SUNPOU
100
AcDbMText
 10
83746.61948366345
 20
74857.90788720994
 30
0.0
 40
10.5
 41
0.0
 71
     9
 72
     5
  1

1001
ACAD
1000
MTEXTBEGIN
1070
    73
1070
     1
1070
    44
1040
1.0
1070
    74
1070
     0
1000
MTEXTEND
  0
MTEXT
  5
567C
330
1A
100
AcDbEntity
  8
SUNPOU
100
AcDbMText
 10
85690.02673037287
 20
73056.85880733192
 30
0.0
 40
3.5
 41
0.0
 71
     9
 72
     5
  1

1001
ACAD
1000
MTEXTBEGIN
1070
    73
1070
     1
1070
    44
1040
1.0
1070
    74
1070
     0
1000
MTEXTEND
  0
MTEXT
  5
567D
330
1A
100
AcDbEntity
  8
SUNPOU
100
AcDbMText
 10
116816.2065629925
 20
115551.8044749892
 30
0.0
 40
10.5
 41
0.0
 71
     9
 72
     5
  1

1001
ACAD
1000
MTEXTBEGIN
1070
    73
1070
     1
1070
    44
1040
1.0
1070
    74
1070
     0
1000
MTEXTEND
  0
MTEXT
  5
567E
330
1A
100
AcDbEntity
  8
SUNPOU
100
AcDbMText
 10
118759.613809702
 20
113750.7553951112
 30
0.0
 40
3.5
 41
0.0
 71
     9
 72
     5
  1

1001
ACAD
1000
MTEXTBEGIN
1070
    73
1070
     1
1070
    44
1040
1.0
1070
    74
1070
     0
1000
MTEXTEND
  0
MTEXT
  5
567F
330
1A
100
AcDbEntity
  8
SUNPOU
100
AcDbMText
 10
67256.47426878814
 20
61384.96962996432
 30
0.0
 40
10.5
 41
0.0
 71
     9
 72
     5
  1

1001
ACAD
1000
MTEXTBEGIN
1070
    73
1070
     1
1070
    44
1040
1.0
1070
    74
1070
     0
1000
MTEXTEND
  0
MTEXT
  5
5680
330
1A
100
AcDbEntity
  8
SUNPOU
100
AcDbMText
 10
53308.47416841216
 20
42212.57049085211
 30
0.0
 40
3.5
 41
0.0
 71
     7
 72
     5
  1

1001
ACAD
1000
MTEXTBEGIN
1070
    73
1070
     1
1070
    44
1040
1.0
1070
    74
1070
     0
1000
MTEXTEND
  0
MTEXT
  5
5681
330
1A
100
AcDbEntity
  8
SUNPOU
100
AcDbMText
 10
67000.82485118274
 20
51571.63371187345
 30
0.0
 40
10.5
 41
0.0
 71
     9
 72
     5
  1

1001
ACAD
1000
MTEXTBEGIN
1070
    73
1070
     1
1070
    44
1040
1.0
1070
    74
1070
     0
1000
MTEXTEND
  0
MTEXT
  5
5682
330
1A
100
AcDbEntity
  8
SUNPOU
100
AcDbMText
 10
75722.99241710071
 20
58987.46824341094
 30
0.0
 40
10.5
 41
0.0
 71
     9
 72
     5
  1

1001
ACAD
1000
MTEXTBEGIN
1070
    73
1070
     1
1070
    44
1040
1.0
1070
    74
1070
     0
1000
MTEXTEND
  0
MTEXT
  5
5683
330
1A
100
AcDbEntity
  8
SUNPOU
100
AcDbMText
 10
94676.75113443068
 20
76454.04429590299
 30
0.0
 40
10.5
 41
0.0
 71
     9
 72
     5
  1

1001
ACAD
1000
MTEXTBEGIN
1070
    73
1070
     1
1070
    44
1040
1.0
1070
    74
1070
     0
1000
MTEXTEND
  0
MTEXT
  5
5684
330
1A
100
AcDbEntity
  8
SUNPOU
100
AcDbMText
 10
96620.1583811401
 20
74652.99521602498
 30
0.0
 40
3.5
 41
0.0
 71
     9
 72
     5
  1

1001
ACAD
1000
MTEXTBEGIN
1070
    73
1070
     1
1070
    44
1040
1.0
1070
    74
1070
     0
1000
MTEXTEND
  0
MTEXT
  5
5685
330
1A
100
AcDbEntity
  8
SUNPOU
100
AcDbMText
 10
127746.3382137598
 20
117147.9408836823
 30
0.0
 40
10.5
 41
0.0
 71
     9
 72
     5
  1

1001
ACAD
1000
MTEXTBEGIN
1070
    73
1070
     1
1070
    44
1040
1.0
1070
    74
1070
     0
1000
MTEXTEND
  0
MTEXT
  5
5686
330
1A
100
AcDbEntity
  8
SUNPOU
100
AcDbMText
 10
129689.7454604692
 20
115346.8918038043
 30
0.0
 40
3.5
 41
0.0
 71
     9
 72
     5
  1

1001
ACAD
1000
MTEXTBEGIN
1070
    73
1070
     1
1070
    44
1040
1.0
1070
    74
1070
     0
1000
MTEXTEND
  0
MTEXT
  5
5687
330
1A
100
AcDbEntity
  8
SUNPOU
100
AcDbMText
 10
78186.60591955537
 20
62981.10603865738
 30
0.0
 40
10.5
 41
0.0
 71
     9
 72
     5
  1

1001
ACAD
1000
MTEXTBEGIN
1070
    73
1070
     1
1070
    44
1040
1.0
1070
    74
1070
     0
1000
MTEXTEND
  0
MTEXT
  5
5688
330
1A
100
AcDbEntity
  8
SUNPOU
100
AcDbMText
 10
64238.60581917939
 20
43808.70689954517
 30
0.0
 40
3.5
 41
0.0
 71
     7
 72
     5
  1

1001
ACAD
1000
MTEXTBEGIN
1070
    73
1070
     1
1070
    44
1040
1.0
1070
    74
1070
     0
1000
MTEXTEND
  0
MTEXT
  5
5689
330
1A
100
AcDbEntity
  8
SUNPOU
100
AcDbMText
 10
33428.13481137435
 20
32770.04710035564
 30
0.0
 40
10.5
 41
0.0
 71
     9
 72
     5
  1

1001
ACAD
1000
MTEXTBEGIN
1070
    73
1070
     1
1070
    44
1040
1.0
1070
    74
1070
     0
1000
MTEXTEND
  0
MTEXT
  5
568A
330
1A
100
AcDbEntity
  8
SUNPOU
100
AcDbMText
 10
52381.89352870432
 20
50236.62315284769
 30
0.0
 40
10.5
 41
0.0
 71
     9
 72
     5
  1

1001
ACAD
1000
MTEXTBEGIN
1070
    73
1070
     1
1070
    44
1040
1.0
1070
    74
1070
     0
1000
MTEXTEND
  0
MTEXT
  5
568B
330
1A
100
AcDbEntity
  8
SUNPOU
100
AcDbMText
 10
54325.30077541374
 20
48435.57407296968
 30
0.0
 40
3.5
 41
0.0
 71
     9
 72
     5
  1

1001
ACAD
1000
MTEXTBEGIN
1070
    73
1070
     1
1070
    44
1040
1.0
1070
    74
1070
     0
1000
MTEXTEND
  0
MTEXT
  5
568C
330
1A
100
AcDbEntity
  8
SUNPOU
100
AcDbMText
 10
85451.48060803343
 20
90930.51974062703
 30
0.0
 40
10.5
 41
0.0
 71
     9
 72
     5
  1

1001
ACAD
1000
MTEXTBEGIN
1070
    73
1070
     1
1070
    44
1040
1.0
1070
    74
1070
     0
1000
MTEXTEND
  0
MTEXT
  5
568D
330
1A
100
AcDbEntity
  8
SUNPOU
100
AcDbMText
 10
87394.88785474286
 20
89129.47066074901
 30
0.0
 40
3.5
 41
0.0
 71
     9
 72
     5
  1

1001
ACAD
1000
MTEXTBEGIN
1070
    73
1070
     1
1070
    44
1040
1.0
1070
    74
1070
     0
1000
MTEXTEND
  0
MTEXT
  5
568E
330
1A
100
AcDbEntity
  8
SUNPOU
100
AcDbMText
 10
35891.74831382901
 20
36763.68489560208
 30
0.0
 40
10.5
 41
0.0
 71
     9
 72
     5
  1

1001
ACAD
1000
MTEXTBEGIN
1070
    73
1070
     1
1070
    44
1040
1.0
1070
    74
1070
     0
1000
MTEXTEND
  0
MTEXT
  5
568F
330
1A
100
AcDbEntity
  8
SUNPOU
100
AcDbMText
 10
21943.74821345303
 20
17591.28575648986
 30
0.0
 40
3.5
 41
0.0
 71
     7
 72
     5
  1

1001
ACAD
1000
MTEXTBEGIN
1070
    73
1070
     1
1070
    44
1040
1.0
1070
    74
1070
     0
1000
MTEXTEND
  0
DIMENSION
  5
13218
330
1A
100
AcDbEntity
  8
SUNPOU
 48
0.5
100
AcDbDimension
  2
*D0
 10
-2062.989301917224
 20
1739.321805105529
 30
0.0
 11
-2065.739301917225
 21
1752.221805105529
 31
0.0
 70
    32
  3
矢2_5-字2_5
100
AcDbAlignedDimension
 13
-2082.534337453208
 23
1765.12180510553
 33
0.0
 14
-2105.484337453205
 24
1739.321805105529
 34
0.0
 50
270.0
100
AcDbRotatedDimension
1001
ACAD
1000
DSTYLE
1002
{
1070
   140
1040
3.5
1070
   340
1005
10
1002
}
  0
LINE
  5
13219
330
1A
100
AcDbEntity
  8
ZISSEN1
 48
0.5
100
AcDbLine
 10
-2082.084342516596
 20
1809.421805105527
 30
0.0
 11
-2082.084342516596
 21
1808.321805105527
 31
0.0
  0
LINE
  5
1321A
330
1A
100
AcDbEntity
  8
ZISSEN1
 48
0.5
100
AcDbLine
 10
-2082.884342516595
 20
1808.321805105527
 30
0.0
 11
-2082.884342516595
 21
1809.421805105527
 31
0.0
  0
CIRCLE
  5
1321B
330
1A
100
AcDbEntity
  8
ZISSEN1
 48
0.5
100
AcDbCircle
 10
-2082.484342516596
 20
1809.821805105528
 30
0.0
 40
2.75
  0
DIMENSION
  5
1321C
330
1A
100
AcDbEntity
  8
SUNPOU
 48
0.5
100
AcDbDimension
  2
*D1
 10
-2071.129301917225
 20
1894.321805105529
 30
0.0
 11
-2073.879301917226
 21
1850.321805105529
 31
0.0
 70
    32
  3
矢2_5-字2_5
100
AcDbAlignedDimension
 13
-2079.984337453205
 23
1806.321805105529
 33
0.0
 14
-2079.984337453205
 24
1894.321805105529
 34
0.0
 50
270.0
100
AcDbRotatedDimension
1001
ACAD
1000
DSTYLE
1002
{
1070
   140
1040
3.5
1070
   340
1005
10
1002
}
  0
LINE
  5
1321D
330
1A
100
AcDbEntity
  8
ZISSEN1
 48
0.5
100
AcDbLine
 10
-2079.484337453203
 20
1892.821805105533
 30
0.0
 11
-2079.484337453203
 21
1807.821805105529
 31
0.0
  0
LINE
  5
1321E
330
1A
100
AcDbEntity
  8
ZISSEN1
 48
0.5
100
AcDbLine
 10
-2078.984337453205
 20
1893.321805105529
 30
0.0
 11
-2078.984337453205
 21
1807.321805105529
 31
0.0
  0
LINE
  5
13220
330
1A
100
AcDbEntity
  8
ZISSEN1
 48
0.5
100
AcDbLine
 10
-2136.484337453202
 20
1815.821805105529
 30
0.0
 11
-2136.484337453202
 21
1807.821805105536
 31
0.0
  0
LINE
  5
13221
330
1A
100
AcDbEntity
  8
ZISSEN1
 48
0.5
100
AcDbLine
 10
-2143.734337453205
 20
1806.321805105529
 30
0.0
 11
-2143.734337453205
 21
1810.821805105529
 31
0.0
  0
LINE
  5
13222
330
1A
100
AcDbEntity
  8
ZISSEN1
 48
0.5
100
AcDbLine
 10
-2147.234337453205
 20
1806.321805105529
 30
0.0
 11
-2147.234337453205
 21
1810.821805105529
 31
0.0
  0
DIMENSION
  5
13223
330
1A
100
AcDbEntity
  8
SUNPOU
 48
0.5
100
AcDbDimension
  2
*D2
 10
-2155.984337453205
 20
1795.342997137765
 30
0.0
 11
-2150.619948847357
 21
1798.104126710715
 31
0.0
 70
   160
  3
矢2_5-字2_5
100
AcDbAlignedDimension
 13
-2145.484337453205
 23
1809.321805105529
 33
0.0
 14
-2155.984337453205
 24
1806.321805105529
 34
0.0
100
AcDbRotatedDimension
1001
ACAD
1000
DSTYLE
1002
{
1070
   287
1070
     5
1070
   140
1040
3.5
1070
   279
1070
     2
1070
   340
1005
10
1002
}
  0
DIMENSION
  5
13224
330
1A
100
AcDbEntity
  8
SUNPOU
 48
0.5
100
AcDbDimension
  2
*D3
 10
-2163.984553949666
 20
1810.321805105529
 30
0.0
 11
-2166.754728593523
 21
1808.010496721473
 31
0.0
 70
   160
  3
矢2_5-字2_5
100
AcDbAlignedDimension
 13
-2155.984337453205
 23
1806.321805105529
 33
0.0
 14
-2157.37553545837
 24
1810.321805105529
 34
0.0
 50
270.0
100
AcDbRotatedDimension
1001
ACAD
1000
DSTYLE
1002
{
1070
   287
1070
     5
1070
   140
1040
3.5
1070
   279
1070
     2
1070
   340
1005
10
1002
}
  0
DIMENSION
  5
13225
330
1A
100
AcDbEntity
  8
ZISSEN1
 48
0.5
100
AcDbDimension
  2
*D4
 10
-2145.484337453205
 20
1795.342997137765
 30
0.0
 11
-2142.484337453205
 21
1798.092997137765
 31
0.0
 70
    32
  3
矢2_5-字2_5
100
AcDbAlignedDimension
 13
-2139.484337453205
 23
1810.321805105529
 33
0.0
 14
-2145.484337453205
 24
1808.821805105529
 34
0.0
100
AcDbRotatedDimension
1001
ACAD
1000
DSTYLE
1002
{
1070
   140
1040
3.5
1070
   340
1005
10
1002
}
  0
LINE
  5
1322A
330
1A
100
AcDbEntity
  8
ZISSEN1
 48
0.5
100
AcDbLine
 10
-2152.984337453205
 20
1894.321805105529
 30
0.0
 11
-2152.984337453205
 21
1806.321805105529
 31
0.0
  0
LINE
  5
1322B
330
1A
100
AcDbEntity
  8
ZISSEN1
 48
0.5
100
AcDbLine
 10
-2155.984337453205
 20
1894.321805105529
 30
0.0
 11
-2155.984337453205
 21
1806.321805105529
 31
0.0
  0
DIMENSION
  5
13231
330
1A
100
AcDbEntity
  8
SUNPOU
 48
0.5
100
AcDbDimension
  2
*D5
 10
-2139.484337453205
 20
1795.342997137765
 30
0.0
 11
-2109.234337453205
 21
1798.092997137765
 31
0.0
 70
    32
  3
矢2_5-字2_5
100
AcDbAlignedDimension
 13
-2078.984337453205
 23
1807.321805105529
 33
0.0
 14
-2139.484337453205
 24
1810.321805105529
 34
0.0
100
AcDbRotatedDimension
1001
ACAD
1000
DSTYLE
1002
{
1070
   140
1040
3.5
1070
   340
1005
10
1002
}
  0
LWPOLYLINE
  5
1324B
330
1A
100
AcDbEntity
  8
ZISSEN1
 48
0.5
100
AcDbPolyline
 90
        4
 70
     1
 43
0.0
 10
-2093.584311056453
 20
1885.281805105528
 10
-2086.984311056453
 20
1885.281805105528
 10
-2086.984311056453
 20
1890.36180510553
 10
-2093.584311056453
 20
1890.36180510553
  0
LWPOLYLINE
  5
13250
330
1A
100
AcDbEntity
  8
ZISSEN1
 48
0.5
100
AcDbPolyline
 90
        4
 70
     1
 43
0.0
 10
-2093.584311056453
 20
1885.121805105528
 10
-2086.984311056453
 20
1885.121805105528
 10
-2086.984311056453
 20
1890.52180510553
 10
-2093.584311056453
 20
1890.52180510553
  0
LWPOLYLINE
  5
13256
330
1A
100
AcDbEntity
  8
ZISSEN1
 48
0.5
100
AcDbPolyline
 90
        4
 70
     1
 43
0.0
 10
-2101.184311056454
 20
1885.281805105528
 10
-2094.584311056454
 20
1885.281805105528
 10
-2094.584311056454
 20
1890.36180510553
 10
-2101.184311056454
 20
1890.36180510553
  0
LWPOLYLINE
  5
13257
330
1A
100
AcDbEntity
  8
ZISSEN1
 48
0.5
100
AcDbPolyline
 90
        4
 70
     1
 43
0.0
 10
-2101.184311056454
 20
1885.121805105528
 10
-2094.584311056454
 20
1885.121805105528
 10
-2094.584311056454
 20
1890.52180510553
 10
-2101.184311056454
 20
1890.52180510553
  0
DIMENSION
  5
1325E
330
1A
100
AcDbEntity
  8
SUNPOU
 48
0.5
100
AcDbDimension
  2
*D6
 10
-2163.984553949666
 20
1810.321805105529
 30
0.0
 11
-2166.734553949666
 21
1850.32180510553
 31
0.0
 70
    32
  3
矢2_5-字2_5
100
AcDbAlignedDimension
 13
-2157.37553545837
 23
1890.321805105531
 33
0.0
 14
-2157.37553545837
 24
1810.321805105529
 34
0.0
 50
270.0
100
AcDbRotatedDimension
1001
ACAD
1000
DSTYLE
1002
{
1070
   340
1005
10
1070
   140
1040
3.5
1070
    41
1040
2.5
1002
}
  0
DIMENSION
  5
1325F
330
1A
100
AcDbEntity
  8
SUNPOU
 48
0.5
100
AcDbDimension
  2
*D7
 10
-2163.984553949666
 20
1890.321805105531
 30
0.0
 11
-2163.978875147219
 21
1892.100023760309
 31
0.0
 70
   160
  3
矢2_5-字2_5
100
AcDbAlignedDimension
 13
-2155.984337453205
 23
1894.321805105529
 33
0.0
 14
-2157.37553545837
 24
1890.321805105531
 34
0.0
 50
270.0
100
AcDbRotatedDimension
1001
ACAD
1000
DSTYLE
1002
{
1070
   287
1070
     4
1070
   140
1040
3.5
1070
   279
1070
     1
1070
   340
1005
10
1002
}
  0
LINE
  5
13260
330
1A
100
AcDbEntity
  8
ZISSEN1
 48
0.5
100
AcDbLine
 10
-2136.484337453202
 20
1884.821805105529
 30
0.0
 11
-2136.484337453202
 21
1892.821805105522
 31
0.0
  0
LINE
  5
13262
330
1A
100
AcDbEntity
  8
ZISSEN1
 48
0.5
100
AcDbLine
 10
-2079.984337453205
 20
1894.321805105529
 30
0.0
 11
-2143.734337453205
 21
1894.321805105529
 31
0.0
  0
LINE
  5
13263
330
1A
100
AcDbEntity
  8
ZISSEN1
 48
0.5
100
AcDbLine
 10
-2080.484337453202
 20
1893.821805105527
 30
0.0
 11
-2135.484337453203
 21
1893.821805105531
 31
0.0
  0
ARC
  5
13267
330
1A
100
AcDbEntity
  8
ZISSEN1
 48
0.5
100
AcDbCircle
 10
-2136.484337453201
 20
1893.82180510552
 30
0.0
 40
0.999999999998181
100
AcDbArc
 50
269.9999999999478
 51
0.0000000001042077
  0
LINE
  5
13268
330
1A
100
AcDbEntity
  8
ZISSEN1
 48
0.5
100
AcDbLine
 10
-2151.984337453205
 20
1894.321805105529
 30
0.0
 11
-2152.984337453205
 21
1893.321805105529
 31
0.0
  0
LINE
  5
13269
330
1A
100
AcDbEntity
  8
ZISSEN1
 48
0.5
100
AcDbLine
 10
-2147.234337453205
 20
1894.321805105529
 30
0.0
 11
-2151.984337453205
 21
1894.321805105529
 31
0.0
  0
LINE
  5
1326A
330
1A
100
AcDbEntity
  8
ZISSEN1
 48
0.5
100
AcDbLine
 10
-2152.984337453205
 20
1894.321805105531
 30
0.0
 11
-2155.984337453205
 21
1894.321805105529
 31
0.0
  0
LINE
  5
1326B
330
1A
100
AcDbEntity
  8
ZISSEN1
 48
0.5
100
AcDbLine
 10
-2152.984337453205
 20
1893.321805105529
 30
0.0
 11
-2155.984337453205
 21
1893.321805105529
 31
0.0
  0
DIMENSION
  5
1326C
330
1A
100
AcDbEntity
  8
SUNPOU
 48
0.5
100
AcDbDimension
  2
*D8
 10
-2147.234337453205
 20
1901.184296689886
 30
0.0
 11
-2156.734337453205
 21
1901.184296689886
 31
0.0
 70
   160
  3
矢2_5-字2_5
100
AcDbAlignedDimension
 13
-2143.734337453205
 23
1894.321805105529
 33
0.0
 14
-2147.234337453205
 24
1894.321805105529
 34
0.0
100
AcDbRotatedDimension
1001
ACAD
1000
DSTYLE
1002
{
1070
   140
1040
3.5
1070
   340
1005
10
1002
}
  0
LINE
  5
1326D
330
1A
100
AcDbEntity
  8
ZISSEN1
 48
0.5
100
AcDbLine
 10
-2143.734337453205
 20
1894.321805105529
 30
0.0
 11
-2143.734337453205
 21
1889.821805105531
 31
0.0
  0
LINE
  5
1326E
330
1A
100
AcDbEntity
  8
SUNPOU
 48
0.5
100
AcDbLine
 10
-2147.234337453205
 20
1894.321805105529
 30
0.0
 11
-2147.234337453205
 21
1889.821805105531
 31
0.0
  0
ARC
  5
1326F
330
1A
100
AcDbEntity
  8
ZISSEN1
 48
0.5
100
AcDbCircle
 10
-2145.484337453207
 20
1889.821805105529
 30
0.0
 40
1.749999999998181
100
AcDbArc
 50
179.9999999998957
 51
0.0000000001042077
  0
LINE
  5
1327C
330
1A
100
AcDbEntity
  8
ZISSEN1
 48
0.5
100
AcDbLine
 10
-2105.484337453203
 20
1893.821805105533
 30
0.0
 11
-2105.484337453203
 21
1894.321805105533
 31
0.0
  0
LINE
  5
13280
330
1A
100
AcDbEntity
  8
ZISSEN1
 48
0.5
100
AcDbLine
 10
-2082.084342516594
 20
1890.421805105535
 30
0.0
 11
-2080.984342516593
 21
1890.421805105535
 31
0.0
  0
LINE
  5
13281
330
1A
100
AcDbEntity
  8
ZISSEN1
 48
0.5
100
AcDbLine
 10
-2080.984342516593
 20
1891.221805105534
 30
0.0
 11
-2082.084342516594
 21
1891.221805105534
 31
0.0
  0
LINE
  5
13282
330
1A
100
AcDbEntity
  8
ZISSEN1
 48
0.5
100
AcDbLine
 10
-2082.884342516594
 20
1889.321805105534
 30
0.0
 11
-2082.884342516594
 21
1890.421805105535
 31
0.0
  0
LINE
  5
13283
330
1A
100
AcDbEntity
  8
ZISSEN1
 48
0.5
100
AcDbLine
 10
-2082.084342516594
 20
1890.421805105535
 30
0.0
 11
-2082.084342516594
 21
1889.321805105534
 31
0.0
  0
LINE
  5
13284
330
1A
100
AcDbEntity
  8
ZISSEN1
 48
0.5
100
AcDbLine
 10
-2082.484342516593
 20
1889.321805105534
 30
0.0
 11
-2082.884342516594
 21
1889.321805105534
 31
0.0
  0
LINE
  5
13285
330
1A
100
AcDbEntity
  8
ZISSEN1
 48
0.5
100
AcDbLine
 10
-2082.084342516594
 20
1889.321805105534
 30
0.0
 11
-2082.484342516593
 21
1889.321805105534
 31
0.0
  0
LINE
  5
13286
330
1A
100
AcDbEntity
  8
ZISSEN1
 48
0.5
100
AcDbLine
 10
-2080.984342516593
 20
1890.821805105534
 30
0.0
 11
-2080.984342516593
 21
1891.221805105534
 31
0.0
  0
LINE
  5
13287
330
1A
100
AcDbEntity
  8
ZISSEN1
 48
0.5
100
AcDbLine
 10
-2080.984342516593
 20
1890.421805105535
 30
0.0
 11
-2080.984342516593
 21
1890.821805105534
 31
0.0
  0
LINE
  5
13288
330
1A
100
AcDbEntity
  8
ZISSEN1
 48
0.5
100
AcDbLine
 10
-2083.984342516593
 20
1890.421805105535
 30
0.0
 11
-2083.984342516593
 21
1890.821805105534
 31
0.0
  0
LINE
  5
13289
330
1A
100
AcDbEntity
  8
ZISSEN1
 48
0.5
100
AcDbLine
 10
-2083.984342516593
 20
1890.821805105534
 30
0.0
 11
-2083.984342516593
 21
1891.221805105534
 31
0.0
  0
LINE
  5
13297
330
1A
100
AcDbEntity
  8
ZISSEN1
 48
0.5
100
AcDbLine
 10
-2083.984342516593
 20
1891.221805105534
 30
0.0
 11
-2082.884342516594
 21
1891.221805105534
 31
0.0
  0
LINE
  5
13298
330
1A
100
AcDbEntity
  8
ZISSEN1
 48
0.5
100
AcDbLine
 10
-2082.884342516594
 20
1890.421805105535
 30
0.0
 11
-2083.984342516593
 21
1890.421805105535
 31
0.0
  0
ARC
  5
1329C
330
1A
100
AcDbEntity
  8
ZISSEN1
 48
0.5
100
AcDbCircle
 10
-2079.484337453207
 20
1893.821805105533
 30
0.0
 40
0.9999999999972715
100
AcDbArc
 50
179.9999999998957
 51
270.0000000001042
  0
LINE
  5
1329D
330
1A
100
AcDbEntity
  8
ZISSEN1
 48
0.5
100
AcDbLine
 10
-2082.084342516594
 20
1892.321805105535
 30
0.0
 11
-2082.484342516593
 21
1892.321805105535
 31
0.0
  0
LINE
  5
1329E
330
1A
100
AcDbEntity
  8
ZISSEN1
 48
0.5
100
AcDbLine
 10
-2082.484342516593
 20
1892.321805105535
 30
0.0
 11
-2082.884342516594
 21
1892.321805105535
 31
0.0
  0
LINE
  5
1329F
330
1A
100
AcDbEntity
  8
ZISSEN1
 48
0.5
100
AcDbLine
 10
-2078.984337453205
 20
1893.321805105529
 30
0.0
 11
-2079.984337453205
 21
1894.321805105529
 31
0.0
  0
LINE
  5
132A0
330
1A
100
AcDbEntity
  8
ZISSEN1
 48
0.5
100
AcDbLine
 10
-2082.084342516594
 20
1891.221805105534
 30
0.0
 11
-2082.084342516594
 21
1892.321805105535
 31
0.0
  0
LINE
  5
132A1
330
1A
100
AcDbEntity
  8
ZISSEN1
 48
0.5
100
AcDbLine
 10
-2082.884342516594
 20
1892.321805105535
 30
0.0
 11
-2082.884342516594
 21
1891.221805105534
 31
0.0
  0
CIRCLE
  5
132A2
330
1A
100
AcDbEntity
  8
ZISSEN1
 48
0.5
100
AcDbCircle
 10
-2082.484342516595
 20
1890.821805105534
 30
0.0
 40
2.75
  0
LINE
  5
132A8
330
1A
100
AcDbEntity
  8
ZISSEN1
 48
0.5
100
AcDbLine
 10
-2152.484337453204
 20
1820.821805105529
 30
0.0
 11
-2152.484337453203
 21
1879.821805105529
 31
0.0
  0
LINE
  5
132AE
330
1A
100
AcDbEntity
  8
ZISSEN1
 48
0.5
100
AcDbLine
 10
-2152.484337453204
 20
1879.821805105529
 30
0.0
 11
-2152.984337453205
 21
1879.821805105529
 31
0.0
  0
LINE
  5
132AF
330
1A
100
AcDbEntity
  8
ZISSEN1
 48
0.5
100
AcDbLine
 10
-2152.984337453205
 20
1884.821805105529
 30
0.0
 11
-2136.484337453202
 21
1884.821805105529
 31
0.0
  0
ARC
  5
132B3
330
1A
100
AcDbEntity
  8
ZISSEN1
 48
0.5
100
AcDbCircle
 10
-2145.484337453207
 20
1810.821805105529
 30
0.0
 40
1.749999999998181
100
AcDbArc
 50
359.9999999998958
 51
180.0000000001042
  0
LINE
  5
132B4
330
1A
100
AcDbEntity
  8
ZISSEN1
 48
0.5
100
AcDbLine
 10
-2152.484337453204
 20
1820.821805105529
 30
0.0
 11
-2152.984337453205
 21
1820.821805105529
 31
0.0
  0
LINE
  5
132B5
330
1A
100
AcDbEntity
  8
ZISSEN1
 48
0.5
100
AcDbLine
 10
-2136.484337453202
 20
1815.821805105529
 30
0.0
 11
-2152.984337453202
 21
1815.821805105529
 31
0.0
  0
LINE
  5
132E4
330
1A
100
AcDbEntity
  8
ZISSEN1
 48
0.5
100
AcDbLine
 10
-2078.984337453205
 20
1872.321805105527
 30
0.0
 11
-2079.484337453205
 21
1872.321805105527
 31
0.0
  0
LINE
  5
132E8
330
1A
100
AcDbEntity
  8
ZISSEN1
 48
0.5
100
AcDbLine
 10
-2081.871601218079
 20
1883.54782644679
 30
0.0
 11
-2081.871601218079
 21
1885.54782644679
 31
0.0
  0
LINE
  5
132F7
330
1A
100
AcDbEntity
  8
ZISSEN1
 48
0.5
100
AcDbLine
 10
-2087.184337453207
 20
1874.521805824634
 30
0.0
 11
-2083.584337453206
 21
1874.521805824634
 31
0.0
  0
LINE
  5
13301
330
1A
100
AcDbEntity
  8
ZISSEN1
 48
0.5
100
AcDbLine
 10
-2083.584337453206
 20
1881.921805824634
 30
0.0
 11
-2087.184337453207
 21
1881.921805824634
 31
0.0
  0
LINE
  5
13316
330
1A
100
AcDbEntity
  8
ZISSEN1
 48
0.5
100
AcDbLine
 10
-2083.121601218079
 20
1883.54782644679
 30
0.0
 11
-2083.121601218079
 21
1883.847826446791
 31
0.0
  0
LINE
  5
13317
330
1A
100
AcDbEntity
  8
ZISSEN1
 48
0.5
100
AcDbLine
 10
-2083.121601218079
 20
1885.54782644679
 30
0.0
 11
-2083.121601218079
 21
1883.54782644679
 31
0.0
  0
LINE
  5
1331C
330
1A
100
AcDbEntity
  8
ZISSEN1
 48
0.5
100
AcDbLine
 10
-2086.371601218079
 20
1883.54782644679
 30
0.0
 11
-2086.371601218079
 21
1883.847826446791
 31
0.0
  0
LINE
  5
1331D
330
1A
100
AcDbEntity
  8
ZISSEN1
 48
0.5
100
AcDbLine
 10
-2086.371601218079
 20
1885.54782644679
 30
0.0
 11
-2086.371601218079
 21
1883.54782644679
 31
0.0
  0
LINE
  5
1331E
330
1A
100
AcDbEntity
  8
ZISSEN1
 48
0.5
100
AcDbLine
 10
-2085.121601218079
 20
1883.54782644679
 30
0.0
 11
-2085.121601218079
 21
1885.54782644679
 31
0.0
  0
LINE
  5
13322
330
1A
100
AcDbEntity
  8
ZISSEN1
 48
0.5
100
AcDbLine
 10
-2085.121601218079
 20
1885.54782644679
 30
0.0
 11
-2086.371601218079
 21
1885.54782644679
 31
0.0
  0
LINE
  5
13323
330
1A
100
AcDbEntity
  8
ZISSEN1
 48
0.5
100
AcDbLine
 10
-2086.371601218079
 20
1883.54782644679
 30
0.0
 11
-2085.121601218079
 21
1883.54782644679
 31
0.0
  0
LINE
  5
1332A
330
1A
100
AcDbEntity
  8
ZISSEN1
 48
0.5
100
AcDbLine
 10
-2083.584337453206
 20
1874.521805824634
 30
0.0
 11
-2083.584337453206
 21
1881.921805824634
 31
0.0
  0
LINE
  5
1332B
330
1A
100
AcDbEntity
  8
ZISSEN1
 48
0.5
100
AcDbLine
 10
-2087.184337453207
 20
1874.521805824634
 30
0.0
 11
-2087.184337453207
 21
1881.921805824634
 31
0.0
  0
LINE
  5
13333
330
1A
100
AcDbEntity
  8
ZISSEN1
 48
0.5
100
AcDbLine
 10
-2081.871601218079
 20
1885.54782644679
 30
0.0
 11
-2083.121601218079
 21
1885.54782644679
 31
0.0
  0
LINE
  5
13334
330
1A
100
AcDbEntity
  8
ZISSEN1
 48
0.5
100
AcDbLine
 10
-2083.121601218079
 20
1883.54782644679
 30
0.0
 11
-2081.871601218079
 21
1883.54782644679
 31
0.0
  0
LINE
  5
13394
330
1A
100
AcDbEntity
  8
ZISSEN1
 48
0.5
100
AcDbLine
 10
-2082.084342516596
 20
1810.221805105527
 30
0.0
 11
-2080.984342516595
 21
1810.221805105527
 31
0.0
  0
LINE
  5
13395
330
1A
100
AcDbEntity
  8
ZISSEN1
 48
0.5
100
AcDbLine
 10
-2080.984342516595
 20
1809.421805105527
 30
0.0
 11
-2082.084342516596
 21
1809.421805105527
 31
0.0
  0
LINE
  5
13396
330
1A
100
AcDbEntity
  8
ZISSEN1
 48
0.5
100
AcDbLine
 10
-2082.884342516595
 20
1811.321805105527
 30
0.0
 11
-2082.884342516595
 21
1810.221805105527
 31
0.0
  0
LINE
  5
13397
330
1A
100
AcDbEntity
  8
ZISSEN1
 48
0.5
100
AcDbLine
 10
-2082.084342516596
 20
1810.221805105527
 30
0.0
 11
-2082.084342516596
 21
1811.321805105527
 31
0.0
  0
LINE
  5
13398
330
1A
100
AcDbEntity
  8
ZISSEN1
 48
0.5
100
AcDbLine
 10
-2082.484342516595
 20
1811.321805105527
 30
0.0
 11
-2082.884342516595
 21
1811.321805105527
 31
0.0
  0
LINE
  5
13399
330
1A
100
AcDbEntity
  8
ZISSEN1
 48
0.5
100
AcDbLine
 10
-2082.084342516596
 20
1811.321805105527
 30
0.0
 11
-2082.484342516595
 21
1811.321805105527
 31
0.0
  0
LINE
  5
1339A
330
1A
100
AcDbEntity
  8
ZISSEN1
 48
0.5
100
AcDbLine
 10
-2080.984342516595
 20
1809.821805105527
 30
0.0
 11
-2080.984342516595
 21
1809.421805105527
 31
0.0
  0
LINE
  5
1339B
330
1A
100
AcDbEntity
  8
ZISSEN1
 48
0.5
100
AcDbLine
 10
-2080.984342516595
 20
1810.221805105527
 30
0.0
 11
-2080.984342516595
 21
1809.821805105527
 31
0.0
  0
LINE
  5
1339C
330
1A
100
AcDbEntity
  8
ZISSEN1
 48
0.5
100
AcDbLine
 10
-2083.984342516595
 20
1810.221805105527
 30
0.0
 11
-2083.984342516595
 21
1809.821805105527
 31
0.0
  0
LINE
  5
1339D
330
1A
100
AcDbEntity
  8
ZISSEN1
 48
0.5
100
AcDbLine
 10
-2083.984342516595
 20
1809.821805105527
 30
0.0
 11
-2083.984342516595
 21
1809.421805105527
 31
0.0
  0
LINE
  5
1339E
330
1A
100
AcDbEntity
  8
ZISSEN1
 48
0.5
100
AcDbLine
 10
-2083.984342516595
 20
1809.421805105527
 30
0.0
 11
-2082.884342516595
 21
1809.421805105527
 31
0.0
  0
LINE
  5
1339F
330
1A
100
AcDbEntity
  8
ZISSEN1
 48
0.5
100
AcDbLine
 10
-2082.884342516595
 20
1810.221805105527
 30
0.0
 11
-2083.984342516595
 21
1810.221805105527
 31
0.0
  0
LINE
  5
133A0
330
1A
100
AcDbEntity
  8
ZISSEN1
 48
0.5
100
AcDbLine
 10
-2078.984337453205
 20
1817.321805105529
 30
0.0
 11
-2079.484337453205
 21
1817.321805105529
 31
0.0
  0
DIMENSION
  5
133BA
330
1A
100
AcDbEntity
  8
SUNPOU
 48
0.5
100
AcDbDimension
  2
*D9
 10
-2155.984337453205
 20
1731.321805105529
 30
0.0
 11
-2117.484337453205
 21
1734.071805105529
 31
0.0
 70
    32
  3
矢2_5-字2_5
100
AcDbAlignedDimension
 13
-2078.984337453205
 23
1743.321805105529
 33
0.0
 14
-2155.984337453205
 24
1742.321805105529
 34
0.0
100
AcDbRotatedDimension
1001
ACAD
1000
DSTYLE
1002
{
1070
   140
1040
3.5
1070
   340
1005
10
1002
}
  0
LINE
  5
133BB
330
1A
100
AcDbEntity
  8
ZISSEN1
 48
0.5
100
AcDbLine
 10
-2105.484337453205
 20
1739.321805105529
 30
0.0
 11
-2152.984337453207
 21
1739.321805105529
 31
0.0
  0
LINE
  5
133BC
330
1A
100
AcDbEntity
  8
ZISSEN1
 48
0.5
100
AcDbLine
 10
-2155.984337453207
 20
1742.321805105529
 30
0.0
 11
-2105.484337453205
 21
1742.321805105529
 31
0.0
  0
LINE
  5
133BD
330
1A
100
AcDbEntity
  8
ZISSEN1
 48
0.5
100
AcDbLine
 10
-2152.984337453206
 20
1746.621805105532
 30
0.0
 11
-2079.484337453205
 21
1746.621805105528
 31
0.0
  0
LINE
  5
133BE
330
1A
100
AcDbEntity
  8
ZISSEN1
 48
0.5
100
AcDbLine
 10
-2152.984337453206
 20
1748.221805105532
 30
0.0
 11
-2079.484337453205
 21
1748.221805105529
 31
0.0
  0
LINE
  5
133BF
330
1A
100
AcDbEntity
  8
ZISSEN1
 48
0.5
100
AcDbLine
 10
-2079.984337453205
 20
1806.321805105529
 30
0.0
 11
-2143.734337453205
 21
1806.321805105529
 31
0.0
  0
LINE
  5
133C0
330
1A
100
AcDbEntity
  8
ZISSEN1
 48
0.5
100
AcDbLine
 10
-2080.484337453202
 20
1806.821805105531
 30
0.0
 11
-2135.484337453203
 21
1806.821805105527
 31
0.0
  0
LINE
  5
133C1
330
1A
100
AcDbEntity
  8
ZISSEN1
 48
0.5
100
AcDbLine
 10
-2155.984337453205
 20
1769.321805105529
 30
0.0
 11
-2155.984337453207
 21
1742.321805105531
 31
0.0
  0
LINE
  5
133C3
330
1A
100
AcDbEntity
  8
ZISSEN1
 48
0.5
100
AcDbLine
 10
-2152.984337453205
 20
1769.321805105529
 30
0.0
 11
-2152.984337453206
 21
1739.321805105531
 31
0.0
  0
ARC
  5
133C7
330
1A
100
AcDbEntity
  8
ZISSEN1
 48
0.5
100
AcDbCircle
 10
-2136.484337453201
 20
1806.821805105538
 30
0.0
 40
0.999999999998181
100
AcDbArc
 50
359.9999999998958
 51
90.0000000000521
  0
LINE
  5
133C9
330
1A
100
AcDbEntity
  8
ZISSEN1
 48
0.5
100
AcDbLine
 10
-2151.984337453205
 20
1806.321805105529
 30
0.0
 11
-2152.984337453205
 21
1807.321805105529
 31
0.0
  0
LINE
  5
133CA
330
1A
100
AcDbEntity
  8
ZISSEN1
 48
0.5
100
AcDbLine
 10
-2151.984337453205
 20
1806.321805105529
 30
0.0
 11
-2147.234337453205
 21
1806.321805105529
 31
0.0
  0
LINE
  5
133CB
330
1A
100
AcDbEntity
  8
ZISSEN1
 48
0.5
100
AcDbLine
 10
-2152.984337453205
 20
1806.321805105529
 30
0.0
 11
-2155.984337453205
 21
1806.321805105529
 31
0.0
  0
LINE
  5
133CC
330
1A
100
AcDbEntity
  8
ZISSEN1
 48
0.5
100
AcDbLine
 10
-2152.984337453205
 20
1807.321805105529
 30
0.0
 11
-2155.984337453205
 21
1807.321805105529
 31
0.0
  0
LINE
  5
133CD
330
1A
100
AcDbEntity
  8
ZISSEN1
 48
0.5
100
AcDbLine
 10
-2152.984337453205
 20
1769.321805105529
 30
0.0
 11
-2155.984337453205
 21
1769.321805105529
 31
0.0
  0
LINE
  5
133CE
330
1A
100
AcDbEntity
  8
ZISSEN1
 48
0.5
100
AcDbLine
 10
-2152.984337453205
 20
1761.071805105529
 30
0.0
 11
-2155.984337453205
 21
1761.071805105529
 31
0.0
  0
LINE
  5
133CF
330
1A
100
AcDbEntity
  8
ZISSEN1
 48
0.5
100
AcDbLine
 10
-2152.984337453205
 20
1757.571805105529
 30
0.0
 11
-2155.984337453205
 21
1757.571805105529
 31
0.0
  0
LINE
  5
133D2
330
1A
100
AcDbEntity
  8
ZISSEN1
 48
0.5
100
AcDbLine
 10
-2152.984337453205
 20
1768.321805105529
 30
0.0
 11
-2155.984337453205
 21
1768.321805105529
 31
0.0
  0
LINE
  5
133D4
330
1A
100
AcDbEntity
  8
ZISSEN1
 48
0.5
100
AcDbLine
 10
-2152.984337453206
 20
1743.321805105529
 30
0.0
 11
-2155.984337453205
 21
1743.321805105529
 31
0.0
  0
LINE
  5
133D8
330
1A
100
AcDbEntity
  8
ZISSEN1
 48
0.5
100
AcDbLine
 10
-2151.984337453206
 20
1742.321805105529
 30
0.0
 11
-2151.984337453206
 21
1739.321805105529
 31
0.0
  0
ARC
  5
133D9
330
1A
100
AcDbEntity
  8
ZISSEN1
 48
0.5
100
AcDbCircle
 10
-2152.984337453209
 20
1742.321805105526
 30
0.0
 40
2.999999999997271
100
AcDbArc
 50
179.9999999998957
 51
270.0000000000521
  0
LINE
  5
133DA
330
1A
100
AcDbEntity
  8
ZISSEN1
 48
0.5
100
AcDbLine
 10
-2143.734337453205
 20
1742.321805105529
 30
0.0
 11
-2143.734337453205
 21
1739.321805105529
 31
0.0
  0
LINE
  5
133DB
330
1A
100
AcDbEntity
  8
ZISSEN1
 48
0.5
100
AcDbLine
 10
-2147.234337453205
 20
1742.321805105529
 30
0.0
 11
-2147.234337453205
 21
1739.321805105529
 31
0.0
  0
LINE
  5
133DE
330
1A
100
AcDbEntity
  8
ZISSEN1
 48
0.5
100
AcDbLine
 10
-2105.484337453205
 20
1806.821805105531
 30
0.0
 11
-2105.484337453205
 21
1806.321805105529
 31
0.0
  0
ARC
  5
133DF
330
1A
100
AcDbEntity
  8
ZISSEN1
 48
0.5
100
AcDbCircle
 10
-2079.484337453207
 20
1806.821805105535
 30
0.0
 40
0.999999999994543
100
AcDbArc
 50
89.99999999973942
 51
180.0000000002084
  0
LINE
  5
133E0
330
1A
100
AcDbEntity
  8
ZISSEN1
 48
0.5
100
AcDbLine
 10
-2078.984337453205
 20
1807.321805105529
 30
0.0
 11
-2079.984337453205
 21
1806.321805105529
 31
0.0
  0
LINE
  5
133E1
330
1A
100
AcDbEntity
  8
ZISSEN1
 48
0.5
100
AcDbLine
 10
-2082.084342516596
 20
1808.321805105527
 30
0.0
 11
-2082.484342516595
 21
1808.321805105527
 31
0.0
  0
LINE
  5
133E2
330
1A
100
AcDbEntity
  8
ZISSEN1
 48
0.5
100
AcDbLine
 10
-2082.484342516595
 20
1808.321805105527
 30
0.0
 11
-2082.884342516595
 21
1808.321805105527
 31
0.0
  0
LINE
  5
133E3
330
1A
100
AcDbEntity
  8
ZISSEN1
 48
0.5
100
AcDbLine
 10
-2106.984337453205
 20
1746.321805105529
 30
0.0
 11
-2078.984337453205
 21
1746.321805105529
 31
0.0
  0
LINE
  5
133E4
330
1A
100
AcDbEntity
  8
ZISSEN1
 48
0.5
100
AcDbLine
 10
-2102.484337453205
 20
1743.321805105529
 30
0.0
 11
-2078.984337453205
 21
1743.321805105529
 31
0.0
  0
ARC
  5
133EC
330
1A
100
AcDbEntity
  8
ZISSEN1
 48
0.5
100
AcDbCircle
 10
-2102.484337453206
 20
1743.321805105529
 30
0.0
 40
3.0
100
AcDbArc
 50
89.99999999994788
 51
180.0
  0
LINE
  5
133ED
330
1A
100
AcDbEntity
  8
ZISSEN1
 48
0.5
100
AcDbLine
 10
-2102.484337453205
 20
1743.321805105529
 30
0.0
 11
-2102.484337453205
 21
1742.321805105529
 31
0.0
  0
LINE
  5
133EE
330
1A
100
AcDbEntity
  8
ZISSEN1
 48
0.5
100
AcDbLine
 10
-2105.484337453205
 20
1743.321805105529
 30
0.0
 11
-2105.484337453205
 21
1742.321805105529
 31
0.0
  0
LINE
  5
133EF
330
1A
100
AcDbEntity
  8
ZISSEN1
 48
0.5
100
AcDbLine
 10
-2106.984337453205
 20
1746.321805105529
 30
0.0
 11
-2106.984337453205
 21
1746.621805105528
 31
0.0
  0
ARC
  5
133F0
330
1A
100
AcDbEntity
  8
ZISSEN1
 48
0.5
100
AcDbCircle
 10
-2105.484337453206
 20
1742.321805105529
 30
0.0
 40
3.0
100
AcDbArc
 50
270.0
 51
0.0
  0
LINE
  5
133F2
330
1A
100
AcDbEntity
  8
ZISSEN1
 48
0.5
100
AcDbLine
 10
-2087.434337453208
 20
1748.221805105529
 30
0.0
 11
-2087.434337453208
 21
1751.12180510553
 31
0.0
  0
ARC
  5
133F3
330
1A
100
AcDbEntity
  8
ZISSEN1
 48
0.5
100
AcDbCircle
 10
-2082.484337453208
 20
1745.530006276066
 30
0.0
 40
4.063663400921144
100
AcDbArc
 50
47.41141701993718
 51
132.5885829800627
  0
LINE
  5
133F4
330
1A
100
AcDbEntity
  8
ZISSEN1
 48
0.5
100
AcDbLine
 10
-2082.534337453208
 20
1751.12180510553
 30
0.0
 11
-2082.534337453208
 21
1749.593362061127
 31
0.0
  0
LWPOLYLINE
  5
133F8
330
1A
100
AcDbEntity
  8
ZISSEN1
 48
0.5
100
AcDbPolyline
 90
        4
 70
     1
 43
0.0
 10
-2088.334337453207
 20
1765.12180510553
 10
-2082.534337453208
 20
1765.12180510553
 10
-2082.534337453208
 20
1751.12180510553
 10
-2088.334337453207
 20
1751.12180510553
  0
LINE
  5
133F9
330
1A
100
AcDbEntity
  8
ZISSEN1
 48
0.5
100
AcDbLine
 10
-2078.984337453205
 20
1746.321805105529
 30
0.0
 11
-2078.984337453205
 21
1743.321805105529
 31
0.0
  0
LINE
  5
133FA
330
1A
100
AcDbEntity
  8
ZISSEN1
 48
0.5
100
AcDbLine
 10
-2079.484337453205
 20
1746.321805105529
 30
0.0
 11
-2079.484337453205
 21
1748.221805105529
 31
0.0
  0
LINE
  5
133FB
330
1A
100
AcDbEntity
  8
ZISSEN1
 48
0.5
100
AcDbLine
 10
-2079.734337453207
 20
1748.52180510553
 30
0.0
 11
-2079.734337453207
 21
1748.22180510553
 31
0.0
  0
LINE
  5
133FC
330
1A
100
AcDbEntity
  8
ZISSEN1
 48
0.5
100
AcDbLine
 10
-2081.184337453207
 20
1743.22180510553
 30
0.0
 11
-2081.184337453207
 21
1748.22180510553
 31
0.0
  0
LINE
  5
133FD
330
1A
100
AcDbEntity
  8
ZISSEN1
 48
0.5
100
AcDbLine
 10
-2083.784337453206
 20
1743.22180510553
 30
0.0
 11
-2083.784337453206
 21
1748.22180510553
 31
0.0
  0
LINE
  5
133FE
330
1A
100
AcDbEntity
  8
ZISSEN1
 48
0.5
100
AcDbLine
 10
-2081.184337453207
 20
1743.22180510553
 30
0.0
 11
-2083.784337453206
 21
1743.22180510553
 31
0.0
  0
LINE
  5
133FF
330
1A
100
AcDbEntity
  8
ZISSEN1
 48
0.5
100
AcDbLine
 10
-2079.734337453207
 20
1748.22180510553
 30
0.0
 11
-2085.234337453207
 21
1748.22180510553
 31
0.0
  0
LINE
  5
13400
330
1A
100
AcDbEntity
  8
ZISSEN1
 48
0.5
100
AcDbLine
 10
-2011.984337453206
 20
1894.321805105529
 30
0.0
 11
-2011.984337453206
 21
1806.321805105529
 31
0.0
  0
LINE
  5
13401
330
1A
100
AcDbEntity
  8
ZISSEN1
 48
0.5
100
AcDbLine
 10
-2015.984337453205
 20
1806.321805105529
 30
0.0
 11
-2015.984337453205
 21
1894.321805105529
 31
0.0
  0
LINE
  5
13402
330
1A
100
AcDbEntity
  8
ZISSEN1
 48
0.5
100
AcDbLine
 10
-2019.284337453206
 20
1893.821805105529
 30
0.0
 11
-2019.284337453206
 21
1806.821805105529
 31
0.0
  0
LINE
  5
13403
330
1A
100
AcDbEntity
  8
ZISSEN1
 48
0.5
100
AcDbLine
 10
-2020.884337453206
 20
1893.821805105529
 30
0.0
 11
-2020.884337453206
 21
1806.821805105529
 31
0.0
  0
LINE
  5
13404
330
1A
100
AcDbEntity
  8
ZISSEN1
 48
0.5
100
AcDbLine
 10
-2018.984337453205
 20
1894.321805105529
 30
0.0
 11
-2018.984337453205
 21
1806.321805105529
 31
0.0
  0
LINE
  5
13405
330
1A
100
AcDbEntity
  8
ZISSEN1
 48
0.5
100
AcDbLine
 10
-2033.734337453205
 20
1806.321805105529
 30
0.0
 11
-2033.734337453205
 21
1810.821805105531
 31
0.0
  0
LINE
  5
13406
330
1A
100
AcDbEntity
  8
ZISSEN1
 48
0.5
100
AcDbLine
 10
-2030.234337453205
 20
1810.821805105531
 30
0.0
 11
-2030.234337453205
 21
1806.321805105531
 31
0.0
  0
LINE
  5
13407
330
1A
100
AcDbEntity
  8
ZISSEN1
 48
0.5
100
AcDbLine
 10
-2041.984337453206
 20
1893.321805105529
 30
0.0
 11
-2041.984337453206
 21
1807.321805105529
 31
0.0
  0
LINE
  5
1340A
330
1A
100
AcDbEntity
  8
ZISSEN1
 48
0.5
100
AcDbLine
 10
-2030.234337453205
 20
1894.321805105529
 30
0.0
 11
-2014.984337453205
 21
1894.321805105529
 31
0.0
  0
LINE
  5
1340B
330
1A
100
AcDbEntity
  8
ZISSEN1
 48
0.5
100
AcDbLine
 10
-2041.984337453206
 20
1893.321805105529
 30
0.0
 11
-2040.984337453206
 21
1894.321805105529
 31
0.0
  0
LINE
  5
1340C
330
1A
100
AcDbEntity
  8
ZISSEN1
 48
0.5
100
AcDbLine
 10
-2040.984337453206
 20
1894.321805105529
 30
0.0
 11
-2033.734337453205
 21
1894.321805105529
 31
0.0
  0
LINE
  5
1340D
330
1A
100
AcDbEntity
  8
ZISSEN1
 48
0.5
100
AcDbLine
 10
-2033.734337453205
 20
1894.321805105529
 30
0.0
 11
-2033.734337453205
 21
1889.821805105529
 31
0.0
  0
LINE
  5
1340E
330
1A
100
AcDbEntity
  8
ZISSEN1
 48
0.5
100
AcDbLine
 10
-2030.234337453205
 20
1889.821805105529
 30
0.0
 11
-2030.234337453205
 21
1894.321805105529
 31
0.0
  0
ARC
  5
1340F
330
1A
100
AcDbEntity
  8
ZISSEN1
 48
0.5
100
AcDbCircle
 10
-2031.984337453204
 20
1889.821805105529
 30
0.0
 40
1.749999999998181
100
AcDbArc
 50
179.9999999998957
 51
0.0000000001042077
  0
LINE
  5
13410
330
1A
100
AcDbEntity
  8
ZISSEN1
 48
0.5
100
AcDbLine
 10
-2018.984337453205
 20
1893.321805105529
 30
0.0
 11
-2015.984337453205
 21
1893.321805105529
 31
0.0
  0
LINE
  5
13411
330
1A
100
AcDbEntity
  8
ZISSEN1
 48
0.5
100
AcDbLine
 10
-2018.984337453205
 20
1893.821805105529
 30
0.0
 11
-2020.884337453206
 21
1893.821805105529
 31
0.0
  0
LINE
  5
13412
330
1A
100
AcDbEntity
  8
ZISSEN1
 48
0.5
100
AcDbLine
 10
-2014.984337453205
 20
1894.321805105529
 30
0.0
 11
-2011.984337453206
 21
1894.321805105529
 31
0.0
  0
LINE
  5
13417
330
1A
100
AcDbEntity
  8
ZISSEN1
 48
0.5
100
AcDbLine
 10
-2037.784337453205
 20
1852.021805824636
 30
0.0
 11
-2037.784337453205
 21
1842.621805824636
 31
0.0
  0
LINE
  5
13418
330
1A
100
AcDbEntity
  8
ZISSEN1
 48
0.5
100
AcDbLine
 10
-2037.784337453205
 20
1842.621805824636
 30
0.0
 11
-2037.784337453205
 21
1852.021805824636
 31
0.0
  0
LINE
  5
1341A
330
1A
100
AcDbEntity
  8
ZISSEN1
 48
0.5
100
AcDbLine
 10
-2037.784337453205
 20
1854.871805824635
 30
0.0
 11
-2023.784337453205
 21
1854.871805824635
 31
0.0
  0
LINE
  5
1341D
330
1A
100
AcDbEntity
  8
ZISSEN1
 48
0.5
100
AcDbLine
 10
-2037.784337453205
 20
1871.771805824634
 30
0.0
 11
-2023.784337453205
 21
1871.771805824634
 31
0.0
  0
LINE
  5
13422
330
1A
100
AcDbEntity
  8
ZISSEN1
 48
0.5
100
AcDbLine
 10
-2037.784337453205
 20
1852.021805824636
 30
0.0
 11
-2023.784337453205
 21
1852.021805824636
 31
0.0
  0
LINE
  5
13424
330
1A
100
AcDbEntity
  8
ZISSEN1
 48
0.5
100
AcDbLine
 10
-2037.784337453205
 20
1871.771805824634
 30
0.0
 11
-2037.784337453205
 21
1854.871805824635
 31
0.0
  0
LINE
  5
13426
330
1A
100
AcDbEntity
  8
ZISSEN1
 48
0.5
100
AcDbLine
 10
-2037.784337453205
 20
1854.871805824635
 30
0.0
 11
-2037.784337453205
 21
1871.771805824634
 31
0.0
  0
LINE
  5
1342F
330
1A
100
AcDbEntity
  8
ZISSEN1
 48
0.5
100
AcDbLine
 10
-2018.984337453205
 20
1872.321805105527
 30
0.0
 11
-2015.984337453205
 21
1872.321805105527
 31
0.0
  0
LINE
  5
1345F
330
1A
100
AcDbEntity
  8
ZISSEN1
 48
0.5
100
AcDbLine
 10
-2037.784337453205
 20
1842.621805824636
 30
0.0
 11
-2023.784337453205
 21
1842.621805824636
 31
0.0
  0
LINE
  5
13462
330
1A
100
AcDbEntity
  8
ZISSEN1
 48
0.5
100
AcDbLine
 10
-2037.784337453205
 20
1817.871805824637
 30
0.0
 11
-2023.784337453205
 21
1817.871805824637
 31
0.0
  0
LINE
  5
13465
330
1A
100
AcDbEntity
  8
ZISSEN1
 48
0.5
100
AcDbLine
 10
-2037.784337453205
 20
1839.771805824636
 30
0.0
 11
-2023.784337453205
 21
1839.771805824636
 31
0.0
  0
LINE
  5
1346A
330
1A
100
AcDbEntity
  8
ZISSEN1
 48
0.5
100
AcDbLine
 10
-2037.784337453205
 20
1839.771805824636
 30
0.0
 11
-2037.784337453205
 21
1817.871805824637
 31
0.0
  0
LINE
  5
1346B
330
1A
100
AcDbEntity
  8
ZISSEN1
 48
0.5
100
AcDbLine
 10
-2037.784337453205
 20
1817.871805824637
 30
0.0
 11
-2037.784337453205
 21
1839.771805824636
 31
0.0
  0
ARC
  5
13470
330
1A
100
AcDbEntity
  8
ZISSEN1
 48
0.5
100
AcDbCircle
 10
-2031.984337453204
 20
1810.821805105529
 30
0.0
 40
1.749999999998181
100
AcDbArc
 50
359.9999999998958
 51
180.0000000001042
  0
LINE
  5
13499
330
1A
100
AcDbEntity
  8
ZISSEN1
 48
0.5
100
AcDbLine
 10
-2020.884337453206
 20
1815.321805105529
 30
0.0
 11
-2021.284337453205
 21
1815.321805105529
 31
0.0
  0
LINE
  5
1349A
330
1A
100
AcDbEntity
  8
ZISSEN1
 48
0.5
100
AcDbLine
 10
-2018.984337453205
 20
1817.321805105529
 30
0.0
 11
-2015.984337453205
 21
1817.321805105529
 31
0.0
  0
LINE
  5
134B1
330
1A
100
AcDbEntity
  8
ZISSEN1
 48
0.5
100
AcDbLine
 10
-2021.284337453205
 20
1815.321805105529
 30
0.0
 11
-2021.284337453205
 21
1817.871805824637
 31
0.0
  0
LINE
  5
134B2
330
1A
100
AcDbEntity
  8
ZISSEN1
 48
0.5
100
AcDbLine
 10
-2030.234337453205
 20
1806.321805105531
 30
0.0
 11
-2014.984337453205
 21
1806.321805105529
 31
0.0
  0
LINE
  5
134B3
330
1A
100
AcDbEntity
  8
ZISSEN1
 48
0.5
100
AcDbLine
 10
-2041.984337453206
 20
1807.321805105529
 30
0.0
 11
-2040.984337453206
 21
1806.321805105529
 31
0.0
  0
LINE
  5
134B4
330
1A
100
AcDbEntity
  8
ZISSEN1
 48
0.5
100
AcDbLine
 10
-2040.984337453206
 20
1806.321805105529
 30
0.0
 11
-2033.734337453205
 21
1806.321805105529
 31
0.0
  0
LINE
  5
134B5
330
1A
100
AcDbEntity
  8
ZISSEN1
 48
0.5
100
AcDbLine
 10
-2018.984337453205
 20
1807.321805105529
 30
0.0
 11
-2015.984337453205
 21
1807.321805105529
 31
0.0
  0
LINE
  5
134B6
330
1A
100
AcDbEntity
  8
ZISSEN1
 48
0.5
100
AcDbLine
 10
-2020.884337453206
 20
1806.821805105529
 30
0.0
 11
-2018.984337453205
 21
1806.821805105529
 31
0.0
  0
LINE
  5
134B7
330
1A
100
AcDbEntity
  8
ZISSEN1
 48
0.5
100
AcDbLine
 10
-2011.984337453206
 20
1806.321805105529
 30
0.0
 11
-2014.984337453205
 21
1806.321805105529
 31
0.0
  0
LINE
  5
139A4
330
1A
100
AcDbEntity
  8
ZISSEN1
100
AcDbLine
 10
-2088.334317453208
 20
1817.871805824637
 30
0.0
 11
-2088.334317453208
 21
1839.771815824637
 31
0.0
  0
LINE
  5
139A5
330
1A
100
AcDbEntity
  8
ZISSEN1
100
AcDbLine
 10
-2082.534337453208
 20
1817.871805824637
 30
0.0
 11
-2082.534337453208
 21
1839.771815824637
 31
0.0
  0
LINE
  5
139A6
330
1A
100
AcDbEntity
  8
ZISSEN1
100
AcDbLine
 10
-2088.334317453208
 20
1817.871805824637
 30
0.0
 11
-2082.534337453208
 21
1817.871805824637
 31
0.0
  0
LINE
  5
139A7
330
1A
100
AcDbEntity
  8
ZISSEN1
100
AcDbLine
 10
-2088.334317453208
 20
1839.771815824637
 30
0.0
 11
-2082.534337453208
 21
1839.771815824637
 31
0.0
  0
LINE
  5
139AF
330
1A
100
AcDbEntity
  8
ZISSEN1
100
AcDbLine
 10
-2082.534337453208
 20
1852.021795824637
 30
0.0
 11
-2088.334347453208
 21
1852.021795824637
 31
0.0
  0
LINE
  5
139B0
330
1A
100
AcDbEntity
  8
ZISSEN1
100
AcDbLine
 10
-2082.534337453208
 20
1842.621805824636
 30
0.0
 11
-2088.334347453208
 21
1842.621805824636
 31
0.0
  0
LINE
  5
139B1
330
1A
100
AcDbEntity
  8
ZISSEN1
100
AcDbLine
 10
-2082.534337453208
 20
1842.621805824636
 30
0.0
 11
-2082.534337453208
 21
1852.021795824637
 31
0.0
  0
LINE
  5
139B2
330
1A
100
AcDbEntity
  8
ZISSEN1
100
AcDbLine
 10
-2088.334347453208
 20
1842.621805824636
 30
0.0
 11
-2088.334347453208
 21
1852.021795824637
 31
0.0
  0
LINE
  5
139B3
330
1A
100
AcDbEntity
  8
ZISSEN1
100
AcDbLine
 10
-2082.534337453208
 20
1854.871805824635
 30
0.0
 11
-2082.534337453208
 21
1871.771845824635
 31
0.0
  0
LINE
  5
139B4
330
1A
100
AcDbEntity
  8
ZISSEN1
100
AcDbLine
 10
-2088.334347453208
 20
1854.871805824635
 30
0.0
 11
-2088.334347453208
 21
1871.771845824635
 31
0.0
  0
LINE
  5
139B5
330
1A
100
AcDbEntity
  8
ZISSEN1
100
AcDbLine
 10
-2088.334347453208
 20
1854.871805824635
 30
0.0
 11
-2082.534337453208
 21
1854.871805824635
 31
0.0
  0
LINE
  5
139B6
330
1A
100
AcDbEntity
  8
ZISSEN1
100
AcDbLine
 10
-2088.334347453208
 20
1871.771845824635
 30
0.0
 11
-2082.534337453208
 21
1871.771845824635
 31
0.0
  0
LWPOLYLINE
  5
139B7
330
1A
100
AcDbEntity
  8
ZISSEN1
100
AcDbPolyline
 90
        4
 70
     1
 43
0.0
 10
-2088.334337453207
 20
1765.12180510553
 10
-2082.534337453208
 20
1765.12180510553
 10
-2082.534337453208
 20
1751.12180510553
 10
-2088.334337453207
 20
1751.12180510553
  0
LWPOLYLINE
  5
139B8
330
1A
100
AcDbEntity
  8
ZISSEN1
100
AcDbPolyline
 90
        4
 70
     1
 43
0.0
 10
-2087.434337453208
 20
1751.12180510553
 10
-2087.434337453208
 20
1751.12180510553
 10
-2087.434337453208
 20
1748.221805105529
 10
-2087.434337453208
 20
1748.221805105529
  0
LWPOLYLINE
  5
139B9
330
1A
100
AcDbEntity
  8
ZISSEN1
100
AcDbPolyline
 90
        4
 70
     1
 43
0.0
 10
-2037.784337453205
 20
1871.771805824634
 10
-2019.284337453206
 20
1871.771805824634
 10
-2019.284337453206
 20
1854.871805824635
 10
-2037.784337453205
 20
1854.871805824635
  0
LWPOLYLINE
  5
13C00
330
1A
100
AcDbEntity
  8
ZISSEN1
100
AcDbPolyline
 90
        4
 70
     1
 43
0.0
 10
-2037.784337453205
 20
1852.021805824636
 10
-2020.884337453206
 20
1852.021805824636
 10
-2020.884337453206
 20
1842.621805824636
 10
-2037.784337453205
 20
1842.621805824636
  0
LWPOLYLINE
  5
13C01
330
1A
100
AcDbEntity
  8
ZISSEN1
100
AcDbPolyline
 90
        4
 70
     1
 43
0.0
 10
-2037.784337453205
 20
1839.771805824636
 10
-2020.884337453206
 20
1839.771805824636
 10
-2020.884337453206
 20
1817.871805824637
 10
-2037.784337453205
 20
1817.871805824637
  0
DIMENSION
  5
13D1D
330
1A
100
AcDbEntity
  8
SUNPOU
100
AcDbDimension
  2
*D10
 10
-2030.234337453205
 20
1901.184296689886
 30
0.0
 11
-2019.734337453205
 21
1903.934296689886
 31
0.0
 70
    32
  3
標準スタイル
100
AcDbAlignedDimension
 13
-2033.734337453205
 23
1894.321805105529
 33
0.0
 14
-2030.234337453205
 24
1894.321805105529
 34
0.0
100
AcDbRotatedDimension
1001
ACAD
1000
DSTYLE
1002
{
1070
   340
1005
10
1070
    40
1040
1.0
1002
}
  0
LINE
  5
13D2D
330
1A
100
AcDbEntity
  8
CL1
100
AcDbLine
 10
-2033.734337453205
 20
1890.321805105531
 30
0.0
 11
-2030.234337453205
 21
1890.321805105531
 31
0.0
  0
LINE
  5
13D2E
330
1A
100
AcDbEntity
  8
CL1
100
AcDbLine
 10
-2031.984337453205
 20
1888.071805105531
 30
0.0
 11
-2031.984337453205
 21
1892.81383548605
 31
0.0
  0
LINE
  5
13D2F
330
1A
100
AcDbEntity
  8
CL1
100
AcDbLine
 10
-2033.734337453205
 20
1810.321805105529
 30
0.0
 11
-2030.234337453205
 21
1810.321805105529
 31
0.0
  0
LINE
  5
13D30
330
1A
100
AcDbEntity
  8
CL1
100
AcDbLine
 10
-2031.984337453205
 20
1812.571805105528
 30
0.0
 11
-2031.984337453205
 21
1808.157846801734
 31
0.0
  0
LINE
  5
13D35
330
1A
100
AcDbEntity
  8
CL1
100
AcDbLine
 10
-2147.234337453205
 20
1810.321805105529
 30
0.0
 11
-2143.734337453205
 21
1810.321805105529
 31
0.0
  0
LINE
  5
13D36
330
1A
100
AcDbEntity
  8
CL1
100
AcDbLine
 10
-2145.484337453207
 20
1812.571805105528
 30
0.0
 11
-2145.484337453205
 21
1808.821805105529
 31
0.0
  0
LINE
  5
13D3A
330
1A
100
AcDbEntity
  8
CL1
100
AcDbLine
 10
-2151.419186704476
 20
1890.321805105531
 30
0.0
 11
-2157.37553545837
 21
1890.321805105531
 31
0.0
  0
LINE
  5
13D3B
330
1A
100
AcDbEntity
  8
CL1
100
AcDbLine
 10
-2157.37553545837
 20
1810.321805105529
 30
0.0
 11
-2151.419186704476
 21
1810.321805105529
 31
0.0
  0
LINE
  5
13D3C
330
1A
100
AcDbEntity
  8
CL1
100
AcDbLine
 10
-2147.234337453205
 20
1890.321805105531
 30
0.0
 11
-2143.734337453205
 21
1890.321805105531
 31
0.0
  0
LINE
  5
13D3D
330
1A
100
AcDbEntity
  8
CL1
100
AcDbLine
 10
-2145.484337453207
 20
1888.071805105531
 30
0.0
 11
-2145.484337453207
 21
1892.438666490391
 31
0.0
  0
LINE
  5
13D3F
330
1A
100
AcDbEntity
  8
CL1
100
AcDbLine
 10
-2139.484337453205
 20
1813.821805105529
 30
0.0
 11
-2139.484337453205
 21
1807.821785105529
 31
0.0
  0
CIRCLE
  5
13D40
330
1A
100
AcDbEntity
  8
SAISEN
100
AcDbCircle
 10
-2139.484337453205
 20
1810.321795105529
 30
0.0
 40
1.5
  0
CIRCLE
  5
13D41
330
1A
100
AcDbEntity
  8
ZISSEN1
100
AcDbCircle
 10
-2139.484337453205
 20
1810.321795105529
 30
0.0
 40
1.0
  0
CIRCLE
  5
13D43
330
1A
100
AcDbEntity
  8
ZISSEN1
100
AcDbCircle
 10
-2025.984337453206
 20
1810.321795105529
 30
0.0
 40
1.0
  0
CIRCLE
  5
13D44
330
1A
100
AcDbEntity
  8
SAISEN
100
AcDbCircle
 10
-2025.984337453206
 20
1810.321795105529
 30
0.0
 40
1.5
  0
LINE
  5
13D45
330
1A
100
AcDbEntity
  8
CL1
100
AcDbLine
 10
-2025.984337453206
 20
1813.821805105529
 30
0.0
 11
-2025.984337453206
 21
1807.821785105529
 31
0.0
  0
CIRCLE
  5
13D47
330
1A
100
AcDbEntity
  8
ZISSEN1
100
AcDbCircle
 10
-2139.484337453205
 20
1890.321795105531
 30
0.0
 40
1.0
  0
CIRCLE
  5
13D48
330
1A
100
AcDbEntity
  8
SAISEN
100
AcDbCircle
 10
-2139.484337453205
 20
1890.321795105531
 30
0.0
 40
1.5
  0
CIRCLE
  5
13D4A
330
1A
100
AcDbEntity
  8
SAISEN
100
AcDbCircle
 10
-2025.984337453205
 20
1890.321795105531
 30
0.0
 40
1.5
  0
CIRCLE
  5
13D4B
330
1A
100
AcDbEntity
  8
ZISSEN1
100
AcDbCircle
 10
-2025.984337453205
 20
1890.321795105531
 30
0.0
 40
1.0
  0
LINE
  5
13D4D
330
1A
100
AcDbEntity
  8
CL1
100
AcDbLine
 10
-2140.984337453172
 20
1810.321805105529
 30
0.0
 11
-2137.613289381299
 21
1810.321805105529
 31
0.0
  0
LINE
  5
13D50
330
1A
100
AcDbEntity
  8
CL1
100
AcDbLine
 10
-2140.984337453172
 20
1890.321805105531
 30
0.0
 11
-2137.984337453239
 21
1890.321805105531
 31
0.0
  0
LINE
  5
13D51
330
1A
100
AcDbEntity
  8
CL1
100
AcDbLine
 10
-2139.484337453206
 20
1891.821795105531
 30
0.0
 11
-2139.484337453206
 21
1888.821795105531
 31
0.0
  0
LINE
  5
13D52
330
1A
100
AcDbEntity
  8
CL1
100
AcDbLine
 10
-2027.484337453172
 20
1890.321805105531
 30
0.0
 11
-2024.484337453239
 21
1890.321805105531
 31
0.0
  0
LINE
  5
13D53
330
1A
100
AcDbEntity
  8
CL1
100
AcDbLine
 10
-2025.984337453206
 20
1891.821795105531
 30
0.0
 11
-2025.984337453206
 21
1888.821795105531
 31
0.0
  0
LINE
  5
13D54
330
1A
100
AcDbEntity
  8
CL1
100
AcDbLine
 10
-2027.484337453172
 20
1810.321805105529
 30
0.0
 11
-2024.484337453239
 21
1810.321805105529
 31
0.0
  0
LINE
  5
13D55
330
1A
100
AcDbEntity
  8
CL1
100
AcDbLine
 10
-2025.984337453206
 20
1811.821795105529
 30
0.0
 11
-2025.984337453206
 21
1808.821795105529
 31
0.0
  0
DIMENSION
  5
13D65
330
1A
100
AcDbEntity
  8
SUNPOU
100
AcDbDimension
  2
*D11
 10
-2152.984337453205
 20
1775.900251702036
 30
0.0
 11
-2144.817670786539
 21
1778.650251702036
 31
0.0
 70
    32
  3
標準スタイル
100
AcDbAlignedDimension
 13
-2155.984337453205
 23
1769.321805105529
 33
0.0
 14
-2152.984337453205
 24
1769.321805105529
 34
0.0
100
AcDbRotatedDimension
1001
ACAD
1000
DSTYLE
1002
{
1070
   140
1040
3.5
1070
   340
1005
10
1070
    40
1040
1.0
1002
}
  0
DIMENSION
  5
13D7F
330
1A
100
AcDbEntity
  8
SUNPOU
100
AcDbDimension
  2
*D12
 10
-2011.984337453206
 20
1788.02428706854
 30
0.0
 11
-2026.984337453205
 21
1790.77428706854
 31
0.0
 70
    32
  3
標準スタイル
100
AcDbAlignedDimension
 13
-2041.984337453206
 23
1807.321805105529
 33
0.0
 14
-2011.984337453206
 24
1806.321805105529
 34
0.0
100
AcDbRotatedDimension
1001
ACAD
1000
DSTYLE
1002
{
1070
   340
1005
10
1070
    40
1040
1.0
1002
}
  0
DIMENSION
  5
13D8C
330
1A
100
AcDbEntity
  8
SUNPOU
100
AcDbDimension
  2
*D13
 10
-2031.984337453205
 20
1798.518572417828
 30
0.0
 11
-2036.984337453206
 21
1801.268572417828
 31
0.0
 70
    32
  3
標準スタイル
100
AcDbAlignedDimension
 13
-2041.984337453206
 23
1807.321805105529
 33
0.0
 14
-2031.984337453205
 24
1808.157846801734
 34
0.0
100
AcDbRotatedDimension
1001
ACAD
1000
DSTYLE
1002
{
1070
   340
1005
10
1070
    40
1040
1.0
1002
}
  0
DIMENSION
  5
13D99
330
1A
100
AcDbEntity
  8
SUNPOU
100
AcDbDimension
  2
*D14
 10
-2025.984337453206
 20
1798.518572417828
 30
0.0
 11
-2028.984337453206
 21
1801.268572417828
 31
0.0
 70
    32
  3
標準スタイル
100
AcDbAlignedDimension
 13
-2031.984337453205
 23
1808.157846801734
 33
0.0
 14
-2025.984337453206
 24
1810.321795105529
 34
0.0
100
AcDbRotatedDimension
1001
ACAD
1000
DSTYLE
1002
{
1070
   287
1070
     4
1070
   340
1005
10
1070
    40
1040
1.0
1070
   279
1070
     1
1002
}
  0
DIMENSION
  5
13DB5
330
1A
100
AcDbEntity
  8
SUNPOU
100
AcDbDimension
  2
*D15
 10
-2049.634895956907
 20
1890.321805105531
 30
0.0
 11
-2051.98855353122
 21
1892.08311577711
 31
0.0
 70
   160
  3
標準スタイル
100
AcDbAlignedDimension
 13
-2040.984337453206
 23
1894.321805105529
 33
0.0
 14
-2031.984337453205
 24
1890.321805105531
 34
0.0
 50
90.0
100
AcDbRotatedDimension
1001
ACAD
1000
DSTYLE
1002
{
1070
   287
1070
     5
1070
    40
1040
1.0
1070
   279
1070
     2
1070
   340
1005
10
1002
}
  0
DIMENSION
  5
13DC4
330
1A
100
AcDbEntity
  8
SUNPOU
100
AcDbDimension
  2
*D16
 10
-2049.634895956907
 20
1810.321805105529
 30
0.0
 11
-2052.384895956907
 21
1850.32180510553
 31
0.0
 70
    32
  3
標準スタイル
100
AcDbAlignedDimension
 13
-2031.984337453205
 23
1890.321805105531
 33
0.0
 14
-2033.734337453205
 24
1810.321805105529
 34
0.0
 50
90.0
100
AcDbRotatedDimension
1001
ACAD
1000
DSTYLE
1002
{
1070
   287
1070
     4
1070
   340
1005
10
1070
    40
1040
1.0
1070
   279
1070
     1
1002
}
  0
DIMENSION
  5
13DD1
330
1A
100
AcDbEntity
  8
SUNPOU
100
AcDbDimension
  2
*D17
 10
-2049.634895956907
 20
1806.321805105529
 30
0.0
 11
-2051.846214061181
 21
1808.158736620074
 31
0.0
 70
   160
  3
標準スタイル
100
AcDbAlignedDimension
 13
-2033.734337453205
 23
1810.321805105529
 33
0.0
 14
-2040.984337453206
 24
1806.321805105529
 34
0.0
 50
90.0
100
AcDbRotatedDimension
1001
ACAD
1000
DSTYLE
1002
{
1070
   287
1070
     5
1070
    40
1040
1.0
1070
   279
1070
     2
1070
   340
1005
10
1002
}
  0
MTEXT
  5
13F99
330
1A
100
AcDbEntity
  8
ZISSEN1
100
AcDbMText
 10
-2118.021521757599
 20
1933.584629918286
 30
0.0
 40
5.0
 41
108.3598999999999
 71
     1
 72
     5
  1
DB-2620Av1  \PNo.SS0001f120
1001
ACAD
1000
MTEXTBEGIN
1070
    73
1070
     1
1070
    44
1040
1.0
1070
    74
1070
     0
1000
MTEXTEND
1000
MTEXTBEGIN
1070
    73
1070
     1
1070
    44
1040
1.0
1070
    74
1070
     0
1000
MTEXTEND
1000
MTEXTBEGIN
1070
    73
1070
     1
1070
    44
1040
1.0
1070
    74
1070
     0
1000
MTEXTEND
1000
MTEXTBEGIN
1070
    73
1070
     1
1070
    44
1040
1.0
1070
    74
1070
     0
1000
MTEXTEND
  0
LINE
  5
13FA3
330
1A
100
AcDbEntity
  8
CL1
100
AcDbLine
 10
-2145.484337453205
 20
1737.864034381191
 30
0.0
 11
-2145.484337453205
 21
1743.367517320194
 31
0.0
  0
DIMENSION
  5
13FA4
330
1A
100
AcDbEntity
  8
SUNPOU
100
AcDbDimension
  2
*D18
 10
-2164.099885736451
 20
1757.571805105529
 30
0.0
 11
-2166.849885736451
 21
1747.071805105529
 31
0.0
 70
    32
  3
標準スタイル
100
AcDbAlignedDimension
 13
-2155.984337453205
 23
1761.071805105529
 33
0.0
 14
-2155.984337453206
 24
1757.571805105529
 34
0.0
 50
90.0
100
AcDbRotatedDimension
1001
ACAD
1000
DSTYLE
1002
{
1070
   340
1005
10
1070
    40
1040
1.0
1002
}
  0
LINE
  5
13FB7
330
1A
100
AcDbEntity
  8
CL1
100
AcDbLine
 10
-2157.299617171483
 20
1759.321805105529
 30
0.0
 11
-2151.855331433393
 21
1759.321805105529
 31
0.0
  0
VIEWPORT
  5
5D8F
330
5D8E
100
AcDbEntity
 67
     1
  8
0
100
AcDbViewport
 10
221.7797456309484
 20
157.6970208868912
 30
0.0
 40
559.9566361207892
 41
314.2372683715821
 68
     1
 69
     1
1001
ACAD
1000
MVIEW
1002
{
1070
    16
1010
0.0
1020
0.0
1030
0.0
1010
0.0
1020
0.0
1030
1.0
1040
0.0
1040
314.2372683715821
1040
221.7797456309484
1040
157.6970208868912
1040
50.0
1040
0.0
1040
0.0
1070
     0
1070
   100
1070
     1
1070
     0
1070
     0
1070
     0
1070
     0
1070
     0
1040
0.0
1040
0.0
1040
0.0
1040
1.0
1040
1.0
1040
10.0
1040
10.0
1070
     0
1002
{
1002
}
1002
}
  0
VIEWPORT
  5
6001
330
5D8E
100
AcDbEntity
 67
     1
  8
ZISSEN1
100
AcDbViewport
 10
221.7861955525412
 20
157.6960273330388
 30
0.0
 40
385.4999999999997
 41
259.9999999999999
 68
     2
 69
     2
1001
ACAD
1000
MVIEW
1002
{
1070
    16
1010
0.0
1020
0.0
1030
0.0
1010
0.0
1020
0.0
1030
1.0
1040
0.0
1040
260.0000009337952
1040
-2092.921524754653
1040
1833.770740390515
1040
50.0
1040
0.0
1040
0.0
1070
     0
1070
   100
1070
     1
1070
     0
1070
     0
1070
     0
1070
     0
1070
     0
1040
0.0
1040
0.0
1040
0.0
1040
1.0
1040
1.0
1040
10.0
1040
10.0
1070
     0
1002
{
1002
}
1002
}
  0
TEXT
  5
716F
330
5D8E
100
AcDbEntity
 67
     1
  8
SUNPOU
 62
     0
100
AcDbText
 10
374.1863124306944
 20
60.86794705907585
 30
0.0
 40
3.5
  1
縮尺 1/1
  7
ゴシック体
100
AcDbText
  0
ENDSEC
  0
SECTION
  2
OBJECTS
  0
DICTIONARY
  5
C
330
0
100
AcDbDictionary
  3
ACAD_GROUP
350
D
  3
ACAD_LAYOUT
350
5C7D
  3
ACAD_MLINESTYLE
350
E
  3
ACAD_PLOTSETTINGS
350
5C7E
  3
ACAD_PLOTSTYLENAME
350
5C7B
  3
ACADDIM
350
12E35
  3
DWGPROPS
350
5E8E
  3
ACDBHEADERROUNDTRIPXREC
350
1413C
  0
DICTIONARY
  5
12E5E
330
2
100
AcDbDictionary
280
     1
  3
ACAD_LAYERFILTERS
360
12E5F
  0
DICTIONARY
  5
1415C
330
1A
100
AcDbDictionary
280
     1
  3
ACAD_LAYOUTSELFREF
360
1415D
  0
DICTIONARY
  5
1415E
330
5D8E
100
AcDbDictionary
280
     1
  3
ACAD_LAYOUTSELFREF
360
1415F
  0
DICTIONARY
  5
D
102
{ACAD_REACTORS
330
C
102
}
330
C
100
AcDbDictionary
  3
*A1
350
477D
  3
*A2
350
4C16
  3
*A3
350
4C17
  3
*A4
350
477E
  3
*A5
350
477F
  3
*A6
350
4780
  3
*A7
350
4781
  3
*A8
350
4C0E
  3
*A9
350
4C0F
  3
*A10
350
4C10
  3
*A11
350
4C11
  3
*A12
350
4C12
  3
*A13
350
4C13
  3
*A14
350
4C14
  3
*A15
350
4C15
  0
DICTIONARY
  5
5C7D
102
{ACAD_REACTORS
330
C
102
}
330
C
100
AcDbDictionary
  0
DICTIONARY
  5
E
102
{ACAD_REACTORS
330
C
102
}
330
C
100
AcDbDictionary
  3
STANDARD
350
13
  0
DICTIONARY
  5
5C7E
102
{ACAD_REACTORS
330
C
102
}
330
C
100
AcDbDictionary
  0
ACDBDICTIONARYWDFLT
  5
5C7B
102
{ACAD_REACTORS
330
C
102
}
330
C
100
AcDbDictionary
281
     1
  3
Normal
350
5C7C
100
AcDbDictionaryWithDefault
340
5C7C
  0
XRECORD
  5
12E35
102
{ACAD_REACTORS
330
C
102
}
330
C
100
AcDbXrecord
 90
   990106
  3

 60
     0
 61
     0
 62
     1
 63
     3
 64
     0
 65
     0
 66
     0
 67
     3
 68
     1
 69
     0
 70
     0
 71
     0
 72
     0
 40
0.0
170
     0
  0
XRECORD
  5
5E8E
102
{ACAD_REACTORS
330
C
102
}
330
C
100
AcDbXrecord
  1
DWGPROPS COOKIE
  2

  3

  4

  6

  7

  8

  9

300
=
301
=
302
=
303
=
304
=
305
=
306
=
307
=
308
=
309
=
 40
0.586753587962963
 41
2450495.493631365
 42
2453208.662277431
  1

 90
        0
  0
DICTIONARY
  5
1413C
102
{ACAD_REACTORS
330
C
102
}
330
C
100
AcDbDictionary
  3
TSTACKALIGN
350
1413D
  3
TSTACKSIZE
350
1413E
  3
HYPERLINKBASE
350
1413F
  3
STYLESHEET
350
14140
  3
LAYOUTDICT
350
14141
  3
PLOTSETDICT
350
14142
  3
PLOTSTYLNAMDICT
350
14143
  3
LWETCUNION
350
14144
  3
INSUNITS
350
14145
  3
CEPSNTYPE
350
14146
  3
FINGERPRINTGUID
350
14147
  3
VERSIONGUID
350
14148
  3
PSVPSCALE
350
14149
  3
PUCSORTHOREF
350
1414A
  3
PUCSORTHOVIEW
350
1414B
  3
PUCSBASE
350
1414C
  3
PUCSORGTOP
350
1414D
  3
PUCSORGBOTTOM
350
1414E
  3
PUCSORGLEFT
350
1414F
  3
PUCSORGRIGHT
350
14150
  3
PUCSORGFRONT
350
14151
  3
PUCSORGBACK
350
14152
  3
UCSORTHOREF
350
14153
  3
UCSORTHOVIEW
350
14154
  3
UCSBASE
350
14155
  3
UCSORGTOP
350
14156
  3
UCSORGBOTTOM
350
14157
  3
UCSORGLEFT
350
14158
  3
UCSORGRIGHT
350
14159
  3
UCSORGFRONT
350
1415A
  3
UCSORGBACK
350
1415B
  0
DICTIONARY
  5
12E5F
102
{ACAD_REACTORS
330
12E5E
102
}
330
12E5E
100
AcDbDictionary
280
     1
  3
BASE
360
12E60
  3
CASE
360
12E61
  3
KIKOU
360
12E62
  0
XRECORD
  5
1415D
102
{ACAD_REACTORS
330
1415C
102
}
330
1415C
100
AcDbXrecord
340
1A
  0
XRECORD
  5
1415F
102
{ACAD_REACTORS
330
1415E
102
}
330
1415E
100
AcDbXrecord
340
5D8E
  0
GROUP
  5
477D
102
{ACAD_REACTORS
330
D
102
}
330
D
100
AcDbGroup
300

 70
     1
 71
     1
  0
GROUP
  5
4C16
102
{ACAD_REACTORS
330
D
102
}
330
D
100
AcDbGroup
300

 70
     1
 71
     1
  0
GROUP
  5
4C17
102
{ACAD_REACTORS
330
D
102
}
330
D
100
AcDbGroup
300

 70
     1
 71
     1
  0
GROUP
  5
477E
102
{ACAD_REACTORS
330
D
102
}
330
D
100
AcDbGroup
300

 70
     1
 71
     1
  0
GROUP
  5
477F
102
{ACAD_REACTORS
330
D
102
}
330
D
100
AcDbGroup
300

 70
     1
 71
     1
  0
GROUP
  5
4780
102
{ACAD_REACTORS
330
D
102
}
330
D
100
AcDbGroup
300

 70
     1
 71
     1
  0
GROUP
  5
4781
102
{ACAD_REACTORS
330
D
102
}
330
D
100
AcDbGroup
300

 70
     1
 71
     1
  0
GROUP
  5
4C0E
102
{ACAD_REACTORS
330
D
102
}
330
D
100
AcDbGroup
300

 70
     1
 71
     1
  0
GROUP
  5
4C0F
102
{ACAD_REACTORS
330
D
102
}
330
D
100
AcDbGroup
300

 70
     1
 71
     1
  0
GROUP
  5
4C10
102
{ACAD_REACTORS
330
D
102
}
330
D
100
AcDbGroup
300

 70
     1
 71
     1
  0
GROUP
  5
4C11
102
{ACAD_REACTORS
330
D
102
}
330
D
100
AcDbGroup
300

 70
     1
 71
     1
  0
GROUP
  5
4C12
102
{ACAD_REACTORS
330
D
102
}
330
D
100
AcDbGroup
300

 70
     1
 71
     1
  0
GROUP
  5
4C13
102
{ACAD_REACTORS
330
D
102
}
330
D
100
AcDbGroup
300

 70
     1
 71
     1
  0
GROUP
  5
4C14
102
{ACAD_REACTORS
330
D
102
}
330
D
100
AcDbGroup
300

 70
     1
 71
     1
  0
GROUP
  5
4C15
102
{ACAD_REACTORS
330
D
102
}
330
D
100
AcDbGroup
300

 70
     1
 71
     1
  0
MLINESTYLE
  5
13
102
{ACAD_REACTORS
330
E
102
}
330
E
100
AcDbMlineStyle
  2
STANDARD
 70
     0
  3

 62
     0
 51
90.0
 52
90.0
 71
     2
 49
0.5
 62
   256
  6
BYLAYER
 49
-0.5
 62
   256
  6
BYLAYER
  0
ACDBPLACEHOLDER
  5
5C7C
102
{ACAD_REACTORS
330
5C7B
102
}
330
5C7B
100
AcDbPlaceHolder
280
     0
  0
XRECORD
  5
1413D
102
{ACAD_REACTORS
330
1413C
102
}
330
1413C
100
AcDbXrecord
 90
        1
  0
XRECORD
  5
1413E
102
{ACAD_REACTORS
330
1413C
102
}
330
1413C
100
AcDbXrecord
 90
       70
  0
XRECORD
  5
1413F
102
{ACAD_REACTORS
330
1413C
102
}
330
1413C
100
AcDbXrecord
  1

  0
XRECORD
  5
14140
102
{ACAD_REACTORS
330
1413C
102
}
330
1413C
100
AcDbXrecord
  1

  0
XRECORD
  5
14141
102
{ACAD_REACTORS
330
1413C
102
}
330
1413C
100
AcDbXrecord
340
5C7D
  0
XRECORD
  5
14142
102
{ACAD_REACTORS
330
1413C
102
}
330
1413C
100
AcDbXrecord
340
5C7E
  0
XRECORD
  5
14143
102
{ACAD_REACTORS
330
1413C
102
}
330
1413C
100
AcDbXrecord
340
5C7B
  0
XRECORD
  5
14144
102
{ACAD_REACTORS
330
1413C
102
}
330
1413C
100
AcDbXrecord
 90
    10781
  0
XRECORD
  5
14145
102
{ACAD_REACTORS
330
1413C
102
}
330
1413C
100
AcDbXrecord
 90
        0
  0
XRECORD
  5
14146
102
{ACAD_REACTORS
330
1413C
102
}
330
1413C
100
AcDbXrecord
 90
        0
  0
XRECORD
  5
14147
102
{ACAD_REACTORS
330
1413C
102
}
330
1413C
100
AcDbXrecord
  1
{225A7F0D-DA29-11D8-946A-0000E2416295}
  0
XRECORD
  5
14148
102
{ACAD_REACTORS
330
1413C
102
}
330
1413C
100
AcDbXrecord
  1
{47EBBF21-19EE-42BA-873C-7BDCB3081A2A}
  0
XRECORD
  5
14149
102
{ACAD_REACTORS
330
1413C
102
}
330
1413C
100
AcDbXrecord
 40
0.0
  0
XRECORD
  5
1414A
102
{ACAD_REACTORS
330
1413C
102
}
330
1413C
100
AcDbXrecord
340
0
  0
XRECORD
  5
1414B
102
{ACAD_REACTORS
330
1413C
102
}
330
1413C
100
AcDbXrecord
 70
     0
  0
XRECORD
  5
1414C
102
{ACAD_REACTORS
330
1413C
102
}
330
1413C
100
AcDbXrecord
340
0
  0
XRECORD
  5
1414D
102
{ACAD_REACTORS
330
1413C
102
}
330
1413C
100
AcDbXrecord
 10
0.0
 20
0.0
 30
0.0
  0
XRECORD
  5
1414E
102
{ACAD_REACTORS
330
1413C
102
}
330
1413C
100
AcDbXrecord
 10
0.0
 20
0.0
 30
0.0
  0
XRECORD
  5
1414F
102
{ACAD_REACTORS
330
1413C
102
}
330
1413C
100
AcDbXrecord
 10
0.0
 20
0.0
 30
0.0
  0
XRECORD
  5
14150
102
{ACAD_REACTORS
330
1413C
102
}
330
1413C
100
AcDbXrecord
 10
0.0
 20
0.0
 30
0.0
  0
XRECORD
  5
14151
102
{ACAD_REACTORS
330
1413C
102
}
330
1413C
100
AcDbXrecord
 10
0.0
 20
0.0
 30
0.0
  0
XRECORD
  5
14152
102
{ACAD_REACTORS
330
1413C
102
}
330
1413C
100
AcDbXrecord
 10
0.0
 20
0.0
 30
0.0
  0
XRECORD
  5
14153
102
{ACAD_REACTORS
330
1413C
102
}
330
1413C
100
AcDbXrecord
340
0
  0
XRECORD
  5
14154
102
{ACAD_REACTORS
330
1413C
102
}
330
1413C
100
AcDbXrecord
 70
     0
  0
XRECORD
  5
14155
102
{ACAD_REACTORS
330
1413C
102
}
330
1413C
100
AcDbXrecord
340
0
  0
XRECORD
  5
14156
102
{ACAD_REACTORS
330
1413C
102
}
330
1413C
100
AcDbXrecord
 10
0.0
 20
0.0
 30
0.0
  0
XRECORD
  5
14157
102
{ACAD_REACTORS
330
1413C
102
}
330
1413C
100
AcDbXrecord
 10
0.0
 20
0.0
 30
0.0
  0
XRECORD
  5
14158
102
{ACAD_REACTORS
330
1413C
102
}
330
1413C
100
AcDbXrecord
 10
0.0
 20
0.0
 30
0.0
  0
XRECORD
  5
14159
102
{ACAD_REACTORS
330
1413C
102
}
330
1413C
100
AcDbXrecord
 10
0.0
 20
0.0
 30
0.0
  0
XRECORD
  5
1415A
102
{ACAD_REACTORS
330
1413C
102
}
330
1413C
100
AcDbXrecord
 10
0.0
 20
0.0
 30
0.0
  0
XRECORD
  5
1415B
102
{ACAD_REACTORS
330
1413C
102
}
330
1413C
100
AcDbXrecord
 10
0.0
 20
0.0
 30
0.0
  0
XRECORD
  5
12E60
102
{ACAD_REACTORS
330
12E5F
102
}
330
12E5F
100
AcDbXrecord
  1
BASE
  1
BASE*
  1
*
  1
*
 70
     0
  1
*
  1
*
  0
XRECORD
  5
12E61
102
{ACAD_REACTORS
330
12E5F
102
}
330
12E5F
100
AcDbXrecord
  1
CASE
  1
CASE*
  1
*
  1
*
 70
     0
  1
*
  1
*
  0
XRECORD
  5
12E62
102
{ACAD_REACTORS
330
12E5F
102
}
330
12E5F
100
AcDbXrecord
  1
KIKOU
  1
KIKOU*
  1
*
  1
*
 70
     0
  1
*
  1
*
  0
ENDSEC
  0
EOF
