  0
SECTION
  2
HEADER
  9
$ACADVER
  1
AC1014
  9
$ACADMAINTVER
 70
     9
  9
$DWGCODEPAGE
  3
ANSI_932
  9
$INSBASE
 10
0.0
 20
0.0
 30
0.0
  9
$EXTMIN
 10
-1445.941562724343
 20
1594.818646851678
 30
0.0
  9
$EXTMAX
 10
-1299.046886898882
 20
1765.396084764469
 30
0.0
  9
$LIMMIN
 10
0.0
 20
0.0
  9
$LIMMAX
 10
420.0
 20
297.0
  9
$ORTHOMODE
 70
     1
  9
$REGENMODE
 70
     1
  9
$FILLMODE
 70
     1
  9
$QTEXTMODE
 70
     0
  9
$MIRRTEXT
 70
     1
  9
$DRAGMODE
 70
     2
  9
$LTSCALE
 40
1.0
  9
$OSMODE
 70
    37
  9
$ATTMODE
 70
     1
  9
$TEXTSIZE
 40
2.5
  9
$TRACEWID
 40
1.0
  9
$TEXTSTYLE
  7
ゴシック体
  9
$CLAYER
  8
CL1
  9
$CELTYPE
  6
BYLAYER
  9
$CECOLOR
 62
   256
  9
$CELTSCALE
 40
1.0
  9
$DELOBJ
 70
     1
  9
$DISPSILH
 70
     0
  9
$DIMSCALE
 40
0.0
  9
$DIMASZ
 40
3.0
  9
$DIMEXO
 40
0.5
  9
$DIMDLI
 40
0.5
  9
$DIMRND
 40
0.0
  9
$DIMDLE
 40
0.0
  9
$DIMEXE
 40
0.5
  9
$DIMTP
 40
0.0
  9
$DIMTM
 40
0.0
  9
$DIMTXT
 40
3.5
  9
$DIMCEN
 40
0.0
  9
$DIMTSZ
 40
0.0
  9
$DIMTOL
 70
     0
  9
$DIMLIM
 70
     0
  9
$DIMTIH
 70
     0
  9
$DIMTOH
 70
     0
  9
$DIMSE1
 70
     0
  9
$DIMSE2
 70
     0
  9
$DIMTAD
 70
     1
  9
$DIMZIN
 70
     8
  9
$DIMBLK
  1

  9
$DIMASO
 70
     1
  9
$DIMSHO
 70
     1
  9
$DIMPOST
  1

  9
$DIMAPOST
  1

  9
$DIMALT
 70
     0
  9
$DIMALTD
 70
     2
  9
$DIMALTF
 40
25.4
  9
$DIMLFAC
 40
1.0
  9
$DIMTOFL
 70
     1
  9
$DIMTVP
 40
0.0
  9
$DIMTIX
 70
     0
  9
$DIMSOXD
 70
     0
  9
$DIMSAH
 70
     0
  9
$DIMBLK1
  1

  9
$DIMBLK2
  1

  9
$DIMSTYLE
  2
標準スタイル
  9
$DIMCLRD
 70
     1
  9
$DIMCLRE
 70
     1
  9
$DIMCLRT
 70
     1
  9
$DIMTFAC
 40
1.0
  9
$DIMGAP
 40
1.0
  9
$DIMJUST
 70
     0
  9
$DIMSD1
 70
     0
  9
$DIMSD2
 70
     0
  9
$DIMTOLJ
 70
     1
  9
$DIMTZIN
 70
     8
  9
$DIMALTZ
 70
     0
  9
$DIMALTTZ
 70
     0
  9
$DIMFIT
 70
     3
  9
$DIMUPT
 70
     0
  9
$DIMUNIT
 70
     2
  9
$DIMDEC
 70
     2
  9
$DIMTDEC
 70
     2
  9
$DIMALTU
 70
     2
  9
$DIMALTTD
 70
     2
  9
$DIMTXSTY
  7
ゴシック体
  9
$DIMAUNIT
 70
     0
  9
$LUNITS
 70
     2
  9
$LUPREC
 70
     4
  9
$SKETCHINC
 40
1.0
  9
$FILLETRAD
 40
0.0
  9
$AUNITS
 70
     0
  9
$AUPREC
 70
     0
  9
$MENU
  1
.
  9
$ELEVATION
 40
0.0
  9
$PELEVATION
 40
0.0
  9
$THICKNESS
 40
0.0
  9
$LIMCHECK
 70
     0
  9
$BLIPMODE
 70
     0
  9
$CHAMFERA
 40
10.0
  9
$CHAMFERB
 40
10.0
  9
$CHAMFERC
 40
2.0
  9
$CHAMFERD
 40
0.7853981633974483
  9
$SKPOLY
 70
     0
  9
$TDCREATE
 40
2450495.493631365
  9
$TDUPDATE
 40
2457500.580819942
  9
$TDINDWG
 40
2.2130237153
  9
$TDUSRTIMER
 40
2.2130237153
  9
$USRTIMER
 70
     1
  9
$ANGBASE
 50
0.0
  9
$ANGDIR
 70
     0
  9
$PDMODE
 70
    99
  9
$PDSIZE
 40
0.0
  9
$PLINEWID
 40
0.0
  9
$COORDS
 70
     1
  9
$SPLFRAME
 70
     0
  9
$SPLINETYPE
 70
     6
  9
$SPLINESEGS
 70
     8
  9
$ATTDIA
 70
     0
  9
$ATTREQ
 70
     1
  9
$HANDLING
 70
 10241
  9
$HANDSEED
  5
1F60F
  9
$SURFTAB1
 70
     6
  9
$SURFTAB2
 70
     6
  9
$SURFTYPE
 70
     6
  9
$SURFU
 70
     6
  9
$SURFV
 70
     6
  9
$UCSNAME
  2

  9
$UCSORG
 10
0.0
 20
0.0
 30
0.0
  9
$UCSXDIR
 10
1.0
 20
0.0
 30
0.0
  9
$UCSYDIR
 10
0.0
 20
1.0
 30
0.0
  9
$PUCSNAME
  2

  9
$PUCSORG
 10
0.0
 20
0.0
 30
0.0
  9
$PUCSXDIR
 10
1.0
 20
0.0
 30
0.0
  9
$PUCSYDIR
 10
0.0
 20
1.0
 30
0.0
  9
$USERI1
 70
     0
  9
$USERI2
 70
     0
  9
$USERI3
 70
     0
  9
$USERI4
 70
     0
  9
$USERI5
 70
     0
  9
$USERR1
 40
0.0
  9
$USERR2
 40
0.0
  9
$USERR3
 40
0.0
  9
$USERR4
 40
0.0
  9
$USERR5
 40
0.0
  9
$WORLDVIEW
 70
     1
  9
$SHADEDGE
 70
     3
  9
$SHADEDIF
 70
    70
  9
$TILEMODE
 70
     0
  9
$MAXACTVP
 70
    16
  9
$PINSBASE
 10
0.0
 20
0.0
 30
0.0
  9
$PLIMCHECK
 70
     0
  9
$PEXTMIN
 10
29.03619555254135
 20
27.69602733303884
 30
0.0
  9
$PEXTMAX
 10
414.5361955525411
 20
287.6960273330388
 30
0.0
  9
$PLIMMIN
 10
11.80643185883984
 20
9.190673924749949
  9
$PLIMMAX
 10
431.7530871322773
 20
306.2013245595155
  9
$UNITMODE
 70
     0
  9
$VISRETAIN
 70
     0
  9
$PLINEGEN
 70
     0
  9
$PSLTSCALE
 70
     1
  9
$TREEDEPTH
 70
  3020
  9
$PICKSTYLE
 70
     1
  9
$CMLSTYLE
  2
STANDARD
  9
$CMLJUST
 70
     0
  9
$CMLSCALE
 40
1.0
  9
$PROXYGRAPHICS
 70
     1
  9
$MEASUREMENT
 70
     1
  0
ENDSEC
  0
SECTION
  2
CLASSES
  0
CLASS
  1
LWPOLYLINE
  2
AcDbPolyline
  3
AutoCAD 2000
 90
        0
280
     0
281
     1
  0
CLASS
  1
HATCH
  2
AcDbHatch
  3
AutoCAD 2000
 90
        0
280
     0
281
     1
  0
CLASS
  1
ACDBDICTIONARYWDFLT
  2
AcDbDictionaryWithDefault
  3
AutoCAD 2000
 90
        0
280
     0
281
     0
  0
CLASS
  1
ACDBPLACEHOLDER
  2
AcDbPlaceHolder
  3
AutoCAD 2000
 90
        0
280
     0
281
     0
  0
CLASS
  1
LAYOUT
  2
AcDbLayout
  3
AutoCAD 2000
 90
        0
280
     0
281
     0
  0
CLASS
  1
DICTIONARYVAR
  2
AcDbDictionaryVar
  3
AutoCAD 2000
 90
        0
280
     0
281
     0
  0
CLASS
  1
LONG_TRANSACTION
  2
AcDbLongTransaction
  3
AutoCAD 2000
 90
        0
280
     0
281
     0
  0
CLASS
  1
LWPOLYLINE
  2
AcDbPolyline
  3
AutoCAD 2000
 90
        0
280
     0
281
     1
  0
CLASS
  1
HATCH
  2
AcDbHatch
  3
AutoCAD 2000
 90
        0
280
     0
281
     1
  0
CLASS
  1
XRECORD
  2
AcDbXrecord
  3
AutoCAD 2000
 90
        0
280
     0
281
     0
  0
CLASS
  1
LONG_TRANSACTION
  2
AcDbLongTransaction
  3
AutoCAD 2000
 90
        0
280
     0
281
     0
  0
CLASS
  1
LWPOLYLINE
  2
AcDbPolyline
  3
AutoCAD 2000
 90
        0
280
     0
281
     1
  0
CLASS
  1
HATCH
  2
AcDbHatch
  3
AutoCAD 2000
 90
        0
280
     0
281
     1
  0
CLASS
  1
XRECORD
  2
AcDbXrecord
  3
AutoCAD 2000
 90
        0
280
     0
281
     0
  0
ENDSEC
  0
SECTION
  2
TABLES
  0
TABLE
  2
VPORT
  5
8
330
0
100
AcDbSymbolTable
 70
     1
  0
VPORT
  5
1F5C8
330
8
100
AcDbSymbolTableRecord
100
AcDbViewportTableRecord
  2
*ACTIVE
 70
     0
 10
0.0
 20
0.0
 11
1.0
 21
1.0
 12
-1372.469540908002
 22
1680.124463424975
 13
0.0
 23
0.0
 14
5.0
 24
5.0
 15
0.0
 25
0.0
 16
0.0
 26
0.0
 36
1.0
 17
0.0
 27
0.0
 37
0.0
 40
172.572026539929
 41
1.781954887218045
 42
50.0
 43
0.0
 44
0.0
 50
0.0
 51
0.0
 71
     0
 72
   100
 73
     1
 74
     0
 75
     0
 76
     0
 77
     0
 78
     0
  0
ENDTAB
  0
TABLE
  2
LTYPE
  5
5
330
0
100
AcDbSymbolTable
 70
     3
  0
LTYPE
  5
14
330
5
100
AcDbSymbolTableRecord
100
AcDbLinetypeTableRecord
  2
BYBLOCK
 70
     0
  3

 72
    65
 73
     0
 40
0.0
  0
LTYPE
  5
15
330
5
100
AcDbSymbolTableRecord
100
AcDbLinetypeTableRecord
  2
BYLAYER
 70
     0
  3

 72
    65
 73
     0
 40
0.0
  0
LTYPE
  5
16
330
5
100
AcDbSymbolTableRecord
100
AcDbLinetypeTableRecord
  2
CONTINUOUS
 70
     0
  3
Solid line
 72
    65
 73
     0
 40
0.0
  0
LTYPE
  5
1956
330
5
100
AcDbSymbolTableRecord
100
AcDbLinetypeTableRecord
  2
CENTERX2
 70
     0
  3
________  __  ________  __  ________  __  _____
 72
    65
 73
     4
 40
4.0
 49
2.5
 74
     0
 49
-0.5
 74
     0
 49
0.5
 74
     0
 49
-0.5
 74
     0
  0
LTYPE
  5
1958
330
5
100
AcDbSymbolTableRecord
100
AcDbLinetypeTableRecord
  2
PHANTOMX2
 70
     0
  3
____________    ____    ____    ____________   
 72
    65
 73
     6
 40
5.0
 49
2.5
 74
     0
 49
-0.5
 74
     0
 49
0.5
 74
     0
 49
-0.5
 74
     0
 49
0.5
 74
     0
 49
-0.5
 74
     0
  0
ENDTAB
  0
TABLE
  2
LAYER
  5
2
102
{ACAD_XDICTIONARY
360
14053
102
}
330
0
100
AcDbSymbolTable
 70
     6
  0
LAYER
  5
F
330
2
100
AcDbSymbolTableRecord
100
AcDbLayerTableRecord
  2
0
 70
     0
 62
     7
  6
CONTINUOUS
  0
LAYER
  5
18F
330
2
100
AcDbSymbolTableRecord
100
AcDbLayerTableRecord
  2
ZISSEN1
 70
     0
 62
     7
  6
CONTINUOUS
  0
LAYER
  5
529
330
2
100
AcDbSymbolTableRecord
100
AcDbLayerTableRecord
  2
SUNPOU
 70
     0
 62
     1
  6
CONTINUOUS
  0
LAYER
  5
195A
330
2
100
AcDbSymbolTableRecord
100
AcDbLayerTableRecord
  2
CL1
 70
     0
 62
   210
  6
CENTERX2
  0
LAYER
  5
195C
330
2
100
AcDbSymbolTableRecord
100
AcDbLayerTableRecord
  2
SOUZOUSEN
 70
     0
 62
     5
  6
PHANTOMX2
  0
LAYER
  5
3A9B
330
2
100
AcDbSymbolTableRecord
100
AcDbLayerTableRecord
  2
DEFPOINTS
 70
     0
 62
     7
  6
CONTINUOUS
  0
ENDTAB
  0
TABLE
  2
STYLE
  5
3
330
0
100
AcDbSymbolTable
 70
     2
  0
STYLE
  5
10
330
3
100
AcDbSymbolTableRecord
100
AcDbTextStyleTableRecord
  2
STANDARD
 70
     0
 40
0.0
 41
1.0
 50
0.0
 71
     0
 42
3.0
  3
txt
  4
BigFont
  0
STYLE
  5
1960
330
3
100
AcDbSymbolTableRecord
100
AcDbTextStyleTableRecord
  2
ゴシック体
 70
     0
 40
0.0
 41
1.0
 50
0.0
 71
     0
 42
2.5
  3
MS Gothic.ttf
  4

1001
ACAD
1000
MS Gothic
1071
    32817
  0
ENDTAB
  0
TABLE
  2
VIEW
  5
6
330
0
100
AcDbSymbolTable
 70
     0
  0
ENDTAB
  0
TABLE
  2
UCS
  5
7
330
0
100
AcDbSymbolTable
 70
     0
  0
ENDTAB
  0
TABLE
  2
APPID
  5
9
330
0
100
AcDbSymbolTable
 70
     5
  0
APPID
  5
11
330
9
100
AcDbSymbolTableRecord
100
AcDbRegAppTableRecord
  2
ACAD
 70
     0
  0
APPID
  5
4005
330
9
100
AcDbSymbolTableRecord
100
AcDbRegAppTableRecord
  2
CONTENTTABDATA
 70
     0
  0
APPID
  5
4006
330
9
100
AcDbSymbolTableRecord
100
AcDbRegAppTableRecord
  2
CONTENTCURRENTTAB
 70
     0
  0
APPID
  5
477B
330
9
100
AcDbSymbolTableRecord
100
AcDbRegAppTableRecord
  2
CONTENTBLOCKDESCRIPTION
 70
     0
  0
APPID
  5
477C
330
9
100
AcDbSymbolTableRecord
100
AcDbRegAppTableRecord
  2
CONTENTBLOCKICON
 70
     0
  0
ENDTAB
  0
TABLE
  2
DIMSTYLE
  5
A
330
0
100
AcDbSymbolTable
 70
     2
  0
DIMSTYLE
105
1D
330
A
100
AcDbSymbolTableRecord
100
AcDbDimStyleTableRecord
  2
STANDARD
 70
     0
  3

  4

  5

  6

  7

 40
1.0
 41
0.18
 42
0.0625
 43
0.38
 44
0.18
 45
0.0
 46
0.0
 47
0.0
 48
0.0
140
0.18
141
0.09
142
0.0
143
25.4
144
1.0
145
0.0
146
1.0
147
0.09
 71
     0
 72
     0
 73
     1
 74
     1
 75
     0
 76
     0
 77
     0
 78
     0
170
     0
171
     2
172
     0
173
     0
174
     0
175
     0
176
     0
177
     0
178
     0
270
     2
271
     4
272
     4
273
     2
274
     2
340
10
275
     0
280
     0
281
     0
282
     0
283
     1
284
     0
285
     0
286
     0
287
     3
288
     0
  0
DIMSTYLE
105
52E
102
{ACAD_REACTORS
330
1F380
330
1F3FD
330
1F40A
330
1F418
330
1F427
330
1F434
330
1F441
330
1F52D
330
1F51E
330
1F53A
102
}
330
A
100
AcDbSymbolTableRecord
100
AcDbDimStyleTableRecord
  2
標準スタイル
 70
     0
  3

  4

  5

  6

  7

 40
0.0
 41
3.0
 42
0.5
 43
0.5
 44
0.5
 45
0.0
 46
0.0
 47
0.0
 48
0.0
140
3.5
141
0.0
142
0.0
143
25.4
144
1.0
145
0.0
146
1.0
147
1.0
 71
     0
 72
     0
 73
     0
 74
     0
 75
     0
 76
     0
 77
     1
 78
     8
170
     0
171
     2
172
     1
173
     0
174
     0
175
     0
176
     1
177
     1
178
     1
270
     2
271
     2
272
     2
273
     2
274
     2
340
1960
275
     0
280
     0
281
     0
282
     0
283
     1
284
     8
285
     0
286
     0
287
     3
288
     0
  0
ENDTAB
  0
TABLE
  2
BLOCK_RECORD
  5
1
330
0
100
AcDbSymbolTable
 70
    10
  0
BLOCK_RECORD
  5
1A
102
{ACAD_XDICTIONARY
360
171B2
102
}
330
1
100
AcDbSymbolTableRecord
100
AcDbBlockTableRecord
  2
*MODEL_SPACE
  0
BLOCK_RECORD
  5
5D8E
102
{ACAD_XDICTIONARY
360
171B8
102
}
330
1
100
AcDbSymbolTableRecord
100
AcDbBlockTableRecord
  2
*PAPER_SPACE
  0
BLOCK_RECORD
  5
1F381
330
1
100
AcDbSymbolTableRecord
100
AcDbBlockTableRecord
  2
*D0
  0
BLOCK_RECORD
  5
1F3FE
330
1
100
AcDbSymbolTableRecord
100
AcDbBlockTableRecord
  2
*D1
  0
BLOCK_RECORD
  5
1F40B
330
1
100
AcDbSymbolTableRecord
100
AcDbBlockTableRecord
  2
*D2
  0
BLOCK_RECORD
  5
1F419
330
1
100
AcDbSymbolTableRecord
100
AcDbBlockTableRecord
  2
*D3
  0
BLOCK_RECORD
  5
1F428
330
1
100
AcDbSymbolTableRecord
100
AcDbBlockTableRecord
  2
*D4
  0
BLOCK_RECORD
  5
1F435
330
1
100
AcDbSymbolTableRecord
100
AcDbBlockTableRecord
  2
*D5
  0
BLOCK_RECORD
  5
1F442
330
1
100
AcDbSymbolTableRecord
100
AcDbBlockTableRecord
  2
*D6
  0
BLOCK_RECORD
  5
1F51F
330
1
100
AcDbSymbolTableRecord
100
AcDbBlockTableRecord
  2
*D7
  0
BLOCK_RECORD
  5
1F52E
330
1
100
AcDbSymbolTableRecord
100
AcDbBlockTableRecord
  2
*D8
  0
BLOCK_RECORD
  5
1F53B
330
1
100
AcDbSymbolTableRecord
100
AcDbBlockTableRecord
  2
*D9
  0
ENDTAB
  0
ENDSEC
  0
SECTION
  2
BLOCKS
  0
BLOCK
  5
1B
330
1A
100
AcDbEntity
  8
0
100
AcDbBlockBegin
  2
*MODEL_SPACE
 70
     0
 10
0.0
 20
0.0
 30
0.0
  3
*MODEL_SPACE
  1

  0
ENDBLK
  5
1C
330
1A
100
AcDbEntity
  8
0
100
AcDbBlockEnd
  0
BLOCK
  5
5E60
330
5D8E
100
AcDbEntity
 67
     1
  8
0
100
AcDbBlockBegin
  2
*PAPER_SPACE
 70
     0
 10
0.0
 20
0.0
 30
0.0
  3
*PAPER_SPACE
  1

  0
ENDBLK
  5
5E61
330
5D8E
100
AcDbEntity
 67
     1
  8
0
100
AcDbBlockEnd
  0
BLOCK
  5
1F38D
330
1F381
100
AcDbEntity
  8
0
100
AcDbBlockBegin
  2
*D0
 70
     1
 10
0.0
 20
0.0
 30
0.0
  3
*D0
  1

  0
LINE
  5
1F480
330
1F381
100
AcDbEntity
  8
SUNPOU
 62
     1
100
AcDbLine
 10
-1317.546886898882
 20
1738.171636322127
 30
0.0
 11
-1317.546886898882
 21
1743.269560070741
 31
0.0
  0
LINE
  5
1F481
330
1F381
100
AcDbEntity
  8
SUNPOU
 62
     1
100
AcDbLine
 10
-1314.046886898882
 20
1738.171636322127
 30
0.0
 11
-1314.046886898882
 21
1743.269560070741
 31
0.0
  0
LINE
  5
1F482
330
1F381
100
AcDbEntity
  8
SUNPOU
 62
     1
100
AcDbLine
 10
-1320.546886898882
 20
1742.769560070741
 30
0.0
 11
-1323.546886898882
 21
1742.769560070741
 31
0.0
  0
LINE
  5
1F483
330
1F381
100
AcDbEntity
  8
SUNPOU
 62
     1
100
AcDbLine
 10
-1311.046886898882
 20
1742.769560070741
 30
0.0
 11
-1299.046886898882
 21
1742.769560070741
 31
0.0
  0
LINE
  5
1F484
330
1F381
100
AcDbEntity
  8
SUNPOU
 62
     1
100
AcDbLine
 10
-1317.546886898882
 20
1742.769560070741
 30
0.0
 11
-1314.046886898882
 21
1742.769560070741
 31
0.0
  0
SOLID
  5
1F485
330
1F381
100
AcDbEntity
  8
SUNPOU
 62
     1
100
AcDbTrace
 10
-1320.546886898882
 20
1743.269560070741
 30
0.0
 11
-1320.546886898882
 21
1742.269560070741
 31
0.0
 12
-1317.546886898882
 22
1742.769560070741
 32
0.0
 13
-1317.546886898882
 23
1742.769560070741
 33
0.0
  0
SOLID
  5
1F486
330
1F381
100
AcDbEntity
  8
SUNPOU
 62
     1
100
AcDbTrace
 10
-1311.046886898882
 20
1743.269560070741
 30
0.0
 11
-1311.046886898882
 21
1742.269560070741
 31
0.0
 12
-1314.046886898882
 22
1742.769560070741
 32
0.0
 13
-1314.046886898882
 23
1742.769560070741
 33
0.0
  0
MTEXT
  5
1F487
330
1F381
100
AcDbEntity
  8
SUNPOU
 62
     1
100
AcDbMText
 10
-1303.546886898882
 20
1745.519560070742
 30
0.0
 40
3.5
 41
0.0
 71
     5
 72
     1
  1
\A1;3.5
1001
ACAD
1000
MTEXTBEGIN
1070
    73
1070
     1
1070
    44
1040
1.0
1070
    74
1070
     0
1000
MTEXTEND
  0
POINT
  5
1F488
330
1F381
100
AcDbEntity
  8
DEFPOINTS
 62
     0
100
AcDbPoint
 10
-1317.546886898882
 20
1737.671636322127
 30
0.0
  0
POINT
  5
1F489
330
1F381
100
AcDbEntity
  8
DEFPOINTS
 62
     0
100
AcDbPoint
 10
-1314.046886898882
 20
1737.671636322127
 30
0.0
  0
POINT
  5
1F48A
330
1F381
100
AcDbEntity
  8
DEFPOINTS
 62
     0
100
AcDbPoint
 10
-1314.046886898882
 20
1742.769560070741
 30
0.0
  0
ENDBLK
  5
1F38E
330
1F381
100
AcDbEntity
  8
0
100
AcDbBlockEnd
  0
BLOCK
  5
1F408
330
1F3FE
100
AcDbEntity
  8
0
100
AcDbBlockBegin
  2
*D1
 70
     1
 10
0.0
 20
0.0
 30
0.0
  3
*D1
  1

  0
LINE
  5
1F4A8
330
1F3FE
100
AcDbEntity
  8
SUNPOU
 62
     1
100
AcDbLine
 10
-1300.296886898882
 20
1662.171636322127
 30
0.0
 11
-1300.296886898882
 21
1648.687390197286
 31
0.0
  0
LINE
  5
1F4A9
330
1F3FE
100
AcDbEntity
  8
SUNPOU
 62
     1
100
AcDbLine
 10
-1315.796886898882
 20
1659.671636322125
 30
0.0
 11
-1315.796886898882
 21
1648.687390197286
 31
0.0
  0
LINE
  5
1F4AA
330
1F3FE
100
AcDbEntity
  8
SUNPOU
 62
     1
100
AcDbLine
 10
-1303.296886898882
 20
1649.187390197286
 30
0.0
 11
-1312.796886898882
 21
1649.187390197286
 31
0.0
  0
SOLID
  5
1F4AB
330
1F3FE
100
AcDbEntity
  8
SUNPOU
 62
     1
100
AcDbTrace
 10
-1303.296886898882
 20
1649.687390197287
 30
0.0
 11
-1303.296886898882
 21
1648.687390197286
 31
0.0
 12
-1300.296886898882
 22
1649.187390197286
 32
0.0
 13
-1300.296886898882
 23
1649.187390197286
 33
0.0
  0
SOLID
  5
1F4AC
330
1F3FE
100
AcDbEntity
  8
SUNPOU
 62
     1
100
AcDbTrace
 10
-1312.796886898882
 20
1649.687390197287
 30
0.0
 11
-1312.796886898882
 21
1648.687390197286
 31
0.0
 12
-1315.796886898882
 22
1649.187390197286
 32
0.0
 13
-1315.796886898882
 23
1649.187390197286
 33
0.0
  0
MTEXT
  5
1F4AD
330
1F3FE
100
AcDbEntity
  8
SUNPOU
 62
     1
100
AcDbMText
 10
-1308.046886898882
 20
1651.937390197286
 30
0.0
 40
3.5
 41
0.0
 71
     5
 72
     1
  1
\A1;15.5
1001
ACAD
1000
MTEXTBEGIN
1070
    73
1070
     1
1070
    44
1040
1.0
1070
    74
1070
     0
1000
MTEXTEND
  0
POINT
  5
1F4AE
330
1F3FE
100
AcDbEntity
  8
DEFPOINTS
 62
     0
100
AcDbPoint
 10
-1300.296886898882
 20
1662.671636322127
 30
0.0
  0
POINT
  5
1F4AF
330
1F3FE
100
AcDbEntity
  8
DEFPOINTS
 62
     0
100
AcDbPoint
 10
-1315.796886898882
 20
1660.171636322125
 30
0.0
  0
POINT
  5
1F4B0
330
1F3FE
100
AcDbEntity
  8
DEFPOINTS
 62
     0
100
AcDbPoint
 10
-1315.796886898882
 20
1649.187390197286
 30
0.0
  0
ENDBLK
  5
1F409
330
1F3FE
100
AcDbEntity
  8
0
100
AcDbBlockEnd
  0
BLOCK
  5
1F415
330
1F40B
100
AcDbEntity
  8
0
100
AcDbBlockBegin
  2
*D2
 70
     1
 10
0.0
 20
0.0
 30
0.0
  3
*D2
  1

  0
LINE
  5
1F49F
330
1F40B
100
AcDbEntity
  8
SUNPOU
 62
     1
100
AcDbLine
 10
-1300.296886898882
 20
1662.171636322127
 30
0.0
 11
-1300.296886898882
 21
1640.082743999159
 31
0.0
  0
LINE
  5
1F4A0
330
1F40B
100
AcDbEntity
  8
SUNPOU
 62
     1
100
AcDbLine
 10
-1328.296886898882
 20
1658.171636322127
 30
0.0
 11
-1328.296886898882
 21
1640.082743999159
 31
0.0
  0
LINE
  5
1F4A1
330
1F40B
100
AcDbEntity
  8
SUNPOU
 62
     1
100
AcDbLine
 10
-1303.296886898882
 20
1640.582743999159
 30
0.0
 11
-1325.296886898882
 21
1640.582743999159
 31
0.0
  0
SOLID
  5
1F4A2
330
1F40B
100
AcDbEntity
  8
SUNPOU
 62
     1
100
AcDbTrace
 10
-1303.296886898882
 20
1641.082743999159
 30
0.0
 11
-1303.296886898882
 21
1640.082743999159
 31
0.0
 12
-1300.296886898882
 22
1640.582743999159
 32
0.0
 13
-1300.296886898882
 23
1640.582743999159
 33
0.0
  0
SOLID
  5
1F4A3
330
1F40B
100
AcDbEntity
  8
SUNPOU
 62
     1
100
AcDbTrace
 10
-1325.296886898882
 20
1641.082743999159
 30
0.0
 11
-1325.296886898882
 21
1640.082743999159
 31
0.0
 12
-1328.296886898882
 22
1640.582743999159
 32
0.0
 13
-1328.296886898882
 23
1640.582743999159
 33
0.0
  0
MTEXT
  5
1F4A4
330
1F40B
100
AcDbEntity
  8
SUNPOU
 62
     1
100
AcDbMText
 10
-1314.296886898882
 20
1643.332743999159
 30
0.0
 40
3.5
 41
0.0
 71
     5
 72
     1
  1
\A1;28
1001
ACAD
1000
MTEXTBEGIN
1070
    73
1070
     1
1070
    44
1040
1.0
1070
    74
1070
     0
1000
MTEXTEND
  0
POINT
  5
1F4A5
330
1F40B
100
AcDbEntity
  8
DEFPOINTS
 62
     0
100
AcDbPoint
 10
-1300.296886898882
 20
1662.671636322127
 30
0.0
  0
POINT
  5
1F4A6
330
1F40B
100
AcDbEntity
  8
DEFPOINTS
 62
     0
100
AcDbPoint
 10
-1328.296886898882
 20
1658.671636322127
 30
0.0
  0
POINT
  5
1F4A7
330
1F40B
100
AcDbEntity
  8
DEFPOINTS
 62
     0
100
AcDbPoint
 10
-1328.296886898882
 20
1640.582743999159
 30
0.0
  0
ENDBLK
  5
1F416
330
1F40B
100
AcDbEntity
  8
0
100
AcDbBlockEnd
  0
BLOCK
  5
1F423
330
1F419
100
AcDbEntity
  8
0
100
AcDbBlockBegin
  2
*D3
 70
     1
 10
0.0
 20
0.0
 30
0.0
  3
*D3
  1

  0
LINE
  5
1F4CE
330
1F419
100
AcDbEntity
  8
SUNPOU
 62
     1
100
AcDbLine
 10
-1432.796886898883
 20
1737.671636322127
 30
0.0
 11
-1441.941562724343
 21
1737.671636322127
 31
0.0
  0
LINE
  5
1F4CF
330
1F419
100
AcDbEntity
  8
SUNPOU
 62
     1
100
AcDbLine
 10
-1432.796886898883
 20
1657.671636322126
 30
0.0
 11
-1441.941562724343
 21
1657.671636322126
 31
0.0
  0
LINE
  5
1F4D0
330
1F419
100
AcDbEntity
  8
SUNPOU
 62
     1
100
AcDbLine
 10
-1441.441562724342
 20
1734.671636322127
 30
0.0
 11
-1441.441562724342
 21
1660.671636322126
 31
0.0
  0
SOLID
  5
1F4D1
330
1F419
100
AcDbEntity
  8
SUNPOU
 62
     1
100
AcDbTrace
 10
-1441.941562724343
 20
1734.671636322127
 30
0.0
 11
-1440.941562724343
 21
1734.671636322127
 31
0.0
 12
-1441.441562724342
 22
1737.671636322127
 32
0.0
 13
-1441.441562724342
 23
1737.671636322127
 33
0.0
  0
SOLID
  5
1F4D2
330
1F419
100
AcDbEntity
  8
SUNPOU
 62
     1
100
AcDbTrace
 10
-1441.941562724343
 20
1660.671636322126
 30
0.0
 11
-1440.941562724343
 21
1660.671636322126
 31
0.0
 12
-1441.441562724342
 22
1657.671636322126
 32
0.0
 13
-1441.441562724342
 23
1657.671636322126
 33
0.0
  0
MTEXT
  5
1F4D3
330
1F419
100
AcDbEntity
  8
SUNPOU
 62
     1
100
AcDbMText
 10
-1444.191562724343
 20
1697.671636322126
 30
0.0
 40
3.5
 41
0.0
 71
     5
 72
     1
  1
\A1;80
 11
0.0000000000000001
 21
1.0
 31
0.0
1001
ACAD
1000
MTEXTBEGIN
1070
    73
1070
     1
1070
    44
1040
1.0
1070
    74
1070
     0
1000
MTEXTEND
  0
POINT
  5
1F4D4
330
1F419
100
AcDbEntity
  8
DEFPOINTS
 62
     0
100
AcDbPoint
 10
-1432.296886898883
 20
1737.671636322127
 30
0.0
  0
POINT
  5
1F4D5
330
1F419
100
AcDbEntity
  8
DEFPOINTS
 62
     0
100
AcDbPoint
 10
-1432.296886898883
 20
1657.671636322126
 30
0.0
  0
POINT
  5
1F4D6
330
1F419
100
AcDbEntity
  8
DEFPOINTS
 62
     0
100
AcDbPoint
 10
-1441.441562724342
 20
1657.671636322126
 30
0.0
  0
ENDBLK
  5
1F424
330
1F419
100
AcDbEntity
  8
0
100
AcDbBlockEnd
  0
BLOCK
  5
1F432
330
1F428
100
AcDbEntity
  8
0
100
AcDbBlockBegin
  2
*D4
 70
     1
 10
0.0
 20
0.0
 30
0.0
  3
*D4
  1

  0
LINE
  5
1F4B1
330
1F428
100
AcDbEntity
  8
SUNPOU
 62
     1
100
AcDbLine
 10
-1364.246954814724
 20
1631.57048765404
 30
0.0
 11
-1351.222633449448
 21
1631.57048765404
 31
0.0
  0
LINE
  5
1F4B2
330
1F428
100
AcDbEntity
  8
SUNPOU
 62
     1
100
AcDbLine
 10
-1383.796886898885
 20
1606.671636322125
 30
0.0
 11
-1351.222633449448
 21
1606.671636322125
 31
0.0
  0
LINE
  5
1F4B3
330
1F428
100
AcDbEntity
  8
SUNPOU
 62
     1
100
AcDbLine
 10
-1351.722633449448
 20
1628.57048765404
 30
0.0
 11
-1351.722633449448
 21
1609.671636322125
 31
0.0
  0
SOLID
  5
1F4B4
330
1F428
100
AcDbEntity
  8
SUNPOU
 62
     1
100
AcDbTrace
 10
-1352.222633449448
 20
1628.57048765404
 30
0.0
 11
-1351.222633449448
 21
1628.57048765404
 31
0.0
 12
-1351.722633449448
 22
1631.57048765404
 32
0.0
 13
-1351.722633449448
 23
1631.57048765404
 33
0.0
  0
SOLID
  5
1F4B5
330
1F428
100
AcDbEntity
  8
SUNPOU
 62
     1
100
AcDbTrace
 10
-1352.222633449448
 20
1609.671636322125
 30
0.0
 11
-1351.222633449448
 21
1609.671636322125
 31
0.0
 12
-1351.722633449448
 22
1606.671636322125
 32
0.0
 13
-1351.722633449448
 23
1606.671636322125
 33
0.0
  0
MTEXT
  5
1F4B6
330
1F428
100
AcDbEntity
  8
SUNPOU
 62
     1
100
AcDbMText
 10
-1354.472633449449
 20
1619.121061988082
 30
0.0
 40
3.5
 41
0.0
 71
     5
 72
     1
  1
\A1;24.9
 11
0.0000000000000001
 21
1.0
 31
0.0
1001
ACAD
1000
MTEXTBEGIN
1070
    73
1070
     1
1070
    44
1040
1.0
1070
    74
1070
     0
1000
MTEXTEND
  0
POINT
  5
1F4B7
330
1F428
100
AcDbEntity
  8
DEFPOINTS
 62
     0
100
AcDbPoint
 10
-1364.746954814724
 20
1631.57048765404
 30
0.0
  0
POINT
  5
1F4B8
330
1F428
100
AcDbEntity
  8
DEFPOINTS
 62
     0
100
AcDbPoint
 10
-1384.296886898885
 20
1606.671636322125
 30
0.0
  0
POINT
  5
1F4B9
330
1F428
100
AcDbEntity
  8
DEFPOINTS
 62
     0
100
AcDbPoint
 10
-1351.722633449448
 20
1606.671636322125
 30
0.0
  0
ENDBLK
  5
1F433
330
1F428
100
AcDbEntity
  8
0
100
AcDbBlockEnd
  0
BLOCK
  5
1F43F
330
1F435
100
AcDbEntity
  8
0
100
AcDbBlockBegin
  2
*D5
 70
     1
 10
0.0
 20
0.0
 30
0.0
  3
*D5
  1

  0
LINE
  5
1F4BA
330
1F435
100
AcDbEntity
  8
SUNPOU
 62
     1
100
AcDbLine
 10
-1362.296886898885
 20
1609.671636322125
 30
0.0
 11
-1362.296886898885
 21
1594.818646851678
 31
0.0
  0
LINE
  5
1F4BB
330
1F435
100
AcDbEntity
  8
SUNPOU
 62
     1
100
AcDbLine
 10
-1432.296886898883
 20
1609.171636322125
 30
0.0
 11
-1432.296886898883
 21
1594.818646851678
 31
0.0
  0
LINE
  5
1F4BC
330
1F435
100
AcDbEntity
  8
SUNPOU
 62
     1
100
AcDbLine
 10
-1365.296886898885
 20
1595.318646851678
 30
0.0
 11
-1429.296886898883
 21
1595.318646851678
 31
0.0
  0
SOLID
  5
1F4BD
330
1F435
100
AcDbEntity
  8
SUNPOU
 62
     1
100
AcDbTrace
 10
-1365.296886898885
 20
1595.818646851678
 30
0.0
 11
-1365.296886898885
 21
1594.818646851678
 31
0.0
 12
-1362.296886898885
 22
1595.318646851678
 32
0.0
 13
-1362.296886898885
 23
1595.318646851678
 33
0.0
  0
SOLID
  5
1F4BE
330
1F435
100
AcDbEntity
  8
SUNPOU
 62
     1
100
AcDbTrace
 10
-1429.296886898883
 20
1595.818646851678
 30
0.0
 11
-1429.296886898883
 21
1594.818646851678
 31
0.0
 12
-1432.296886898883
 22
1595.318646851678
 32
0.0
 13
-1432.296886898883
 23
1595.318646851678
 33
0.0
  0
MTEXT
  5
1F4BF
330
1F435
100
AcDbEntity
  8
SUNPOU
 62
     1
100
AcDbMText
 10
-1397.296886898884
 20
1598.068646851678
 30
0.0
 40
3.5
 41
0.0
 71
     5
 72
     1
  1
\A1;70
1001
ACAD
1000
MTEXTBEGIN
1070
    73
1070
     1
1070
    44
1040
1.0
1070
    74
1070
     0
1000
MTEXTEND
  0
POINT
  5
1F4C0
330
1F435
100
AcDbEntity
  8
DEFPOINTS
 62
     0
100
AcDbPoint
 10
-1362.296886898885
 20
1610.171636322125
 30
0.0
  0
POINT
  5
1F4C1
330
1F435
100
AcDbEntity
  8
DEFPOINTS
 62
     0
100
AcDbPoint
 10
-1432.296886898883
 20
1609.671636322125
 30
0.0
  0
POINT
  5
1F4C2
330
1F435
100
AcDbEntity
  8
DEFPOINTS
 62
     0
100
AcDbPoint
 10
-1432.296886898883
 20
1595.318646851678
 30
0.0
  0
ENDBLK
  5
1F440
330
1F435
100
AcDbEntity
  8
0
100
AcDbBlockEnd
  0
BLOCK
  5
1F44E
330
1F442
100
AcDbEntity
  8
0
100
AcDbBlockBegin
  2
*D6
 70
     1
 10
0.0
 20
0.0
 30
0.0
  3
*D6
  1

  0
LINE
  5
1F4C3
330
1F442
100
AcDbEntity
  8
SUNPOU
 62
     1
100
AcDbLine
 10
-1432.296886898883
 20
1635.171636322125
 30
0.0
 11
-1432.296886898883
 21
1640.497283716597
 31
0.0
  0
LINE
  5
1F4C4
330
1F442
100
AcDbEntity
  8
SUNPOU
 62
     1
100
AcDbLine
 10
-1429.296886898883
 20
1635.171636322125
 30
0.0
 11
-1429.296886898883
 21
1640.497283716597
 31
0.0
  0
LINE
  5
1F4C5
330
1F442
100
AcDbEntity
  8
SUNPOU
 62
     1
100
AcDbLine
 10
-1435.296886898883
 20
1639.997283716597
 30
0.0
 11
-1438.296886898883
 21
1639.997283716597
 31
0.0
  0
LINE
  5
1F4C6
330
1F442
100
AcDbEntity
  8
SUNPOU
 62
     1
100
AcDbLine
 10
-1426.296886898883
 20
1639.997283716597
 30
0.0
 11
-1418.96355356555
 21
1639.997283716597
 31
0.0
  0
LINE
  5
1F4C7
330
1F442
100
AcDbEntity
  8
SUNPOU
 62
     1
100
AcDbLine
 10
-1432.296886898883
 20
1639.997283716597
 30
0.0
 11
-1429.296886898883
 21
1639.997283716597
 31
0.0
  0
SOLID
  5
1F4C8
330
1F442
100
AcDbEntity
  8
SUNPOU
 62
     1
100
AcDbTrace
 10
-1435.296886898883
 20
1640.497283716597
 30
0.0
 11
-1435.296886898883
 21
1639.497283716597
 31
0.0
 12
-1432.296886898883
 22
1639.997283716597
 32
0.0
 13
-1432.296886898883
 23
1639.997283716597
 33
0.0
  0
SOLID
  5
1F4C9
330
1F442
100
AcDbEntity
  8
SUNPOU
 62
     1
100
AcDbTrace
 10
-1426.296886898883
 20
1640.497283716597
 30
0.0
 11
-1426.296886898883
 21
1639.497283716597
 31
0.0
 12
-1429.296886898883
 22
1639.997283716597
 32
0.0
 13
-1429.296886898883
 23
1639.997283716597
 33
0.0
  0
MTEXT
  5
1F4CA
330
1F442
100
AcDbEntity
  8
SUNPOU
 62
     1
100
AcDbMText
 10
-1421.130220232216
 20
1642.747283716597
 30
0.0
 40
3.5
 41
0.0
 71
     5
 72
     1
  1
\A1;3
1001
ACAD
1000
MTEXTBEGIN
1070
    73
1070
     1
1070
    44
1040
1.0
1070
    74
1070
     0
1000
MTEXTEND
  0
POINT
  5
1F4CB
330
1F442
100
AcDbEntity
  8
DEFPOINTS
 62
     0
100
AcDbPoint
 10
-1432.296886898883
 20
1634.671636322125
 30
0.0
  0
POINT
  5
1F4CC
330
1F442
100
AcDbEntity
  8
DEFPOINTS
 62
     0
100
AcDbPoint
 10
-1429.296886898883
 20
1634.671636322125
 30
0.0
  0
POINT
  5
1F4CD
330
1F442
100
AcDbEntity
  8
DEFPOINTS
 62
     0
100
AcDbPoint
 10
-1429.296886898883
 20
1639.997283716597
 30
0.0
  0
ENDBLK
  5
1F44F
330
1F442
100
AcDbEntity
  8
0
100
AcDbBlockEnd
  0
BLOCK
  5
1F52B
330
1F51F
100
AcDbEntity
  8
0
100
AcDbBlockBegin
  2
*D7
 70
     1
 10
0.0
 20
0.0
 30
0.0
  3
*D7
  1

  0
LINE
  5
1F5F0
330
1F51F
100
AcDbEntity
  8
SUNPOU
 62
     1
100
AcDbLine
 10
-1327.796886898882
 20
1657.671636322127
 30
0.0
 11
-1336.734137798412
 21
1657.671636322127
 31
0.0
  0
LINE
  5
1F5F1
330
1F51F
100
AcDbEntity
  8
SUNPOU
 62
     1
100
AcDbLine
 10
-1318.046886898882
 20
1660.171636322125
 30
0.0
 11
-1336.734137798412
 21
1660.171636322125
 31
0.0
  0
LINE
  5
1F5F2
330
1F51F
100
AcDbEntity
  8
SUNPOU
 62
     1
100
AcDbLine
 10
-1336.234137798412
 20
1654.671636322127
 30
0.0
 11
-1336.234137798412
 21
1651.671636322127
 31
0.0
  0
LINE
  5
1F5F3
330
1F51F
100
AcDbEntity
  8
SUNPOU
 62
     1
100
AcDbLine
 10
-1336.234137798412
 20
1663.171636322125
 30
0.0
 11
-1336.234137798412
 21
1666.171636322125
 31
0.0
  0
MTEXT
  5
1F5F4
330
1F51F
100
AcDbEntity
  8
SUNPOU
 62
     1
100
AcDbMText
 10
-1339.171318645601
 20
1652.311994509721
 30
0.0
 40
3.5
 41
0.0
 71
     5
 72
     1
  1
\A1;2.5
 11
0.0000000000000001
 21
1.0
 31
0.0
  0
LINE
  5
1F5F5
330
1F51F
100
AcDbEntity
  8
SUNPOU
 62
     1
100
AcDbLine
 10
-1336.234137798412
 20
1657.671636322127
 30
0.0
 11
-1336.234137798412
 21
1660.171636322125
 31
0.0
  0
SOLID
  5
1F5F6
330
1F51F
100
AcDbEntity
  8
SUNPOU
 62
     1
100
AcDbTrace
 10
-1336.734137798412
 20
1654.671636322127
 30
0.0
 11
-1335.734137798412
 21
1654.671636322127
 31
0.0
 12
-1336.234137798412
 22
1657.671636322127
 32
0.0
 13
-1336.234137798412
 23
1657.671636322127
 33
0.0
  0
SOLID
  5
1F5F7
330
1F51F
100
AcDbEntity
  8
SUNPOU
 62
     1
100
AcDbTrace
 10
-1336.734137798412
 20
1663.171636322125
 30
0.0
 11
-1335.734137798412
 21
1663.171636322125
 31
0.0
 12
-1336.234137798412
 22
1660.171636322125
 32
0.0
 13
-1336.234137798412
 23
1660.171636322125
 33
0.0
  0
POINT
  5
1F5F8
330
1F51F
100
AcDbEntity
  8
DEFPOINTS
 62
     0
100
AcDbPoint
 10
-1327.296886898882
 20
1657.671636322127
 30
0.0
  0
POINT
  5
1F5F9
330
1F51F
100
AcDbEntity
  8
DEFPOINTS
 62
     0
100
AcDbPoint
 10
-1317.546886898882
 20
1660.171636322125
 30
0.0
  0
POINT
  5
1F5FA
330
1F51F
100
AcDbEntity
  8
DEFPOINTS
 62
     0
100
AcDbPoint
 10
-1336.234137798412
 20
1660.171636322125
 30
0.0
  0
ENDBLK
  5
1F52C
330
1F51F
100
AcDbEntity
  8
0
100
AcDbBlockEnd
  0
BLOCK
  5
1F538
330
1F52E
100
AcDbEntity
  8
0
100
AcDbBlockBegin
  2
*D8
 70
     1
 10
0.0
 20
0.0
 30
0.0
  3
*D8
  1

  0
LINE
  5
1F5FB
330
1F52E
100
AcDbEntity
  8
SUNPOU
 62
     1
100
AcDbLine
 10
-1319.546886898882
 20
1660.171636322125
 30
0.0
 11
-1336.734137798412
 21
1660.171636322125
 31
0.0
  0
LINE
  5
1F5FC
330
1F52E
100
AcDbEntity
  8
SUNPOU
 62
     1
100
AcDbLine
 10
-1319.046886898882
 20
1735.171636322127
 30
0.0
 11
-1336.734137798412
 21
1735.171636322127
 31
0.0
  0
LINE
  5
1F5FD
330
1F52E
100
AcDbEntity
  8
SUNPOU
 62
     1
100
AcDbLine
 10
-1336.234137798412
 20
1663.171636322125
 30
0.0
 11
-1336.234137798412
 21
1732.171636322127
 31
0.0
  0
SOLID
  5
1F5FE
330
1F52E
100
AcDbEntity
  8
SUNPOU
 62
     1
100
AcDbTrace
 10
-1336.734137798412
 20
1663.171636322125
 30
0.0
 11
-1335.734137798412
 21
1663.171636322125
 31
0.0
 12
-1336.234137798412
 22
1660.171636322125
 32
0.0
 13
-1336.234137798412
 23
1660.171636322125
 33
0.0
  0
SOLID
  5
1F5FF
330
1F52E
100
AcDbEntity
  8
SUNPOU
 62
     1
100
AcDbTrace
 10
-1336.734137798412
 20
1732.171636322127
 30
0.0
 11
-1335.734137798412
 21
1732.171636322127
 31
0.0
 12
-1336.234137798412
 22
1735.171636322127
 32
0.0
 13
-1336.234137798412
 23
1735.171636322127
 33
0.0
  0
MTEXT
  5
1F600
330
1F52E
100
AcDbEntity
  8
SUNPOU
 62
     1
100
AcDbMText
 10
-1338.984137798413
 20
1697.671636322126
 30
0.0
 40
3.5
 41
0.0
 71
     5
 72
     1
  1
\A1;75
 11
0.0000000000000001
 21
1.0
 31
0.0
  0
POINT
  5
1F601
330
1F52E
100
AcDbEntity
  8
DEFPOINTS
 62
     0
100
AcDbPoint
 10
-1319.046886898882
 20
1660.171636322125
 30
0.0
  0
POINT
  5
1F602
330
1F52E
100
AcDbEntity
  8
DEFPOINTS
 62
     0
100
AcDbPoint
 10
-1318.546886898882
 20
1735.171636322127
 30
0.0
  0
POINT
  5
1F603
330
1F52E
100
AcDbEntity
  8
DEFPOINTS
 62
     0
100
AcDbPoint
 10
-1336.234137798412
 20
1735.171636322127
 30
0.0
  0
ENDBLK
  5
1F539
330
1F52E
100
AcDbEntity
  8
0
100
AcDbBlockEnd
  0
BLOCK
  5
1F547
330
1F53B
100
AcDbEntity
  8
0
100
AcDbBlockBegin
  2
*D9
 70
     1
 10
0.0
 20
0.0
 30
0.0
  3
*D9
  1

  0
LINE
  5
1F604
330
1F53B
100
AcDbEntity
  8
SUNPOU
 62
     1
100
AcDbLine
 10
-1319.046886898882
 20
1735.171636322127
 30
0.0
 11
-1336.734137798412
 21
1735.171636322127
 31
0.0
  0
LINE
  5
1F605
330
1F53B
100
AcDbEntity
  8
SUNPOU
 62
     1
100
AcDbLine
 10
-1327.796886898882
 20
1737.671636322127
 30
0.0
 11
-1336.734137798412
 21
1737.671636322127
 31
0.0
  0
LINE
  5
1F606
330
1F53B
100
AcDbEntity
  8
SUNPOU
 62
     1
100
AcDbLine
 10
-1336.234137798412
 20
1732.171636322127
 30
0.0
 11
-1336.234137798412
 21
1729.171636322127
 31
0.0
  0
LINE
  5
1F607
330
1F53B
100
AcDbEntity
  8
SUNPOU
 62
     1
100
AcDbLine
 10
-1336.234137798412
 20
1740.671636322127
 30
0.0
 11
-1336.234137798412
 21
1743.671636322127
 31
0.0
  0
MTEXT
  5
1F608
330
1F53B
100
AcDbEntity
  8
SUNPOU
 62
     1
100
AcDbMText
 10
-1339.757897043502
 20
1743.874225743591
 30
0.0
 40
3.5
 41
0.0
 71
     5
 72
     1
  1
\A1;2.5
 11
0.0000000000000001
 21
1.0
 31
0.0
  0
LINE
  5
1F609
330
1F53B
100
AcDbEntity
  8
SUNPOU
 62
     1
100
AcDbLine
 10
-1336.234137798412
 20
1735.171636322127
 30
0.0
 11
-1336.234137798412
 21
1737.671636322127
 31
0.0
  0
SOLID
  5
1F60A
330
1F53B
100
AcDbEntity
  8
SUNPOU
 62
     1
100
AcDbTrace
 10
-1336.734137798412
 20
1732.171636322127
 30
0.0
 11
-1335.734137798412
 21
1732.171636322127
 31
0.0
 12
-1336.234137798412
 22
1735.171636322127
 32
0.0
 13
-1336.234137798412
 23
1735.171636322127
 33
0.0
  0
SOLID
  5
1F60B
330
1F53B
100
AcDbEntity
  8
SUNPOU
 62
     1
100
AcDbTrace
 10
-1336.734137798412
 20
1740.671636322127
 30
0.0
 11
-1335.734137798412
 21
1740.671636322127
 31
0.0
 12
-1336.234137798412
 22
1737.671636322127
 32
0.0
 13
-1336.234137798412
 23
1737.671636322127
 33
0.0
  0
POINT
  5
1F60C
330
1F53B
100
AcDbEntity
  8
DEFPOINTS
 62
     0
100
AcDbPoint
 10
-1318.546886898882
 20
1735.171636322127
 30
0.0
  0
POINT
  5
1F60D
330
1F53B
100
AcDbEntity
  8
DEFPOINTS
 62
     0
100
AcDbPoint
 10
-1327.296886898882
 20
1737.671636322127
 30
0.0
  0
POINT
  5
1F60E
330
1F53B
100
AcDbEntity
  8
DEFPOINTS
 62
     0
100
AcDbPoint
 10
-1336.234137798412
 20
1737.671636322127
 30
0.0
  0
ENDBLK
  5
1F548
330
1F53B
100
AcDbEntity
  8
0
100
AcDbBlockEnd
  0
ENDSEC
  0
SECTION
  2
ENTITIES
  0
MTEXT
  5
5084
330
1A
100
AcDbEntity
  8
0
100
AcDbMText
 10
1985.239088685435
 20
-948.5420423450428
 30
0.0
 40
8.0
 41
0.0
 71
     7
 72
     5
  1

1001
ACAD
1000
MTEXTBEGIN
1070
    73
1070
     1
1070
    44
1040
1.0
1070
    74
1070
     0
1000
MTEXTEND
1000
MTEXTBEGIN
1070
    73
1070
     1
1070
    44
1040
1.0
1070
    74
1070
     0
1000
MTEXTEND
  0
MTEXT
  5
5085
330
1A
100
AcDbEntity
  8
0
100
AcDbMText
 10
4270.596778580329
 20
22.24825240601649
 30
0.0
 40
8.0
 41
0.0
 71
     7
 72
     5
  1

1001
ACAD
1000
MTEXTBEGIN
1070
    73
1070
     1
1070
    44
1040
1.0
1070
    74
1070
     0
1000
MTEXTEND
1000
MTEXTBEGIN
1070
    73
1070
     1
1070
    44
1040
1.0
1070
    74
1070
     0
1000
MTEXTEND
  0
MTEXT
  5
5343
330
1A
100
AcDbEntity
  8
SUNPOU
100
AcDbMText
 10
6936.493799262471
 20
9534.359644781135
 30
0.0
 40
10.5
 41
0.0
 71
     1
 72
     5
  1

1001
ACAD
1000
MTEXTBEGIN
1070
    73
1070
     1
1070
    44
1040
1.0
1070
    74
1070
     0
1000
MTEXTEND
1000
MTEXTBEGIN
1070
    73
1070
     1
1070
    44
1040
1.0
1070
    74
1070
     0
1000
MTEXTEND
  0
MTEXT
  5
544F
330
1A
100
AcDbEntity
  8
0
100
AcDbMText
 10
16317.2832773148
 20
12833.35428897674
 30
0.0
 40
8.0
 41
0.0
 71
     7
 72
     5
  1

1001
ACAD
1000
MTEXTBEGIN
1070
    73
1070
     1
1070
    44
1040
1.0
1070
    74
1070
     0
1000
MTEXTEND
1000
MTEXTBEGIN
1070
    73
1070
     1
1070
    44
1040
1.0
1070
    74
1070
     0
1000
MTEXTEND
  0
MTEXT
  5
5450
330
1A
100
AcDbEntity
  8
0
100
AcDbMText
 10
18602.64096720969
 20
13804.1445837278
 30
0.0
 40
8.0
 41
0.0
 71
     7
 72
     5
  1

1001
ACAD
1000
MTEXTBEGIN
1070
    73
1070
     1
1070
    44
1040
1.0
1070
    74
1070
     0
1000
MTEXTEND
1000
MTEXTBEGIN
1070
    73
1070
     1
1070
    44
1040
1.0
1070
    74
1070
     0
1000
MTEXTEND
  0
MTEXT
  5
5451
330
1A
100
AcDbEntity
  8
SUNPOU
100
AcDbMText
 10
21268.53798789184
 20
23316.25597610292
 30
0.0
 40
10.5
 41
0.0
 71
     1
 72
     5
  1

1001
ACAD
1000
MTEXTBEGIN
1070
    73
1070
     1
1070
    44
1040
1.0
1070
    74
1070
     0
1000
MTEXTEND
1000
MTEXTBEGIN
1070
    73
1070
     1
1070
    44
1040
1.0
1070
    74
1070
     0
1000
MTEXTEND
  0
MTEXT
  5
5452
330
1A
100
AcDbEntity
  8
SUNPOU
100
AcDbMText
 10
13337.6147919559
 20
22369.46284218996
 30
0.0
 40
10.5
 41
0.0
 71
     7
 72
     5
  1

1001
ACAD
1000
MTEXTBEGIN
1070
    73
1070
     1
1070
    44
1040
1.0
1070
    74
1070
     0
1000
MTEXTEND
1000
MTEXTBEGIN
1070
    73
1070
     1
1070
    44
1040
1.0
1070
    74
1070
     0
1000
MTEXTEND
  0
MTEXT
  5
5453
330
1A
100
AcDbEntity
  8
SUNPOU
100
AcDbMText
 10
16286.59845646867
 20
27270.13891403281
 30
0.0
 40
10.5
 41
0.0
 71
     7
 72
     5
  1

1001
ACAD
1000
MTEXTBEGIN
1070
    73
1070
     1
1070
    44
1040
1.0
1070
    74
1070
     0
1000
MTEXTEND
1000
MTEXTBEGIN
1070
    73
1070
     1
1070
    44
1040
1.0
1070
    74
1070
     0
1000
MTEXTEND
  0
MTEXT
  5
5454
330
1A
100
AcDbEntity
  8
SUNPOU
100
AcDbMText
 10
20795.67658441924
 20
29706.43966165288
 30
0.0
 40
10.5
 41
0.0
 71
     7
 72
     5
  1

1001
ACAD
1000
MTEXTBEGIN
1070
    73
1070
     1
1070
    44
1040
1.0
1070
    74
1070
     0
1000
MTEXTEND
1000
MTEXTBEGIN
1070
    73
1070
     1
1070
    44
1040
1.0
1070
    74
1070
     0
1000
MTEXTEND
  0
MTEXT
  5
5455
330
1A
100
AcDbEntity
  8
0
100
AcDbMText
 10
16611.93789220314
 20
14707.52144344448
 30
0.0
 40
8.0
 41
0.0
 71
     7
 72
     5
  1

1001
ACAD
1000
MTEXTBEGIN
1070
    73
1070
     1
1070
    44
1040
1.0
1070
    74
1070
     0
1000
MTEXTEND
1000
MTEXTBEGIN
1070
    73
1070
     1
1070
    44
1040
1.0
1070
    74
1070
     0
1000
MTEXTEND
  0
MTEXT
  5
5456
330
1A
100
AcDbEntity
  8
0
100
AcDbMText
 10
18897.29558209804
 20
15678.31173819554
 30
0.0
 40
8.0
 41
0.0
 71
     7
 72
     5
  1

1001
ACAD
1000
MTEXTBEGIN
1070
    73
1070
     1
1070
    44
1040
1.0
1070
    74
1070
     0
1000
MTEXTEND
1000
MTEXTBEGIN
1070
    73
1070
     1
1070
    44
1040
1.0
1070
    74
1070
     0
1000
MTEXTEND
  0
MTEXT
  5
5457
330
1A
100
AcDbEntity
  8
SUNPOU
100
AcDbMText
 10
21563.19260278019
 20
25190.42313057066
 30
0.0
 40
10.5
 41
0.0
 71
     1
 72
     5
  1

1001
ACAD
1000
MTEXTBEGIN
1070
    73
1070
     1
1070
    44
1040
1.0
1070
    74
1070
     0
1000
MTEXTEND
1000
MTEXTBEGIN
1070
    73
1070
     1
1070
    44
1040
1.0
1070
    74
1070
     0
1000
MTEXTEND
  0
MTEXT
  5
5458
330
1A
100
AcDbEntity
  8
SUNPOU
100
AcDbMText
 10
13632.26940684426
 20
24243.6299966577
 30
0.0
 40
10.5
 41
0.0
 71
     7
 72
     5
  1

1001
ACAD
1000
MTEXTBEGIN
1070
    73
1070
     1
1070
    44
1040
1.0
1070
    74
1070
     0
1000
MTEXTEND
1000
MTEXTBEGIN
1070
    73
1070
     1
1070
    44
1040
1.0
1070
    74
1070
     0
1000
MTEXTEND
  0
MTEXT
  5
5459
330
1A
100
AcDbEntity
  8
SUNPOU
100
AcDbMText
 10
16581.25307135702
 20
29144.30606850055
 30
0.0
 40
10.5
 41
0.0
 71
     7
 72
     5
  1

1001
ACAD
1000
MTEXTBEGIN
1070
    73
1070
     1
1070
    44
1040
1.0
1070
    74
1070
     0
1000
MTEXTEND
1000
MTEXTBEGIN
1070
    73
1070
     1
1070
    44
1040
1.0
1070
    74
1070
     0
1000
MTEXTEND
  0
MTEXT
  5
545A
330
1A
100
AcDbEntity
  8
SUNPOU
100
AcDbMText
 10
21090.33119930759
 20
31580.60681612062
 30
0.0
 40
10.5
 41
0.0
 71
     7
 72
     5
  1

1001
ACAD
1000
MTEXTBEGIN
1070
    73
1070
     1
1070
    44
1040
1.0
1070
    74
1070
     0
1000
MTEXTEND
1000
MTEXTBEGIN
1070
    73
1070
     1
1070
    44
1040
1.0
1070
    74
1070
     0
1000
MTEXTEND
  0
MTEXT
  5
545B
330
1A
100
AcDbEntity
  8
0
100
AcDbMText
 10
22871.60517627167
 20
23974.88367124799
 30
0.0
 40
8.0
 41
0.0
 71
     7
 72
     5
  1

1001
ACAD
1000
MTEXTBEGIN
1070
    73
1070
     1
1070
    44
1040
1.0
1070
    74
1070
     0
1000
MTEXTEND
1000
MTEXTBEGIN
1070
    73
1070
     1
1070
    44
1040
1.0
1070
    74
1070
     0
1000
MTEXTEND
  0
MTEXT
  5
545C
330
1A
100
AcDbEntity
  8
0
100
AcDbMText
 10
25156.96286616657
 20
24945.67396599906
 30
0.0
 40
8.0
 41
0.0
 71
     7
 72
     5
  1

1001
ACAD
1000
MTEXTBEGIN
1070
    73
1070
     1
1070
    44
1040
1.0
1070
    74
1070
     0
1000
MTEXTEND
1000
MTEXTBEGIN
1070
    73
1070
     1
1070
    44
1040
1.0
1070
    74
1070
     0
1000
MTEXTEND
  0
MTEXT
  5
545D
330
1A
100
AcDbEntity
  8
SUNPOU
100
AcDbMText
 10
27822.85988684871
 20
34457.78535837418
 30
0.0
 40
10.5
 41
0.0
 71
     1
 72
     5
  1

1001
ACAD
1000
MTEXTBEGIN
1070
    73
1070
     1
1070
    44
1040
1.0
1070
    74
1070
     0
1000
MTEXTEND
1000
MTEXTBEGIN
1070
    73
1070
     1
1070
    44
1040
1.0
1070
    74
1070
     0
1000
MTEXTEND
  0
MTEXT
  5
545E
330
1A
100
AcDbEntity
  8
SUNPOU
100
AcDbMText
 10
19891.93669091278
 20
33510.99222446122
 30
0.0
 40
10.5
 41
0.0
 71
     7
 72
     5
  1

1001
ACAD
1000
MTEXTBEGIN
1070
    73
1070
     1
1070
    44
1040
1.0
1070
    74
1070
     0
1000
MTEXTEND
1000
MTEXTBEGIN
1070
    73
1070
     1
1070
    44
1040
1.0
1070
    74
1070
     0
1000
MTEXTEND
  0
MTEXT
  5
545F
330
1A
100
AcDbEntity
  8
SUNPOU
100
AcDbMText
 10
22840.92035542555
 20
38411.66829630407
 30
0.0
 40
10.5
 41
0.0
 71
     7
 72
     5
  1

1001
ACAD
1000
MTEXTBEGIN
1070
    73
1070
     1
1070
    44
1040
1.0
1070
    74
1070
     0
1000
MTEXTEND
1000
MTEXTBEGIN
1070
    73
1070
     1
1070
    44
1040
1.0
1070
    74
1070
     0
1000
MTEXTEND
  0
MTEXT
  5
5460
330
1A
100
AcDbEntity
  8
SUNPOU
100
AcDbMText
 10
27349.99848337611
 20
40847.96904392415
 30
0.0
 40
10.5
 41
0.0
 71
     7
 72
     5
  1

1001
ACAD
1000
MTEXTBEGIN
1070
    73
1070
     1
1070
    44
1040
1.0
1070
    74
1070
     0
1000
MTEXTEND
1000
MTEXTBEGIN
1070
    73
1070
     1
1070
    44
1040
1.0
1070
    74
1070
     0
1000
MTEXTEND
  0
MTEXT
  5
55B7
330
1A
100
AcDbEntity
  8
SUNPOU
100
AcDbMText
 10
67424.23923338197
 20
64463.86602884816
 30
0.0
 40
10.5
 41
0.0
 71
     9
 72
     5
  1

1001
ACAD
1000
MTEXTBEGIN
1070
    73
1070
     1
1070
    44
1040
1.0
1070
    74
1070
     0
1000
MTEXTEND
1000
MTEXTBEGIN
1070
    73
1070
     1
1070
    44
1040
1.0
1070
    74
1070
     0
1000
MTEXTEND
  0
MTEXT
  5
55B8
330
1A
100
AcDbEntity
  8
SUNPOU
100
AcDbMText
 10
76146.40679929998
 20
71879.70056038563
 30
0.0
 40
10.5
 41
0.0
 71
     9
 72
     5
  1

1001
ACAD
1000
MTEXTBEGIN
1070
    73
1070
     1
1070
    44
1040
1.0
1070
    74
1070
     0
1000
MTEXTEND
1000
MTEXTBEGIN
1070
    73
1070
     1
1070
    44
1040
1.0
1070
    74
1070
     0
1000
MTEXTEND
  0
MTEXT
  5
55B9
330
1A
100
AcDbEntity
  8
SUNPOU
100
AcDbMText
 10
95100.16551662994
 20
89346.27661287766
 30
0.0
 40
10.5
 41
0.0
 71
     9
 72
     5
  1

1001
ACAD
1000
MTEXTBEGIN
1070
    73
1070
     1
1070
    44
1040
1.0
1070
    74
1070
     0
1000
MTEXTEND
1000
MTEXTBEGIN
1070
    73
1070
     1
1070
    44
1040
1.0
1070
    74
1070
     0
1000
MTEXTEND
  0
MTEXT
  5
55BA
330
1A
100
AcDbEntity
  8
SUNPOU
100
AcDbMText
 10
97043.57276333936
 20
87545.22753299966
 30
0.0
 40
3.5
 41
0.0
 71
     9
 72
     5
  1

1001
ACAD
1000
MTEXTBEGIN
1070
    73
1070
     1
1070
    44
1040
1.0
1070
    74
1070
     0
1000
MTEXTEND
1000
MTEXTBEGIN
1070
    73
1070
     1
1070
    44
1040
1.0
1070
    74
1070
     0
1000
MTEXTEND
  0
MTEXT
  5
55BB
330
1A
100
AcDbEntity
  8
SUNPOU
100
AcDbMText
 10
128169.752595959
 20
130040.1732006569
 30
0.0
 40
10.5
 41
0.0
 71
     9
 72
     5
  1

1001
ACAD
1000
MTEXTBEGIN
1070
    73
1070
     1
1070
    44
1040
1.0
1070
    74
1070
     0
1000
MTEXTEND
1000
MTEXTBEGIN
1070
    73
1070
     1
1070
    44
1040
1.0
1070
    74
1070
     0
1000
MTEXTEND
  0
MTEXT
  5
55BC
330
1A
100
AcDbEntity
  8
SUNPOU
100
AcDbMText
 10
130113.1598426684
 20
128239.1241207789
 30
0.0
 40
3.5
 41
0.0
 71
     9
 72
     5
  1

1001
ACAD
1000
MTEXTBEGIN
1070
    73
1070
     1
1070
    44
1040
1.0
1070
    74
1070
     0
1000
MTEXTEND
1000
MTEXTBEGIN
1070
    73
1070
     1
1070
    44
1040
1.0
1070
    74
1070
     0
1000
MTEXTEND
  0
MTEXT
  5
55BD
330
1A
100
AcDbEntity
  8
SUNPOU
100
AcDbMText
 10
78610.02030175463
 20
75873.33835563206
 30
0.0
 40
10.5
 41
0.0
 71
     9
 72
     5
  1

1001
ACAD
1000
MTEXTBEGIN
1070
    73
1070
     1
1070
    44
1040
1.0
1070
    74
1070
     0
1000
MTEXTEND
1000
MTEXTBEGIN
1070
    73
1070
     1
1070
    44
1040
1.0
1070
    74
1070
     0
1000
MTEXTEND
  0
MTEXT
  5
55BE
330
1A
100
AcDbEntity
  8
SUNPOU
100
AcDbMText
 10
64662.02020137863
 20
56700.93921651987
 30
0.0
 40
3.5
 41
0.0
 71
     7
 72
     5
  1

1001
ACAD
1000
MTEXTBEGIN
1070
    73
1070
     1
1070
    44
1040
1.0
1070
    74
1070
     0
1000
MTEXTEND
1000
MTEXTBEGIN
1070
    73
1070
     1
1070
    44
1040
1.0
1070
    74
1070
     0
1000
MTEXTEND
  0
MTEXT
  5
55BF
330
1A
100
AcDbEntity
  8
SUNPOU
100
AcDbMText
 10
45647.18959837178
 20
44463.08794733807
 30
0.0
 40
10.5
 41
0.0
 71
     7
 72
     5
  1

1001
ACAD
1000
MTEXTBEGIN
1070
    73
1070
     1
1070
    44
1040
1.0
1070
    74
1070
     0
1000
MTEXTEND
1000
MTEXTBEGIN
1070
    73
1070
     1
1070
    44
1040
1.0
1070
    74
1070
     0
1000
MTEXTEND
  0
MTEXT
  5
55C0
330
1A
100
AcDbEntity
  8
SUNPOU
100
AcDbMText
 10
33189.96133342368
 20
28618.15636923965
 30
0.0
 40
35.0
 41
0.0
 71
     9
 72
     5
  1

1001
ACAD
1000
MTEXTBEGIN
1070
    73
1070
     1
1070
    44
1040
1.0
1070
    74
1070
     0
1000
MTEXTEND
1000
MTEXTBEGIN
1070
    73
1070
     1
1070
    44
1040
1.0
1070
    74
1070
     0
1000
MTEXTEND
  0
MTEXT
  5
55C1
330
1A
100
AcDbEntity
  8
SUNPOU
100
AcDbMText
 10
32098.44639099864
 20
29226.93177928835
 30
0.0
 40
350.0000004171781
 41
0.0
 71
     7
 72
     5
  1

1001
ACAD
1000
MTEXTBEGIN
1070
    73
1070
     1
1070
    44
1040
1.0
1070
    74
1070
     0
1000
MTEXTEND
1000
MTEXTBEGIN
1070
    73
1070
     1
1070
    44
1040
1.0
1070
    74
1070
     0
1000
MTEXTEND
  0
MTEXT
  5
55C2
330
1A
100
AcDbEntity
  8
0
100
AcDbMText
 10
38142.39714894154
 20
27206.85414142458
 30
0.0
 40
8.0
 41
0.0
 71
     7
 72
     5
  1

1001
ACAD
1000
MTEXTBEGIN
1070
    73
1070
     1
1070
    44
1040
1.0
1070
    74
1070
     0
1000
MTEXTEND
1000
MTEXTBEGIN
1070
    73
1070
     1
1070
    44
1040
1.0
1070
    74
1070
     0
1000
MTEXTEND
  0
MTEXT
  5
55C3
330
1A
100
AcDbEntity
  8
0
100
AcDbMText
 10
40427.75483883644
 20
28177.64443617564
 30
0.0
 40
8.0
 41
0.0
 71
     7
 72
     5
  1

1001
ACAD
1000
MTEXTBEGIN
1070
    73
1070
     1
1070
    44
1040
1.0
1070
    74
1070
     0
1000
MTEXTEND
1000
MTEXTBEGIN
1070
    73
1070
     1
1070
    44
1040
1.0
1070
    74
1070
     0
1000
MTEXTEND
  0
MTEXT
  5
55C4
330
1A
100
AcDbEntity
  8
SUNPOU
100
AcDbMText
 10
43093.65185951858
 20
37689.75582855077
 30
0.0
 40
10.5
 41
0.0
 71
     1
 72
     5
  1

1001
ACAD
1000
MTEXTBEGIN
1070
    73
1070
     1
1070
    44
1040
1.0
1070
    74
1070
     0
1000
MTEXTEND
1000
MTEXTBEGIN
1070
    73
1070
     1
1070
    44
1040
1.0
1070
    74
1070
     0
1000
MTEXTEND
  0
MTEXT
  5
55C5
330
1A
100
AcDbEntity
  8
SUNPOU
100
AcDbMText
 10
35162.72866358265
 20
36742.96269463781
 30
0.0
 40
10.5
 41
0.0
 71
     7
 72
     5
  1

1001
ACAD
1000
MTEXTBEGIN
1070
    73
1070
     1
1070
    44
1040
1.0
1070
    74
1070
     0
1000
MTEXTEND
1000
MTEXTBEGIN
1070
    73
1070
     1
1070
    44
1040
1.0
1070
    74
1070
     0
1000
MTEXTEND
  0
MTEXT
  5
55C6
330
1A
100
AcDbEntity
  8
SUNPOU
100
AcDbMText
 10
38111.71232809542
 20
41643.63876648066
 30
0.0
 40
10.5
 41
0.0
 71
     7
 72
     5
  1

1001
ACAD
1000
MTEXTBEGIN
1070
    73
1070
     1
1070
    44
1040
1.0
1070
    74
1070
     0
1000
MTEXTEND
1000
MTEXTBEGIN
1070
    73
1070
     1
1070
    44
1040
1.0
1070
    74
1070
     0
1000
MTEXTEND
  0
MTEXT
  5
55C7
330
1A
100
AcDbEntity
  8
SUNPOU
100
AcDbMText
 10
42620.79045604597
 20
44079.93951410074
 30
0.0
 40
10.5
 41
0.0
 71
     7
 72
     5
  1

1001
ACAD
1000
MTEXTBEGIN
1070
    73
1070
     1
1070
    44
1040
1.0
1070
    74
1070
     0
1000
MTEXTEND
1000
MTEXTBEGIN
1070
    73
1070
     1
1070
    44
1040
1.0
1070
    74
1070
     0
1000
MTEXTEND
  0
MTEXT
  5
55C8
330
1A
100
AcDbEntity
  8
SUNPOU
100
AcDbMText
 10
26221.62834281429
 20
23077.53566448964
 30
0.0
 40
10.5
 41
0.0
 71
     7
 72
     5
  1

1001
ACAD
1000
MTEXTBEGIN
1070
    73
1070
     1
1070
    44
1040
1.0
1070
    74
1070
     0
1000
MTEXTEND
1000
MTEXTBEGIN
1070
    73
1070
     1
1070
    44
1040
1.0
1070
    74
1070
     0
1000
MTEXTEND
  0
MTEXT
  5
55C9
330
1A
100
AcDbEntity
  8
SUNPOU
100
AcDbMText
 10
77413.14677671455
 20
68750.51622813789
 30
0.0
 40
10.5
 41
0.0
 71
     9
 72
     5
  1

1001
ACAD
1000
MTEXTBEGIN
1070
    73
1070
     1
1070
    44
1040
1.0
1070
    74
1070
     0
1000
MTEXTEND
1000
MTEXTBEGIN
1070
    73
1070
     1
1070
    44
1040
1.0
1070
    74
1070
     0
1000
MTEXTEND
  0
MTEXT
  5
55CA
330
1A
100
AcDbEntity
  8
SUNPOU
100
AcDbMText
 10
86135.31434263256
 20
76166.35075967536
 30
0.0
 40
10.5
 41
0.0
 71
     9
 72
     5
  1

1001
ACAD
1000
MTEXTBEGIN
1070
    73
1070
     1
1070
    44
1040
1.0
1070
    74
1070
     0
1000
MTEXTEND
1000
MTEXTBEGIN
1070
    73
1070
     1
1070
    44
1040
1.0
1070
    74
1070
     0
1000
MTEXTEND
  0
MTEXT
  5
55CB
330
1A
100
AcDbEntity
  8
SUNPOU
100
AcDbMText
 10
105089.0730599625
 20
93632.92681216739
 30
0.0
 40
10.5
 41
0.0
 71
     9
 72
     5
  1

1001
ACAD
1000
MTEXTBEGIN
1070
    73
1070
     1
1070
    44
1040
1.0
1070
    74
1070
     0
1000
MTEXTEND
1000
MTEXTBEGIN
1070
    73
1070
     1
1070
    44
1040
1.0
1070
    74
1070
     0
1000
MTEXTEND
  0
MTEXT
  5
55CC
330
1A
100
AcDbEntity
  8
SUNPOU
100
AcDbMText
 10
107032.4803066719
 20
91831.8777322894
 30
0.0
 40
3.5
 41
0.0
 71
     9
 72
     5
  1

1001
ACAD
1000
MTEXTBEGIN
1070
    73
1070
     1
1070
    44
1040
1.0
1070
    74
1070
     0
1000
MTEXTEND
1000
MTEXTBEGIN
1070
    73
1070
     1
1070
    44
1040
1.0
1070
    74
1070
     0
1000
MTEXTEND
  0
MTEXT
  5
55CD
330
1A
100
AcDbEntity
  8
SUNPOU
100
AcDbMText
 10
138158.6601392916
 20
134326.8233999467
 30
0.0
 40
10.5
 41
0.0
 71
     9
 72
     5
  1

1001
ACAD
1000
MTEXTBEGIN
1070
    73
1070
     1
1070
    44
1040
1.0
1070
    74
1070
     0
1000
MTEXTEND
1000
MTEXTBEGIN
1070
    73
1070
     1
1070
    44
1040
1.0
1070
    74
1070
     0
1000
MTEXTEND
  0
MTEXT
  5
55CE
330
1A
100
AcDbEntity
  8
SUNPOU
100
AcDbMText
 10
140102.067386001
 20
132525.7743200686
 30
0.0
 40
3.5
 41
0.0
 71
     9
 72
     5
  1

1001
ACAD
1000
MTEXTBEGIN
1070
    73
1070
     1
1070
    44
1040
1.0
1070
    74
1070
     0
1000
MTEXTEND
1000
MTEXTBEGIN
1070
    73
1070
     1
1070
    44
1040
1.0
1070
    74
1070
     0
1000
MTEXTEND
  0
MTEXT
  5
55CF
330
1A
100
AcDbEntity
  8
SUNPOU
100
AcDbMText
 10
88598.92784508721
 20
80159.98855492179
 30
0.0
 40
10.5
 41
0.0
 71
     9
 72
     5
  1

1001
ACAD
1000
MTEXTBEGIN
1070
    73
1070
     1
1070
    44
1040
1.0
1070
    74
1070
     0
1000
MTEXTEND
1000
MTEXTBEGIN
1070
    73
1070
     1
1070
    44
1040
1.0
1070
    74
1070
     0
1000
MTEXTEND
  0
MTEXT
  5
55D0
330
1A
100
AcDbEntity
  8
SUNPOU
100
AcDbMText
 10
74650.92774471121
 20
60987.5894158096
 30
0.0
 40
3.5
 41
0.0
 71
     7
 72
     5
  1

1001
ACAD
1000
MTEXTBEGIN
1070
    73
1070
     1
1070
    44
1040
1.0
1070
    74
1070
     0
1000
MTEXTEND
1000
MTEXTBEGIN
1070
    73
1070
     1
1070
    44
1040
1.0
1070
    74
1070
     0
1000
MTEXTEND
  0
MTEXT
  5
55D1
330
1A
100
AcDbEntity
  8
SUNPOU
100
AcDbMText
 10
55636.09714170436
 20
48749.73814662781
 30
0.0
 40
10.5
 41
0.0
 71
     7
 72
     5
  1

1001
ACAD
1000
MTEXTBEGIN
1070
    73
1070
     1
1070
    44
1040
1.0
1070
    74
1070
     0
1000
MTEXTEND
1000
MTEXTBEGIN
1070
    73
1070
     1
1070
    44
1040
1.0
1070
    74
1070
     0
1000
MTEXTEND
  0
MTEXT
  5
55D2
330
1A
100
AcDbEntity
  8
SUNPOU
100
AcDbMText
 10
43178.86887675626
 20
32904.80656852938
 30
0.0
 40
35.0
 41
0.0
 71
     9
 72
     5
  1

1001
ACAD
1000
MTEXTBEGIN
1070
    73
1070
     1
1070
    44
1040
1.0
1070
    74
1070
     0
1000
MTEXTEND
1000
MTEXTBEGIN
1070
    73
1070
     1
1070
    44
1040
1.0
1070
    74
1070
     0
1000
MTEXTEND
  0
MTEXT
  5
55D3
330
1A
100
AcDbEntity
  8
SUNPOU
100
AcDbMText
 10
42087.35393433121
 20
33513.58197857809
 30
0.0
 40
350.0000004171781
 41
0.0
 71
     7
 72
     5
  1

1001
ACAD
1000
MTEXTBEGIN
1070
    73
1070
     1
1070
    44
1040
1.0
1070
    74
1070
     0
1000
MTEXTEND
1000
MTEXTBEGIN
1070
    73
1070
     1
1070
    44
1040
1.0
1070
    74
1070
     0
1000
MTEXTEND
  0
MTEXT
  5
55D4
330
1A
100
AcDbEntity
  8
0
100
AcDbMText
 10
48131.30469227412
 20
31493.50434071431
 30
0.0
 40
8.0
 41
0.0
 71
     7
 72
     5
  1

1001
ACAD
1000
MTEXTBEGIN
1070
    73
1070
     1
1070
    44
1040
1.0
1070
    74
1070
     0
1000
MTEXTEND
1000
MTEXTBEGIN
1070
    73
1070
     1
1070
    44
1040
1.0
1070
    74
1070
     0
1000
MTEXTEND
  0
MTEXT
  5
55D5
330
1A
100
AcDbEntity
  8
0
100
AcDbMText
 10
50416.66238216901
 20
32464.29463546537
 30
0.0
 40
8.0
 41
0.0
 71
     7
 72
     5
  1

1001
ACAD
1000
MTEXTBEGIN
1070
    73
1070
     1
1070
    44
1040
1.0
1070
    74
1070
     0
1000
MTEXTEND
1000
MTEXTBEGIN
1070
    73
1070
     1
1070
    44
1040
1.0
1070
    74
1070
     0
1000
MTEXTEND
  0
MTEXT
  5
55D6
330
1A
100
AcDbEntity
  8
SUNPOU
100
AcDbMText
 10
53082.55940285115
 20
41976.4060278405
 30
0.0
 40
10.5
 41
0.0
 71
     1
 72
     5
  1

1001
ACAD
1000
MTEXTBEGIN
1070
    73
1070
     1
1070
    44
1040
1.0
1070
    74
1070
     0
1000
MTEXTEND
1000
MTEXTBEGIN
1070
    73
1070
     1
1070
    44
1040
1.0
1070
    74
1070
     0
1000
MTEXTEND
  0
MTEXT
  5
55D7
330
1A
100
AcDbEntity
  8
SUNPOU
100
AcDbMText
 10
45151.63620691522
 20
41029.61289392755
 30
0.0
 40
10.5
 41
0.0
 71
     7
 72
     5
  1

1001
ACAD
1000
MTEXTBEGIN
1070
    73
1070
     1
1070
    44
1040
1.0
1070
    74
1070
     0
1000
MTEXTEND
1000
MTEXTBEGIN
1070
    73
1070
     1
1070
    44
1040
1.0
1070
    74
1070
     0
1000
MTEXTEND
  0
MTEXT
  5
55D8
330
1A
100
AcDbEntity
  8
SUNPOU
100
AcDbMText
 10
48100.61987142798
 20
45930.28896577039
 30
0.0
 40
10.5
 41
0.0
 71
     7
 72
     5
  1

1001
ACAD
1000
MTEXTBEGIN
1070
    73
1070
     1
1070
    44
1040
1.0
1070
    74
1070
     0
1000
MTEXTEND
1000
MTEXTBEGIN
1070
    73
1070
     1
1070
    44
1040
1.0
1070
    74
1070
     0
1000
MTEXTEND
  0
MTEXT
  5
55D9
330
1A
100
AcDbEntity
  8
SUNPOU
100
AcDbMText
 10
52609.69799937854
 20
48366.58971339046
 30
0.0
 40
10.5
 41
0.0
 71
     7
 72
     5
  1

1001
ACAD
1000
MTEXTBEGIN
1070
    73
1070
     1
1070
    44
1040
1.0
1070
    74
1070
     0
1000
MTEXTEND
1000
MTEXTBEGIN
1070
    73
1070
     1
1070
    44
1040
1.0
1070
    74
1070
     0
1000
MTEXTEND
  0
MTEXT
  5
55DA
330
1A
100
AcDbEntity
  8
SUNPOU
100
AcDbMText
 10
36210.53588614687
 20
27364.18586377937
 30
0.0
 40
10.5
 41
0.0
 71
     7
 72
     5
  1

1001
ACAD
1000
MTEXTBEGIN
1070
    73
1070
     1
1070
    44
1040
1.0
1070
    74
1070
     0
1000
MTEXTEND
1000
MTEXTBEGIN
1070
    73
1070
     1
1070
    44
1040
1.0
1070
    74
1070
     0
1000
MTEXTEND
  0
MTEXT
  5
55DB
330
1A
100
AcDbEntity
  8
SUNPOU
100
AcDbMText
 10
38021.29879752181
 20
33691.59985125794
 30
0.0
 40
10.5
 41
0.0
 71
     9
 72
     5
  1

1001
ACAD
1000
MTEXTBEGIN
1070
    73
1070
     1
1070
    44
1040
1.0
1070
    74
1070
     0
1000
MTEXTEND
1000
MTEXTBEGIN
1070
    73
1070
     1
1070
    44
1040
1.0
1070
    74
1070
     0
1000
MTEXTEND
  0
MTEXT
  5
55DC
330
1A
100
AcDbEntity
  8
SUNPOU
100
AcDbMText
 10
46743.46636343979
 20
41107.43438279541
 30
0.0
 40
10.5
 41
0.0
 71
     9
 72
     5
  1

1001
ACAD
1000
MTEXTBEGIN
1070
    73
1070
     1
1070
    44
1040
1.0
1070
    74
1070
     0
1000
MTEXTEND
1000
MTEXTBEGIN
1070
    73
1070
     1
1070
    44
1040
1.0
1070
    74
1070
     0
1000
MTEXTEND
  0
MTEXT
  5
55DD
330
1A
100
AcDbEntity
  8
SUNPOU
100
AcDbMText
 10
65697.22508076975
 20
58574.01043528746
 30
0.0
 40
10.5
 41
0.0
 71
     9
 72
     5
  1

1001
ACAD
1000
MTEXTBEGIN
1070
    73
1070
     1
1070
    44
1040
1.0
1070
    74
1070
     0
1000
MTEXTEND
1000
MTEXTBEGIN
1070
    73
1070
     1
1070
    44
1040
1.0
1070
    74
1070
     0
1000
MTEXTEND
  0
MTEXT
  5
55DE
330
1A
100
AcDbEntity
  8
SUNPOU
100
AcDbMText
 10
67640.63232747917
 20
56772.96135540945
 30
0.0
 40
3.5
 41
0.0
 71
     9
 72
     5
  1

1001
ACAD
1000
MTEXTBEGIN
1070
    73
1070
     1
1070
    44
1040
1.0
1070
    74
1070
     0
1000
MTEXTEND
1000
MTEXTBEGIN
1070
    73
1070
     1
1070
    44
1040
1.0
1070
    74
1070
     0
1000
MTEXTEND
  0
MTEXT
  5
55DF
330
1A
100
AcDbEntity
  8
SUNPOU
100
AcDbMText
 10
98766.81216009888
 20
99267.9070230668
 30
0.0
 40
10.5
 41
0.0
 71
     9
 72
     5
  1

1001
ACAD
1000
MTEXTBEGIN
1070
    73
1070
     1
1070
    44
1040
1.0
1070
    74
1070
     0
1000
MTEXTEND
1000
MTEXTBEGIN
1070
    73
1070
     1
1070
    44
1040
1.0
1070
    74
1070
     0
1000
MTEXTEND
  0
MTEXT
  5
55E0
330
1A
100
AcDbEntity
  8
SUNPOU
100
AcDbMText
 10
100710.2194068083
 20
97466.85794318878
 30
0.0
 40
3.5
 41
0.0
 71
     9
 72
     5
  1

1001
ACAD
1000
MTEXTBEGIN
1070
    73
1070
     1
1070
    44
1040
1.0
1070
    74
1070
     0
1000
MTEXTEND
1000
MTEXTBEGIN
1070
    73
1070
     1
1070
    44
1040
1.0
1070
    74
1070
     0
1000
MTEXTEND
  0
MTEXT
  5
55E1
330
1A
100
AcDbEntity
  8
SUNPOU
100
AcDbMText
 10
49207.07986589444
 20
45101.07217804185
 30
0.0
 40
10.5
 41
0.0
 71
     9
 72
     5
  1

1001
ACAD
1000
MTEXTBEGIN
1070
    73
1070
     1
1070
    44
1040
1.0
1070
    74
1070
     0
1000
MTEXTEND
1000
MTEXTBEGIN
1070
    73
1070
     1
1070
    44
1040
1.0
1070
    74
1070
     0
1000
MTEXTEND
  0
MTEXT
  5
55E2
330
1A
100
AcDbEntity
  8
SUNPOU
100
AcDbMText
 10
35259.07976551845
 20
25928.67303892964
 30
0.0
 40
3.5
 41
0.0
 71
     7
 72
     5
  1

1001
ACAD
1000
MTEXTBEGIN
1070
    73
1070
     1
1070
    44
1040
1.0
1070
    74
1070
     0
1000
MTEXTEND
1000
MTEXTBEGIN
1070
    73
1070
     1
1070
    44
1040
1.0
1070
    74
1070
     0
1000
MTEXTEND
  0
MTEXT
  5
55E3
330
1A
100
AcDbEntity
  8
SUNPOU
100
AcDbMText
 10
48951.43044828905
 20
35287.73625995099
 30
0.0
 40
10.5
 41
0.0
 71
     9
 72
     5
  1

1001
ACAD
1000
MTEXTBEGIN
1070
    73
1070
     1
1070
    44
1040
1.0
1070
    74
1070
     0
1000
MTEXTEND
1000
MTEXTBEGIN
1070
    73
1070
     1
1070
    44
1040
1.0
1070
    74
1070
     0
1000
MTEXTEND
  0
MTEXT
  5
55E4
330
1A
100
AcDbEntity
  8
SUNPOU
100
AcDbMText
 10
57673.59801420702
 20
42703.57079148847
 30
0.0
 40
10.5
 41
0.0
 71
     9
 72
     5
  1

1001
ACAD
1000
MTEXTBEGIN
1070
    73
1070
     1
1070
    44
1040
1.0
1070
    74
1070
     0
1000
MTEXTEND
1000
MTEXTBEGIN
1070
    73
1070
     1
1070
    44
1040
1.0
1070
    74
1070
     0
1000
MTEXTEND
  0
MTEXT
  5
55E5
330
1A
100
AcDbEntity
  8
SUNPOU
100
AcDbMText
 10
76627.35673153699
 20
60170.14684398051
 30
0.0
 40
10.5
 41
0.0
 71
     9
 72
     5
  1

1001
ACAD
1000
MTEXTBEGIN
1070
    73
1070
     1
1070
    44
1040
1.0
1070
    74
1070
     0
1000
MTEXTEND
1000
MTEXTBEGIN
1070
    73
1070
     1
1070
    44
1040
1.0
1070
    74
1070
     0
1000
MTEXTEND
  0
MTEXT
  5
55E6
330
1A
100
AcDbEntity
  8
SUNPOU
100
AcDbMText
 10
78570.76397824641
 20
58369.09776410251
 30
0.0
 40
3.5
 41
0.0
 71
     9
 72
     5
  1

1001
ACAD
1000
MTEXTBEGIN
1070
    73
1070
     1
1070
    44
1040
1.0
1070
    74
1070
     0
1000
MTEXTEND
1000
MTEXTBEGIN
1070
    73
1070
     1
1070
    44
1040
1.0
1070
    74
1070
     0
1000
MTEXTEND
  0
MTEXT
  5
55E7
330
1A
100
AcDbEntity
  8
SUNPOU
100
AcDbMText
 10
109696.9438108661
 20
100864.0434317598
 30
0.0
 40
10.5
 41
0.0
 71
     9
 72
     5
  1

1001
ACAD
1000
MTEXTBEGIN
1070
    73
1070
     1
1070
    44
1040
1.0
1070
    74
1070
     0
1000
MTEXTEND
1000
MTEXTBEGIN
1070
    73
1070
     1
1070
    44
1040
1.0
1070
    74
1070
     0
1000
MTEXTEND
  0
MTEXT
  5
55E8
330
1A
100
AcDbEntity
  8
SUNPOU
100
AcDbMText
 10
111640.3510575755
 20
99062.99435188183
 30
0.0
 40
3.5
 41
0.0
 71
     9
 72
     5
  1

1001
ACAD
1000
MTEXTBEGIN
1070
    73
1070
     1
1070
    44
1040
1.0
1070
    74
1070
     0
1000
MTEXTEND
1000
MTEXTBEGIN
1070
    73
1070
     1
1070
    44
1040
1.0
1070
    74
1070
     0
1000
MTEXTEND
  0
MTEXT
  5
55E9
330
1A
100
AcDbEntity
  8
SUNPOU
100
AcDbMText
 10
60137.21151666167
 20
46697.20858673491
 30
0.0
 40
10.5
 41
0.0
 71
     9
 72
     5
  1

1001
ACAD
1000
MTEXTBEGIN
1070
    73
1070
     1
1070
    44
1040
1.0
1070
    74
1070
     0
1000
MTEXTEND
1000
MTEXTBEGIN
1070
    73
1070
     1
1070
    44
1040
1.0
1070
    74
1070
     0
1000
MTEXTEND
  0
MTEXT
  5
55EA
330
1A
100
AcDbEntity
  8
SUNPOU
100
AcDbMText
 10
46189.21141628568
 20
27524.80944762269
 30
0.0
 40
3.5
 41
0.0
 71
     7
 72
     5
  1

1001
ACAD
1000
MTEXTBEGIN
1070
    73
1070
     1
1070
    44
1040
1.0
1070
    74
1070
     0
1000
MTEXTEND
1000
MTEXTBEGIN
1070
    73
1070
     1
1070
    44
1040
1.0
1070
    74
1070
     0
1000
MTEXTEND
  0
MTEXT
  5
55EB
330
1A
100
AcDbEntity
  8
SUNPOU
100
AcDbMText
 10
45007.68847015541
 20
38269.57947701874
 30
0.0
 40
10.5
 41
0.0
 71
     9
 72
     5
  1

1001
ACAD
1000
MTEXTBEGIN
1070
    73
1070
     1
1070
    44
1040
1.0
1070
    74
1070
     0
1000
MTEXTEND
1000
MTEXTBEGIN
1070
    73
1070
     1
1070
    44
1040
1.0
1070
    74
1070
     0
1000
MTEXTEND
  0
MTEXT
  5
55EC
330
1A
100
AcDbEntity
  8
SUNPOU
100
AcDbMText
 10
63961.44718748539
 20
55736.15552951081
 30
0.0
 40
10.5
 41
0.0
 71
     9
 72
     5
  1

1001
ACAD
1000
MTEXTBEGIN
1070
    73
1070
     1
1070
    44
1040
1.0
1070
    74
1070
     0
1000
MTEXTEND
1000
MTEXTBEGIN
1070
    73
1070
     1
1070
    44
1040
1.0
1070
    74
1070
     0
1000
MTEXTEND
  0
MTEXT
  5
55ED
330
1A
100
AcDbEntity
  8
SUNPOU
100
AcDbMText
 10
65904.85443419479
 20
53935.10644963279
 30
0.0
 40
3.5
 41
0.0
 71
     9
 72
     5
  1

1001
ACAD
1000
MTEXTBEGIN
1070
    73
1070
     1
1070
    44
1040
1.0
1070
    74
1070
     0
1000
MTEXTEND
1000
MTEXTBEGIN
1070
    73
1070
     1
1070
    44
1040
1.0
1070
    74
1070
     0
1000
MTEXTEND
  0
MTEXT
  5
55EE
330
1A
100
AcDbEntity
  8
SUNPOU
100
AcDbMText
 10
97031.03426681451
 20
96430.05211729015
 30
0.0
 40
10.5
 41
0.0
 71
     9
 72
     5
  1

1001
ACAD
1000
MTEXTBEGIN
1070
    73
1070
     1
1070
    44
1040
1.0
1070
    74
1070
     0
1000
MTEXTEND
1000
MTEXTBEGIN
1070
    73
1070
     1
1070
    44
1040
1.0
1070
    74
1070
     0
1000
MTEXTEND
  0
MTEXT
  5
55EF
330
1A
100
AcDbEntity
  8
SUNPOU
100
AcDbMText
 10
98974.44151352393
 20
94629.00303741212
 30
0.0
 40
3.5
 41
0.0
 71
     9
 72
     5
  1

1001
ACAD
1000
MTEXTBEGIN
1070
    73
1070
     1
1070
    44
1040
1.0
1070
    74
1070
     0
1000
MTEXTEND
1000
MTEXTBEGIN
1070
    73
1070
     1
1070
    44
1040
1.0
1070
    74
1070
     0
1000
MTEXTEND
  0
MTEXT
  5
55F0
330
1A
100
AcDbEntity
  8
SUNPOU
100
AcDbMText
 10
47471.30197261006
 20
42263.21727226519
 30
0.0
 40
10.5
 41
0.0
 71
     9
 72
     5
  1

1001
ACAD
1000
MTEXTBEGIN
1070
    73
1070
     1
1070
    44
1040
1.0
1070
    74
1070
     0
1000
MTEXTEND
1000
MTEXTBEGIN
1070
    73
1070
     1
1070
    44
1040
1.0
1070
    74
1070
     0
1000
MTEXTEND
  0
MTEXT
  5
55F1
330
1A
100
AcDbEntity
  8
SUNPOU
100
AcDbMText
 10
33523.30187223408
 20
23090.81813315298
 30
0.0
 40
3.5
 41
0.0
 71
     7
 72
     5
  1

1001
ACAD
1000
MTEXTBEGIN
1070
    73
1070
     1
1070
    44
1040
1.0
1070
    74
1070
     0
1000
MTEXTEND
1000
MTEXTBEGIN
1070
    73
1070
     1
1070
    44
1040
1.0
1070
    74
1070
     0
1000
MTEXTEND
  0
MTEXT
  5
55F2
330
1A
100
AcDbEntity
  8
SUNPOU
100
AcDbMText
 10
57959.46254102503
 20
50038.08111611015
 30
0.0
 40
10.5
 41
0.0
 71
     9
 72
     5
  1

1001
ACAD
1000
MTEXTBEGIN
1070
    73
1070
     1
1070
    44
1040
1.0
1070
    74
1070
     0
1000
MTEXTEND
1000
MTEXTBEGIN
1070
    73
1070
     1
1070
    44
1040
1.0
1070
    74
1070
     0
1000
MTEXTEND
  0
MTEXT
  5
55F3
330
1A
100
AcDbEntity
  8
SUNPOU
100
AcDbMText
 10
76913.22125835503
 20
67504.65716860222
 30
0.0
 40
10.5
 41
0.0
 71
     9
 72
     5
  1

1001
ACAD
1000
MTEXTBEGIN
1070
    73
1070
     1
1070
    44
1040
1.0
1070
    74
1070
     0
1000
MTEXTEND
1000
MTEXTBEGIN
1070
    73
1070
     1
1070
    44
1040
1.0
1070
    74
1070
     0
1000
MTEXTEND
  0
MTEXT
  5
55F4
330
1A
100
AcDbEntity
  8
SUNPOU
100
AcDbMText
 10
78856.62850506443
 20
65703.6080887242
 30
0.0
 40
3.5
 41
0.0
 71
     9
 72
     5
  1

1001
ACAD
1000
MTEXTBEGIN
1070
    73
1070
     1
1070
    44
1040
1.0
1070
    74
1070
     0
1000
MTEXTEND
1000
MTEXTBEGIN
1070
    73
1070
     1
1070
    44
1040
1.0
1070
    74
1070
     0
1000
MTEXTEND
  0
MTEXT
  5
55F5
330
1A
100
AcDbEntity
  8
SUNPOU
100
AcDbMText
 10
109982.8083376841
 20
108198.5537563815
 30
0.0
 40
10.5
 41
0.0
 71
     9
 72
     5
  1

1001
ACAD
1000
MTEXTBEGIN
1070
    73
1070
     1
1070
    44
1040
1.0
1070
    74
1070
     0
1000
MTEXTEND
1000
MTEXTBEGIN
1070
    73
1070
     1
1070
    44
1040
1.0
1070
    74
1070
     0
1000
MTEXTEND
  0
MTEXT
  5
55F6
330
1A
100
AcDbEntity
  8
SUNPOU
100
AcDbMText
 10
111926.2155843935
 20
106397.5046765035
 30
0.0
 40
3.5
 41
0.0
 71
     9
 72
     5
  1

1001
ACAD
1000
MTEXTBEGIN
1070
    73
1070
     1
1070
    44
1040
1.0
1070
    74
1070
     0
1000
MTEXTEND
1000
MTEXTBEGIN
1070
    73
1070
     1
1070
    44
1040
1.0
1070
    74
1070
     0
1000
MTEXTEND
  0
MTEXT
  5
55F7
330
1A
100
AcDbEntity
  8
SUNPOU
100
AcDbMText
 10
60423.07604347968
 20
54031.71891135659
 30
0.0
 40
10.5
 41
0.0
 71
     9
 72
     5
  1

1001
ACAD
1000
MTEXTBEGIN
1070
    73
1070
     1
1070
    44
1040
1.0
1070
    74
1070
     0
1000
MTEXTEND
1000
MTEXTBEGIN
1070
    73
1070
     1
1070
    44
1040
1.0
1070
    74
1070
     0
1000
MTEXTEND
  0
MTEXT
  5
55F8
330
1A
100
AcDbEntity
  8
SUNPOU
100
AcDbMText
 10
46475.07594310369
 20
34859.3197722444
 30
0.0
 40
3.5
 41
0.0
 71
     7
 72
     5
  1

1001
ACAD
1000
MTEXTBEGIN
1070
    73
1070
     1
1070
    44
1040
1.0
1070
    74
1070
     0
1000
MTEXTEND
1000
MTEXTBEGIN
1070
    73
1070
     1
1070
    44
1040
1.0
1070
    74
1070
     0
1000
MTEXTEND
  0
MTEXT
  5
55F9
330
1A
100
AcDbEntity
  8
SUNPOU
100
AcDbMText
 10
74027.35402123588
 20
68370.58278833383
 30
0.0
 40
10.5
 41
0.0
 71
     9
 72
     5
  1

1001
ACAD
1000
MTEXTBEGIN
1070
    73
1070
     1
1070
    44
1040
1.0
1070
    74
1070
     0
1000
MTEXTEND
1000
MTEXTBEGIN
1070
    73
1070
     1
1070
    44
1040
1.0
1070
    74
1070
     0
1000
MTEXTEND
  0
MTEXT
  5
55FA
330
1A
100
AcDbEntity
  8
SUNPOU
100
AcDbMText
 10
75970.7612679453
 20
66569.53370845583
 30
0.0
 40
3.5
 41
0.0
 71
     9
 72
     5
  1

1001
ACAD
1000
MTEXTBEGIN
1070
    73
1070
     1
1070
    44
1040
1.0
1070
    74
1070
     0
1000
MTEXTEND
1000
MTEXTBEGIN
1070
    73
1070
     1
1070
    44
1040
1.0
1070
    74
1070
     0
1000
MTEXTEND
  0
MTEXT
  5
55FB
330
1A
100
AcDbEntity
  8
SUNPOU
100
AcDbMText
 10
107096.941100565
 20
109064.4793761132
 30
0.0
 40
10.5
 41
0.0
 71
     9
 72
     5
  1

1001
ACAD
1000
MTEXTBEGIN
1070
    73
1070
     1
1070
    44
1040
1.0
1070
    74
1070
     0
1000
MTEXTEND
1000
MTEXTBEGIN
1070
    73
1070
     1
1070
    44
1040
1.0
1070
    74
1070
     0
1000
MTEXTEND
  0
MTEXT
  5
55FC
330
1A
100
AcDbEntity
  8
SUNPOU
100
AcDbMText
 10
109040.3483472744
 20
107263.4302962351
 30
0.0
 40
3.5
 41
0.0
 71
     9
 72
     5
  1

1001
ACAD
1000
MTEXTBEGIN
1070
    73
1070
     1
1070
    44
1040
1.0
1070
    74
1070
     0
1000
MTEXTEND
1000
MTEXTBEGIN
1070
    73
1070
     1
1070
    44
1040
1.0
1070
    74
1070
     0
1000
MTEXTEND
  0
MTEXT
  5
55FD
330
1A
100
AcDbEntity
  8
SUNPOU
100
AcDbMText
 10
105709.1709283621
 20
108141.3777665285
 30
0.0
 40
10.5
 41
0.0
 71
     9
 72
     5
  1

1001
ACAD
1000
MTEXTBEGIN
1070
    73
1070
     1
1070
    44
1040
1.0
1070
    74
1070
     0
1000
MTEXTEND
1000
MTEXTBEGIN
1070
    73
1070
     1
1070
    44
1040
1.0
1070
    74
1070
     0
1000
MTEXTEND
  0
MTEXT
  5
55FE
330
1A
100
AcDbEntity
  8
SUNPOU
100
AcDbMText
 10
107652.5781750715
 20
106340.3286866505
 30
0.0
 40
3.5
 41
0.0
 71
     9
 72
     5
  1

1001
ACAD
1000
MTEXTBEGIN
1070
    73
1070
     1
1070
    44
1040
1.0
1070
    74
1070
     0
1000
MTEXTEND
1000
MTEXTBEGIN
1070
    73
1070
     1
1070
    44
1040
1.0
1070
    74
1070
     0
1000
MTEXTEND
  0
MTEXT
  5
55FF
330
1A
100
AcDbEntity
  8
SUNPOU
100
AcDbMText
 10
73193.09268743351
 20
66158.78082845056
 30
0.0
 40
10.5
 41
0.0
 71
     9
 72
     5
  1

1001
ACAD
1000
MTEXTBEGIN
1070
    73
1070
     1
1070
    44
1040
1.0
1070
    74
1070
     0
1000
MTEXTEND
1000
MTEXTBEGIN
1070
    73
1070
     1
1070
    44
1040
1.0
1070
    74
1070
     0
1000
MTEXTEND
  0
MTEXT
  5
5600
330
1A
100
AcDbEntity
  8
SUNPOU
100
AcDbMText
 10
75916.39889159806
 20
66563.46252003162
 30
0.0
 40
3.5
 41
0.0
 71
     9
 72
     5
  1

1001
ACAD
1000
MTEXTBEGIN
1070
    73
1070
     1
1070
    44
1040
1.0
1070
    74
1070
     0
1000
MTEXTEND
1000
MTEXTBEGIN
1070
    73
1070
     1
1070
    44
1040
1.0
1070
    74
1070
     0
1000
MTEXTEND
  0
MTEXT
  5
5601
330
1A
100
AcDbEntity
  8
SUNPOU
100
AcDbMText
 10
75124.04436649058
 20
63402.1566819768
 30
0.0
 40
10.5
 41
0.0
 71
     9
 72
     5
  1

1001
ACAD
1000
MTEXTBEGIN
1070
    73
1070
     1
1070
    44
1040
1.0
1070
    74
1070
     0
1000
MTEXTEND
1000
MTEXTBEGIN
1070
    73
1070
     1
1070
    44
1040
1.0
1070
    74
1070
     0
1000
MTEXTEND
  0
MTEXT
  5
5602
330
1A
100
AcDbEntity
  8
SUNPOU
100
AcDbMText
 10
77067.4516132
 20
61601.1076020988
 30
0.0
 40
3.5
 41
0.0
 71
     9
 72
     5
  1

1001
ACAD
1000
MTEXTBEGIN
1070
    73
1070
     1
1070
    44
1040
1.0
1070
    74
1070
     0
1000
MTEXTEND
1000
MTEXTBEGIN
1070
    73
1070
     1
1070
    44
1040
1.0
1070
    74
1070
     0
1000
MTEXTEND
  0
MTEXT
  5
5603
330
1A
100
AcDbEntity
  8
SUNPOU
100
AcDbMText
 10
77012.54710378659
 20
61488.33571981449
 30
0.0
 40
3.5
 41
0.0
 71
     9
 72
     5
  1

1001
ACAD
1000
MTEXTBEGIN
1070
    73
1070
     1
1070
    44
1040
1.0
1070
    74
1070
     0
1000
MTEXTEND
1000
MTEXTBEGIN
1070
    73
1070
     1
1070
    44
1040
1.0
1070
    74
1070
     0
1000
MTEXTEND
  0
MTEXT
  5
5604
330
1A
100
AcDbEntity
  8
SUNPOU
100
AcDbMText
 10
76376.61896736668
 20
60677.01447874797
 30
0.0
 40
3.5
 41
0.0
 71
     9
 72
     5
  1

1001
ACAD
1000
MTEXTBEGIN
1070
    73
1070
     1
1070
    44
1040
1.0
1070
    74
1070
     0
1000
MTEXTEND
1000
MTEXTBEGIN
1070
    73
1070
     1
1070
    44
1040
1.0
1070
    74
1070
     0
1000
MTEXTEND
  0
MTEXT
  5
5605
330
1A
100
AcDbEntity
  8
SUNPOU
100
AcDbMText
 10
76375.37854794595
 20
60676.76650181047
 30
0.0
 40
10.5
 41
0.0
 71
     9
 72
     5
  1

1001
ACAD
1000
MTEXTBEGIN
1070
    73
1070
     1
1070
    44
1040
1.0
1070
    74
1070
     0
1000
MTEXTEND
1000
MTEXTBEGIN
1070
    73
1070
     1
1070
    44
1040
1.0
1070
    74
1070
     0
1000
MTEXTEND
  0
MTEXT
  5
5606
330
1A
100
AcDbEntity
  8
SUNPOU
100
AcDbMText
 10
84709.93991079748
 20
78034.0328293557
 30
0.0
 40
10.5
 41
0.0
 71
     9
 72
     5
  1

1001
ACAD
1000
MTEXTBEGIN
1070
    73
1070
     1
1070
    44
1040
1.0
1070
    74
1070
     0
1000
MTEXTEND
1000
MTEXTBEGIN
1070
    73
1070
     1
1070
    44
1040
1.0
1070
    74
1070
     0
1000
MTEXTEND
  0
MTEXT
  5
5607
330
1A
100
AcDbEntity
  8
SUNPOU
100
AcDbMText
 10
93432.10747671548
 20
85449.86736089315
 30
0.0
 40
10.5
 41
0.0
 71
     9
 72
     5
  1

1001
ACAD
1000
MTEXTBEGIN
1070
    73
1070
     1
1070
    44
1040
1.0
1070
    74
1070
     0
1000
MTEXTEND
1000
MTEXTBEGIN
1070
    73
1070
     1
1070
    44
1040
1.0
1070
    74
1070
     0
1000
MTEXTEND
  0
MTEXT
  5
5608
330
1A
100
AcDbEntity
  8
SUNPOU
100
AcDbMText
 10
112385.8661940454
 20
102916.4434133851
 30
0.0
 40
10.5
 41
0.0
 71
     9
 72
     5
  1

1001
ACAD
1000
MTEXTBEGIN
1070
    73
1070
     1
1070
    44
1040
1.0
1070
    74
1070
     0
1000
MTEXTEND
1000
MTEXTBEGIN
1070
    73
1070
     1
1070
    44
1040
1.0
1070
    74
1070
     0
1000
MTEXTEND
  0
MTEXT
  5
5609
330
1A
100
AcDbEntity
  8
SUNPOU
100
AcDbMText
 10
114329.2734407548
 20
101115.3943335072
 30
0.0
 40
3.5
 41
0.0
 71
     9
 72
     5
  1

1001
ACAD
1000
MTEXTBEGIN
1070
    73
1070
     1
1070
    44
1040
1.0
1070
    74
1070
     0
1000
MTEXTEND
1000
MTEXTBEGIN
1070
    73
1070
     1
1070
    44
1040
1.0
1070
    74
1070
     0
1000
MTEXTEND
  0
MTEXT
  5
560A
330
1A
100
AcDbEntity
  8
SUNPOU
100
AcDbMText
 10
145455.4532733745
 20
143610.3400011645
 30
0.0
 40
10.5
 41
0.0
 71
     9
 72
     5
  1

1001
ACAD
1000
MTEXTBEGIN
1070
    73
1070
     1
1070
    44
1040
1.0
1070
    74
1070
     0
1000
MTEXTEND
1000
MTEXTBEGIN
1070
    73
1070
     1
1070
    44
1040
1.0
1070
    74
1070
     0
1000
MTEXTEND
  0
MTEXT
  5
560B
330
1A
100
AcDbEntity
  8
SUNPOU
100
AcDbMText
 10
147398.8605200839
 20
141809.2909212864
 30
0.0
 40
3.5
 41
0.0
 71
     9
 72
     5
  1

1001
ACAD
1000
MTEXTBEGIN
1070
    73
1070
     1
1070
    44
1040
1.0
1070
    74
1070
     0
1000
MTEXTEND
1000
MTEXTBEGIN
1070
    73
1070
     1
1070
    44
1040
1.0
1070
    74
1070
     0
1000
MTEXTEND
  0
MTEXT
  5
560C
330
1A
100
AcDbEntity
  8
SUNPOU
100
AcDbMText
 10
95895.72097917013
 20
89443.5051561396
 30
0.0
 40
10.5
 41
0.0
 71
     9
 72
     5
  1

1001
ACAD
1000
MTEXTBEGIN
1070
    73
1070
     1
1070
    44
1040
1.0
1070
    74
1070
     0
1000
MTEXTEND
1000
MTEXTBEGIN
1070
    73
1070
     1
1070
    44
1040
1.0
1070
    74
1070
     0
1000
MTEXTEND
  0
MTEXT
  5
560D
330
1A
100
AcDbEntity
  8
SUNPOU
100
AcDbMText
 10
81947.72087879414
 20
70271.1060170274
 30
0.0
 40
3.5
 41
0.0
 71
     7
 72
     5
  1

1001
ACAD
1000
MTEXTBEGIN
1070
    73
1070
     1
1070
    44
1040
1.0
1070
    74
1070
     0
1000
MTEXTEND
1000
MTEXTBEGIN
1070
    73
1070
     1
1070
    44
1040
1.0
1070
    74
1070
     0
1000
MTEXTEND
  0
MTEXT
  5
560E
330
1A
100
AcDbEntity
  8
SUNPOU
100
AcDbMText
 10
62932.89027578729
 20
58033.25474784561
 30
0.0
 40
10.5
 41
0.0
 71
     7
 72
     5
  1

1001
ACAD
1000
MTEXTBEGIN
1070
    73
1070
     1
1070
    44
1040
1.0
1070
    74
1070
     0
1000
MTEXTEND
1000
MTEXTBEGIN
1070
    73
1070
     1
1070
    44
1040
1.0
1070
    74
1070
     0
1000
MTEXTEND
  0
MTEXT
  5
560F
330
1A
100
AcDbEntity
  8
SUNPOU
100
AcDbMText
 10
50475.66201083918
 20
42188.32316974719
 30
0.0
 40
35.0
 41
0.0
 71
     9
 72
     5
  1

1001
ACAD
1000
MTEXTBEGIN
1070
    73
1070
     1
1070
    44
1040
1.0
1070
    74
1070
     0
1000
MTEXTEND
1000
MTEXTBEGIN
1070
    73
1070
     1
1070
    44
1040
1.0
1070
    74
1070
     0
1000
MTEXTEND
  0
MTEXT
  5
5610
330
1A
100
AcDbEntity
  8
SUNPOU
100
AcDbMText
 10
49384.14706841413
 20
42797.0985797959
 30
0.0
 40
350.0000004171781
 41
0.0
 71
     7
 72
     5
  1

1001
ACAD
1000
MTEXTBEGIN
1070
    73
1070
     1
1070
    44
1040
1.0
1070
    74
1070
     0
1000
MTEXTEND
1000
MTEXTBEGIN
1070
    73
1070
     1
1070
    44
1040
1.0
1070
    74
1070
     0
1000
MTEXTEND
  0
MTEXT
  5
5611
330
1A
100
AcDbEntity
  8
0
100
AcDbMText
 10
55428.09782635704
 20
40777.02094193211
 30
0.0
 40
8.0
 41
0.0
 71
     7
 72
     5
  1

1001
ACAD
1000
MTEXTBEGIN
1070
    73
1070
     1
1070
    44
1040
1.0
1070
    74
1070
     0
1000
MTEXTEND
1000
MTEXTBEGIN
1070
    73
1070
     1
1070
    44
1040
1.0
1070
    74
1070
     0
1000
MTEXTEND
  0
MTEXT
  5
5612
330
1A
100
AcDbEntity
  8
0
100
AcDbMText
 10
57713.45551625194
 20
41747.81123668317
 30
0.0
 40
8.0
 41
0.0
 71
     7
 72
     5
  1

1001
ACAD
1000
MTEXTBEGIN
1070
    73
1070
     1
1070
    44
1040
1.0
1070
    74
1070
     0
1000
MTEXTEND
1000
MTEXTBEGIN
1070
    73
1070
     1
1070
    44
1040
1.0
1070
    74
1070
     0
1000
MTEXTEND
  0
MTEXT
  5
5613
330
1A
100
AcDbEntity
  8
SUNPOU
100
AcDbMText
 10
60379.35253693408
 20
51259.9226290583
 30
0.0
 40
10.5
 41
0.0
 71
     1
 72
     5
  1

1001
ACAD
1000
MTEXTBEGIN
1070
    73
1070
     1
1070
    44
1040
1.0
1070
    74
1070
     0
1000
MTEXTEND
1000
MTEXTBEGIN
1070
    73
1070
     1
1070
    44
1040
1.0
1070
    74
1070
     0
1000
MTEXTEND
  0
MTEXT
  5
5614
330
1A
100
AcDbEntity
  8
SUNPOU
100
AcDbMText
 10
52448.42934099814
 20
50313.12949514535
 30
0.0
 40
10.5
 41
0.0
 71
     7
 72
     5
  1

1001
ACAD
1000
MTEXTBEGIN
1070
    73
1070
     1
1070
    44
1040
1.0
1070
    74
1070
     0
1000
MTEXTEND
1000
MTEXTBEGIN
1070
    73
1070
     1
1070
    44
1040
1.0
1070
    74
1070
     0
1000
MTEXTEND
  0
MTEXT
  5
5615
330
1A
100
AcDbEntity
  8
SUNPOU
100
AcDbMText
 10
55397.41300551091
 20
55213.80556698819
 30
0.0
 40
10.5
 41
0.0
 71
     7
 72
     5
  1

1001
ACAD
1000
MTEXTBEGIN
1070
    73
1070
     1
1070
    44
1040
1.0
1070
    74
1070
     0
1000
MTEXTEND
1000
MTEXTBEGIN
1070
    73
1070
     1
1070
    44
1040
1.0
1070
    74
1070
     0
1000
MTEXTEND
  0
MTEXT
  5
5616
330
1A
100
AcDbEntity
  8
SUNPOU
100
AcDbMText
 10
59906.49113346147
 20
57650.10631460826
 30
0.0
 40
10.5
 41
0.0
 71
     7
 72
     5
  1

1001
ACAD
1000
MTEXTBEGIN
1070
    73
1070
     1
1070
    44
1040
1.0
1070
    74
1070
     0
1000
MTEXTEND
1000
MTEXTBEGIN
1070
    73
1070
     1
1070
    44
1040
1.0
1070
    74
1070
     0
1000
MTEXTEND
  0
MTEXT
  5
5617
330
1A
100
AcDbEntity
  8
SUNPOU
100
AcDbMText
 10
43507.32902022979
 20
36647.70246499718
 30
0.0
 40
10.5
 41
0.0
 71
     7
 72
     5
  1

1001
ACAD
1000
MTEXTBEGIN
1070
    73
1070
     1
1070
    44
1040
1.0
1070
    74
1070
     0
1000
MTEXTEND
1000
MTEXTBEGIN
1070
    73
1070
     1
1070
    44
1040
1.0
1070
    74
1070
     0
1000
MTEXTEND
  0
MTEXT
  5
5618
330
1A
100
AcDbEntity
  8
SUNPOU
100
AcDbMText
 10
94698.84745413006
 20
82320.68302864542
 30
0.0
 40
10.5
 41
0.0
 71
     9
 72
     5
  1

1001
ACAD
1000
MTEXTBEGIN
1070
    73
1070
     1
1070
    44
1040
1.0
1070
    74
1070
     0
1000
MTEXTEND
1000
MTEXTBEGIN
1070
    73
1070
     1
1070
    44
1040
1.0
1070
    74
1070
     0
1000
MTEXTEND
  0
MTEXT
  5
5619
330
1A
100
AcDbEntity
  8
SUNPOU
100
AcDbMText
 10
103421.015020048
 20
89736.5175601829
 30
0.0
 40
10.5
 41
0.0
 71
     9
 72
     5
  1

1001
ACAD
1000
MTEXTBEGIN
1070
    73
1070
     1
1070
    44
1040
1.0
1070
    74
1070
     0
1000
MTEXTEND
1000
MTEXTBEGIN
1070
    73
1070
     1
1070
    44
1040
1.0
1070
    74
1070
     0
1000
MTEXTEND
  0
MTEXT
  5
561A
330
1A
100
AcDbEntity
  8
SUNPOU
100
AcDbMText
 10
122374.773737378
 20
107203.0936126749
 30
0.0
 40
10.5
 41
0.0
 71
     9
 72
     5
  1

1001
ACAD
1000
MTEXTBEGIN
1070
    73
1070
     1
1070
    44
1040
1.0
1070
    74
1070
     0
1000
MTEXTEND
1000
MTEXTBEGIN
1070
    73
1070
     1
1070
    44
1040
1.0
1070
    74
1070
     0
1000
MTEXTEND
  0
MTEXT
  5
561B
330
1A
100
AcDbEntity
  8
SUNPOU
100
AcDbMText
 10
124318.1809840874
 20
105402.0445327969
 30
0.0
 40
3.5
 41
0.0
 71
     9
 72
     5
  1

1001
ACAD
1000
MTEXTBEGIN
1070
    73
1070
     1
1070
    44
1040
1.0
1070
    74
1070
     0
1000
MTEXTEND
1000
MTEXTBEGIN
1070
    73
1070
     1
1070
    44
1040
1.0
1070
    74
1070
     0
1000
MTEXTEND
  0
MTEXT
  5
561C
330
1A
100
AcDbEntity
  8
SUNPOU
100
AcDbMText
 10
155444.3608167071
 20
147896.9902004542
 30
0.0
 40
10.5
 41
0.0
 71
     9
 72
     5
  1

1001
ACAD
1000
MTEXTBEGIN
1070
    73
1070
     1
1070
    44
1040
1.0
1070
    74
1070
     0
1000
MTEXTEND
1000
MTEXTBEGIN
1070
    73
1070
     1
1070
    44
1040
1.0
1070
    74
1070
     0
1000
MTEXTEND
  0
MTEXT
  5
561D
330
1A
100
AcDbEntity
  8
SUNPOU
100
AcDbMText
 10
157387.7680634165
 20
146095.9411205762
 30
0.0
 40
3.5
 41
0.0
 71
     9
 72
     5
  1

1001
ACAD
1000
MTEXTBEGIN
1070
    73
1070
     1
1070
    44
1040
1.0
1070
    74
1070
     0
1000
MTEXTEND
1000
MTEXTBEGIN
1070
    73
1070
     1
1070
    44
1040
1.0
1070
    74
1070
     0
1000
MTEXTEND
  0
MTEXT
  5
561E
330
1A
100
AcDbEntity
  8
SUNPOU
100
AcDbMText
 10
105884.6285225027
 20
93730.15535542933
 30
0.0
 40
10.5
 41
0.0
 71
     9
 72
     5
  1

1001
ACAD
1000
MTEXTBEGIN
1070
    73
1070
     1
1070
    44
1040
1.0
1070
    74
1070
     0
1000
MTEXTEND
1000
MTEXTBEGIN
1070
    73
1070
     1
1070
    44
1040
1.0
1070
    74
1070
     0
1000
MTEXTEND
  0
MTEXT
  5
561F
330
1A
100
AcDbEntity
  8
SUNPOU
100
AcDbMText
 10
91936.6284221267
 20
74557.75621631714
 30
0.0
 40
3.5
 41
0.0
 71
     7
 72
     5
  1

1001
ACAD
1000
MTEXTBEGIN
1070
    73
1070
     1
1070
    44
1040
1.0
1070
    74
1070
     0
1000
MTEXTEND
1000
MTEXTBEGIN
1070
    73
1070
     1
1070
    44
1040
1.0
1070
    74
1070
     0
1000
MTEXTEND
  0
MTEXT
  5
5620
330
1A
100
AcDbEntity
  8
SUNPOU
100
AcDbMText
 10
72921.79781911986
 20
62319.90494713533
 30
0.0
 40
10.5
 41
0.0
 71
     7
 72
     5
  1

1001
ACAD
1000
MTEXTBEGIN
1070
    73
1070
     1
1070
    44
1040
1.0
1070
    74
1070
     0
1000
MTEXTEND
1000
MTEXTBEGIN
1070
    73
1070
     1
1070
    44
1040
1.0
1070
    74
1070
     0
1000
MTEXTEND
  0
MTEXT
  5
5621
330
1A
100
AcDbEntity
  8
SUNPOU
100
AcDbMText
 10
60464.56955417175
 20
46474.97336903692
 30
0.0
 40
35.0
 41
0.0
 71
     9
 72
     5
  1

1001
ACAD
1000
MTEXTBEGIN
1070
    73
1070
     1
1070
    44
1040
1.0
1070
    74
1070
     0
1000
MTEXTEND
1000
MTEXTBEGIN
1070
    73
1070
     1
1070
    44
1040
1.0
1070
    74
1070
     0
1000
MTEXTEND
  0
MTEXT
  5
5622
330
1A
100
AcDbEntity
  8
SUNPOU
100
AcDbMText
 10
59373.05461174672
 20
47083.74877908562
 30
0.0
 40
350.0000004171781
 41
0.0
 71
     7
 72
     5
  1

1001
ACAD
1000
MTEXTBEGIN
1070
    73
1070
     1
1070
    44
1040
1.0
1070
    74
1070
     0
1000
MTEXTEND
1000
MTEXTBEGIN
1070
    73
1070
     1
1070
    44
1040
1.0
1070
    74
1070
     0
1000
MTEXTEND
  0
MTEXT
  5
5623
330
1A
100
AcDbEntity
  8
0
100
AcDbMText
 10
65417.00536968962
 20
45063.67114122186
 30
0.0
 40
8.0
 41
0.0
 71
     7
 72
     5
  1

1001
ACAD
1000
MTEXTBEGIN
1070
    73
1070
     1
1070
    44
1040
1.0
1070
    74
1070
     0
1000
MTEXTEND
1000
MTEXTBEGIN
1070
    73
1070
     1
1070
    44
1040
1.0
1070
    74
1070
     0
1000
MTEXTEND
  0
MTEXT
  5
5624
330
1A
100
AcDbEntity
  8
0
100
AcDbMText
 10
67702.36305958452
 20
46034.46143597292
 30
0.0
 40
8.0
 41
0.0
 71
     7
 72
     5
  1

1001
ACAD
1000
MTEXTBEGIN
1070
    73
1070
     1
1070
    44
1040
1.0
1070
    74
1070
     0
1000
MTEXTEND
1000
MTEXTBEGIN
1070
    73
1070
     1
1070
    44
1040
1.0
1070
    74
1070
     0
1000
MTEXTEND
  0
MTEXT
  5
5625
330
1A
100
AcDbEntity
  8
SUNPOU
100
AcDbMText
 10
70368.26008026666
 20
55546.57282834803
 30
0.0
 40
10.5
 41
0.0
 71
     1
 72
     5
  1

1001
ACAD
1000
MTEXTBEGIN
1070
    73
1070
     1
1070
    44
1040
1.0
1070
    74
1070
     0
1000
MTEXTEND
1000
MTEXTBEGIN
1070
    73
1070
     1
1070
    44
1040
1.0
1070
    74
1070
     0
1000
MTEXTEND
  0
MTEXT
  5
5626
330
1A
100
AcDbEntity
  8
SUNPOU
100
AcDbMText
 10
62437.33688433072
 20
54599.77969443508
 30
0.0
 40
10.5
 41
0.0
 71
     7
 72
     5
  1

1001
ACAD
1000
MTEXTBEGIN
1070
    73
1070
     1
1070
    44
1040
1.0
1070
    74
1070
     0
1000
MTEXTEND
1000
MTEXTBEGIN
1070
    73
1070
     1
1070
    44
1040
1.0
1070
    74
1070
     0
1000
MTEXTEND
  0
MTEXT
  5
5627
330
1A
100
AcDbEntity
  8
SUNPOU
100
AcDbMText
 10
65386.32054884349
 20
59500.45576627792
 30
0.0
 40
10.5
 41
0.0
 71
     7
 72
     5
  1

1001
ACAD
1000
MTEXTBEGIN
1070
    73
1070
     1
1070
    44
1040
1.0
1070
    74
1070
     0
1000
MTEXTEND
1000
MTEXTBEGIN
1070
    73
1070
     1
1070
    44
1040
1.0
1070
    74
1070
     0
1000
MTEXTEND
  0
MTEXT
  5
5628
330
1A
100
AcDbEntity
  8
SUNPOU
100
AcDbMText
 10
69895.39867679405
 20
61936.756513898
 30
0.0
 40
10.5
 41
0.0
 71
     7
 72
     5
  1

1001
ACAD
1000
MTEXTBEGIN
1070
    73
1070
     1
1070
    44
1040
1.0
1070
    74
1070
     0
1000
MTEXTEND
1000
MTEXTBEGIN
1070
    73
1070
     1
1070
    44
1040
1.0
1070
    74
1070
     0
1000
MTEXTEND
  0
MTEXT
  5
5629
330
1A
100
AcDbEntity
  8
SUNPOU
100
AcDbMText
 10
53496.23656356237
 20
40934.35266428691
 30
0.0
 40
10.5
 41
0.0
 71
     7
 72
     5
  1

1001
ACAD
1000
MTEXTBEGIN
1070
    73
1070
     1
1070
    44
1040
1.0
1070
    74
1070
     0
1000
MTEXTEND
1000
MTEXTBEGIN
1070
    73
1070
     1
1070
    44
1040
1.0
1070
    74
1070
     0
1000
MTEXTEND
  0
MTEXT
  5
562A
330
1A
100
AcDbEntity
  8
SUNPOU
100
AcDbMText
 10
55306.99947493731
 20
47261.76665176547
 30
0.0
 40
10.5
 41
0.0
 71
     9
 72
     5
  1

1001
ACAD
1000
MTEXTBEGIN
1070
    73
1070
     1
1070
    44
1040
1.0
1070
    74
1070
     0
1000
MTEXTEND
1000
MTEXTBEGIN
1070
    73
1070
     1
1070
    44
1040
1.0
1070
    74
1070
     0
1000
MTEXTEND
  0
MTEXT
  5
562B
330
1A
100
AcDbEntity
  8
SUNPOU
100
AcDbMText
 10
64029.16704085528
 20
54677.60118330295
 30
0.0
 40
10.5
 41
0.0
 71
     9
 72
     5
  1

1001
ACAD
1000
MTEXTBEGIN
1070
    73
1070
     1
1070
    44
1040
1.0
1070
    74
1070
     0
1000
MTEXTEND
1000
MTEXTBEGIN
1070
    73
1070
     1
1070
    44
1040
1.0
1070
    74
1070
     0
1000
MTEXTEND
  0
MTEXT
  5
562C
330
1A
100
AcDbEntity
  8
SUNPOU
100
AcDbMText
 10
82982.92575818527
 20
72144.17723579499
 30
0.0
 40
10.5
 41
0.0
 71
     9
 72
     5
  1

1001
ACAD
1000
MTEXTBEGIN
1070
    73
1070
     1
1070
    44
1040
1.0
1070
    74
1070
     0
1000
MTEXTEND
1000
MTEXTBEGIN
1070
    73
1070
     1
1070
    44
1040
1.0
1070
    74
1070
     0
1000
MTEXTEND
  0
MTEXT
  5
562D
330
1A
100
AcDbEntity
  8
SUNPOU
100
AcDbMText
 10
84926.33300489467
 20
70343.12815591698
 30
0.0
 40
3.5
 41
0.0
 71
     9
 72
     5
  1

1001
ACAD
1000
MTEXTBEGIN
1070
    73
1070
     1
1070
    44
1040
1.0
1070
    74
1070
     0
1000
MTEXTEND
1000
MTEXTBEGIN
1070
    73
1070
     1
1070
    44
1040
1.0
1070
    74
1070
     0
1000
MTEXTEND
  0
MTEXT
  5
562E
330
1A
100
AcDbEntity
  8
SUNPOU
100
AcDbMText
 10
116052.5128375143
 20
112838.0738235743
 30
0.0
 40
10.5
 41
0.0
 71
     9
 72
     5
  1

1001
ACAD
1000
MTEXTBEGIN
1070
    73
1070
     1
1070
    44
1040
1.0
1070
    74
1070
     0
1000
MTEXTEND
1000
MTEXTBEGIN
1070
    73
1070
     1
1070
    44
1040
1.0
1070
    74
1070
     0
1000
MTEXTEND
  0
MTEXT
  5
562F
330
1A
100
AcDbEntity
  8
SUNPOU
100
AcDbMText
 10
117995.9200842238
 20
111037.0247436963
 30
0.0
 40
3.5
 41
0.0
 71
     9
 72
     5
  1

1001
ACAD
1000
MTEXTBEGIN
1070
    73
1070
     1
1070
    44
1040
1.0
1070
    74
1070
     0
1000
MTEXTEND
1000
MTEXTBEGIN
1070
    73
1070
     1
1070
    44
1040
1.0
1070
    74
1070
     0
1000
MTEXTEND
  0
MTEXT
  5
5630
330
1A
100
AcDbEntity
  8
SUNPOU
100
AcDbMText
 10
66492.78054330994
 20
58671.23897854939
 30
0.0
 40
10.5
 41
0.0
 71
     9
 72
     5
  1

1001
ACAD
1000
MTEXTBEGIN
1070
    73
1070
     1
1070
    44
1040
1.0
1070
    74
1070
     0
1000
MTEXTEND
1000
MTEXTBEGIN
1070
    73
1070
     1
1070
    44
1040
1.0
1070
    74
1070
     0
1000
MTEXTEND
  0
MTEXT
  5
5631
330
1A
100
AcDbEntity
  8
SUNPOU
100
AcDbMText
 10
52544.78044293396
 20
39498.83983943717
 30
0.0
 40
3.5
 41
0.0
 71
     7
 72
     5
  1

1001
ACAD
1000
MTEXTBEGIN
1070
    73
1070
     1
1070
    44
1040
1.0
1070
    74
1070
     0
1000
MTEXTEND
1000
MTEXTBEGIN
1070
    73
1070
     1
1070
    44
1040
1.0
1070
    74
1070
     0
1000
MTEXTEND
  0
MTEXT
  5
5632
330
1A
100
AcDbEntity
  8
SUNPOU
100
AcDbMText
 10
66237.13112570454
 20
48857.90306045851
 30
0.0
 40
10.5
 41
0.0
 71
     9
 72
     5
  1

1001
ACAD
1000
MTEXTBEGIN
1070
    73
1070
     1
1070
    44
1040
1.0
1070
    74
1070
     0
1000
MTEXTEND
1000
MTEXTBEGIN
1070
    73
1070
     1
1070
    44
1040
1.0
1070
    74
1070
     0
1000
MTEXTEND
  0
MTEXT
  5
5633
330
1A
100
AcDbEntity
  8
SUNPOU
100
AcDbMText
 10
74959.29869162252
 20
56273.737591996
 30
0.0
 40
10.5
 41
0.0
 71
     9
 72
     5
  1

1001
ACAD
1000
MTEXTBEGIN
1070
    73
1070
     1
1070
    44
1040
1.0
1070
    74
1070
     0
1000
MTEXTEND
1000
MTEXTBEGIN
1070
    73
1070
     1
1070
    44
1040
1.0
1070
    74
1070
     0
1000
MTEXTEND
  0
MTEXT
  5
5634
330
1A
100
AcDbEntity
  8
SUNPOU
100
AcDbMText
 10
93913.0574089525
 20
73740.31364448805
 30
0.0
 40
10.5
 41
0.0
 71
     9
 72
     5
  1

1001
ACAD
1000
MTEXTBEGIN
1070
    73
1070
     1
1070
    44
1040
1.0
1070
    74
1070
     0
1000
MTEXTEND
1000
MTEXTBEGIN
1070
    73
1070
     1
1070
    44
1040
1.0
1070
    74
1070
     0
1000
MTEXTEND
  0
MTEXT
  5
5635
330
1A
100
AcDbEntity
  8
SUNPOU
100
AcDbMText
 10
95856.46465566192
 20
71939.26456461004
 30
0.0
 40
3.5
 41
0.0
 71
     9
 72
     5
  1

1001
ACAD
1000
MTEXTBEGIN
1070
    73
1070
     1
1070
    44
1040
1.0
1070
    74
1070
     0
1000
MTEXTEND
1000
MTEXTBEGIN
1070
    73
1070
     1
1070
    44
1040
1.0
1070
    74
1070
     0
1000
MTEXTEND
  0
MTEXT
  5
5636
330
1A
100
AcDbEntity
  8
SUNPOU
100
AcDbMText
 10
126982.6444882816
 20
114434.2102322673
 30
0.0
 40
10.5
 41
0.0
 71
     9
 72
     5
  1

1001
ACAD
1000
MTEXTBEGIN
1070
    73
1070
     1
1070
    44
1040
1.0
1070
    74
1070
     0
1000
MTEXTEND
1000
MTEXTBEGIN
1070
    73
1070
     1
1070
    44
1040
1.0
1070
    74
1070
     0
1000
MTEXTEND
  0
MTEXT
  5
5637
330
1A
100
AcDbEntity
  8
SUNPOU
100
AcDbMText
 10
128926.051734991
 20
112633.1611523893
 30
0.0
 40
3.5
 41
0.0
 71
     9
 72
     5
  1

1001
ACAD
1000
MTEXTBEGIN
1070
    73
1070
     1
1070
    44
1040
1.0
1070
    74
1070
     0
1000
MTEXTEND
1000
MTEXTBEGIN
1070
    73
1070
     1
1070
    44
1040
1.0
1070
    74
1070
     0
1000
MTEXTEND
  0
MTEXT
  5
5638
330
1A
100
AcDbEntity
  8
SUNPOU
100
AcDbMText
 10
77422.91219407717
 20
60267.37538724244
 30
0.0
 40
10.5
 41
0.0
 71
     9
 72
     5
  1

1001
ACAD
1000
MTEXTBEGIN
1070
    73
1070
     1
1070
    44
1040
1.0
1070
    74
1070
     0
1000
MTEXTEND
1000
MTEXTBEGIN
1070
    73
1070
     1
1070
    44
1040
1.0
1070
    74
1070
     0
1000
MTEXTEND
  0
MTEXT
  5
5639
330
1A
100
AcDbEntity
  8
SUNPOU
100
AcDbMText
 10
63474.91209370119
 20
41094.97624813023
 30
0.0
 40
3.5
 41
0.0
 71
     7
 72
     5
  1

1001
ACAD
1000
MTEXTBEGIN
1070
    73
1070
     1
1070
    44
1040
1.0
1070
    74
1070
     0
1000
MTEXTEND
1000
MTEXTBEGIN
1070
    73
1070
     1
1070
    44
1040
1.0
1070
    74
1070
     0
1000
MTEXTEND
  0
MTEXT
  5
563A
330
1A
100
AcDbEntity
  8
SUNPOU
100
AcDbMText
 10
48117.65086229006
 20
40806.11043916631
 30
0.0
 40
10.5
 41
0.0
 71
     9
 72
     5
  1

1001
ACAD
1000
MTEXTBEGIN
1070
    73
1070
     1
1070
    44
1040
1.0
1070
    74
1070
     0
1000
MTEXTEND
1000
MTEXTBEGIN
1070
    73
1070
     1
1070
    44
1040
1.0
1070
    74
1070
     0
1000
MTEXTEND
  0
MTEXT
  5
563B
330
1A
100
AcDbEntity
  8
SUNPOU
100
AcDbMText
 10
67071.40957962004
 20
58272.68649165837
 30
0.0
 40
10.5
 41
0.0
 71
     9
 72
     5
  1

1001
ACAD
1000
MTEXTBEGIN
1070
    73
1070
     1
1070
    44
1040
1.0
1070
    74
1070
     0
1000
MTEXTEND
1000
MTEXTBEGIN
1070
    73
1070
     1
1070
    44
1040
1.0
1070
    74
1070
     0
1000
MTEXTEND
  0
MTEXT
  5
563C
330
1A
100
AcDbEntity
  8
SUNPOU
100
AcDbMText
 10
69014.81682632945
 20
56471.63741178035
 30
0.0
 40
3.5
 41
0.0
 71
     9
 72
     5
  1

1001
ACAD
1000
MTEXTBEGIN
1070
    73
1070
     1
1070
    44
1040
1.0
1070
    74
1070
     0
1000
MTEXTEND
1000
MTEXTBEGIN
1070
    73
1070
     1
1070
    44
1040
1.0
1070
    74
1070
     0
1000
MTEXTEND
  0
MTEXT
  5
563D
330
1A
100
AcDbEntity
  8
SUNPOU
100
AcDbMText
 10
100140.9966589491
 20
98966.58307943772
 30
0.0
 40
10.5
 41
0.0
 71
     9
 72
     5
  1

1001
ACAD
1000
MTEXTBEGIN
1070
    73
1070
     1
1070
    44
1040
1.0
1070
    74
1070
     0
1000
MTEXTEND
1000
MTEXTBEGIN
1070
    73
1070
     1
1070
    44
1040
1.0
1070
    74
1070
     0
1000
MTEXTEND
  0
MTEXT
  5
563E
330
1A
100
AcDbEntity
  8
SUNPOU
100
AcDbMText
 10
102084.4039056586
 20
97165.53399955969
 30
0.0
 40
3.5
 41
0.0
 71
     9
 72
     5
  1

1001
ACAD
1000
MTEXTBEGIN
1070
    73
1070
     1
1070
    44
1040
1.0
1070
    74
1070
     0
1000
MTEXTEND
1000
MTEXTBEGIN
1070
    73
1070
     1
1070
    44
1040
1.0
1070
    74
1070
     0
1000
MTEXTEND
  0
MTEXT
  5
563F
330
1A
100
AcDbEntity
  8
SUNPOU
100
AcDbMText
 10
50581.26436474472
 20
44799.74823441275
 30
0.0
 40
10.5
 41
0.0
 71
     9
 72
     5
  1

1001
ACAD
1000
MTEXTBEGIN
1070
    73
1070
     1
1070
    44
1040
1.0
1070
    74
1070
     0
1000
MTEXTEND
1000
MTEXTBEGIN
1070
    73
1070
     1
1070
    44
1040
1.0
1070
    74
1070
     0
1000
MTEXTEND
  0
MTEXT
  5
5640
330
1A
100
AcDbEntity
  8
SUNPOU
100
AcDbMText
 10
36633.26426436873
 20
25627.34909530054
 30
0.0
 40
3.5
 41
0.0
 71
     7
 72
     5
  1

1001
ACAD
1000
MTEXTBEGIN
1070
    73
1070
     1
1070
    44
1040
1.0
1070
    74
1070
     0
1000
MTEXTEND
1000
MTEXTBEGIN
1070
    73
1070
     1
1070
    44
1040
1.0
1070
    74
1070
     0
1000
MTEXTEND
  0
MTEXT
  5
5641
330
1A
100
AcDbEntity
  8
SUNPOU
100
AcDbMText
 10
61069.42493315968
 20
52574.61207825771
 30
0.0
 40
10.5
 41
0.0
 71
     9
 72
     5
  1

1001
ACAD
1000
MTEXTBEGIN
1070
    73
1070
     1
1070
    44
1040
1.0
1070
    74
1070
     0
1000
MTEXTEND
1000
MTEXTBEGIN
1070
    73
1070
     1
1070
    44
1040
1.0
1070
    74
1070
     0
1000
MTEXTEND
  0
MTEXT
  5
5642
330
1A
100
AcDbEntity
  8
SUNPOU
100
AcDbMText
 10
80023.18365048967
 20
70041.18813074978
 30
0.0
 40
10.5
 41
0.0
 71
     9
 72
     5
  1

1001
ACAD
1000
MTEXTBEGIN
1070
    73
1070
     1
1070
    44
1040
1.0
1070
    74
1070
     0
1000
MTEXTEND
1000
MTEXTBEGIN
1070
    73
1070
     1
1070
    44
1040
1.0
1070
    74
1070
     0
1000
MTEXTEND
  0
MTEXT
  5
5643
330
1A
100
AcDbEntity
  8
SUNPOU
100
AcDbMText
 10
81966.59089719908
 20
68240.13905087176
 30
0.0
 40
3.5
 41
0.0
 71
     9
 72
     5
  1

1001
ACAD
1000
MTEXTBEGIN
1070
    73
1070
     1
1070
    44
1040
1.0
1070
    74
1070
     0
1000
MTEXTEND
1000
MTEXTBEGIN
1070
    73
1070
     1
1070
    44
1040
1.0
1070
    74
1070
     0
1000
MTEXTEND
  0
MTEXT
  5
5644
330
1A
100
AcDbEntity
  8
SUNPOU
100
AcDbMText
 10
113092.7707298187
 20
110735.0847185291
 30
0.0
 40
10.5
 41
0.0
 71
     9
 72
     5
  1

1001
ACAD
1000
MTEXTBEGIN
1070
    73
1070
     1
1070
    44
1040
1.0
1070
    74
1070
     0
1000
MTEXTEND
1000
MTEXTBEGIN
1070
    73
1070
     1
1070
    44
1040
1.0
1070
    74
1070
     0
1000
MTEXTEND
  0
MTEXT
  5
5645
330
1A
100
AcDbEntity
  8
SUNPOU
100
AcDbMText
 10
115036.1779765282
 20
108934.0356386511
 30
0.0
 40
3.5
 41
0.0
 71
     9
 72
     5
  1

1001
ACAD
1000
MTEXTBEGIN
1070
    73
1070
     1
1070
    44
1040
1.0
1070
    74
1070
     0
1000
MTEXTEND
1000
MTEXTBEGIN
1070
    73
1070
     1
1070
    44
1040
1.0
1070
    74
1070
     0
1000
MTEXTEND
  0
MTEXT
  5
5646
330
1A
100
AcDbEntity
  8
SUNPOU
100
AcDbMText
 10
63533.03843561433
 20
56568.24987350415
 30
0.0
 40
10.5
 41
0.0
 71
     9
 72
     5
  1

1001
ACAD
1000
MTEXTBEGIN
1070
    73
1070
     1
1070
    44
1040
1.0
1070
    74
1070
     0
1000
MTEXTEND
1000
MTEXTBEGIN
1070
    73
1070
     1
1070
    44
1040
1.0
1070
    74
1070
     0
1000
MTEXTEND
  0
MTEXT
  5
5647
330
1A
100
AcDbEntity
  8
SUNPOU
100
AcDbMText
 10
49585.03833523835
 20
37395.85073439196
 30
0.0
 40
3.5
 41
0.0
 71
     7
 72
     5
  1

1001
ACAD
1000
MTEXTBEGIN
1070
    73
1070
     1
1070
    44
1040
1.0
1070
    74
1070
     0
1000
MTEXTEND
1000
MTEXTBEGIN
1070
    73
1070
     1
1070
    44
1040
1.0
1070
    74
1070
     0
1000
MTEXTEND
  0
MTEXT
  5
5648
330
1A
100
AcDbEntity
  8
SUNPOU
100
AcDbMText
 10
77137.31641337052
 20
70907.11375048141
 30
0.0
 40
10.5
 41
0.0
 71
     9
 72
     5
  1

1001
ACAD
1000
MTEXTBEGIN
1070
    73
1070
     1
1070
    44
1040
1.0
1070
    74
1070
     0
1000
MTEXTEND
1000
MTEXTBEGIN
1070
    73
1070
     1
1070
    44
1040
1.0
1070
    74
1070
     0
1000
MTEXTEND
  0
MTEXT
  5
5649
330
1A
100
AcDbEntity
  8
SUNPOU
100
AcDbMText
 10
79080.72366007995
 20
69106.06467060339
 30
0.0
 40
3.5
 41
0.0
 71
     9
 72
     5
  1

1001
ACAD
1000
MTEXTBEGIN
1070
    73
1070
     1
1070
    44
1040
1.0
1070
    74
1070
     0
1000
MTEXTEND
1000
MTEXTBEGIN
1070
    73
1070
     1
1070
    44
1040
1.0
1070
    74
1070
     0
1000
MTEXTEND
  0
MTEXT
  5
564A
330
1A
100
AcDbEntity
  8
SUNPOU
100
AcDbMText
 10
110206.9034926996
 20
111601.0103382607
 30
0.0
 40
10.5
 41
0.0
 71
     9
 72
     5
  1

1001
ACAD
1000
MTEXTBEGIN
1070
    73
1070
     1
1070
    44
1040
1.0
1070
    74
1070
     0
1000
MTEXTEND
1000
MTEXTBEGIN
1070
    73
1070
     1
1070
    44
1040
1.0
1070
    74
1070
     0
1000
MTEXTEND
  0
MTEXT
  5
564B
330
1A
100
AcDbEntity
  8
SUNPOU
100
AcDbMText
 10
112150.310739409
 20
109799.9612583827
 30
0.0
 40
3.5
 41
0.0
 71
     9
 72
     5
  1

1001
ACAD
1000
MTEXTBEGIN
1070
    73
1070
     1
1070
    44
1040
1.0
1070
    74
1070
     0
1000
MTEXTEND
1000
MTEXTBEGIN
1070
    73
1070
     1
1070
    44
1040
1.0
1070
    74
1070
     0
1000
MTEXTEND
  0
MTEXT
  5
564C
330
1A
100
AcDbEntity
  8
SUNPOU
100
AcDbMText
 10
108819.1333204968
 20
110677.9087286761
 30
0.0
 40
10.5
 41
0.0
 71
     9
 72
     5
  1

1001
ACAD
1000
MTEXTBEGIN
1070
    73
1070
     1
1070
    44
1040
1.0
1070
    74
1070
     0
1000
MTEXTEND
1000
MTEXTBEGIN
1070
    73
1070
     1
1070
    44
1040
1.0
1070
    74
1070
     0
1000
MTEXTEND
  0
MTEXT
  5
564D
330
1A
100
AcDbEntity
  8
SUNPOU
100
AcDbMText
 10
110762.5405672062
 20
108876.8596487981
 30
0.0
 40
3.5
 41
0.0
 71
     9
 72
     5
  1

1001
ACAD
1000
MTEXTBEGIN
1070
    73
1070
     1
1070
    44
1040
1.0
1070
    74
1070
     0
1000
MTEXTEND
1000
MTEXTBEGIN
1070
    73
1070
     1
1070
    44
1040
1.0
1070
    74
1070
     0
1000
MTEXTEND
  0
MTEXT
  5
564E
330
1A
100
AcDbEntity
  8
SUNPOU
100
AcDbMText
 10
76303.05507956816
 20
68695.31179059812
 30
0.0
 40
10.5
 41
0.0
 71
     9
 72
     5
  1

1001
ACAD
1000
MTEXTBEGIN
1070
    73
1070
     1
1070
    44
1040
1.0
1070
    74
1070
     0
1000
MTEXTEND
1000
MTEXTBEGIN
1070
    73
1070
     1
1070
    44
1040
1.0
1070
    74
1070
     0
1000
MTEXTEND
  0
MTEXT
  5
564F
330
1A
100
AcDbEntity
  8
SUNPOU
100
AcDbMText
 10
79026.36128373271
 20
69099.99348217918
 30
0.0
 40
3.5
 41
0.0
 71
     9
 72
     5
  1

1001
ACAD
1000
MTEXTBEGIN
1070
    73
1070
     1
1070
    44
1040
1.0
1070
    74
1070
     0
1000
MTEXTEND
1000
MTEXTBEGIN
1070
    73
1070
     1
1070
    44
1040
1.0
1070
    74
1070
     0
1000
MTEXTEND
  0
MTEXT
  5
5650
330
1A
100
AcDbEntity
  8
SUNPOU
100
AcDbMText
 10
78234.00675862522
 20
65938.68764412436
 30
0.0
 40
10.5
 41
0.0
 71
     9
 72
     5
  1

1001
ACAD
1000
MTEXTBEGIN
1070
    73
1070
     1
1070
    44
1040
1.0
1070
    74
1070
     0
1000
MTEXTEND
1000
MTEXTBEGIN
1070
    73
1070
     1
1070
    44
1040
1.0
1070
    74
1070
     0
1000
MTEXTEND
  0
MTEXT
  5
5651
330
1A
100
AcDbEntity
  8
SUNPOU
100
AcDbMText
 10
80177.41400533465
 20
64137.63856424636
 30
0.0
 40
3.5
 41
0.0
 71
     9
 72
     5
  1

1001
ACAD
1000
MTEXTBEGIN
1070
    73
1070
     1
1070
    44
1040
1.0
1070
    74
1070
     0
1000
MTEXTEND
1000
MTEXTBEGIN
1070
    73
1070
     1
1070
    44
1040
1.0
1070
    74
1070
     0
1000
MTEXTEND
  0
MTEXT
  5
5652
330
1A
100
AcDbEntity
  8
SUNPOU
100
AcDbMText
 10
80122.50949592123
 20
64024.86668196205
 30
0.0
 40
3.5
 41
0.0
 71
     9
 72
     5
  1

1001
ACAD
1000
MTEXTBEGIN
1070
    73
1070
     1
1070
    44
1040
1.0
1070
    74
1070
     0
1000
MTEXTEND
1000
MTEXTBEGIN
1070
    73
1070
     1
1070
    44
1040
1.0
1070
    74
1070
     0
1000
MTEXTEND
  0
MTEXT
  5
5653
330
1A
100
AcDbEntity
  8
SUNPOU
100
AcDbMText
 10
79486.58135950133
 20
63213.54544089553
 30
0.0
 40
3.5
 41
0.0
 71
     9
 72
     5
  1

1001
ACAD
1000
MTEXTBEGIN
1070
    73
1070
     1
1070
    44
1040
1.0
1070
    74
1070
     0
1000
MTEXTEND
1000
MTEXTBEGIN
1070
    73
1070
     1
1070
    44
1040
1.0
1070
    74
1070
     0
1000
MTEXTEND
  0
MTEXT
  5
5654
330
1A
100
AcDbEntity
  8
SUNPOU
100
AcDbMText
 10
79485.3409400806
 20
63213.29746395804
 30
0.0
 40
10.5
 41
0.0
 71
     9
 72
     5
  1

1001
ACAD
1000
MTEXTBEGIN
1070
    73
1070
     1
1070
    44
1040
1.0
1070
    74
1070
     0
1000
MTEXTEND
1000
MTEXTBEGIN
1070
    73
1070
     1
1070
    44
1040
1.0
1070
    74
1070
     0
1000
MTEXTEND
  0
MTEXT
  5
5655
330
1A
100
AcDbEntity
  8
SUNPOU
100
AcDbMText
 10
85473.63363627567
 20
80747.76348077064
 30
0.0
 40
10.5
 41
0.0
 71
     9
 72
     5
  1

1001
ACAD
1000
MTEXTBEGIN
1070
    73
1070
     1
1070
    44
1040
1.0
1070
    74
1070
     0
1000
MTEXTEND
1000
MTEXTBEGIN
1070
    73
1070
     1
1070
    44
1040
1.0
1070
    74
1070
     0
1000
MTEXTEND
  0
MTEXT
  5
5656
330
1A
100
AcDbEntity
  8
SUNPOU
100
AcDbMText
 10
94195.80120219368
 20
88163.59801230809
 30
0.0
 40
10.5
 41
0.0
 71
     9
 72
     5
  1

1001
ACAD
1000
MTEXTBEGIN
1070
    73
1070
     1
1070
    44
1040
1.0
1070
    74
1070
     0
1000
MTEXTEND
1000
MTEXTBEGIN
1070
    73
1070
     1
1070
    44
1040
1.0
1070
    74
1070
     0
1000
MTEXTEND
  0
MTEXT
  5
5657
330
1A
100
AcDbEntity
  8
SUNPOU
100
AcDbMText
 10
113149.5599195236
 20
105630.1740648001
 30
0.0
 40
10.5
 41
0.0
 71
     9
 72
     5
  1

1001
ACAD
1000
MTEXTBEGIN
1070
    73
1070
     1
1070
    44
1040
1.0
1070
    74
1070
     0
1000
MTEXTEND
1000
MTEXTBEGIN
1070
    73
1070
     1
1070
    44
1040
1.0
1070
    74
1070
     0
1000
MTEXTEND
  0
MTEXT
  5
5658
330
1A
100
AcDbEntity
  8
SUNPOU
100
AcDbMText
 10
115092.967166233
 20
103829.1249849221
 30
0.0
 40
3.5
 41
0.0
 71
     9
 72
     5
  1

1001
ACAD
1000
MTEXTBEGIN
1070
    73
1070
     1
1070
    44
1040
1.0
1070
    74
1070
     0
1000
MTEXTEND
1000
MTEXTBEGIN
1070
    73
1070
     1
1070
    44
1040
1.0
1070
    74
1070
     0
1000
MTEXTEND
  0
MTEXT
  5
5659
330
1A
100
AcDbEntity
  8
SUNPOU
100
AcDbMText
 10
146219.1469988527
 20
146324.0706525794
 30
0.0
 40
10.5
 41
0.0
 71
     9
 72
     5
  1

1001
ACAD
1000
MTEXTBEGIN
1070
    73
1070
     1
1070
    44
1040
1.0
1070
    74
1070
     0
1000
MTEXTEND
1000
MTEXTBEGIN
1070
    73
1070
     1
1070
    44
1040
1.0
1070
    74
1070
     0
1000
MTEXTEND
  0
MTEXT
  5
565A
330
1A
100
AcDbEntity
  8
SUNPOU
100
AcDbMText
 10
148162.5542455621
 20
144523.0215727014
 30
0.0
 40
3.5
 41
0.0
 71
     9
 72
     5
  1

1001
ACAD
1000
MTEXTBEGIN
1070
    73
1070
     1
1070
    44
1040
1.0
1070
    74
1070
     0
1000
MTEXTEND
1000
MTEXTBEGIN
1070
    73
1070
     1
1070
    44
1040
1.0
1070
    74
1070
     0
1000
MTEXTEND
  0
MTEXT
  5
565B
330
1A
100
AcDbEntity
  8
SUNPOU
100
AcDbMText
 10
96659.41470464833
 20
92157.23580755453
 30
0.0
 40
10.5
 41
0.0
 71
     9
 72
     5
  1

1001
ACAD
1000
MTEXTBEGIN
1070
    73
1070
     1
1070
    44
1040
1.0
1070
    74
1070
     0
1000
MTEXTEND
1000
MTEXTBEGIN
1070
    73
1070
     1
1070
    44
1040
1.0
1070
    74
1070
     0
1000
MTEXTEND
  0
MTEXT
  5
565C
330
1A
100
AcDbEntity
  8
SUNPOU
100
AcDbMText
 10
82711.41460427234
 20
72984.83666844234
 30
0.0
 40
3.5
 41
0.0
 71
     7
 72
     5
  1

1001
ACAD
1000
MTEXTBEGIN
1070
    73
1070
     1
1070
    44
1040
1.0
1070
    74
1070
     0
1000
MTEXTEND
1000
MTEXTBEGIN
1070
    73
1070
     1
1070
    44
1040
1.0
1070
    74
1070
     0
1000
MTEXTEND
  0
MTEXT
  5
565D
330
1A
100
AcDbEntity
  8
SUNPOU
100
AcDbMText
 10
63696.58400126548
 20
60746.98539926055
 30
0.0
 40
10.5
 41
0.0
 71
     7
 72
     5
  1

1001
ACAD
1000
MTEXTBEGIN
1070
    73
1070
     1
1070
    44
1040
1.0
1070
    74
1070
     0
1000
MTEXTEND
1000
MTEXTBEGIN
1070
    73
1070
     1
1070
    44
1040
1.0
1070
    74
1070
     0
1000
MTEXTEND
  0
MTEXT
  5
565E
330
1A
100
AcDbEntity
  8
SUNPOU
100
AcDbMText
 10
51239.35573631738
 20
44902.05382116213
 30
0.0
 40
35.0
 41
0.0
 71
     9
 72
     5
  1

1001
ACAD
1000
MTEXTBEGIN
1070
    73
1070
     1
1070
    44
1040
1.0
1070
    74
1070
     0
1000
MTEXTEND
1000
MTEXTBEGIN
1070
    73
1070
     1
1070
    44
1040
1.0
1070
    74
1070
     0
1000
MTEXTEND
  0
MTEXT
  5
565F
330
1A
100
AcDbEntity
  8
SUNPOU
100
AcDbMText
 10
50147.84079389233
 20
45510.82923121084
 30
0.0
 40
350.0000004171781
 41
0.0
 71
     7
 72
     5
  1

1001
ACAD
1000
MTEXTBEGIN
1070
    73
1070
     1
1070
    44
1040
1.0
1070
    74
1070
     0
1000
MTEXTEND
1000
MTEXTBEGIN
1070
    73
1070
     1
1070
    44
1040
1.0
1070
    74
1070
     0
1000
MTEXTEND
  0
MTEXT
  5
5660
330
1A
100
AcDbEntity
  8
0
100
AcDbMText
 10
56191.79155183523
 20
43490.75159334705
 30
0.0
 40
8.0
 41
0.0
 71
     7
 72
     5
  1

1001
ACAD
1000
MTEXTBEGIN
1070
    73
1070
     1
1070
    44
1040
1.0
1070
    74
1070
     0
1000
MTEXTEND
1000
MTEXTBEGIN
1070
    73
1070
     1
1070
    44
1040
1.0
1070
    74
1070
     0
1000
MTEXTEND
  0
MTEXT
  5
5661
330
1A
100
AcDbEntity
  8
0
100
AcDbMText
 10
58477.14924173013
 20
44461.54188809812
 30
0.0
 40
8.0
 41
0.0
 71
     7
 72
     5
  1

1001
ACAD
1000
MTEXTBEGIN
1070
    73
1070
     1
1070
    44
1040
1.0
1070
    74
1070
     0
1000
MTEXTEND
1000
MTEXTBEGIN
1070
    73
1070
     1
1070
    44
1040
1.0
1070
    74
1070
     0
1000
MTEXTEND
  0
MTEXT
  5
5662
330
1A
100
AcDbEntity
  8
SUNPOU
100
AcDbMText
 10
61143.04626241227
 20
53973.65328047324
 30
0.0
 40
10.5
 41
0.0
 71
     1
 72
     5
  1

1001
ACAD
1000
MTEXTBEGIN
1070
    73
1070
     1
1070
    44
1040
1.0
1070
    74
1070
     0
1000
MTEXTEND
1000
MTEXTBEGIN
1070
    73
1070
     1
1070
    44
1040
1.0
1070
    74
1070
     0
1000
MTEXTEND
  0
MTEXT
  5
5663
330
1A
100
AcDbEntity
  8
SUNPOU
100
AcDbMText
 10
53212.12306647634
 20
53026.86014656028
 30
0.0
 40
10.5
 41
0.0
 71
     7
 72
     5
  1

1001
ACAD
1000
MTEXTBEGIN
1070
    73
1070
     1
1070
    44
1040
1.0
1070
    74
1070
     0
1000
MTEXTEND
1000
MTEXTBEGIN
1070
    73
1070
     1
1070
    44
1040
1.0
1070
    74
1070
     0
1000
MTEXTEND
  0
MTEXT
  5
5664
330
1A
100
AcDbEntity
  8
SUNPOU
100
AcDbMText
 10
56161.1067309891
 20
57927.53621840312
 30
0.0
 40
10.5
 41
0.0
 71
     7
 72
     5
  1

1001
ACAD
1000
MTEXTBEGIN
1070
    73
1070
     1
1070
    44
1040
1.0
1070
    74
1070
     0
1000
MTEXTEND
1000
MTEXTBEGIN
1070
    73
1070
     1
1070
    44
1040
1.0
1070
    74
1070
     0
1000
MTEXTEND
  0
MTEXT
  5
5665
330
1A
100
AcDbEntity
  8
SUNPOU
100
AcDbMText
 10
60670.18485893966
 20
60363.8369660232
 30
0.0
 40
10.5
 41
0.0
 71
     7
 72
     5
  1

1001
ACAD
1000
MTEXTBEGIN
1070
    73
1070
     1
1070
    44
1040
1.0
1070
    74
1070
     0
1000
MTEXTEND
1000
MTEXTBEGIN
1070
    73
1070
     1
1070
    44
1040
1.0
1070
    74
1070
     0
1000
MTEXTEND
  0
MTEXT
  5
5666
330
1A
100
AcDbEntity
  8
SUNPOU
100
AcDbMText
 10
44271.02274570799
 20
39361.43311641212
 30
0.0
 40
10.5
 41
0.0
 71
     7
 72
     5
  1

1001
ACAD
1000
MTEXTBEGIN
1070
    73
1070
     1
1070
    44
1040
1.0
1070
    74
1070
     0
1000
MTEXTEND
1000
MTEXTBEGIN
1070
    73
1070
     1
1070
    44
1040
1.0
1070
    74
1070
     0
1000
MTEXTEND
  0
MTEXT
  5
5667
330
1A
100
AcDbEntity
  8
SUNPOU
100
AcDbMText
 10
95462.54117960824
 20
85034.41368006038
 30
0.0
 40
10.5
 41
0.0
 71
     9
 72
     5
  1

1001
ACAD
1000
MTEXTBEGIN
1070
    73
1070
     1
1070
    44
1040
1.0
1070
    74
1070
     0
1000
MTEXTEND
1000
MTEXTBEGIN
1070
    73
1070
     1
1070
    44
1040
1.0
1070
    74
1070
     0
1000
MTEXTEND
  0
MTEXT
  5
5668
330
1A
100
AcDbEntity
  8
SUNPOU
100
AcDbMText
 10
104184.7087455262
 20
92450.24821159784
 30
0.0
 40
10.5
 41
0.0
 71
     9
 72
     5
  1

1001
ACAD
1000
MTEXTBEGIN
1070
    73
1070
     1
1070
    44
1040
1.0
1070
    74
1070
     0
1000
MTEXTEND
1000
MTEXTBEGIN
1070
    73
1070
     1
1070
    44
1040
1.0
1070
    74
1070
     0
1000
MTEXTEND
  0
MTEXT
  5
5669
330
1A
100
AcDbEntity
  8
SUNPOU
100
AcDbMText
 10
123138.4674628562
 20
109916.8242640898
 30
0.0
 40
10.5
 41
0.0
 71
     9
 72
     5
  1

1001
ACAD
1000
MTEXTBEGIN
1070
    73
1070
     1
1070
    44
1040
1.0
1070
    74
1070
     0
1000
MTEXTEND
1000
MTEXTBEGIN
1070
    73
1070
     1
1070
    44
1040
1.0
1070
    74
1070
     0
1000
MTEXTEND
  0
MTEXT
  5
566A
330
1A
100
AcDbEntity
  8
SUNPOU
100
AcDbMText
 10
125081.8747095656
 20
108115.7751842118
 30
0.0
 40
3.5
 41
0.0
 71
     9
 72
     5
  1

1001
ACAD
1000
MTEXTBEGIN
1070
    73
1070
     1
1070
    44
1040
1.0
1070
    74
1070
     0
1000
MTEXTEND
1000
MTEXTBEGIN
1070
    73
1070
     1
1070
    44
1040
1.0
1070
    74
1070
     0
1000
MTEXTEND
  0
MTEXT
  5
566B
330
1A
100
AcDbEntity
  8
SUNPOU
100
AcDbMText
 10
156208.0545421853
 20
150610.7208518691
 30
0.0
 40
10.5
 41
0.0
 71
     9
 72
     5
  1

1001
ACAD
1000
MTEXTBEGIN
1070
    73
1070
     1
1070
    44
1040
1.0
1070
    74
1070
     0
1000
MTEXTEND
1000
MTEXTBEGIN
1070
    73
1070
     1
1070
    44
1040
1.0
1070
    74
1070
     0
1000
MTEXTEND
  0
MTEXT
  5
566C
330
1A
100
AcDbEntity
  8
SUNPOU
100
AcDbMText
 10
158151.4617888947
 20
148809.6717719911
 30
0.0
 40
3.5
 41
0.0
 71
     9
 72
     5
  1

1001
ACAD
1000
MTEXTBEGIN
1070
    73
1070
     1
1070
    44
1040
1.0
1070
    74
1070
     0
1000
MTEXTEND
1000
MTEXTBEGIN
1070
    73
1070
     1
1070
    44
1040
1.0
1070
    74
1070
     0
1000
MTEXTEND
  0
MTEXT
  5
566D
330
1A
100
AcDbEntity
  8
SUNPOU
100
AcDbMText
 10
106648.3222479809
 20
96443.88600684427
 30
0.0
 40
10.5
 41
0.0
 71
     9
 72
     5
  1

1001
ACAD
1000
MTEXTBEGIN
1070
    73
1070
     1
1070
    44
1040
1.0
1070
    74
1070
     0
1000
MTEXTEND
1000
MTEXTBEGIN
1070
    73
1070
     1
1070
    44
1040
1.0
1070
    74
1070
     0
1000
MTEXTEND
  0
MTEXT
  5
566E
330
1A
100
AcDbEntity
  8
SUNPOU
100
AcDbMText
 10
92700.3221476049
 20
77271.48686773207
 30
0.0
 40
3.5
 41
0.0
 71
     7
 72
     5
  1

1001
ACAD
1000
MTEXTBEGIN
1070
    73
1070
     1
1070
    44
1040
1.0
1070
    74
1070
     0
1000
MTEXTEND
1000
MTEXTBEGIN
1070
    73
1070
     1
1070
    44
1040
1.0
1070
    74
1070
     0
1000
MTEXTEND
  0
MTEXT
  5
566F
330
1A
100
AcDbEntity
  8
SUNPOU
100
AcDbMText
 10
73685.49154459806
 20
65033.63559855027
 30
0.0
 40
10.5
 41
0.0
 71
     7
 72
     5
  1

1001
ACAD
1000
MTEXTBEGIN
1070
    73
1070
     1
1070
    44
1040
1.0
1070
    74
1070
     0
1000
MTEXTEND
1000
MTEXTBEGIN
1070
    73
1070
     1
1070
    44
1040
1.0
1070
    74
1070
     0
1000
MTEXTEND
  0
MTEXT
  5
5670
330
1A
100
AcDbEntity
  8
SUNPOU
100
AcDbMText
 10
61228.26327964995
 20
49188.70402045185
 30
0.0
 40
35.0
 41
0.0
 71
     9
 72
     5
  1

1001
ACAD
1000
MTEXTBEGIN
1070
    73
1070
     1
1070
    44
1040
1.0
1070
    74
1070
     0
1000
MTEXTEND
1000
MTEXTBEGIN
1070
    73
1070
     1
1070
    44
1040
1.0
1070
    74
1070
     0
1000
MTEXTEND
  0
MTEXT
  5
5671
330
1A
100
AcDbEntity
  8
SUNPOU
100
AcDbMText
 10
60136.74833722491
 20
49797.47943050056
 30
0.0
 40
350.0000004171781
 41
0.0
 71
     7
 72
     5
  1

1001
ACAD
1000
MTEXTBEGIN
1070
    73
1070
     1
1070
    44
1040
1.0
1070
    74
1070
     0
1000
MTEXTEND
1000
MTEXTBEGIN
1070
    73
1070
     1
1070
    44
1040
1.0
1070
    74
1070
     0
1000
MTEXTEND
  0
MTEXT
  5
5672
330
1A
100
AcDbEntity
  8
0
100
AcDbMText
 10
66180.69909516782
 20
47777.40179263678
 30
0.0
 40
8.0
 41
0.0
 71
     7
 72
     5
  1

1001
ACAD
1000
MTEXTBEGIN
1070
    73
1070
     1
1070
    44
1040
1.0
1070
    74
1070
     0
1000
MTEXTEND
1000
MTEXTBEGIN
1070
    73
1070
     1
1070
    44
1040
1.0
1070
    74
1070
     0
1000
MTEXTEND
  0
MTEXT
  5
5673
330
1A
100
AcDbEntity
  8
0
100
AcDbMText
 10
68466.05678506271
 20
48748.19208738784
 30
0.0
 40
8.0
 41
0.0
 71
     7
 72
     5
  1

1001
ACAD
1000
MTEXTBEGIN
1070
    73
1070
     1
1070
    44
1040
1.0
1070
    74
1070
     0
1000
MTEXTEND
1000
MTEXTBEGIN
1070
    73
1070
     1
1070
    44
1040
1.0
1070
    74
1070
     0
1000
MTEXTEND
  0
MTEXT
  5
5674
330
1A
100
AcDbEntity
  8
SUNPOU
100
AcDbMText
 10
71131.95380574485
 20
58260.30347976296
 30
0.0
 40
10.5
 41
0.0
 71
     1
 72
     5
  1

1001
ACAD
1000
MTEXTBEGIN
1070
    73
1070
     1
1070
    44
1040
1.0
1070
    74
1070
     0
1000
MTEXTEND
1000
MTEXTBEGIN
1070
    73
1070
     1
1070
    44
1040
1.0
1070
    74
1070
     0
1000
MTEXTEND
  0
MTEXT
  5
5675
330
1A
100
AcDbEntity
  8
SUNPOU
100
AcDbMText
 10
63201.03060980891
 20
57313.51034585002
 30
0.0
 40
10.5
 41
0.0
 71
     7
 72
     5
  1

1001
ACAD
1000
MTEXTBEGIN
1070
    73
1070
     1
1070
    44
1040
1.0
1070
    74
1070
     0
1000
MTEXTEND
1000
MTEXTBEGIN
1070
    73
1070
     1
1070
    44
1040
1.0
1070
    74
1070
     0
1000
MTEXTEND
  0
MTEXT
  5
5676
330
1A
100
AcDbEntity
  8
SUNPOU
100
AcDbMText
 10
66150.01427432169
 20
62214.18641769286
 30
0.0
 40
10.5
 41
0.0
 71
     7
 72
     5
  1

1001
ACAD
1000
MTEXTBEGIN
1070
    73
1070
     1
1070
    44
1040
1.0
1070
    74
1070
     0
1000
MTEXTEND
1000
MTEXTBEGIN
1070
    73
1070
     1
1070
    44
1040
1.0
1070
    74
1070
     0
1000
MTEXTEND
  0
MTEXT
  5
5677
330
1A
100
AcDbEntity
  8
SUNPOU
100
AcDbMText
 10
70659.09240227225
 20
64650.48716531294
 30
0.0
 40
10.5
 41
0.0
 71
     7
 72
     5
  1

1001
ACAD
1000
MTEXTBEGIN
1070
    73
1070
     1
1070
    44
1040
1.0
1070
    74
1070
     0
1000
MTEXTEND
1000
MTEXTBEGIN
1070
    73
1070
     1
1070
    44
1040
1.0
1070
    74
1070
     0
1000
MTEXTEND
  0
MTEXT
  5
5678
330
1A
100
AcDbEntity
  8
SUNPOU
100
AcDbMText
 10
54259.93028904056
 20
43648.08331570185
 30
0.0
 40
10.5
 41
0.0
 71
     7
 72
     5
  1

1001
ACAD
1000
MTEXTBEGIN
1070
    73
1070
     1
1070
    44
1040
1.0
1070
    74
1070
     0
1000
MTEXTEND
1000
MTEXTBEGIN
1070
    73
1070
     1
1070
    44
1040
1.0
1070
    74
1070
     0
1000
MTEXTEND
  0
MTEXT
  5
5679
330
1A
100
AcDbEntity
  8
SUNPOU
100
AcDbMText
 10
56070.69320041551
 20
49975.4973031804
 30
0.0
 40
10.5
 41
0.0
 71
     9
 72
     5
  1

1001
ACAD
1000
MTEXTBEGIN
1070
    73
1070
     1
1070
    44
1040
1.0
1070
    74
1070
     0
1000
MTEXTEND
1000
MTEXTBEGIN
1070
    73
1070
     1
1070
    44
1040
1.0
1070
    74
1070
     0
1000
MTEXTEND
  0
MTEXT
  5
567A
330
1A
100
AcDbEntity
  8
SUNPOU
100
AcDbMText
 10
64792.86076633348
 20
57391.33183471788
 30
0.0
 40
10.5
 41
0.0
 71
     9
 72
     5
  1

1001
ACAD
1000
MTEXTBEGIN
1070
    73
1070
     1
1070
    44
1040
1.0
1070
    74
1070
     0
1000
MTEXTEND
1000
MTEXTBEGIN
1070
    73
1070
     1
1070
    44
1040
1.0
1070
    74
1070
     0
1000
MTEXTEND
  0
MTEXT
  5
567B
330
1A
100
AcDbEntity
  8
SUNPOU
100
AcDbMText
 10
83746.61948366345
 20
74857.90788720994
 30
0.0
 40
10.5
 41
0.0
 71
     9
 72
     5
  1

1001
ACAD
1000
MTEXTBEGIN
1070
    73
1070
     1
1070
    44
1040
1.0
1070
    74
1070
     0
1000
MTEXTEND
1000
MTEXTBEGIN
1070
    73
1070
     1
1070
    44
1040
1.0
1070
    74
1070
     0
1000
MTEXTEND
  0
MTEXT
  5
567C
330
1A
100
AcDbEntity
  8
SUNPOU
100
AcDbMText
 10
85690.02673037287
 20
73056.85880733192
 30
0.0
 40
3.5
 41
0.0
 71
     9
 72
     5
  1

1001
ACAD
1000
MTEXTBEGIN
1070
    73
1070
     1
1070
    44
1040
1.0
1070
    74
1070
     0
1000
MTEXTEND
1000
MTEXTBEGIN
1070
    73
1070
     1
1070
    44
1040
1.0
1070
    74
1070
     0
1000
MTEXTEND
  0
MTEXT
  5
567D
330
1A
100
AcDbEntity
  8
SUNPOU
100
AcDbMText
 10
116816.2065629925
 20
115551.8044749892
 30
0.0
 40
10.5
 41
0.0
 71
     9
 72
     5
  1

1001
ACAD
1000
MTEXTBEGIN
1070
    73
1070
     1
1070
    44
1040
1.0
1070
    74
1070
     0
1000
MTEXTEND
1000
MTEXTBEGIN
1070
    73
1070
     1
1070
    44
1040
1.0
1070
    74
1070
     0
1000
MTEXTEND
  0
MTEXT
  5
567E
330
1A
100
AcDbEntity
  8
SUNPOU
100
AcDbMText
 10
118759.613809702
 20
113750.7553951112
 30
0.0
 40
3.5
 41
0.0
 71
     9
 72
     5
  1

1001
ACAD
1000
MTEXTBEGIN
1070
    73
1070
     1
1070
    44
1040
1.0
1070
    74
1070
     0
1000
MTEXTEND
1000
MTEXTBEGIN
1070
    73
1070
     1
1070
    44
1040
1.0
1070
    74
1070
     0
1000
MTEXTEND
  0
MTEXT
  5
567F
330
1A
100
AcDbEntity
  8
SUNPOU
100
AcDbMText
 10
67256.47426878814
 20
61384.96962996432
 30
0.0
 40
10.5
 41
0.0
 71
     9
 72
     5
  1

1001
ACAD
1000
MTEXTBEGIN
1070
    73
1070
     1
1070
    44
1040
1.0
1070
    74
1070
     0
1000
MTEXTEND
1000
MTEXTBEGIN
1070
    73
1070
     1
1070
    44
1040
1.0
1070
    74
1070
     0
1000
MTEXTEND
  0
MTEXT
  5
5680
330
1A
100
AcDbEntity
  8
SUNPOU
100
AcDbMText
 10
53308.47416841216
 20
42212.57049085211
 30
0.0
 40
3.5
 41
0.0
 71
     7
 72
     5
  1

1001
ACAD
1000
MTEXTBEGIN
1070
    73
1070
     1
1070
    44
1040
1.0
1070
    74
1070
     0
1000
MTEXTEND
1000
MTEXTBEGIN
1070
    73
1070
     1
1070
    44
1040
1.0
1070
    74
1070
     0
1000
MTEXTEND
  0
MTEXT
  5
5681
330
1A
100
AcDbEntity
  8
SUNPOU
100
AcDbMText
 10
67000.82485118274
 20
51571.63371187345
 30
0.0
 40
10.5
 41
0.0
 71
     9
 72
     5
  1

1001
ACAD
1000
MTEXTBEGIN
1070
    73
1070
     1
1070
    44
1040
1.0
1070
    74
1070
     0
1000
MTEXTEND
1000
MTEXTBEGIN
1070
    73
1070
     1
1070
    44
1040
1.0
1070
    74
1070
     0
1000
MTEXTEND
  0
MTEXT
  5
5682
330
1A
100
AcDbEntity
  8
SUNPOU
100
AcDbMText
 10
75722.99241710071
 20
58987.46824341094
 30
0.0
 40
10.5
 41
0.0
 71
     9
 72
     5
  1

1001
ACAD
1000
MTEXTBEGIN
1070
    73
1070
     1
1070
    44
1040
1.0
1070
    74
1070
     0
1000
MTEXTEND
1000
MTEXTBEGIN
1070
    73
1070
     1
1070
    44
1040
1.0
1070
    74
1070
     0
1000
MTEXTEND
  0
MTEXT
  5
5683
330
1A
100
AcDbEntity
  8
SUNPOU
100
AcDbMText
 10
94676.75113443068
 20
76454.04429590299
 30
0.0
 40
10.5
 41
0.0
 71
     9
 72
     5
  1

1001
ACAD
1000
MTEXTBEGIN
1070
    73
1070
     1
1070
    44
1040
1.0
1070
    74
1070
     0
1000
MTEXTEND
1000
MTEXTBEGIN
1070
    73
1070
     1
1070
    44
1040
1.0
1070
    74
1070
     0
1000
MTEXTEND
  0
MTEXT
  5
5684
330
1A
100
AcDbEntity
  8
SUNPOU
100
AcDbMText
 10
96620.1583811401
 20
74652.99521602498
 30
0.0
 40
3.5
 41
0.0
 71
     9
 72
     5
  1

1001
ACAD
1000
MTEXTBEGIN
1070
    73
1070
     1
1070
    44
1040
1.0
1070
    74
1070
     0
1000
MTEXTEND
1000
MTEXTBEGIN
1070
    73
1070
     1
1070
    44
1040
1.0
1070
    74
1070
     0
1000
MTEXTEND
  0
MTEXT
  5
5685
330
1A
100
AcDbEntity
  8
SUNPOU
100
AcDbMText
 10
127746.3382137598
 20
117147.9408836823
 30
0.0
 40
10.5
 41
0.0
 71
     9
 72
     5
  1

1001
ACAD
1000
MTEXTBEGIN
1070
    73
1070
     1
1070
    44
1040
1.0
1070
    74
1070
     0
1000
MTEXTEND
1000
MTEXTBEGIN
1070
    73
1070
     1
1070
    44
1040
1.0
1070
    74
1070
     0
1000
MTEXTEND
  0
MTEXT
  5
5686
330
1A
100
AcDbEntity
  8
SUNPOU
100
AcDbMText
 10
129689.7454604692
 20
115346.8918038043
 30
0.0
 40
3.5
 41
0.0
 71
     9
 72
     5
  1

1001
ACAD
1000
MTEXTBEGIN
1070
    73
1070
     1
1070
    44
1040
1.0
1070
    74
1070
     0
1000
MTEXTEND
1000
MTEXTBEGIN
1070
    73
1070
     1
1070
    44
1040
1.0
1070
    74
1070
     0
1000
MTEXTEND
  0
MTEXT
  5
5687
330
1A
100
AcDbEntity
  8
SUNPOU
100
AcDbMText
 10
78186.60591955537
 20
62981.10603865738
 30
0.0
 40
10.5
 41
0.0
 71
     9
 72
     5
  1

1001
ACAD
1000
MTEXTBEGIN
1070
    73
1070
     1
1070
    44
1040
1.0
1070
    74
1070
     0
1000
MTEXTEND
1000
MTEXTBEGIN
1070
    73
1070
     1
1070
    44
1040
1.0
1070
    74
1070
     0
1000
MTEXTEND
  0
MTEXT
  5
5688
330
1A
100
AcDbEntity
  8
SUNPOU
100
AcDbMText
 10
64238.60581917939
 20
43808.70689954517
 30
0.0
 40
3.5
 41
0.0
 71
     7
 72
     5
  1

1001
ACAD
1000
MTEXTBEGIN
1070
    73
1070
     1
1070
    44
1040
1.0
1070
    74
1070
     0
1000
MTEXTEND
1000
MTEXTBEGIN
1070
    73
1070
     1
1070
    44
1040
1.0
1070
    74
1070
     0
1000
MTEXTEND
  0
MTEXT
  5
5689
330
1A
100
AcDbEntity
  8
SUNPOU
100
AcDbMText
 10
33428.13481137435
 20
32770.04710035564
 30
0.0
 40
10.5
 41
0.0
 71
     9
 72
     5
  1

1001
ACAD
1000
MTEXTBEGIN
1070
    73
1070
     1
1070
    44
1040
1.0
1070
    74
1070
     0
1000
MTEXTEND
1000
MTEXTBEGIN
1070
    73
1070
     1
1070
    44
1040
1.0
1070
    74
1070
     0
1000
MTEXTEND
  0
MTEXT
  5
568A
330
1A
100
AcDbEntity
  8
SUNPOU
100
AcDbMText
 10
52381.89352870432
 20
50236.62315284769
 30
0.0
 40
10.5
 41
0.0
 71
     9
 72
     5
  1

1001
ACAD
1000
MTEXTBEGIN
1070
    73
1070
     1
1070
    44
1040
1.0
1070
    74
1070
     0
1000
MTEXTEND
1000
MTEXTBEGIN
1070
    73
1070
     1
1070
    44
1040
1.0
1070
    74
1070
     0
1000
MTEXTEND
  0
MTEXT
  5
568B
330
1A
100
AcDbEntity
  8
SUNPOU
100
AcDbMText
 10
54325.30077541374
 20
48435.57407296968
 30
0.0
 40
3.5
 41
0.0
 71
     9
 72
     5
  1

1001
ACAD
1000
MTEXTBEGIN
1070
    73
1070
     1
1070
    44
1040
1.0
1070
    74
1070
     0
1000
MTEXTEND
1000
MTEXTBEGIN
1070
    73
1070
     1
1070
    44
1040
1.0
1070
    74
1070
     0
1000
MTEXTEND
  0
MTEXT
  5
568C
330
1A
100
AcDbEntity
  8
SUNPOU
100
AcDbMText
 10
85451.48060803343
 20
90930.51974062703
 30
0.0
 40
10.5
 41
0.0
 71
     9
 72
     5
  1

1001
ACAD
1000
MTEXTBEGIN
1070
    73
1070
     1
1070
    44
1040
1.0
1070
    74
1070
     0
1000
MTEXTEND
1000
MTEXTBEGIN
1070
    73
1070
     1
1070
    44
1040
1.0
1070
    74
1070
     0
1000
MTEXTEND
  0
MTEXT
  5
568D
330
1A
100
AcDbEntity
  8
SUNPOU
100
AcDbMText
 10
87394.88785474286
 20
89129.47066074901
 30
0.0
 40
3.5
 41
0.0
 71
     9
 72
     5
  1

1001
ACAD
1000
MTEXTBEGIN
1070
    73
1070
     1
1070
    44
1040
1.0
1070
    74
1070
     0
1000
MTEXTEND
1000
MTEXTBEGIN
1070
    73
1070
     1
1070
    44
1040
1.0
1070
    74
1070
     0
1000
MTEXTEND
  0
MTEXT
  5
568E
330
1A
100
AcDbEntity
  8
SUNPOU
100
AcDbMText
 10
35891.74831382901
 20
36763.68489560208
 30
0.0
 40
10.5
 41
0.0
 71
     9
 72
     5
  1

1001
ACAD
1000
MTEXTBEGIN
1070
    73
1070
     1
1070
    44
1040
1.0
1070
    74
1070
     0
1000
MTEXTEND
1000
MTEXTBEGIN
1070
    73
1070
     1
1070
    44
1040
1.0
1070
    74
1070
     0
1000
MTEXTEND
  0
MTEXT
  5
568F
330
1A
100
AcDbEntity
  8
SUNPOU
100
AcDbMText
 10
21943.74821345303
 20
17591.28575648986
 30
0.0
 40
3.5
 41
0.0
 71
     7
 72
     5
  1

1001
ACAD
1000
MTEXTBEGIN
1070
    73
1070
     1
1070
    44
1040
1.0
1070
    74
1070
     0
1000
MTEXTEND
1000
MTEXTBEGIN
1070
    73
1070
     1
1070
    44
1040
1.0
1070
    74
1070
     0
1000
MTEXTEND
  0
XLINE
  5
126D7
330
1A
100
AcDbEntity
  8
SOUZOUSEN
100
AcDbXline
 10
-2343.442450720007
 20
3248.111410528631
 30
0.0
 11
0.0
 21
1.0
 31
0.0
  0
XLINE
  5
126D8
330
1A
100
AcDbEntity
  8
SOUZOUSEN
100
AcDbXline
 10
-2343.419932224668
 20
3244.179140051123
 30
0.0
 11
0.0
 21
-1.0
 31
0.0
  0
XLINE
  5
1C165
330
1A
100
AcDbEntity
  8
CL1
 62
     4
100
AcDbXline
 10
-2149.850110206533
 20
3315.343272644251
 30
0.0
 11
1.0
 21
0.0
 31
0.0
  0
LINE
  5
1EA3A
330
1A
100
AcDbEntity
  8
ZISSEN1
 48
0.5
100
AcDbLine
 10
-1362.296886898883
 20
1685.671636322125
 30
0.0
 11
-1362.296886898883
 21
1663.671636322125
 31
0.0
  0
CIRCLE
  5
1EA3B
330
1A
100
AcDbEntity
  8
ZISSEN1
 48
0.5
100
AcDbCircle
 10
-1373.296886898883
 20
1666.171636322125
 30
0.0
 40
2.75
  0
LINE
  5
1EA3C
330
1A
100
AcDbEntity
  8
ZISSEN1
 48
0.5
100
AcDbLine
 10
-1373.696886898883
 20
1664.671636322125
 30
0.0
 11
-1373.696886898883
 21
1665.771636322126
 31
0.0
  0
LINE
  5
1EA3D
330
1A
100
AcDbEntity
  8
ZISSEN1
 48
0.5
100
AcDbLine
 10
-1372.896886898882
 20
1665.771636322126
 30
0.0
 11
-1372.896886898882
 21
1664.671636322125
 31
0.0
  0
LINE
  5
1EA3E
330
1A
100
AcDbEntity
  8
ZISSEN1
 48
0.5
100
AcDbLine
 10
-1308.696886898883
 20
1664.346636322125
 30
0.0
 11
-1308.696886898883
 21
1667.146636322124
 31
0.0
  0
LINE
  5
1EA3F
330
1A
100
AcDbEntity
  8
ZISSEN1
 48
0.5
100
AcDbLine
 10
-1308.696886898883
 20
1668.921636322127
 30
0.0
 11
-1308.696886898883
 21
1663.421636322127
 31
0.0
  0
ARC
  5
1EA40
330
1A
100
AcDbEntity
  8
ZISSEN1
100
AcDbCircle
 10
-1306.005088069419
 20
1666.171636322127
 30
0.0
 40
4.06366340092025
100
AcDbArc
 50
137.4114170199091
 51
222.5885829800811
  0
LINE
  5
1EA43
330
1A
100
AcDbEntity
  8
ZISSEN1
 48
0.5
100
AcDbLine
 10
-1308.696886898883
 20
1663.171636322127
 30
0.0
 11
-1308.696886898883
 21
1732.171636322127
 31
0.0
  0
LINE
  5
1EA44
330
1A
100
AcDbEntity
  8
ZISSEN1
 48
0.5
100
AcDbLine
 10
-1306.796886898882
 20
1662.671636322127
 30
0.0
 11
-1306.796886898882
 21
1732.671636322127
 31
0.0
  0
LINE
  5
1EA45
330
1A
100
AcDbEntity
  8
ZISSEN1
 48
0.5
100
AcDbLine
 10
-1303.796886898882
 20
1732.671636322127
 30
0.0
 11
-1303.796886898882
 21
1662.671636322127
 31
0.0
  0
LINE
  5
1EA46
330
1A
100
AcDbEntity
  8
ZISSEN1
 48
0.5
100
AcDbLine
 10
-1362.796886898883
 20
1685.871636322124
 30
0.0
 11
-1362.796886898883
 21
1664.171636322125
 31
0.0
  0
LINE
  5
1EA47
330
1A
100
AcDbEntity
  8
ZISSEN1
 48
0.5
100
AcDbLine
 10
-1300.296886898882
 20
1732.671636322127
 30
0.0
 11
-1300.296886898882
 21
1662.671636322127
 31
0.0
  0
LINE
  5
1EA48
330
1A
100
AcDbEntity
  8
ZISSEN1
 48
0.5
100
AcDbLine
 10
-1307.096886898882
 20
1662.671636322127
 30
0.0
 11
-1307.096886898882
 21
1732.671636322127
 31
0.0
  0
LINE
  5
1EA49
330
1A
100
AcDbEntity
  8
ZISSEN1
 48
0.5
100
AcDbLine
 10
-1328.296886898882
 20
1736.671636322127
 30
0.0
 11
-1328.296886898882
 21
1658.671636322127
 31
0.0
  0
LINE
  5
1EA4A
330
1A
100
AcDbEntity
  8
ZISSEN1
 48
0.5
100
AcDbLine
 10
-1429.296886898883
 20
1657.671636322126
 30
0.0
 11
-1429.296886898883
 21
1737.671636322126
 31
0.0
  0
LINE
  5
1EA4B
330
1A
100
AcDbEntity
  8
ZISSEN1
 48
0.5
100
AcDbLine
 10
-1432.296886898883
 20
1737.671636322126
 30
0.0
 11
-1432.296886898883
 21
1657.671636322126
 31
0.0
  0
LWPOLYLINE
  5
1EA57
330
1A
100
AcDbEntity
  8
ZISSEN1
100
AcDbPolyline
 90
        4
 70
     1
 43
0.0
 10
-1400.894349868658
 20
1714.111636322128
 10
-1394.294349868657
 20
1714.111636322128
 10
-1394.294349868657
 20
1719.511636322127
 10
-1400.894349868658
 20
1719.511636322127
  0
LWPOLYLINE
  5
1EA58
330
1A
100
AcDbEntity
  8
ZISSEN1
100
AcDbPolyline
 90
        4
 70
     1
 43
0.0
 10
-1400.894349868658
 20
1714.271636322127
 10
-1394.294349868657
 20
1714.271636322127
 10
-1394.294349868657
 20
1719.351636322127
 10
-1400.894349868658
 20
1719.351636322127
  0
LWPOLYLINE
  5
1EA5A
330
1A
100
AcDbEntity
  8
ZISSEN1
100
AcDbPolyline
 90
        4
 70
     1
 43
0.0
 10
-1400.894349868658
 20
1723.970183781118
 10
-1394.294349868657
 20
1723.970183781118
 10
-1394.294349868657
 20
1729.370183781118
 10
-1400.894349868658
 20
1729.370183781118
  0
LWPOLYLINE
  5
1EA5B
330
1A
100
AcDbEntity
  8
ZISSEN1
100
AcDbPolyline
 90
        4
 70
     1
 43
0.0
 10
-1400.894349868658
 20
1724.130183781118
 10
-1394.294349868657
 20
1724.130183781118
 10
-1394.294349868657
 20
1729.210183781118
 10
-1400.894349868658
 20
1729.210183781118
  0
LINE
  5
1EA5D
330
1A
100
AcDbEntity
  8
ZISSEN1
 48
0.5
100
AcDbLine
 10
-1429.296886898883
 20
1732.171636322125
 30
0.0
 11
-1363.796886898883
 21
1732.171636322125
 31
0.0
  0
LINE
  5
1EA5E
330
1A
100
AcDbEntity
  8
ZISSEN1
 48
0.5
100
AcDbLine
 10
-1428.296886898883
 20
1732.671636322125
 30
0.0
 11
-1363.296886898883
 21
1732.671636322125
 31
0.0
  0
LINE
  5
1EA72
330
1A
100
AcDbEntity
  8
ZISSEN1
 48
0.5
100
AcDbLine
 10
-1428.796886898883
 20
1667.171636322125
 30
0.0
 11
-1428.796886898882
 21
1728.171636322125
 31
0.0
  0
LINE
  5
1EA75
330
1A
100
AcDbEntity
  8
ZISSEN1
100
AcDbLine
 10
-1425.446886898882
 20
1725.471636322125
 30
0.0
 11
-1404.746886898883
 21
1725.471636322125
 31
0.0
  0
LINE
  5
1EA76
330
1A
100
AcDbEntity
  8
ZISSEN1
100
AcDbLine
 10
-1426.296886898882
 20
1726.171636322125
 30
0.0
 11
-1403.896886898882
 21
1726.171636322125
 31
0.0
  0
LINE
  5
1EA77
330
1A
100
AcDbEntity
  8
ZISSEN1
100
AcDbLine
 10
-1405.746886898882
 20
1720.871636322124
 30
0.0
 11
-1424.446886898881
 21
1720.871636322126
 31
0.0
  0
LINE
  5
1EA78
330
1A
100
AcDbEntity
  8
ZISSEN1
100
AcDbLine
 10
-1423.846886898882
 20
1720.271636322126
 30
0.0
 11
-1406.346886898882
 21
1720.271636322126
 31
0.0
  0
LWPOLYLINE
  5
1EA79
330
1A
100
AcDbEntity
  8
ZISSEN1
100
AcDbPolyline
 90
        4
 70
     1
 43
0.0
 10
-1419.096886898882
 20
1719.671636322126
 10
-1417.846886898882
 20
1719.671636322126
 10
-1417.846886898882
 20
1720.271636322126
 10
-1419.096886898882
 20
1720.271636322126
  0
LINE
  5
1EA7A
330
1A
100
AcDbEntity
  8
ZISSEN1
 48
0.5
100
AcDbLine
 10
-1429.296886898883
 20
1736.671636322125
 30
0.0
 11
-1432.296886898883
 21
1736.671636322125
 31
0.0
  0
LINE
  5
1EA7B
330
1A
100
AcDbEntity
  8
ZISSEN1
 48
0.5
100
AcDbLine
 10
-1429.296886898883
 20
1737.671636322126
 30
0.0
 11
-1432.296886898883
 21
1737.671636322126
 31
0.0
  0
LINE
  5
1EA7D
330
1A
100
AcDbEntity
  8
ZISSEN1
 48
0.5
100
AcDbLine
 10
-1429.296886898883
 20
1728.171636322125
 30
0.0
 11
-1428.796886898883
 21
1728.171636322125
 31
0.0
  0
LINE
  5
1EA7E
330
1A
100
AcDbEntity
  8
ZISSEN1
 48
0.5
100
AcDbLine
 10
-1428.796886898883
 20
1732.171636322125
 30
0.0
 11
-1428.296886898883
 21
1732.671636322125
 31
0.0
  0
LINE
  5
1EA82
330
1A
100
AcDbEntity
  8
ZISSEN1
100
AcDbLine
 10
-1424.446886898881
 20
1720.871636322126
 30
0.0
 11
-1424.446886898881
 21
1720.071636322125
 31
0.0
  0
LINE
  5
1EA83
330
1A
100
AcDbEntity
  8
ZISSEN1
100
AcDbLine
 10
-1424.446886898881
 20
1720.071636322125
 30
0.0
 11
-1425.446886898882
 21
1720.071636322125
 31
0.0
  0
LINE
  5
1EA84
330
1A
100
AcDbEntity
  8
ZISSEN1
100
AcDbLine
 10
-1423.846886898882
 20
1719.371636322126
 30
0.0
 11
-1423.846886898882
 21
1720.271636322126
 31
0.0
  0
LINE
  5
1EA85
330
1A
100
AcDbEntity
  8
ZISSEN1
100
AcDbLine
 10
-1419.296886898882
 20
1720.271636322126
 30
0.0
 11
-1419.296886898882
 21
1719.371636322126
 31
0.0
  0
LINE
  5
1EA86
330
1A
100
AcDbEntity
  8
ZISSEN1
100
AcDbLine
 10
-1419.296886898882
 20
1719.371636322126
 30
0.0
 11
-1426.296886898882
 21
1719.371636322126
 31
0.0
  0
LINE
  5
1EA89
330
1A
100
AcDbEntity
  8
ZISSEN1
100
AcDbLine
 10
-1425.446886898882
 20
1720.071636322125
 30
0.0
 11
-1425.446886898882
 21
1725.471636322125
 31
0.0
  0
LINE
  5
1EA8A
330
1A
100
AcDbEntity
  8
ZISSEN1
100
AcDbLine
 10
-1426.296886898882
 20
1719.371636322126
 30
0.0
 11
-1426.296886898882
 21
1726.171636322125
 31
0.0
  0
LINE
  5
1EA8C
330
1A
100
AcDbEntity
  8
ZISSEN1
100
AcDbLine
 10
-1403.896886898882
 20
1719.371636322124
 30
0.0
 11
-1410.896886898882
 21
1719.371636322124
 31
0.0
  0
LINE
  5
1EA94
330
1A
100
AcDbEntity
  8
ZISSEN1
100
AcDbLine
 10
-1406.346886898882
 20
1720.271636322126
 30
0.0
 11
-1406.346886898882
 21
1719.371636322124
 31
0.0
  0
LINE
  5
1EA95
330
1A
100
AcDbEntity
  8
ZISSEN1
100
AcDbLine
 10
-1412.546886898882
 20
1720.271636322126
 30
0.0
 11
-1412.546886898882
 21
1719.371636322124
 31
0.0
  0
LINE
  5
1EA96
330
1A
100
AcDbEntity
  8
ZISSEN1
100
AcDbLine
 10
-1410.896886898882
 20
1720.271636322126
 30
0.0
 11
-1410.896886898882
 21
1719.371636322124
 31
0.0
  0
LINE
  5
1EA97
330
1A
100
AcDbEntity
  8
ZISSEN1
100
AcDbLine
 10
-1417.646886898882
 20
1720.271636322126
 30
0.0
 11
-1417.646886898882
 21
1719.371636322126
 31
0.0
  0
LINE
  5
1EA98
330
1A
100
AcDbEntity
  8
ZISSEN1
100
AcDbLine
 10
-1417.646886898882
 20
1719.371636322126
 30
0.0
 11
-1412.546886898882
 21
1719.371636322124
 31
0.0
  0
LWPOLYLINE
  5
1EA99
330
1A
100
AcDbEntity
  8
ZISSEN1
100
AcDbPolyline
 90
        4
 70
     1
 43
0.0
 10
-1412.346886898882
 20
1719.671636322126
 10
-1411.096886898882
 20
1719.671636322126
 10
-1411.096886898882
 20
1720.271636322126
 10
-1412.346886898882
 20
1720.271636322126
  0
LINE
  5
1EAD7
330
1A
100
AcDbEntity
  8
ZISSEN1
100
AcDbLine
 10
-1404.746886898883
 20
1720.071636322125
 30
0.0
 11
-1405.746886898882
 21
1720.071636322125
 31
0.0
  0
LINE
  5
1EAD8
330
1A
100
AcDbEntity
  8
ZISSEN1
100
AcDbLine
 10
-1405.746886898882
 20
1720.071636322125
 30
0.0
 11
-1405.746886898882
 21
1720.871636322124
 31
0.0
  0
LINE
  5
1EAD9
330
1A
100
AcDbEntity
  8
ZISSEN1
100
AcDbLine
 10
-1404.746886898883
 20
1720.071636322125
 30
0.0
 11
-1404.746886898883
 21
1725.471636322125
 31
0.0
  0
LINE
  5
1EADA
330
1A
100
AcDbEntity
  8
ZISSEN1
100
AcDbLine
 10
-1404.746886898883
 20
1725.471636322125
 30
0.0
 11
-1404.746886898883
 21
1720.071636322125
 31
0.0
  0
LINE
  5
1EADB
330
1A
100
AcDbEntity
  8
ZISSEN1
100
AcDbLine
 10
-1404.746886898883
 20
1725.471636322125
 30
0.0
 11
-1404.746886898883
 21
1720.071636322125
 31
0.0
  0
LINE
  5
1EADC
330
1A
100
AcDbEntity
  8
ZISSEN1
100
AcDbLine
 10
-1403.896886898882
 20
1726.171636322125
 30
0.0
 11
-1403.896886898882
 21
1719.371636322124
 31
0.0
  0
LINE
  5
1EADE
330
1A
100
AcDbEntity
  8
ZISSEN1
100
AcDbLine
 10
-1426.246886898882
 20
1676.851636322125
 30
0.0
 11
-1417.146886898881
 21
1676.851636322125
 31
0.0
  0
LINE
  5
1EAE1
330
1A
100
AcDbEntity
  8
ZISSEN1
 48
0.5
100
AcDbLine
 10
-1429.296886898883
 20
1667.171636322125
 30
0.0
 11
-1428.796886898883
 21
1667.171636322125
 31
0.0
  0
LINE
  5
1EAF3
330
1A
100
AcDbEntity
  8
ZISSEN1
100
AcDbLine
 10
-1426.246886898882
 20
1669.251636322125
 30
0.0
 11
-1426.246886898882
 21
1676.851636322125
 31
0.0
  0
LINE
  5
1EB11
330
1A
100
AcDbEntity
  8
ZISSEN1
100
AcDbLine
 10
-1417.146886898881
 20
1676.851636322125
 30
0.0
 11
-1417.146886898881
 21
1672.571636322125
 31
0.0
  0
LINE
  5
1EB14
330
1A
100
AcDbEntity
  8
ZISSEN1
100
AcDbLine
 10
-1417.146886898881
 20
1676.851636322125
 30
0.0
 11
-1417.146886898881
 21
1673.051636322124
 31
0.0
  0
LINE
  5
1EB1F
330
1A
100
AcDbEntity
  8
ZISSEN1
 48
0.5
100
AcDbLine
 10
-1309.096886898882
 20
1732.671636322127
 30
0.0
 11
-1300.296886898882
 21
1732.671636322127
 31
0.0
  0
LINE
  5
1EB20
330
1A
100
AcDbEntity
  8
ZISSEN1
 48
0.5
100
AcDbLine
 10
-1362.296886898883
 20
1731.671636322125
 30
0.0
 11
-1362.296886898883
 21
1709.171636322126
 31
0.0
  0
CIRCLE
  5
1EB21
330
1A
100
AcDbEntity
  8
ZISSEN1
 48
0.5
100
AcDbCircle
 10
-1373.296886898884
 20
1729.171636322123
 30
0.0
 40
2.75
  0
LINE
  5
1EB29
330
1A
100
AcDbEntity
  8
ZISSEN1
100
AcDbLine
 10
-1384.196886898883
 20
1728.306636322127
 30
0.0
 11
-1384.196886898883
 21
1729.556636322127
 31
0.0
  0
LINE
  5
1EB2A
330
1A
100
AcDbEntity
  8
ZISSEN1
100
AcDbLine
 10
-1386.196886898884
 20
1729.556636322127
 30
0.0
 11
-1386.196886898884
 21
1728.306636322127
 31
0.0
  0
LINE
  5
1EB2E
330
1A
100
AcDbEntity
  8
ZISSEN1
100
AcDbLine
 10
-1384.196886898883
 20
1729.556636322127
 30
0.0
 11
-1386.196886898884
 21
1729.556636322127
 31
0.0
  0
LINE
  5
1EB2F
330
1A
100
AcDbEntity
  8
ZISSEN1
100
AcDbLine
 10
-1386.196886898884
 20
1728.306636322127
 30
0.0
 11
-1384.196886898883
 21
1728.306636322127
 31
0.0
  0
LINE
  5
1EB30
330
1A
100
AcDbEntity
  8
ZISSEN1
100
AcDbLine
 10
-1384.196886898883
 20
1728.306636322127
 30
0.0
 11
-1384.496886898884
 21
1728.306636322127
 31
0.0
  0
LINE
  5
1EB38
330
1A
100
AcDbEntity
  8
ZISSEN1
100
AcDbLine
 10
-1389.547728813744
 20
1728.273891671971
 30
0.0
 11
-1389.547728813744
 21
1729.523891671972
 31
0.0
  0
LINE
  5
1EB39
330
1A
100
AcDbEntity
  8
ZISSEN1
100
AcDbLine
 10
-1391.547728813744
 20
1729.523891671972
 30
0.0
 11
-1391.547728813744
 21
1728.273891671971
 31
0.0
  0
LINE
  5
1EB3E
330
1A
100
AcDbEntity
  8
ZISSEN1
100
AcDbLine
 10
-1389.547728813744
 20
1729.523891671972
 30
0.0
 11
-1391.547728813744
 21
1729.523891671972
 31
0.0
  0
LINE
  5
1EB3F
330
1A
100
AcDbEntity
  8
ZISSEN1
100
AcDbLine
 10
-1391.547728813744
 20
1728.273891671971
 30
0.0
 11
-1389.547728813744
 21
1728.273891671971
 31
0.0
  0
LINE
  5
1EB40
330
1A
100
AcDbEntity
  8
ZISSEN1
100
AcDbLine
 10
-1389.547728813744
 20
1728.273891671971
 30
0.0
 11
-1389.847728813745
 21
1728.273891671971
 31
0.0
  0
LINE
  5
1EB42
330
1A
100
AcDbEntity
  8
ZISSEN1
 48
0.5
100
AcDbLine
 10
-1384.296886898882
 20
1732.671636322125
 30
0.0
 11
-1384.296886898882
 21
1732.171636322125
 31
0.0
  0
LINE
  5
1EB53
330
1A
100
AcDbEntity
  8
ZISSEN1
100
AcDbLine
 10
-1390.696886898884
 20
1718.631636322126
 30
0.0
 11
-1390.696886898884
 21
1726.031636322126
 31
0.0
  0
LINE
  5
1EB5A
330
1A
100
AcDbEntity
  8
ZISSEN1
100
AcDbLine
 10
-1387.096886898883
 20
1718.631636322126
 30
0.0
 11
-1387.096886898883
 21
1726.031636322126
 31
0.0
  0
LINE
  5
1EB5B
330
1A
100
AcDbEntity
  8
ZISSEN1
100
AcDbLine
 10
-1390.696886898884
 20
1718.631636322126
 30
0.0
 11
-1387.096886898883
 21
1718.631636322126
 31
0.0
  0
LINE
  5
1EB5C
330
1A
100
AcDbEntity
  8
ZISSEN1
100
AcDbLine
 10
-1387.096886898883
 20
1726.031636322126
 30
0.0
 11
-1390.696886898884
 21
1726.031636322126
 31
0.0
  0
LINE
  5
1EB5F
330
1A
100
AcDbEntity
  8
ZISSEN1
 48
0.5
100
AcDbLine
 10
-1371.796886898883
 20
1729.571636322123
 30
0.0
 11
-1371.796886898883
 21
1729.171636322124
 31
0.0
  0
LINE
  5
1EB60
330
1A
100
AcDbEntity
  8
ZISSEN1
 48
0.5
100
AcDbLine
 10
-1371.796886898883
 20
1729.171636322124
 30
0.0
 11
-1371.796886898883
 21
1728.771636322124
 31
0.0
  0
LINE
  5
1EB61
330
1A
100
AcDbEntity
  8
ZISSEN1
 48
0.5
100
AcDbLine
 10
-1372.896886898883
 20
1730.671636322124
 30
0.0
 11
-1373.296886898883
 21
1730.671636322124
 31
0.0
  0
LINE
  5
1EB62
330
1A
100
AcDbEntity
  8
ZISSEN1
 48
0.5
100
AcDbLine
 10
-1373.296886898883
 20
1730.671636322124
 30
0.0
 11
-1373.696886898883
 21
1730.671636322124
 31
0.0
  0
LINE
  5
1EB63
330
1A
100
AcDbEntity
  8
ZISSEN1
 48
0.5
100
AcDbLine
 10
-1374.796886898883
 20
1729.171636322124
 30
0.0
 11
-1374.796886898883
 21
1728.771636322124
 31
0.0
  0
LINE
  5
1EB64
330
1A
100
AcDbEntity
  8
ZISSEN1
 48
0.5
100
AcDbLine
 10
-1374.796886898883
 20
1729.571636322123
 30
0.0
 11
-1374.796886898883
 21
1729.171636322124
 31
0.0
  0
LINE
  5
1EB65
330
1A
100
AcDbEntity
  8
ZISSEN1
 48
0.5
100
AcDbLine
 10
-1372.896886898883
 20
1729.571636322123
 30
0.0
 11
-1372.896886898883
 21
1730.671636322124
 31
0.0
  0
LINE
  5
1EB66
330
1A
100
AcDbEntity
  8
ZISSEN1
 48
0.5
100
AcDbLine
 10
-1373.696886898883
 20
1730.671636322124
 30
0.0
 11
-1373.696886898883
 21
1729.571636322123
 31
0.0
  0
LINE
  5
1EB67
330
1A
100
AcDbEntity
  8
ZISSEN1
 48
0.5
100
AcDbLine
 10
-1373.696886898883
 20
1729.571636322123
 30
0.0
 11
-1374.796886898883
 21
1729.571636322123
 31
0.0
  0
LINE
  5
1EB68
330
1A
100
AcDbEntity
  8
ZISSEN1
 48
0.5
100
AcDbLine
 10
-1374.796886898883
 20
1728.771636322124
 30
0.0
 11
-1373.696886898883
 21
1728.771636322124
 31
0.0
  0
LINE
  5
1EB69
330
1A
100
AcDbEntity
  8
ZISSEN1
 48
0.5
100
AcDbLine
 10
-1373.296886898883
 20
1727.671636322124
 30
0.0
 11
-1373.696886898883
 21
1727.671636322124
 31
0.0
  0
LINE
  5
1EB6A
330
1A
100
AcDbEntity
  8
ZISSEN1
 48
0.5
100
AcDbLine
 10
-1372.896886898883
 20
1727.671636322124
 30
0.0
 11
-1373.296886898883
 21
1727.671636322124
 31
0.0
  0
LINE
  5
1EB6B
330
1A
100
AcDbEntity
  8
ZISSEN1
 48
0.5
100
AcDbLine
 10
-1373.696886898883
 20
1727.671636322124
 30
0.0
 11
-1373.696886898883
 21
1728.771636322124
 31
0.0
  0
LINE
  5
1EB6C
330
1A
100
AcDbEntity
  8
ZISSEN1
 48
0.5
100
AcDbLine
 10
-1372.896886898883
 20
1728.771636322124
 30
0.0
 11
-1372.896886898883
 21
1727.671636322124
 31
0.0
  0
LINE
  5
1EB6D
330
1A
100
AcDbEntity
  8
ZISSEN1
 48
0.5
100
AcDbLine
 10
-1371.796886898883
 20
1728.771636322124
 30
0.0
 11
-1372.896886898883
 21
1728.771636322124
 31
0.0
  0
LINE
  5
1EB6E
330
1A
100
AcDbEntity
  8
ZISSEN1
 48
0.5
100
AcDbLine
 10
-1372.896886898883
 20
1729.571636322123
 30
0.0
 11
-1371.796886898883
 21
1729.571636322123
 31
0.0
  0
LINE
  5
1EB6F
330
1A
100
AcDbEntity
  8
ZISSEN1
 48
0.5
100
AcDbLine
 10
-1363.796886898883
 20
1732.171636322125
 30
0.0
 11
-1362.796886898883
 21
1731.171636322127
 31
0.0
  0
LINE
  5
1EB70
330
1A
100
AcDbEntity
  8
ZISSEN1
 48
0.5
100
AcDbLine
 10
-1363.296886898883
 20
1732.671636322125
 30
0.0
 11
-1362.296886898883
 21
1731.671636322125
 31
0.0
  0
LINE
  5
1EB71
330
1A
100
AcDbEntity
  8
ZISSEN1
100
AcDbLine
 10
-1364.896886898882
 20
1685.871636322124
 30
0.0
 11
-1371.696886898882
 21
1685.871636322124
 31
0.0
  0
LINE
  5
1EB72
330
1A
100
AcDbEntity
  8
ZISSEN1
100
AcDbLine
 10
-1371.696886898882
 20
1685.871636322124
 30
0.0
 11
-1367.896886898882
 21
1685.871636322124
 31
0.0
  0
LINE
  5
1EB73
330
1A
100
AcDbEntity
  8
ZISSEN1
100
AcDbLine
 10
-1371.696886898882
 20
1708.971636322124
 30
0.0
 11
-1367.896886898882
 21
1708.971636322124
 31
0.0
  0
LINE
  5
1EB74
330
1A
100
AcDbEntity
  8
ZISSEN1
100
AcDbLine
 10
-1371.696886898882
 20
1708.971636322124
 30
0.0
 11
-1367.416886898881
 21
1708.971636322124
 31
0.0
  0
LINE
  5
1EB75
330
1A
100
AcDbEntity
  8
ZISSEN1
100
AcDbLine
 10
-1371.696886898882
 20
1697.421636322125
 30
0.0
 11
-1371.696886898882
 21
1685.871636322124
 31
0.0
  0
LINE
  5
1EB76
330
1A
100
AcDbEntity
  8
ZISSEN1
100
AcDbLine
 10
-1371.696886898882
 20
1697.421636322125
 30
0.0
 11
-1371.696886898882
 21
1708.971636322124
 31
0.0
  0
LINE
  5
1EB77
330
1A
100
AcDbEntity
  8
ZISSEN1
 48
0.5
100
AcDbLine
 10
-1371.796886898882
 20
1666.571636322125
 30
0.0
 11
-1371.796886898882
 21
1666.171636322125
 31
0.0
  0
LINE
  5
1EB78
330
1A
100
AcDbEntity
  8
ZISSEN1
 48
0.5
100
AcDbLine
 10
-1371.796886898882
 20
1666.171636322125
 30
0.0
 11
-1371.796886898882
 21
1665.771636322126
 31
0.0
  0
LINE
  5
1EB79
330
1A
100
AcDbEntity
  8
ZISSEN1
 48
0.5
100
AcDbLine
 10
-1372.896886898882
 20
1667.671636322125
 30
0.0
 11
-1373.296886898882
 21
1667.671636322125
 31
0.0
  0
LINE
  5
1EB7A
330
1A
100
AcDbEntity
  8
ZISSEN1
 48
0.5
100
AcDbLine
 10
-1373.296886898882
 20
1667.671636322125
 30
0.0
 11
-1373.696886898883
 21
1667.671636322125
 31
0.0
  0
LINE
  5
1EB7B
330
1A
100
AcDbEntity
  8
ZISSEN1
 48
0.5
100
AcDbLine
 10
-1374.796886898882
 20
1666.171636322125
 30
0.0
 11
-1374.796886898882
 21
1665.771636322126
 31
0.0
  0
LINE
  5
1EB7C
330
1A
100
AcDbEntity
  8
ZISSEN1
 48
0.5
100
AcDbLine
 10
-1374.796886898882
 20
1666.571636322125
 30
0.0
 11
-1374.796886898882
 21
1666.171636322125
 31
0.0
  0
LINE
  5
1EB7D
330
1A
100
AcDbEntity
  8
ZISSEN1
 48
0.5
100
AcDbLine
 10
-1372.896886898882
 20
1666.571636322125
 30
0.0
 11
-1372.896886898882
 21
1667.671636322125
 31
0.0
  0
LINE
  5
1EB7E
330
1A
100
AcDbEntity
  8
ZISSEN1
 48
0.5
100
AcDbLine
 10
-1373.696886898883
 20
1667.671636322125
 30
0.0
 11
-1373.696886898883
 21
1666.571636322125
 31
0.0
  0
LINE
  5
1EB7F
330
1A
100
AcDbEntity
  8
ZISSEN1
 48
0.5
100
AcDbLine
 10
-1373.696886898883
 20
1666.571636322125
 30
0.0
 11
-1374.796886898882
 21
1666.571636322125
 31
0.0
  0
LINE
  5
1EB80
330
1A
100
AcDbEntity
  8
ZISSEN1
 48
0.5
100
AcDbLine
 10
-1374.796886898882
 20
1665.771636322126
 30
0.0
 11
-1373.696886898883
 21
1665.771636322126
 31
0.0
  0
LINE
  5
1EB81
330
1A
100
AcDbEntity
  8
ZISSEN1
 48
0.5
100
AcDbLine
 10
-1371.796886898882
 20
1665.771636322126
 30
0.0
 11
-1372.896886898882
 21
1665.771636322126
 31
0.0
  0
LINE
  5
1EB82
330
1A
100
AcDbEntity
  8
ZISSEN1
 48
0.5
100
AcDbLine
 10
-1372.896886898882
 20
1666.571636322125
 30
0.0
 11
-1371.796886898882
 21
1666.571636322125
 31
0.0
  0
LINE
  5
1EB8F
330
1A
100
AcDbEntity
  8
ZISSEN1
100
AcDbLine
 10
-1364.096886898882
 20
1708.971636322124
 30
0.0
 11
-1367.896886898882
 21
1708.971636322124
 31
0.0
  0
LINE
  5
1EB92
330
1A
100
AcDbEntity
  8
ZISSEN1
 48
0.5
100
AcDbLine
 10
-1362.796886898883
 20
1709.171636322126
 30
0.0
 11
-1362.296886898883
 21
1709.171636322126
 31
0.0
  0
LINE
  5
1EBAB
330
1A
100
AcDbEntity
  8
ZISSEN1
100
AcDbLine
 10
-1364.096886898882
 20
1685.871636322124
 30
0.0
 11
-1367.896886898882
 21
1685.871636322124
 31
0.0
  0
LINE
  5
1EBB0
330
1A
100
AcDbEntity
  8
ZISSEN1
 48
0.5
100
AcDbLine
 10
-1362.796886898883
 20
1685.671636322125
 30
0.0
 11
-1362.296886898883
 21
1685.671636322125
 31
0.0
  0
LINE
  5
1EBB1
330
1A
100
AcDbEntity
  8
ZISSEN1
 48
0.5
100
AcDbLine
 10
-1327.296886898882
 20
1737.671636322127
 30
0.0
 11
-1317.546886898882
 21
1737.671636322127
 31
0.0
  0
LINE
  5
1EBB2
330
1A
100
AcDbEntity
  8
ZISSEN1
 48
0.5
100
AcDbLine
 10
-1328.296886898882
 20
1736.671636322127
 30
0.0
 11
-1327.296886898882
 21
1737.671636322127
 31
0.0
  0
LINE
  5
1EBB3
330
1A
100
AcDbEntity
  8
ZISSEN1
 48
0.5
100
AcDbLine
 10
-1316.296886898883
 20
1719.371636322126
 30
0.0
 11
-1308.696886898883
 21
1719.371636322126
 31
0.0
  0
LINE
  5
1EBB4
330
1A
100
AcDbEntity
  8
ZISSEN1
 48
0.5
100
AcDbLine
 10
-1308.696886898883
 20
1726.171636322125
 30
0.0
 11
-1320.196886898882
 21
1726.171636322125
 31
0.0
  0
LINE
  5
1EBB6
330
1A
100
AcDbEntity
  8
ZISSEN1
100
AcDbLine
 10
-1314.196886898883
 20
1726.171636322127
 30
0.0
 11
-1311.196886898883
 21
1726.171636322127
 31
0.0
  0
LINE
  5
1EBB7
330
1A
100
AcDbEntity
  8
ZISSEN1
100
AcDbLine
 10
-1315.396886898882
 20
1726.151636322127
 30
0.0
 11
-1309.994872898882
 21
1726.151636322127
 31
0.0
  0
LINE
  5
1EBB8
330
1A
100
AcDbEntity
  8
ZISSEN1
100
AcDbLine
 10
-1312.395946138962
 20
1722.02226491781
 30
0.0
 11
-1312.591930583693
 21
1721.941085502787
 31
0.0
  0
LINE
  5
1EBB9
330
1A
100
AcDbEntity
  8
ZISSEN1
100
AcDbLine
 10
-1312.08459633725
 20
1723.949846952638
 30
0.0
 11
-1312.86742092453
 21
1723.625590391628
 31
0.0
  0
LINE
  5
1EBBA
330
1A
100
AcDbEntity
  8
ZISSEN1
100
AcDbLine
 10
-1314.196886898883
 20
1718.771636322126
 30
0.0
 11
-1311.196886898883
 21
1718.771636322126
 31
0.0
  0
LINE
  5
1EBBD
330
1A
100
AcDbEntity
  8
ZISSEN1
100
AcDbLine
 10
-1315.396886898882
 20
1718.791636322126
 30
0.0
 11
-1309.994872898882
 21
1718.791636322126
 31
0.0
  0
CIRCLE
  5
1EBBE
330
1A
100
AcDbEntity
  8
ZISSEN1
100
AcDbCircle
 10
-1312.696886898883
 20
1722.471636322126
 30
0.0
 40
1.75
  0
CIRCLE
  5
1EBBF
330
1A
100
AcDbEntity
  8
ZISSEN1
100
AcDbCircle
 10
-1312.696886898883
 20
1722.471636322126
 30
0.0
 40
1.7
  0
LINE
  5
1EBC1
330
1A
100
AcDbEntity
  8
ZISSEN1
 48
0.5
100
AcDbLine
 10
-1314.046886898882
 20
1737.671636322127
 30
0.0
 11
-1304.296886898882
 21
1737.671636322127
 31
0.0
  0
ARC
  5
1EBC2
330
1A
100
AcDbEntity
  8
ZISSEN1
 48
0.5
100
AcDbCircle
 10
-1315.796886898884
 20
1734.171636322125
 30
0.0
 40
1.749999999998181
100
AcDbArc
 50
179.9999999998957
 51
0.0000000001042077
  0
LINE
  5
1EBC3
330
1A
100
AcDbEntity
  8
ZISSEN1
 48
0.5
100
AcDbLine
 10
-1314.046886898882
 20
1734.171636322127
 30
0.0
 11
-1314.046886898882
 21
1737.671636322127
 31
0.0
  0
LINE
  5
1EBC4
330
1A
100
AcDbEntity
  8
ZISSEN1
 48
0.5
100
AcDbLine
 10
-1317.546886898882
 20
1737.671636322127
 30
0.0
 11
-1317.546886898882
 21
1734.171636322127
 31
0.0
  0
LINE
  5
1EBC5
330
1A
100
AcDbEntity
  8
ZISSEN1
 48
0.5
100
AcDbLine
 10
-1320.196886898882
 20
1719.371636322126
 30
0.0
 11
-1316.296886898883
 21
1719.371636322126
 31
0.0
  0
LINE
  5
1EBC6
330
1A
100
AcDbEntity
  8
ZISSEN1
 48
0.5
100
AcDbLine
 10
-1320.196886898882
 20
1726.171636322125
 30
0.0
 11
-1320.196886898882
 21
1718.571636322125
 31
0.0
  0
LINE
  5
1EBC7
330
1A
100
AcDbEntity
  8
ZISSEN1
 48
0.5
100
AcDbLine
 10
-1317.196886898882
 20
1724.671636322125
 30
0.0
 11
-1317.196886898882
 21
1719.371636322126
 31
0.0
  0
LINE
  5
1EBC8
330
1A
100
AcDbEntity
  8
ZISSEN1
 48
0.5
100
AcDbLine
 10
-1320.196886898882
 20
1726.171636322125
 30
0.0
 11
-1320.196886898882
 21
1719.371636322126
 31
0.0
  0
LINE
  5
1EBC9
330
1A
100
AcDbEntity
  8
ZISSEN1
 48
0.5
100
AcDbLine
 10
-1319.996886898882
 20
1724.671636322125
 30
0.0
 11
-1317.196886898882
 21
1724.671636322125
 31
0.0
  0
LINE
  5
1EBCA
330
1A
100
AcDbEntity
  8
ZISSEN1
 48
0.5
100
AcDbLine
 10
-1319.996886898882
 20
1726.171636322125
 30
0.0
 11
-1319.996886898882
 21
1724.671636322125
 31
0.0
  0
LINE
  5
1EBCB
330
1A
100
AcDbEntity
  8
ZISSEN1
 48
0.5
100
AcDbLine
 10
-1319.196886898882
 20
1718.571636322125
 30
0.0
 11
-1319.196886898882
 21
1719.371636322126
 31
0.0
  0
LINE
  5
1EBCC
330
1A
100
AcDbEntity
  8
ZISSEN1
 48
0.5
100
AcDbLine
 10
-1320.196886898882
 20
1718.571636322125
 30
0.0
 11
-1319.196886898882
 21
1718.571636322125
 31
0.0
  0
LINE
  5
1EBCD
330
1A
100
AcDbEntity
  8
ZISSEN1
100
AcDbLine
 10
-1315.996886898883
 20
1725.421636322127
 30
0.0
 11
-1315.796886898883
 21
1725.621636322126
 31
0.0
  0
LINE
  5
1EBCE
330
1A
100
AcDbEntity
  8
ZISSEN1
100
AcDbLine
 10
-1315.996886898883
 20
1725.421636322127
 30
0.0
 11
-1315.996886898883
 21
1725.177908322126
 31
0.0
  0
LINE
  5
1EBCF
330
1A
100
AcDbEntity
  8
ZISSEN1
100
AcDbLine
 10
-1316.276886898883
 20
1725.171636322127
 30
0.0
 11
-1315.993898898883
 21
1725.171636322127
 31
0.0
  0
LINE
  5
1EBD0
330
1A
100
AcDbEntity
  8
ZISSEN1
100
AcDbLine
 10
-1316.046886898883
 20
1725.771636322126
 30
0.0
 11
-1316.046886898883
 21
1725.171636322127
 31
0.0
  0
LINE
  5
1EBD1
330
1A
100
AcDbEntity
  8
ZISSEN1
100
AcDbLine
 10
-1315.946886898883
 20
1725.771636322126
 30
0.0
 11
-1315.946886898883
 21
1725.471636322127
 31
0.0
  0
ARC
  5
1EBD2
330
1A
100
AcDbEntity
  8
ZISSEN1
100
AcDbCircle
 10
-1316.096886898882
 20
1725.571636322127
 30
0.0
 40
0.2
100
AcDbArc
 50
90.0000161648991
 51
180.0000049782966
  0
LINE
  5
1EBD3
330
1A
100
AcDbEntity
  8
ZISSEN1
100
AcDbLine
 10
-1315.396886898882
 20
1726.151636322127
 30
0.0
 11
-1315.396886898882
 21
1725.821636322127
 31
0.0
  0
LINE
  5
1EBD4
330
1A
100
AcDbEntity
  8
ZISSEN1
100
AcDbLine
 10
-1314.196886898883
 20
1726.171636322127
 30
0.0
 11
-1314.196886898883
 21
1726.151636322127
 31
0.0
  0
ARC
  5
1EBD5
330
1A
100
AcDbEntity
  8
ZISSEN1
100
AcDbCircle
 10
-1315.596886898882
 20
1725.821636322127
 30
0.0
 40
0.2
100
AcDbArc
 50
269.9999949911147
 51
359.9999975852129
  0
LINE
  5
1EBD6
330
1A
100
AcDbEntity
  8
ZISSEN1
100
AcDbLine
 10
-1315.796886898883
 20
1725.621636322126
 30
0.0
 11
-1315.596886898882
 21
1725.621636322126
 31
0.0
  0
LINE
  5
1EBD7
330
1A
100
AcDbEntity
  8
ZISSEN1
100
AcDbLine
 10
-1316.096886898882
 20
1725.771636322126
 30
0.0
 11
-1315.403238898883
 21
1725.771636322126
 31
0.0
  0
LINE
  5
1EBDA
330
1A
100
AcDbEntity
  8
ZISSEN1
100
AcDbLine
 10
-1315.796886898883
 20
1719.321634322126
 30
0.0
 11
-1315.996888898882
 21
1719.521636322126
 31
0.0
  0
LINE
  5
1EBDB
330
1A
100
AcDbEntity
  8
ZISSEN1
100
AcDbLine
 10
-1315.996886898883
 20
1719.521636322126
 30
0.0
 11
-1315.996886898883
 21
1719.764954322127
 31
0.0
  0
LINE
  5
1EBDC
330
1A
100
AcDbEntity
  8
ZISSEN1
100
AcDbLine
 10
-1316.276886898883
 20
1719.771636322126
 30
0.0
 11
-1315.993898898883
 21
1719.771636322126
 31
0.0
  0
LINE
  5
1EBDD
330
1A
100
AcDbEntity
  8
ZISSEN1
100
AcDbLine
 10
-1315.796886898883
 20
1719.321636322127
 30
0.0
 11
-1315.596886898882
 21
1719.321636322127
 31
0.0
  0
LINE
  5
1EBDE
330
1A
100
AcDbEntity
  8
ZISSEN1
100
AcDbLine
 10
-1316.276886898883
 20
1719.771688322127
 30
0.0
 11
-1316.276886898883
 21
1722.471636322127
 31
0.0
  0
LINE
  5
1EBE0
330
1A
100
AcDbEntity
  8
ZISSEN1
100
AcDbLine
 10
-1312.997827658804
 20
1722.921007726445
 30
0.0
 11
-1312.801843214072
 21
1723.002187141466
 31
0.0
  0
LINE
  5
1EBE1
330
1A
100
AcDbEntity
  8
ZISSEN1
100
AcDbLine
 10
-1312.591513299237
 20
1723.51038134833
 30
0.0
 11
-1312.870306882486
 21
1723.625861431615
 31
0.0
  0
LINE
  5
1EBE2
330
1A
100
AcDbEntity
  8
ZISSEN1
100
AcDbLine
 10
-1312.955479844441
 20
1721.063399946902
 30
0.0
 11
-1313.509807563947
 21
1721.293010006322
 31
0.0
  0
LINE
  5
1EBE3
330
1A
100
AcDbEntity
  8
ZISSEN1
100
AcDbLine
 10
-1312.955479079074
 20
1721.063401794661
 30
0.0
 11
-1312.591930583693
 21
1721.941085502787
 31
0.0
  0
LINE
  5
1EBE4
330
1A
100
AcDbEntity
  8
ZISSEN1
100
AcDbLine
 10
-1313.509806798581
 20
1721.29301185408
 30
0.0
 11
-1313.146258303201
 21
1722.170695562206
 31
0.0
  0
LINE
  5
1EBE5
330
1A
100
AcDbEntity
  8
ZISSEN1
100
AcDbLine
 10
-1313.146258303201
 20
1722.170695562206
 30
0.0
 11
-1313.227437718222
 21
1722.366680006938
 31
0.0
  0
LINE
  5
1EBE6
330
1A
100
AcDbEntity
  8
ZISSEN1
100
AcDbLine
 10
-1313.828193616616
 20
1722.614858823701
 30
0.0
 11
-1313.599190493121
 21
1723.16772127027
 31
0.0
  0
LINE
  5
1EBE7
330
1A
100
AcDbEntity
  8
ZISSEN1
100
AcDbLine
 10
-1313.227437718222
 20
1722.366680006938
 30
0.0
 11
-1313.830877025918
 21
1722.616632752255
 31
0.0
  0
LINE
  5
1EBE8
330
1A
100
AcDbEntity
  8
ZISSEN1
100
AcDbLine
 10
-1312.997827658804
 20
1722.921007726445
 30
0.0
 11
-1313.596542246571
 21
1723.169003428689
 31
0.0
  0
LINE
  5
1EBE9
330
1A
100
AcDbEntity
  8
ZISSEN1
100
AcDbLine
 10
-1312.801843214072
 20
1723.002187141466
 30
0.0
 11
-1312.476457441301
 21
1723.787737887094
 31
0.0
  0
LINE
  5
1EBEC
330
1A
100
AcDbEntity
  8
ZISSEN1
100
AcDbLine
 10
-1315.396886898882
 20
1718.791636322126
 30
0.0
 11
-1315.396886898882
 21
1719.121636322126
 31
0.0
  0
LINE
  5
1EBED
330
1A
100
AcDbEntity
  8
ZISSEN1
100
AcDbLine
 10
-1314.196886898883
 20
1718.771636322126
 30
0.0
 11
-1314.196886898883
 21
1718.791636322126
 31
0.0
  0
LINE
  5
1EBEE
330
1A
100
AcDbEntity
  8
ZISSEN1
100
AcDbLine
 10
-1316.096886898882
 20
1719.171636322127
 30
0.0
 11
-1315.403238898883
 21
1719.171636322127
 31
0.0
  0
LINE
  5
1EBEF
330
1A
100
AcDbEntity
  8
ZISSEN1
100
AcDbLine
 10
-1316.046886898883
 20
1719.771636322126
 30
0.0
 11
-1316.046886898883
 21
1719.171636322127
 31
0.0
  0
LINE
  5
1EBF0
330
1A
100
AcDbEntity
  8
ZISSEN1
100
AcDbLine
 10
-1315.946886898883
 20
1719.471634322126
 30
0.0
 11
-1315.946886898883
 21
1719.171636322127
 31
0.0
  0
ARC
  5
1EBF1
330
1A
100
AcDbEntity
  8
ZISSEN1
100
AcDbCircle
 10
-1316.096886898882
 20
1719.371636322126
 30
0.0
 40
0.2
100
AcDbArc
 50
179.9999950217034
 51
269.999983835205
  0
ARC
  5
1EBF2
330
1A
100
AcDbEntity
  8
ZISSEN1
100
AcDbCircle
 10
-1315.596886898882
 20
1719.121636322126
 30
0.0
 40
0.2
100
AcDbArc
 50
359.9999975852129
 51
90.00000000010423
  0
LINE
  5
1EBF3
330
1A
100
AcDbEntity
  8
ZISSEN1
100
AcDbLine
 10
-1316.276886898883
 20
1725.171584322126
 30
0.0
 11
-1316.276886898883
 21
1722.471636322127
 31
0.0
  0
LINE
  5
1EBF4
330
1A
100
AcDbEntity
  8
ZISSEN1
100
AcDbLine
 10
-1316.296886898883
 20
1725.571636322127
 30
0.0
 11
-1316.296886898883
 21
1719.371636322126
 31
0.0
  0
ARC
  5
1EBF7
330
1A
100
AcDbEntity
  8
ZISSEN1
100
AcDbCircle
 10
-1306.005088069418
 20
1729.171636322125
 30
0.0
 40
4.06366340092025
100
AcDbArc
 50
137.4114170199091
 51
222.5885829800811
  0
LINE
  5
1EBF8
330
1A
100
AcDbEntity
  8
ZISSEN1
 48
0.5
100
AcDbLine
 10
-1308.696886898883
 20
1731.921636322125
 30
0.0
 11
-1308.696886898883
 21
1726.421636322125
 31
0.0
  0
LINE
  5
1EBF9
330
1A
100
AcDbEntity
  8
ZISSEN1
 48
0.5
100
AcDbLine
 10
-1304.296886898882
 20
1737.671636322127
 30
0.0
 11
-1303.296886898882
 21
1736.671636322127
 31
0.0
  0
LINE
  5
1EBFA
330
1A
100
AcDbEntity
  8
ZISSEN1
 48
0.5
100
AcDbLine
 10
-1303.296886898882
 20
1732.671636322127
 30
0.0
 11
-1303.296886898882
 21
1736.671636322127
 31
0.0
  0
LINE
  5
1EBFB
330
1A
100
AcDbEntity
  8
ZISSEN1
100
AcDbLine
 10
-1308.996886898882
 20
1731.921636322125
 30
0.0
 11
-1308.696886898881
 21
1731.921636322125
 31
0.0
  0
LINE
  5
1EBFC
330
1A
100
AcDbEntity
  8
ZISSEN1
 48
0.5
100
AcDbLine
 10
-1303.796886898882
 20
1731.671636322127
 30
0.0
 11
-1306.796886898882
 21
1731.671636322127
 31
0.0
  0
LINE
  5
1EBFD
330
1A
100
AcDbEntity
  8
ZISSEN1
 48
0.5
100
AcDbLine
 10
-1306.796886898882
 20
1731.171636322127
 30
0.0
 11
-1308.696886898883
 21
1731.171636322127
 31
0.0
  0
LINE
  5
1EBFE
330
1A
100
AcDbEntity
  8
ZISSEN1
 48
0.5
100
AcDbLine
 10
-1306.796886898882
 20
1732.171636322127
 30
0.0
 11
-1308.696886898883
 21
1732.171636322127
 31
0.0
  0
LINE
  5
1EBFF
330
1A
100
AcDbEntity
  8
ZISSEN1
 48
0.5
100
AcDbLine
 10
-1309.096886898882
 20
1732.671636322127
 30
0.0
 11
-1309.096886898881
 21
1731.808706710664
 31
0.0
  0
LINE
  5
1EC00
330
1A
100
AcDbEntity
  8
ZISSEN1
100
AcDbLine
 10
-1309.394334898883
 20
1719.771636322126
 30
0.0
 11
-1309.194346898882
 21
1719.771636322126
 31
0.0
  0
LINE
  5
1EC01
330
1A
100
AcDbEntity
  8
ZISSEN1
100
AcDbLine
 10
-1309.394334898883
 20
1719.771636322126
 30
0.0
 11
-1308.696886898883
 21
1719.771636322126
 31
0.0
  0
LINE
  5
1EC02
330
1A
100
AcDbEntity
  8
ZISSEN1
100
AcDbLine
 10
-1311.196886898883
 20
1726.171636322127
 30
0.0
 11
-1311.196886898883
 21
1726.151636322127
 31
0.0
  0
LINE
  5
1EC03
330
1A
100
AcDbEntity
  8
ZISSEN1
100
AcDbLine
 10
-1309.396886898882
 20
1725.421634322127
 30
0.0
 11
-1309.596886898882
 21
1725.621634322127
 31
0.0
  0
LINE
  5
1EC04
330
1A
100
AcDbEntity
  8
ZISSEN1
100
AcDbLine
 10
-1309.396886898882
 20
1725.421636322127
 30
0.0
 11
-1309.396886898882
 21
1725.171176322126
 31
0.0
  0
LINE
  5
1EC05
330
1A
100
AcDbEntity
  8
ZISSEN1
100
AcDbLine
 10
-1309.394334898883
 20
1725.171636322127
 30
0.0
 11
-1309.194346898882
 21
1725.171636322127
 31
0.0
  0
LINE
  5
1EC06
330
1A
100
AcDbEntity
  8
ZISSEN1
100
AcDbLine
 10
-1309.596886898882
 20
1725.621636322126
 30
0.0
 11
-1309.796886898883
 21
1725.621636322126
 31
0.0
  0
LINE
  5
1EC07
330
1A
100
AcDbEntity
  8
ZISSEN1
100
AcDbLine
 10
-1309.996886898883
 20
1726.151636322127
 30
0.0
 11
-1309.996886898883
 21
1725.821636322127
 31
0.0
  0
LINE
  5
1EC08
330
1A
100
AcDbEntity
  8
ZISSEN1
100
AcDbLine
 10
-1309.096886898882
 20
1725.361636322126
 30
0.0
 11
-1309.096886898882
 21
1725.171636322127
 31
0.0
  0
LINE
  5
1EC09
330
1A
100
AcDbEntity
  8
ZISSEN1
100
AcDbLine
 10
-1309.346886898882
 20
1725.771636322126
 30
0.0
 11
-1309.346886898882
 21
1725.171636322127
 31
0.0
  0
LINE
  5
1EC0A
330
1A
100
AcDbEntity
  8
ZISSEN1
100
AcDbLine
 10
-1309.446886898882
 20
1725.771636322126
 30
0.0
 11
-1309.446886898882
 21
1725.471634322126
 31
0.0
  0
ARC
  5
1EC0B
330
1A
100
AcDbEntity
  8
ZISSEN1
100
AcDbCircle
 10
-1309.796886898883
 20
1725.821636322127
 30
0.0
 40
0.2
100
AcDbArc
 50
180.000002414787
 51
270.0000050086768
  0
ARC
  5
1EC0C
330
1A
100
AcDbEntity
  8
ZISSEN1
100
AcDbCircle
 10
-1309.246886898883
 20
1724.021636322126
 30
0.0
 40
0.15
100
AcDbArc
 50
90.00000000010423
 51
180.0000025613209
  0
LINE
  5
1EC0D
330
1A
100
AcDbEntity
  8
ZISSEN1
100
AcDbLine
 10
-1308.696886898883
 20
1725.261636322126
 30
0.0
 11
-1308.696886898883
 21
1725.171636322127
 31
0.0
  0
LINE
  5
1EC0E
330
1A
100
AcDbEntity
  8
ZISSEN1
100
AcDbLine
 10
-1308.696886898883
 20
1725.361636322126
 30
0.0
 11
-1308.896886898882
 21
1725.361636322126
 31
0.0
  0
LINE
  5
1EC0F
330
1A
100
AcDbEntity
  8
ZISSEN1
100
AcDbLine
 10
-1308.696886898883
 20
1725.771636322126
 30
0.0
 11
-1308.696886898883
 21
1725.361636322126
 31
0.0
  0
LINE
  5
1EC10
330
1A
100
AcDbEntity
  8
ZISSEN1
100
AcDbLine
 10
-1308.696886898883
 20
1725.771636322126
 30
0.0
 11
-1308.696886898883
 21
1725.361636322126
 31
0.0
  0
LINE
  5
1EC11
330
1A
100
AcDbEntity
  8
ZISSEN1
100
AcDbLine
 10
-1308.846886898882
 20
1725.361636322126
 30
0.0
 11
-1308.846886898882
 21
1725.261636322126
 31
0.0
  0
LINE
  5
1EC12
330
1A
100
AcDbEntity
  8
ZISSEN1
100
AcDbLine
 10
-1308.846886898882
 20
1724.091634322126
 30
0.0
 11
-1308.846886898882
 21
1723.991634322126
 31
0.0
  0
LINE
  5
1EC13
330
1A
100
AcDbEntity
  8
ZISSEN1
100
AcDbLine
 10
-1308.696886898883
 20
1724.661636322127
 30
0.0
 11
-1308.696886898883
 21
1724.091634322126
 31
0.0
  0
LINE
  5
1EC14
330
1A
100
AcDbEntity
  8
ZISSEN1
100
AcDbLine
 10
-1308.696886898883
 20
1724.171636322127
 30
0.0
 11
-1308.696886898883
 21
1724.091634322126
 31
0.0
  0
LINE
  5
1EC15
330
1A
100
AcDbEntity
  8
ZISSEN1
100
AcDbLine
 10
-1308.696886898883
 20
1724.091634322126
 30
0.0
 11
-1308.896886898882
 21
1724.091634322126
 31
0.0
  0
LINE
  5
1EC16
330
1A
100
AcDbEntity
  8
ZISSEN1
100
AcDbLine
 10
-1308.696886898883
 20
1724.171636322127
 30
0.0
 11
-1308.696886898883
 21
1725.171636322127
 31
0.0
  0
LINE
  5
1EC17
330
1A
100
AcDbEntity
  8
ZISSEN1
100
AcDbLine
 10
-1308.876886898883
 20
1724.171636322127
 30
0.0
 11
-1308.876886898883
 21
1725.171636322127
 31
0.0
  0
LINE
  5
1EC18
330
1A
100
AcDbEntity
  8
ZISSEN1
100
AcDbLine
 10
-1309.394334898883
 20
1725.171636322127
 30
0.0
 11
-1308.696886898883
 21
1725.171636322127
 31
0.0
  0
LINE
  5
1EC19
330
1A
100
AcDbEntity
  8
ZISSEN1
100
AcDbLine
 10
-1309.990536898882
 20
1725.771636322126
 30
0.0
 11
-1308.696886898883
 21
1725.771636322126
 31
0.0
  0
LINE
  5
1EC1A
330
1A
100
AcDbEntity
  8
ZISSEN1
100
AcDbLine
 10
-1309.246886898883
 20
1724.171636322127
 30
0.0
 11
-1308.696886898883
 21
1724.171636322127
 31
0.0
  0
LINE
  5
1EC1B
330
1A
100
AcDbEntity
  8
ZISSEN1
100
AcDbLine
 10
-1308.696886898883
 20
1725.261636322126
 30
0.0
 11
-1309.096886898882
 21
1725.261636322126
 31
0.0
  0
LINE
  5
1EC1C
330
1A
100
AcDbEntity
  8
ZISSEN1
100
AcDbLine
 10
-1308.696886898883
 20
1723.991634322126
 30
0.0
 11
-1309.096886898882
 21
1723.991634322126
 31
0.0
  0
LINE
  5
1EC1D
330
1A
100
AcDbEntity
  8
ZISSEN1
100
AcDbLine
 10
-1308.696886898883
 20
1725.361636322126
 30
0.0
 11
-1309.096886898882
 21
1725.361636322126
 31
0.0
  0
LINE
  5
1EC1E
330
1A
100
AcDbEntity
  8
ZISSEN1
100
AcDbLine
 10
-1308.696886898883
 20
1724.091634322126
 30
0.0
 11
-1309.096886898882
 21
1724.091634322126
 31
0.0
  0
LINE
  5
1EC1F
330
1A
100
AcDbEntity
  8
ZISSEN1
100
AcDbLine
 10
-1311.795658645091
 20
1721.772955272499
 30
0.0
 11
-1311.566655521596
 21
1722.325817719067
 31
0.0
  0
LINE
  5
1EC20
330
1A
100
AcDbEntity
  8
ZISSEN1
100
AcDbLine
 10
-1311.794264050137
 20
1721.773040036381
 30
0.0
 11
-1312.395946138962
 21
1722.02226491781
 31
0.0
  0
LINE
  5
1EC21
330
1A
100
AcDbEntity
  8
ZISSEN1
100
AcDbLine
 10
-1311.564653990719
 20
1722.327367755888
 30
0.0
 11
-1312.166336079544
 21
1722.576592637317
 31
0.0
  0
LINE
  5
1EC22
330
1A
100
AcDbEntity
  8
ZISSEN1
100
AcDbLine
 10
-1312.166336079544
 20
1722.576592637317
 30
0.0
 11
-1312.247515494565
 21
1722.772577082047
 31
0.0
  0
LINE
  5
1EC23
330
1A
100
AcDbEntity
  8
ZISSEN1
100
AcDbLine
 10
-1311.764581989351
 20
1723.167855184623
 30
0.0
 11
-1312.038650852669
 21
1723.281378224836
 31
0.0
  0
LINE
  5
1EC24
330
1A
100
AcDbEntity
  8
ZISSEN1
100
AcDbLine
 10
-1312.247515494565
 20
1722.772577082047
 30
0.0
 11
-1311.922129721795
 21
1723.558127827675
 31
0.0
  0
LINE
  5
1EC25
330
1A
100
AcDbEntity
  8
ZISSEN1
100
AcDbLine
 10
-1311.75946660276
 20
1723.164918033617
 30
0.0
 11
-1312.084594489491
 21
1723.949846187271
 31
0.0
  0
LINE
  5
1EC26
330
1A
100
AcDbEntity
  8
ZISSEN1
100
AcDbLine
 10
-1311.196886898883
 20
1718.791636322126
 30
0.0
 11
-1311.196886898883
 21
1718.771636322126
 31
0.0
  0
LINE
  5
1EC27
330
1A
100
AcDbEntity
  8
ZISSEN1
100
AcDbLine
 10
-1309.246886898883
 20
1723.871636322126
 30
0.0
 11
-1309.116886898883
 21
1723.871636322126
 31
0.0
  0
LINE
  5
1EC28
330
1A
100
AcDbEntity
  8
ZISSEN1
100
AcDbLine
 10
-1309.116886898883
 20
1723.871636322126
 30
0.0
 11
-1309.116886898883
 21
1722.471636322127
 31
0.0
  0
LINE
  5
1EC29
330
1A
100
AcDbEntity
  8
ZISSEN1
100
AcDbLine
 10
-1309.096886898882
 20
1722.821636322127
 30
0.0
 11
-1309.096886898882
 21
1722.121636322126
 31
0.0
  0
LINE
  5
1EC2A
330
1A
100
AcDbEntity
  8
ZISSEN1
100
AcDbLine
 10
-1308.696886898883
 20
1723.391636322126
 30
0.0
 11
-1308.696886898883
 21
1722.821636322127
 31
0.0
  0
LINE
  5
1EC2B
330
1A
100
AcDbEntity
  8
ZISSEN1
100
AcDbLine
 10
-1308.696886898883
 20
1723.391636322126
 30
0.0
 11
-1308.696886898883
 21
1722.821636322127
 31
0.0
  0
LINE
  5
1EC2C
330
1A
100
AcDbEntity
  8
ZISSEN1
100
AcDbLine
 10
-1308.696886898883
 20
1722.821636322127
 30
0.0
 11
-1308.896886898882
 21
1722.821636322127
 31
0.0
  0
LINE
  5
1EC2D
330
1A
100
AcDbEntity
  8
ZISSEN1
100
AcDbLine
 10
-1308.696886898883
 20
1723.391636322126
 30
0.0
 11
-1308.896886898882
 21
1723.391636322126
 31
0.0
  0
LINE
  5
1EC2E
330
1A
100
AcDbEntity
  8
ZISSEN1
100
AcDbLine
 10
-1308.846886898882
 20
1723.491636322127
 30
0.0
 11
-1308.846886898882
 21
1723.391636322126
 31
0.0
  0
LINE
  5
1EC2F
330
1A
100
AcDbEntity
  8
ZISSEN1
100
AcDbLine
 10
-1308.696886898883
 20
1722.221636322126
 30
0.0
 11
-1308.696886898883
 21
1722.721636322127
 31
0.0
  0
LINE
  5
1EC30
330
1A
100
AcDbEntity
  8
ZISSEN1
100
AcDbLine
 10
-1308.696886898883
 20
1722.121636322126
 30
0.0
 11
-1308.896886898882
 21
1722.121636322126
 31
0.0
  0
LINE
  5
1EC31
330
1A
100
AcDbEntity
  8
ZISSEN1
100
AcDbLine
 10
-1308.846886898882
 20
1722.221636322126
 30
0.0
 11
-1308.846886898882
 21
1722.121636322126
 31
0.0
  0
LINE
  5
1EC32
330
1A
100
AcDbEntity
  8
ZISSEN1
100
AcDbLine
 10
-1308.846886898882
 20
1722.821636322127
 30
0.0
 11
-1308.846886898882
 21
1722.721636322127
 31
0.0
  0
LINE
  5
1EC33
330
1A
100
AcDbEntity
  8
ZISSEN1
100
AcDbLine
 10
-1308.696886898883
 20
1723.491636322127
 30
0.0
 11
-1309.096886898882
 21
1723.491636322127
 31
0.0
  0
LINE
  5
1EC34
330
1A
100
AcDbEntity
  8
ZISSEN1
100
AcDbLine
 10
-1308.696886898883
 20
1722.721636322127
 30
0.0
 11
-1309.096886898882
 21
1722.721636322127
 31
0.0
  0
LINE
  5
1EC35
330
1A
100
AcDbEntity
  8
ZISSEN1
100
AcDbLine
 10
-1308.696886898883
 20
1722.221636322126
 30
0.0
 11
-1309.096886898882
 21
1722.221636322126
 31
0.0
  0
LINE
  5
1EC36
330
1A
100
AcDbEntity
  8
ZISSEN1
100
AcDbLine
 10
-1308.696886898883
 20
1722.821636322127
 30
0.0
 11
-1309.096886898882
 21
1722.821636322127
 31
0.0
  0
LINE
  5
1EC37
330
1A
100
AcDbEntity
  8
ZISSEN1
100
AcDbLine
 10
-1308.696886898883
 20
1723.391636322126
 30
0.0
 11
-1309.096886898882
 21
1723.391636322126
 31
0.0
  0
LINE
  5
1EC38
330
1A
100
AcDbEntity
  8
ZISSEN1
100
AcDbLine
 10
-1308.696886898883
 20
1722.121636322126
 30
0.0
 11
-1309.096886898882
 21
1722.121636322126
 31
0.0
  0
LINE
  5
1EC39
330
1A
100
AcDbEntity
  8
ZISSEN1
100
AcDbLine
 10
-1309.396886898882
 20
1720.921636322127
 30
0.0
 11
-1309.396886898882
 21
1720.921636322127
 31
0.0
  0
LINE
  5
1EC3A
330
1A
100
AcDbEntity
  8
ZISSEN1
100
AcDbLine
 10
-1309.246886898883
 20
1721.071636322127
 30
0.0
 11
-1309.116886898883
 21
1721.071636322127
 31
0.0
  0
LINE
  5
1EC3B
330
1A
100
AcDbEntity
  8
ZISSEN1
100
AcDbLine
 10
-1309.096886898882
 20
1721.551636322127
 30
0.0
 11
-1309.096886898882
 21
1720.851636322126
 31
0.0
  0
LINE
  5
1EC3C
330
1A
100
AcDbEntity
  8
ZISSEN1
100
AcDbLine
 10
-1309.346886898882
 20
1721.033438322127
 30
0.0
 11
-1309.346886898882
 21
1720.809832322127
 31
0.0
  0
ARC
  5
1EC3D
330
1A
100
AcDbEntity
  8
ZISSEN1
100
AcDbCircle
 10
-1309.246886898883
 20
1720.921636322127
 30
0.0
 40
0.15
100
AcDbArc
 50
89.99999999968732
 51
180.0000025613209
  0
ARC
  5
1EC3E
330
1A
100
AcDbEntity
  8
ZISSEN1
100
AcDbCircle
 10
-1309.246886898883
 20
1720.921636322127
 30
0.0
 40
0.15
100
AcDbArc
 50
180.0000025613209
 51
270.0000050089895
  0
LINE
  5
1EC3F
330
1A
100
AcDbEntity
  8
ZISSEN1
100
AcDbLine
 10
-1309.596886898882
 20
1719.321636322127
 30
0.0
 11
-1309.396886898882
 21
1719.521636322126
 31
0.0
  0
LINE
  5
1EC40
330
1A
100
AcDbEntity
  8
ZISSEN1
100
AcDbLine
 10
-1309.396886898882
 20
1719.521636322126
 30
0.0
 11
-1309.396886898882
 21
1719.764954322127
 31
0.0
  0
LINE
  5
1EC41
330
1A
100
AcDbEntity
  8
ZISSEN1
100
AcDbLine
 10
-1309.596886898882
 20
1719.321636322127
 30
0.0
 11
-1309.796886898883
 21
1719.321636322127
 31
0.0
  0
LINE
  5
1EC42
330
1A
100
AcDbEntity
  8
ZISSEN1
100
AcDbLine
 10
-1309.096886898882
 20
1719.771636322126
 30
0.0
 11
-1309.096886898882
 21
1719.581634322126
 31
0.0
  0
LINE
  5
1EC43
330
1A
100
AcDbEntity
  8
ZISSEN1
100
AcDbLine
 10
-1308.846886898882
 20
1720.951636322126
 30
0.0
 11
-1308.846886898882
 21
1720.851636322126
 31
0.0
  0
LINE
  5
1EC44
330
1A
100
AcDbEntity
  8
ZISSEN1
100
AcDbLine
 10
-1308.696886898883
 20
1720.951636322126
 30
0.0
 11
-1308.696886898883
 21
1721.451636322126
 31
0.0
  0
LINE
  5
1EC45
330
1A
100
AcDbEntity
  8
ZISSEN1
100
AcDbLine
 10
-1308.696886898883
 20
1720.771636322126
 30
0.0
 11
-1308.696886898883
 21
1720.851636322126
 31
0.0
  0
LINE
  5
1EC46
330
1A
100
AcDbEntity
  8
ZISSEN1
100
AcDbLine
 10
-1308.696886898883
 20
1721.551636322127
 30
0.0
 11
-1308.896886898882
 21
1721.551636322127
 31
0.0
  0
LINE
  5
1EC47
330
1A
100
AcDbEntity
  8
ZISSEN1
100
AcDbLine
 10
-1308.696886898883
 20
1720.851636322126
 30
0.0
 11
-1308.896886898882
 21
1720.851636322126
 31
0.0
  0
LINE
  5
1EC48
330
1A
100
AcDbEntity
  8
ZISSEN1
100
AcDbLine
 10
-1308.846886898882
 20
1721.551636322127
 30
0.0
 11
-1308.846886898882
 21
1721.451636322126
 31
0.0
  0
LINE
  5
1EC49
330
1A
100
AcDbEntity
  8
ZISSEN1
100
AcDbLine
 10
-1308.696886898883
 20
1719.681638322126
 30
0.0
 11
-1308.696886898883
 21
1719.771636322126
 31
0.0
  0
LINE
  5
1EC4A
330
1A
100
AcDbEntity
  8
ZISSEN1
100
AcDbLine
 10
-1308.696886898883
 20
1719.581634322126
 30
0.0
 11
-1308.896886898882
 21
1719.581634322126
 31
0.0
  0
LINE
  5
1EC4B
330
1A
100
AcDbEntity
  8
ZISSEN1
100
AcDbLine
 10
-1308.846886898882
 20
1719.681638322126
 30
0.0
 11
-1308.846886898882
 21
1719.581634322126
 31
0.0
  0
LINE
  5
1EC4C
330
1A
100
AcDbEntity
  8
ZISSEN1
100
AcDbLine
 10
-1308.696886898883
 20
1719.771636322126
 30
0.0
 11
-1308.696886898883
 21
1720.771636322126
 31
0.0
  0
LINE
  5
1EC4D
330
1A
100
AcDbEntity
  8
ZISSEN1
100
AcDbLine
 10
-1308.876886898883
 20
1719.771636322126
 30
0.0
 11
-1308.876886898883
 21
1720.771636322126
 31
0.0
  0
LINE
  5
1EC4E
330
1A
100
AcDbEntity
  8
ZISSEN1
100
AcDbLine
 10
-1308.696886898883
 20
1720.281634322127
 30
0.0
 11
-1308.696886898883
 21
1720.851636322126
 31
0.0
  0
LINE
  5
1EC4F
330
1A
100
AcDbEntity
  8
ZISSEN1
100
AcDbLine
 10
-1309.246886898883
 20
1720.771636322126
 30
0.0
 11
-1308.696886898883
 21
1720.771636322126
 31
0.0
  0
LINE
  5
1EC50
330
1A
100
AcDbEntity
  8
ZISSEN1
100
AcDbLine
 10
-1308.696886898883
 20
1721.451636322126
 30
0.0
 11
-1309.096886898882
 21
1721.451636322126
 31
0.0
  0
LINE
  5
1EC51
330
1A
100
AcDbEntity
  8
ZISSEN1
100
AcDbLine
 10
-1308.696886898883
 20
1720.951636322126
 30
0.0
 11
-1309.096886898882
 21
1720.951636322126
 31
0.0
  0
LINE
  5
1EC52
330
1A
100
AcDbEntity
  8
ZISSEN1
100
AcDbLine
 10
-1308.696886898883
 20
1719.681638322126
 30
0.0
 11
-1309.096886898882
 21
1719.681638322126
 31
0.0
  0
LINE
  5
1EC53
330
1A
100
AcDbEntity
  8
ZISSEN1
100
AcDbLine
 10
-1308.696886898883
 20
1719.581634322126
 30
0.0
 11
-1309.096886898882
 21
1719.581634322126
 31
0.0
  0
LINE
  5
1EC54
330
1A
100
AcDbEntity
  8
ZISSEN1
100
AcDbLine
 10
-1308.696886898883
 20
1721.551636322127
 30
0.0
 11
-1309.096886898882
 21
1721.551636322127
 31
0.0
  0
LINE
  5
1EC55
330
1A
100
AcDbEntity
  8
ZISSEN1
100
AcDbLine
 10
-1308.696886898883
 20
1720.851636322126
 30
0.0
 11
-1309.096886898882
 21
1720.851636322126
 31
0.0
  0
LINE
  5
1EC56
330
1A
100
AcDbEntity
  8
ZISSEN1
100
AcDbLine
 10
-1309.116886898883
 20
1721.071636322127
 30
0.0
 11
-1309.116886898883
 21
1722.471636322127
 31
0.0
  0
LINE
  5
1EC57
330
1A
100
AcDbEntity
  8
ZISSEN1
100
AcDbLine
 10
-1308.696886898883
 20
1721.551636322127
 30
0.0
 11
-1308.696886898883
 21
1722.121636322126
 31
0.0
  0
LINE
  5
1EC58
330
1A
100
AcDbEntity
  8
ZISSEN1
100
AcDbLine
 10
-1308.696886898883
 20
1721.551636322127
 30
0.0
 11
-1308.696886898883
 21
1722.121636322126
 31
0.0
  0
LINE
  5
1EC59
330
1A
100
AcDbEntity
  8
ZISSEN1
100
AcDbLine
 10
-1309.996886898883
 20
1718.791636322126
 30
0.0
 11
-1309.996886898883
 21
1719.121636322126
 31
0.0
  0
LINE
  5
1EC5A
330
1A
100
AcDbEntity
  8
ZISSEN1
100
AcDbLine
 10
-1309.990536898882
 20
1719.171636322127
 30
0.0
 11
-1308.696886898883
 21
1719.171636322127
 31
0.0
  0
LINE
  5
1EC5B
330
1A
100
AcDbEntity
  8
ZISSEN1
100
AcDbLine
 10
-1309.446886898882
 20
1719.471634322126
 30
0.0
 11
-1309.446886898882
 21
1719.171636322127
 31
0.0
  0
LINE
  5
1EC5C
330
1A
100
AcDbEntity
  8
ZISSEN1
100
AcDbLine
 10
-1309.346886898882
 20
1719.771636322126
 30
0.0
 11
-1309.346886898882
 21
1719.171636322127
 31
0.0
  0
LINE
  5
1EC5D
330
1A
100
AcDbEntity
  8
ZISSEN1
100
AcDbLine
 10
-1308.696886898883
 20
1719.171636322127
 30
0.0
 11
-1308.696886898883
 21
1719.581634322126
 31
0.0
  0
LINE
  5
1EC5E
330
1A
100
AcDbEntity
  8
ZISSEN1
100
AcDbLine
 10
-1308.696886898883
 20
1719.171634322127
 30
0.0
 11
-1308.696886898883
 21
1719.581634322126
 31
0.0
  0
ARC
  5
1EC5F
330
1A
100
AcDbEntity
  8
ZISSEN1
100
AcDbCircle
 10
-1309.796886898883
 20
1719.121636322126
 30
0.0
 40
0.2
100
AcDbArc
 50
90.00000000010423
 51
180.000002414787
  0
LINE
  5
1EC63
330
1A
100
AcDbEntity
  8
ZISSEN1
100
AcDbLine
 10
-1308.696886898883
 20
1723.491636322127
 30
0.0
 11
-1308.696886898883
 21
1723.991634322126
 31
0.0
  0
LINE
  5
1EC64
330
1A
100
AcDbEntity
  8
ZISSEN1
100
AcDbLine
 10
-1309.346886898882
 20
1724.133438322127
 30
0.0
 11
-1309.346886898882
 21
1723.909832322125
 31
0.0
  0
LINE
  5
1EC65
330
1A
100
AcDbEntity
  8
ZISSEN1
100
AcDbLine
 10
-1309.096886898882
 20
1724.091634322126
 30
0.0
 11
-1309.096886898882
 21
1723.391636322126
 31
0.0
  0
ARC
  5
1EC66
330
1A
100
AcDbEntity
  8
ZISSEN1
100
AcDbCircle
 10
-1309.246886898883
 20
1724.021636322126
 30
0.0
 40
0.15
100
AcDbArc
 50
180.0000025613209
 51
270.0000050088852
  0
LINE
  5
1EC69
330
1A
100
AcDbEntity
  8
ZISSEN1
100
AcDbLine
 10
-1308.696886898881
 20
1726.421636322125
 30
0.0
 11
-1308.996886898882
 21
1726.421636322125
 31
0.0
  0
LINE
  5
1EC6A
330
1A
100
AcDbEntity
  8
ZISSEN1
 48
0.5
100
AcDbLine
 10
-1319.195738230797
 20
1669.901704237967
 30
0.0
 11
-1325.195748396787
 21
1669.901704237967
 31
0.0
  0
LINE
  5
1EC6B
330
1A
100
AcDbEntity
  8
ZISSEN1
 48
0.5
100
AcDbLine
 10
-1324.695738230798
 20
1667.451704237966
 30
0.0
 11
-1323.195738230797
 21
1667.451704237966
 31
0.0
  0
LINE
  5
1EC6C
330
1A
100
AcDbEntity
  8
ZISSEN1
 48
0.5
100
AcDbLine
 10
-1325.195738230797
 20
1676.851636322125
 30
0.0
 11
-1323.396838230797
 21
1676.851636322125
 31
0.0
  0
LINE
  5
1EC6D
330
1A
100
AcDbEntity
  8
ZISSEN1
 48
0.5
100
AcDbLine
 10
-1325.195738230797
 20
1669.901704237967
 30
0.0
 11
-1321.216146394061
 21
1667.951704237966
 31
0.0
  0
LINE
  5
1EC6E
330
1A
100
AcDbEntity
  8
ZISSEN1
 48
0.5
100
AcDbLine
 10
-1325.195748396787
 20
1669.901704237967
 30
0.0
 11
-1325.195738230797
 21
1676.851636322125
 31
0.0
  0
LINE
  5
1EC73
330
1A
100
AcDbEntity
  8
ZISSEN1
 48
0.5
100
AcDbLine
 10
-1324.695738230798
 20
1669.411704237967
 30
0.0
 11
-1324.195738230797
 21
1669.411704237967
 31
0.0
  0
LINE
  5
1EC74
330
1A
100
AcDbEntity
  8
ZISSEN1
 48
0.5
100
AcDbLine
 10
-1324.695738230798
 20
1669.411704237967
 30
0.0
 11
-1324.695738230798
 21
1667.451704237966
 31
0.0
  0
LINE
  5
1EC76
330
1A
100
AcDbEntity
  8
ZISSEN1
 48
0.5
100
AcDbLine
 10
-1319.196886898883
 20
1708.971636322126
 30
0.0
 11
-1308.696886898883
 21
1708.971636322126
 31
0.0
  0
LINE
  5
1EC8E
330
1A
100
AcDbEntity
  8
ZISSEN1
 48
0.5
100
AcDbLine
 10
-1308.696886898883
 20
1669.251636322125
 30
0.0
 11
-1319.196886898883
 21
1669.251636322125
 31
0.0
  0
LINE
  5
1EC8F
330
1A
100
AcDbEntity
  8
ZISSEN1
 48
0.5
100
AcDbLine
 10
-1319.196886898883
 20
1676.851636322125
 30
0.0
 11
-1308.696886898883
 21
1676.851636322125
 31
0.0
  0
LINE
  5
1EC90
330
1A
100
AcDbEntity
  8
ZISSEN1
 48
0.5
100
AcDbLine
 10
-1323.195738230796
 20
1667.951704237966
 30
0.0
 11
-1311.895738230796
 21
1667.951704237968
 31
0.0
  0
LINE
  5
1EC91
330
1A
100
AcDbEntity
  8
ZISSEN1
 48
0.5
100
AcDbLine
 10
-1308.696886898883
 20
1685.871636322126
 30
0.0
 11
-1319.196886898883
 21
1685.871636322126
 31
0.0
  0
LINE
  5
1EC92
330
1A
100
AcDbEntity
  8
ZISSEN1
 48
0.5
100
AcDbLine
 10
-1319.196886898883
 20
1669.251636322125
 30
0.0
 11
-1319.196886898883
 21
1676.851636322125
 31
0.0
  0
LINE
  5
1EC93
330
1A
100
AcDbEntity
  8
ZISSEN1
 48
0.5
100
AcDbLine
 10
-1323.396838230797
 20
1676.201604237967
 30
0.0
 11
-1319.196886898883
 21
1676.201604237967
 31
0.0
  0
LINE
  5
1EC94
330
1A
100
AcDbEntity
  8
ZISSEN1
 48
0.5
100
AcDbLine
 10
-1323.195738230797
 20
1667.451704237966
 30
0.0
 11
-1323.195738230796
 21
1667.951704237966
 31
0.0
  0
LINE
  5
1EC95
330
1A
100
AcDbEntity
  8
ZISSEN1
 48
0.5
100
AcDbLine
 10
-1323.396838230797
 20
1676.851636322125
 30
0.0
 11
-1323.396838230797
 21
1676.201604237967
 31
0.0
  0
LINE
  5
1EC9E
330
1A
100
AcDbEntity
  8
ZISSEN1
 48
0.5
100
AcDbLine
 10
-1311.895738230796
 20
1667.951704237968
 30
0.0
 11
-1311.895738230796
 21
1669.251636322125
 31
0.0
  0
LINE
  5
1EC9F
330
1A
100
AcDbEntity
  8
ZISSEN1
100
AcDbLine
 10
-1308.996886898883
 20
1668.921636322127
 30
0.0
 11
-1308.696886898883
 21
1668.921636322127
 31
0.0
  0
LINE
  5
1ECA7
330
1A
100
AcDbEntity
  8
ZISSEN1
 48
0.5
100
AcDbLine
 10
-1362.796886898885
 20
1615.071636322125
 30
0.0
 11
-1431.296886898884
 21
1615.071636322125
 31
0.0
  0
LINE
  5
1ECA8
330
1A
100
AcDbEntity
  8
ZISSEN1
 48
0.5
100
AcDbLine
 10
-1362.796886898885
 20
1613.471636322125
 30
0.0
 11
-1429.296886898885
 21
1613.471636322125
 31
0.0
  0
LINE
  5
1ECA9
330
1A
100
AcDbEntity
  8
ZISSEN1
 48
0.5
100
AcDbLine
 10
-1363.796886898883
 20
1663.171636322125
 30
0.0
 11
-1429.296886898883
 21
1663.171636322125
 31
0.0
  0
LINE
  5
1ECAA
330
1A
100
AcDbEntity
  8
ZISSEN1
 48
0.5
100
AcDbLine
 10
-1384.296886898885
 20
1606.671636322125
 30
0.0
 11
-1429.296886898885
 21
1606.671636322125
 31
0.0
  0
LINE
  5
1ECAB
330
1A
100
AcDbEntity
  8
ZISSEN1
 48
0.5
100
AcDbLine
 10
-1432.296886898884
 20
1609.671636322127
 30
0.0
 11
-1384.296886898885
 21
1609.671636322125
 31
0.0
  0
LINE
  5
1ECAC
330
1A
100
AcDbEntity
  8
ZISSEN1
 48
0.5
100
AcDbLine
 10
-1363.296886898883
 20
1662.671636322126
 30
0.0
 11
-1428.296886898883
 21
1662.671636322126
 31
0.0
  0
LINE
  5
1ECBA
330
1A
100
AcDbEntity
  8
ZISSEN1
100
AcDbLine
 10
-1417.146888963509
 20
1625.571636322125
 30
0.0
 11
-1417.146888963509
 21
1615.071636322125
 31
0.0
  0
LINE
  5
1ECBB
330
1A
100
AcDbEntity
  8
ZISSEN1
100
AcDbLine
 10
-1426.246888963508
 20
1615.071636322125
 30
0.0
 11
-1426.246888963508
 21
1625.571636322125
 31
0.0
  0
LINE
  5
1ECC1
330
1A
100
AcDbEntity
  8
ZISSEN1
 48
0.5
100
AcDbLine
 10
-1429.296886898885
 20
1615.071636322125
 30
0.0
 11
-1429.296886898883
 21
1634.671636322125
 31
0.0
  0
LINE
  5
1ECC2
330
1A
100
AcDbEntity
  8
ZISSEN1
 48
0.5
100
AcDbLine
 10
-1432.296886898883
 20
1634.671636322125
 30
0.0
 11
-1432.296886898884
 21
1609.671636322127
 31
0.0
  0
LINE
  5
1ECC4
330
1A
100
AcDbEntity
  8
ZISSEN1
 48
0.5
100
AcDbLine
 10
-1429.296886898883
 20
1658.671636322125
 30
0.0
 11
-1432.296886898883
 21
1658.671636322125
 31
0.0
  0
LINE
  5
1ECC5
330
1A
100
AcDbEntity
  8
ZISSEN1
 48
0.5
100
AcDbLine
 10
-1432.296886898883
 20
1657.671636322126
 30
0.0
 11
-1429.296886898883
 21
1657.671636322126
 31
0.0
  0
LINE
  5
1ECC6
330
1A
100
AcDbEntity
  8
ZISSEN1
 48
0.5
100
AcDbLine
 10
-1428.296886898883
 20
1662.671636322126
 30
0.0
 11
-1428.796886898883
 21
1663.171636322125
 31
0.0
  0
LINE
  5
1ECC7
330
1A
100
AcDbEntity
  8
ZISSEN1
 48
0.5
100
AcDbLine
 10
-1429.296886898885
 20
1620.421636322125
 30
0.0
 11
-1432.296886898883
 21
1620.421636322125
 31
0.0
  0
LINE
  5
1ECC8
330
1A
100
AcDbEntity
  8
ZISSEN1
 48
0.5
100
AcDbLine
 10
-1429.296886898884
 20
1623.921636322125
 30
0.0
 11
-1432.296886898883
 21
1623.921636322125
 31
0.0
  0
LINE
  5
1ECC9
330
1A
100
AcDbEntity
  8
ZISSEN1
 48
0.5
100
AcDbLine
 10
-1429.296886898883
 20
1633.671636322125
 30
0.0
 11
-1432.296886898883
 21
1633.671636322125
 31
0.0
  0
LINE
  5
1ECCA
330
1A
100
AcDbEntity
  8
ZISSEN1
 48
0.5
100
AcDbLine
 10
-1429.296886898883
 20
1634.671636322125
 30
0.0
 11
-1432.296886898883
 21
1634.671636322125
 31
0.0
  0
LINE
  5
1ECDA
330
1A
100
AcDbEntity
  8
ZISSEN1
100
AcDbLine
 10
-1417.146888963509
 20
1615.071636322125
 30
0.0
 11
-1426.246888963508
 21
1615.071636322125
 31
0.0
  0
ARC
  5
1ECDB
330
1A
100
AcDbEntity
  8
ZISSEN1
 48
0.5
100
AcDbCircle
 10
-1429.29688689888
 20
1609.671636322125
 30
0.0
 40
3.000000000005456
100
AcDbArc
 50
180.0
 51
269.9999999999478
  0
LINE
  5
1ECDC
330
1A
100
AcDbEntity
  8
ZISSEN1
 48
0.5
100
AcDbLine
 10
-1429.296886898885
 20
1610.671636322126
 30
0.0
 11
-1432.296886898883
 21
1610.671636322126
 31
0.0
  0
LINE
  5
1ECDD
330
1A
100
AcDbEntity
  8
ZISSEN1
 48
0.5
100
AcDbLine
 10
-1429.296886898885
 20
1613.471636322125
 30
0.0
 11
-1432.296886898884
 21
1613.471636322125
 31
0.0
  0
LINE
  5
1ECDE
330
1A
100
AcDbEntity
  8
ZISSEN1
 48
0.5
100
AcDbLine
 10
-1429.296886898885
 20
1615.471636322125
 30
0.0
 11
-1432.296886898883
 21
1615.471636322125
 31
0.0
  0
LINE
  5
1ECDF
330
1A
100
AcDbEntity
  8
ZISSEN1
 48
0.5
100
AcDbLine
 10
-1431.296886898884
 20
1615.071636322125
 30
0.0
 11
-1431.296886898884
 21
1613.471636322125
 31
0.0
  0
LINE
  5
1ECEA
330
1A
100
AcDbEntity
  8
ZISSEN1
 48
0.5
100
AcDbLine
 10
-1428.296886898884
 20
1609.671636322127
 30
0.0
 11
-1428.296886898884
 21
1606.671636322127
 31
0.0
  0
LINE
  5
1ECEB
330
1A
100
AcDbEntity
  8
ZISSEN1
 48
0.5
100
AcDbLine
 10
-1429.296886898885
 20
1606.671636322125
 30
0.0
 11
-1429.296886898885
 21
1613.471636322125
 31
0.0
  0
LINE
  5
1ECF2
330
1A
100
AcDbEntity
  8
ZISSEN1
 48
0.5
100
AcDbLine
 10
-1309.096886898882
 20
1662.671636322127
 30
0.0
 11
-1300.296886898882
 21
1662.671636322127
 31
0.0
  0
LINE
  5
1ECF5
330
1A
100
AcDbEntity
  8
ZISSEN1
 48
0.5
100
AcDbLine
 10
-1371.696886898883
 20
1625.571636322125
 30
0.0
 11
-1371.696886898883
 21
1615.071636322125
 31
0.0
  0
LINE
  5
1ECF6
330
1A
100
AcDbEntity
  8
ZISSEN1
 48
0.5
100
AcDbLine
 10
-1364.096886898882
 20
1615.071636322125
 30
0.0
 11
-1364.096886898882
 21
1625.571636322125
 31
0.0
  0
LINE
  5
1ECF8
330
1A
100
AcDbEntity
  8
ZISSEN1
 48
0.5
100
AcDbLine
 10
-1371.046954814723
 20
1631.57048765404
 30
0.0
 11
-1371.696886898883
 21
1631.57048765404
 31
0.0
  0
LINE
  5
1ECF9
330
1A
100
AcDbEntity
  8
ZISSEN1
 48
0.5
100
AcDbLine
 10
-1364.096886898882
 20
1625.571636322125
 30
0.0
 11
-1371.696886898883
 21
1625.571636322125
 31
0.0
  0
LINE
  5
1ECFA
330
1A
100
AcDbEntity
  8
ZISSEN1
 48
0.5
100
AcDbLine
 10
-1371.696886898883
 20
1629.770487654039
 30
0.0
 11
-1371.046954814723
 21
1629.770487654039
 31
0.0
  0
LINE
  5
1ECFB
330
1A
100
AcDbEntity
  8
ZISSEN1
 48
0.5
100
AcDbLine
 10
-1384.296886898882
 20
1663.171636322125
 30
0.0
 11
-1384.296886898882
 21
1662.671636322126
 31
0.0
  0
LINE
  5
1ECFC
330
1A
100
AcDbEntity
  8
ZISSEN1
 48
0.5
100
AcDbLine
 10
-1373.296886898882
 20
1664.671636322125
 30
0.0
 11
-1373.696886898883
 21
1664.671636322125
 31
0.0
  0
LINE
  5
1ECFD
330
1A
100
AcDbEntity
  8
ZISSEN1
 48
0.5
100
AcDbLine
 10
-1372.896886898882
 20
1664.671636322125
 30
0.0
 11
-1373.296886898882
 21
1664.671636322125
 31
0.0
  0
LINE
  5
1ECFE
330
1A
100
AcDbEntity
  8
ZISSEN1
 48
0.5
100
AcDbLine
 10
-1371.696886898883
 20
1631.57048765404
 30
0.0
 11
-1371.696886898883
 21
1629.770487654039
 31
0.0
  0
LINE
  5
1ECFF
330
1A
100
AcDbEntity
  8
ZISSEN1
 48
0.5
100
AcDbLine
 10
-1362.796886898883
 20
1664.171636322125
 30
0.0
 11
-1363.796886898883
 21
1663.171636322125
 31
0.0
  0
LINE
  5
1ED00
330
1A
100
AcDbEntity
  8
ZISSEN1
 48
0.5
100
AcDbLine
 10
-1362.296886898883
 20
1663.671636322125
 30
0.0
 11
-1363.296886898883
 21
1662.671636322126
 31
0.0
  0
LINE
  5
1ED01
330
1A
100
AcDbEntity
  8
ZISSEN1
 48
0.5
100
AcDbLine
 10
-1371.046954814723
 20
1629.770487654039
 30
0.0
 11
-1371.046954814723
 21
1625.57048765404
 31
0.0
  0
LINE
  5
1ED02
330
1A
100
AcDbEntity
  8
ZISSEN1
 48
0.5
100
AcDbLine
 10
-1364.746954814724
 20
1625.57048765404
 30
0.0
 11
-1364.746954814724
 21
1631.57049782003
 31
0.0
  0
LINE
  5
1ED03
330
1A
100
AcDbEntity
  8
ZISSEN1
 48
0.5
100
AcDbLine
 10
-1362.796954814723
 20
1629.570487654038
 30
0.0
 11
-1362.796954814724
 21
1618.270487654039
 31
0.0
  0
LINE
  5
1ED04
330
1A
100
AcDbEntity
  8
ZISSEN1
 48
0.5
100
AcDbLine
 10
-1364.746954814724
 20
1631.57048765404
 30
0.0
 11
-1362.796954814723
 21
1627.590895817304
 31
0.0
  0
LINE
  5
1ED05
330
1A
100
AcDbEntity
  8
ZISSEN1
 48
0.5
100
AcDbLine
 10
-1364.746954814724
 20
1631.57049782003
 30
0.0
 11
-1371.046954814723
 21
1631.57048765404
 31
0.0
  0
LINE
  5
1ED0A
330
1A
100
AcDbEntity
  8
ZISSEN1
 48
0.5
100
AcDbLine
 10
-1364.256954814724
 20
1631.07048765404
 30
0.0
 11
-1364.256954814724
 21
1630.57048765404
 31
0.0
  0
LINE
  5
1ED0B
330
1A
100
AcDbEntity
  8
ZISSEN1
 48
0.5
100
AcDbLine
 10
-1364.256954814724
 20
1631.07048765404
 30
0.0
 11
-1362.296954814723
 21
1631.07048765404
 31
0.0
  0
LINE
  5
1ED0C
330
1A
100
AcDbEntity
  8
ZISSEN1
 48
0.5
100
AcDbLine
 10
-1362.296954814723
 20
1629.57048765404
 30
0.0
 11
-1362.796954814723
 21
1629.570487654038
 31
0.0
  0
LINE
  5
1ED0D
330
1A
100
AcDbEntity
  8
ZISSEN1
 48
0.5
100
AcDbLine
 10
-1362.296954814723
 20
1631.07048765404
 30
0.0
 11
-1362.296954814723
 21
1629.57048765404
 31
0.0
  0
LINE
  5
1ED0E
330
1A
100
AcDbEntity
  8
ZISSEN1
 48
0.5
100
AcDbLine
 10
-1362.796954814724
 20
1618.270487654039
 30
0.0
 11
-1364.096886898882
 21
1618.270487654039
 31
0.0
  0
LINE
  5
1ED0F
330
1A
100
AcDbEntity
  8
ZISSEN1
 48
0.5
100
AcDbLine
 10
-1381.296886898885
 20
1610.171636322125
 30
0.0
 11
-1362.296886898885
 21
1610.171636322125
 31
0.0
  0
LINE
  5
1ED10
330
1A
100
AcDbEntity
  8
ZISSEN1
 48
0.5
100
AcDbLine
 10
-1385.796886898885
 20
1613.171636322126
 30
0.0
 11
-1362.296886898885
 21
1613.171636322126
 31
0.0
  0
ARC
  5
1ED11
330
1A
100
AcDbEntity
  8
ZISSEN1
 48
0.5
100
AcDbCircle
 10
-1381.296886898885
 20
1610.171636322125
 30
0.0
 40
3.0
100
AcDbArc
 50
89.99999999994788
 51
180.0
  0
ARC
  5
1ED12
330
1A
100
AcDbEntity
  8
ZISSEN1
 48
0.5
100
AcDbCircle
 10
-1384.296886898885
 20
1609.671636322125
 30
0.0
 40
3.0
100
AcDbArc
 50
270.0
 51
0.0
  0
LINE
  5
1ED13
330
1A
100
AcDbEntity
  8
ZISSEN1
 48
0.5
100
AcDbLine
 10
-1384.296886898885
 20
1610.171636322125
 30
0.0
 11
-1384.296886898885
 21
1609.671636322125
 31
0.0
  0
LINE
  5
1ED14
330
1A
100
AcDbEntity
  8
ZISSEN1
 48
0.5
100
AcDbLine
 10
-1385.796886898885
 20
1613.471636322125
 30
0.0
 11
-1385.796886898885
 21
1613.171636322126
 31
0.0
  0
LINE
  5
1ED15
330
1A
100
AcDbEntity
  8
ZISSEN1
 48
0.5
100
AcDbLine
 10
-1381.296886898885
 20
1610.171636322125
 30
0.0
 11
-1381.296886898885
 21
1609.671636322125
 31
0.0
  0
LINE
  5
1ED1B
330
1A
100
AcDbEntity
  8
ZISSEN1
 48
0.5
100
AcDbLine
 10
-1362.796886898885
 20
1613.171636322126
 30
0.0
 11
-1362.796886898885
 21
1615.071636322125
 31
0.0
  0
LINE
  5
1ED1C
330
1A
100
AcDbEntity
  8
ZISSEN1
 48
0.5
100
AcDbLine
 10
-1363.796886898885
 20
1615.071636322125
 30
0.0
 11
-1363.796886898885
 21
1613.171636322126
 31
0.0
  0
LINE
  5
1ED1D
330
1A
100
AcDbEntity
  8
ZISSEN1
 48
0.5
100
AcDbLine
 10
-1363.296886898885
 20
1613.171636322126
 30
0.0
 11
-1363.296886898885
 21
1610.171636322125
 31
0.0
  0
LINE
  5
1ED1E
330
1A
100
AcDbEntity
  8
ZISSEN1
 48
0.5
100
AcDbLine
 10
-1362.296886898885
 20
1613.171636322126
 30
0.0
 11
-1362.296886898885
 21
1610.171636322125
 31
0.0
  0
LINE
  5
1ED1F
330
1A
100
AcDbEntity
  8
ZISSEN1
 48
0.5
100
AcDbLine
 10
-1327.296886898882
 20
1657.671636322127
 30
0.0
 11
-1317.546886898882
 21
1657.671636322127
 31
0.0
  0
LINE
  5
1ED20
330
1A
100
AcDbEntity
  8
ZISSEN1
 48
0.5
100
AcDbLine
 10
-1328.296886898882
 20
1658.671636322127
 30
0.0
 11
-1327.296886898882
 21
1657.671636322127
 31
0.0
  0
LINE
  5
1ED21
330
1A
100
AcDbEntity
  8
ZISSEN1
 48
0.5
100
AcDbLine
 10
-1314.046886898882
 20
1657.671636322127
 30
0.0
 11
-1304.296886898882
 21
1657.671636322127
 31
0.0
  0
ARC
  5
1ED22
330
1A
100
AcDbEntity
  8
ZISSEN1
 48
0.5
100
AcDbCircle
 10
-1315.79688689888
 20
1661.171636322127
 30
0.0
 40
1.749999999998181
100
AcDbArc
 50
359.9999999998958
 51
180.0000000001042
  0
LINE
  5
1ED23
330
1A
100
AcDbEntity
  8
ZISSEN1
 48
0.5
100
AcDbLine
 10
-1314.046886898882
 20
1661.171636322127
 30
0.0
 11
-1314.046886898882
 21
1657.671636322127
 31
0.0
  0
LINE
  5
1ED24
330
1A
100
AcDbEntity
  8
ZISSEN1
 48
0.5
100
AcDbLine
 10
-1317.546886898882
 20
1657.671636322127
 30
0.0
 11
-1317.546886898882
 21
1661.171636322127
 31
0.0
  0
LINE
  5
1ED25
330
1A
100
AcDbEntity
  8
ZISSEN1
 48
0.5
100
AcDbLine
 10
-1304.296886898882
 20
1657.671636322127
 30
0.0
 11
-1303.296886898882
 21
1658.671636322127
 31
0.0
  0
LINE
  5
1ED26
330
1A
100
AcDbEntity
  8
ZISSEN1
 48
0.5
100
AcDbLine
 10
-1303.296886898882
 20
1662.671636322127
 30
0.0
 11
-1303.296886898882
 21
1658.671636322127
 31
0.0
  0
LINE
  5
1ED27
330
1A
100
AcDbEntity
  8
ZISSEN1
100
AcDbLine
 10
-1308.696886898883
 20
1663.421636322127
 30
0.0
 11
-1308.996886898883
 21
1663.421636322127
 31
0.0
  0
LINE
  5
1ED28
330
1A
100
AcDbEntity
  8
ZISSEN1
 48
0.5
100
AcDbLine
 10
-1306.796886898882
 20
1663.171636322127
 30
0.0
 11
-1308.696886898883
 21
1663.171636322127
 31
0.0
  0
LINE
  5
1ED29
330
1A
100
AcDbEntity
  8
ZISSEN1
 48
0.5
100
AcDbLine
 10
-1306.796886898882
 20
1664.171636322127
 30
0.0
 11
-1308.696886898883
 21
1664.171636322127
 31
0.0
  0
LINE
  5
1ED2A
330
1A
100
AcDbEntity
  8
ZISSEN1
 48
0.5
100
AcDbLine
 10
-1303.796886898882
 20
1663.671636322127
 30
0.0
 11
-1306.796886898882
 21
1663.671636322127
 31
0.0
  0
LINE
  5
1ED2B
330
1A
100
AcDbEntity
  8
ZISSEN1
 48
0.5
100
AcDbLine
 10
-1309.096886898882
 20
1662.671636322127
 30
0.0
 11
-1309.096886898881
 21
1663.534565933587
 31
0.0
  0
MTEXT
  5
1F210
330
1A
100
AcDbEntity
  8
ZISSEN1
100
AcDbMText
 10
-1425.948604580461
 20
1765.396084764469
 30
0.0
 40
5.0
 41
108.3598999999999
 71
     1
 72
     5
  1
DB-2640v2/U16  No.SS0001f119
1001
ACAD
1000
MTEXTBEGIN
1070
    73
1070
     1
1070
    44
1040
1.0
1070
    74
1070
     0
1000
MTEXTEND
1000
MTEXTBEGIN
1070
    73
1070
     1
1070
    44
1040
1.0
1070
    74
1070
     0
1000
MTEXTEND
1000
MTEXTBEGIN
1070
    73
1070
     1
1070
    44
1040
1.0
1070
    74
1070
     0
1000
MTEXTEND
1000
MTEXTBEGIN
1070
    73
1070
     1
1070
    44
1040
1.0
1070
    74
1070
     0
1000
MTEXTEND
  0
LINE
  5
1F25C
330
1A
100
AcDbEntity
  8
ZISSEN1
100
AcDbLine
 10
-1417.146888963509
 20
1626.571636322125
 30
0.0
 11
-1403.846888963508
 21
1626.571636322125
 31
0.0
  0
LINE
  5
1F25D
330
1A
100
AcDbEntity
  8
ZISSEN1
100
AcDbLine
 10
-1426.296886898882
 20
1626.571636322125
 30
0.0
 11
-1426.296886898882
 21
1615.071636322125
 31
0.0
  0
LINE
  5
1F25E
330
1A
100
AcDbEntity
  8
CL1
100
AcDbLine
 10
-1426.246888963508
 20
1615.071636322125
 30
0.0
 11
-1424.746888963507
 21
1615.071636322125
 31
0.0
  0
LINE
  5
1F25F
330
1A
100
AcDbEntity
  8
ZISSEN1
100
AcDbLine
 10
-1403.846888963508
 20
1626.571636322125
 30
0.0
 11
-1403.846888963508
 21
1615.071636322125
 31
0.0
  0
LINE
  5
1F261
330
1A
100
AcDbEntity
  8
CL1
100
AcDbLine
 10
-1405.846888963508
 20
1626.571636322125
 30
0.0
 11
-1403.846888963508
 21
1626.571636322125
 31
0.0
  0
LINE
  5
1F262
330
1A
100
AcDbEntity
  8
CL1
100
AcDbLine
 10
-1403.846888963508
 20
1626.571636322125
 30
0.0
 11
-1403.846888963508
 21
1625.571636322125
 31
0.0
  0
LWPOLYLINE
  5
1F353
330
1A
100
AcDbEntity
  8
ZISSEN1
100
AcDbPolyline
 90
        4
 70
     1
 43
0.0
 10
-1371.696886898883
 20
1708.971636322124
 10
-1362.296954814723
 20
1708.971636322124
 10
-1362.296954814723
 20
1685.871636322124
 10
-1371.696886898883
 20
1685.871636322124
  0
LWPOLYLINE
  5
1F357
330
1A
100
AcDbEntity
  8
ZISSEN1
100
AcDbPolyline
 90
        4
 70
     1
 43
0.0
 10
-1325.195738230797
 20
1708.971636322124
 10
-1308.696886898883
 20
1708.971636322124
 10
-1308.696886898883
 20
1685.871636322126
 10
-1325.195738230797
 20
1685.871636322126
  0
LWPOLYLINE
  5
1F35C
330
1A
100
AcDbEntity
  8
ZISSEN1
100
AcDbPolyline
 90
        4
 70
     1
 43
0.0
 10
-1417.146886898881
 20
1667.451704237966
 10
-1426.246886898882
 20
1667.451704237966
 10
-1426.246886898882
 20
1676.851636322125
 10
-1417.146886898881
 20
1676.851636322125
  0
LWPOLYLINE
  5
1F35E
330
1A
100
AcDbEntity
  8
ZISSEN1
100
AcDbPolyline
 90
        4
 70
     1
 43
0.0
 10
-1426.246886898882
 20
1631.57048765404
 10
-1417.146888963509
 20
1631.57048765404
 10
-1417.146888963509
 20
1615.071636322125
 10
-1426.246888963508
 20
1615.071636322125
  0
LINE
  5
1F361
330
1A
100
AcDbEntity
  8
ZISSEN1
100
AcDbLine
 10
-1362.796886898883
 20
1708.971636322124
 30
0.0
 11
-1362.796886898883
 21
1731.171636322127
 31
0.0
  0
LINE
  5
1F36F
330
1A
100
AcDbEntity
  8
SOUZOUSEN
100
AcDbLine
 10
-1426.296886898882
 20
1626.571636322125
 30
0.0
 11
-1417.146888963509
 21
1626.571636322125
 31
0.0
  0
DIMENSION
  5
1F380
330
1A
100
AcDbEntity
  8
SUNPOU
100
AcDbDimension
  2
*D0
 10
-1314.046886898882
 20
1742.769560070741
 30
0.0
 11
-1303.546886898882
 21
1745.519560070742
 31
0.0
 70
    32
  3
標準スタイル
100
AcDbAlignedDimension
 13
-1317.546886898882
 23
1737.671636322127
 33
0.0
 14
-1314.046886898882
 24
1737.671636322127
 34
0.0
100
AcDbRotatedDimension
1001
ACAD
1000
DSTYLE
1002
{
1070
   340
1005
10
1070
    40
1040
1.0
1002
}
  0
DIMENSION
  5
1F3FD
330
1A
100
AcDbEntity
  8
SUNPOU
100
AcDbDimension
  2
*D1
 10
-1315.796886898882
 20
1649.187390197286
 30
0.0
 11
-1308.046886898882
 21
1651.937390197286
 31
0.0
 70
    32
  3
標準スタイル
100
AcDbAlignedDimension
 13
-1300.296886898882
 23
1662.671636322127
 33
0.0
 14
-1315.796886898882
 24
1660.171636322125
 34
0.0
100
AcDbRotatedDimension
1001
ACAD
1000
DSTYLE
1002
{
1070
   340
1005
10
1070
    40
1040
1.0
1002
}
  0
DIMENSION
  5
1F40A
330
1A
100
AcDbEntity
  8
SUNPOU
100
AcDbDimension
  2
*D2
 10
-1328.296886898882
 20
1640.582743999159
 30
0.0
 11
-1314.296886898882
 21
1643.332743999159
 31
0.0
 70
    32
  3
標準スタイル
100
AcDbAlignedDimension
 13
-1300.296886898882
 23
1662.671636322127
 33
0.0
 14
-1328.296886898882
 24
1658.671636322127
 34
0.0
100
AcDbRotatedDimension
1001
ACAD
1000
DSTYLE
1002
{
1070
   340
1005
10
1070
    40
1040
1.0
1002
}
  0
DIMENSION
  5
1F418
330
1A
100
AcDbEntity
  8
SUNPOU
100
AcDbDimension
  2
*D3
 10
-1441.441562724342
 20
1657.671636322126
 30
0.0
 11
-1444.191562724343
 21
1697.671636322126
 31
0.0
 70
    32
  3
標準スタイル
100
AcDbAlignedDimension
 13
-1432.296886898883
 23
1737.671636322127
 33
0.0
 14
-1432.296886898883
 24
1657.671636322126
 34
0.0
 50
90.0
100
AcDbRotatedDimension
1001
ACAD
1000
DSTYLE
1002
{
1070
   340
1005
10
1070
    40
1040
1.0
1002
}
  0
DIMENSION
  5
1F427
330
1A
100
AcDbEntity
  8
SUNPOU
100
AcDbDimension
  2
*D4
 10
-1351.722633449448
 20
1606.671636322125
 30
0.0
 11
-1354.472633449449
 21
1619.121061988082
 31
0.0
 70
    32
  3
標準スタイル
100
AcDbAlignedDimension
 13
-1364.746954814724
 23
1631.57048765404
 33
0.0
 14
-1384.296886898885
 24
1606.671636322125
 34
0.0
 50
90.0
100
AcDbRotatedDimension
1001
ACAD
1000
DSTYLE
1002
{
1070
   340
1005
10
1070
    40
1040
1.0
1002
}
  0
DIMENSION
  5
1F434
330
1A
100
AcDbEntity
  8
SUNPOU
100
AcDbDimension
  2
*D5
 10
-1432.296886898883
 20
1595.318646851678
 30
0.0
 11
-1397.296886898884
 21
1598.068646851678
 31
0.0
 70
    32
  3
標準スタイル
100
AcDbAlignedDimension
 13
-1362.296886898885
 23
1610.171636322125
 33
0.0
 14
-1432.296886898883
 24
1609.671636322125
 34
0.0
100
AcDbRotatedDimension
1001
ACAD
1000
DSTYLE
1002
{
1070
   340
1005
10
1070
    40
1040
1.0
1002
}
  0
DIMENSION
  5
1F441
330
1A
100
AcDbEntity
  8
SUNPOU
100
AcDbDimension
  2
*D6
 10
-1429.296886898883
 20
1639.997283716597
 30
0.0
 11
-1421.130220232216
 21
1642.747283716597
 31
0.0
 70
    32
  3
標準スタイル
100
AcDbAlignedDimension
 13
-1432.296886898883
 23
1634.671636322125
 33
0.0
 14
-1429.296886898883
 24
1634.671636322125
 34
0.0
100
AcDbRotatedDimension
1001
ACAD
1000
DSTYLE
1002
{
1070
   340
1005
10
1070
    40
1040
1.0
1002
}
  0
LINE
  5
1F45B
330
1A
100
AcDbEntity
  8
CL1
100
AcDbLine
 10
-1315.809549508026
 20
1737.531759562967
 30
0.0
 11
-1315.796886898882
 21
1732.421636322127
 31
0.0
  0
LINE
  5
1F45F
330
1A
100
AcDbEntity
  8
CL1
100
AcDbLine
 10
-1318.546886898882
 20
1660.171636322125
 30
0.0
 11
-1313.046886898882
 21
1660.171636322125
 31
0.0
  0
LINE
  5
1F460
330
1A
100
AcDbEntity
  8
CL1
100
AcDbLine
 10
-1315.796886898882
 20
1657.671636322126
 30
0.0
 11
-1315.796886898882
 21
1662.921636322125
 31
0.0
  0
LINE
  5
1F461
330
1A
100
AcDbEntity
  8
CL1
100
AcDbLine
 10
-1433.296886898883
 20
1660.171636322125
 30
0.0
 11
-1428.296886898883
 21
1660.171636322125
 31
0.0
  0
LINE
  5
1F462
330
1A
100
AcDbEntity
  8
CL1
100
AcDbLine
 10
-1433.296886898883
 20
1735.124148955919
 30
0.0
 11
-1428.296886898883
 21
1735.124148955919
 31
0.0
  0
LINE
  5
1F472
330
1A
100
AcDbEntity
  8
CL1
100
AcDbLine
 10
-1433.296886898883
 20
1622.171636322125
 30
0.0
 11
-1428.296886898883
 21
1622.171636322125
 31
0.0
  0
LINE
  5
1F507
330
1A
100
AcDbEntity
  8
CL1
100
AcDbLine
 10
-1318.546886898882
 20
1735.171636322127
 30
0.0
 11
-1314.046886898882
 21
1735.171636322127
 31
0.0
  0
DIMENSION
  5
1F51E
330
1A
100
AcDbEntity
  8
SUNPOU
100
AcDbDimension
  2
*D7
 10
-1336.234137798412
 20
1660.171636322125
 30
0.0
 11
-1336.421318645601
 21
1652.311994509721
 31
0.0
 70
   160
  3
標準スタイル
100
AcDbAlignedDimension
 13
-1327.296886898882
 23
1657.671636322127
 33
0.0
 14
-1317.546886898882
 24
1660.171636322125
 34
0.0
 50
90.0
100
AcDbRotatedDimension
1001
ACAD
1000
DSTYLE
1002
{
1070
   287
1070
     4
1070
   340
1005
10
1070
    40
1040
1.0
1070
   279
1070
     1
1002
}
  0
DIMENSION
  5
1F52D
330
1A
100
AcDbEntity
  8
SUNPOU
100
AcDbDimension
  2
*D8
 10
-1336.234137798412
 20
1735.171636322127
 30
0.0
 11
-1338.984137798413
 21
1697.671636322126
 31
0.0
 70
    32
  3
標準スタイル
100
AcDbAlignedDimension
 13
-1319.046886898882
 23
1660.171636322125
 33
0.0
 14
-1318.546886898882
 24
1735.171636322127
 34
0.0
 50
90.0
100
AcDbRotatedDimension
1001
ACAD
1000
DSTYLE
1002
{
1070
   287
1070
     4
1070
   340
1005
10
1070
    40
1040
1.0
1070
   279
1070
     1
1002
}
  0
DIMENSION
  5
1F53A
330
1A
100
AcDbEntity
  8
SUNPOU
100
AcDbDimension
  2
*D9
 10
-1336.234137798412
 20
1737.671636322127
 30
0.0
 11
-1337.007897043502
 21
1743.874225743591
 31
0.0
 70
   160
  3
標準スタイル
100
AcDbAlignedDimension
 13
-1318.546886898882
 23
1735.171636322127
 33
0.0
 14
-1327.296886898882
 24
1737.671636322127
 34
0.0
 50
90.0
100
AcDbRotatedDimension
1001
ACAD
1000
DSTYLE
1002
{
1070
   287
1070
     4
1070
   340
1005
10
1070
    40
1040
1.0
1070
   279
1070
     1
1002
}
  0
VIEWPORT
  5
5D8F
330
5D8E
100
AcDbEntity
 67
     1
  8
0
100
AcDbViewport
 10
221.7797594955586
 20
157.6959992421328
 30
0.0
 40
559.9566361207892
 41
314.2372683715821
 68
     1
 69
     1
1001
ACAD
1000
MVIEW
1002
{
1070
    16
1010
0.0
1020
0.0
1030
0.0
1010
0.0
1020
0.0
1030
1.0
1040
0.0
1040
314.2372683715821
1040
221.7797594955586
1040
157.6959992421328
1040
50.0
1040
0.0
1040
0.0
1070
     0
1070
   100
1070
     1
1070
     0
1070
     0
1070
     0
1070
     0
1070
     0
1040
0.0
1040
0.0
1040
0.0
1040
1.0
1040
1.0
1040
10.0
1040
10.0
1070
     0
1002
{
1002
}
1002
}
  0
VIEWPORT
  5
6001
330
5D8E
100
AcDbEntity
 67
     1
  8
ZISSEN1
100
AcDbViewport
 10
221.7861955525412
 20
157.6960273330388
 30
0.0
 40
385.4999999999997
 41
259.9999999999999
 68
     2
 69
     2
1001
ACAD
1000
MVIEW
1002
{
1070
    16
1010
0.0
1020
0.0
1030
0.0
1010
0.0
1020
0.0
1030
1.0
1040
0.0
1040
259.9999999999999
1040
-1366.58104502501
1040
1670.972969819928
1040
50.0
1040
0.0
1040
0.0
1070
     0
1070
   100
1070
     1
1070
     0
1070
     0
1070
     0
1070
     0
1070
     0
1040
0.0
1040
0.0
1040
0.0
1040
1.0
1040
1.0
1040
10.0
1040
10.0
1070
     0
1002
{
1002
}
1002
}
  0
TEXT
  5
716F
330
5D8E
100
AcDbEntity
 67
     1
  8
SUNPOU
 62
     0
100
AcDbText
 10
374.1863124306944
 20
60.86794705907585
 30
0.0
 40
3.5
  1
縮尺 1/1
  7
ゴシック体
100
AcDbText
  0
ENDSEC
  0
SECTION
  2
OBJECTS
  0
DICTIONARY
  5
C
330
0
100
AcDbDictionary
  3
ACAD_GROUP
350
D
  3
ACAD_LAYOUT
350
5C7D
  3
ACAD_MLINESTYLE
350
E
  3
ACAD_PLOTSETTINGS
350
5C7E
  3
ACAD_PLOTSTYLENAME
350
5C7B
  3
DWGPROPS
350
12861
  3
ACDBHEADERROUNDTRIPXREC
350
1F5CE
  0
DICTIONARY
  5
14053
330
2
100
AcDbDictionary
280
     1
  3
ACAD_LAYERFILTERS
360
14054
  0
DICTIONARY
  5
171B2
330
1A
100
AcDbDictionary
280
     1
  3
ACAD_LAYOUTSELFREF
360
1F5EE
  0
DICTIONARY
  5
171B8
330
5D8E
100
AcDbDictionary
280
     1
  3
ACAD_LAYOUTSELFREF
360
1F5EF
  0
DICTIONARY
  5
D
102
{ACAD_REACTORS
330
C
102
}
330
C
100
AcDbDictionary
  3
*A1
350
477D
  3
*A2
350
4780
  3
*A3
350
4C0E
  3
*A4
350
16F36
  3
*A5
350
4C0F
  3
*A6
350
4C10
  3
*A7
350
16E43
  3
*A8
350
4C11
  3
*A9
350
4C12
  3
*A10
350
16DE9
  3
*A11
350
16E51
  3
*A12
350
1C0A0
  3
*A13
350
4C13
  3
*A14
350
16F37
  3
*A15
350
4C16
  3
*A16
350
16F39
  3
*A17
350
4C14
  3
*A18
350
4C15
  3
*A19
350
1C09E
  3
*A20
350
1C09F
  3
*A21
350
1C0A1
  3
*A22
350
13E2E
  3
*A23
350
1C0A2
  3
*A24
350
4C17
  3
*A25
350
4781
  3
*A26
350
477E
  3
*A27
350
477F
  0
DICTIONARY
  5
5C7D
102
{ACAD_REACTORS
330
C
102
}
330
C
100
AcDbDictionary
  0
DICTIONARY
  5
E
102
{ACAD_REACTORS
330
C
102
}
330
C
100
AcDbDictionary
  3
STANDARD
350
13
  0
DICTIONARY
  5
5C7E
102
{ACAD_REACTORS
330
C
102
}
330
C
100
AcDbDictionary
  0
ACDBDICTIONARYWDFLT
  5
5C7B
102
{ACAD_REACTORS
330
C
102
}
330
C
100
AcDbDictionary
281
     1
  3
Normal
350
5C7C
100
AcDbDictionaryWithDefault
340
5C7C
  0
XRECORD
  5
12861
102
{ACAD_REACTORS
330
C
102
}
330
C
100
AcDbXrecord
  1
DWGPROPS COOKIE
  2

  3

  4

  6

  7

  8

  9

300
=
301
=
302
=
303
=
304
=
305
=
306
=
307
=
308
=
309
=
 40
1.583646701388888
 41
2450495.493631365
 42
2455325.72058449
  1

 90
        0
  0
DICTIONARY
  5
1F5CE
102
{ACAD_REACTORS
330
C
102
}
330
C
100
AcDbDictionary
  3
TSTACKALIGN
350
1F5CF
  3
TSTACKSIZE
350
1F5D0
  3
HYPERLINKBASE
350
1F5D1
  3
STYLESHEET
350
1F5D2
  3
LAYOUTDICT
350
1F5D3
  3
PLOTSETDICT
350
1F5D4
  3
PLOTSTYLNAMDICT
350
1F5D5
  3
LWETCUNION
350
1F5D6
  3
INSUNITS
350
1F5D7
  3
CEPSNTYPE
350
1F5D8
  3
FINGERPRINTGUID
350
1F5D9
  3
VERSIONGUID
350
1F5DA
  3
PSVPSCALE
350
1F5DB
  3
PUCSORTHOREF
350
1F5DC
  3
PUCSORTHOVIEW
350
1F5DD
  3
PUCSBASE
350
1F5DE
  3
PUCSORGTOP
350
1F5DF
  3
PUCSORGBOTTOM
350
1F5E0
  3
PUCSORGLEFT
350
1F5E1
  3
PUCSORGRIGHT
350
1F5E2
  3
PUCSORGFRONT
350
1F5E3
  3
PUCSORGBACK
350
1F5E4
  3
UCSORTHOREF
350
1F5E5
  3
UCSORTHOVIEW
350
1F5E6
  3
UCSBASE
350
1F5E7
  3
UCSORGTOP
350
1F5E8
  3
UCSORGBOTTOM
350
1F5E9
  3
UCSORGLEFT
350
1F5EA
  3
UCSORGRIGHT
350
1F5EB
  3
UCSORGFRONT
350
1F5EC
  3
UCSORGBACK
350
1F5ED
  0
DICTIONARY
  5
14054
102
{ACAD_REACTORS
330
14053
102
}
330
14053
100
AcDbDictionary
280
     1
  3
BASE
360
14055
  3
CASE
360
14056
  3
KIKOU
360
14057
  0
XRECORD
  5
1F5EE
102
{ACAD_REACTORS
330
171B2
102
}
330
171B2
100
AcDbXrecord
340
1A
  0
XRECORD
  5
1F5EF
102
{ACAD_REACTORS
330
171B8
102
}
330
171B8
100
AcDbXrecord
340
5D8E
  0
GROUP
  5
477D
102
{ACAD_REACTORS
330
D
102
}
330
D
100
AcDbGroup
300

 70
     1
 71
     1
  0
GROUP
  5
4780
102
{ACAD_REACTORS
330
D
102
}
330
D
100
AcDbGroup
300

 70
     1
 71
     1
  0
GROUP
  5
4C0E
102
{ACAD_REACTORS
330
D
102
}
330
D
100
AcDbGroup
300

 70
     1
 71
     1
  0
GROUP
  5
16F36
102
{ACAD_REACTORS
330
D
102
}
330
D
100
AcDbGroup
300

 70
     1
 71
     1
  0
GROUP
  5
4C0F
102
{ACAD_REACTORS
330
D
102
}
330
D
100
AcDbGroup
300

 70
     1
 71
     1
  0
GROUP
  5
4C10
102
{ACAD_REACTORS
330
D
102
}
330
D
100
AcDbGroup
300

 70
     1
 71
     1
  0
GROUP
  5
16E43
102
{ACAD_REACTORS
330
D
102
}
330
D
100
AcDbGroup
300

 70
     1
 71
     1
  0
GROUP
  5
4C11
102
{ACAD_REACTORS
330
D
102
}
330
D
100
AcDbGroup
300

 70
     1
 71
     1
  0
GROUP
  5
4C12
102
{ACAD_REACTORS
330
D
102
}
330
D
100
AcDbGroup
300

 70
     1
 71
     1
  0
GROUP
  5
16DE9
102
{ACAD_REACTORS
330
D
102
}
330
D
100
AcDbGroup
300

 70
     1
 71
     1
  0
GROUP
  5
16E51
102
{ACAD_REACTORS
330
D
102
}
330
D
100
AcDbGroup
300

 70
     1
 71
     1
  0
GROUP
  5
1C0A0
102
{ACAD_REACTORS
330
D
102
}
330
D
100
AcDbGroup
300

 70
     1
 71
     1
  0
GROUP
  5
4C13
102
{ACAD_REACTORS
330
D
102
}
330
D
100
AcDbGroup
300

 70
     1
 71
     1
  0
GROUP
  5
16F37
102
{ACAD_REACTORS
330
D
102
}
330
D
100
AcDbGroup
300

 70
     1
 71
     1
  0
GROUP
  5
4C16
102
{ACAD_REACTORS
330
D
102
}
330
D
100
AcDbGroup
300

 70
     1
 71
     1
  0
GROUP
  5
16F39
102
{ACAD_REACTORS
330
D
102
}
330
D
100
AcDbGroup
300

 70
     1
 71
     1
  0
GROUP
  5
4C14
102
{ACAD_REACTORS
330
D
102
}
330
D
100
AcDbGroup
300

 70
     1
 71
     1
  0
GROUP
  5
4C15
102
{ACAD_REACTORS
330
D
102
}
330
D
100
AcDbGroup
300

 70
     1
 71
     1
  0
GROUP
  5
1C09E
102
{ACAD_REACTORS
330
D
102
}
330
D
100
AcDbGroup
300

 70
     1
 71
     1
  0
GROUP
  5
1C09F
102
{ACAD_REACTORS
330
D
102
}
330
D
100
AcDbGroup
300

 70
     1
 71
     1
  0
GROUP
  5
1C0A1
102
{ACAD_REACTORS
330
D
102
}
330
D
100
AcDbGroup
300

 70
     1
 71
     1
  0
GROUP
  5
13E2E
102
{ACAD_REACTORS
330
D
102
}
330
D
100
AcDbGroup
300

 70
     1
 71
     1
  0
GROUP
  5
1C0A2
102
{ACAD_REACTORS
330
D
102
}
330
D
100
AcDbGroup
300

 70
     1
 71
     1
  0
GROUP
  5
4C17
102
{ACAD_REACTORS
330
D
102
}
330
D
100
AcDbGroup
300

 70
     1
 71
     1
  0
GROUP
  5
4781
102
{ACAD_REACTORS
330
D
102
}
330
D
100
AcDbGroup
300

 70
     1
 71
     1
  0
GROUP
  5
477E
102
{ACAD_REACTORS
330
D
102
}
330
D
100
AcDbGroup
300

 70
     1
 71
     1
  0
GROUP
  5
477F
102
{ACAD_REACTORS
330
D
102
}
330
D
100
AcDbGroup
300

 70
     1
 71
     1
  0
MLINESTYLE
  5
13
102
{ACAD_REACTORS
330
E
102
}
330
E
100
AcDbMlineStyle
  2
STANDARD
 70
     0
  3

 62
     0
 51
90.0
 52
90.0
 71
     2
 49
0.5
 62
   256
  6
BYLAYER
 49
-0.5
 62
   256
  6
BYLAYER
  0
ACDBPLACEHOLDER
  5
5C7C
102
{ACAD_REACTORS
330
5C7B
102
}
330
5C7B
100
AcDbPlaceHolder
280
     0
  0
XRECORD
  5
1F5CF
102
{ACAD_REACTORS
330
1F5CE
102
}
330
1F5CE
100
AcDbXrecord
 90
        1
  0
XRECORD
  5
1F5D0
102
{ACAD_REACTORS
330
1F5CE
102
}
330
1F5CE
100
AcDbXrecord
 90
       70
  0
XRECORD
  5
1F5D1
102
{ACAD_REACTORS
330
1F5CE
102
}
330
1F5CE
100
AcDbXrecord
  1

  0
XRECORD
  5
1F5D2
102
{ACAD_REACTORS
330
1F5CE
102
}
330
1F5CE
100
AcDbXrecord
  1

  0
XRECORD
  5
1F5D3
102
{ACAD_REACTORS
330
1F5CE
102
}
330
1F5CE
100
AcDbXrecord
340
5C7D
  0
XRECORD
  5
1F5D4
102
{ACAD_REACTORS
330
1F5CE
102
}
330
1F5CE
100
AcDbXrecord
340
5C7E
  0
XRECORD
  5
1F5D5
102
{ACAD_REACTORS
330
1F5CE
102
}
330
1F5CE
100
AcDbXrecord
340
5C7B
  0
XRECORD
  5
1F5D6
102
{ACAD_REACTORS
330
1F5CE
102
}
330
1F5CE
100
AcDbXrecord
 90
    10781
  0
XRECORD
  5
1F5D7
102
{ACAD_REACTORS
330
1F5CE
102
}
330
1F5CE
100
AcDbXrecord
 90
        0
  0
XRECORD
  5
1F5D8
102
{ACAD_REACTORS
330
1F5CE
102
}
330
1F5CE
100
AcDbXrecord
 90
        0
  0
XRECORD
  5
1F5D9
102
{ACAD_REACTORS
330
1F5CE
102
}
330
1F5CE
100
AcDbXrecord
  1
{225A7F0D-DA29-11D8-946A-0000E2416295}
  0
XRECORD
  5
1F5DA
102
{ACAD_REACTORS
330
1F5CE
102
}
330
1F5CE
100
AcDbXrecord
  1
{89BEA68C-91A1-4CCF-9393-83F6151F3F2A}
  0
XRECORD
  5
1F5DB
102
{ACAD_REACTORS
330
1F5CE
102
}
330
1F5CE
100
AcDbXrecord
 40
0.0
  0
XRECORD
  5
1F5DC
102
{ACAD_REACTORS
330
1F5CE
102
}
330
1F5CE
100
AcDbXrecord
340
0
  0
XRECORD
  5
1F5DD
102
{ACAD_REACTORS
330
1F5CE
102
}
330
1F5CE
100
AcDbXrecord
 70
     0
  0
XRECORD
  5
1F5DE
102
{ACAD_REACTORS
330
1F5CE
102
}
330
1F5CE
100
AcDbXrecord
340
0
  0
XRECORD
  5
1F5DF
102
{ACAD_REACTORS
330
1F5CE
102
}
330
1F5CE
100
AcDbXrecord
 10
0.0
 20
0.0
 30
0.0
  0
XRECORD
  5
1F5E0
102
{ACAD_REACTORS
330
1F5CE
102
}
330
1F5CE
100
AcDbXrecord
 10
0.0
 20
0.0
 30
0.0
  0
XRECORD
  5
1F5E1
102
{ACAD_REACTORS
330
1F5CE
102
}
330
1F5CE
100
AcDbXrecord
 10
0.0
 20
0.0
 30
0.0
  0
XRECORD
  5
1F5E2
102
{ACAD_REACTORS
330
1F5CE
102
}
330
1F5CE
100
AcDbXrecord
 10
0.0
 20
0.0
 30
0.0
  0
XRECORD
  5
1F5E3
102
{ACAD_REACTORS
330
1F5CE
102
}
330
1F5CE
100
AcDbXrecord
 10
0.0
 20
0.0
 30
0.0
  0
XRECORD
  5
1F5E4
102
{ACAD_REACTORS
330
1F5CE
102
}
330
1F5CE
100
AcDbXrecord
 10
0.0
 20
0.0
 30
0.0
  0
XRECORD
  5
1F5E5
102
{ACAD_REACTORS
330
1F5CE
102
}
330
1F5CE
100
AcDbXrecord
340
0
  0
XRECORD
  5
1F5E6
102
{ACAD_REACTORS
330
1F5CE
102
}
330
1F5CE
100
AcDbXrecord
 70
     0
  0
XRECORD
  5
1F5E7
102
{ACAD_REACTORS
330
1F5CE
102
}
330
1F5CE
100
AcDbXrecord
340
0
  0
XRECORD
  5
1F5E8
102
{ACAD_REACTORS
330
1F5CE
102
}
330
1F5CE
100
AcDbXrecord
 10
0.0
 20
0.0
 30
0.0
  0
XRECORD
  5
1F5E9
102
{ACAD_REACTORS
330
1F5CE
102
}
330
1F5CE
100
AcDbXrecord
 10
0.0
 20
0.0
 30
0.0
  0
XRECORD
  5
1F5EA
102
{ACAD_REACTORS
330
1F5CE
102
}
330
1F5CE
100
AcDbXrecord
 10
0.0
 20
0.0
 30
0.0
  0
XRECORD
  5
1F5EB
102
{ACAD_REACTORS
330
1F5CE
102
}
330
1F5CE
100
AcDbXrecord
 10
0.0
 20
0.0
 30
0.0
  0
XRECORD
  5
1F5EC
102
{ACAD_REACTORS
330
1F5CE
102
}
330
1F5CE
100
AcDbXrecord
 10
0.0
 20
0.0
 30
0.0
  0
XRECORD
  5
1F5ED
102
{ACAD_REACTORS
330
1F5CE
102
}
330
1F5CE
100
AcDbXrecord
 10
0.0
 20
0.0
 30
0.0
  0
XRECORD
  5
14055
102
{ACAD_REACTORS
330
14054
102
}
330
14054
100
AcDbXrecord
  1
BASE
  1
BASE*
  1
*
  1
*
 70
     0
  1
*
  1
*
  0
XRECORD
  5
14056
102
{ACAD_REACTORS
330
14054
102
}
330
14054
100
AcDbXrecord
  1
CASE
  1
CASE*
  1
*
  1
*
 70
     0
  1
*
  1
*
  0
XRECORD
  5
14057
102
{ACAD_REACTORS
330
14054
102
}
330
14054
100
AcDbXrecord
  1
KIKOU
  1
KIKOU*
  1
*
  1
*
 70
     0
  1
*
  1
*
  0
ENDSEC
  0
EOF
