  0
SECTION
  2
HEADER
  9
$ACADVER
  1
AC1014
  9
$ACADMAINTVER
 70
     9
  9
$DWGCODEPAGE
  3
ANSI_932
  9
$INSBASE
 10
0.0
 20
0.0
 30
0.0
  9
$EXTMIN
 10
-1621.462362857633
 20
1592.0
 30
0.0
  9
$EXTMAX
 10
-1429.0
 20
1720.567474140994
 30
0.0
  9
$LIMMIN
 10
0.0
 20
0.0
  9
$LIMMAX
 10
420.0
 20
297.0
  9
$ORTHOMODE
 70
     1
  9
$REGENMODE
 70
     1
  9
$FILLMODE
 70
     1
  9
$QTEXTMODE
 70
     0
  9
$MIRRTEXT
 70
     1
  9
$DRAGMODE
 70
     2
  9
$LTSCALE
 40
1.0
  9
$OSMODE
 70
    37
  9
$ATTMODE
 70
     1
  9
$TEXTSIZE
 40
2.5
  9
$TRACEWID
 40
1.0
  9
$TEXTSTYLE
  7
ゴシック体
  9
$CLAYER
  8
SUNPOU
  9
$CELTYPE
  6
BYLAYER
  9
$CECOLOR
 62
   256
  9
$CELTSCALE
 40
1.0
  9
$DELOBJ
 70
     1
  9
$DISPSILH
 70
     0
  9
$DIMSCALE
 40
0.0
  9
$DIMASZ
 40
3.0
  9
$DIMEXO
 40
0.5
  9
$DIMDLI
 40
0.5
  9
$DIMRND
 40
0.0
  9
$DIMDLE
 40
0.0
  9
$DIMEXE
 40
0.5
  9
$DIMTP
 40
0.0
  9
$DIMTM
 40
0.0
  9
$DIMTXT
 40
3.5
  9
$DIMCEN
 40
0.0
  9
$DIMTSZ
 40
0.0
  9
$DIMTOL
 70
     0
  9
$DIMLIM
 70
     0
  9
$DIMTIH
 70
     0
  9
$DIMTOH
 70
     0
  9
$DIMSE1
 70
     0
  9
$DIMSE2
 70
     0
  9
$DIMTAD
 70
     1
  9
$DIMZIN
 70
     8
  9
$DIMBLK
  1

  9
$DIMASO
 70
     1
  9
$DIMSHO
 70
     1
  9
$DIMPOST
  1

  9
$DIMAPOST
  1

  9
$DIMALT
 70
     0
  9
$DIMALTD
 70
     2
  9
$DIMALTF
 40
25.4
  9
$DIMLFAC
 40
1.0
  9
$DIMTOFL
 70
     1
  9
$DIMTVP
 40
0.0
  9
$DIMTIX
 70
     0
  9
$DIMSOXD
 70
     0
  9
$DIMSAH
 70
     0
  9
$DIMBLK1
  1

  9
$DIMBLK2
  1

  9
$DIMSTYLE
  2
標準スタイル
  9
$DIMCLRD
 70
     1
  9
$DIMCLRE
 70
     1
  9
$DIMCLRT
 70
     1
  9
$DIMTFAC
 40
1.0
  9
$DIMGAP
 40
1.0
  9
$DIMJUST
 70
     0
  9
$DIMSD1
 70
     0
  9
$DIMSD2
 70
     0
  9
$DIMTOLJ
 70
     1
  9
$DIMTZIN
 70
     8
  9
$DIMALTZ
 70
     0
  9
$DIMALTTZ
 70
     0
  9
$DIMFIT
 70
     3
  9
$DIMUPT
 70
     0
  9
$DIMUNIT
 70
     2
  9
$DIMDEC
 70
     2
  9
$DIMTDEC
 70
     2
  9
$DIMALTU
 70
     2
  9
$DIMALTTD
 70
     2
  9
$DIMTXSTY
  7
ゴシック体
  9
$DIMAUNIT
 70
     0
  9
$LUNITS
 70
     2
  9
$LUPREC
 70
     4
  9
$SKETCHINC
 40
1.0
  9
$FILLETRAD
 40
0.0
  9
$AUNITS
 70
     0
  9
$AUPREC
 70
     0
  9
$MENU
  1
.
  9
$ELEVATION
 40
0.0
  9
$PELEVATION
 40
0.0
  9
$THICKNESS
 40
0.0
  9
$LIMCHECK
 70
     0
  9
$BLIPMODE
 70
     0
  9
$CHAMFERA
 40
10.0
  9
$CHAMFERB
 40
10.0
  9
$CHAMFERC
 40
2.0
  9
$CHAMFERD
 40
0.7853981633974483
  9
$SKPOLY
 70
     0
  9
$TDCREATE
 40
2450495.493631365
  9
$TDUPDATE
 40
2455482.781267720
  9
$TDINDWG
 40
2.1818907755
  9
$TDUSRTIMER
 40
2.1818907755
  9
$USRTIMER
 70
     1
  9
$ANGBASE
 50
0.0
  9
$ANGDIR
 70
     0
  9
$PDMODE
 70
    99
  9
$PDSIZE
 40
0.0
  9
$PLINEWID
 40
0.0
  9
$COORDS
 70
     1
  9
$SPLFRAME
 70
     0
  9
$SPLINETYPE
 70
     6
  9
$SPLINESEGS
 70
     8
  9
$ATTDIA
 70
     0
  9
$ATTREQ
 70
     1
  9
$HANDLING
 70
 10241
  9
$HANDSEED
  5
14F16
  9
$SURFTAB1
 70
     6
  9
$SURFTAB2
 70
     6
  9
$SURFTYPE
 70
     6
  9
$SURFU
 70
     6
  9
$SURFV
 70
     6
  9
$UCSNAME
  2

  9
$UCSORG
 10
0.0
 20
0.0
 30
0.0
  9
$UCSXDIR
 10
1.0
 20
0.0
 30
0.0
  9
$UCSYDIR
 10
0.0
 20
1.0
 30
0.0
  9
$PUCSNAME
  2

  9
$PUCSORG
 10
0.0
 20
0.0
 30
0.0
  9
$PUCSXDIR
 10
1.0
 20
0.0
 30
0.0
  9
$PUCSYDIR
 10
0.0
 20
1.0
 30
0.0
  9
$USERI1
 70
     0
  9
$USERI2
 70
     0
  9
$USERI3
 70
     0
  9
$USERI4
 70
     0
  9
$USERI5
 70
     0
  9
$USERR1
 40
0.0
  9
$USERR2
 40
0.0
  9
$USERR3
 40
0.0
  9
$USERR4
 40
0.0
  9
$USERR5
 40
0.0
  9
$WORLDVIEW
 70
     1
  9
$SHADEDGE
 70
     3
  9
$SHADEDIF
 70
    70
  9
$TILEMODE
 70
     0
  9
$MAXACTVP
 70
    16
  9
$PINSBASE
 10
0.0
 20
0.0
 30
0.0
  9
$PLIMCHECK
 70
     0
  9
$PEXTMIN
 10
29.03619555254135
 20
27.69602733303884
 30
0.0
  9
$PEXTMAX
 10
414.5361955525411
 20
287.6960273330388
 30
0.0
  9
$PLIMMIN
 10
11.82433780389674
 20
9.18781516542163
  9
$PLIMMAX
 10
431.7709930773342
 20
306.1984658001872
  9
$UNITMODE
 70
     0
  9
$VISRETAIN
 70
     0
  9
$PLINEGEN
 70
     0
  9
$PSLTSCALE
 70
     1
  9
$TREEDEPTH
 70
  3020
  9
$PICKSTYLE
 70
     1
  9
$CMLSTYLE
  2
STANDARD
  9
$CMLJUST
 70
     0
  9
$CMLSCALE
 40
1.0
  9
$PROXYGRAPHICS
 70
     1
  9
$MEASUREMENT
 70
     1
  0
ENDSEC
  0
SECTION
  2
CLASSES
  0
CLASS
  1
LWPOLYLINE
  2
AcDbPolyline
  3
AutoCAD 2000
 90
        0
280
     0
281
     1
  0
CLASS
  1
HATCH
  2
AcDbHatch
  3
AutoCAD 2000
 90
        0
280
     0
281
     1
  0
CLASS
  1
ACDBDICTIONARYWDFLT
  2
AcDbDictionaryWithDefault
  3
AutoCAD 2000
 90
        0
280
     0
281
     0
  0
CLASS
  1
ACDBPLACEHOLDER
  2
AcDbPlaceHolder
  3
AutoCAD 2000
 90
        0
280
     0
281
     0
  0
CLASS
  1
LAYOUT
  2
AcDbLayout
  3
AutoCAD 2000
 90
        0
280
     0
281
     0
  0
CLASS
  1
LONG_TRANSACTION
  2
AcDbLongTransaction
  3
AutoCAD 2000
 90
        0
280
     0
281
     0
  0
CLASS
  1
LWPOLYLINE
  2
AcDbPolyline
  3
AutoCAD 2000
 90
        0
280
     0
281
     1
  0
CLASS
  1
HATCH
  2
AcDbHatch
  3
AutoCAD 2000
 90
        0
280
     0
281
     1
  0
CLASS
  1
XRECORD
  2
AcDbXrecord
  3
AutoCAD 2000
 90
        0
280
     0
281
     0
  0
ENDSEC
  0
SECTION
  2
TABLES
  0
TABLE
  2
VPORT
  5
8
330
0
100
AcDbSymbolTable
 70
     1
  0
VPORT
  5
14ECF
330
8
100
AcDbSymbolTableRecord
100
AcDbViewportTableRecord
  2
*ACTIVE
 70
     0
 10
0.0
 20
0.0
 11
1.0
 21
1.0
 12
-1525.19253141563
 22
1656.298235044492
 13
0.0
 23
0.0
 14
5.0
 24
5.0
 15
0.0
 25
0.0
 16
0.0
 26
0.0
 36
1.0
 17
0.0
 27
0.0
 37
0.0
 40
130.0781871979775
 41
1.741154562383612
 42
50.0
 43
0.0
 44
0.0
 50
0.0
 51
0.0
 71
     0
 72
   100
 73
     1
 74
     0
 75
     0
 76
     0
 77
     0
 78
     0
  0
ENDTAB
  0
TABLE
  2
LTYPE
  5
5
330
0
100
AcDbSymbolTable
 70
     2
  0
LTYPE
  5
14
330
5
100
AcDbSymbolTableRecord
100
AcDbLinetypeTableRecord
  2
BYBLOCK
 70
     0
  3

 72
    65
 73
     0
 40
0.0
  0
LTYPE
  5
15
330
5
100
AcDbSymbolTableRecord
100
AcDbLinetypeTableRecord
  2
BYLAYER
 70
     0
  3

 72
    65
 73
     0
 40
0.0
  0
LTYPE
  5
16
330
5
100
AcDbSymbolTableRecord
100
AcDbLinetypeTableRecord
  2
CONTINUOUS
 70
     0
  3
Solid line
 72
    65
 73
     0
 40
0.0
  0
LTYPE
  5
1956
330
5
100
AcDbSymbolTableRecord
100
AcDbLinetypeTableRecord
  2
CENTERX2
 70
     0
  3
________  __  ________  __  ________  __  _____
 72
    65
 73
     4
 40
4.0
 49
2.5
 74
     0
 49
-0.5
 74
     0
 49
0.5
 74
     0
 49
-0.5
 74
     0
  0
ENDTAB
  0
TABLE
  2
LAYER
  5
2
102
{ACAD_XDICTIONARY
360
130FA
102
}
330
0
100
AcDbSymbolTable
 70
     6
  0
LAYER
  5
F
330
2
100
AcDbSymbolTableRecord
100
AcDbLayerTableRecord
  2
0
 70
     0
 62
     7
  6
CONTINUOUS
  0
LAYER
  5
18F
330
2
100
AcDbSymbolTableRecord
100
AcDbLayerTableRecord
  2
ZISSEN1
 70
     0
 62
     7
  6
CONTINUOUS
  0
LAYER
  5
529
330
2
100
AcDbSymbolTableRecord
100
AcDbLayerTableRecord
  2
SUNPOU
 70
     0
 62
     1
  6
CONTINUOUS
  0
LAYER
  5
195A
330
2
100
AcDbSymbolTableRecord
100
AcDbLayerTableRecord
  2
CL1
 70
     0
 62
   210
  6
CENTERX2
  0
LAYER
  5
3A9B
330
2
100
AcDbSymbolTableRecord
100
AcDbLayerTableRecord
  2
DEFPOINTS
 70
     0
 62
     7
  6
CONTINUOUS
  0
LAYER
  5
148D6
330
2
100
AcDbSymbolTableRecord
100
AcDbLayerTableRecord
  2
SAISEN
 70
     0
 62
     1
  6
CONTINUOUS
  0
ENDTAB
  0
TABLE
  2
STYLE
  5
3
330
0
100
AcDbSymbolTable
 70
     2
  0
STYLE
  5
10
330
3
100
AcDbSymbolTableRecord
100
AcDbTextStyleTableRecord
  2
STANDARD
 70
     0
 40
0.0
 41
1.0
 50
0.0
 71
     0
 42
3.0
  3
txt
  4
BigFont
  0
STYLE
  5
1960
330
3
100
AcDbSymbolTableRecord
100
AcDbTextStyleTableRecord
  2
ゴシック体
 70
     0
 40
0.0
 41
1.0
 50
0.0
 71
     0
 42
2.5
  3
MS Gothic.ttf
  4

1001
ACAD
1000
MS Gothic
1071
    32817
  0
ENDTAB
  0
TABLE
  2
VIEW
  5
6
330
0
100
AcDbSymbolTable
 70
     0
  0
ENDTAB
  0
TABLE
  2
UCS
  5
7
330
0
100
AcDbSymbolTable
 70
     0
  0
ENDTAB
  0
TABLE
  2
APPID
  5
9
330
0
100
AcDbSymbolTable
 70
     5
  0
APPID
  5
11
330
9
100
AcDbSymbolTableRecord
100
AcDbRegAppTableRecord
  2
ACAD
 70
     0
  0
APPID
  5
4005
330
9
100
AcDbSymbolTableRecord
100
AcDbRegAppTableRecord
  2
CONTENTTABDATA
 70
     0
  0
APPID
  5
4006
330
9
100
AcDbSymbolTableRecord
100
AcDbRegAppTableRecord
  2
CONTENTCURRENTTAB
 70
     0
  0
APPID
  5
477B
330
9
100
AcDbSymbolTableRecord
100
AcDbRegAppTableRecord
  2
CONTENTBLOCKDESCRIPTION
 70
     0
  0
APPID
  5
477C
330
9
100
AcDbSymbolTableRecord
100
AcDbRegAppTableRecord
  2
CONTENTBLOCKICON
 70
     0
  0
ENDTAB
  0
TABLE
  2
DIMSTYLE
  5
A
330
0
100
AcDbSymbolTable
 70
     3
  0
DIMSTYLE
105
1D
330
A
100
AcDbSymbolTableRecord
100
AcDbDimStyleTableRecord
  2
STANDARD
 70
     0
  3

  4

  5

  6

  7

 40
1.0
 41
0.18
 42
0.0625
 43
0.38
 44
0.18
 45
0.0
 46
0.0
 47
0.0
 48
0.0
140
0.18
141
0.09
142
0.0
143
25.4
144
1.0
145
0.0
146
1.0
147
0.09
 71
     0
 72
     0
 73
     1
 74
     1
 75
     0
 76
     0
 77
     0
 78
     0
170
     0
171
     2
172
     0
173
     0
174
     0
175
     0
176
     0
177
     0
178
     0
270
     2
271
     4
272
     4
273
     2
274
     2
340
10
275
     0
280
     0
281
     0
282
     0
283
     1
284
     0
285
     0
286
     0
287
     3
288
     0
  0
DIMSTYLE
105
52E
102
{ACAD_REACTORS
330
14629
330
1471D
330
1470E
330
140FC
330
14C06
330
1479C
102
}
330
A
100
AcDbSymbolTableRecord
100
AcDbDimStyleTableRecord
  2
標準スタイル
 70
     0
  3

  4

  5

  6

  7

 40
0.0
 41
3.0
 42
0.5
 43
0.5
 44
0.5
 45
0.0
 46
0.0
 47
0.0
 48
0.0
140
3.5
141
0.0
142
0.0
143
25.4
144
1.0
145
0.0
146
1.0
147
1.0
 71
     0
 72
     0
 73
     0
 74
     0
 75
     0
 76
     0
 77
     1
 78
     8
170
     0
171
     2
172
     1
173
     0
174
     0
175
     0
176
     1
177
     1
178
     1
270
     2
271
     2
272
     2
273
     2
274
     2
340
1960
275
     0
280
     0
281
     0
282
     0
283
     1
284
     8
285
     0
286
     0
287
     3
288
     0
  0
DIMSTYLE
105
131A7
102
{ACAD_REACTORS
330
13E73
330
13E74
330
13E75
330
1406C
330
14027
102
}
330
A
100
AcDbSymbolTableRecord
100
AcDbDimStyleTableRecord
  2
ISO-25
 70
     0
  3

  4

  5

  6

  7

 40
1.0
 41
2.5
 42
0.625
 43
3.75
 44
1.25
 45
0.0
 46
0.0
 47
0.0
 48
0.0
140
2.5
141
2.5
142
0.0
143
0.03937007874016
144
1.0
145
0.0
146
1.0
147
0.625
 71
     0
 72
     0
 73
     0
 74
     0
 75
     0
 76
     0
 77
     1
 78
     8
170
     0
171
     3
172
     1
173
     0
174
     0
175
     0
176
     1
177
     1
178
     1
270
     2
271
     2
272
     2
273
     2
274
     3
340
10
275
     0
280
     0
281
     0
282
     0
283
     0
284
     8
285
     0
286
     0
287
     3
288
     0
  0
ENDTAB
  0
TABLE
  2
BLOCK_RECORD
  5
1
330
0
100
AcDbSymbolTable
 70
    11
  0
BLOCK_RECORD
  5
1A
102
{ACAD_XDICTIONARY
360
14EF5
102
}
330
1
100
AcDbSymbolTableRecord
100
AcDbBlockTableRecord
  2
*MODEL_SPACE
  0
BLOCK_RECORD
  5
5D8E
102
{ACAD_XDICTIONARY
360
14EF7
102
}
330
1
100
AcDbSymbolTableRecord
100
AcDbBlockTableRecord
  2
*PAPER_SPACE
  0
BLOCK_RECORD
  5
13EFF
330
1
100
AcDbSymbolTableRecord
100
AcDbBlockTableRecord
  2
*D0
  0
BLOCK_RECORD
  5
13F0D
330
1
100
AcDbSymbolTableRecord
100
AcDbBlockTableRecord
  2
*D1
  0
BLOCK_RECORD
  5
13F19
330
1
100
AcDbSymbolTableRecord
100
AcDbBlockTableRecord
  2
*D2
  0
BLOCK_RECORD
  5
14028
330
1
100
AcDbSymbolTableRecord
100
AcDbBlockTableRecord
  2
*D3
  0
BLOCK_RECORD
  5
1406D
330
1
100
AcDbSymbolTableRecord
100
AcDbBlockTableRecord
  2
*D4
  0
BLOCK_RECORD
  5
140FD
330
1
100
AcDbSymbolTableRecord
100
AcDbBlockTableRecord
  2
*D5
  0
BLOCK_RECORD
  5
1462A
330
1
100
AcDbSymbolTableRecord
100
AcDbBlockTableRecord
  2
*D6
  0
BLOCK_RECORD
  5
1470F
330
1
100
AcDbSymbolTableRecord
100
AcDbBlockTableRecord
  2
*D7
  0
BLOCK_RECORD
  5
1471E
330
1
100
AcDbSymbolTableRecord
100
AcDbBlockTableRecord
  2
*D8
  0
BLOCK_RECORD
  5
1479D
330
1
100
AcDbSymbolTableRecord
100
AcDbBlockTableRecord
  2
*D9
  0
BLOCK_RECORD
  5
14C07
330
1
100
AcDbSymbolTableRecord
100
AcDbBlockTableRecord
  2
*D10
  0
ENDTAB
  0
ENDSEC
  0
SECTION
  2
BLOCKS
  0
BLOCK
  5
1B
330
1A
100
AcDbEntity
  8
0
100
AcDbBlockBegin
  2
*MODEL_SPACE
 70
     0
 10
0.0
 20
0.0
 30
0.0
  3
*MODEL_SPACE
  1

  0
ENDBLK
  5
1C
330
1A
100
AcDbEntity
  8
0
100
AcDbBlockEnd
  0
BLOCK
  5
5E60
330
5D8E
100
AcDbEntity
 67
     1
  8
0
100
AcDbBlockBegin
  2
*PAPER_SPACE
 70
     0
 10
0.0
 20
0.0
 30
0.0
  3
*PAPER_SPACE
  1

  0
ENDBLK
  5
5E61
330
5D8E
100
AcDbEntity
 67
     1
  8
0
100
AcDbBlockEnd
  0
BLOCK
  5
13F0B
330
13EFF
100
AcDbEntity
  8
0
100
AcDbBlockBegin
  2
*D0
 70
     1
 10
0.0
 20
0.0
 30
0.0
  3
*D0
  1

  0
LINE
  5
14D4C
330
13EFF
100
AcDbEntity
  8
SUNPOU
 62
     1
100
AcDbLine
 10
-1472.375
 20
1600.0
 30
0.0
 11
-1460.988658334398
 21
1600.0
 31
0.0
  0
LINE
  5
14D4D
330
13EFF
100
AcDbEntity
  8
SUNPOU
 62
     1
100
AcDbLine
 10
-1472.375
 20
1603.0
 30
0.0
 11
-1460.988658334398
 21
1603.0
 31
0.0
  0
LINE
  5
14D4E
330
13EFF
100
AcDbEntity
  8
SUNPOU
 62
     1
100
AcDbLine
 10
-1462.238658334397
 20
1597.5
 30
0.0
 11
-1462.238658334397
 21
1595.0
 31
0.0
  0
LINE
  5
14D4F
330
13EFF
100
AcDbEntity
  8
SUNPOU
 62
     1
100
AcDbLine
 10
-1462.238658334397
 20
1605.5
 30
0.0
 11
-1462.238658334397
 21
1611.583333333333
 31
0.0
  0
LINE
  5
14D50
330
13EFF
100
AcDbEntity
  8
SUNPOU
 62
     1
100
AcDbLine
 10
-1462.238658334397
 20
1600.0
 30
0.0
 11
-1462.238658334397
 21
1603.0
 31
0.0
  0
SOLID
  5
14D51
330
13EFF
100
AcDbEntity
  8
SUNPOU
 62
     1
100
AcDbTrace
 10
-1462.655325001064
 20
1597.5
 30
0.0
 11
-1461.821991667731
 21
1597.5
 31
0.0
 12
-1462.238658334397
 22
1600.0
 32
0.0
 13
-1462.238658334397
 23
1600.0
 33
0.0
  0
SOLID
  5
14D52
330
13EFF
100
AcDbEntity
  8
SUNPOU
 62
     1
100
AcDbTrace
 10
-1462.655325001064
 20
1605.5
 30
0.0
 11
-1461.821991667731
 21
1605.5
 31
0.0
 12
-1462.238658334397
 22
1603.0
 32
0.0
 13
-1462.238658334397
 23
1603.0
 33
0.0
  0
MTEXT
  5
14D53
330
13EFF
100
AcDbEntity
  8
SUNPOU
 62
     1
100
AcDbMText
 10
-1464.613658334398
 20
1609.791666666666
 30
0.0
 40
3.5
 41
0.0
 71
     5
 72
     1
  1
3
 11
0.0000000000000001
 21
1.0
 31
0.0
1001
ACAD
1000
MTEXTBEGIN
1070
    73
1070
     1
1070
    44
1040
1.0
1070
    74
1070
     0
1000
MTEXTEND
  0
POINT
  5
14D54
330
13EFF
100
AcDbEntity
  8
DEFPOINTS
 62
     0
100
AcDbPoint
 10
-1473.0
 20
1600.0
 30
0.0
  0
POINT
  5
14D55
330
13EFF
100
AcDbEntity
  8
DEFPOINTS
 62
     0
100
AcDbPoint
 10
-1473.0
 20
1603.0
 30
0.0
  0
POINT
  5
14D56
330
13EFF
100
AcDbEntity
  8
DEFPOINTS
 62
     0
100
AcDbPoint
 10
-1462.238658334397
 20
1603.0
 30
0.0
  0
ENDBLK
  5
13F0C
330
13EFF
100
AcDbEntity
  8
0
100
AcDbBlockEnd
  0
BLOCK
  5
13F17
330
13F0D
100
AcDbEntity
  8
0
100
AcDbBlockBegin
  2
*D1
 70
     1
 10
0.0
 20
0.0
 30
0.0
  3
*D1
  1

  0
LINE
  5
14D43
330
13F0D
100
AcDbEntity
  8
SUNPOU
 62
     1
100
AcDbLine
 10
-1473.372421345615
 20
1689.0
 30
0.0
 11
-1452.59128580596
 21
1689.0
 31
0.0
  0
LINE
  5
14D44
330
13F0D
100
AcDbEntity
  8
SUNPOU
 62
     1
100
AcDbLine
 10
-1473.372421345615
 20
1645.0
 30
0.0
 11
-1452.59128580596
 21
1645.0
 31
0.0
  0
LINE
  5
14D45
330
13F0D
100
AcDbEntity
  8
SUNPOU
 62
     1
100
AcDbLine
 10
-1453.84128580596
 20
1686.5
 30
0.0
 11
-1453.84128580596
 21
1647.5
 31
0.0
  0
SOLID
  5
14D46
330
13F0D
100
AcDbEntity
  8
SUNPOU
 62
     1
100
AcDbTrace
 10
-1454.257952472626
 20
1686.5
 30
0.0
 11
-1453.424619139293
 21
1686.5
 31
0.0
 12
-1453.84128580596
 22
1689.0
 32
0.0
 13
-1453.84128580596
 23
1689.0
 33
0.0
  0
SOLID
  5
14D47
330
13F0D
100
AcDbEntity
  8
SUNPOU
 62
     1
100
AcDbTrace
 10
-1454.257952472626
 20
1647.5
 30
0.0
 11
-1453.424619139293
 21
1647.5
 31
0.0
 12
-1453.84128580596
 22
1645.0
 32
0.0
 13
-1453.84128580596
 23
1645.0
 33
0.0
  0
MTEXT
  5
14D48
330
13F0D
100
AcDbEntity
  8
SUNPOU
 62
     1
100
AcDbMText
 10
-1456.21628580596
 20
1666.999999999999
 30
0.0
 40
3.5
 41
0.0
 71
     5
 72
     1
  1
44
 11
0.0000000000000001
 21
1.0
 31
0.0
1001
ACAD
1000
MTEXTBEGIN
1070
    73
1070
     1
1070
    44
1040
1.0
1070
    74
1070
     0
1000
MTEXTEND
  0
POINT
  5
14D49
330
13F0D
100
AcDbEntity
  8
DEFPOINTS
 62
     0
100
AcDbPoint
 10
-1473.997421345615
 20
1689.0
 30
0.0
  0
POINT
  5
14D4A
330
13F0D
100
AcDbEntity
  8
DEFPOINTS
 62
     0
100
AcDbPoint
 10
-1473.997421345615
 20
1645.0
 30
0.0
  0
POINT
  5
14D4B
330
13F0D
100
AcDbEntity
  8
DEFPOINTS
 62
     0
100
AcDbPoint
 10
-1453.84128580596
 20
1645.0
 30
0.0
  0
ENDBLK
  5
13F18
330
13F0D
100
AcDbEntity
  8
0
100
AcDbBlockEnd
  0
BLOCK
  5
13F23
330
13F19
100
AcDbEntity
  8
0
100
AcDbBlockBegin
  2
*D2
 70
     1
 10
0.0
 20
0.0
 30
0.0
  3
*D2
  1

  0
LINE
  5
14D0E
330
13F19
100
AcDbEntity
  8
SUNPOU
 62
     1
100
AcDbLine
 10
-1599.997421345615
 20
1645.375
 30
0.0
 11
-1599.997421345615
 21
1617.991526549755
 31
0.0
  0
LINE
  5
14D0F
330
13F19
100
AcDbEntity
  8
SUNPOU
 62
     1
100
AcDbLine
 10
-1472.997421345615
 20
1645.375
 30
0.0
 11
-1472.997421345615
 21
1617.991526549755
 31
0.0
  0
LINE
  5
14D10
330
13F19
100
AcDbEntity
  8
SUNPOU
 62
     1
100
AcDbLine
 10
-1597.497421345615
 20
1619.241526549755
 30
0.0
 11
-1475.497421345615
 21
1619.241526549755
 31
0.0
  0
SOLID
  5
14D11
330
13F19
100
AcDbEntity
  8
SUNPOU
 62
     1
100
AcDbTrace
 10
-1597.497421345615
 20
1619.658193216422
 30
0.0
 11
-1597.497421345615
 21
1618.824859883089
 31
0.0
 12
-1599.997421345615
 22
1619.241526549755
 32
0.0
 13
-1599.997421345615
 23
1619.241526549755
 33
0.0
  0
SOLID
  5
14D12
330
13F19
100
AcDbEntity
  8
SUNPOU
 62
     1
100
AcDbTrace
 10
-1475.497421345615
 20
1619.658193216422
 30
0.0
 11
-1475.497421345615
 21
1618.824859883089
 31
0.0
 12
-1472.997421345615
 22
1619.241526549755
 32
0.0
 13
-1472.997421345615
 23
1619.241526549755
 33
0.0
  0
MTEXT
  5
14D13
330
13F19
100
AcDbEntity
  8
SUNPOU
 62
     1
100
AcDbMText
 10
-1536.498710672807
 20
1621.616526549755
 30
0.0
 40
3.5
 41
0.0
 71
     5
 72
     1
  1
127
1001
ACAD
1000
MTEXTBEGIN
1070
    73
1070
     1
1070
    44
1040
1.0
1070
    74
1070
     0
1000
MTEXTEND
  0
POINT
  5
14D14
330
13F19
100
AcDbEntity
  8
DEFPOINTS
 62
     0
100
AcDbPoint
 10
-1599.997421345615
 20
1646.0
 30
0.0
  0
POINT
  5
14D15
330
13F19
100
AcDbEntity
  8
DEFPOINTS
 62
     0
100
AcDbPoint
 10
-1472.997421345615
 20
1646.0
 30
0.0
  0
POINT
  5
14D16
330
13F19
100
AcDbEntity
  8
DEFPOINTS
 62
     0
100
AcDbPoint
 10
-1472.997421345615
 20
1619.241526549755
 30
0.0
  0
ENDBLK
  5
13F24
330
13F19
100
AcDbEntity
  8
0
100
AcDbBlockEnd
  0
BLOCK
  5
14032
330
14028
100
AcDbEntity
  8
0
100
AcDbBlockBegin
  2
*D3
 70
     1
 10
0.0
 20
0.0
 30
0.0
  3
*D3
  1

  0
LINE
  5
14EF9
330
14028
100
AcDbEntity
  8
SUNPOU
 62
     1
100
AcDbLine
 10
-1595.497421345615
 20
1648.881226911105
 30
0.0
 11
-1595.497421345615
 21
1628.143920294567
 31
0.0
  0
LINE
  5
14EFA
330
14028
100
AcDbEntity
  8
SUNPOU
 62
     1
100
AcDbLine
 10
-1479.497421345615
 20
1648.881226911108
 30
0.0
 11
-1479.497421345615
 21
1628.143920294567
 31
0.0
  0
LINE
  5
14EFB
330
14028
100
AcDbEntity
  8
SUNPOU
 62
     1
100
AcDbLine
 10
-1592.997421345615
 20
1629.393920294567
 30
0.0
 11
-1481.997421345615
 21
1629.393920294567
 31
0.0
  0
MTEXT
  5
14EFC
330
14028
100
AcDbEntity
  8
SUNPOU
 62
     1
100
AcDbMText
 10
-1536.606357383607
 20
1632.063201266366
 30
0.0
 40
3.5
 41
0.0
 71
     5
 72
     1
  1
116
  0
SOLID
  5
14EFD
330
14028
100
AcDbEntity
  8
SUNPOU
 62
     1
100
AcDbTrace
 10
-1592.997421345615
 20
1629.810586961234
 30
0.0
 11
-1592.997421345615
 21
1628.9772536279
 31
0.0
 12
-1595.497421345615
 22
1629.393920294567
 32
0.0
 13
-1595.497421345615
 23
1629.393920294567
 33
0.0
  0
SOLID
  5
14EFE
330
14028
100
AcDbEntity
  8
SUNPOU
 62
     1
100
AcDbTrace
 10
-1481.997421345615
 20
1629.810586961234
 30
0.0
 11
-1481.997421345615
 21
1628.9772536279
 31
0.0
 12
-1479.497421345615
 22
1629.393920294567
 32
0.0
 13
-1479.497421345615
 23
1629.393920294567
 33
0.0
  0
POINT
  5
14EFF
330
14028
100
AcDbEntity
  8
DEFPOINTS
 62
     0
100
AcDbPoint
 10
-1595.497421345615
 20
1649.506226911104
 30
0.0
  0
POINT
  5
14F00
330
14028
100
AcDbEntity
  8
DEFPOINTS
 62
     0
100
AcDbPoint
 10
-1479.497421345615
 20
1649.506226911108
 30
0.0
  0
POINT
  5
14F01
330
14028
100
AcDbEntity
  8
DEFPOINTS
 62
     0
100
AcDbPoint
 10
-1479.497421345615
 20
1629.393920294567
 30
0.0
  0
ENDBLK
  5
14033
330
14028
100
AcDbEntity
  8
0
100
AcDbBlockEnd
  0
BLOCK
  5
14079
330
1406D
100
AcDbEntity
  8
0
100
AcDbBlockBegin
  2
*D4
 70
     1
 10
0.0
 20
0.0
 30
0.0
  3
*D4
  1

  0
LINE
  5
14D22
330
1406D
100
AcDbEntity
  8
SUNPOU
 62
     1
100
AcDbLine
 10
-1595.5
 20
1647.309054581868
 30
0.0
 11
-1595.5
 21
1628.143920294567
 31
0.0
  0
LINE
  5
14D23
330
1406D
100
AcDbEntity
  8
SUNPOU
 62
     1
100
AcDbLine
 10
-1600.0
 20
1645.375
 30
0.0
 11
-1600.0
 21
1628.143920294567
 31
0.0
  0
LINE
  5
14D24
330
1406D
100
AcDbEntity
  8
SUNPOU
 62
     1
100
AcDbLine
 10
-1593.0
 20
1629.393920294567
 30
0.0
 11
-1590.5
 21
1629.393920294567
 31
0.0
  0
LINE
  5
14D25
330
1406D
100
AcDbEntity
  8
SUNPOU
 62
     1
100
AcDbLine
 10
-1602.5
 20
1629.393920294567
 30
0.0
 11
-1613.25
 21
1629.393920294567
 31
0.0
  0
LINE
  5
14D26
330
1406D
100
AcDbEntity
  8
SUNPOU
 62
     1
100
AcDbLine
 10
-1595.5
 20
1629.393920294567
 30
0.0
 11
-1600.0
 21
1629.393920294567
 31
0.0
  0
SOLID
  5
14D27
330
1406D
100
AcDbEntity
  8
SUNPOU
 62
     1
100
AcDbTrace
 10
-1593.0
 20
1629.810586961234
 30
0.0
 11
-1593.0
 21
1628.9772536279
 31
0.0
 12
-1595.5
 22
1629.393920294567
 32
0.0
 13
-1595.5
 23
1629.393920294567
 33
0.0
  0
SOLID
  5
14D28
330
1406D
100
AcDbEntity
  8
SUNPOU
 62
     1
100
AcDbTrace
 10
-1602.5
 20
1629.810586961234
 30
0.0
 11
-1602.5
 21
1628.9772536279
 31
0.0
 12
-1600.0
 22
1629.393920294567
 32
0.0
 13
-1600.0
 23
1629.393920294567
 33
0.0
  0
MTEXT
  5
14D29
330
1406D
100
AcDbEntity
  8
SUNPOU
 62
     1
100
AcDbMText
 10
-1609.124999999999
 20
1631.768920294567
 30
0.0
 40
3.5
 41
0.0
 71
     5
 72
     1
  1
4.5
1001
ACAD
1000
MTEXTBEGIN
1070
    73
1070
     1
1070
    44
1040
1.0
1070
    74
1070
     0
1000
MTEXTEND
  0
POINT
  5
14D2A
330
1406D
100
AcDbEntity
  8
DEFPOINTS
 62
     0
100
AcDbPoint
 10
-1595.5
 20
1647.934054581868
 30
0.0
  0
POINT
  5
14D2B
330
1406D
100
AcDbEntity
  8
DEFPOINTS
 62
     0
100
AcDbPoint
 10
-1600.0
 20
1646.0
 30
0.0
  0
POINT
  5
14D2C
330
1406D
100
AcDbEntity
  8
DEFPOINTS
 62
     0
100
AcDbPoint
 10
-1600.0
 20
1629.393920294567
 30
0.0
  0
ENDBLK
  5
1407A
330
1406D
100
AcDbEntity
  8
0
100
AcDbBlockEnd
  0
BLOCK
  5
14109
330
140FD
100
AcDbEntity
  8
0
100
AcDbBlockBegin
  2
*D5
 70
     1
 10
0.0
 20
0.0
 30
0.0
  3
*D5
  1

  0
LINE
  5
14D38
330
140FD
100
AcDbEntity
  8
SUNPOU
  6
BYBLOCK
 62
     1
100
AcDbLine
 10
-1484.566100357658
 20
1653.0
 30
0.0
 11
-1463.992966633686
 21
1653.0
 31
0.0
  0
LINE
  5
14D39
330
140FD
100
AcDbEntity
  8
SUNPOU
  6
BYBLOCK
 62
     1
100
AcDbLine
 10
-1473.497421345615
 20
1645.0
 30
0.0
 11
-1463.992966633686
 21
1645.0
 31
0.0
  0
LINE
  5
14D3A
330
140FD
100
AcDbEntity
  8
SUNPOU
  6
BYBLOCK
 62
     1
100
AcDbLine
 10
-1464.492966633685
 20
1656.0
 30
0.0
 11
-1464.492966633685
 21
1659.0
 31
0.0
  0
LINE
  5
14D3B
330
140FD
100
AcDbEntity
  8
SUNPOU
  6
BYBLOCK
 62
     1
100
AcDbLine
 10
-1464.492966633685
 20
1642.0
 30
0.0
 11
-1464.492966633685
 21
1639.0
 31
0.0
  0
LINE
  5
14D3C
330
140FD
100
AcDbEntity
  8
SUNPOU
  6
BYBLOCK
 62
     1
100
AcDbLine
 10
-1464.492966633685
 20
1653.0
 30
0.0
 11
-1464.492966633685
 21
1645.0
 31
0.0
  0
SOLID
  5
14D3D
330
140FD
100
AcDbEntity
  8
SUNPOU
  6
BYBLOCK
 62
     1
100
AcDbTrace
 10
-1464.992966633686
 20
1656.0
 30
0.0
 11
-1463.992966633686
 21
1656.0
 31
0.0
 12
-1464.492966633685
 22
1653.0
 32
0.0
 13
-1464.492966633685
 23
1653.0
 33
0.0
  0
SOLID
  5
14D3E
330
140FD
100
AcDbEntity
  8
SUNPOU
  6
BYBLOCK
 62
     1
100
AcDbTrace
 10
-1464.992966633686
 20
1642.0
 30
0.0
 11
-1463.992966633686
 21
1642.0
 31
0.0
 12
-1464.492966633685
 22
1645.0
 32
0.0
 13
-1464.492966633685
 23
1645.0
 33
0.0
  0
MTEXT
  5
14D3F
330
140FD
100
AcDbEntity
  8
SUNPOU
  6
BYBLOCK
 62
     1
100
AcDbMText
 10
-1467.242966633686
 20
1648.46459980592
 30
0.0
 40
3.5
 41
0.0
 71
     5
 72
     1
  1
\A1;8
 11
0.0000000000000001
 21
1.0
 31
0.0
1001
ACAD
1000
MTEXTBEGIN
1070
    73
1070
     1
1070
    44
1040
1.0
1070
    74
1070
     0
1000
MTEXTEND
  0
POINT
  5
14D40
330
140FD
100
AcDbEntity
  8
DEFPOINTS
  6
BYBLOCK
 62
     0
100
AcDbPoint
 10
-1485.066100357657
 20
1653.0
 30
0.0
  0
POINT
  5
14D41
330
140FD
100
AcDbEntity
  8
DEFPOINTS
  6
BYBLOCK
 62
     0
100
AcDbPoint
 10
-1473.997421345615
 20
1645.0
 30
0.0
  0
POINT
  5
14D42
330
140FD
100
AcDbEntity
  8
DEFPOINTS
  6
BYBLOCK
 62
     0
100
AcDbPoint
 10
-1464.492966633685
 20
1645.0
 30
0.0
  0
ENDBLK
  5
1410A
330
140FD
100
AcDbEntity
  8
0
100
AcDbBlockEnd
  0
BLOCK
  5
14636
330
1462A
100
AcDbEntity
  8
0
100
AcDbBlockBegin
  2
*D6
 70
     1
 10
0.0
 20
0.0
 30
0.0
  3
*D6
  1

  0
LINE
  5
14F02
330
1462A
100
AcDbEntity
  8
SUNPOU
 62
     1
100
AcDbLine
 10
-1495.75
 20
1592.0
 30
0.0
 11
-1461.738658334397
 21
1592.0
 31
0.0
  0
LINE
  5
14F03
330
1462A
100
AcDbEntity
  8
SUNPOU
 62
     1
100
AcDbLine
 10
-1472.5
 20
1600.0
 30
0.0
 11
-1461.738658334397
 21
1600.0
 31
0.0
  0
LINE
  5
14F04
330
1462A
100
AcDbEntity
  8
SUNPOU
 62
     1
100
AcDbLine
 10
-1462.238658334397
 20
1594.0
 30
0.0
 11
-1462.238658334397
 21
1598.0
 31
0.0
  0
MTEXT
  5
14F05
330
1462A
100
AcDbEntity
  8
SUNPOU
 62
     1
100
AcDbMText
 10
-1464.988658334397
 20
1595.0
 30
0.0
 40
3.5
 41
0.0
 71
     5
 72
     1
  1
\A1;8
 11
0.0000000000000001
 21
1.0
 31
0.0
  0
SOLID
  5
14F06
330
1462A
100
AcDbEntity
  8
SUNPOU
 62
     1
100
AcDbTrace
 10
-1462.571991667731
 20
1594.0
 30
0.0
 11
-1461.905325001064
 21
1594.0
 31
0.0
 12
-1462.238658334397
 22
1592.0
 32
0.0
 13
-1462.238658334397
 23
1592.0
 33
0.0
  0
SOLID
  5
14F07
330
1462A
100
AcDbEntity
  8
SUNPOU
 62
     1
100
AcDbTrace
 10
-1462.571991667731
 20
1598.0
 30
0.0
 11
-1461.905325001064
 21
1598.0
 31
0.0
 12
-1462.238658334397
 22
1600.0
 32
0.0
 13
-1462.238658334397
 23
1600.0
 33
0.0
  0
POINT
  5
14F08
330
1462A
100
AcDbEntity
  8
DEFPOINTS
 62
     0
100
AcDbPoint
 10
-1496.25
 20
1592.0
 30
0.0
  0
POINT
  5
14F09
330
1462A
100
AcDbEntity
  8
DEFPOINTS
 62
     0
100
AcDbPoint
 10
-1473.0
 20
1600.0
 30
0.0
  0
POINT
  5
14F0A
330
1462A
100
AcDbEntity
  8
DEFPOINTS
 62
     0
100
AcDbPoint
 10
-1462.238658334397
 20
1600.0
 30
0.0
  0
ENDBLK
  5
14637
330
1462A
100
AcDbEntity
  8
0
100
AcDbBlockEnd
  0
BLOCK
  5
1471B
330
1470F
100
AcDbEntity
  8
0
100
AcDbBlockBegin
  2
*D7
 70
     1
 10
0.0
 20
0.0
 30
0.0
  3
*D7
  1

  0
LINE
  5
14F0B
330
1470F
100
AcDbEntity
  8
SUNPOU
 62
     1
100
AcDbLine
 10
-1599.497421345615
 20
1645.0
 30
0.0
 11
-1608.578161052041
 21
1645.0
 31
0.0
  0
LINE
  5
14F0C
330
1470F
100
AcDbEntity
  8
SUNPOU
 62
     1
100
AcDbLine
 10
-1597.928742333572
 20
1651.5
 30
0.0
 11
-1608.578161052041
 21
1651.5
 31
0.0
  0
LINE
  5
14F0D
330
1470F
100
AcDbEntity
  8
SUNPOU
 62
     1
100
AcDbLine
 10
-1608.078161052041
 20
1642.0
 30
0.0
 11
-1608.078161052041
 21
1639.0
 31
0.0
  0
LINE
  5
14F0E
330
1470F
100
AcDbEntity
  8
SUNPOU
 62
     1
100
AcDbLine
 10
-1608.078161052041
 20
1654.5
 30
0.0
 11
-1608.078161052041
 21
1657.499999999999
 31
0.0
  0
MTEXT
  5
14F0F
330
1470F
100
AcDbEntity
  8
SUNPOU
 62
     1
100
AcDbMText
 10
-1610.974236616399
 20
1649.829105627301
 30
0.0
 40
3.5
 41
0.0
 71
     5
 72
     1
  1
\A1;6.5
 11
0.0000000000000001
 21
1.0
 31
0.0
  0
LINE
  5
14F10
330
1470F
100
AcDbEntity
  8
SUNPOU
 62
     1
100
AcDbLine
 10
-1608.078161052041
 20
1645.0
 30
0.0
 11
-1608.078161052041
 21
1651.5
 31
0.0
  0
SOLID
  5
14F11
330
1470F
100
AcDbEntity
  8
SUNPOU
 62
     1
100
AcDbTrace
 10
-1608.578161052041
 20
1642.0
 30
0.0
 11
-1607.578161052041
 21
1642.0
 31
0.0
 12
-1608.078161052041
 22
1645.0
 32
0.0
 13
-1608.078161052041
 23
1645.0
 33
0.0
  0
SOLID
  5
14F12
330
1470F
100
AcDbEntity
  8
SUNPOU
 62
     1
100
AcDbTrace
 10
-1608.578161052041
 20
1654.5
 30
0.0
 11
-1607.578161052041
 21
1654.5
 31
0.0
 12
-1608.078161052041
 22
1651.5
 32
0.0
 13
-1608.078161052041
 23
1651.5
 33
0.0
  0
POINT
  5
14F13
330
1470F
100
AcDbEntity
  8
DEFPOINTS
 62
     0
100
AcDbPoint
 10
-1598.997421345615
 20
1645.0
 30
0.0
  0
POINT
  5
14F14
330
1470F
100
AcDbEntity
  8
DEFPOINTS
 62
     0
100
AcDbPoint
 10
-1597.428742333572
 20
1651.5
 30
0.0
  0
POINT
  5
14F15
330
1470F
100
AcDbEntity
  8
DEFPOINTS
 62
     0
100
AcDbPoint
 10
-1608.078161052041
 20
1651.5
 30
0.0
  0
ENDBLK
  5
1471C
330
1470F
100
AcDbEntity
  8
0
100
AcDbBlockEnd
  0
BLOCK
  5
14728
330
1471E
100
AcDbEntity
  8
0
100
AcDbBlockBegin
  2
*D8
 70
     1
 10
0.0
 20
0.0
 30
0.0
  3
*D8
  1

  0
LINE
  5
14D2D
330
1471E
100
AcDbEntity
  8
SUNPOU
  6
BYBLOCK
 62
     1
100
AcDbLine
 10
-1599.497421345615
 20
1645.0
 30
0.0
 11
-1617.462362857632
 21
1645.0
 31
0.0
  0
LINE
  5
14D2E
330
1471E
100
AcDbEntity
  8
SUNPOU
  6
BYBLOCK
 62
     1
100
AcDbLine
 10
-1597.928742333572
 20
1657.499999999999
 30
0.0
 11
-1617.462362857632
 21
1657.499999999999
 31
0.0
  0
LINE
  5
14D2F
330
1471E
100
AcDbEntity
  8
SUNPOU
  6
BYBLOCK
 62
     1
100
AcDbLine
 10
-1616.962362857632
 20
1642.0
 30
0.0
 11
-1616.962362857632
 21
1639.0
 31
0.0
  0
LINE
  5
14D30
330
1471E
100
AcDbEntity
  8
SUNPOU
  6
BYBLOCK
 62
     1
100
AcDbLine
 10
-1616.962362857632
 20
1660.5
 30
0.0
 11
-1616.962362857632
 21
1663.5
 31
0.0
  0
LINE
  5
14D31
330
1471E
100
AcDbEntity
  8
SUNPOU
  6
BYBLOCK
 62
     1
100
AcDbLine
 10
-1616.962362857632
 20
1645.0
 30
0.0
 11
-1616.962362857632
 21
1657.499999999999
 31
0.0
  0
SOLID
  5
14D32
330
1471E
100
AcDbEntity
  8
SUNPOU
  6
BYBLOCK
 62
     1
100
AcDbTrace
 10
-1617.462362857632
 20
1642.0
 30
0.0
 11
-1616.462362857633
 21
1642.0
 31
0.0
 12
-1616.962362857632
 22
1645.0
 32
0.0
 13
-1616.962362857632
 23
1645.0
 33
0.0
  0
SOLID
  5
14D33
330
1471E
100
AcDbEntity
  8
SUNPOU
  6
BYBLOCK
 62
     1
100
AcDbTrace
 10
-1617.462362857632
 20
1660.5
 30
0.0
 11
-1616.462362857633
 21
1660.5
 31
0.0
 12
-1616.962362857632
 22
1657.499999999999
 32
0.0
 13
-1616.962362857632
 23
1657.499999999999
 33
0.0
  0
MTEXT
  5
14D34
330
1471E
100
AcDbEntity
  8
SUNPOU
  6
BYBLOCK
 62
     1
100
AcDbMText
 10
-1619.712362857633
 20
1651.168411592265
 30
0.0
 40
3.5
 41
0.0
 71
     5
 72
     1
  1
\A1;12.5
 11
0.0000000000000001
 21
1.0
 31
0.0
1001
ACAD
1000
MTEXTBEGIN
1070
    73
1070
     1
1070
    44
1040
1.0
1070
    74
1070
     0
1000
MTEXTEND
  0
POINT
  5
14D35
330
1471E
100
AcDbEntity
  8
DEFPOINTS
  6
BYBLOCK
 62
     0
100
AcDbPoint
 10
-1598.997421345615
 20
1645.0
 30
0.0
  0
POINT
  5
14D36
330
1471E
100
AcDbEntity
  8
DEFPOINTS
  6
BYBLOCK
 62
     0
100
AcDbPoint
 10
-1597.428742333572
 20
1657.499999999999
 30
0.0
  0
POINT
  5
14D37
330
1471E
100
AcDbEntity
  8
DEFPOINTS
  6
BYBLOCK
 62
     0
100
AcDbPoint
 10
-1616.962362857632
 20
1657.499999999999
 30
0.0
  0
ENDBLK
  5
14729
330
1471E
100
AcDbEntity
  8
0
100
AcDbBlockEnd
  0
BLOCK
  5
147A7
330
1479D
100
AcDbEntity
  8
0
100
AcDbBlockBegin
  2
*D9
 70
     1
 10
0.0
 20
0.0
 30
0.0
  3
*D9
  1

  0
LINE
  5
14D60
330
1479D
100
AcDbEntity
  8
SUNPOU
 62
     1
100
AcDbLine
 10
-1599.997421345615
 20
1688.5
 30
0.0
 11
-1599.997421345615
 21
1698.166887082847
 31
0.0
  0
LINE
  5
14D61
330
1479D
100
AcDbEntity
  8
SUNPOU
 62
     1
100
AcDbLine
 10
-1587.997421345615
 20
1655.493773088895
 30
0.0
 11
-1587.997421345615
 21
1698.166887082847
 31
0.0
  0
LINE
  5
14D62
330
1479D
100
AcDbEntity
  8
SUNPOU
 62
     1
100
AcDbLine
 10
-1602.997421345615
 20
1697.666887082847
 30
0.0
 11
-1605.997421345615
 21
1697.666887082847
 31
0.0
  0
LINE
  5
14D63
330
1479D
100
AcDbEntity
  8
SUNPOU
 62
     1
100
AcDbLine
 10
-1584.997421345615
 20
1697.666887082847
 30
0.0
 11
-1581.997421345615
 21
1697.666887082847
 31
0.0
  0
LINE
  5
14D64
330
1479D
100
AcDbEntity
  8
SUNPOU
 62
     1
100
AcDbLine
 10
-1599.997421345615
 20
1697.666887082847
 30
0.0
 11
-1587.997421345615
 21
1697.666887082847
 31
0.0
  0
SOLID
  5
14D65
330
1479D
100
AcDbEntity
  8
SUNPOU
 62
     1
100
AcDbTrace
 10
-1602.997421345615
 20
1698.166887082847
 30
0.0
 11
-1602.997421345615
 21
1697.166887082847
 31
0.0
 12
-1599.997421345615
 22
1697.666887082847
 32
0.0
 13
-1599.997421345615
 23
1697.666887082847
 33
0.0
  0
SOLID
  5
14D66
330
1479D
100
AcDbEntity
  8
SUNPOU
 62
     1
100
AcDbTrace
 10
-1584.997421345615
 20
1698.166887082847
 30
0.0
 11
-1584.997421345615
 21
1697.166887082847
 31
0.0
 12
-1587.997421345615
 22
1697.666887082847
 32
0.0
 13
-1587.997421345615
 23
1697.666887082847
 33
0.0
  0
MTEXT
  5
14D67
330
1479D
100
AcDbEntity
  8
SUNPOU
 62
     1
100
AcDbMText
 10
-1594.418070316948
 20
1700.416887082847
 30
0.0
 40
3.5
 41
0.0
 71
     5
 72
     1
  1
\A1;12
1001
ACAD
1000
MTEXTBEGIN
1070
    73
1070
     1
1070
    44
1040
1.0
1070
    74
1070
     0
1000
MTEXTEND
  0
POINT
  5
14D68
330
1479D
100
AcDbEntity
  8
DEFPOINTS
 62
     0
100
AcDbPoint
 10
-1599.997421345615
 20
1688.0
 30
0.0
  0
POINT
  5
14D69
330
1479D
100
AcDbEntity
  8
DEFPOINTS
 62
     0
100
AcDbPoint
 10
-1587.997421345615
 20
1654.993773088895
 30
0.0
  0
POINT
  5
14D6A
330
1479D
100
AcDbEntity
  8
DEFPOINTS
 62
     0
100
AcDbPoint
 10
-1587.997421345615
 20
1697.666887082847
 30
0.0
  0
ENDBLK
  5
147A8
330
1479D
100
AcDbEntity
  8
0
100
AcDbBlockEnd
  0
BLOCK
  5
14C11
330
14C07
100
AcDbEntity
  8
0
100
AcDbBlockBegin
  2
*D10
 70
     1
 10
0.0
 20
0.0
 30
0.0
  3
*D10
  1

  0
LINE
  5
14D7D
330
14C07
100
AcDbEntity
  8
SUNPOU
 62
     1
100
AcDbLine
 10
-1587.997421345615
 20
1655.993773088895
 30
0.0
 11
-1587.997421345615
 21
1698.172747517501
 31
0.0
  0
LINE
  5
14D7E
330
14C07
100
AcDbEntity
  8
SUNPOU
 62
     1
100
AcDbLine
 10
-1486.997421345615
 20
1653.500000000003
 30
0.0
 11
-1486.997421345615
 21
1698.172747517501
 31
0.0
  0
LINE
  5
14D7F
330
14C07
100
AcDbEntity
  8
SUNPOU
 62
     1
100
AcDbLine
 10
-1584.997421345615
 20
1697.672747517501
 30
0.0
 11
-1489.997421345615
 21
1697.672747517501
 31
0.0
  0
SOLID
  5
14D80
330
14C07
100
AcDbEntity
  8
SUNPOU
 62
     1
100
AcDbTrace
 10
-1584.997421345615
 20
1698.172747517501
 30
0.0
 11
-1584.997421345615
 21
1697.172747517501
 31
0.0
 12
-1587.997421345615
 22
1697.672747517501
 32
0.0
 13
-1587.997421345615
 23
1697.672747517501
 33
0.0
  0
SOLID
  5
14D81
330
14C07
100
AcDbEntity
  8
SUNPOU
 62
     1
100
AcDbTrace
 10
-1489.997421345615
 20
1698.172747517501
 30
0.0
 11
-1489.997421345615
 21
1697.172747517501
 31
0.0
 12
-1486.997421345615
 22
1697.672747517501
 32
0.0
 13
-1486.997421345615
 23
1697.672747517501
 33
0.0
  0
MTEXT
  5
14D82
330
14C07
100
AcDbEntity
  8
SUNPOU
 62
     1
100
AcDbMText
 10
-1537.497421345615
 20
1700.422747517501
 30
0.0
 40
3.5
 41
0.0
 71
     5
 72
     1
  1
\A1;101
1001
ACAD
1000
MTEXTBEGIN
1070
    73
1070
     1
1070
    44
1040
1.0
1070
    74
1070
     0
1000
MTEXTEND
  0
POINT
  5
14D83
330
14C07
100
AcDbEntity
  8
DEFPOINTS
 62
     0
100
AcDbPoint
 10
-1587.997421345615
 20
1655.493773088895
 30
0.0
  0
POINT
  5
14D84
330
14C07
100
AcDbEntity
  8
DEFPOINTS
 62
     0
100
AcDbPoint
 10
-1486.997421345615
 20
1653.000000000003
 30
0.0
  0
POINT
  5
14D85
330
14C07
100
AcDbEntity
  8
DEFPOINTS
 62
     0
100
AcDbPoint
 10
-1486.997421345615
 20
1697.672747517501
 30
0.0
  0
ENDBLK
  5
14C12
330
14C07
100
AcDbEntity
  8
0
100
AcDbBlockEnd
  0
ENDSEC
  0
SECTION
  2
ENTITIES
  0
MTEXT
  5
5084
330
1A
100
AcDbEntity
  8
0
100
AcDbMText
 10
1985.239088685435
 20
-948.5420423450428
 30
0.0
 40
8.0
 41
0.0
 71
     7
 72
     5
  1

1001
ACAD
1000
MTEXTBEGIN
1070
    73
1070
     1
1070
    44
1040
1.0
1070
    74
1070
     0
1000
MTEXTEND
  0
MTEXT
  5
5085
330
1A
100
AcDbEntity
  8
0
100
AcDbMText
 10
4270.596778580329
 20
22.24825240601649
 30
0.0
 40
8.0
 41
0.0
 71
     7
 72
     5
  1

1001
ACAD
1000
MTEXTBEGIN
1070
    73
1070
     1
1070
    44
1040
1.0
1070
    74
1070
     0
1000
MTEXTEND
  0
MTEXT
  5
5343
330
1A
100
AcDbEntity
  8
SUNPOU
100
AcDbMText
 10
6936.493799262471
 20
9534.359644781135
 30
0.0
 40
10.5
 41
0.0
 71
     1
 72
     5
  1

1001
ACAD
1000
MTEXTBEGIN
1070
    73
1070
     1
1070
    44
1040
1.0
1070
    74
1070
     0
1000
MTEXTEND
  0
MTEXT
  5
544F
330
1A
100
AcDbEntity
  8
0
100
AcDbMText
 10
16317.2832773148
 20
12833.35428897674
 30
0.0
 40
8.0
 41
0.0
 71
     7
 72
     5
  1

1001
ACAD
1000
MTEXTBEGIN
1070
    73
1070
     1
1070
    44
1040
1.0
1070
    74
1070
     0
1000
MTEXTEND
  0
MTEXT
  5
5450
330
1A
100
AcDbEntity
  8
0
100
AcDbMText
 10
18602.64096720969
 20
13804.1445837278
 30
0.0
 40
8.0
 41
0.0
 71
     7
 72
     5
  1

1001
ACAD
1000
MTEXTBEGIN
1070
    73
1070
     1
1070
    44
1040
1.0
1070
    74
1070
     0
1000
MTEXTEND
  0
MTEXT
  5
5451
330
1A
100
AcDbEntity
  8
SUNPOU
100
AcDbMText
 10
21268.53798789184
 20
23316.25597610292
 30
0.0
 40
10.5
 41
0.0
 71
     1
 72
     5
  1

1001
ACAD
1000
MTEXTBEGIN
1070
    73
1070
     1
1070
    44
1040
1.0
1070
    74
1070
     0
1000
MTEXTEND
  0
MTEXT
  5
5452
330
1A
100
AcDbEntity
  8
SUNPOU
100
AcDbMText
 10
13337.6147919559
 20
22369.46284218996
 30
0.0
 40
10.5
 41
0.0
 71
     7
 72
     5
  1

1001
ACAD
1000
MTEXTBEGIN
1070
    73
1070
     1
1070
    44
1040
1.0
1070
    74
1070
     0
1000
MTEXTEND
  0
MTEXT
  5
5453
330
1A
100
AcDbEntity
  8
SUNPOU
100
AcDbMText
 10
16286.59845646867
 20
27270.13891403281
 30
0.0
 40
10.5
 41
0.0
 71
     7
 72
     5
  1

1001
ACAD
1000
MTEXTBEGIN
1070
    73
1070
     1
1070
    44
1040
1.0
1070
    74
1070
     0
1000
MTEXTEND
  0
MTEXT
  5
5454
330
1A
100
AcDbEntity
  8
SUNPOU
100
AcDbMText
 10
20795.67658441924
 20
29706.43966165288
 30
0.0
 40
10.5
 41
0.0
 71
     7
 72
     5
  1

1001
ACAD
1000
MTEXTBEGIN
1070
    73
1070
     1
1070
    44
1040
1.0
1070
    74
1070
     0
1000
MTEXTEND
  0
MTEXT
  5
5455
330
1A
100
AcDbEntity
  8
0
100
AcDbMText
 10
16611.93789220314
 20
14707.52144344448
 30
0.0
 40
8.0
 41
0.0
 71
     7
 72
     5
  1

1001
ACAD
1000
MTEXTBEGIN
1070
    73
1070
     1
1070
    44
1040
1.0
1070
    74
1070
     0
1000
MTEXTEND
  0
MTEXT
  5
5456
330
1A
100
AcDbEntity
  8
0
100
AcDbMText
 10
18897.29558209804
 20
15678.31173819554
 30
0.0
 40
8.0
 41
0.0
 71
     7
 72
     5
  1

1001
ACAD
1000
MTEXTBEGIN
1070
    73
1070
     1
1070
    44
1040
1.0
1070
    74
1070
     0
1000
MTEXTEND
  0
MTEXT
  5
5457
330
1A
100
AcDbEntity
  8
SUNPOU
100
AcDbMText
 10
21563.19260278019
 20
25190.42313057066
 30
0.0
 40
10.5
 41
0.0
 71
     1
 72
     5
  1

1001
ACAD
1000
MTEXTBEGIN
1070
    73
1070
     1
1070
    44
1040
1.0
1070
    74
1070
     0
1000
MTEXTEND
  0
MTEXT
  5
5458
330
1A
100
AcDbEntity
  8
SUNPOU
100
AcDbMText
 10
13632.26940684426
 20
24243.6299966577
 30
0.0
 40
10.5
 41
0.0
 71
     7
 72
     5
  1

1001
ACAD
1000
MTEXTBEGIN
1070
    73
1070
     1
1070
    44
1040
1.0
1070
    74
1070
     0
1000
MTEXTEND
  0
MTEXT
  5
5459
330
1A
100
AcDbEntity
  8
SUNPOU
100
AcDbMText
 10
16581.25307135702
 20
29144.30606850055
 30
0.0
 40
10.5
 41
0.0
 71
     7
 72
     5
  1

1001
ACAD
1000
MTEXTBEGIN
1070
    73
1070
     1
1070
    44
1040
1.0
1070
    74
1070
     0
1000
MTEXTEND
  0
MTEXT
  5
545A
330
1A
100
AcDbEntity
  8
SUNPOU
100
AcDbMText
 10
21090.33119930759
 20
31580.60681612062
 30
0.0
 40
10.5
 41
0.0
 71
     7
 72
     5
  1

1001
ACAD
1000
MTEXTBEGIN
1070
    73
1070
     1
1070
    44
1040
1.0
1070
    74
1070
     0
1000
MTEXTEND
  0
MTEXT
  5
545B
330
1A
100
AcDbEntity
  8
0
100
AcDbMText
 10
22871.60517627167
 20
23974.88367124799
 30
0.0
 40
8.0
 41
0.0
 71
     7
 72
     5
  1

1001
ACAD
1000
MTEXTBEGIN
1070
    73
1070
     1
1070
    44
1040
1.0
1070
    74
1070
     0
1000
MTEXTEND
  0
MTEXT
  5
545C
330
1A
100
AcDbEntity
  8
0
100
AcDbMText
 10
25156.96286616657
 20
24945.67396599906
 30
0.0
 40
8.0
 41
0.0
 71
     7
 72
     5
  1

1001
ACAD
1000
MTEXTBEGIN
1070
    73
1070
     1
1070
    44
1040
1.0
1070
    74
1070
     0
1000
MTEXTEND
  0
MTEXT
  5
545D
330
1A
100
AcDbEntity
  8
SUNPOU
100
AcDbMText
 10
27822.85988684871
 20
34457.78535837418
 30
0.0
 40
10.5
 41
0.0
 71
     1
 72
     5
  1

1001
ACAD
1000
MTEXTBEGIN
1070
    73
1070
     1
1070
    44
1040
1.0
1070
    74
1070
     0
1000
MTEXTEND
  0
MTEXT
  5
545E
330
1A
100
AcDbEntity
  8
SUNPOU
100
AcDbMText
 10
19891.93669091278
 20
33510.99222446122
 30
0.0
 40
10.5
 41
0.0
 71
     7
 72
     5
  1

1001
ACAD
1000
MTEXTBEGIN
1070
    73
1070
     1
1070
    44
1040
1.0
1070
    74
1070
     0
1000
MTEXTEND
  0
MTEXT
  5
545F
330
1A
100
AcDbEntity
  8
SUNPOU
100
AcDbMText
 10
22840.92035542555
 20
38411.66829630407
 30
0.0
 40
10.5
 41
0.0
 71
     7
 72
     5
  1

1001
ACAD
1000
MTEXTBEGIN
1070
    73
1070
     1
1070
    44
1040
1.0
1070
    74
1070
     0
1000
MTEXTEND
  0
MTEXT
  5
5460
330
1A
100
AcDbEntity
  8
SUNPOU
100
AcDbMText
 10
27349.99848337611
 20
40847.96904392415
 30
0.0
 40
10.5
 41
0.0
 71
     7
 72
     5
  1

1001
ACAD
1000
MTEXTBEGIN
1070
    73
1070
     1
1070
    44
1040
1.0
1070
    74
1070
     0
1000
MTEXTEND
  0
MTEXT
  5
55B7
330
1A
100
AcDbEntity
  8
SUNPOU
100
AcDbMText
 10
67424.23923338197
 20
64463.86602884816
 30
0.0
 40
10.5
 41
0.0
 71
     9
 72
     5
  1

1001
ACAD
1000
MTEXTBEGIN
1070
    73
1070
     1
1070
    44
1040
1.0
1070
    74
1070
     0
1000
MTEXTEND
  0
MTEXT
  5
55B8
330
1A
100
AcDbEntity
  8
SUNPOU
100
AcDbMText
 10
76146.40679929998
 20
71879.70056038563
 30
0.0
 40
10.5
 41
0.0
 71
     9
 72
     5
  1

1001
ACAD
1000
MTEXTBEGIN
1070
    73
1070
     1
1070
    44
1040
1.0
1070
    74
1070
     0
1000
MTEXTEND
  0
MTEXT
  5
55B9
330
1A
100
AcDbEntity
  8
SUNPOU
100
AcDbMText
 10
95100.16551662994
 20
89346.27661287766
 30
0.0
 40
10.5
 41
0.0
 71
     9
 72
     5
  1

1001
ACAD
1000
MTEXTBEGIN
1070
    73
1070
     1
1070
    44
1040
1.0
1070
    74
1070
     0
1000
MTEXTEND
  0
MTEXT
  5
55BA
330
1A
100
AcDbEntity
  8
SUNPOU
100
AcDbMText
 10
97043.57276333936
 20
87545.22753299966
 30
0.0
 40
3.5
 41
0.0
 71
     9
 72
     5
  1

1001
ACAD
1000
MTEXTBEGIN
1070
    73
1070
     1
1070
    44
1040
1.0
1070
    74
1070
     0
1000
MTEXTEND
  0
MTEXT
  5
55BB
330
1A
100
AcDbEntity
  8
SUNPOU
100
AcDbMText
 10
128169.752595959
 20
130040.1732006569
 30
0.0
 40
10.5
 41
0.0
 71
     9
 72
     5
  1

1001
ACAD
1000
MTEXTBEGIN
1070
    73
1070
     1
1070
    44
1040
1.0
1070
    74
1070
     0
1000
MTEXTEND
  0
MTEXT
  5
55BC
330
1A
100
AcDbEntity
  8
SUNPOU
100
AcDbMText
 10
130113.1598426684
 20
128239.1241207789
 30
0.0
 40
3.5
 41
0.0
 71
     9
 72
     5
  1

1001
ACAD
1000
MTEXTBEGIN
1070
    73
1070
     1
1070
    44
1040
1.0
1070
    74
1070
     0
1000
MTEXTEND
  0
MTEXT
  5
55BD
330
1A
100
AcDbEntity
  8
SUNPOU
100
AcDbMText
 10
78610.02030175463
 20
75873.33835563206
 30
0.0
 40
10.5
 41
0.0
 71
     9
 72
     5
  1

1001
ACAD
1000
MTEXTBEGIN
1070
    73
1070
     1
1070
    44
1040
1.0
1070
    74
1070
     0
1000
MTEXTEND
  0
MTEXT
  5
55BE
330
1A
100
AcDbEntity
  8
SUNPOU
100
AcDbMText
 10
64662.02020137863
 20
56700.93921651987
 30
0.0
 40
3.5
 41
0.0
 71
     7
 72
     5
  1

1001
ACAD
1000
MTEXTBEGIN
1070
    73
1070
     1
1070
    44
1040
1.0
1070
    74
1070
     0
1000
MTEXTEND
  0
MTEXT
  5
55BF
330
1A
100
AcDbEntity
  8
SUNPOU
100
AcDbMText
 10
45647.18959837178
 20
44463.08794733807
 30
0.0
 40
10.5
 41
0.0
 71
     7
 72
     5
  1

1001
ACAD
1000
MTEXTBEGIN
1070
    73
1070
     1
1070
    44
1040
1.0
1070
    74
1070
     0
1000
MTEXTEND
  0
MTEXT
  5
55C0
330
1A
100
AcDbEntity
  8
SUNPOU
100
AcDbMText
 10
33189.96133342368
 20
28618.15636923965
 30
0.0
 40
35.0
 41
0.0
 71
     9
 72
     5
  1

1001
ACAD
1000
MTEXTBEGIN
1070
    73
1070
     1
1070
    44
1040
1.0
1070
    74
1070
     0
1000
MTEXTEND
  0
MTEXT
  5
55C1
330
1A
100
AcDbEntity
  8
SUNPOU
100
AcDbMText
 10
32098.44639099864
 20
29226.93177928835
 30
0.0
 40
350.0000004171781
 41
0.0
 71
     7
 72
     5
  1

1001
ACAD
1000
MTEXTBEGIN
1070
    73
1070
     1
1070
    44
1040
1.0
1070
    74
1070
     0
1000
MTEXTEND
  0
MTEXT
  5
55C2
330
1A
100
AcDbEntity
  8
0
100
AcDbMText
 10
38142.39714894154
 20
27206.85414142458
 30
0.0
 40
8.0
 41
0.0
 71
     7
 72
     5
  1

1001
ACAD
1000
MTEXTBEGIN
1070
    73
1070
     1
1070
    44
1040
1.0
1070
    74
1070
     0
1000
MTEXTEND
  0
MTEXT
  5
55C3
330
1A
100
AcDbEntity
  8
0
100
AcDbMText
 10
40427.75483883644
 20
28177.64443617564
 30
0.0
 40
8.0
 41
0.0
 71
     7
 72
     5
  1

1001
ACAD
1000
MTEXTBEGIN
1070
    73
1070
     1
1070
    44
1040
1.0
1070
    74
1070
     0
1000
MTEXTEND
  0
MTEXT
  5
55C4
330
1A
100
AcDbEntity
  8
SUNPOU
100
AcDbMText
 10
43093.65185951858
 20
37689.75582855077
 30
0.0
 40
10.5
 41
0.0
 71
     1
 72
     5
  1

1001
ACAD
1000
MTEXTBEGIN
1070
    73
1070
     1
1070
    44
1040
1.0
1070
    74
1070
     0
1000
MTEXTEND
  0
MTEXT
  5
55C5
330
1A
100
AcDbEntity
  8
SUNPOU
100
AcDbMText
 10
35162.72866358265
 20
36742.96269463781
 30
0.0
 40
10.5
 41
0.0
 71
     7
 72
     5
  1

1001
ACAD
1000
MTEXTBEGIN
1070
    73
1070
     1
1070
    44
1040
1.0
1070
    74
1070
     0
1000
MTEXTEND
  0
MTEXT
  5
55C6
330
1A
100
AcDbEntity
  8
SUNPOU
100
AcDbMText
 10
38111.71232809542
 20
41643.63876648066
 30
0.0
 40
10.5
 41
0.0
 71
     7
 72
     5
  1

1001
ACAD
1000
MTEXTBEGIN
1070
    73
1070
     1
1070
    44
1040
1.0
1070
    74
1070
     0
1000
MTEXTEND
  0
MTEXT
  5
55C7
330
1A
100
AcDbEntity
  8
SUNPOU
100
AcDbMText
 10
42620.79045604597
 20
44079.93951410074
 30
0.0
 40
10.5
 41
0.0
 71
     7
 72
     5
  1

1001
ACAD
1000
MTEXTBEGIN
1070
    73
1070
     1
1070
    44
1040
1.0
1070
    74
1070
     0
1000
MTEXTEND
  0
MTEXT
  5
55C8
330
1A
100
AcDbEntity
  8
SUNPOU
100
AcDbMText
 10
26221.62834281429
 20
23077.53566448964
 30
0.0
 40
10.5
 41
0.0
 71
     7
 72
     5
  1

1001
ACAD
1000
MTEXTBEGIN
1070
    73
1070
     1
1070
    44
1040
1.0
1070
    74
1070
     0
1000
MTEXTEND
  0
MTEXT
  5
55C9
330
1A
100
AcDbEntity
  8
SUNPOU
100
AcDbMText
 10
77413.14677671455
 20
68750.51622813789
 30
0.0
 40
10.5
 41
0.0
 71
     9
 72
     5
  1

1001
ACAD
1000
MTEXTBEGIN
1070
    73
1070
     1
1070
    44
1040
1.0
1070
    74
1070
     0
1000
MTEXTEND
  0
MTEXT
  5
55CA
330
1A
100
AcDbEntity
  8
SUNPOU
100
AcDbMText
 10
86135.31434263256
 20
76166.35075967536
 30
0.0
 40
10.5
 41
0.0
 71
     9
 72
     5
  1

1001
ACAD
1000
MTEXTBEGIN
1070
    73
1070
     1
1070
    44
1040
1.0
1070
    74
1070
     0
1000
MTEXTEND
  0
MTEXT
  5
55CB
330
1A
100
AcDbEntity
  8
SUNPOU
100
AcDbMText
 10
105089.0730599625
 20
93632.92681216739
 30
0.0
 40
10.5
 41
0.0
 71
     9
 72
     5
  1

1001
ACAD
1000
MTEXTBEGIN
1070
    73
1070
     1
1070
    44
1040
1.0
1070
    74
1070
     0
1000
MTEXTEND
  0
MTEXT
  5
55CC
330
1A
100
AcDbEntity
  8
SUNPOU
100
AcDbMText
 10
107032.4803066719
 20
91831.8777322894
 30
0.0
 40
3.5
 41
0.0
 71
     9
 72
     5
  1

1001
ACAD
1000
MTEXTBEGIN
1070
    73
1070
     1
1070
    44
1040
1.0
1070
    74
1070
     0
1000
MTEXTEND
  0
MTEXT
  5
55CD
330
1A
100
AcDbEntity
  8
SUNPOU
100
AcDbMText
 10
138158.6601392916
 20
134326.8233999467
 30
0.0
 40
10.5
 41
0.0
 71
     9
 72
     5
  1

1001
ACAD
1000
MTEXTBEGIN
1070
    73
1070
     1
1070
    44
1040
1.0
1070
    74
1070
     0
1000
MTEXTEND
  0
MTEXT
  5
55CE
330
1A
100
AcDbEntity
  8
SUNPOU
100
AcDbMText
 10
140102.067386001
 20
132525.7743200686
 30
0.0
 40
3.5
 41
0.0
 71
     9
 72
     5
  1

1001
ACAD
1000
MTEXTBEGIN
1070
    73
1070
     1
1070
    44
1040
1.0
1070
    74
1070
     0
1000
MTEXTEND
  0
MTEXT
  5
55CF
330
1A
100
AcDbEntity
  8
SUNPOU
100
AcDbMText
 10
88598.92784508721
 20
80159.98855492179
 30
0.0
 40
10.5
 41
0.0
 71
     9
 72
     5
  1

1001
ACAD
1000
MTEXTBEGIN
1070
    73
1070
     1
1070
    44
1040
1.0
1070
    74
1070
     0
1000
MTEXTEND
  0
MTEXT
  5
55D0
330
1A
100
AcDbEntity
  8
SUNPOU
100
AcDbMText
 10
74650.92774471121
 20
60987.5894158096
 30
0.0
 40
3.5
 41
0.0
 71
     7
 72
     5
  1

1001
ACAD
1000
MTEXTBEGIN
1070
    73
1070
     1
1070
    44
1040
1.0
1070
    74
1070
     0
1000
MTEXTEND
  0
MTEXT
  5
55D1
330
1A
100
AcDbEntity
  8
SUNPOU
100
AcDbMText
 10
55636.09714170436
 20
48749.73814662781
 30
0.0
 40
10.5
 41
0.0
 71
     7
 72
     5
  1

1001
ACAD
1000
MTEXTBEGIN
1070
    73
1070
     1
1070
    44
1040
1.0
1070
    74
1070
     0
1000
MTEXTEND
  0
MTEXT
  5
55D2
330
1A
100
AcDbEntity
  8
SUNPOU
100
AcDbMText
 10
43178.86887675626
 20
32904.80656852938
 30
0.0
 40
35.0
 41
0.0
 71
     9
 72
     5
  1

1001
ACAD
1000
MTEXTBEGIN
1070
    73
1070
     1
1070
    44
1040
1.0
1070
    74
1070
     0
1000
MTEXTEND
  0
MTEXT
  5
55D3
330
1A
100
AcDbEntity
  8
SUNPOU
100
AcDbMText
 10
42087.35393433121
 20
33513.58197857809
 30
0.0
 40
350.0000004171781
 41
0.0
 71
     7
 72
     5
  1

1001
ACAD
1000
MTEXTBEGIN
1070
    73
1070
     1
1070
    44
1040
1.0
1070
    74
1070
     0
1000
MTEXTEND
  0
MTEXT
  5
55D4
330
1A
100
AcDbEntity
  8
0
100
AcDbMText
 10
48131.30469227412
 20
31493.50434071431
 30
0.0
 40
8.0
 41
0.0
 71
     7
 72
     5
  1

1001
ACAD
1000
MTEXTBEGIN
1070
    73
1070
     1
1070
    44
1040
1.0
1070
    74
1070
     0
1000
MTEXTEND
  0
MTEXT
  5
55D5
330
1A
100
AcDbEntity
  8
0
100
AcDbMText
 10
50416.66238216901
 20
32464.29463546537
 30
0.0
 40
8.0
 41
0.0
 71
     7
 72
     5
  1

1001
ACAD
1000
MTEXTBEGIN
1070
    73
1070
     1
1070
    44
1040
1.0
1070
    74
1070
     0
1000
MTEXTEND
  0
MTEXT
  5
55D6
330
1A
100
AcDbEntity
  8
SUNPOU
100
AcDbMText
 10
53082.55940285115
 20
41976.4060278405
 30
0.0
 40
10.5
 41
0.0
 71
     1
 72
     5
  1

1001
ACAD
1000
MTEXTBEGIN
1070
    73
1070
     1
1070
    44
1040
1.0
1070
    74
1070
     0
1000
MTEXTEND
  0
MTEXT
  5
55D7
330
1A
100
AcDbEntity
  8
SUNPOU
100
AcDbMText
 10
45151.63620691522
 20
41029.61289392755
 30
0.0
 40
10.5
 41
0.0
 71
     7
 72
     5
  1

1001
ACAD
1000
MTEXTBEGIN
1070
    73
1070
     1
1070
    44
1040
1.0
1070
    74
1070
     0
1000
MTEXTEND
  0
MTEXT
  5
55D8
330
1A
100
AcDbEntity
  8
SUNPOU
100
AcDbMText
 10
48100.61987142798
 20
45930.28896577039
 30
0.0
 40
10.5
 41
0.0
 71
     7
 72
     5
  1

1001
ACAD
1000
MTEXTBEGIN
1070
    73
1070
     1
1070
    44
1040
1.0
1070
    74
1070
     0
1000
MTEXTEND
  0
MTEXT
  5
55D9
330
1A
100
AcDbEntity
  8
SUNPOU
100
AcDbMText
 10
52609.69799937854
 20
48366.58971339046
 30
0.0
 40
10.5
 41
0.0
 71
     7
 72
     5
  1

1001
ACAD
1000
MTEXTBEGIN
1070
    73
1070
     1
1070
    44
1040
1.0
1070
    74
1070
     0
1000
MTEXTEND
  0
MTEXT
  5
55DA
330
1A
100
AcDbEntity
  8
SUNPOU
100
AcDbMText
 10
36210.53588614687
 20
27364.18586377937
 30
0.0
 40
10.5
 41
0.0
 71
     7
 72
     5
  1

1001
ACAD
1000
MTEXTBEGIN
1070
    73
1070
     1
1070
    44
1040
1.0
1070
    74
1070
     0
1000
MTEXTEND
  0
MTEXT
  5
55DB
330
1A
100
AcDbEntity
  8
SUNPOU
100
AcDbMText
 10
38021.29879752181
 20
33691.59985125794
 30
0.0
 40
10.5
 41
0.0
 71
     9
 72
     5
  1

1001
ACAD
1000
MTEXTBEGIN
1070
    73
1070
     1
1070
    44
1040
1.0
1070
    74
1070
     0
1000
MTEXTEND
  0
MTEXT
  5
55DC
330
1A
100
AcDbEntity
  8
SUNPOU
100
AcDbMText
 10
46743.46636343979
 20
41107.43438279541
 30
0.0
 40
10.5
 41
0.0
 71
     9
 72
     5
  1

1001
ACAD
1000
MTEXTBEGIN
1070
    73
1070
     1
1070
    44
1040
1.0
1070
    74
1070
     0
1000
MTEXTEND
  0
MTEXT
  5
55DD
330
1A
100
AcDbEntity
  8
SUNPOU
100
AcDbMText
 10
65697.22508076975
 20
58574.01043528746
 30
0.0
 40
10.5
 41
0.0
 71
     9
 72
     5
  1

1001
ACAD
1000
MTEXTBEGIN
1070
    73
1070
     1
1070
    44
1040
1.0
1070
    74
1070
     0
1000
MTEXTEND
  0
MTEXT
  5
55DE
330
1A
100
AcDbEntity
  8
SUNPOU
100
AcDbMText
 10
67640.63232747917
 20
56772.96135540945
 30
0.0
 40
3.5
 41
0.0
 71
     9
 72
     5
  1

1001
ACAD
1000
MTEXTBEGIN
1070
    73
1070
     1
1070
    44
1040
1.0
1070
    74
1070
     0
1000
MTEXTEND
  0
MTEXT
  5
55DF
330
1A
100
AcDbEntity
  8
SUNPOU
100
AcDbMText
 10
98766.81216009888
 20
99267.9070230668
 30
0.0
 40
10.5
 41
0.0
 71
     9
 72
     5
  1

1001
ACAD
1000
MTEXTBEGIN
1070
    73
1070
     1
1070
    44
1040
1.0
1070
    74
1070
     0
1000
MTEXTEND
  0
MTEXT
  5
55E0
330
1A
100
AcDbEntity
  8
SUNPOU
100
AcDbMText
 10
100710.2194068083
 20
97466.85794318878
 30
0.0
 40
3.5
 41
0.0
 71
     9
 72
     5
  1

1001
ACAD
1000
MTEXTBEGIN
1070
    73
1070
     1
1070
    44
1040
1.0
1070
    74
1070
     0
1000
MTEXTEND
  0
MTEXT
  5
55E1
330
1A
100
AcDbEntity
  8
SUNPOU
100
AcDbMText
 10
49207.07986589444
 20
45101.07217804185
 30
0.0
 40
10.5
 41
0.0
 71
     9
 72
     5
  1

1001
ACAD
1000
MTEXTBEGIN
1070
    73
1070
     1
1070
    44
1040
1.0
1070
    74
1070
     0
1000
MTEXTEND
  0
MTEXT
  5
55E2
330
1A
100
AcDbEntity
  8
SUNPOU
100
AcDbMText
 10
35259.07976551845
 20
25928.67303892964
 30
0.0
 40
3.5
 41
0.0
 71
     7
 72
     5
  1

1001
ACAD
1000
MTEXTBEGIN
1070
    73
1070
     1
1070
    44
1040
1.0
1070
    74
1070
     0
1000
MTEXTEND
  0
MTEXT
  5
55E3
330
1A
100
AcDbEntity
  8
SUNPOU
100
AcDbMText
 10
48951.43044828905
 20
35287.73625995099
 30
0.0
 40
10.5
 41
0.0
 71
     9
 72
     5
  1

1001
ACAD
1000
MTEXTBEGIN
1070
    73
1070
     1
1070
    44
1040
1.0
1070
    74
1070
     0
1000
MTEXTEND
  0
MTEXT
  5
55E4
330
1A
100
AcDbEntity
  8
SUNPOU
100
AcDbMText
 10
57673.59801420702
 20
42703.57079148847
 30
0.0
 40
10.5
 41
0.0
 71
     9
 72
     5
  1

1001
ACAD
1000
MTEXTBEGIN
1070
    73
1070
     1
1070
    44
1040
1.0
1070
    74
1070
     0
1000
MTEXTEND
  0
MTEXT
  5
55E5
330
1A
100
AcDbEntity
  8
SUNPOU
100
AcDbMText
 10
76627.35673153699
 20
60170.14684398051
 30
0.0
 40
10.5
 41
0.0
 71
     9
 72
     5
  1

1001
ACAD
1000
MTEXTBEGIN
1070
    73
1070
     1
1070
    44
1040
1.0
1070
    74
1070
     0
1000
MTEXTEND
  0
MTEXT
  5
55E6
330
1A
100
AcDbEntity
  8
SUNPOU
100
AcDbMText
 10
78570.76397824641
 20
58369.09776410251
 30
0.0
 40
3.5
 41
0.0
 71
     9
 72
     5
  1

1001
ACAD
1000
MTEXTBEGIN
1070
    73
1070
     1
1070
    44
1040
1.0
1070
    74
1070
     0
1000
MTEXTEND
  0
MTEXT
  5
55E7
330
1A
100
AcDbEntity
  8
SUNPOU
100
AcDbMText
 10
109696.9438108661
 20
100864.0434317598
 30
0.0
 40
10.5
 41
0.0
 71
     9
 72
     5
  1

1001
ACAD
1000
MTEXTBEGIN
1070
    73
1070
     1
1070
    44
1040
1.0
1070
    74
1070
     0
1000
MTEXTEND
  0
MTEXT
  5
55E8
330
1A
100
AcDbEntity
  8
SUNPOU
100
AcDbMText
 10
111640.3510575755
 20
99062.99435188183
 30
0.0
 40
3.5
 41
0.0
 71
     9
 72
     5
  1

1001
ACAD
1000
MTEXTBEGIN
1070
    73
1070
     1
1070
    44
1040
1.0
1070
    74
1070
     0
1000
MTEXTEND
  0
MTEXT
  5
55E9
330
1A
100
AcDbEntity
  8
SUNPOU
100
AcDbMText
 10
60137.21151666167
 20
46697.20858673491
 30
0.0
 40
10.5
 41
0.0
 71
     9
 72
     5
  1

1001
ACAD
1000
MTEXTBEGIN
1070
    73
1070
     1
1070
    44
1040
1.0
1070
    74
1070
     0
1000
MTEXTEND
  0
MTEXT
  5
55EA
330
1A
100
AcDbEntity
  8
SUNPOU
100
AcDbMText
 10
46189.21141628568
 20
27524.80944762269
 30
0.0
 40
3.5
 41
0.0
 71
     7
 72
     5
  1

1001
ACAD
1000
MTEXTBEGIN
1070
    73
1070
     1
1070
    44
1040
1.0
1070
    74
1070
     0
1000
MTEXTEND
  0
MTEXT
  5
55EB
330
1A
100
AcDbEntity
  8
SUNPOU
100
AcDbMText
 10
45007.68847015541
 20
38269.57947701874
 30
0.0
 40
10.5
 41
0.0
 71
     9
 72
     5
  1

1001
ACAD
1000
MTEXTBEGIN
1070
    73
1070
     1
1070
    44
1040
1.0
1070
    74
1070
     0
1000
MTEXTEND
  0
MTEXT
  5
55EC
330
1A
100
AcDbEntity
  8
SUNPOU
100
AcDbMText
 10
63961.44718748539
 20
55736.15552951081
 30
0.0
 40
10.5
 41
0.0
 71
     9
 72
     5
  1

1001
ACAD
1000
MTEXTBEGIN
1070
    73
1070
     1
1070
    44
1040
1.0
1070
    74
1070
     0
1000
MTEXTEND
  0
MTEXT
  5
55ED
330
1A
100
AcDbEntity
  8
SUNPOU
100
AcDbMText
 10
65904.85443419479
 20
53935.10644963279
 30
0.0
 40
3.5
 41
0.0
 71
     9
 72
     5
  1

1001
ACAD
1000
MTEXTBEGIN
1070
    73
1070
     1
1070
    44
1040
1.0
1070
    74
1070
     0
1000
MTEXTEND
  0
MTEXT
  5
55EE
330
1A
100
AcDbEntity
  8
SUNPOU
100
AcDbMText
 10
97031.03426681451
 20
96430.05211729015
 30
0.0
 40
10.5
 41
0.0
 71
     9
 72
     5
  1

1001
ACAD
1000
MTEXTBEGIN
1070
    73
1070
     1
1070
    44
1040
1.0
1070
    74
1070
     0
1000
MTEXTEND
  0
MTEXT
  5
55EF
330
1A
100
AcDbEntity
  8
SUNPOU
100
AcDbMText
 10
98974.44151352393
 20
94629.00303741212
 30
0.0
 40
3.5
 41
0.0
 71
     9
 72
     5
  1

1001
ACAD
1000
MTEXTBEGIN
1070
    73
1070
     1
1070
    44
1040
1.0
1070
    74
1070
     0
1000
MTEXTEND
  0
MTEXT
  5
55F0
330
1A
100
AcDbEntity
  8
SUNPOU
100
AcDbMText
 10
47471.30197261006
 20
42263.21727226519
 30
0.0
 40
10.5
 41
0.0
 71
     9
 72
     5
  1

1001
ACAD
1000
MTEXTBEGIN
1070
    73
1070
     1
1070
    44
1040
1.0
1070
    74
1070
     0
1000
MTEXTEND
  0
MTEXT
  5
55F1
330
1A
100
AcDbEntity
  8
SUNPOU
100
AcDbMText
 10
33523.30187223408
 20
23090.81813315298
 30
0.0
 40
3.5
 41
0.0
 71
     7
 72
     5
  1

1001
ACAD
1000
MTEXTBEGIN
1070
    73
1070
     1
1070
    44
1040
1.0
1070
    74
1070
     0
1000
MTEXTEND
  0
MTEXT
  5
55F2
330
1A
100
AcDbEntity
  8
SUNPOU
100
AcDbMText
 10
57959.46254102503
 20
50038.08111611015
 30
0.0
 40
10.5
 41
0.0
 71
     9
 72
     5
  1

1001
ACAD
1000
MTEXTBEGIN
1070
    73
1070
     1
1070
    44
1040
1.0
1070
    74
1070
     0
1000
MTEXTEND
  0
MTEXT
  5
55F3
330
1A
100
AcDbEntity
  8
SUNPOU
100
AcDbMText
 10
76913.22125835503
 20
67504.65716860222
 30
0.0
 40
10.5
 41
0.0
 71
     9
 72
     5
  1

1001
ACAD
1000
MTEXTBEGIN
1070
    73
1070
     1
1070
    44
1040
1.0
1070
    74
1070
     0
1000
MTEXTEND
  0
MTEXT
  5
55F4
330
1A
100
AcDbEntity
  8
SUNPOU
100
AcDbMText
 10
78856.62850506443
 20
65703.6080887242
 30
0.0
 40
3.5
 41
0.0
 71
     9
 72
     5
  1

1001
ACAD
1000
MTEXTBEGIN
1070
    73
1070
     1
1070
    44
1040
1.0
1070
    74
1070
     0
1000
MTEXTEND
  0
MTEXT
  5
55F5
330
1A
100
AcDbEntity
  8
SUNPOU
100
AcDbMText
 10
109982.8083376841
 20
108198.5537563815
 30
0.0
 40
10.5
 41
0.0
 71
     9
 72
     5
  1

1001
ACAD
1000
MTEXTBEGIN
1070
    73
1070
     1
1070
    44
1040
1.0
1070
    74
1070
     0
1000
MTEXTEND
  0
MTEXT
  5
55F6
330
1A
100
AcDbEntity
  8
SUNPOU
100
AcDbMText
 10
111926.2155843935
 20
106397.5046765035
 30
0.0
 40
3.5
 41
0.0
 71
     9
 72
     5
  1

1001
ACAD
1000
MTEXTBEGIN
1070
    73
1070
     1
1070
    44
1040
1.0
1070
    74
1070
     0
1000
MTEXTEND
  0
MTEXT
  5
55F7
330
1A
100
AcDbEntity
  8
SUNPOU
100
AcDbMText
 10
60423.07604347968
 20
54031.71891135659
 30
0.0
 40
10.5
 41
0.0
 71
     9
 72
     5
  1

1001
ACAD
1000
MTEXTBEGIN
1070
    73
1070
     1
1070
    44
1040
1.0
1070
    74
1070
     0
1000
MTEXTEND
  0
MTEXT
  5
55F8
330
1A
100
AcDbEntity
  8
SUNPOU
100
AcDbMText
 10
46475.07594310369
 20
34859.3197722444
 30
0.0
 40
3.5
 41
0.0
 71
     7
 72
     5
  1

1001
ACAD
1000
MTEXTBEGIN
1070
    73
1070
     1
1070
    44
1040
1.0
1070
    74
1070
     0
1000
MTEXTEND
  0
MTEXT
  5
55F9
330
1A
100
AcDbEntity
  8
SUNPOU
100
AcDbMText
 10
74027.35402123588
 20
68370.58278833383
 30
0.0
 40
10.5
 41
0.0
 71
     9
 72
     5
  1

1001
ACAD
1000
MTEXTBEGIN
1070
    73
1070
     1
1070
    44
1040
1.0
1070
    74
1070
     0
1000
MTEXTEND
  0
MTEXT
  5
55FA
330
1A
100
AcDbEntity
  8
SUNPOU
100
AcDbMText
 10
75970.7612679453
 20
66569.53370845583
 30
0.0
 40
3.5
 41
0.0
 71
     9
 72
     5
  1

1001
ACAD
1000
MTEXTBEGIN
1070
    73
1070
     1
1070
    44
1040
1.0
1070
    74
1070
     0
1000
MTEXTEND
  0
MTEXT
  5
55FB
330
1A
100
AcDbEntity
  8
SUNPOU
100
AcDbMText
 10
107096.941100565
 20
109064.4793761132
 30
0.0
 40
10.5
 41
0.0
 71
     9
 72
     5
  1

1001
ACAD
1000
MTEXTBEGIN
1070
    73
1070
     1
1070
    44
1040
1.0
1070
    74
1070
     0
1000
MTEXTEND
  0
MTEXT
  5
55FC
330
1A
100
AcDbEntity
  8
SUNPOU
100
AcDbMText
 10
109040.3483472744
 20
107263.4302962351
 30
0.0
 40
3.5
 41
0.0
 71
     9
 72
     5
  1

1001
ACAD
1000
MTEXTBEGIN
1070
    73
1070
     1
1070
    44
1040
1.0
1070
    74
1070
     0
1000
MTEXTEND
  0
MTEXT
  5
55FD
330
1A
100
AcDbEntity
  8
SUNPOU
100
AcDbMText
 10
105709.1709283621
 20
108141.3777665285
 30
0.0
 40
10.5
 41
0.0
 71
     9
 72
     5
  1

1001
ACAD
1000
MTEXTBEGIN
1070
    73
1070
     1
1070
    44
1040
1.0
1070
    74
1070
     0
1000
MTEXTEND
  0
MTEXT
  5
55FE
330
1A
100
AcDbEntity
  8
SUNPOU
100
AcDbMText
 10
107652.5781750715
 20
106340.3286866505
 30
0.0
 40
3.5
 41
0.0
 71
     9
 72
     5
  1

1001
ACAD
1000
MTEXTBEGIN
1070
    73
1070
     1
1070
    44
1040
1.0
1070
    74
1070
     0
1000
MTEXTEND
  0
MTEXT
  5
55FF
330
1A
100
AcDbEntity
  8
SUNPOU
100
AcDbMText
 10
73193.09268743351
 20
66158.78082845056
 30
0.0
 40
10.5
 41
0.0
 71
     9
 72
     5
  1

1001
ACAD
1000
MTEXTBEGIN
1070
    73
1070
     1
1070
    44
1040
1.0
1070
    74
1070
     0
1000
MTEXTEND
  0
MTEXT
  5
5600
330
1A
100
AcDbEntity
  8
SUNPOU
100
AcDbMText
 10
75916.39889159806
 20
66563.46252003162
 30
0.0
 40
3.5
 41
0.0
 71
     9
 72
     5
  1

1001
ACAD
1000
MTEXTBEGIN
1070
    73
1070
     1
1070
    44
1040
1.0
1070
    74
1070
     0
1000
MTEXTEND
  0
MTEXT
  5
5601
330
1A
100
AcDbEntity
  8
SUNPOU
100
AcDbMText
 10
75124.04436649058
 20
63402.1566819768
 30
0.0
 40
10.5
 41
0.0
 71
     9
 72
     5
  1

1001
ACAD
1000
MTEXTBEGIN
1070
    73
1070
     1
1070
    44
1040
1.0
1070
    74
1070
     0
1000
MTEXTEND
  0
MTEXT
  5
5602
330
1A
100
AcDbEntity
  8
SUNPOU
100
AcDbMText
 10
77067.4516132
 20
61601.1076020988
 30
0.0
 40
3.5
 41
0.0
 71
     9
 72
     5
  1

1001
ACAD
1000
MTEXTBEGIN
1070
    73
1070
     1
1070
    44
1040
1.0
1070
    74
1070
     0
1000
MTEXTEND
  0
MTEXT
  5
5603
330
1A
100
AcDbEntity
  8
SUNPOU
100
AcDbMText
 10
77012.54710378659
 20
61488.33571981449
 30
0.0
 40
3.5
 41
0.0
 71
     9
 72
     5
  1

1001
ACAD
1000
MTEXTBEGIN
1070
    73
1070
     1
1070
    44
1040
1.0
1070
    74
1070
     0
1000
MTEXTEND
  0
MTEXT
  5
5604
330
1A
100
AcDbEntity
  8
SUNPOU
100
AcDbMText
 10
76376.61896736668
 20
60677.01447874797
 30
0.0
 40
3.5
 41
0.0
 71
     9
 72
     5
  1

1001
ACAD
1000
MTEXTBEGIN
1070
    73
1070
     1
1070
    44
1040
1.0
1070
    74
1070
     0
1000
MTEXTEND
  0
MTEXT
  5
5605
330
1A
100
AcDbEntity
  8
SUNPOU
100
AcDbMText
 10
76375.37854794595
 20
60676.76650181047
 30
0.0
 40
10.5
 41
0.0
 71
     9
 72
     5
  1

1001
ACAD
1000
MTEXTBEGIN
1070
    73
1070
     1
1070
    44
1040
1.0
1070
    74
1070
     0
1000
MTEXTEND
  0
MTEXT
  5
5606
330
1A
100
AcDbEntity
  8
SUNPOU
100
AcDbMText
 10
84709.93991079748
 20
78034.0328293557
 30
0.0
 40
10.5
 41
0.0
 71
     9
 72
     5
  1

1001
ACAD
1000
MTEXTBEGIN
1070
    73
1070
     1
1070
    44
1040
1.0
1070
    74
1070
     0
1000
MTEXTEND
  0
MTEXT
  5
5607
330
1A
100
AcDbEntity
  8
SUNPOU
100
AcDbMText
 10
93432.10747671548
 20
85449.86736089315
 30
0.0
 40
10.5
 41
0.0
 71
     9
 72
     5
  1

1001
ACAD
1000
MTEXTBEGIN
1070
    73
1070
     1
1070
    44
1040
1.0
1070
    74
1070
     0
1000
MTEXTEND
  0
MTEXT
  5
5608
330
1A
100
AcDbEntity
  8
SUNPOU
100
AcDbMText
 10
112385.8661940454
 20
102916.4434133851
 30
0.0
 40
10.5
 41
0.0
 71
     9
 72
     5
  1

1001
ACAD
1000
MTEXTBEGIN
1070
    73
1070
     1
1070
    44
1040
1.0
1070
    74
1070
     0
1000
MTEXTEND
  0
MTEXT
  5
5609
330
1A
100
AcDbEntity
  8
SUNPOU
100
AcDbMText
 10
114329.2734407548
 20
101115.3943335072
 30
0.0
 40
3.5
 41
0.0
 71
     9
 72
     5
  1

1001
ACAD
1000
MTEXTBEGIN
1070
    73
1070
     1
1070
    44
1040
1.0
1070
    74
1070
     0
1000
MTEXTEND
  0
MTEXT
  5
560A
330
1A
100
AcDbEntity
  8
SUNPOU
100
AcDbMText
 10
145455.4532733745
 20
143610.3400011645
 30
0.0
 40
10.5
 41
0.0
 71
     9
 72
     5
  1

1001
ACAD
1000
MTEXTBEGIN
1070
    73
1070
     1
1070
    44
1040
1.0
1070
    74
1070
     0
1000
MTEXTEND
  0
MTEXT
  5
560B
330
1A
100
AcDbEntity
  8
SUNPOU
100
AcDbMText
 10
147398.8605200839
 20
141809.2909212864
 30
0.0
 40
3.5
 41
0.0
 71
     9
 72
     5
  1

1001
ACAD
1000
MTEXTBEGIN
1070
    73
1070
     1
1070
    44
1040
1.0
1070
    74
1070
     0
1000
MTEXTEND
  0
MTEXT
  5
560C
330
1A
100
AcDbEntity
  8
SUNPOU
100
AcDbMText
 10
95895.72097917013
 20
89443.5051561396
 30
0.0
 40
10.5
 41
0.0
 71
     9
 72
     5
  1

1001
ACAD
1000
MTEXTBEGIN
1070
    73
1070
     1
1070
    44
1040
1.0
1070
    74
1070
     0
1000
MTEXTEND
  0
MTEXT
  5
560D
330
1A
100
AcDbEntity
  8
SUNPOU
100
AcDbMText
 10
81947.72087879414
 20
70271.1060170274
 30
0.0
 40
3.5
 41
0.0
 71
     7
 72
     5
  1

1001
ACAD
1000
MTEXTBEGIN
1070
    73
1070
     1
1070
    44
1040
1.0
1070
    74
1070
     0
1000
MTEXTEND
  0
MTEXT
  5
560E
330
1A
100
AcDbEntity
  8
SUNPOU
100
AcDbMText
 10
62932.89027578729
 20
58033.25474784561
 30
0.0
 40
10.5
 41
0.0
 71
     7
 72
     5
  1

1001
ACAD
1000
MTEXTBEGIN
1070
    73
1070
     1
1070
    44
1040
1.0
1070
    74
1070
     0
1000
MTEXTEND
  0
MTEXT
  5
560F
330
1A
100
AcDbEntity
  8
SUNPOU
100
AcDbMText
 10
50475.66201083918
 20
42188.32316974719
 30
0.0
 40
35.0
 41
0.0
 71
     9
 72
     5
  1

1001
ACAD
1000
MTEXTBEGIN
1070
    73
1070
     1
1070
    44
1040
1.0
1070
    74
1070
     0
1000
MTEXTEND
  0
MTEXT
  5
5610
330
1A
100
AcDbEntity
  8
SUNPOU
100
AcDbMText
 10
49384.14706841413
 20
42797.0985797959
 30
0.0
 40
350.0000004171781
 41
0.0
 71
     7
 72
     5
  1

1001
ACAD
1000
MTEXTBEGIN
1070
    73
1070
     1
1070
    44
1040
1.0
1070
    74
1070
     0
1000
MTEXTEND
  0
MTEXT
  5
5611
330
1A
100
AcDbEntity
  8
0
100
AcDbMText
 10
55428.09782635704
 20
40777.02094193211
 30
0.0
 40
8.0
 41
0.0
 71
     7
 72
     5
  1

1001
ACAD
1000
MTEXTBEGIN
1070
    73
1070
     1
1070
    44
1040
1.0
1070
    74
1070
     0
1000
MTEXTEND
  0
MTEXT
  5
5612
330
1A
100
AcDbEntity
  8
0
100
AcDbMText
 10
57713.45551625194
 20
41747.81123668317
 30
0.0
 40
8.0
 41
0.0
 71
     7
 72
     5
  1

1001
ACAD
1000
MTEXTBEGIN
1070
    73
1070
     1
1070
    44
1040
1.0
1070
    74
1070
     0
1000
MTEXTEND
  0
MTEXT
  5
5613
330
1A
100
AcDbEntity
  8
SUNPOU
100
AcDbMText
 10
60379.35253693408
 20
51259.9226290583
 30
0.0
 40
10.5
 41
0.0
 71
     1
 72
     5
  1

1001
ACAD
1000
MTEXTBEGIN
1070
    73
1070
     1
1070
    44
1040
1.0
1070
    74
1070
     0
1000
MTEXTEND
  0
MTEXT
  5
5614
330
1A
100
AcDbEntity
  8
SUNPOU
100
AcDbMText
 10
52448.42934099814
 20
50313.12949514535
 30
0.0
 40
10.5
 41
0.0
 71
     7
 72
     5
  1

1001
ACAD
1000
MTEXTBEGIN
1070
    73
1070
     1
1070
    44
1040
1.0
1070
    74
1070
     0
1000
MTEXTEND
  0
MTEXT
  5
5615
330
1A
100
AcDbEntity
  8
SUNPOU
100
AcDbMText
 10
55397.41300551091
 20
55213.80556698819
 30
0.0
 40
10.5
 41
0.0
 71
     7
 72
     5
  1

1001
ACAD
1000
MTEXTBEGIN
1070
    73
1070
     1
1070
    44
1040
1.0
1070
    74
1070
     0
1000
MTEXTEND
  0
MTEXT
  5
5616
330
1A
100
AcDbEntity
  8
SUNPOU
100
AcDbMText
 10
59906.49113346147
 20
57650.10631460826
 30
0.0
 40
10.5
 41
0.0
 71
     7
 72
     5
  1

1001
ACAD
1000
MTEXTBEGIN
1070
    73
1070
     1
1070
    44
1040
1.0
1070
    74
1070
     0
1000
MTEXTEND
  0
MTEXT
  5
5617
330
1A
100
AcDbEntity
  8
SUNPOU
100
AcDbMText
 10
43507.32902022979
 20
36647.70246499718
 30
0.0
 40
10.5
 41
0.0
 71
     7
 72
     5
  1

1001
ACAD
1000
MTEXTBEGIN
1070
    73
1070
     1
1070
    44
1040
1.0
1070
    74
1070
     0
1000
MTEXTEND
  0
MTEXT
  5
5618
330
1A
100
AcDbEntity
  8
SUNPOU
100
AcDbMText
 10
94698.84745413006
 20
82320.68302864542
 30
0.0
 40
10.5
 41
0.0
 71
     9
 72
     5
  1

1001
ACAD
1000
MTEXTBEGIN
1070
    73
1070
     1
1070
    44
1040
1.0
1070
    74
1070
     0
1000
MTEXTEND
  0
MTEXT
  5
5619
330
1A
100
AcDbEntity
  8
SUNPOU
100
AcDbMText
 10
103421.015020048
 20
89736.5175601829
 30
0.0
 40
10.5
 41
0.0
 71
     9
 72
     5
  1

1001
ACAD
1000
MTEXTBEGIN
1070
    73
1070
     1
1070
    44
1040
1.0
1070
    74
1070
     0
1000
MTEXTEND
  0
MTEXT
  5
561A
330
1A
100
AcDbEntity
  8
SUNPOU
100
AcDbMText
 10
122374.773737378
 20
107203.0936126749
 30
0.0
 40
10.5
 41
0.0
 71
     9
 72
     5
  1

1001
ACAD
1000
MTEXTBEGIN
1070
    73
1070
     1
1070
    44
1040
1.0
1070
    74
1070
     0
1000
MTEXTEND
  0
MTEXT
  5
561B
330
1A
100
AcDbEntity
  8
SUNPOU
100
AcDbMText
 10
124318.1809840874
 20
105402.0445327969
 30
0.0
 40
3.5
 41
0.0
 71
     9
 72
     5
  1

1001
ACAD
1000
MTEXTBEGIN
1070
    73
1070
     1
1070
    44
1040
1.0
1070
    74
1070
     0
1000
MTEXTEND
  0
MTEXT
  5
561C
330
1A
100
AcDbEntity
  8
SUNPOU
100
AcDbMText
 10
155444.3608167071
 20
147896.9902004542
 30
0.0
 40
10.5
 41
0.0
 71
     9
 72
     5
  1

1001
ACAD
1000
MTEXTBEGIN
1070
    73
1070
     1
1070
    44
1040
1.0
1070
    74
1070
     0
1000
MTEXTEND
  0
MTEXT
  5
561D
330
1A
100
AcDbEntity
  8
SUNPOU
100
AcDbMText
 10
157387.7680634165
 20
146095.9411205762
 30
0.0
 40
3.5
 41
0.0
 71
     9
 72
     5
  1

1001
ACAD
1000
MTEXTBEGIN
1070
    73
1070
     1
1070
    44
1040
1.0
1070
    74
1070
     0
1000
MTEXTEND
  0
MTEXT
  5
561E
330
1A
100
AcDbEntity
  8
SUNPOU
100
AcDbMText
 10
105884.6285225027
 20
93730.15535542933
 30
0.0
 40
10.5
 41
0.0
 71
     9
 72
     5
  1

1001
ACAD
1000
MTEXTBEGIN
1070
    73
1070
     1
1070
    44
1040
1.0
1070
    74
1070
     0
1000
MTEXTEND
  0
MTEXT
  5
561F
330
1A
100
AcDbEntity
  8
SUNPOU
100
AcDbMText
 10
91936.6284221267
 20
74557.75621631714
 30
0.0
 40
3.5
 41
0.0
 71
     7
 72
     5
  1

1001
ACAD
1000
MTEXTBEGIN
1070
    73
1070
     1
1070
    44
1040
1.0
1070
    74
1070
     0
1000
MTEXTEND
  0
MTEXT
  5
5620
330
1A
100
AcDbEntity
  8
SUNPOU
100
AcDbMText
 10
72921.79781911986
 20
62319.90494713533
 30
0.0
 40
10.5
 41
0.0
 71
     7
 72
     5
  1

1001
ACAD
1000
MTEXTBEGIN
1070
    73
1070
     1
1070
    44
1040
1.0
1070
    74
1070
     0
1000
MTEXTEND
  0
MTEXT
  5
5621
330
1A
100
AcDbEntity
  8
SUNPOU
100
AcDbMText
 10
60464.56955417175
 20
46474.97336903692
 30
0.0
 40
35.0
 41
0.0
 71
     9
 72
     5
  1

1001
ACAD
1000
MTEXTBEGIN
1070
    73
1070
     1
1070
    44
1040
1.0
1070
    74
1070
     0
1000
MTEXTEND
  0
MTEXT
  5
5622
330
1A
100
AcDbEntity
  8
SUNPOU
100
AcDbMText
 10
59373.05461174672
 20
47083.74877908562
 30
0.0
 40
350.0000004171781
 41
0.0
 71
     7
 72
     5
  1

1001
ACAD
1000
MTEXTBEGIN
1070
    73
1070
     1
1070
    44
1040
1.0
1070
    74
1070
     0
1000
MTEXTEND
  0
MTEXT
  5
5623
330
1A
100
AcDbEntity
  8
0
100
AcDbMText
 10
65417.00536968962
 20
45063.67114122186
 30
0.0
 40
8.0
 41
0.0
 71
     7
 72
     5
  1

1001
ACAD
1000
MTEXTBEGIN
1070
    73
1070
     1
1070
    44
1040
1.0
1070
    74
1070
     0
1000
MTEXTEND
  0
MTEXT
  5
5624
330
1A
100
AcDbEntity
  8
0
100
AcDbMText
 10
67702.36305958452
 20
46034.46143597292
 30
0.0
 40
8.0
 41
0.0
 71
     7
 72
     5
  1

1001
ACAD
1000
MTEXTBEGIN
1070
    73
1070
     1
1070
    44
1040
1.0
1070
    74
1070
     0
1000
MTEXTEND
  0
MTEXT
  5
5625
330
1A
100
AcDbEntity
  8
SUNPOU
100
AcDbMText
 10
70368.26008026666
 20
55546.57282834803
 30
0.0
 40
10.5
 41
0.0
 71
     1
 72
     5
  1

1001
ACAD
1000
MTEXTBEGIN
1070
    73
1070
     1
1070
    44
1040
1.0
1070
    74
1070
     0
1000
MTEXTEND
  0
MTEXT
  5
5626
330
1A
100
AcDbEntity
  8
SUNPOU
100
AcDbMText
 10
62437.33688433072
 20
54599.77969443508
 30
0.0
 40
10.5
 41
0.0
 71
     7
 72
     5
  1

1001
ACAD
1000
MTEXTBEGIN
1070
    73
1070
     1
1070
    44
1040
1.0
1070
    74
1070
     0
1000
MTEXTEND
  0
MTEXT
  5
5627
330
1A
100
AcDbEntity
  8
SUNPOU
100
AcDbMText
 10
65386.32054884349
 20
59500.45576627792
 30
0.0
 40
10.5
 41
0.0
 71
     7
 72
     5
  1

1001
ACAD
1000
MTEXTBEGIN
1070
    73
1070
     1
1070
    44
1040
1.0
1070
    74
1070
     0
1000
MTEXTEND
  0
MTEXT
  5
5628
330
1A
100
AcDbEntity
  8
SUNPOU
100
AcDbMText
 10
69895.39867679405
 20
61936.756513898
 30
0.0
 40
10.5
 41
0.0
 71
     7
 72
     5
  1

1001
ACAD
1000
MTEXTBEGIN
1070
    73
1070
     1
1070
    44
1040
1.0
1070
    74
1070
     0
1000
MTEXTEND
  0
MTEXT
  5
5629
330
1A
100
AcDbEntity
  8
SUNPOU
100
AcDbMText
 10
53496.23656356237
 20
40934.35266428691
 30
0.0
 40
10.5
 41
0.0
 71
     7
 72
     5
  1

1001
ACAD
1000
MTEXTBEGIN
1070
    73
1070
     1
1070
    44
1040
1.0
1070
    74
1070
     0
1000
MTEXTEND
  0
MTEXT
  5
562A
330
1A
100
AcDbEntity
  8
SUNPOU
100
AcDbMText
 10
55306.99947493731
 20
47261.76665176547
 30
0.0
 40
10.5
 41
0.0
 71
     9
 72
     5
  1

1001
ACAD
1000
MTEXTBEGIN
1070
    73
1070
     1
1070
    44
1040
1.0
1070
    74
1070
     0
1000
MTEXTEND
  0
MTEXT
  5
562B
330
1A
100
AcDbEntity
  8
SUNPOU
100
AcDbMText
 10
64029.16704085528
 20
54677.60118330295
 30
0.0
 40
10.5
 41
0.0
 71
     9
 72
     5
  1

1001
ACAD
1000
MTEXTBEGIN
1070
    73
1070
     1
1070
    44
1040
1.0
1070
    74
1070
     0
1000
MTEXTEND
  0
MTEXT
  5
562C
330
1A
100
AcDbEntity
  8
SUNPOU
100
AcDbMText
 10
82982.92575818527
 20
72144.17723579499
 30
0.0
 40
10.5
 41
0.0
 71
     9
 72
     5
  1

1001
ACAD
1000
MTEXTBEGIN
1070
    73
1070
     1
1070
    44
1040
1.0
1070
    74
1070
     0
1000
MTEXTEND
  0
MTEXT
  5
562D
330
1A
100
AcDbEntity
  8
SUNPOU
100
AcDbMText
 10
84926.33300489467
 20
70343.12815591698
 30
0.0
 40
3.5
 41
0.0
 71
     9
 72
     5
  1

1001
ACAD
1000
MTEXTBEGIN
1070
    73
1070
     1
1070
    44
1040
1.0
1070
    74
1070
     0
1000
MTEXTEND
  0
MTEXT
  5
562E
330
1A
100
AcDbEntity
  8
SUNPOU
100
AcDbMText
 10
116052.5128375143
 20
112838.0738235743
 30
0.0
 40
10.5
 41
0.0
 71
     9
 72
     5
  1

1001
ACAD
1000
MTEXTBEGIN
1070
    73
1070
     1
1070
    44
1040
1.0
1070
    74
1070
     0
1000
MTEXTEND
  0
MTEXT
  5
562F
330
1A
100
AcDbEntity
  8
SUNPOU
100
AcDbMText
 10
117995.9200842238
 20
111037.0247436963
 30
0.0
 40
3.5
 41
0.0
 71
     9
 72
     5
  1

1001
ACAD
1000
MTEXTBEGIN
1070
    73
1070
     1
1070
    44
1040
1.0
1070
    74
1070
     0
1000
MTEXTEND
  0
MTEXT
  5
5630
330
1A
100
AcDbEntity
  8
SUNPOU
100
AcDbMText
 10
66492.78054330994
 20
58671.23897854939
 30
0.0
 40
10.5
 41
0.0
 71
     9
 72
     5
  1

1001
ACAD
1000
MTEXTBEGIN
1070
    73
1070
     1
1070
    44
1040
1.0
1070
    74
1070
     0
1000
MTEXTEND
  0
MTEXT
  5
5631
330
1A
100
AcDbEntity
  8
SUNPOU
100
AcDbMText
 10
52544.78044293396
 20
39498.83983943717
 30
0.0
 40
3.5
 41
0.0
 71
     7
 72
     5
  1

1001
ACAD
1000
MTEXTBEGIN
1070
    73
1070
     1
1070
    44
1040
1.0
1070
    74
1070
     0
1000
MTEXTEND
  0
MTEXT
  5
5632
330
1A
100
AcDbEntity
  8
SUNPOU
100
AcDbMText
 10
66237.13112570454
 20
48857.90306045851
 30
0.0
 40
10.5
 41
0.0
 71
     9
 72
     5
  1

1001
ACAD
1000
MTEXTBEGIN
1070
    73
1070
     1
1070
    44
1040
1.0
1070
    74
1070
     0
1000
MTEXTEND
  0
MTEXT
  5
5633
330
1A
100
AcDbEntity
  8
SUNPOU
100
AcDbMText
 10
74959.29869162252
 20
56273.737591996
 30
0.0
 40
10.5
 41
0.0
 71
     9
 72
     5
  1

1001
ACAD
1000
MTEXTBEGIN
1070
    73
1070
     1
1070
    44
1040
1.0
1070
    74
1070
     0
1000
MTEXTEND
  0
MTEXT
  5
5634
330
1A
100
AcDbEntity
  8
SUNPOU
100
AcDbMText
 10
93913.0574089525
 20
73740.31364448805
 30
0.0
 40
10.5
 41
0.0
 71
     9
 72
     5
  1

1001
ACAD
1000
MTEXTBEGIN
1070
    73
1070
     1
1070
    44
1040
1.0
1070
    74
1070
     0
1000
MTEXTEND
  0
MTEXT
  5
5635
330
1A
100
AcDbEntity
  8
SUNPOU
100
AcDbMText
 10
95856.46465566192
 20
71939.26456461004
 30
0.0
 40
3.5
 41
0.0
 71
     9
 72
     5
  1

1001
ACAD
1000
MTEXTBEGIN
1070
    73
1070
     1
1070
    44
1040
1.0
1070
    74
1070
     0
1000
MTEXTEND
  0
MTEXT
  5
5636
330
1A
100
AcDbEntity
  8
SUNPOU
100
AcDbMText
 10
126982.6444882816
 20
114434.2102322673
 30
0.0
 40
10.5
 41
0.0
 71
     9
 72
     5
  1

1001
ACAD
1000
MTEXTBEGIN
1070
    73
1070
     1
1070
    44
1040
1.0
1070
    74
1070
     0
1000
MTEXTEND
  0
MTEXT
  5
5637
330
1A
100
AcDbEntity
  8
SUNPOU
100
AcDbMText
 10
128926.051734991
 20
112633.1611523893
 30
0.0
 40
3.5
 41
0.0
 71
     9
 72
     5
  1

1001
ACAD
1000
MTEXTBEGIN
1070
    73
1070
     1
1070
    44
1040
1.0
1070
    74
1070
     0
1000
MTEXTEND
  0
MTEXT
  5
5638
330
1A
100
AcDbEntity
  8
SUNPOU
100
AcDbMText
 10
77422.91219407717
 20
60267.37538724244
 30
0.0
 40
10.5
 41
0.0
 71
     9
 72
     5
  1

1001
ACAD
1000
MTEXTBEGIN
1070
    73
1070
     1
1070
    44
1040
1.0
1070
    74
1070
     0
1000
MTEXTEND
  0
MTEXT
  5
5639
330
1A
100
AcDbEntity
  8
SUNPOU
100
AcDbMText
 10
63474.91209370119
 20
41094.97624813023
 30
0.0
 40
3.5
 41
0.0
 71
     7
 72
     5
  1

1001
ACAD
1000
MTEXTBEGIN
1070
    73
1070
     1
1070
    44
1040
1.0
1070
    74
1070
     0
1000
MTEXTEND
  0
MTEXT
  5
563A
330
1A
100
AcDbEntity
  8
SUNPOU
100
AcDbMText
 10
48117.65086229006
 20
40806.11043916631
 30
0.0
 40
10.5
 41
0.0
 71
     9
 72
     5
  1

1001
ACAD
1000
MTEXTBEGIN
1070
    73
1070
     1
1070
    44
1040
1.0
1070
    74
1070
     0
1000
MTEXTEND
  0
MTEXT
  5
563B
330
1A
100
AcDbEntity
  8
SUNPOU
100
AcDbMText
 10
67071.40957962004
 20
58272.68649165837
 30
0.0
 40
10.5
 41
0.0
 71
     9
 72
     5
  1

1001
ACAD
1000
MTEXTBEGIN
1070
    73
1070
     1
1070
    44
1040
1.0
1070
    74
1070
     0
1000
MTEXTEND
  0
MTEXT
  5
563C
330
1A
100
AcDbEntity
  8
SUNPOU
100
AcDbMText
 10
69014.81682632945
 20
56471.63741178035
 30
0.0
 40
3.5
 41
0.0
 71
     9
 72
     5
  1

1001
ACAD
1000
MTEXTBEGIN
1070
    73
1070
     1
1070
    44
1040
1.0
1070
    74
1070
     0
1000
MTEXTEND
  0
MTEXT
  5
563D
330
1A
100
AcDbEntity
  8
SUNPOU
100
AcDbMText
 10
100140.9966589491
 20
98966.58307943772
 30
0.0
 40
10.5
 41
0.0
 71
     9
 72
     5
  1

1001
ACAD
1000
MTEXTBEGIN
1070
    73
1070
     1
1070
    44
1040
1.0
1070
    74
1070
     0
1000
MTEXTEND
  0
MTEXT
  5
563E
330
1A
100
AcDbEntity
  8
SUNPOU
100
AcDbMText
 10
102084.4039056586
 20
97165.53399955969
 30
0.0
 40
3.5
 41
0.0
 71
     9
 72
     5
  1

1001
ACAD
1000
MTEXTBEGIN
1070
    73
1070
     1
1070
    44
1040
1.0
1070
    74
1070
     0
1000
MTEXTEND
  0
MTEXT
  5
563F
330
1A
100
AcDbEntity
  8
SUNPOU
100
AcDbMText
 10
50581.26436474472
 20
44799.74823441275
 30
0.0
 40
10.5
 41
0.0
 71
     9
 72
     5
  1

1001
ACAD
1000
MTEXTBEGIN
1070
    73
1070
     1
1070
    44
1040
1.0
1070
    74
1070
     0
1000
MTEXTEND
  0
MTEXT
  5
5640
330
1A
100
AcDbEntity
  8
SUNPOU
100
AcDbMText
 10
36633.26426436873
 20
25627.34909530054
 30
0.0
 40
3.5
 41
0.0
 71
     7
 72
     5
  1

1001
ACAD
1000
MTEXTBEGIN
1070
    73
1070
     1
1070
    44
1040
1.0
1070
    74
1070
     0
1000
MTEXTEND
  0
MTEXT
  5
5641
330
1A
100
AcDbEntity
  8
SUNPOU
100
AcDbMText
 10
61069.42493315968
 20
52574.61207825771
 30
0.0
 40
10.5
 41
0.0
 71
     9
 72
     5
  1

1001
ACAD
1000
MTEXTBEGIN
1070
    73
1070
     1
1070
    44
1040
1.0
1070
    74
1070
     0
1000
MTEXTEND
  0
MTEXT
  5
5642
330
1A
100
AcDbEntity
  8
SUNPOU
100
AcDbMText
 10
80023.18365048967
 20
70041.18813074978
 30
0.0
 40
10.5
 41
0.0
 71
     9
 72
     5
  1

1001
ACAD
1000
MTEXTBEGIN
1070
    73
1070
     1
1070
    44
1040
1.0
1070
    74
1070
     0
1000
MTEXTEND
  0
MTEXT
  5
5643
330
1A
100
AcDbEntity
  8
SUNPOU
100
AcDbMText
 10
81966.59089719908
 20
68240.13905087176
 30
0.0
 40
3.5
 41
0.0
 71
     9
 72
     5
  1

1001
ACAD
1000
MTEXTBEGIN
1070
    73
1070
     1
1070
    44
1040
1.0
1070
    74
1070
     0
1000
MTEXTEND
  0
MTEXT
  5
5644
330
1A
100
AcDbEntity
  8
SUNPOU
100
AcDbMText
 10
113092.7707298187
 20
110735.0847185291
 30
0.0
 40
10.5
 41
0.0
 71
     9
 72
     5
  1

1001
ACAD
1000
MTEXTBEGIN
1070
    73
1070
     1
1070
    44
1040
1.0
1070
    74
1070
     0
1000
MTEXTEND
  0
MTEXT
  5
5645
330
1A
100
AcDbEntity
  8
SUNPOU
100
AcDbMText
 10
115036.1779765282
 20
108934.0356386511
 30
0.0
 40
3.5
 41
0.0
 71
     9
 72
     5
  1

1001
ACAD
1000
MTEXTBEGIN
1070
    73
1070
     1
1070
    44
1040
1.0
1070
    74
1070
     0
1000
MTEXTEND
  0
MTEXT
  5
5646
330
1A
100
AcDbEntity
  8
SUNPOU
100
AcDbMText
 10
63533.03843561433
 20
56568.24987350415
 30
0.0
 40
10.5
 41
0.0
 71
     9
 72
     5
  1

1001
ACAD
1000
MTEXTBEGIN
1070
    73
1070
     1
1070
    44
1040
1.0
1070
    74
1070
     0
1000
MTEXTEND
  0
MTEXT
  5
5647
330
1A
100
AcDbEntity
  8
SUNPOU
100
AcDbMText
 10
49585.03833523835
 20
37395.85073439196
 30
0.0
 40
3.5
 41
0.0
 71
     7
 72
     5
  1

1001
ACAD
1000
MTEXTBEGIN
1070
    73
1070
     1
1070
    44
1040
1.0
1070
    74
1070
     0
1000
MTEXTEND
  0
MTEXT
  5
5648
330
1A
100
AcDbEntity
  8
SUNPOU
100
AcDbMText
 10
77137.31641337052
 20
70907.11375048141
 30
0.0
 40
10.5
 41
0.0
 71
     9
 72
     5
  1

1001
ACAD
1000
MTEXTBEGIN
1070
    73
1070
     1
1070
    44
1040
1.0
1070
    74
1070
     0
1000
MTEXTEND
  0
MTEXT
  5
5649
330
1A
100
AcDbEntity
  8
SUNPOU
100
AcDbMText
 10
79080.72366007995
 20
69106.06467060339
 30
0.0
 40
3.5
 41
0.0
 71
     9
 72
     5
  1

1001
ACAD
1000
MTEXTBEGIN
1070
    73
1070
     1
1070
    44
1040
1.0
1070
    74
1070
     0
1000
MTEXTEND
  0
MTEXT
  5
564A
330
1A
100
AcDbEntity
  8
SUNPOU
100
AcDbMText
 10
110206.9034926996
 20
111601.0103382607
 30
0.0
 40
10.5
 41
0.0
 71
     9
 72
     5
  1

1001
ACAD
1000
MTEXTBEGIN
1070
    73
1070
     1
1070
    44
1040
1.0
1070
    74
1070
     0
1000
MTEXTEND
  0
MTEXT
  5
564B
330
1A
100
AcDbEntity
  8
SUNPOU
100
AcDbMText
 10
112150.310739409
 20
109799.9612583827
 30
0.0
 40
3.5
 41
0.0
 71
     9
 72
     5
  1

1001
ACAD
1000
MTEXTBEGIN
1070
    73
1070
     1
1070
    44
1040
1.0
1070
    74
1070
     0
1000
MTEXTEND
  0
MTEXT
  5
564C
330
1A
100
AcDbEntity
  8
SUNPOU
100
AcDbMText
 10
108819.1333204968
 20
110677.9087286761
 30
0.0
 40
10.5
 41
0.0
 71
     9
 72
     5
  1

1001
ACAD
1000
MTEXTBEGIN
1070
    73
1070
     1
1070
    44
1040
1.0
1070
    74
1070
     0
1000
MTEXTEND
  0
MTEXT
  5
564D
330
1A
100
AcDbEntity
  8
SUNPOU
100
AcDbMText
 10
110762.5405672062
 20
108876.8596487981
 30
0.0
 40
3.5
 41
0.0
 71
     9
 72
     5
  1

1001
ACAD
1000
MTEXTBEGIN
1070
    73
1070
     1
1070
    44
1040
1.0
1070
    74
1070
     0
1000
MTEXTEND
  0
MTEXT
  5
564E
330
1A
100
AcDbEntity
  8
SUNPOU
100
AcDbMText
 10
76303.05507956816
 20
68695.31179059812
 30
0.0
 40
10.5
 41
0.0
 71
     9
 72
     5
  1

1001
ACAD
1000
MTEXTBEGIN
1070
    73
1070
     1
1070
    44
1040
1.0
1070
    74
1070
     0
1000
MTEXTEND
  0
MTEXT
  5
564F
330
1A
100
AcDbEntity
  8
SUNPOU
100
AcDbMText
 10
79026.36128373271
 20
69099.99348217918
 30
0.0
 40
3.5
 41
0.0
 71
     9
 72
     5
  1

1001
ACAD
1000
MTEXTBEGIN
1070
    73
1070
     1
1070
    44
1040
1.0
1070
    74
1070
     0
1000
MTEXTEND
  0
MTEXT
  5
5650
330
1A
100
AcDbEntity
  8
SUNPOU
100
AcDbMText
 10
78234.00675862522
 20
65938.68764412436
 30
0.0
 40
10.5
 41
0.0
 71
     9
 72
     5
  1

1001
ACAD
1000
MTEXTBEGIN
1070
    73
1070
     1
1070
    44
1040
1.0
1070
    74
1070
     0
1000
MTEXTEND
  0
MTEXT
  5
5651
330
1A
100
AcDbEntity
  8
SUNPOU
100
AcDbMText
 10
80177.41400533465
 20
64137.63856424636
 30
0.0
 40
3.5
 41
0.0
 71
     9
 72
     5
  1

1001
ACAD
1000
MTEXTBEGIN
1070
    73
1070
     1
1070
    44
1040
1.0
1070
    74
1070
     0
1000
MTEXTEND
  0
MTEXT
  5
5652
330
1A
100
AcDbEntity
  8
SUNPOU
100
AcDbMText
 10
80122.50949592123
 20
64024.86668196205
 30
0.0
 40
3.5
 41
0.0
 71
     9
 72
     5
  1

1001
ACAD
1000
MTEXTBEGIN
1070
    73
1070
     1
1070
    44
1040
1.0
1070
    74
1070
     0
1000
MTEXTEND
  0
MTEXT
  5
5653
330
1A
100
AcDbEntity
  8
SUNPOU
100
AcDbMText
 10
79486.58135950133
 20
63213.54544089553
 30
0.0
 40
3.5
 41
0.0
 71
     9
 72
     5
  1

1001
ACAD
1000
MTEXTBEGIN
1070
    73
1070
     1
1070
    44
1040
1.0
1070
    74
1070
     0
1000
MTEXTEND
  0
MTEXT
  5
5654
330
1A
100
AcDbEntity
  8
SUNPOU
100
AcDbMText
 10
79485.3409400806
 20
63213.29746395804
 30
0.0
 40
10.5
 41
0.0
 71
     9
 72
     5
  1

1001
ACAD
1000
MTEXTBEGIN
1070
    73
1070
     1
1070
    44
1040
1.0
1070
    74
1070
     0
1000
MTEXTEND
  0
MTEXT
  5
5655
330
1A
100
AcDbEntity
  8
SUNPOU
100
AcDbMText
 10
85473.63363627567
 20
80747.76348077064
 30
0.0
 40
10.5
 41
0.0
 71
     9
 72
     5
  1

1001
ACAD
1000
MTEXTBEGIN
1070
    73
1070
     1
1070
    44
1040
1.0
1070
    74
1070
     0
1000
MTEXTEND
  0
MTEXT
  5
5656
330
1A
100
AcDbEntity
  8
SUNPOU
100
AcDbMText
 10
94195.80120219368
 20
88163.59801230809
 30
0.0
 40
10.5
 41
0.0
 71
     9
 72
     5
  1

1001
ACAD
1000
MTEXTBEGIN
1070
    73
1070
     1
1070
    44
1040
1.0
1070
    74
1070
     0
1000
MTEXTEND
  0
MTEXT
  5
5657
330
1A
100
AcDbEntity
  8
SUNPOU
100
AcDbMText
 10
113149.5599195236
 20
105630.1740648001
 30
0.0
 40
10.5
 41
0.0
 71
     9
 72
     5
  1

1001
ACAD
1000
MTEXTBEGIN
1070
    73
1070
     1
1070
    44
1040
1.0
1070
    74
1070
     0
1000
MTEXTEND
  0
MTEXT
  5
5658
330
1A
100
AcDbEntity
  8
SUNPOU
100
AcDbMText
 10
115092.967166233
 20
103829.1249849221
 30
0.0
 40
3.5
 41
0.0
 71
     9
 72
     5
  1

1001
ACAD
1000
MTEXTBEGIN
1070
    73
1070
     1
1070
    44
1040
1.0
1070
    74
1070
     0
1000
MTEXTEND
  0
MTEXT
  5
5659
330
1A
100
AcDbEntity
  8
SUNPOU
100
AcDbMText
 10
146219.1469988527
 20
146324.0706525794
 30
0.0
 40
10.5
 41
0.0
 71
     9
 72
     5
  1

1001
ACAD
1000
MTEXTBEGIN
1070
    73
1070
     1
1070
    44
1040
1.0
1070
    74
1070
     0
1000
MTEXTEND
  0
MTEXT
  5
565A
330
1A
100
AcDbEntity
  8
SUNPOU
100
AcDbMText
 10
148162.5542455621
 20
144523.0215727014
 30
0.0
 40
3.5
 41
0.0
 71
     9
 72
     5
  1

1001
ACAD
1000
MTEXTBEGIN
1070
    73
1070
     1
1070
    44
1040
1.0
1070
    74
1070
     0
1000
MTEXTEND
  0
MTEXT
  5
565B
330
1A
100
AcDbEntity
  8
SUNPOU
100
AcDbMText
 10
96659.41470464833
 20
92157.23580755453
 30
0.0
 40
10.5
 41
0.0
 71
     9
 72
     5
  1

1001
ACAD
1000
MTEXTBEGIN
1070
    73
1070
     1
1070
    44
1040
1.0
1070
    74
1070
     0
1000
MTEXTEND
  0
MTEXT
  5
565C
330
1A
100
AcDbEntity
  8
SUNPOU
100
AcDbMText
 10
82711.41460427234
 20
72984.83666844234
 30
0.0
 40
3.5
 41
0.0
 71
     7
 72
     5
  1

1001
ACAD
1000
MTEXTBEGIN
1070
    73
1070
     1
1070
    44
1040
1.0
1070
    74
1070
     0
1000
MTEXTEND
  0
MTEXT
  5
565D
330
1A
100
AcDbEntity
  8
SUNPOU
100
AcDbMText
 10
63696.58400126548
 20
60746.98539926055
 30
0.0
 40
10.5
 41
0.0
 71
     7
 72
     5
  1

1001
ACAD
1000
MTEXTBEGIN
1070
    73
1070
     1
1070
    44
1040
1.0
1070
    74
1070
     0
1000
MTEXTEND
  0
MTEXT
  5
565E
330
1A
100
AcDbEntity
  8
SUNPOU
100
AcDbMText
 10
51239.35573631738
 20
44902.05382116213
 30
0.0
 40
35.0
 41
0.0
 71
     9
 72
     5
  1

1001
ACAD
1000
MTEXTBEGIN
1070
    73
1070
     1
1070
    44
1040
1.0
1070
    74
1070
     0
1000
MTEXTEND
  0
MTEXT
  5
565F
330
1A
100
AcDbEntity
  8
SUNPOU
100
AcDbMText
 10
50147.84079389233
 20
45510.82923121084
 30
0.0
 40
350.0000004171781
 41
0.0
 71
     7
 72
     5
  1

1001
ACAD
1000
MTEXTBEGIN
1070
    73
1070
     1
1070
    44
1040
1.0
1070
    74
1070
     0
1000
MTEXTEND
  0
MTEXT
  5
5660
330
1A
100
AcDbEntity
  8
0
100
AcDbMText
 10
56191.79155183523
 20
43490.75159334705
 30
0.0
 40
8.0
 41
0.0
 71
     7
 72
     5
  1

1001
ACAD
1000
MTEXTBEGIN
1070
    73
1070
     1
1070
    44
1040
1.0
1070
    74
1070
     0
1000
MTEXTEND
  0
MTEXT
  5
5661
330
1A
100
AcDbEntity
  8
0
100
AcDbMText
 10
58477.14924173013
 20
44461.54188809812
 30
0.0
 40
8.0
 41
0.0
 71
     7
 72
     5
  1

1001
ACAD
1000
MTEXTBEGIN
1070
    73
1070
     1
1070
    44
1040
1.0
1070
    74
1070
     0
1000
MTEXTEND
  0
MTEXT
  5
5662
330
1A
100
AcDbEntity
  8
SUNPOU
100
AcDbMText
 10
61143.04626241227
 20
53973.65328047324
 30
0.0
 40
10.5
 41
0.0
 71
     1
 72
     5
  1

1001
ACAD
1000
MTEXTBEGIN
1070
    73
1070
     1
1070
    44
1040
1.0
1070
    74
1070
     0
1000
MTEXTEND
  0
MTEXT
  5
5663
330
1A
100
AcDbEntity
  8
SUNPOU
100
AcDbMText
 10
53212.12306647634
 20
53026.86014656028
 30
0.0
 40
10.5
 41
0.0
 71
     7
 72
     5
  1

1001
ACAD
1000
MTEXTBEGIN
1070
    73
1070
     1
1070
    44
1040
1.0
1070
    74
1070
     0
1000
MTEXTEND
  0
MTEXT
  5
5664
330
1A
100
AcDbEntity
  8
SUNPOU
100
AcDbMText
 10
56161.1067309891
 20
57927.53621840312
 30
0.0
 40
10.5
 41
0.0
 71
     7
 72
     5
  1

1001
ACAD
1000
MTEXTBEGIN
1070
    73
1070
     1
1070
    44
1040
1.0
1070
    74
1070
     0
1000
MTEXTEND
  0
MTEXT
  5
5665
330
1A
100
AcDbEntity
  8
SUNPOU
100
AcDbMText
 10
60670.18485893966
 20
60363.8369660232
 30
0.0
 40
10.5
 41
0.0
 71
     7
 72
     5
  1

1001
ACAD
1000
MTEXTBEGIN
1070
    73
1070
     1
1070
    44
1040
1.0
1070
    74
1070
     0
1000
MTEXTEND
  0
MTEXT
  5
5666
330
1A
100
AcDbEntity
  8
SUNPOU
100
AcDbMText
 10
44271.02274570799
 20
39361.43311641212
 30
0.0
 40
10.5
 41
0.0
 71
     7
 72
     5
  1

1001
ACAD
1000
MTEXTBEGIN
1070
    73
1070
     1
1070
    44
1040
1.0
1070
    74
1070
     0
1000
MTEXTEND
  0
MTEXT
  5
5667
330
1A
100
AcDbEntity
  8
SUNPOU
100
AcDbMText
 10
95462.54117960824
 20
85034.41368006038
 30
0.0
 40
10.5
 41
0.0
 71
     9
 72
     5
  1

1001
ACAD
1000
MTEXTBEGIN
1070
    73
1070
     1
1070
    44
1040
1.0
1070
    74
1070
     0
1000
MTEXTEND
  0
MTEXT
  5
5668
330
1A
100
AcDbEntity
  8
SUNPOU
100
AcDbMText
 10
104184.7087455262
 20
92450.24821159784
 30
0.0
 40
10.5
 41
0.0
 71
     9
 72
     5
  1

1001
ACAD
1000
MTEXTBEGIN
1070
    73
1070
     1
1070
    44
1040
1.0
1070
    74
1070
     0
1000
MTEXTEND
  0
MTEXT
  5
5669
330
1A
100
AcDbEntity
  8
SUNPOU
100
AcDbMText
 10
123138.4674628562
 20
109916.8242640898
 30
0.0
 40
10.5
 41
0.0
 71
     9
 72
     5
  1

1001
ACAD
1000
MTEXTBEGIN
1070
    73
1070
     1
1070
    44
1040
1.0
1070
    74
1070
     0
1000
MTEXTEND
  0
MTEXT
  5
566A
330
1A
100
AcDbEntity
  8
SUNPOU
100
AcDbMText
 10
125081.8747095656
 20
108115.7751842118
 30
0.0
 40
3.5
 41
0.0
 71
     9
 72
     5
  1

1001
ACAD
1000
MTEXTBEGIN
1070
    73
1070
     1
1070
    44
1040
1.0
1070
    74
1070
     0
1000
MTEXTEND
  0
MTEXT
  5
566B
330
1A
100
AcDbEntity
  8
SUNPOU
100
AcDbMText
 10
156208.0545421853
 20
150610.7208518691
 30
0.0
 40
10.5
 41
0.0
 71
     9
 72
     5
  1

1001
ACAD
1000
MTEXTBEGIN
1070
    73
1070
     1
1070
    44
1040
1.0
1070
    74
1070
     0
1000
MTEXTEND
  0
MTEXT
  5
566C
330
1A
100
AcDbEntity
  8
SUNPOU
100
AcDbMText
 10
158151.4617888947
 20
148809.6717719911
 30
0.0
 40
3.5
 41
0.0
 71
     9
 72
     5
  1

1001
ACAD
1000
MTEXTBEGIN
1070
    73
1070
     1
1070
    44
1040
1.0
1070
    74
1070
     0
1000
MTEXTEND
  0
MTEXT
  5
566D
330
1A
100
AcDbEntity
  8
SUNPOU
100
AcDbMText
 10
106648.3222479809
 20
96443.88600684427
 30
0.0
 40
10.5
 41
0.0
 71
     9
 72
     5
  1

1001
ACAD
1000
MTEXTBEGIN
1070
    73
1070
     1
1070
    44
1040
1.0
1070
    74
1070
     0
1000
MTEXTEND
  0
MTEXT
  5
566E
330
1A
100
AcDbEntity
  8
SUNPOU
100
AcDbMText
 10
92700.3221476049
 20
77271.48686773207
 30
0.0
 40
3.5
 41
0.0
 71
     7
 72
     5
  1

1001
ACAD
1000
MTEXTBEGIN
1070
    73
1070
     1
1070
    44
1040
1.0
1070
    74
1070
     0
1000
MTEXTEND
  0
MTEXT
  5
566F
330
1A
100
AcDbEntity
  8
SUNPOU
100
AcDbMText
 10
73685.49154459806
 20
65033.63559855027
 30
0.0
 40
10.5
 41
0.0
 71
     7
 72
     5
  1

1001
ACAD
1000
MTEXTBEGIN
1070
    73
1070
     1
1070
    44
1040
1.0
1070
    74
1070
     0
1000
MTEXTEND
  0
MTEXT
  5
5670
330
1A
100
AcDbEntity
  8
SUNPOU
100
AcDbMText
 10
61228.26327964995
 20
49188.70402045185
 30
0.0
 40
35.0
 41
0.0
 71
     9
 72
     5
  1

1001
ACAD
1000
MTEXTBEGIN
1070
    73
1070
     1
1070
    44
1040
1.0
1070
    74
1070
     0
1000
MTEXTEND
  0
MTEXT
  5
5671
330
1A
100
AcDbEntity
  8
SUNPOU
100
AcDbMText
 10
60136.74833722491
 20
49797.47943050056
 30
0.0
 40
350.0000004171781
 41
0.0
 71
     7
 72
     5
  1

1001
ACAD
1000
MTEXTBEGIN
1070
    73
1070
     1
1070
    44
1040
1.0
1070
    74
1070
     0
1000
MTEXTEND
  0
MTEXT
  5
5672
330
1A
100
AcDbEntity
  8
0
100
AcDbMText
 10
66180.69909516782
 20
47777.40179263678
 30
0.0
 40
8.0
 41
0.0
 71
     7
 72
     5
  1

1001
ACAD
1000
MTEXTBEGIN
1070
    73
1070
     1
1070
    44
1040
1.0
1070
    74
1070
     0
1000
MTEXTEND
  0
MTEXT
  5
5673
330
1A
100
AcDbEntity
  8
0
100
AcDbMText
 10
68466.05678506271
 20
48748.19208738784
 30
0.0
 40
8.0
 41
0.0
 71
     7
 72
     5
  1

1001
ACAD
1000
MTEXTBEGIN
1070
    73
1070
     1
1070
    44
1040
1.0
1070
    74
1070
     0
1000
MTEXTEND
  0
MTEXT
  5
5674
330
1A
100
AcDbEntity
  8
SUNPOU
100
AcDbMText
 10
71131.95380574485
 20
58260.30347976296
 30
0.0
 40
10.5
 41
0.0
 71
     1
 72
     5
  1

1001
ACAD
1000
MTEXTBEGIN
1070
    73
1070
     1
1070
    44
1040
1.0
1070
    74
1070
     0
1000
MTEXTEND
  0
MTEXT
  5
5675
330
1A
100
AcDbEntity
  8
SUNPOU
100
AcDbMText
 10
63201.03060980891
 20
57313.51034585002
 30
0.0
 40
10.5
 41
0.0
 71
     7
 72
     5
  1

1001
ACAD
1000
MTEXTBEGIN
1070
    73
1070
     1
1070
    44
1040
1.0
1070
    74
1070
     0
1000
MTEXTEND
  0
MTEXT
  5
5676
330
1A
100
AcDbEntity
  8
SUNPOU
100
AcDbMText
 10
66150.01427432169
 20
62214.18641769286
 30
0.0
 40
10.5
 41
0.0
 71
     7
 72
     5
  1

1001
ACAD
1000
MTEXTBEGIN
1070
    73
1070
     1
1070
    44
1040
1.0
1070
    74
1070
     0
1000
MTEXTEND
  0
MTEXT
  5
5677
330
1A
100
AcDbEntity
  8
SUNPOU
100
AcDbMText
 10
70659.09240227225
 20
64650.48716531294
 30
0.0
 40
10.5
 41
0.0
 71
     7
 72
     5
  1

1001
ACAD
1000
MTEXTBEGIN
1070
    73
1070
     1
1070
    44
1040
1.0
1070
    74
1070
     0
1000
MTEXTEND
  0
MTEXT
  5
5678
330
1A
100
AcDbEntity
  8
SUNPOU
100
AcDbMText
 10
54259.93028904056
 20
43648.08331570185
 30
0.0
 40
10.5
 41
0.0
 71
     7
 72
     5
  1

1001
ACAD
1000
MTEXTBEGIN
1070
    73
1070
     1
1070
    44
1040
1.0
1070
    74
1070
     0
1000
MTEXTEND
  0
MTEXT
  5
5679
330
1A
100
AcDbEntity
  8
SUNPOU
100
AcDbMText
 10
56070.69320041551
 20
49975.4973031804
 30
0.0
 40
10.5
 41
0.0
 71
     9
 72
     5
  1

1001
ACAD
1000
MTEXTBEGIN
1070
    73
1070
     1
1070
    44
1040
1.0
1070
    74
1070
     0
1000
MTEXTEND
  0
MTEXT
  5
567A
330
1A
100
AcDbEntity
  8
SUNPOU
100
AcDbMText
 10
64792.86076633348
 20
57391.33183471788
 30
0.0
 40
10.5
 41
0.0
 71
     9
 72
     5
  1

1001
ACAD
1000
MTEXTBEGIN
1070
    73
1070
     1
1070
    44
1040
1.0
1070
    74
1070
     0
1000
MTEXTEND
  0
MTEXT
  5
567B
330
1A
100
AcDbEntity
  8
SUNPOU
100
AcDbMText
 10
83746.61948366345
 20
74857.90788720994
 30
0.0
 40
10.5
 41
0.0
 71
     9
 72
     5
  1

1001
ACAD
1000
MTEXTBEGIN
1070
    73
1070
     1
1070
    44
1040
1.0
1070
    74
1070
     0
1000
MTEXTEND
  0
MTEXT
  5
567C
330
1A
100
AcDbEntity
  8
SUNPOU
100
AcDbMText
 10
85690.02673037287
 20
73056.85880733192
 30
0.0
 40
3.5
 41
0.0
 71
     9
 72
     5
  1

1001
ACAD
1000
MTEXTBEGIN
1070
    73
1070
     1
1070
    44
1040
1.0
1070
    74
1070
     0
1000
MTEXTEND
  0
MTEXT
  5
567D
330
1A
100
AcDbEntity
  8
SUNPOU
100
AcDbMText
 10
116816.2065629925
 20
115551.8044749892
 30
0.0
 40
10.5
 41
0.0
 71
     9
 72
     5
  1

1001
ACAD
1000
MTEXTBEGIN
1070
    73
1070
     1
1070
    44
1040
1.0
1070
    74
1070
     0
1000
MTEXTEND
  0
MTEXT
  5
567E
330
1A
100
AcDbEntity
  8
SUNPOU
100
AcDbMText
 10
118759.613809702
 20
113750.7553951112
 30
0.0
 40
3.5
 41
0.0
 71
     9
 72
     5
  1

1001
ACAD
1000
MTEXTBEGIN
1070
    73
1070
     1
1070
    44
1040
1.0
1070
    74
1070
     0
1000
MTEXTEND
  0
MTEXT
  5
567F
330
1A
100
AcDbEntity
  8
SUNPOU
100
AcDbMText
 10
67256.47426878814
 20
61384.96962996432
 30
0.0
 40
10.5
 41
0.0
 71
     9
 72
     5
  1

1001
ACAD
1000
MTEXTBEGIN
1070
    73
1070
     1
1070
    44
1040
1.0
1070
    74
1070
     0
1000
MTEXTEND
  0
MTEXT
  5
5680
330
1A
100
AcDbEntity
  8
SUNPOU
100
AcDbMText
 10
53308.47416841216
 20
42212.57049085211
 30
0.0
 40
3.5
 41
0.0
 71
     7
 72
     5
  1

1001
ACAD
1000
MTEXTBEGIN
1070
    73
1070
     1
1070
    44
1040
1.0
1070
    74
1070
     0
1000
MTEXTEND
  0
MTEXT
  5
5681
330
1A
100
AcDbEntity
  8
SUNPOU
100
AcDbMText
 10
67000.82485118274
 20
51571.63371187345
 30
0.0
 40
10.5
 41
0.0
 71
     9
 72
     5
  1

1001
ACAD
1000
MTEXTBEGIN
1070
    73
1070
     1
1070
    44
1040
1.0
1070
    74
1070
     0
1000
MTEXTEND
  0
MTEXT
  5
5682
330
1A
100
AcDbEntity
  8
SUNPOU
100
AcDbMText
 10
75722.99241710071
 20
58987.46824341094
 30
0.0
 40
10.5
 41
0.0
 71
     9
 72
     5
  1

1001
ACAD
1000
MTEXTBEGIN
1070
    73
1070
     1
1070
    44
1040
1.0
1070
    74
1070
     0
1000
MTEXTEND
  0
MTEXT
  5
5683
330
1A
100
AcDbEntity
  8
SUNPOU
100
AcDbMText
 10
94676.75113443068
 20
76454.04429590299
 30
0.0
 40
10.5
 41
0.0
 71
     9
 72
     5
  1

1001
ACAD
1000
MTEXTBEGIN
1070
    73
1070
     1
1070
    44
1040
1.0
1070
    74
1070
     0
1000
MTEXTEND
  0
MTEXT
  5
5684
330
1A
100
AcDbEntity
  8
SUNPOU
100
AcDbMText
 10
96620.1583811401
 20
74652.99521602498
 30
0.0
 40
3.5
 41
0.0
 71
     9
 72
     5
  1

1001
ACAD
1000
MTEXTBEGIN
1070
    73
1070
     1
1070
    44
1040
1.0
1070
    74
1070
     0
1000
MTEXTEND
  0
MTEXT
  5
5685
330
1A
100
AcDbEntity
  8
SUNPOU
100
AcDbMText
 10
127746.3382137598
 20
117147.9408836823
 30
0.0
 40
10.5
 41
0.0
 71
     9
 72
     5
  1

1001
ACAD
1000
MTEXTBEGIN
1070
    73
1070
     1
1070
    44
1040
1.0
1070
    74
1070
     0
1000
MTEXTEND
  0
MTEXT
  5
5686
330
1A
100
AcDbEntity
  8
SUNPOU
100
AcDbMText
 10
129689.7454604692
 20
115346.8918038043
 30
0.0
 40
3.5
 41
0.0
 71
     9
 72
     5
  1

1001
ACAD
1000
MTEXTBEGIN
1070
    73
1070
     1
1070
    44
1040
1.0
1070
    74
1070
     0
1000
MTEXTEND
  0
MTEXT
  5
5687
330
1A
100
AcDbEntity
  8
SUNPOU
100
AcDbMText
 10
78186.60591955537
 20
62981.10603865738
 30
0.0
 40
10.5
 41
0.0
 71
     9
 72
     5
  1

1001
ACAD
1000
MTEXTBEGIN
1070
    73
1070
     1
1070
    44
1040
1.0
1070
    74
1070
     0
1000
MTEXTEND
  0
MTEXT
  5
5688
330
1A
100
AcDbEntity
  8
SUNPOU
100
AcDbMText
 10
64238.60581917939
 20
43808.70689954517
 30
0.0
 40
3.5
 41
0.0
 71
     7
 72
     5
  1

1001
ACAD
1000
MTEXTBEGIN
1070
    73
1070
     1
1070
    44
1040
1.0
1070
    74
1070
     0
1000
MTEXTEND
  0
MTEXT
  5
5689
330
1A
100
AcDbEntity
  8
SUNPOU
100
AcDbMText
 10
33428.13481137435
 20
32770.04710035564
 30
0.0
 40
10.5
 41
0.0
 71
     9
 72
     5
  1

1001
ACAD
1000
MTEXTBEGIN
1070
    73
1070
     1
1070
    44
1040
1.0
1070
    74
1070
     0
1000
MTEXTEND
  0
MTEXT
  5
568A
330
1A
100
AcDbEntity
  8
SUNPOU
100
AcDbMText
 10
52381.89352870432
 20
50236.62315284769
 30
0.0
 40
10.5
 41
0.0
 71
     9
 72
     5
  1

1001
ACAD
1000
MTEXTBEGIN
1070
    73
1070
     1
1070
    44
1040
1.0
1070
    74
1070
     0
1000
MTEXTEND
  0
MTEXT
  5
568B
330
1A
100
AcDbEntity
  8
SUNPOU
100
AcDbMText
 10
54325.30077541374
 20
48435.57407296968
 30
0.0
 40
3.5
 41
0.0
 71
     9
 72
     5
  1

1001
ACAD
1000
MTEXTBEGIN
1070
    73
1070
     1
1070
    44
1040
1.0
1070
    74
1070
     0
1000
MTEXTEND
  0
MTEXT
  5
568C
330
1A
100
AcDbEntity
  8
SUNPOU
100
AcDbMText
 10
85451.48060803343
 20
90930.51974062703
 30
0.0
 40
10.5
 41
0.0
 71
     9
 72
     5
  1

1001
ACAD
1000
MTEXTBEGIN
1070
    73
1070
     1
1070
    44
1040
1.0
1070
    74
1070
     0
1000
MTEXTEND
  0
MTEXT
  5
568D
330
1A
100
AcDbEntity
  8
SUNPOU
100
AcDbMText
 10
87394.88785474286
 20
89129.47066074901
 30
0.0
 40
3.5
 41
0.0
 71
     9
 72
     5
  1

1001
ACAD
1000
MTEXTBEGIN
1070
    73
1070
     1
1070
    44
1040
1.0
1070
    74
1070
     0
1000
MTEXTEND
  0
MTEXT
  5
568E
330
1A
100
AcDbEntity
  8
SUNPOU
100
AcDbMText
 10
35891.74831382901
 20
36763.68489560208
 30
0.0
 40
10.5
 41
0.0
 71
     9
 72
     5
  1

1001
ACAD
1000
MTEXTBEGIN
1070
    73
1070
     1
1070
    44
1040
1.0
1070
    74
1070
     0
1000
MTEXTEND
  0
MTEXT
  5
568F
330
1A
100
AcDbEntity
  8
SUNPOU
100
AcDbMText
 10
21943.74821345303
 20
17591.28575648986
 30
0.0
 40
3.5
 41
0.0
 71
     7
 72
     5
  1

1001
ACAD
1000
MTEXTBEGIN
1070
    73
1070
     1
1070
    44
1040
1.0
1070
    74
1070
     0
1000
MTEXTEND
  0
MTEXT
  5
11D07
330
1A
100
AcDbEntity
  8
ZISSEN1
100
AcDbMText
 10
-1605.775042417004
 20
1720.567474140993
 30
0.0
 40
5.0
 41
111.2412999999999
 71
     1
 72
     5
  1
CP-13v1/AT1　No.SS0001f93
1001
ACAD
1000
MTEXTBEGIN
1070
    73
1070
     1
1070
    44
1040
1.0
1070
    74
1070
     0
1000
MTEXTEND
  0
DIMENSION
  5
13E73
330
1A
100
AcDbEntity
  8
SUNPOU
100
AcDbDimension
  2
*D0
 10
-1462.238658334397
 20
1603.0
 30
0.0
 11
-1464.613658334398
 21
1609.791666666666
 31
0.0
 70
    32
  3
ISO-25
100
AcDbAlignedDimension
 13
-1473.0
 23
1600.0
 33
0.0
 14
-1473.0
 24
1603.0
 34
0.0
 50
90.0
100
AcDbRotatedDimension
1001
ACAD
1000
DSTYLE
1002
{
1070
   271
1070
     2
1070
   140
1040
3.5
1002
}
  0
DIMENSION
  5
13E74
330
1A
100
AcDbEntity
  8
SUNPOU
100
AcDbDimension
  2
*D1
 10
-1453.84128580596
 20
1645.0
 30
0.0
 11
-1453.84128580596
 21
1666.999999999999
 31
0.0
 70
   160
  3
ISO-25
100
AcDbAlignedDimension
 13
-1473.997421345615
 23
1689.0
 33
0.0
 14
-1473.997421345615
 24
1645.0
 34
0.0
 50
90.0
100
AcDbRotatedDimension
1001
ACAD
1000
DSTYLE
1002
{
1070
   271
1070
     2
1070
   140
1040
3.5
1002
}
  0
DIMENSION
  5
13E75
330
1A
100
AcDbEntity
  8
SUNPOU
100
AcDbDimension
  2
*D2
 10
-1472.997421345615
 20
1619.241526549755
 30
0.0
 11
-1536.498710672807
 21
1619.241526549755
 31
0.0
 70
   160
  3
ISO-25
100
AcDbAlignedDimension
 13
-1599.997421345615
 23
1646.0
 33
0.0
 14
-1472.997421345615
 24
1646.0
 34
0.0
100
AcDbRotatedDimension
1001
ACAD
1000
DSTYLE
1002
{
1070
   271
1070
     2
1070
   140
1040
3.5
1002
}
  0
LINE
  5
13E95
330
1A
100
AcDbEntity
  8
ZISSEN1
100
AcDbLine
 10
-1440.0
 20
1646.0
 30
0.0
 11
-1437.0
 21
1646.0
 31
0.0
  0
LINE
  5
13E96
330
1A
100
AcDbEntity
  8
ZISSEN1
100
AcDbLine
 10
-1440.0
 20
1645.0
 30
0.0
 11
-1437.0
 21
1645.0
 31
0.0
  0
LINE
  5
13EA2
330
1A
100
AcDbEntity
  8
ZISSEN1
100
AcDbLine
 10
-1437.0
 20
1683.0
 30
0.0
 11
-1429.0
 21
1683.0
 31
0.0
  0
LINE
  5
13EB1
330
1A
100
AcDbEntity
  8
ZISSEN1
100
AcDbLine
 10
-1437.0
 20
1650.0
 30
0.0
 11
-1429.0
 21
1650.0
 31
0.0
  0
LINE
  5
13EB2
330
1A
100
AcDbEntity
  8
ZISSEN1
100
AcDbLine
 10
-1429.0
 20
1683.0
 30
0.0
 11
-1429.0
 21
1650.0
 31
0.0
  0
LINE
  5
13FD9
330
1A
100
AcDbEntity
  8
CL1
  6
BYBLOCK
100
AcDbLine
 10
-1442.0
 20
1651.500000000002
 30
0.0
 11
-1436.0
 21
1651.500000000002
 31
0.0
  0
LINE
  5
13FDA
330
1A
100
AcDbEntity
  8
CL1
  6
BYBLOCK
100
AcDbLine
 10
-1442.0
 20
1683.000000000002
 30
0.0
 11
-1436.0
 21
1683.000000000002
 31
0.0
  0
DIMENSION
  5
14027
330
1A
100
AcDbEntity
  8
SUNPOU
100
AcDbDimension
  2
*D3
 10
-1479.497421345615
 20
1629.393920294567
 30
0.0
 11
-1536.606357383607
 21
1632.063201266366
 31
0.0
 70
   160
  3
ISO-25
100
AcDbAlignedDimension
 13
-1595.497421345615
 23
1649.506226911104
 33
0.0
 14
-1479.497421345615
 24
1649.506226911108
 34
0.0
100
AcDbRotatedDimension
1001
ACAD
1000
DSTYLE
1002
{
1070
   287
1070
     5
1070
   271
1070
     2
1070
   140
1040
3.5
1070
   279
1070
     2
1002
}
  0
DIMENSION
  5
1406C
330
1A
100
AcDbEntity
  8
SUNPOU
100
AcDbDimension
  2
*D4
 10
-1600.0
 20
1629.393920294567
 30
0.0
 11
-1609.124999999999
 21
1629.393920294567
 31
0.0
 70
   160
  3
ISO-25
100
AcDbAlignedDimension
 13
-1595.5
 23
1647.934054581868
 33
0.0
 14
-1600.0
 24
1646.0
 34
0.0
100
AcDbRotatedDimension
1001
ACAD
1000
DSTYLE
1002
{
1070
   271
1070
     2
1070
   140
1040
3.5
1002
}
  0
DIMENSION
  5
140FC
330
1A
100
AcDbEntity
  8
SUNPOU
  6
BYBLOCK
100
AcDbDimension
  2
*D5
 10
-1464.492966633685
 20
1645.0
 30
0.0
 11
-1464.492966633686
 21
1648.46459980592
 31
0.0
 70
   160
  3
標準スタイル
100
AcDbAlignedDimension
 13
-1485.066100357657
 23
1653.0
 33
0.0
 14
-1473.997421345615
 24
1645.0
 34
0.0
 50
90.0
100
AcDbRotatedDimension
1001
ACAD
1000
DSTYLE
1002
{
1070
   271
1070
     2
1070
   340
1005
10
1070
    40
1040
1.0
1002
}
  0
LEADER
  5
14161
330
1A
100
AcDbEntity
  8
ZISSEN1
  6
BYBLOCK
100
AcDbLeader
  3
標準スタイル
 40
2.994923857868019
 41
25.07614213197969
 76
     3
 10
-1595.499999999996
 20
1651.5
 30
0.0
 10
-1582.292362104779
 20
1638.005746224425
 30
0.0
 10
-1553.879604634394
 20
1638.005746224425
 30
0.0
213
28.00386018057975
223
-4.535017741025285
233
0.0
1001
ACAD
1000
DSTYLE
1002
{
1070
     5
1000

1070
    77
1070
     0
1070
   147
1040
1.0
1002
}
  0
LEADER
  5
1416D
330
1A
100
AcDbEntity
  8
SUNPOU
  6
BYBLOCK
100
AcDbLeader
  3
標準スタイル
 76
     3
 10
-1477.494669856732
 20
1683.004000450543
 30
0.0
 10
-1465.353906511032
 20
1700.655724805428
 30
0.0
 10
-1431.070745612468
 20
1700.655724805428
 30
0.0
1001
ACAD
1000
DSTYLE
1002
{
1070
     5
1000

1070
    77
1070
     0
1070
   147
1040
1.0
1002
}
  0
MTEXT
  5
14174
330
1A
100
AcDbEntity
  8
ZISSEN1
100
AcDbMText
 10
-1465.119091129543
 20
1705.186436403647
 30
0.0
 40
3.0
 41
111.2412999999999
 71
     1
 72
     5
  1
M3(F.G接続用)
1001
ACAD
1000
MTEXTBEGIN
1070
    73
1070
     1
1070
    44
1040
1.0
1070
    74
1070
     0
1000
MTEXTEND
  0
MTEXT
  5
1417C
330
1A
100
AcDbEntity
  8
ZISSEN1
100
AcDbMText
 10
-1580.648648784814
 20
1641.944322591666
 30
0.0
 40
3.0
 41
111.2412999999999
 71
     1
 72
     5
  1
6-M3(製品取付用)
1001
ACAD
1000
MTEXTBEGIN
1070
    73
1070
     1
1070
    44
1040
1.0
1070
    74
1070
     0
1000
MTEXTEND
  0
LINE
  5
14226
330
1A
100
AcDbEntity
  8
ZISSEN1
  6
BYBLOCK
100
AcDbLine
 10
-1440.0
 20
1689.0
 30
0.0
 11
-1437.0
 21
1689.0
 31
0.0
  0
LINE
  5
14227
330
1A
100
AcDbEntity
  8
ZISSEN1
  6
BYBLOCK
100
AcDbLine
 10
-1437.0
 20
1689.0
 30
0.0
 11
-1437.0
 21
1645.0
 31
0.0
  0
LINE
  5
14229
330
1A
100
AcDbEntity
  8
ZISSEN1
  6
BYBLOCK
100
AcDbLine
 10
-1440.0
 20
1688.0
 30
0.0
 11
-1437.0
 21
1688.0
 31
0.0
  0
LINE
  5
1422A
330
1A
100
AcDbEntity
  8
ZISSEN1
  6
BYBLOCK
100
AcDbLine
 10
-1440.0
 20
1689.0
 30
0.0
 11
-1440.0
 21
1645.0
 31
0.0
  0
DIMENSION
  5
14629
330
1A
100
AcDbEntity
  8
SUNPOU
100
AcDbDimension
  2
*D6
 10
-1462.238658334397
 20
1600.0
 30
0.0
 11
-1462.238658334397
 21
1595.0
 31
0.0
 70
   160
  3
標準スタイル
100
AcDbAlignedDimension
 13
-1496.25
 23
1592.0
 33
0.0
 14
-1473.0
 24
1600.0
 34
0.0
 50
90.0
100
AcDbRotatedDimension
1001
ACAD
1000
DSTYLE
1002
{
1070
   287
1070
     4
1070
   271
1070
     2
1070
    41
1040
2.0
1070
    40
1040
1.0
1070
   279
1070
     1
1070
   340
1005
10
1002
}
  0
LINE
  5
146E4
330
1A
100
AcDbEntity
  8
CL1
  6
BYBLOCK
100
AcDbLine
 10
-1442.0
 20
1653.0
 30
0.0
 11
-1436.0
 21
1653.0
 31
0.0
  0
LINE
  5
146E5
330
1A
100
AcDbEntity
  8
CL1
  6
BYBLOCK
100
AcDbLine
 10
-1442.0
 20
1657.499999999999
 30
0.0
 11
-1436.0
 21
1657.499999999999
 31
0.0
  0
DIMENSION
  5
1470E
330
1A
100
AcDbEntity
  8
SUNPOU
100
AcDbDimension
  2
*D7
 10
-1608.078161052041
 20
1651.5
 30
0.0
 11
-1608.224236616399
 21
1649.829105627301
 31
0.0
 70
   160
  3
標準スタイル
100
AcDbAlignedDimension
 13
-1598.997421345615
 23
1645.0
 33
0.0
 14
-1597.428742333572
 24
1651.5
 34
0.0
 50
90.0
100
AcDbRotatedDimension
1001
ACAD
1000
DSTYLE
1002
{
1070
   287
1070
     4
1070
   271
1070
     2
1070
    40
1040
1.0
1070
   279
1070
     1
1070
   340
1005
10
1002
}
  0
DIMENSION
  5
1471D
330
1A
100
AcDbEntity
  8
SUNPOU
  6
BYBLOCK
100
AcDbDimension
  2
*D8
 10
-1616.962362857632
 20
1657.499999999999
 30
0.0
 11
-1616.962362857633
 21
1651.168411592265
 31
0.0
 70
   160
  3
標準スタイル
100
AcDbAlignedDimension
 13
-1598.997421345615
 23
1645.0
 33
0.0
 14
-1597.428742333572
 24
1657.499999999999
 34
0.0
 50
90.0
100
AcDbRotatedDimension
1001
ACAD
1000
DSTYLE
1002
{
1070
   271
1070
     2
1070
   340
1005
10
1070
    40
1040
1.0
1002
}
  0
DIMENSION
  5
1479C
330
1A
100
AcDbEntity
  8
SUNPOU
100
AcDbDimension
  2
*D9
 10
-1587.997421345615
 20
1697.666887082847
 30
0.0
 11
-1594.418070316948
 21
1697.666887082847
 31
0.0
 70
   160
  3
標準スタイル
100
AcDbAlignedDimension
 13
-1599.997421345615
 23
1688.0
 33
0.0
 14
-1587.997421345615
 24
1654.993773088895
 34
0.0
100
AcDbRotatedDimension
1001
ACAD
1000
DSTYLE
1002
{
1070
   271
1070
     2
1070
   340
1005
10
1070
    40
1040
1.0
1002
}
  0
LINE
  5
1499F
330
1A
100
AcDbEntity
  8
ZISSEN1
100
AcDbLine
 10
-1472.997421345615
 20
1600.0
 30
0.0
 11
-1599.997421345615
 21
1600.0
 31
0.0
  0
LINE
  5
149A0
330
1A
100
AcDbEntity
  8
ZISSEN1
100
AcDbLine
 10
-1472.997421345615
 20
1603.0
 30
0.0
 11
-1599.997421345615
 21
1603.0
 31
0.0
  0
LINE
  5
149A1
330
1A
100
AcDbEntity
  8
ZISSEN1
100
AcDbLine
 10
-1520.247421345615
 20
1597.5
 30
0.0
 11
-1555.747421345615
 21
1597.5
 31
0.0
  0
LINE
  5
149A2
330
1A
100
AcDbEntity
  8
ZISSEN1
100
AcDbLine
 10
-1520.997421345615
 20
1600.0
 30
0.0
 11
-1597.997421345615
 21
1600.0
 31
0.0
  0
LINE
  5
149A3
330
1A
100
AcDbEntity
  8
ZISSEN1
100
AcDbLine
 10
-1555.747421345615
 20
1592.0
 30
0.0
 11
-1573.247421345615
 21
1592.0
 31
0.0
  0
LINE
  5
149A4
330
1A
100
AcDbEntity
  8
CL1
  6
BYBLOCK
100
AcDbLine
 10
-1587.997421345615
 20
1604.173860154007
 30
0.0
 11
-1587.997421345615
 21
1598.671585042256
 31
0.0
  0
LINE
  5
149A5
330
1A
100
AcDbEntity
  8
CL1
  6
BYBLOCK
100
AcDbLine
 10
-1595.497421345615
 20
1604.173860154007
 30
0.0
 11
-1595.497421345615
 21
1598.671585042256
 31
0.0
  0
LINE
  5
149A6
330
1A
100
AcDbEntity
  8
ZISSEN1
100
AcDbLine
 10
-1599.997421345615
 20
1600.0
 30
0.0
 11
-1599.997421345615
 21
1603.0
 31
0.0
  0
LINE
  5
149A7
330
1A
100
AcDbEntity
  8
ZISSEN1
100
AcDbLine
 10
-1598.997421345615
 20
1603.0
 30
0.0
 11
-1598.997421345615
 21
1600.0
 31
0.0
  0
LINE
  5
149A8
330
1A
100
AcDbEntity
  8
CL1
  6
BYBLOCK
100
AcDbLine
 10
-1595.497421345615
 20
1605.0
 30
0.0
 11
-1595.497421345615
 21
1599.0
 31
0.0
  0
LINE
  5
149A9
330
1A
100
AcDbEntity
  8
CL1
  6
BYBLOCK
100
AcDbLine
 10
-1587.997421345615
 20
1605.0
 30
0.0
 11
-1587.997421345615
 21
1599.0
 31
0.0
  0
LINE
  5
149AA
330
1A
100
AcDbEntity
  8
ZISSEN1
100
AcDbLine
 10
-1573.247421345615
 20
1593.5
 30
0.0
 11
-1578.247421345615
 21
1593.5
 31
0.0
  0
LINE
  5
149AB
330
1A
100
AcDbEntity
  8
ZISSEN1
100
AcDbLine
 10
-1573.247421345615
 20
1597.5
 30
0.0
 11
-1578.247421345615
 21
1597.5
 31
0.0
  0
LINE
  5
149AC
330
1A
100
AcDbEntity
  8
ZISSEN1
100
AcDbLine
 10
-1578.747421345615
 20
1597.0
 30
0.0
 11
-1578.747421345615
 21
1594.0
 31
0.0
  0
ARC
  5
149AD
330
1A
100
AcDbEntity
  8
ZISSEN1
100
AcDbCircle
 10
-1578.247421345615
 20
1594.0
 30
0.0
 40
0.5
100
AcDbArc
 50
180.0
 51
270.0
  0
ARC
  5
149AE
330
1A
100
AcDbEntity
  8
ZISSEN1
100
AcDbCircle
 10
-1578.247421345615
 20
1597.0
 30
0.0
 40
0.5
100
AcDbArc
 50
90.0
 51
180.0
  0
LINE
  5
149AF
330
1A
100
AcDbEntity
  8
ZISSEN1
100
AcDbLine
 10
-1573.247421345615
 20
1600.0
 30
0.0
 11
-1573.247421345615
 21
1592.0
 31
0.0
  0
LINE
  5
149C9
330
1A
100
AcDbEntity
  8
ZISSEN1
100
AcDbLine
 10
-1552.959608345612
 20
1595.823177999998
 30
0.0
 11
-1555.747421345615
 21
1593.5
 31
0.0
  0
LINE
  5
149CA
330
1A
100
AcDbEntity
  8
ZISSEN1
100
AcDbLine
 10
-1555.747421345615
 20
1597.5
 30
0.0
 11
-1555.747421345615
 21
1592.0
 31
0.0
  0
LINE
  5
149CB
330
1A
100
AcDbEntity
  8
ZISSEN1
100
AcDbLine
 10
-1553.023626345613
 20
1596.0
 30
0.0
 11
-1554.247421345615
 21
1596.0
 31
0.0
  0
ARC
  5
149CC
330
1A
100
AcDbEntity
  8
ZISSEN1
100
AcDbCircle
 10
-1553.023626345613
 20
1595.899999999999
 30
0.0
 40
0.1
100
AcDbArc
 50
309.805571000021
 51
90.0
  0
LINE
  5
149CD
330
1A
100
AcDbEntity
  8
ZISSEN1
100
AcDbLine
 10
-1554.247421345615
 20
1597.5
 30
0.0
 11
-1554.247421345615
 21
1596.0
 31
0.0
  0
LINE
  5
149CF
330
1A
100
AcDbEntity
  8
ZISSEN1
100
AcDbLine
 10
-1496.247421345615
 20
1592.0
 30
0.0
 11
-1520.247421345615
 21
1592.0
 31
0.0
  0
LINE
  5
149D0
330
1A
100
AcDbEntity
  8
ZISSEN1
100
AcDbLine
 10
-1520.247421345615
 20
1592.0
 30
0.0
 11
-1520.247421345615
 21
1597.5
 31
0.0
  0
LINE
  5
149D1
330
1A
100
AcDbEntity
  8
ZISSEN1
100
AcDbLine
 10
-1521.747421345615
 20
1596.0
 30
0.0
 11
-1522.247421345615
 21
1595.5
 31
0.0
  0
LINE
  5
149D2
330
1A
100
AcDbEntity
  8
ZISSEN1
100
AcDbLine
 10
-1522.247421345615
 20
1595.0
 30
0.0
 11
-1520.247421345615
 21
1592.0
 31
0.0
  0
LINE
  5
149D3
330
1A
100
AcDbEntity
  8
ZISSEN1
100
AcDbLine
 10
-1522.247421345615
 20
1595.5
 30
0.0
 11
-1522.247421345615
 21
1595.0
 31
0.0
  0
LINE
  5
149D4
330
1A
100
AcDbEntity
  8
ZISSEN1
100
AcDbLine
 10
-1520.247421345615
 20
1596.0
 30
0.0
 11
-1521.747421345615
 21
1596.0
 31
0.0
  0
LINE
  5
149D5
330
1A
100
AcDbEntity
  8
CL1
  6
BYBLOCK
100
AcDbLine
 10
-1486.997421345615
 20
1604.173860154007
 30
0.0
 11
-1486.997421345615
 21
1599.0
 31
0.0
  0
LINE
  5
149D6
330
1A
100
AcDbEntity
  8
ZISSEN1
100
AcDbLine
 10
-1496.247421345615
 20
1600.0
 30
0.0
 11
-1496.247421345615
 21
1592.0
 31
0.0
  0
LINE
  5
149D7
330
1A
100
AcDbEntity
  8
CL1
  6
BYBLOCK
100
AcDbLine
 10
-1486.997421345615
 20
1605.0
 30
0.0
 11
-1486.997421345615
 21
1599.0
 31
0.0
  0
LINE
  5
149D8
330
1A
100
AcDbEntity
  8
CL1
  6
BYBLOCK
100
AcDbLine
 10
-1477.497421345615
 20
1604.173860154007
 30
0.0
 11
-1477.497421345614
 21
1598.671585042256
 31
0.0
  0
LINE
  5
149D9
330
1A
100
AcDbEntity
  8
CL1
  6
BYBLOCK
100
AcDbLine
 10
-1479.497421345614
 20
1604.173860154007
 30
0.0
 11
-1479.497421345615
 21
1598.671585042256
 31
0.0
  0
LINE
  5
149DA
330
1A
100
AcDbEntity
  8
CL1
  6
BYBLOCK
100
AcDbLine
 10
-1477.497421345615
 20
1605.0
 30
0.0
 11
-1477.497421345615
 21
1599.0
 31
0.0
  0
LINE
  5
149DB
330
1A
100
AcDbEntity
  8
CL1
  6
BYBLOCK
100
AcDbLine
 10
-1479.497421345615
 20
1605.0
 30
0.0
 11
-1479.497421345615
 21
1599.0
 31
0.0
  0
LINE
  5
149DC
330
1A
100
AcDbEntity
  8
ZISSEN1
100
AcDbLine
 10
-1472.997421345615
 20
1603.0
 30
0.0
 11
-1472.997421345615
 21
1600.0
 31
0.0
  0
LINE
  5
149DD
330
1A
100
AcDbEntity
  8
ZISSEN1
100
AcDbLine
 10
-1473.997421345615
 20
1600.0
 30
0.0
 11
-1473.997421345615
 21
1603.0
 31
0.0
  0
LINE
  5
14AB6
330
1A
100
AcDbEntity
  8
ZISSEN1
100
AcDbLine
 10
-1473.997421345615
 20
1645.0
 30
0.0
 11
-1598.997421345615
 21
1645.0
 31
0.0
  0
LINE
  5
14AB7
330
1A
100
AcDbEntity
  8
ZISSEN1
100
AcDbLine
 10
-1598.997421345615
 20
1689.0
 30
0.0
 11
-1473.997421345615
 21
1689.0
 31
0.0
  0
CIRCLE
  5
14AB8
330
1A
100
AcDbEntity
  8
SAISEN
100
AcDbCircle
 10
-1595.497421345615
 20
1651.500000000003
 30
0.0
 40
1.5
  0
LINE
  5
14AB9
330
1A
100
AcDbEntity
  8
CL1
100
AcDbLine
 10
-1595.497421345615
 20
1653.493773088895
 30
0.0
 11
-1595.497421345615
 21
1649.506226911104
 31
0.0
  0
LINE
  5
14ABA
330
1A
100
AcDbEntity
  8
ZISSEN1
100
AcDbLine
 10
-1599.997421345615
 20
1646.0
 30
0.0
 11
-1599.997421345615
 21
1688.0
 31
0.0
  0
LINE
  5
14ABB
330
1A
100
AcDbEntity
  8
ZISSEN1
100
AcDbLine
 10
-1598.997421345615
 20
1645.0
 30
0.0
 11
-1599.997421345615
 21
1646.0
 31
0.0
  0
LINE
  5
14ABC
330
1A
100
AcDbEntity
  8
ZISSEN1
100
AcDbLine
 10
-1599.997421345615
 20
1688.0
 30
0.0
 11
-1598.997421345615
 21
1689.0
 31
0.0
  0
LINE
  5
14ABD
330
1A
100
AcDbEntity
  8
ZISSEN1
100
AcDbLine
 10
-1581.247421345615
 20
1670.500000000002
 30
0.0
 11
-1573.247421345615
 21
1670.500000000002
 31
0.0
  0
LINE
  5
14ABE
330
1A
100
AcDbEntity
  8
ZISSEN1
100
AcDbLine
 10
-1573.247421345615
 20
1662.500000000001
 30
0.0
 11
-1581.247421345615
 21
1662.500000000001
 31
0.0
  0
ARC
  5
14ABF
330
1A
100
AcDbEntity
  8
ZISSEN1
100
AcDbCircle
 10
-1576.247421345615
 20
1666.500000000001
 30
0.0
 40
2.0
100
AcDbArc
 50
90.0
 51
270.0
  0
LINE
  5
14AC0
330
1A
100
AcDbEntity
  8
ZISSEN1
100
AcDbLine
 10
-1578.747421345615
 20
1670.500000000002
 30
0.0
 11
-1578.747421345615
 21
1662.500000000001
 31
0.0
  0
LINE
  5
14AC1
330
1A
100
AcDbEntity
  8
ZISSEN1
100
AcDbLine
 10
-1581.247421345615
 20
1662.500000000001
 30
0.0
 11
-1581.247421345615
 21
1670.500000000002
 31
0.0
  0
CIRCLE
  5
14AC2
330
1A
100
AcDbEntity
  8
ZISSEN1
100
AcDbCircle
 10
-1595.497421345615
 20
1657.500000000004
 30
0.0
 40
1.0
  0
CIRCLE
  5
14AC3
330
1A
100
AcDbEntity
  8
ZISSEN1
100
AcDbCircle
 10
-1595.497421345615
 20
1651.500000000003
 30
0.0
 40
1.0
  0
CIRCLE
  5
14AC4
330
1A
100
AcDbEntity
  8
ZISSEN1
100
AcDbCircle
 10
-1587.997421345615
 20
1653.000000000003
 30
0.0
 40
1.0
  0
CIRCLE
  5
14AC5
330
1A
100
AcDbEntity
  8
SAISEN
100
AcDbCircle
 10
-1595.497421345615
 20
1657.500000000004
 30
0.0
 40
1.5
  0
CIRCLE
  5
14AC6
330
1A
100
AcDbEntity
  8
SAISEN
100
AcDbCircle
 10
-1587.997421345615
 20
1653.000000000003
 30
0.0
 40
1.5
  0
LINE
  5
14AC7
330
1A
100
AcDbEntity
  8
CL1
100
AcDbLine
 10
-1595.497421345615
 20
1659.493773088895
 30
0.0
 11
-1595.497421345615
 21
1655.506226911105
 31
0.0
  0
LINE
  5
14AC8
330
1A
100
AcDbEntity
  8
CL1
100
AcDbLine
 10
-1597.428742333572
 20
1657.499999999999
 30
0.0
 11
-1593.566100357658
 21
1657.499999999999
 31
0.0
  0
LINE
  5
14AC9
330
1A
100
AcDbEntity
  8
CL1
100
AcDbLine
 10
-1597.428742333572
 20
1651.5
 30
0.0
 11
-1593.566100357658
 21
1651.5
 31
0.0
  0
LINE
  5
14ACA
330
1A
100
AcDbEntity
  8
CL1
100
AcDbLine
 10
-1589.928742333572
 20
1653.0
 30
0.0
 11
-1586.066100357657
 21
1653.0
 31
0.0
  0
LINE
  5
14ACB
330
1A
100
AcDbEntity
  8
CL1
100
AcDbLine
 10
-1587.997421345615
 20
1654.993773088895
 30
0.0
 11
-1587.997421345615
 21
1651.006226911104
 31
0.0
  0
CIRCLE
  5
14ACC
330
1A
100
AcDbEntity
  8
ZISSEN1
100
AcDbCircle
 10
-1569.747421345615
 20
1679.000000000001
 30
0.0
 40
1.5
  0
LINE
  5
14ACD
330
1A
100
AcDbEntity
  8
ZISSEN1
100
AcDbLine
 10
-1574.247421345615
 20
1670.500000000002
 30
0.0
 11
-1576.247421345615
 21
1670.500000000002
 31
0.0
  0
LINE
  5
14ACE
330
1A
100
AcDbEntity
  8
ZISSEN1
100
AcDbLine
 10
-1574.247421345615
 20
1662.500000000001
 30
0.0
 11
-1576.247421345615
 21
1662.500000000001
 31
0.0
  0
LINE
  5
14ACF
330
1A
100
AcDbEntity
  8
ZISSEN1
100
AcDbLine
 10
-1576.247421345615
 20
1670.500000000002
 30
0.0
 11
-1576.247421345615
 21
1668.500000000002
 31
0.0
  0
LINE
  5
14AD0
330
1A
100
AcDbEntity
  8
ZISSEN1
100
AcDbLine
 10
-1576.247421345615
 20
1664.500000000001
 30
0.0
 11
-1576.247421345615
 21
1662.500000000001
 31
0.0
  0
CIRCLE
  5
14AD1
330
1A
100
AcDbEntity
  8
ZISSEN1
100
AcDbCircle
 10
-1569.747421345615
 20
1654.0
 30
0.0
 40
1.5
  0
LINE
  5
14AD2
330
1A
100
AcDbEntity
  8
ZISSEN1
100
AcDbLine
 10
-1574.247421345615
 20
1670.500000000002
 30
0.0
 11
-1574.247421345615
 21
1662.500000000001
 31
0.0
  0
LINE
  5
14AD3
330
1A
100
AcDbEntity
  8
ZISSEN1
100
AcDbLine
 10
-1573.247421345615
 20
1670.500000000002
 30
0.0
 11
-1573.247421345615
 21
1662.500000000001
 31
0.0
  0
CIRCLE
  5
14AD4
330
1A
100
AcDbEntity
  8
SAISEN
100
AcDbCircle
 10
-1479.497421345615
 20
1651.500000000007
 30
0.0
 40
1.5
  0
LINE
  5
14AD5
330
1A
100
AcDbEntity
  8
CL1
100
AcDbLine
 10
-1479.497421345615
 20
1653.493773088898
 30
0.0
 11
-1479.497421345615
 21
1649.506226911108
 31
0.0
  0
LINE
  5
14AD6
330
1A
100
AcDbEntity
  8
ZISSEN1
100
AcDbLine
 10
-1472.997421345615
 20
1688.0
 30
0.0
 11
-1472.997421345615
 21
1646.0
 31
0.0
  0
LINE
  5
14AD7
330
1A
100
AcDbEntity
  8
ZISSEN1
100
AcDbLine
 10
-1472.997421345615
 20
1646.0
 30
0.0
 11
-1473.997421345615
 21
1645.0
 31
0.0
  0
CIRCLE
  5
14AD8
330
1A
100
AcDbEntity
  8
ZISSEN1
100
AcDbCircle
 10
-1477.497421345615
 20
1683.000000000003
 30
0.0
 40
1.0
  0
CIRCLE
  5
14AD9
330
1A
100
AcDbEntity
  8
SAISEN
100
AcDbCircle
 10
-1477.497421345615
 20
1683.000000000003
 30
0.0
 40
1.5
  0
LINE
  5
14ADA
330
1A
100
AcDbEntity
  8
CL1
100
AcDbLine
 10
-1479.428742333572
 20
1683.0
 30
0.0
 11
-1475.566100357657
 21
1683.0
 31
0.0
  0
LINE
  5
14ADB
330
1A
100
AcDbEntity
  8
CL1
100
AcDbLine
 10
-1481.428742333572
 20
1657.499999999999
 30
0.0
 11
-1477.566100357657
 21
1657.499999999999
 31
0.0
  0
LINE
  5
14ADC
330
1A
100
AcDbEntity
  8
CL1
100
AcDbLine
 10
-1481.428742333572
 20
1651.500000000003
 30
0.0
 11
-1477.566100357657
 21
1651.500000000003
 31
0.0
  0
CIRCLE
  5
14ADD
330
1A
100
AcDbEntity
  8
ZISSEN1
100
AcDbCircle
 10
-1499.747421345615
 20
1679.000000000001
 30
0.0
 40
1.5
  0
CIRCLE
  5
14ADE
330
1A
100
AcDbEntity
  8
ZISSEN1
100
AcDbCircle
 10
-1499.747421345615
 20
1654.0
 30
0.0
 40
1.5
  0
CIRCLE
  5
14ADF
330
1A
100
AcDbEntity
  8
ZISSEN1
100
AcDbCircle
 10
-1479.497421345615
 20
1657.500000000004
 30
0.0
 40
1.0
  0
CIRCLE
  5
14AE0
330
1A
100
AcDbEntity
  8
ZISSEN1
100
AcDbCircle
 10
-1479.497421345615
 20
1651.500000000007
 30
0.0
 40
1.0
  0
CIRCLE
  5
14AE1
330
1A
100
AcDbEntity
  8
SAISEN
100
AcDbCircle
 10
-1479.497421345615
 20
1657.500000000004
 30
0.0
 40
1.5
  0
LINE
  5
14AE2
330
1A
100
AcDbEntity
  8
CL1
100
AcDbLine
 10
-1479.497421345615
 20
1659.493773088895
 30
0.0
 11
-1479.497421345615
 21
1655.506226911105
 31
0.0
  0
CIRCLE
  5
14AE3
330
1A
100
AcDbEntity
  8
ZISSEN1
100
AcDbCircle
 10
-1486.997421345615
 20
1653.000000000003
 30
0.0
 40
1.0
  0
CIRCLE
  5
14AE4
330
1A
100
AcDbEntity
  8
SAISEN
100
AcDbCircle
 10
-1486.997421345615
 20
1653.000000000003
 30
0.0
 40
1.5
  0
LINE
  5
14AE5
330
1A
100
AcDbEntity
  8
CL1
100
AcDbLine
 10
-1488.928742333572
 20
1653.0
 30
0.0
 11
-1485.066100357657
 21
1653.0
 31
0.0
  0
LINE
  5
14AE6
330
1A
100
AcDbEntity
  8
CL1
100
AcDbLine
 10
-1486.997421345615
 20
1654.993773088895
 30
0.0
 11
-1486.997421345615
 21
1651.006226911104
 31
0.0
  0
LINE
  5
14AE7
330
1A
100
AcDbEntity
  8
CL1
100
AcDbLine
 10
-1477.497421345615
 20
1684.993773088895
 30
0.0
 11
-1477.497421345615
 21
1681.006226911105
 31
0.0
  0
LINE
  5
14AE8
330
1A
100
AcDbEntity
  8
ZISSEN1
100
AcDbLine
 10
-1473.997421345615
 20
1689.0
 30
0.0
 11
-1472.997421345615
 21
1688.0
 31
0.0
  0
DIMENSION
  5
14C06
330
1A
100
AcDbEntity
  8
SUNPOU
100
AcDbDimension
  2
*D10
 10
-1486.997421345615
 20
1697.672747517501
 30
0.0
 11
-1537.497421345615
 21
1700.422747517501
 31
0.0
 70
    32
  3
標準スタイル
100
AcDbAlignedDimension
 13
-1587.997421345615
 23
1655.493773088895
 33
0.0
 14
-1486.997421345615
 24
1653.000000000003
 34
0.0
100
AcDbRotatedDimension
1001
ACAD
1000
DSTYLE
1002
{
1070
   271
1070
     2
1070
   340
1005
10
1070
    40
1040
1.0
1002
}
  0
VIEWPORT
  5
5D8F
330
5D8E
100
AcDbEntity
 67
     1
  8
0
100
AcDbViewport
 10
242.3337128426484
 20
165.4038090680566
 30
0.0
 40
574.0693310315251
 41
329.7061291592823
 68
     1
 69
     1
1001
ACAD
1000
MVIEW
1002
{
1070
    16
1010
0.0
1020
0.0
1030
0.0
1010
0.0
1020
0.0
1030
1.0
1040
0.0
1040
329.7061291592823
1040
242.3337128426484
1040
165.4038090680566
1040
50.0
1040
0.0
1040
0.0
1070
     0
1070
   100
1070
     1
1070
     0
1070
     0
1070
     0
1070
     0
1070
     0
1040
0.0
1040
0.0
1040
0.0
1040
1.0
1040
1.0
1040
10.0
1040
10.0
1070
     0
1002
{
1002
}
1002
}
  0
VIEWPORT
  5
6001
330
5D8E
100
AcDbEntity
 67
     1
  8
ZISSEN1
100
AcDbViewport
 10
221.7861955525412
 20
157.6960273330388
 30
0.0
 40
385.4999999999997
 41
259.9999999999999
 68
     2
 69
     2
1001
ACAD
1000
MVIEW
1002
{
1070
    16
1010
0.0
1020
0.0
1030
0.0
1010
0.0
1020
0.0
1030
1.0
1040
0.0
1040
259.9999999999999
1040
-1519.616748964986
1040
1654.788642913781
1040
50.0
1040
0.0
1040
0.0
1070
     0
1070
   100
1070
     1
1070
     0
1070
     0
1070
     0
1070
     0
1070
     0
1040
0.0
1040
0.0
1040
0.0
1040
1.0
1040
1.0
1040
10.0
1040
10.0
1070
     0
1002
{
1002
}
1002
}
  0
TEXT
  5
716F
330
5D8E
100
AcDbEntity
 67
     1
  8
SUNPOU
 62
     0
100
AcDbText
 10
329.2365168140136
 20
87.82228085997985
 30
0.0
 40
3.5
  1
縮尺 1/1
  7
ゴシック体
100
AcDbText
  0
ENDSEC
  0
SECTION
  2
OBJECTS
  0
DICTIONARY
  5
C
330
0
100
AcDbDictionary
  3
ACAD_GROUP
350
D
  3
ACAD_LAYOUT
350
5C7D
  3
ACAD_MLINESTYLE
350
E
  3
ACAD_PLOTSETTINGS
350
5C7E
  3
ACAD_PLOTSTYLENAME
350
5C7B
  3
DWGPROPS
350
5E8E
  3
ACDBHEADERROUNDTRIPXREC
350
14ED5
  0
DICTIONARY
  5
130FA
330
2
100
AcDbDictionary
280
     1
  3
ACAD_LAYERFILTERS
360
130FB
  0
DICTIONARY
  5
14EF5
330
1A
100
AcDbDictionary
280
     1
  3
ACAD_LAYOUTSELFREF
360
14EF6
  0
DICTIONARY
  5
14EF7
330
5D8E
100
AcDbDictionary
280
     1
  3
ACAD_LAYOUTSELFREF
360
14EF8
  0
DICTIONARY
  5
D
102
{ACAD_REACTORS
330
C
102
}
330
C
100
AcDbDictionary
  3
*A1
350
477D
  3
*A2
350
14A12
  3
*A3
350
4C12
  3
*A4
350
4C13
  3
*A5
350
4C14
  3
*A6
350
4C15
  3
*A7
350
4C16
  3
*A8
350
4C17
  3
*A9
350
14917
  3
*A10
350
477E
  3
*A11
350
477F
  3
*A12
350
4780
  3
*A13
350
4781
  3
*A14
350
4C0E
  3
*A15
350
4C0F
  3
*A16
350
4C10
  3
*A17
350
4C11
  0
DICTIONARY
  5
5C7D
102
{ACAD_REACTORS
330
C
102
}
330
C
100
AcDbDictionary
  0
DICTIONARY
  5
E
102
{ACAD_REACTORS
330
C
102
}
330
C
100
AcDbDictionary
  3
STANDARD
350
13
  0
DICTIONARY
  5
5C7E
102
{ACAD_REACTORS
330
C
102
}
330
C
100
AcDbDictionary
  0
ACDBDICTIONARYWDFLT
  5
5C7B
102
{ACAD_REACTORS
330
C
102
}
330
C
100
AcDbDictionary
281
     1
  3
Normal
350
5C7C
100
AcDbDictionaryWithDefault
340
5C7C
  0
XRECORD
  5
5E8E
102
{ACAD_REACTORS
330
C
102
}
330
C
100
AcDbXrecord
  1
DWGPROPS COOKIE
  2

  3

  4

  6

  7

  8

  9

300
=
301
=
302
=
303
=
304
=
305
=
306
=
307
=
308
=
309
=
 40
0.586753587962963
 41
2450495.493631365
 42
2453208.662277431
  1

 90
        0
  0
DICTIONARY
  5
14ED5
102
{ACAD_REACTORS
330
C
102
}
330
C
100
AcDbDictionary
  3
TSTACKALIGN
350
14ED6
  3
TSTACKSIZE
350
14ED7
  3
HYPERLINKBASE
350
14ED8
  3
STYLESHEET
350
14ED9
  3
LAYOUTDICT
350
14EDA
  3
PLOTSETDICT
350
14EDB
  3
PLOTSTYLNAMDICT
350
14EDC
  3
LWETCUNION
350
14EDD
  3
INSUNITS
350
14EDE
  3
CEPSNTYPE
350
14EDF
  3
FINGERPRINTGUID
350
14EE0
  3
VERSIONGUID
350
14EE1
  3
PSVPSCALE
350
14EE2
  3
PUCSORTHOREF
350
14EE3
  3
PUCSORTHOVIEW
350
14EE4
  3
PUCSBASE
350
14EE5
  3
PUCSORGTOP
350
14EE6
  3
PUCSORGBOTTOM
350
14EE7
  3
PUCSORGLEFT
350
14EE8
  3
PUCSORGRIGHT
350
14EE9
  3
PUCSORGFRONT
350
14EEA
  3
PUCSORGBACK
350
14EEB
  3
UCSORTHOREF
350
14EEC
  3
UCSORTHOVIEW
350
14EED
  3
UCSBASE
350
14EEE
  3
UCSORGTOP
350
14EEF
  3
UCSORGBOTTOM
350
14EF0
  3
UCSORGLEFT
350
14EF1
  3
UCSORGRIGHT
350
14EF2
  3
UCSORGFRONT
350
14EF3
  3
UCSORGBACK
350
14EF4
  0
DICTIONARY
  5
130FB
102
{ACAD_REACTORS
330
130FA
102
}
330
130FA
100
AcDbDictionary
280
     1
  3
BASE
360
130FC
  3
CASE
360
130FD
  3
KIKOU
360
130FE
  0
XRECORD
  5
14EF6
102
{ACAD_REACTORS
330
14EF5
102
}
330
14EF5
100
AcDbXrecord
340
1A
  0
XRECORD
  5
14EF8
102
{ACAD_REACTORS
330
14EF7
102
}
330
14EF7
100
AcDbXrecord
340
5D8E
  0
GROUP
  5
477D
102
{ACAD_REACTORS
330
D
102
}
330
D
100
AcDbGroup
300

 70
     1
 71
     1
  0
GROUP
  5
14A12
102
{ACAD_REACTORS
330
D
102
}
330
D
100
AcDbGroup
300

 70
     1
 71
     1
  0
GROUP
  5
4C12
102
{ACAD_REACTORS
330
D
102
}
330
D
100
AcDbGroup
300

 70
     1
 71
     1
  0
GROUP
  5
4C13
102
{ACAD_REACTORS
330
D
102
}
330
D
100
AcDbGroup
300

 70
     1
 71
     1
  0
GROUP
  5
4C14
102
{ACAD_REACTORS
330
D
102
}
330
D
100
AcDbGroup
300

 70
     1
 71
     1
  0
GROUP
  5
4C15
102
{ACAD_REACTORS
330
D
102
}
330
D
100
AcDbGroup
300

 70
     1
 71
     1
  0
GROUP
  5
4C16
102
{ACAD_REACTORS
330
D
102
}
330
D
100
AcDbGroup
300

 70
     1
 71
     1
  0
GROUP
  5
4C17
102
{ACAD_REACTORS
330
D
102
}
330
D
100
AcDbGroup
300

 70
     1
 71
     1
  0
GROUP
  5
14917
102
{ACAD_REACTORS
330
D
102
}
330
D
100
AcDbGroup
300

 70
     1
 71
     1
  0
GROUP
  5
477E
102
{ACAD_REACTORS
330
D
102
}
330
D
100
AcDbGroup
300

 70
     1
 71
     1
  0
GROUP
  5
477F
102
{ACAD_REACTORS
330
D
102
}
330
D
100
AcDbGroup
300

 70
     1
 71
     1
  0
GROUP
  5
4780
102
{ACAD_REACTORS
330
D
102
}
330
D
100
AcDbGroup
300

 70
     1
 71
     1
  0
GROUP
  5
4781
102
{ACAD_REACTORS
330
D
102
}
330
D
100
AcDbGroup
300

 70
     1
 71
     1
  0
GROUP
  5
4C0E
102
{ACAD_REACTORS
330
D
102
}
330
D
100
AcDbGroup
300

 70
     1
 71
     1
  0
GROUP
  5
4C0F
102
{ACAD_REACTORS
330
D
102
}
330
D
100
AcDbGroup
300

 70
     1
 71
     1
  0
GROUP
  5
4C10
102
{ACAD_REACTORS
330
D
102
}
330
D
100
AcDbGroup
300

 70
     1
 71
     1
  0
GROUP
  5
4C11
102
{ACAD_REACTORS
330
D
102
}
330
D
100
AcDbGroup
300

 70
     1
 71
     1
  0
MLINESTYLE
  5
13
102
{ACAD_REACTORS
330
E
102
}
330
E
100
AcDbMlineStyle
  2
STANDARD
 70
     0
  3

 62
     0
 51
90.0
 52
90.0
 71
     2
 49
0.5
 62
   256
  6
BYLAYER
 49
-0.5
 62
   256
  6
BYLAYER
  0
ACDBPLACEHOLDER
  5
5C7C
102
{ACAD_REACTORS
330
5C7B
102
}
330
5C7B
100
AcDbPlaceHolder
280
     0
  0
XRECORD
  5
14ED6
102
{ACAD_REACTORS
330
14ED5
102
}
330
14ED5
100
AcDbXrecord
 90
        1
  0
XRECORD
  5
14ED7
102
{ACAD_REACTORS
330
14ED5
102
}
330
14ED5
100
AcDbXrecord
 90
       70
  0
XRECORD
  5
14ED8
102
{ACAD_REACTORS
330
14ED5
102
}
330
14ED5
100
AcDbXrecord
  1

  0
XRECORD
  5
14ED9
102
{ACAD_REACTORS
330
14ED5
102
}
330
14ED5
100
AcDbXrecord
  1

  0
XRECORD
  5
14EDA
102
{ACAD_REACTORS
330
14ED5
102
}
330
14ED5
100
AcDbXrecord
340
5C7D
  0
XRECORD
  5
14EDB
102
{ACAD_REACTORS
330
14ED5
102
}
330
14ED5
100
AcDbXrecord
340
5C7E
  0
XRECORD
  5
14EDC
102
{ACAD_REACTORS
330
14ED5
102
}
330
14ED5
100
AcDbXrecord
340
5C7B
  0
XRECORD
  5
14EDD
102
{ACAD_REACTORS
330
14ED5
102
}
330
14ED5
100
AcDbXrecord
 90
    10781
  0
XRECORD
  5
14EDE
102
{ACAD_REACTORS
330
14ED5
102
}
330
14ED5
100
AcDbXrecord
 90
        0
  0
XRECORD
  5
14EDF
102
{ACAD_REACTORS
330
14ED5
102
}
330
14ED5
100
AcDbXrecord
 90
        0
  0
XRECORD
  5
14EE0
102
{ACAD_REACTORS
330
14ED5
102
}
330
14ED5
100
AcDbXrecord
  1
{225A7F0D-DA29-11D8-946A-0000E2416295}
  0
XRECORD
  5
14EE1
102
{ACAD_REACTORS
330
14ED5
102
}
330
14ED5
100
AcDbXrecord
  1
{1819F83F-0722-41CF-A86B-74C5C5F44F37}
  0
XRECORD
  5
14EE2
102
{ACAD_REACTORS
330
14ED5
102
}
330
14ED5
100
AcDbXrecord
 40
0.0
  0
XRECORD
  5
14EE3
102
{ACAD_REACTORS
330
14ED5
102
}
330
14ED5
100
AcDbXrecord
340
0
  0
XRECORD
  5
14EE4
102
{ACAD_REACTORS
330
14ED5
102
}
330
14ED5
100
AcDbXrecord
 70
     0
  0
XRECORD
  5
14EE5
102
{ACAD_REACTORS
330
14ED5
102
}
330
14ED5
100
AcDbXrecord
340
0
  0
XRECORD
  5
14EE6
102
{ACAD_REACTORS
330
14ED5
102
}
330
14ED5
100
AcDbXrecord
 10
0.0
 20
0.0
 30
0.0
  0
XRECORD
  5
14EE7
102
{ACAD_REACTORS
330
14ED5
102
}
330
14ED5
100
AcDbXrecord
 10
0.0
 20
0.0
 30
0.0
  0
XRECORD
  5
14EE8
102
{ACAD_REACTORS
330
14ED5
102
}
330
14ED5
100
AcDbXrecord
 10
0.0
 20
0.0
 30
0.0
  0
XRECORD
  5
14EE9
102
{ACAD_REACTORS
330
14ED5
102
}
330
14ED5
100
AcDbXrecord
 10
0.0
 20
0.0
 30
0.0
  0
XRECORD
  5
14EEA
102
{ACAD_REACTORS
330
14ED5
102
}
330
14ED5
100
AcDbXrecord
 10
0.0
 20
0.0
 30
0.0
  0
XRECORD
  5
14EEB
102
{ACAD_REACTORS
330
14ED5
102
}
330
14ED5
100
AcDbXrecord
 10
0.0
 20
0.0
 30
0.0
  0
XRECORD
  5
14EEC
102
{ACAD_REACTORS
330
14ED5
102
}
330
14ED5
100
AcDbXrecord
340
0
  0
XRECORD
  5
14EED
102
{ACAD_REACTORS
330
14ED5
102
}
330
14ED5
100
AcDbXrecord
 70
     0
  0
XRECORD
  5
14EEE
102
{ACAD_REACTORS
330
14ED5
102
}
330
14ED5
100
AcDbXrecord
340
0
  0
XRECORD
  5
14EEF
102
{ACAD_REACTORS
330
14ED5
102
}
330
14ED5
100
AcDbXrecord
 10
0.0
 20
0.0
 30
0.0
  0
XRECORD
  5
14EF0
102
{ACAD_REACTORS
330
14ED5
102
}
330
14ED5
100
AcDbXrecord
 10
0.0
 20
0.0
 30
0.0
  0
XRECORD
  5
14EF1
102
{ACAD_REACTORS
330
14ED5
102
}
330
14ED5
100
AcDbXrecord
 10
0.0
 20
0.0
 30
0.0
  0
XRECORD
  5
14EF2
102
{ACAD_REACTORS
330
14ED5
102
}
330
14ED5
100
AcDbXrecord
 10
0.0
 20
0.0
 30
0.0
  0
XRECORD
  5
14EF3
102
{ACAD_REACTORS
330
14ED5
102
}
330
14ED5
100
AcDbXrecord
 10
0.0
 20
0.0
 30
0.0
  0
XRECORD
  5
14EF4
102
{ACAD_REACTORS
330
14ED5
102
}
330
14ED5
100
AcDbXrecord
 10
0.0
 20
0.0
 30
0.0
  0
XRECORD
  5
130FC
102
{ACAD_REACTORS
330
130FB
102
}
330
130FB
100
AcDbXrecord
  1
BASE
  1
BASE*
  1
*
  1
*
 70
     0
  1
*
  1
*
  0
XRECORD
  5
130FD
102
{ACAD_REACTORS
330
130FB
102
}
330
130FB
100
AcDbXrecord
  1
CASE
  1
CASE*
  1
*
  1
*
 70
     0
  1
*
  1
*
  0
XRECORD
  5
130FE
102
{ACAD_REACTORS
330
130FB
102
}
330
130FB
100
AcDbXrecord
  1
KIKOU
  1
KIKOU*
  1
*
  1
*
 70
     0
  1
*
  1
*
  0
ENDSEC
  0
EOF
