  0
SECTION
  2
HEADER
  9
$ACADVER
  1
AC1014
  9
$ACADMAINTVER
 70
     9
  9
$DWGCODEPAGE
  3
ANSI_932
  9
$INSBASE
 10
0.0
 20
0.0
 30
0.0
  9
$EXTMIN
 10
-1828.094022491423
 20
1458.764817139832
 30
-0.00000001
  9
$EXTMAX
 10
-1306.399999990001
 20
1745.095368753726
 30
0.00000001
  9
$LIMMIN
 10
0.0
 20
0.0
  9
$LIMMAX
 10
420.0
 20
297.0
  9
$ORTHOMODE
 70
     1
  9
$REGENMODE
 70
     1
  9
$FILLMODE
 70
     1
  9
$QTEXTMODE
 70
     0
  9
$MIRRTEXT
 70
     1
  9
$DRAGMODE
 70
     2
  9
$LTSCALE
 40
1.0
  9
$OSMODE
 70
    37
  9
$ATTMODE
 70
     1
  9
$TEXTSIZE
 40
2.5
  9
$TRACEWID
 40
1.0
  9
$TEXTSTYLE
  7
ゴシック体
  9
$CLAYER
  8
CL1
  9
$CELTYPE
  6
BYLAYER
  9
$CECOLOR
 62
   256
  9
$CELTSCALE
 40
1.0
  9
$DELOBJ
 70
     1
  9
$DISPSILH
 70
     0
  9
$DIMSCALE
 40
0.0
  9
$DIMASZ
 40
3.0
  9
$DIMEXO
 40
0.5
  9
$DIMDLI
 40
0.5
  9
$DIMRND
 40
0.0
  9
$DIMDLE
 40
0.0
  9
$DIMEXE
 40
0.5
  9
$DIMTP
 40
0.0
  9
$DIMTM
 40
0.0
  9
$DIMTXT
 40
3.5
  9
$DIMCEN
 40
0.0
  9
$DIMTSZ
 40
0.0
  9
$DIMTOL
 70
     0
  9
$DIMLIM
 70
     0
  9
$DIMTIH
 70
     0
  9
$DIMTOH
 70
     0
  9
$DIMSE1
 70
     0
  9
$DIMSE2
 70
     0
  9
$DIMTAD
 70
     1
  9
$DIMZIN
 70
     8
  9
$DIMBLK
  1

  9
$DIMASO
 70
     1
  9
$DIMSHO
 70
     1
  9
$DIMPOST
  1

  9
$DIMAPOST
  1

  9
$DIMALT
 70
     0
  9
$DIMALTD
 70
     2
  9
$DIMALTF
 40
25.4
  9
$DIMLFAC
 40
1.0
  9
$DIMTOFL
 70
     1
  9
$DIMTVP
 40
0.0
  9
$DIMTIX
 70
     0
  9
$DIMSOXD
 70
     0
  9
$DIMSAH
 70
     0
  9
$DIMBLK1
  1

  9
$DIMBLK2
  1

  9
$DIMSTYLE
  2
標準スタイル
  9
$DIMCLRD
 70
     1
  9
$DIMCLRE
 70
     1
  9
$DIMCLRT
 70
     1
  9
$DIMTFAC
 40
1.0
  9
$DIMGAP
 40
1.0
  9
$DIMJUST
 70
     0
  9
$DIMSD1
 70
     0
  9
$DIMSD2
 70
     0
  9
$DIMTOLJ
 70
     1
  9
$DIMTZIN
 70
     8
  9
$DIMALTZ
 70
     0
  9
$DIMALTTZ
 70
     0
  9
$DIMFIT
 70
     3
  9
$DIMUPT
 70
     0
  9
$DIMUNIT
 70
     2
  9
$DIMDEC
 70
     2
  9
$DIMTDEC
 70
     2
  9
$DIMALTU
 70
     2
  9
$DIMALTTD
 70
     2
  9
$DIMTXSTY
  7
ゴシック体
  9
$DIMAUNIT
 70
     0
  9
$LUNITS
 70
     2
  9
$LUPREC
 70
     4
  9
$SKETCHINC
 40
1.0
  9
$FILLETRAD
 40
0.0
  9
$AUNITS
 70
     0
  9
$AUPREC
 70
     0
  9
$MENU
  1
.
  9
$ELEVATION
 40
0.0
  9
$PELEVATION
 40
0.0
  9
$THICKNESS
 40
0.0
  9
$LIMCHECK
 70
     0
  9
$BLIPMODE
 70
     0
  9
$CHAMFERA
 40
10.0
  9
$CHAMFERB
 40
10.0
  9
$CHAMFERC
 40
2.0
  9
$CHAMFERD
 40
0.7853981633974483
  9
$SKPOLY
 70
     0
  9
$TDCREATE
 40
2450495.493631365
  9
$TDUPDATE
 40
2455482.779708831
  9
$TDINDWG
 40
1.9755334491
  9
$TDUSRTIMER
 40
1.9755334491
  9
$USRTIMER
 70
     1
  9
$ANGBASE
 50
0.0
  9
$ANGDIR
 70
     0
  9
$PDMODE
 70
    99
  9
$PDSIZE
 40
0.0
  9
$PLINEWID
 40
0.0
  9
$COORDS
 70
     1
  9
$SPLFRAME
 70
     0
  9
$SPLINETYPE
 70
     6
  9
$SPLINESEGS
 70
     8
  9
$ATTDIA
 70
     0
  9
$ATTREQ
 70
     1
  9
$HANDLING
 70
 10241
  9
$HANDSEED
  5
1483F
  9
$SURFTAB1
 70
     6
  9
$SURFTAB2
 70
     6
  9
$SURFTYPE
 70
     6
  9
$SURFU
 70
     6
  9
$SURFV
 70
     6
  9
$UCSNAME
  2

  9
$UCSORG
 10
0.0
 20
0.0
 30
0.0
  9
$UCSXDIR
 10
1.0
 20
0.0
 30
0.0
  9
$UCSYDIR
 10
0.0
 20
1.0
 30
0.0
  9
$PUCSNAME
  2

  9
$PUCSORG
 10
0.0
 20
0.0
 30
0.0
  9
$PUCSXDIR
 10
1.0
 20
0.0
 30
0.0
  9
$PUCSYDIR
 10
0.0
 20
1.0
 30
0.0
  9
$USERI1
 70
     0
  9
$USERI2
 70
     0
  9
$USERI3
 70
     0
  9
$USERI4
 70
     0
  9
$USERI5
 70
     0
  9
$USERR1
 40
0.0
  9
$USERR2
 40
0.0
  9
$USERR3
 40
0.0
  9
$USERR4
 40
0.0
  9
$USERR5
 40
0.0
  9
$WORLDVIEW
 70
     1
  9
$SHADEDGE
 70
     3
  9
$SHADEDIF
 70
    70
  9
$TILEMODE
 70
     0
  9
$MAXACTVP
 70
    16
  9
$PINSBASE
 10
0.0
 20
0.0
 30
0.0
  9
$PLIMCHECK
 70
     0
  9
$PEXTMIN
 10
29.03619555254135
 20
27.69602733303884
 30
0.0
  9
$PEXTMAX
 10
414.5361955525411
 20
287.6960273330388
 30
0.0
  9
$PLIMMIN
 10
11.83213928317586
 20
9.19665609355764
  9
$PLIMMAX
 10
431.7787945566133
 20
306.2073067283232
  9
$UNITMODE
 70
     0
  9
$VISRETAIN
 70
     0
  9
$PLINEGEN
 70
     0
  9
$PSLTSCALE
 70
     1
  9
$TREEDEPTH
 70
  3020
  9
$PICKSTYLE
 70
     1
  9
$CMLSTYLE
  2
STANDARD
  9
$CMLJUST
 70
     0
  9
$CMLSCALE
 40
1.0
  9
$PROXYGRAPHICS
 70
     1
  9
$MEASUREMENT
 70
     1
  0
ENDSEC
  0
SECTION
  2
CLASSES
  0
CLASS
  1
LWPOLYLINE
  2
AcDbPolyline
  3
AutoCAD 2000
 90
        0
280
     0
281
     1
  0
CLASS
  1
HATCH
  2
AcDbHatch
  3
AutoCAD 2000
 90
        0
280
     0
281
     1
  0
CLASS
  1
ACDBDICTIONARYWDFLT
  2
AcDbDictionaryWithDefault
  3
AutoCAD 2000
 90
        0
280
     0
281
     0
  0
CLASS
  1
ACDBPLACEHOLDER
  2
AcDbPlaceHolder
  3
AutoCAD 2000
 90
        0
280
     0
281
     0
  0
CLASS
  1
LAYOUT
  2
AcDbLayout
  3
AutoCAD 2000
 90
        0
280
     0
281
     0
  0
CLASS
  1
LONG_TRANSACTION
  2
AcDbLongTransaction
  3
AutoCAD 2000
 90
        0
280
     0
281
     0
  0
CLASS
  1
LWPOLYLINE
  2
AcDbPolyline
  3
AutoCAD 2000
 90
        0
280
     0
281
     1
  0
CLASS
  1
HATCH
  2
AcDbHatch
  3
AutoCAD 2000
 90
        0
280
     0
281
     1
  0
CLASS
  1
XRECORD
  2
AcDbXrecord
  3
AutoCAD 2000
 90
        0
280
     0
281
     0
  0
ENDSEC
  0
SECTION
  2
TABLES
  0
TABLE
  2
VPORT
  5
8
330
0
100
AcDbSymbolTable
 70
     1
  0
VPORT
  5
14808
330
8
100
AcDbSymbolTableRecord
100
AcDbViewportTableRecord
  2
*ACTIVE
 70
     0
 10
0.0
 20
0.0
 11
1.0
 21
1.0
 12
-1567.2010878412
 22
1601.95633321897
 13
0.0
 23
0.0
 14
5.0
 24
5.0
 15
0.0
 25
0.0
 16
0.0
 26
0.0
 36
1.0
 17
0.0
 27
0.0
 37
0.0
 40
301.6768853041229
 41
1.741154562383612
 42
50.0
 43
0.0
 44
0.0
 50
0.0
 51
0.0
 71
     0
 72
   100
 73
     1
 74
     0
 75
     0
 76
     0
 77
     0
 78
     0
  0
ENDTAB
  0
TABLE
  2
LTYPE
  5
5
330
0
100
AcDbSymbolTable
 70
     4
  0
LTYPE
  5
14
330
5
100
AcDbSymbolTableRecord
100
AcDbLinetypeTableRecord
  2
BYBLOCK
 70
     0
  3

 72
    65
 73
     0
 40
0.0
  0
LTYPE
  5
15
330
5
100
AcDbSymbolTableRecord
100
AcDbLinetypeTableRecord
  2
BYLAYER
 70
     0
  3

 72
    65
 73
     0
 40
0.0
  0
LTYPE
  5
16
330
5
100
AcDbSymbolTableRecord
100
AcDbLinetypeTableRecord
  2
CONTINUOUS
 70
     0
  3
Solid line
 72
    65
 73
     0
 40
0.0
  0
LTYPE
  5
1956
330
5
100
AcDbSymbolTableRecord
100
AcDbLinetypeTableRecord
  2
CENTERX2
 70
     0
  3
________  __  ________  __  ________  __  _____
 72
    65
 73
     4
 40
4.0
 49
2.5
 74
     0
 49
-0.5
 74
     0
 49
0.5
 74
     0
 49
-0.5
 74
     0
  0
LTYPE
  5
1958
330
5
100
AcDbSymbolTableRecord
100
AcDbLinetypeTableRecord
  2
PHANTOMX2
 70
     0
  3
____________    ____    ____    ____________   
 72
    65
 73
     6
 40
5.0
 49
2.5
 74
     0
 49
-0.5
 74
     0
 49
0.5
 74
     0
 49
-0.5
 74
     0
 49
0.5
 74
     0
 49
-0.5
 74
     0
  0
LTYPE
  5
7743
330
5
100
AcDbSymbolTableRecord
100
AcDbLinetypeTableRecord
  2
HIDDEN
 70
     0
  3
__ __ __ __ __ __ __ __ __ __ __ __ __ __ __ __
 72
    65
 73
     2
 40
0.375
 49
0.25
 74
     0
 49
-0.125
 74
     0
  0
ENDTAB
  0
TABLE
  2
LAYER
  5
2
102
{ACAD_XDICTIONARY
360
130FA
102
}
330
0
100
AcDbSymbolTable
 70
     7
  0
LAYER
  5
F
330
2
100
AcDbSymbolTableRecord
100
AcDbLayerTableRecord
  2
0
 70
     0
 62
     7
  6
CONTINUOUS
  0
LAYER
  5
18F
330
2
100
AcDbSymbolTableRecord
100
AcDbLayerTableRecord
  2
ZISSEN1
 70
     0
 62
     7
  6
CONTINUOUS
  0
LAYER
  5
529
330
2
100
AcDbSymbolTableRecord
100
AcDbLayerTableRecord
  2
SUNPOU
 70
     0
 62
     1
  6
CONTINUOUS
  0
LAYER
  5
195A
330
2
100
AcDbSymbolTableRecord
100
AcDbLayerTableRecord
  2
CL1
 70
     0
 62
   210
  6
CENTERX2
  0
LAYER
  5
195C
330
2
100
AcDbSymbolTableRecord
100
AcDbLayerTableRecord
  2
SOUZOUSEN
 70
     0
 62
     5
  6
PHANTOMX2
  0
LAYER
  5
3A9B
330
2
100
AcDbSymbolTableRecord
100
AcDbLayerTableRecord
  2
DEFPOINTS
 70
     0
 62
     7
  6
CONTINUOUS
  0
LAYER
  5
14685
330
2
100
AcDbSymbolTableRecord
100
AcDbLayerTableRecord
  2
SAISEN
 70
     0
 62
     1
  6
CONTINUOUS
  0
ENDTAB
  0
TABLE
  2
STYLE
  5
3
330
0
100
AcDbSymbolTable
 70
     3
  0
STYLE
  5
10
330
3
100
AcDbSymbolTableRecord
100
AcDbTextStyleTableRecord
  2
STANDARD
 70
     0
 40
0.0
 41
1.0
 50
0.0
 71
     0
 42
3.0
  3
txt
  4
BigFont
  0
STYLE
  5
1960
330
3
100
AcDbSymbolTableRecord
100
AcDbTextStyleTableRecord
  2
ゴシック体
 70
     0
 40
0.0
 41
1.0
 50
0.0
 71
     0
 42
2.5
  3
MS Gothic.ttf
  4

1001
ACAD
1000
MS Gothic
1071
    32817
  0
STYLE
  5
131A6
330
3
100
AcDbSymbolTableRecord
100
AcDbTextStyleTableRecord
  2
ｽﾀｲﾙ2
 70
     0
 40
0.0
 41
1.0
 50
0.0
 71
     0
 42
3.0
  3
ARIAL.TTF
  4

1001
ACAD
1000
Arial
1071
       34
  0
ENDTAB
  0
TABLE
  2
VIEW
  5
6
330
0
100
AcDbSymbolTable
 70
     0
  0
ENDTAB
  0
TABLE
  2
UCS
  5
7
330
0
100
AcDbSymbolTable
 70
     0
  0
ENDTAB
  0
TABLE
  2
APPID
  5
9
330
0
100
AcDbSymbolTable
 70
     5
  0
APPID
  5
11
330
9
100
AcDbSymbolTableRecord
100
AcDbRegAppTableRecord
  2
ACAD
 70
     0
  0
APPID
  5
4005
330
9
100
AcDbSymbolTableRecord
100
AcDbRegAppTableRecord
  2
CONTENTTABDATA
 70
     0
  0
APPID
  5
4006
330
9
100
AcDbSymbolTableRecord
100
AcDbRegAppTableRecord
  2
CONTENTCURRENTTAB
 70
     0
  0
APPID
  5
477B
330
9
100
AcDbSymbolTableRecord
100
AcDbRegAppTableRecord
  2
CONTENTBLOCKDESCRIPTION
 70
     0
  0
APPID
  5
477C
330
9
100
AcDbSymbolTableRecord
100
AcDbRegAppTableRecord
  2
CONTENTBLOCKICON
 70
     0
  0
ENDTAB
  0
TABLE
  2
DIMSTYLE
  5
A
330
0
100
AcDbSymbolTable
 70
     3
  0
DIMSTYLE
105
1D
330
A
100
AcDbSymbolTableRecord
100
AcDbDimStyleTableRecord
  2
STANDARD
 70
     0
  3

  4

  5

  6

  7

 40
1.0
 41
0.18
 42
0.0625
 43
0.38
 44
0.18
 45
0.0
 46
0.0
 47
0.0
 48
0.0
140
0.18
141
0.09
142
0.0
143
25.4
144
1.0
145
0.0
146
1.0
147
0.09
 71
     0
 72
     0
 73
     1
 74
     1
 75
     0
 76
     0
 77
     0
 78
     0
170
     0
171
     2
172
     0
173
     0
174
     0
175
     0
176
     0
177
     0
178
     0
270
     2
271
     4
272
     4
273
     2
274
     2
340
10
275
     0
280
     0
281
     0
282
     0
283
     1
284
     0
285
     0
286
     0
287
     3
288
     0
  0
DIMSTYLE
105
52E
102
{ACAD_REACTORS
330
13DD0
330
1413C
330
1410C
330
1460A
102
}
330
A
100
AcDbSymbolTableRecord
100
AcDbDimStyleTableRecord
  2
標準スタイル
 70
     0
  3

  4

  5

  6

  7

 40
0.0
 41
3.0
 42
0.5
 43
0.5
 44
0.5
 45
0.0
 46
0.0
 47
0.0
 48
0.0
140
3.5
141
0.0
142
0.0
143
25.4
144
1.0
145
0.0
146
1.0
147
1.0
 71
     0
 72
     0
 73
     0
 74
     0
 75
     0
 76
     0
 77
     1
 78
     8
170
     0
171
     2
172
     1
173
     0
174
     0
175
     0
176
     1
177
     1
178
     1
270
     2
271
     2
272
     2
273
     2
274
     2
340
1960
275
     0
280
     0
281
     0
282
     0
283
     1
284
     8
285
     0
286
     0
287
     3
288
     0
  0
DIMSTYLE
105
131A7
102
{ACAD_REACTORS
330
13BF9
330
13813
330
138A4
330
1380D
330
1373F
330
1366F
330
13E6C
330
1353D
330
141D8
330
13811
330
142FF
102
}
330
A
100
AcDbSymbolTableRecord
100
AcDbDimStyleTableRecord
  2
ISO-25
 70
     0
  3

  4

  5

  6

  7

 40
1.0
 41
2.5
 42
0.625
 43
3.75
 44
1.25
 45
0.0
 46
0.0
 47
0.0
 48
0.0
140
2.5
141
2.5
142
0.0
143
0.03937007874016
144
1.0
145
0.0
146
1.0
147
0.625
 71
     0
 72
     0
 73
     0
 74
     0
 75
     0
 76
     0
 77
     1
 78
     8
170
     0
171
     3
172
     1
173
     0
174
     0
175
     0
176
     1
177
     1
178
     1
270
     2
271
     2
272
     2
273
     2
274
     3
340
10
275
     0
280
     0
281
     0
282
     0
283
     0
284
     8
285
     0
286
     0
287
     3
288
     0
  0
ENDTAB
  0
TABLE
  2
BLOCK_RECORD
  5
1
330
0
100
AcDbSymbolTable
 70
    15
  0
BLOCK_RECORD
  5
1A
102
{ACAD_XDICTIONARY
360
14830
102
}
330
1
100
AcDbSymbolTableRecord
100
AcDbBlockTableRecord
  2
*MODEL_SPACE
  0
BLOCK_RECORD
  5
5D8E
102
{ACAD_XDICTIONARY
360
14832
102
}
330
1
100
AcDbSymbolTableRecord
100
AcDbBlockTableRecord
  2
*PAPER_SPACE
  0
BLOCK_RECORD
  5
138C0
330
1
100
AcDbSymbolTableRecord
100
AcDbBlockTableRecord
  2
*D0
  0
BLOCK_RECORD
  5
138E4
330
1
100
AcDbSymbolTableRecord
100
AcDbBlockTableRecord
  2
*D1
  0
BLOCK_RECORD
  5
138F0
330
1
100
AcDbSymbolTableRecord
100
AcDbBlockTableRecord
  2
*D2
  0
BLOCK_RECORD
  5
138FC
330
1
100
AcDbSymbolTableRecord
100
AcDbBlockTableRecord
  2
*D3
  0
BLOCK_RECORD
  5
13908
330
1
100
AcDbSymbolTableRecord
100
AcDbBlockTableRecord
  2
*D4
  0
BLOCK_RECORD
  5
13914
330
1
100
AcDbSymbolTableRecord
100
AcDbBlockTableRecord
  2
*D5
  0
BLOCK_RECORD
  5
1392C
330
1
100
AcDbSymbolTableRecord
100
AcDbBlockTableRecord
  2
*D6
  0
BLOCK_RECORD
  5
13BFA
330
1
100
AcDbSymbolTableRecord
100
AcDbBlockTableRecord
  2
*D7
  0
BLOCK_RECORD
  5
13DD1
330
1
100
AcDbSymbolTableRecord
100
AcDbBlockTableRecord
  2
*D8
  0
BLOCK_RECORD
  5
13E6D
330
1
100
AcDbSymbolTableRecord
100
AcDbBlockTableRecord
  2
*D9
  0
BLOCK_RECORD
  5
1410D
330
1
100
AcDbSymbolTableRecord
100
AcDbBlockTableRecord
  2
*D10
  0
BLOCK_RECORD
  5
1413D
330
1
100
AcDbSymbolTableRecord
100
AcDbBlockTableRecord
  2
*D11
  0
BLOCK_RECORD
  5
141D9
330
1
100
AcDbSymbolTableRecord
100
AcDbBlockTableRecord
  2
*D12
  0
BLOCK_RECORD
  5
14300
330
1
100
AcDbSymbolTableRecord
100
AcDbBlockTableRecord
  2
*D13
  0
BLOCK_RECORD
  5
1460B
330
1
100
AcDbSymbolTableRecord
100
AcDbBlockTableRecord
  2
*D14
  0
ENDTAB
  0
ENDSEC
  0
SECTION
  2
BLOCKS
  0
BLOCK
  5
1B
330
1A
100
AcDbEntity
  8
0
100
AcDbBlockBegin
  2
*MODEL_SPACE
 70
     0
 10
0.0
 20
0.0
 30
0.0
  3
*MODEL_SPACE
  1

  0
ENDBLK
  5
1C
330
1A
100
AcDbEntity
  8
0
100
AcDbBlockEnd
  0
BLOCK
  5
5E60
330
5D8E
100
AcDbEntity
 67
     1
  8
0
100
AcDbBlockBegin
  2
*PAPER_SPACE
 70
     0
 10
0.0
 20
0.0
 30
0.0
  3
*PAPER_SPACE
  1

  0
ENDBLK
  5
5E61
330
5D8E
100
AcDbEntity
 67
     1
  8
0
100
AcDbBlockEnd
  0
BLOCK
  5
138CA
330
138C0
100
AcDbEntity
  8
0
100
AcDbBlockBegin
  2
*D0
 70
     1
 10
0.0
 20
0.0
 30
0.0
  3
*D0
  1

  0
LINE
  5
13FA6
330
138C0
100
AcDbEntity
  8
SUNPOU
 62
     1
100
AcDbLine
 10
-1801.0
 20
1624.875
 30
0.0
 11
-1801.0
 21
1612.738337758181
 31
0.0
  0
LINE
  5
13FA7
330
138C0
100
AcDbEntity
  8
SUNPOU
 62
     1
100
AcDbLine
 10
-1673.997421345615
 20
1624.875
 30
0.0
 11
-1673.997421345615
 21
1612.738337758181
 31
0.0
  0
LINE
  5
13FA8
330
138C0
100
AcDbEntity
  8
SUNPOU
 62
     1
100
AcDbLine
 10
-1798.499999999999
 20
1613.988337758181
 30
0.0
 11
-1676.497421345615
 21
1613.988337758181
 31
0.0
  0
SOLID
  5
13FA9
330
138C0
100
AcDbEntity
  8
SUNPOU
 62
     1
100
AcDbTrace
 10
-1798.499999999999
 20
1614.405004424847
 30
0.0
 11
-1798.499999999999
 21
1613.571671091514
 31
0.0
 12
-1801.0
 22
1613.988337758181
 32
0.0
 13
-1801.0
 23
1613.988337758181
 33
0.0
  0
SOLID
  5
13FAA
330
138C0
100
AcDbEntity
  8
SUNPOU
 62
     1
100
AcDbTrace
 10
-1676.497421345615
 20
1614.405004424847
 30
0.0
 11
-1676.497421345615
 21
1613.571671091514
 31
0.0
 12
-1673.997421345615
 22
1613.988337758181
 32
0.0
 13
-1673.997421345615
 23
1613.988337758181
 33
0.0
  0
MTEXT
  5
13FAB
330
138C0
100
AcDbEntity
  8
SUNPOU
 62
     1
100
AcDbMText
 10
-1737.498710672807
 20
1616.363337758181
 30
0.0
 40
3.5
 41
0.0
 71
     5
 72
     1
  1
127
1001
ACAD
1000
MTEXTBEGIN
1070
    73
1070
     1
1070
    44
1040
1.0
1070
    74
1070
     0
1000
MTEXTEND
  0
POINT
  5
13FAC
330
138C0
100
AcDbEntity
  8
DEFPOINTS
 62
     0
100
AcDbPoint
 10
-1801.0
 20
1625.499999999999
 30
0.0
  0
POINT
  5
13FAD
330
138C0
100
AcDbEntity
  8
DEFPOINTS
 62
     0
100
AcDbPoint
 10
-1673.997421345615
 20
1625.499999999999
 30
0.0
  0
POINT
  5
13FAE
330
138C0
100
AcDbEntity
  8
DEFPOINTS
 62
     0
100
AcDbPoint
 10
-1673.997421345615
 20
1613.988337758181
 30
0.0
  0
ENDBLK
  5
138CB
330
138C0
100
AcDbEntity
  8
0
100
AcDbBlockEnd
  0
BLOCK
  5
138EE
330
138E4
100
AcDbEntity
  8
0
100
AcDbBlockBegin
  2
*D1
 70
     1
 10
0.0
 20
0.0
 30
0.0
  3
*D1
  1

  0
LINE
  5
1464C
330
138E4
100
AcDbEntity
  8
SUNPOU
 62
     1
100
AcDbLine
 10
-1527.375000000003
 20
1500.0
 30
0.0
 11
-1518.046496587532
 21
1500.0
 31
0.0
  0
LINE
  5
1464D
330
138E4
100
AcDbEntity
  8
SUNPOU
 62
     1
100
AcDbLine
 10
-1528.175000000002
 20
1582.0
 30
0.0
 11
-1518.046496587532
 21
1582.0
 31
0.0
  0
LINE
  5
1464E
330
138E4
100
AcDbEntity
  8
SUNPOU
 62
     1
100
AcDbLine
 10
-1519.296496587532
 20
1502.5
 30
0.0
 11
-1519.296496587532
 21
1579.5
 31
0.0
  0
SOLID
  5
1464F
330
138E4
100
AcDbEntity
  8
SUNPOU
 62
     1
100
AcDbTrace
 10
-1519.713163254199
 20
1502.5
 30
0.0
 11
-1518.879829920865
 21
1502.5
 31
0.0
 12
-1519.296496587532
 22
1500.0
 32
0.0
 13
-1519.296496587532
 23
1500.0
 33
0.0
  0
SOLID
  5
14650
330
138E4
100
AcDbEntity
  8
SUNPOU
 62
     1
100
AcDbTrace
 10
-1519.713163254198
 20
1579.5
 30
0.0
 11
-1518.879829920865
 21
1579.5
 31
0.0
 12
-1519.296496587532
 22
1582.0
 32
0.0
 13
-1519.296496587532
 23
1582.0
 33
0.0
  0
MTEXT
  5
14651
330
138E4
100
AcDbEntity
  8
SUNPOU
 62
     1
100
AcDbMText
 10
-1521.671496587532
 20
1541.000000000001
 30
0.0
 40
3.5
 41
0.0
 71
     5
 72
     1
  1
82
 11
0.0000000000000001
 21
1.0
 31
0.0
1001
ACAD
1000
MTEXTBEGIN
1070
    73
1070
     1
1070
    44
1040
1.0
1070
    74
1070
     0
1000
MTEXTEND
  0
POINT
  5
14652
330
138E4
100
AcDbEntity
  8
DEFPOINTS
 62
     0
100
AcDbPoint
 10
-1528.000000000003
 20
1500.0
 30
0.0
  0
POINT
  5
14653
330
138E4
100
AcDbEntity
  8
DEFPOINTS
 62
     0
100
AcDbPoint
 10
-1528.800000000003
 20
1582.0
 30
0.0
  0
POINT
  5
14654
330
138E4
100
AcDbEntity
  8
DEFPOINTS
 62
     0
100
AcDbPoint
 10
-1519.296496587532
 20
1582.0
 30
0.0
  0
ENDBLK
  5
138EF
330
138E4
100
AcDbEntity
  8
0
100
AcDbBlockEnd
  0
BLOCK
  5
138FA
330
138F0
100
AcDbEntity
  8
0
100
AcDbBlockBegin
  2
*D2
 70
     1
 10
0.0
 20
0.0
 30
0.0
  3
*D2
  1

  0
LINE
  5
14053
330
138F0
100
AcDbEntity
  8
SUNPOU
 62
     1
100
AcDbLine
 10
-1384.167687346665
 20
1595.999998905785
 30
0.0
 11
-1370.026302446936
 21
1595.999998905785
 31
0.0
  0
LINE
  5
14054
330
138F0
100
AcDbEntity
  8
SUNPOU
 62
     1
100
AcDbLine
 10
-1373.375
 20
1500.0
 30
0.0
 11
-1370.026302446937
 21
1500.0
 31
0.0
  0
LINE
  5
14055
330
138F0
100
AcDbEntity
  8
SUNPOU
 62
     1
100
AcDbLine
 10
-1371.276302446936
 20
1593.499998905785
 30
0.0
 11
-1371.276302446936
 21
1502.5
 31
0.0
  0
SOLID
  5
14056
330
138F0
100
AcDbEntity
  8
SUNPOU
 62
     1
100
AcDbTrace
 10
-1371.692969113603
 20
1593.499998905785
 30
0.0
 11
-1370.85963578027
 21
1593.499998905785
 31
0.0
 12
-1371.276302446936
 22
1595.999998905785
 32
0.0
 13
-1371.276302446936
 23
1595.999998905785
 33
0.0
  0
SOLID
  5
14057
330
138F0
100
AcDbEntity
  8
SUNPOU
 62
     1
100
AcDbTrace
 10
-1371.692969113603
 20
1502.5
 30
0.0
 11
-1370.85963578027
 21
1502.5
 31
0.0
 12
-1371.276302446936
 22
1500.0
 32
0.0
 13
-1371.276302446936
 23
1500.0
 33
0.0
  0
MTEXT
  5
14058
330
138F0
100
AcDbEntity
  8
SUNPOU
 62
     1
100
AcDbMText
 10
-1373.651302446937
 20
1547.999999452892
 30
0.0
 40
3.5
 41
0.0
 71
     5
 72
     1
  1
96
 11
0.0000000000000001
 21
1.0
 31
0.0
1001
ACAD
1000
MTEXTBEGIN
1070
    73
1070
     1
1070
    44
1040
1.0
1070
    74
1070
     0
1000
MTEXTEND
  0
POINT
  5
14059
330
138F0
100
AcDbEntity
  8
DEFPOINTS
 62
     0
100
AcDbPoint
 10
-1384.792687346665
 20
1595.999998905785
 30
0.0
  0
POINT
  5
1405A
330
138F0
100
AcDbEntity
  8
DEFPOINTS
 62
     0
100
AcDbPoint
 10
-1374.0
 20
1500.0
 30
0.0
  0
POINT
  5
1405B
330
138F0
100
AcDbEntity
  8
DEFPOINTS
 62
     0
100
AcDbPoint
 10
-1371.276302446936
 20
1500.0
 30
0.0
  0
ENDBLK
  5
138FB
330
138F0
100
AcDbEntity
  8
0
100
AcDbBlockEnd
  0
BLOCK
  5
13906
330
138FC
100
AcDbEntity
  8
0
100
AcDbBlockBegin
  2
*D3
 70
     1
 10
0.0
 20
0.0
 30
0.0
  3
*D3
  1

  0
LINE
  5
13F32
330
138FC
100
AcDbEntity
  8
SUNPOU
 62
     1
100
AcDbLine
 10
-1382.497421345615
 20
1668.625
 30
0.0
 11
-1382.497421345615
 21
1687.311375839191
 31
0.0
  0
LINE
  5
13F33
330
138FC
100
AcDbEntity
  8
SUNPOU
 62
     1
100
AcDbLine
 10
-1496.497421345615
 20
1668.625
 30
0.0
 11
-1496.497421345615
 21
1687.311375839191
 31
0.0
  0
LINE
  5
13F34
330
138FC
100
AcDbEntity
  8
SUNPOU
 62
     1
100
AcDbLine
 10
-1384.997421345615
 20
1686.061375839192
 30
0.0
 11
-1493.997421345615
 21
1686.061375839192
 31
0.0
  0
SOLID
  5
13F35
330
138FC
100
AcDbEntity
  8
SUNPOU
 62
     1
100
AcDbTrace
 10
-1384.997421345615
 20
1686.478042505858
 30
0.0
 11
-1384.997421345615
 21
1685.644709172525
 31
0.0
 12
-1382.497421345615
 22
1686.061375839192
 32
0.0
 13
-1382.497421345615
 23
1686.061375839192
 33
0.0
  0
SOLID
  5
13F36
330
138FC
100
AcDbEntity
  8
SUNPOU
 62
     1
100
AcDbTrace
 10
-1493.997421345615
 20
1686.478042505858
 30
0.0
 11
-1493.997421345615
 21
1685.644709172525
 31
0.0
 12
-1496.497421345615
 22
1686.061375839192
 32
0.0
 13
-1496.497421345615
 23
1686.061375839192
 33
0.0
  0
MTEXT
  5
13F37
330
138FC
100
AcDbEntity
  8
SUNPOU
 62
     1
100
AcDbMText
 10
-1439.497421345615
 20
1688.436375839192
 30
0.0
 40
3.5
 41
0.0
 71
     5
 72
     1
  1
114
1001
ACAD
1000
MTEXTBEGIN
1070
    73
1070
     1
1070
    44
1040
1.0
1070
    74
1070
     0
1000
MTEXTEND
  0
POINT
  5
13F38
330
138FC
100
AcDbEntity
  8
DEFPOINTS
 62
     0
100
AcDbPoint
 10
-1382.497421345615
 20
1668.0
 30
0.0
  0
POINT
  5
13F39
330
138FC
100
AcDbEntity
  8
DEFPOINTS
 62
     0
100
AcDbPoint
 10
-1496.497421345615
 20
1668.0
 30
0.0
  0
POINT
  5
13F3A
330
138FC
100
AcDbEntity
  8
DEFPOINTS
 62
     0
100
AcDbPoint
 10
-1496.497421345615
 20
1686.061375839192
 30
0.0
  0
ENDBLK
  5
13907
330
138FC
100
AcDbEntity
  8
0
100
AcDbBlockEnd
  0
BLOCK
  5
13912
330
13908
100
AcDbEntity
  8
0
100
AcDbBlockBegin
  2
*D4
 70
     1
 10
0.0
 20
0.0
 30
0.0
  3
*D4
  1

  0
LINE
  5
14332
330
13908
100
AcDbEntity
  8
SUNPOU
 62
     1
100
AcDbLine
 10
-1375.997421345615
 20
1630.375
 30
0.0
 11
-1375.997421345615
 21
1612.312690579598
 31
0.0
  0
LINE
  5
14333
330
13908
100
AcDbEntity
  8
SUNPOU
 62
     1
100
AcDbLine
 10
-1500.0
 20
1630.375
 30
0.0
 11
-1500.0
 21
1612.312690579598
 31
0.0
  0
LINE
  5
14334
330
13908
100
AcDbEntity
  8
SUNPOU
 62
     1
100
AcDbLine
 10
-1378.497421345615
 20
1613.562690579598
 30
0.0
 11
-1497.5
 21
1613.562690579598
 31
0.0
  0
SOLID
  5
14335
330
13908
100
AcDbEntity
  8
SUNPOU
 62
     1
100
AcDbTrace
 10
-1378.497421345615
 20
1613.979357246264
 30
0.0
 11
-1378.497421345615
 21
1613.146023912931
 31
0.0
 12
-1375.997421345615
 22
1613.562690579598
 32
0.0
 13
-1375.997421345615
 23
1613.562690579598
 33
0.0
  0
SOLID
  5
14336
330
13908
100
AcDbEntity
  8
SUNPOU
 62
     1
100
AcDbTrace
 10
-1497.5
 20
1613.979357246264
 30
0.0
 11
-1497.5
 21
1613.146023912931
 31
0.0
 12
-1500.0
 22
1613.562690579598
 32
0.0
 13
-1500.0
 23
1613.562690579598
 33
0.0
  0
MTEXT
  5
14337
330
13908
100
AcDbEntity
  8
SUNPOU
 62
     1
100
AcDbMText
 10
-1437.998710672807
 20
1615.937690579598
 30
0.0
 40
3.5
 41
0.0
 71
     5
 72
     1
  1
124
1001
ACAD
1000
MTEXTBEGIN
1070
    73
1070
     1
1070
    44
1040
1.0
1070
    74
1070
     0
1000
MTEXTEND
  0
POINT
  5
14338
330
13908
100
AcDbEntity
  8
DEFPOINTS
 62
     0
100
AcDbPoint
 10
-1375.997421345615
 20
1631.0
 30
0.0
  0
POINT
  5
14339
330
13908
100
AcDbEntity
  8
DEFPOINTS
 62
     0
100
AcDbPoint
 10
-1500.0
 20
1631.0
 30
0.0
  0
POINT
  5
1433A
330
13908
100
AcDbEntity
  8
DEFPOINTS
 62
     0
100
AcDbPoint
 10
-1500.0
 20
1613.562690579598
 30
0.0
  0
ENDBLK
  5
13913
330
13908
100
AcDbEntity
  8
0
100
AcDbBlockEnd
  0
BLOCK
  5
1391E
330
13914
100
AcDbEntity
  8
0
100
AcDbBlockBegin
  2
*D5
 70
     1
 10
0.0
 20
0.0
 30
0.0
  3
*D5
  1

  0
LINE
  5
14796
330
13914
100
AcDbEntity
  8
SUNPOU
 62
     1
100
AcDbLine
 10
-1380.497421345615
 20
1633.624999999996
 30
0.0
 11
-1380.497421345615
 21
1617.680615911591
 31
0.0
  0
LINE
  5
14797
330
13914
100
AcDbEntity
  8
SUNPOU
 62
     1
100
AcDbLine
 10
-1496.499999999996
 20
1635.374999999996
 30
0.0
 11
-1496.499999999996
 21
1617.680615911591
 31
0.0
  0
LINE
  5
14798
330
13914
100
AcDbEntity
  8
SUNPOU
 62
     1
100
AcDbLine
 10
-1382.997421345615
 20
1618.930615911591
 30
0.0
 11
-1493.999999999996
 21
1618.930615911591
 31
0.0
  0
SOLID
  5
14799
330
13914
100
AcDbEntity
  8
SUNPOU
 62
     1
100
AcDbTrace
 10
-1382.997421345615
 20
1619.347282578258
 30
0.0
 11
-1382.997421345615
 21
1618.513949244924
 31
0.0
 12
-1380.497421345615
 22
1618.930615911591
 32
0.0
 13
-1380.497421345615
 23
1618.930615911591
 33
0.0
  0
SOLID
  5
1479A
330
13914
100
AcDbEntity
  8
SUNPOU
 62
     1
100
AcDbTrace
 10
-1493.999999999996
 20
1619.347282578258
 30
0.0
 11
-1493.999999999996
 21
1618.513949244924
 31
0.0
 12
-1496.499999999996
 22
1618.930615911591
 32
0.0
 13
-1496.499999999996
 23
1618.930615911591
 33
0.0
  0
MTEXT
  5
1479B
330
13914
100
AcDbEntity
  8
SUNPOU
 62
     1
100
AcDbMText
 10
-1438.498710672805
 20
1621.305615911591
 30
0.0
 40
3.5
 41
0.0
 71
     5
 72
     1
  1
116
1001
ACAD
1000
MTEXTBEGIN
1070
    73
1070
     1
1070
    44
1040
1.0
1070
    74
1070
     0
1000
MTEXTEND
  0
POINT
  5
1479C
330
13914
100
AcDbEntity
  8
DEFPOINTS
 62
     0
100
AcDbPoint
 10
-1380.497421345615
 20
1634.249999999997
 30
0.0
  0
POINT
  5
1479D
330
13914
100
AcDbEntity
  8
DEFPOINTS
 62
     0
100
AcDbPoint
 10
-1496.499999999996
 20
1635.999999999996
 30
0.0
  0
POINT
  5
1479E
330
13914
100
AcDbEntity
  8
DEFPOINTS
 62
     0
100
AcDbPoint
 10
-1496.499999999996
 20
1618.930615911591
 30
0.0
  0
ENDBLK
  5
1391F
330
13914
100
AcDbEntity
  8
0
100
AcDbBlockEnd
  0
BLOCK
  5
13938
330
1392C
100
AcDbEntity
  8
0
100
AcDbBlockBegin
  2
*D6
 70
     1
 10
0.0
 20
0.0
 30
0.0
  3
*D6
  1

  0
LINE
  5
1479F
330
1392C
100
AcDbEntity
  8
SUNPOU
 62
     1
100
AcDbLine
 10
-1376.372421345615
 20
1630.0
 30
0.0
 11
-1348.131460346695
 21
1630.0
 31
0.0
  0
LINE
  5
147A0
330
1392C
100
AcDbEntity
  8
SUNPOU
 62
     1
100
AcDbLine
 10
-1377.193184569369
 20
1635.999999999996
 30
0.0
 11
-1348.131460346695
 21
1635.999999999996
 31
0.0
  0
LINE
  5
147A1
330
1392C
100
AcDbEntity
  8
SUNPOU
 62
     1
100
AcDbLine
 10
-1349.381460346695
 20
1627.499999999999
 30
0.0
 11
-1349.381460346695
 21
1625.0
 31
0.0
  0
LINE
  5
147A2
330
1392C
100
AcDbEntity
  8
SUNPOU
 62
     1
100
AcDbLine
 10
-1349.381460346695
 20
1638.499999999996
 30
0.0
 11
-1349.381460346695
 21
1640.999999999996
 31
0.0
  0
LINE
  5
147A3
330
1392C
100
AcDbEntity
  8
SUNPOU
 62
     1
100
AcDbLine
 10
-1349.381460346695
 20
1630.0
 30
0.0
 11
-1349.381460346695
 21
1635.999999999996
 31
0.0
  0
SOLID
  5
147A4
330
1392C
100
AcDbEntity
  8
SUNPOU
 62
     1
100
AcDbTrace
 10
-1349.798127013362
 20
1627.499999999999
 30
0.0
 11
-1348.964793680028
 21
1627.499999999999
 31
0.0
 12
-1349.381460346695
 22
1630.0
 32
0.0
 13
-1349.381460346695
 23
1630.0
 33
0.0
  0
SOLID
  5
147A5
330
1392C
100
AcDbEntity
  8
SUNPOU
 62
     1
100
AcDbTrace
 10
-1349.798127013362
 20
1638.499999999996
 30
0.0
 11
-1348.964793680028
 21
1638.499999999996
 31
0.0
 12
-1349.381460346695
 22
1635.999999999996
 32
0.0
 13
-1349.381460346695
 23
1635.999999999996
 33
0.0
  0
MTEXT
  5
147A6
330
1392C
100
AcDbEntity
  8
SUNPOU
 62
     1
100
AcDbMText
 10
-1351.756460346695
 20
1632.999999999998
 30
0.0
 40
3.5
 41
0.0
 71
     5
 72
     1
  1
6
 11
0.0000000000000001
 21
1.0
 31
0.0
1001
ACAD
1000
MTEXTBEGIN
1070
    73
1070
     1
1070
    44
1040
1.0
1070
    74
1070
     0
1000
MTEXTEND
  0
POINT
  5
147A7
330
1392C
100
AcDbEntity
  8
DEFPOINTS
 62
     0
100
AcDbPoint
 10
-1376.997421345615
 20
1630.0
 30
0.0
  0
POINT
  5
147A8
330
1392C
100
AcDbEntity
  8
DEFPOINTS
 62
     0
100
AcDbPoint
 10
-1377.818184569369
 20
1635.999999999996
 30
0.0
  0
POINT
  5
147A9
330
1392C
100
AcDbEntity
  8
DEFPOINTS
 62
     0
100
AcDbPoint
 10
-1349.381460346695
 20
1635.999999999996
 30
0.0
  0
ENDBLK
  5
13939
330
1392C
100
AcDbEntity
  8
0
100
AcDbBlockEnd
  0
BLOCK
  5
13C06
330
13BFA
100
AcDbEntity
  8
0
100
AcDbBlockBegin
  2
*D7
 70
     1
 10
0.0
 20
0.0
 30
0.0
  3
*D7
  1

  0
LINE
  5
144C6
330
13BFA
100
AcDbEntity
  8
SUNPOU
 62
     1
100
AcDbLine
 10
-1376.372421345615
 20
1630.0
 30
0.0
 11
-1367.396130258036
 21
1630.0
 31
0.0
  0
LINE
  5
144C7
330
13BFA
100
AcDbEntity
  8
SUNPOU
 62
     1
100
AcDbLine
 10
-1388.499563757202
 20
1628.407849090647
 30
0.0
 11
-1367.396130258036
 21
1628.407849090647
 31
0.0
  0
LINE
  5
144C8
330
13BFA
100
AcDbEntity
  8
SUNPOU
 62
     1
100
AcDbLine
 10
-1368.646130258036
 20
1632.5
 30
0.0
 11
-1368.646130258036
 21
1635.0
 31
0.0
  0
LINE
  5
144C9
330
13BFA
100
AcDbEntity
  8
SUNPOU
 62
     1
100
AcDbLine
 10
-1368.646130258036
 20
1625.907849090647
 30
0.0
 11
-1368.646130258036
 21
1613.99118242398
 31
0.0
  0
LINE
  5
144CA
330
13BFA
100
AcDbEntity
  8
SUNPOU
 62
     1
100
AcDbLine
 10
-1368.646130258036
 20
1630.0
 30
0.0
 11
-1368.646130258036
 21
1628.407849090647
 31
0.0
  0
SOLID
  5
144CB
330
13BFA
100
AcDbEntity
  8
SUNPOU
 62
     1
100
AcDbTrace
 10
-1369.062796924703
 20
1632.5
 30
0.0
 11
-1368.22946359137
 21
1632.5
 31
0.0
 12
-1368.646130258036
 22
1630.0
 32
0.0
 13
-1368.646130258036
 23
1630.0
 33
0.0
  0
SOLID
  5
144CC
330
13BFA
100
AcDbEntity
  8
SUNPOU
 62
     1
100
AcDbTrace
 10
-1369.062796924703
 20
1625.907849090647
 30
0.0
 11
-1368.22946359137
 21
1625.907849090647
 31
0.0
 12
-1368.646130258036
 22
1628.407849090647
 32
0.0
 13
-1368.646130258036
 23
1628.407849090647
 33
0.0
  0
MTEXT
  5
144CD
330
13BFA
100
AcDbEntity
  8
SUNPOU
 62
     1
100
AcDbMText
 10
-1371.021130258037
 20
1618.11618242398
 30
0.0
 40
3.5
 41
0.0
 71
     5
 72
     1
  1
(2)
 11
0.0000000000000001
 21
1.0
 31
0.0
1001
ACAD
1000
MTEXTBEGIN
1070
    73
1070
     1
1070
    44
1040
1.0
1070
    74
1070
     0
1000
MTEXTEND
  0
POINT
  5
144CE
330
13BFA
100
AcDbEntity
  8
DEFPOINTS
 62
     0
100
AcDbPoint
 10
-1376.997421345615
 20
1630.0
 30
0.0
  0
POINT
  5
144CF
330
13BFA
100
AcDbEntity
  8
DEFPOINTS
 62
     0
100
AcDbPoint
 10
-1389.124563757202
 20
1628.407849090647
 30
0.0
  0
POINT
  5
144D0
330
13BFA
100
AcDbEntity
  8
DEFPOINTS
 62
     0
100
AcDbPoint
 10
-1368.646130258036
 20
1628.407849090647
 30
0.0
  0
ENDBLK
  5
13C07
330
13BFA
100
AcDbEntity
  8
0
100
AcDbBlockEnd
  0
BLOCK
  5
13DDB
330
13DD1
100
AcDbEntity
  8
0
100
AcDbBlockBegin
  2
*D8
 70
     1
 10
0.0
 20
0.0
 30
0.0
  3
*D8
  1

  0
LINE
  5
1462D
330
13DD1
100
AcDbEntity
  8
SUNPOU
 62
     1
100
AcDbLine
 10
-1379.997421345615
 20
1630.0
 30
0.0
 11
-1340.653479665816
 21
1630.0
 31
0.0
  0
LINE
  5
1462E
330
13DD1
100
AcDbEntity
  8
SUNPOU
 62
     1
100
AcDbLine
 10
-1384.292687346664
 20
1673.499999999999
 30
0.0
 11
-1340.653479665816
 21
1673.499999999999
 31
0.0
  0
LINE
  5
1462F
330
13DD1
100
AcDbEntity
  8
SUNPOU
 62
     1
100
AcDbLine
 10
-1341.153479665816
 20
1633.0
 30
0.0
 11
-1341.153479665816
 21
1670.5
 31
0.0
  0
SOLID
  5
14630
330
13DD1
100
AcDbEntity
  8
SUNPOU
 62
     1
100
AcDbTrace
 10
-1341.653479665817
 20
1633.0
 30
0.0
 11
-1340.653479665816
 21
1633.0
 31
0.0
 12
-1341.153479665816
 22
1630.0
 32
0.0
 13
-1341.153479665816
 23
1630.0
 33
0.0
  0
SOLID
  5
14631
330
13DD1
100
AcDbEntity
  8
SUNPOU
 62
     1
100
AcDbTrace
 10
-1341.653479665817
 20
1670.5
 30
0.0
 11
-1340.653479665816
 21
1670.5
 31
0.0
 12
-1341.153479665816
 22
1673.499999999999
 32
0.0
 13
-1341.153479665816
 23
1673.499999999999
 33
0.0
  0
MTEXT
  5
14632
330
13DD1
100
AcDbEntity
  8
SUNPOU
 62
     1
100
AcDbMText
 10
-1343.903479665817
 20
1651.749999999999
 30
0.0
 40
3.5
 41
0.0
 71
     5
 72
     1
  1
\A1;43.5
 11
0.0000000000000001
 21
1.0
 31
0.0
1001
ACAD
1000
MTEXTBEGIN
1070
    73
1070
     1
1070
    44
1040
1.0
1070
    74
1070
     0
1000
MTEXTEND
  0
POINT
  5
14633
330
13DD1
100
AcDbEntity
  8
DEFPOINTS
 62
     0
100
AcDbPoint
 10
-1380.497421345615
 20
1630.0
 30
0.0
  0
POINT
  5
14634
330
13DD1
100
AcDbEntity
  8
DEFPOINTS
 62
     0
100
AcDbPoint
 10
-1384.792687346664
 20
1673.499999999999
 30
0.0
  0
POINT
  5
14635
330
13DD1
100
AcDbEntity
  8
DEFPOINTS
 62
     0
100
AcDbPoint
 10
-1341.153479665816
 20
1673.499999999999
 30
0.0
  0
ENDBLK
  5
13DDC
330
13DD1
100
AcDbEntity
  8
0
100
AcDbBlockEnd
  0
BLOCK
  5
13E77
330
13E6D
100
AcDbEntity
  8
0
100
AcDbBlockBegin
  2
*D9
 70
     1
 10
0.0
 20
0.0
 30
0.0
  3
*D9
  1

  0
LINE
  5
14622
330
13E6D
100
AcDbEntity
  8
SUNPOU
 62
     1
100
AcDbLine
 10
-1674.372421345615
 20
1668.499999999999
 30
0.0
 11
-1660.956270668453
 21
1668.499999999999
 31
0.0
  0
LINE
  5
14623
330
13E6D
100
AcDbEntity
  8
SUNPOU
 62
     1
100
AcDbLine
 10
-1674.372421345615
 20
1624.5
 30
0.0
 11
-1660.956270668453
 21
1624.5
 31
0.0
  0
LINE
  5
14624
330
13E6D
100
AcDbEntity
  8
SUNPOU
 62
     1
100
AcDbLine
 10
-1662.206270668453
 20
1666.0
 30
0.0
 11
-1662.206270668453
 21
1627.0
 31
0.0
  0
SOLID
  5
14625
330
13E6D
100
AcDbEntity
  8
SUNPOU
 62
     1
100
AcDbTrace
 10
-1662.622937335119
 20
1666.0
 30
0.0
 11
-1661.789604001786
 21
1666.0
 31
0.0
 12
-1662.206270668453
 22
1668.499999999999
 32
0.0
 13
-1662.206270668453
 23
1668.499999999999
 33
0.0
  0
SOLID
  5
14626
330
13E6D
100
AcDbEntity
  8
SUNPOU
 62
     1
100
AcDbTrace
 10
-1662.622937335119
 20
1627.0
 30
0.0
 11
-1661.789604001786
 21
1627.0
 31
0.0
 12
-1662.206270668453
 22
1624.5
 32
0.0
 13
-1662.206270668453
 23
1624.5
 33
0.0
  0
MTEXT
  5
14627
330
13E6D
100
AcDbEntity
  8
SUNPOU
 62
     1
100
AcDbMText
 10
-1664.581270668453
 20
1646.499999999999
 30
0.0
 40
3.5
 41
0.0
 71
     5
 72
     1
  1
44
 11
0.0000000000000001
 21
1.0
 31
0.0
1001
ACAD
1000
MTEXTBEGIN
1070
    73
1070
     1
1070
    44
1040
1.0
1070
    74
1070
     0
1000
MTEXTEND
  0
POINT
  5
14628
330
13E6D
100
AcDbEntity
  8
DEFPOINTS
 62
     0
100
AcDbPoint
 10
-1674.997421345615
 20
1668.499999999999
 30
0.0
  0
POINT
  5
14629
330
13E6D
100
AcDbEntity
  8
DEFPOINTS
 62
     0
100
AcDbPoint
 10
-1674.997421345615
 20
1624.5
 30
0.0
  0
POINT
  5
1462A
330
13E6D
100
AcDbEntity
  8
DEFPOINTS
 62
     0
100
AcDbPoint
 10
-1662.206270668453
 20
1624.5
 30
0.0
  0
ENDBLK
  5
13E78
330
13E6D
100
AcDbEntity
  8
0
100
AcDbBlockEnd
  0
BLOCK
  5
14119
330
1410D
100
AcDbEntity
  8
0
100
AcDbBlockBegin
  2
*D10
 70
     1
 10
0.0
 20
0.0
 30
0.0
  3
*D10
  1

  0
LINE
  5
14834
330
1410D
100
AcDbEntity
  8
SUNPOU
 62
     1
100
AcDbLine
 10
-1673.499999999999
 20
1500.0
 30
0.0
 11
-1660.481309622511
 21
1500.0
 31
0.0
  0
LINE
  5
14835
330
1410D
100
AcDbEntity
  8
SUNPOU
 62
     1
100
AcDbLine
 10
-1673.499999999999
 20
1497.0
 30
0.0
 11
-1660.481309622511
 21
1497.0
 31
0.0
  0
LINE
  5
14836
330
1410D
100
AcDbEntity
  8
SUNPOU
 62
     1
100
AcDbLine
 10
-1660.981309622511
 20
1503.0
 30
0.0
 11
-1660.981309622511
 21
1506.0
 31
0.0
  0
LINE
  5
14837
330
1410D
100
AcDbEntity
  8
SUNPOU
 62
     1
100
AcDbLine
 10
-1660.981309622511
 20
1494.0
 30
0.0
 11
-1660.981309622511
 21
1491.0
 31
0.0
  0
MTEXT
  5
14838
330
1410D
100
AcDbEntity
  8
SUNPOU
 62
     1
100
AcDbMText
 10
-1664.402879335566
 20
1503.426935376636
 30
0.0
 40
3.5
 41
0.0
 71
     5
 72
     1
  1
\A2;3
 11
0.0000000000000001
 21
1.0
 31
0.0
  0
LINE
  5
14839
330
1410D
100
AcDbEntity
  8
SUNPOU
 62
     1
100
AcDbLine
 10
-1660.981309622511
 20
1500.0
 30
0.0
 11
-1660.981309622511
 21
1497.0
 31
0.0
  0
SOLID
  5
1483A
330
1410D
100
AcDbEntity
  8
SUNPOU
 62
     1
100
AcDbTrace
 10
-1661.481309622511
 20
1503.0
 30
0.0
 11
-1660.481309622511
 21
1503.0
 31
0.0
 12
-1660.981309622511
 22
1500.0
 32
0.0
 13
-1660.981309622511
 23
1500.0
 33
0.0
  0
SOLID
  5
1483B
330
1410D
100
AcDbEntity
  8
SUNPOU
 62
     1
100
AcDbTrace
 10
-1661.481309622511
 20
1494.0
 30
0.0
 11
-1660.481309622511
 21
1494.0
 31
0.0
 12
-1660.981309622511
 22
1497.0
 32
0.0
 13
-1660.981309622511
 23
1497.0
 33
0.0
  0
POINT
  5
1483C
330
1410D
100
AcDbEntity
  8
DEFPOINTS
 62
     0
100
AcDbPoint
 10
-1674.0
 20
1500.0
 30
0.0
  0
POINT
  5
1483D
330
1410D
100
AcDbEntity
  8
DEFPOINTS
 62
     0
100
AcDbPoint
 10
-1674.0
 20
1497.0
 30
0.0
  0
POINT
  5
1483E
330
1410D
100
AcDbEntity
  8
DEFPOINTS
 62
     0
100
AcDbPoint
 10
-1660.981309622511
 20
1497.0
 30
0.0
  0
ENDBLK
  5
1411A
330
1410D
100
AcDbEntity
  8
0
100
AcDbBlockEnd
  0
BLOCK
  5
14149
330
1413D
100
AcDbEntity
  8
0
100
AcDbBlockBegin
  2
*D11
 70
     1
 10
0.0
 20
0.0
 30
0.0
  3
*D11
  1

  0
LINE
  5
14636
330
1413D
100
AcDbEntity
  8
SUNPOU
 62
     1
100
AcDbLine
 10
-1661.945699951031
 20
1497.0
 30
0.0
 11
-1649.163812124455
 21
1497.0
 31
0.0
  0
LINE
  5
14637
330
1413D
100
AcDbEntity
  8
SUNPOU
 62
     1
100
AcDbLine
 10
-1685.695699951031
 20
1489.0
 30
0.0
 11
-1649.163812124455
 21
1489.0
 31
0.0
  0
LINE
  5
14638
330
1413D
100
AcDbEntity
  8
SUNPOU
 62
     1
100
AcDbLine
 10
-1649.663812124456
 20
1500.0
 30
0.0
 11
-1649.663812124456
 21
1503.0
 31
0.0
  0
LINE
  5
14639
330
1413D
100
AcDbEntity
  8
SUNPOU
 62
     1
100
AcDbLine
 10
-1649.663812124456
 20
1486.0
 30
0.0
 11
-1649.663812124456
 21
1483.0
 31
0.0
  0
LINE
  5
1463A
330
1413D
100
AcDbEntity
  8
SUNPOU
 62
     1
100
AcDbLine
 10
-1649.663812124456
 20
1497.0
 30
0.0
 11
-1649.663812124456
 21
1489.0
 31
0.0
  0
SOLID
  5
1463B
330
1413D
100
AcDbEntity
  8
SUNPOU
 62
     1
100
AcDbTrace
 10
-1650.163812124455
 20
1500.0
 30
0.0
 11
-1649.163812124455
 21
1500.0
 31
0.0
 12
-1649.663812124456
 22
1497.0
 32
0.0
 13
-1649.663812124456
 23
1497.0
 33
0.0
  0
SOLID
  5
1463C
330
1413D
100
AcDbEntity
  8
SUNPOU
 62
     1
100
AcDbTrace
 10
-1650.163812124455
 20
1486.0
 30
0.0
 11
-1649.163812124455
 21
1486.0
 31
0.0
 12
-1649.663812124456
 22
1489.0
 32
0.0
 13
-1649.663812124456
 23
1489.0
 33
0.0
  0
MTEXT
  5
1463D
330
1413D
100
AcDbEntity
  8
SUNPOU
 62
     1
100
AcDbMText
 10
-1652.413812124455
 20
1492.999999999999
 30
0.0
 40
3.5
 41
0.0
 71
     5
 72
     1
  1
\A1;8
 11
0.0000000000000001
 21
1.0
 31
0.0
1001
ACAD
1000
MTEXTBEGIN
1070
    73
1070
     1
1070
    44
1040
1.0
1070
    74
1070
     0
1000
MTEXTEND
  0
POINT
  5
1463E
330
1413D
100
AcDbEntity
  8
DEFPOINTS
 62
     0
100
AcDbPoint
 10
-1662.445699951032
 20
1497.0
 30
0.0
  0
POINT
  5
1463F
330
1413D
100
AcDbEntity
  8
DEFPOINTS
 62
     0
100
AcDbPoint
 10
-1686.195699951031
 20
1489.0
 30
0.0
  0
POINT
  5
14640
330
1413D
100
AcDbEntity
  8
DEFPOINTS
 62
     0
100
AcDbPoint
 10
-1649.663812124456
 20
1489.0
 30
0.0
  0
ENDBLK
  5
1414A
330
1413D
100
AcDbEntity
  8
0
100
AcDbBlockEnd
  0
BLOCK
  5
141E5
330
141D9
100
AcDbEntity
  8
0
100
AcDbBlockBegin
  2
*D12
 70
     1
 10
0.0
 20
0.0
 30
0.0
  3
*D12
  1

  0
LINE
  5
141E7
330
141D9
100
AcDbEntity
  8
SUNPOU
 62
     1
100
AcDbLine
 10
-1375.372421345615
 20
1637.75
 30
0.0
 11
-1357.576378624067
 21
1637.75
 31
0.0
  0
LINE
  5
141E8
330
141D9
100
AcDbEntity
  8
SUNPOU
 62
     1
100
AcDbLine
 10
-1375.372421345615
 20
1634.25
 30
0.0
 11
-1357.576378624067
 21
1634.25
 31
0.0
  0
LINE
  5
141E9
330
141D9
100
AcDbEntity
  8
SUNPOU
 62
     1
100
AcDbLine
 10
-1358.826378624067
 20
1640.249999999999
 30
0.0
 11
-1358.826378624067
 21
1642.75
 31
0.0
  0
LINE
  5
141EA
330
141D9
100
AcDbEntity
  8
SUNPOU
 62
     1
100
AcDbLine
 10
-1358.826378624067
 20
1631.75
 30
0.0
 11
-1358.826378624067
 21
1621.0
 31
0.0
  0
LINE
  5
141EB
330
141D9
100
AcDbEntity
  8
SUNPOU
 62
     1
100
AcDbLine
 10
-1358.826378624067
 20
1637.75
 30
0.0
 11
-1358.826378624067
 21
1634.25
 31
0.0
  0
SOLID
  5
141EC
330
141D9
100
AcDbEntity
  8
SUNPOU
 62
     1
100
AcDbTrace
 10
-1359.243045290734
 20
1640.249999999999
 30
0.0
 11
-1358.409711957401
 21
1640.249999999999
 31
0.0
 12
-1358.826378624067
 22
1637.75
 32
0.0
 13
-1358.826378624067
 23
1637.75
 33
0.0
  0
SOLID
  5
141ED
330
141D9
100
AcDbEntity
  8
SUNPOU
 62
     1
100
AcDbTrace
 10
-1359.243045290734
 20
1631.75
 30
0.0
 11
-1358.409711957401
 21
1631.75
 31
0.0
 12
-1358.826378624067
 22
1634.25
 32
0.0
 13
-1358.826378624067
 23
1634.25
 33
0.0
  0
MTEXT
  5
141EE
330
141D9
100
AcDbEntity
  8
SUNPOU
 62
     1
100
AcDbMText
 10
-1361.201378624068
 20
1625.124999999999
 30
0.0
 40
3.5
 41
0.0
 71
     5
 72
     1
  1
3.5
 11
0.0000000000000001
 21
1.0
 31
0.0
1001
ACAD
1000
MTEXTBEGIN
1070
    73
1070
     1
1070
    44
1040
1.0
1070
    74
1070
     0
1000
MTEXTEND
  0
POINT
  5
141EF
330
141D9
100
AcDbEntity
  8
DEFPOINTS
 62
     0
100
AcDbPoint
 10
-1375.997421345615
 20
1637.75
 30
0.0
  0
POINT
  5
141F0
330
141D9
100
AcDbEntity
  8
DEFPOINTS
 62
     0
100
AcDbPoint
 10
-1375.997421345615
 20
1634.25
 30
0.0
  0
POINT
  5
141F1
330
141D9
100
AcDbEntity
  8
DEFPOINTS
 62
     0
100
AcDbPoint
 10
-1358.826378624067
 20
1634.25
 30
0.0
  0
ENDBLK
  5
141E6
330
141D9
100
AcDbEntity
  8
0
100
AcDbBlockEnd
  0
BLOCK
  5
1430A
330
14300
100
AcDbEntity
  8
0
100
AcDbBlockBegin
  2
*D13
 70
     1
 10
0.0
 20
0.0
 30
0.0
  3
*D13
  1

  0
LINE
  5
1433B
330
14300
100
AcDbEntity
  8
SUNPOU
 62
     1
100
AcDbLine
 10
-1527.275000000005
 20
1582.0
 30
0.0
 11
-1518.083985951195
 21
1582.0
 31
0.0
  0
LINE
  5
1433C
330
14300
100
AcDbEntity
  8
SUNPOU
 62
     1
100
AcDbLine
 10
-1527.662110890882
 20
1599.999999999999
 30
0.0
 11
-1518.083985951195
 21
1599.999999999999
 31
0.0
  0
LINE
  5
1433D
330
14300
100
AcDbEntity
  8
SUNPOU
 62
     1
100
AcDbLine
 10
-1519.333985951195
 20
1584.5
 30
0.0
 11
-1519.333985951195
 21
1597.499999999999
 31
0.0
  0
SOLID
  5
1433E
330
14300
100
AcDbEntity
  8
SUNPOU
 62
     1
100
AcDbTrace
 10
-1519.750652617862
 20
1584.5
 30
0.0
 11
-1518.917319284528
 21
1584.5
 31
0.0
 12
-1519.333985951195
 22
1582.0
 32
0.0
 13
-1519.333985951195
 23
1582.0
 33
0.0
  0
SOLID
  5
1433F
330
14300
100
AcDbEntity
  8
SUNPOU
 62
     1
100
AcDbTrace
 10
-1519.750652617862
 20
1597.499999999999
 30
0.0
 11
-1518.917319284528
 21
1597.499999999999
 31
0.0
 12
-1519.333985951195
 22
1599.999999999999
 32
0.0
 13
-1519.333985951195
 23
1599.999999999999
 33
0.0
  0
MTEXT
  5
14340
330
14300
100
AcDbEntity
  8
SUNPOU
 62
     1
100
AcDbMText
 10
-1521.708985951195
 20
1590.999999999999
 30
0.0
 40
3.5
 41
0.0
 71
     5
 72
     1
  1
(18)
 11
0.0000000000000001
 21
1.0
 31
0.0
1001
ACAD
1000
MTEXTBEGIN
1070
    73
1070
     1
1070
    44
1040
1.0
1070
    74
1070
     0
1000
MTEXTEND
  0
POINT
  5
14341
330
14300
100
AcDbEntity
  8
DEFPOINTS
 62
     0
100
AcDbPoint
 10
-1527.900000000005
 20
1582.0
 30
0.0
  0
POINT
  5
14342
330
14300
100
AcDbEntity
  8
DEFPOINTS
 62
     0
100
AcDbPoint
 10
-1528.287110890882
 20
1599.999999999999
 30
0.0
  0
POINT
  5
14343
330
14300
100
AcDbEntity
  8
DEFPOINTS
 62
     0
100
AcDbPoint
 10
-1519.333985951195
 20
1599.999999999999
 30
0.0
  0
ENDBLK
  5
1430B
330
14300
100
AcDbEntity
  8
0
100
AcDbBlockEnd
  0
BLOCK
  5
14615
330
1460B
100
AcDbEntity
  8
0
100
AcDbBlockBegin
  2
*D14
 70
     1
 10
0.0
 20
0.0
 30
0.0
  3
*D14
  1

  0
LINE
  5
14655
330
1460B
100
AcDbEntity
  8
SUNPOU
 62
     1
100
AcDbLine
 10
-1494.497421345617
 20
1582.5
 30
0.0
 11
-1494.497421345617
 21
1603.036984732304
 31
0.0
  0
LINE
  5
14656
330
1460B
100
AcDbEntity
  8
SUNPOU
 62
     1
100
AcDbLine
 10
-1383.497421345617
 20
1582.499999999931
 30
0.0
 11
-1383.497421345617
 21
1603.036984732304
 31
0.0
  0
LINE
  5
14657
330
1460B
100
AcDbEntity
  8
SUNPOU
 62
     1
100
AcDbLine
 10
-1491.497421345617
 20
1602.536984732304
 30
0.0
 11
-1386.497421345617
 21
1602.536984732304
 31
0.0
  0
SOLID
  5
14658
330
1460B
100
AcDbEntity
  8
SUNPOU
 62
     1
100
AcDbTrace
 10
-1491.497421345617
 20
1603.036984732304
 30
0.0
 11
-1491.497421345617
 21
1602.036984732304
 31
0.0
 12
-1494.497421345617
 22
1602.536984732304
 32
0.0
 13
-1494.497421345617
 23
1602.536984732304
 33
0.0
  0
SOLID
  5
14659
330
1460B
100
AcDbEntity
  8
SUNPOU
 62
     1
100
AcDbTrace
 10
-1386.497421345617
 20
1603.036984732304
 30
0.0
 11
-1386.497421345617
 21
1602.036984732304
 31
0.0
 12
-1383.497421345617
 22
1602.536984732304
 32
0.0
 13
-1383.497421345617
 23
1602.536984732304
 33
0.0
  0
MTEXT
  5
1465A
330
1460B
100
AcDbEntity
  8
SUNPOU
 62
     1
100
AcDbMText
 10
-1438.997421345617
 20
1605.286984732304
 30
0.0
 40
3.5
 41
0.0
 71
     5
 72
     1
  1
\A1;111
1001
ACAD
1000
MTEXTBEGIN
1070
    73
1070
     1
1070
    44
1040
1.0
1070
    74
1070
     0
1000
MTEXTEND
  0
POINT
  5
1465B
330
1460B
100
AcDbEntity
  8
DEFPOINTS
 62
     0
100
AcDbPoint
 10
-1494.497421345617
 20
1582.0
 30
0.0
  0
POINT
  5
1465C
330
1460B
100
AcDbEntity
  8
DEFPOINTS
 62
     0
100
AcDbPoint
 10
-1383.497421345617
 20
1581.999999999931
 30
0.0
  0
POINT
  5
1465D
330
1460B
100
AcDbEntity
  8
DEFPOINTS
 62
     0
100
AcDbPoint
 10
-1383.497421345617
 20
1602.536984732304
 30
0.0
  0
ENDBLK
  5
14616
330
1460B
100
AcDbEntity
  8
0
100
AcDbBlockEnd
  0
ENDSEC
  0
SECTION
  2
ENTITIES
  0
MTEXT
  5
5084
330
1A
100
AcDbEntity
  8
0
100
AcDbMText
 10
1985.239088685435
 20
-948.5420423450428
 30
0.0
 40
8.0
 41
0.0
 71
     7
 72
     5
  1

1001
ACAD
1000
MTEXTBEGIN
1070
    73
1070
     1
1070
    44
1040
1.0
1070
    74
1070
     0
1000
MTEXTEND
  0
MTEXT
  5
5085
330
1A
100
AcDbEntity
  8
0
100
AcDbMText
 10
4270.596778580329
 20
22.24825240601649
 30
0.0
 40
8.0
 41
0.0
 71
     7
 72
     5
  1

1001
ACAD
1000
MTEXTBEGIN
1070
    73
1070
     1
1070
    44
1040
1.0
1070
    74
1070
     0
1000
MTEXTEND
  0
MTEXT
  5
5343
330
1A
100
AcDbEntity
  8
SUNPOU
100
AcDbMText
 10
6936.493799262471
 20
9534.359644781135
 30
0.0
 40
10.5
 41
0.0
 71
     1
 72
     5
  1

1001
ACAD
1000
MTEXTBEGIN
1070
    73
1070
     1
1070
    44
1040
1.0
1070
    74
1070
     0
1000
MTEXTEND
  0
MTEXT
  5
544F
330
1A
100
AcDbEntity
  8
0
100
AcDbMText
 10
16317.2832773148
 20
12833.35428897674
 30
0.0
 40
8.0
 41
0.0
 71
     7
 72
     5
  1

1001
ACAD
1000
MTEXTBEGIN
1070
    73
1070
     1
1070
    44
1040
1.0
1070
    74
1070
     0
1000
MTEXTEND
  0
MTEXT
  5
5450
330
1A
100
AcDbEntity
  8
0
100
AcDbMText
 10
18602.64096720969
 20
13804.1445837278
 30
0.0
 40
8.0
 41
0.0
 71
     7
 72
     5
  1

1001
ACAD
1000
MTEXTBEGIN
1070
    73
1070
     1
1070
    44
1040
1.0
1070
    74
1070
     0
1000
MTEXTEND
  0
MTEXT
  5
5451
330
1A
100
AcDbEntity
  8
SUNPOU
100
AcDbMText
 10
21268.53798789184
 20
23316.25597610292
 30
0.0
 40
10.5
 41
0.0
 71
     1
 72
     5
  1

1001
ACAD
1000
MTEXTBEGIN
1070
    73
1070
     1
1070
    44
1040
1.0
1070
    74
1070
     0
1000
MTEXTEND
  0
MTEXT
  5
5452
330
1A
100
AcDbEntity
  8
SUNPOU
100
AcDbMText
 10
13337.6147919559
 20
22369.46284218996
 30
0.0
 40
10.5
 41
0.0
 71
     7
 72
     5
  1

1001
ACAD
1000
MTEXTBEGIN
1070
    73
1070
     1
1070
    44
1040
1.0
1070
    74
1070
     0
1000
MTEXTEND
  0
MTEXT
  5
5453
330
1A
100
AcDbEntity
  8
SUNPOU
100
AcDbMText
 10
16286.59845646867
 20
27270.13891403281
 30
0.0
 40
10.5
 41
0.0
 71
     7
 72
     5
  1

1001
ACAD
1000
MTEXTBEGIN
1070
    73
1070
     1
1070
    44
1040
1.0
1070
    74
1070
     0
1000
MTEXTEND
  0
MTEXT
  5
5454
330
1A
100
AcDbEntity
  8
SUNPOU
100
AcDbMText
 10
20795.67658441924
 20
29706.43966165288
 30
0.0
 40
10.5
 41
0.0
 71
     7
 72
     5
  1

1001
ACAD
1000
MTEXTBEGIN
1070
    73
1070
     1
1070
    44
1040
1.0
1070
    74
1070
     0
1000
MTEXTEND
  0
MTEXT
  5
5455
330
1A
100
AcDbEntity
  8
0
100
AcDbMText
 10
16611.93789220314
 20
14707.52144344448
 30
0.0
 40
8.0
 41
0.0
 71
     7
 72
     5
  1

1001
ACAD
1000
MTEXTBEGIN
1070
    73
1070
     1
1070
    44
1040
1.0
1070
    74
1070
     0
1000
MTEXTEND
  0
MTEXT
  5
5456
330
1A
100
AcDbEntity
  8
0
100
AcDbMText
 10
18897.29558209804
 20
15678.31173819554
 30
0.0
 40
8.0
 41
0.0
 71
     7
 72
     5
  1

1001
ACAD
1000
MTEXTBEGIN
1070
    73
1070
     1
1070
    44
1040
1.0
1070
    74
1070
     0
1000
MTEXTEND
  0
MTEXT
  5
5457
330
1A
100
AcDbEntity
  8
SUNPOU
100
AcDbMText
 10
21563.19260278019
 20
25190.42313057066
 30
0.0
 40
10.5
 41
0.0
 71
     1
 72
     5
  1

1001
ACAD
1000
MTEXTBEGIN
1070
    73
1070
     1
1070
    44
1040
1.0
1070
    74
1070
     0
1000
MTEXTEND
  0
MTEXT
  5
5458
330
1A
100
AcDbEntity
  8
SUNPOU
100
AcDbMText
 10
13632.26940684426
 20
24243.6299966577
 30
0.0
 40
10.5
 41
0.0
 71
     7
 72
     5
  1

1001
ACAD
1000
MTEXTBEGIN
1070
    73
1070
     1
1070
    44
1040
1.0
1070
    74
1070
     0
1000
MTEXTEND
  0
MTEXT
  5
5459
330
1A
100
AcDbEntity
  8
SUNPOU
100
AcDbMText
 10
16581.25307135702
 20
29144.30606850055
 30
0.0
 40
10.5
 41
0.0
 71
     7
 72
     5
  1

1001
ACAD
1000
MTEXTBEGIN
1070
    73
1070
     1
1070
    44
1040
1.0
1070
    74
1070
     0
1000
MTEXTEND
  0
MTEXT
  5
545A
330
1A
100
AcDbEntity
  8
SUNPOU
100
AcDbMText
 10
21090.33119930759
 20
31580.60681612062
 30
0.0
 40
10.5
 41
0.0
 71
     7
 72
     5
  1

1001
ACAD
1000
MTEXTBEGIN
1070
    73
1070
     1
1070
    44
1040
1.0
1070
    74
1070
     0
1000
MTEXTEND
  0
MTEXT
  5
545B
330
1A
100
AcDbEntity
  8
0
100
AcDbMText
 10
22871.60517627167
 20
23974.88367124799
 30
0.0
 40
8.0
 41
0.0
 71
     7
 72
     5
  1

1001
ACAD
1000
MTEXTBEGIN
1070
    73
1070
     1
1070
    44
1040
1.0
1070
    74
1070
     0
1000
MTEXTEND
  0
MTEXT
  5
545C
330
1A
100
AcDbEntity
  8
0
100
AcDbMText
 10
25156.96286616657
 20
24945.67396599906
 30
0.0
 40
8.0
 41
0.0
 71
     7
 72
     5
  1

1001
ACAD
1000
MTEXTBEGIN
1070
    73
1070
     1
1070
    44
1040
1.0
1070
    74
1070
     0
1000
MTEXTEND
  0
MTEXT
  5
545D
330
1A
100
AcDbEntity
  8
SUNPOU
100
AcDbMText
 10
27822.85988684871
 20
34457.78535837418
 30
0.0
 40
10.5
 41
0.0
 71
     1
 72
     5
  1

1001
ACAD
1000
MTEXTBEGIN
1070
    73
1070
     1
1070
    44
1040
1.0
1070
    74
1070
     0
1000
MTEXTEND
  0
MTEXT
  5
545E
330
1A
100
AcDbEntity
  8
SUNPOU
100
AcDbMText
 10
19891.93669091278
 20
33510.99222446122
 30
0.0
 40
10.5
 41
0.0
 71
     7
 72
     5
  1

1001
ACAD
1000
MTEXTBEGIN
1070
    73
1070
     1
1070
    44
1040
1.0
1070
    74
1070
     0
1000
MTEXTEND
  0
MTEXT
  5
545F
330
1A
100
AcDbEntity
  8
SUNPOU
100
AcDbMText
 10
22840.92035542555
 20
38411.66829630407
 30
0.0
 40
10.5
 41
0.0
 71
     7
 72
     5
  1

1001
ACAD
1000
MTEXTBEGIN
1070
    73
1070
     1
1070
    44
1040
1.0
1070
    74
1070
     0
1000
MTEXTEND
  0
MTEXT
  5
5460
330
1A
100
AcDbEntity
  8
SUNPOU
100
AcDbMText
 10
27349.99848337611
 20
40847.96904392415
 30
0.0
 40
10.5
 41
0.0
 71
     7
 72
     5
  1

1001
ACAD
1000
MTEXTBEGIN
1070
    73
1070
     1
1070
    44
1040
1.0
1070
    74
1070
     0
1000
MTEXTEND
  0
MTEXT
  5
55B7
330
1A
100
AcDbEntity
  8
SUNPOU
100
AcDbMText
 10
67424.23923338197
 20
64463.86602884816
 30
0.0
 40
10.5
 41
0.0
 71
     9
 72
     5
  1

1001
ACAD
1000
MTEXTBEGIN
1070
    73
1070
     1
1070
    44
1040
1.0
1070
    74
1070
     0
1000
MTEXTEND
  0
MTEXT
  5
55B8
330
1A
100
AcDbEntity
  8
SUNPOU
100
AcDbMText
 10
76146.40679929998
 20
71879.70056038563
 30
0.0
 40
10.5
 41
0.0
 71
     9
 72
     5
  1

1001
ACAD
1000
MTEXTBEGIN
1070
    73
1070
     1
1070
    44
1040
1.0
1070
    74
1070
     0
1000
MTEXTEND
  0
MTEXT
  5
55B9
330
1A
100
AcDbEntity
  8
SUNPOU
100
AcDbMText
 10
95100.16551662994
 20
89346.27661287766
 30
0.0
 40
10.5
 41
0.0
 71
     9
 72
     5
  1

1001
ACAD
1000
MTEXTBEGIN
1070
    73
1070
     1
1070
    44
1040
1.0
1070
    74
1070
     0
1000
MTEXTEND
  0
MTEXT
  5
55BA
330
1A
100
AcDbEntity
  8
SUNPOU
100
AcDbMText
 10
97043.57276333936
 20
87545.22753299966
 30
0.0
 40
3.5
 41
0.0
 71
     9
 72
     5
  1

1001
ACAD
1000
MTEXTBEGIN
1070
    73
1070
     1
1070
    44
1040
1.0
1070
    74
1070
     0
1000
MTEXTEND
  0
MTEXT
  5
55BB
330
1A
100
AcDbEntity
  8
SUNPOU
100
AcDbMText
 10
128169.752595959
 20
130040.1732006569
 30
0.0
 40
10.5
 41
0.0
 71
     9
 72
     5
  1

1001
ACAD
1000
MTEXTBEGIN
1070
    73
1070
     1
1070
    44
1040
1.0
1070
    74
1070
     0
1000
MTEXTEND
  0
MTEXT
  5
55BC
330
1A
100
AcDbEntity
  8
SUNPOU
100
AcDbMText
 10
130113.1598426684
 20
128239.1241207789
 30
0.0
 40
3.5
 41
0.0
 71
     9
 72
     5
  1

1001
ACAD
1000
MTEXTBEGIN
1070
    73
1070
     1
1070
    44
1040
1.0
1070
    74
1070
     0
1000
MTEXTEND
  0
MTEXT
  5
55BD
330
1A
100
AcDbEntity
  8
SUNPOU
100
AcDbMText
 10
78610.02030175463
 20
75873.33835563206
 30
0.0
 40
10.5
 41
0.0
 71
     9
 72
     5
  1

1001
ACAD
1000
MTEXTBEGIN
1070
    73
1070
     1
1070
    44
1040
1.0
1070
    74
1070
     0
1000
MTEXTEND
  0
MTEXT
  5
55BE
330
1A
100
AcDbEntity
  8
SUNPOU
100
AcDbMText
 10
64662.02020137863
 20
56700.93921651987
 30
0.0
 40
3.5
 41
0.0
 71
     7
 72
     5
  1

1001
ACAD
1000
MTEXTBEGIN
1070
    73
1070
     1
1070
    44
1040
1.0
1070
    74
1070
     0
1000
MTEXTEND
  0
MTEXT
  5
55BF
330
1A
100
AcDbEntity
  8
SUNPOU
100
AcDbMText
 10
45647.18959837178
 20
44463.08794733807
 30
0.0
 40
10.5
 41
0.0
 71
     7
 72
     5
  1

1001
ACAD
1000
MTEXTBEGIN
1070
    73
1070
     1
1070
    44
1040
1.0
1070
    74
1070
     0
1000
MTEXTEND
  0
MTEXT
  5
55C0
330
1A
100
AcDbEntity
  8
SUNPOU
100
AcDbMText
 10
33189.96133342368
 20
28618.15636923965
 30
0.0
 40
35.0
 41
0.0
 71
     9
 72
     5
  1

1001
ACAD
1000
MTEXTBEGIN
1070
    73
1070
     1
1070
    44
1040
1.0
1070
    74
1070
     0
1000
MTEXTEND
  0
MTEXT
  5
55C1
330
1A
100
AcDbEntity
  8
SUNPOU
100
AcDbMText
 10
32098.44639099864
 20
29226.93177928835
 30
0.0
 40
350.0000004171781
 41
0.0
 71
     7
 72
     5
  1

1001
ACAD
1000
MTEXTBEGIN
1070
    73
1070
     1
1070
    44
1040
1.0
1070
    74
1070
     0
1000
MTEXTEND
  0
MTEXT
  5
55C2
330
1A
100
AcDbEntity
  8
0
100
AcDbMText
 10
38142.39714894154
 20
27206.85414142458
 30
0.0
 40
8.0
 41
0.0
 71
     7
 72
     5
  1

1001
ACAD
1000
MTEXTBEGIN
1070
    73
1070
     1
1070
    44
1040
1.0
1070
    74
1070
     0
1000
MTEXTEND
  0
MTEXT
  5
55C3
330
1A
100
AcDbEntity
  8
0
100
AcDbMText
 10
40427.75483883644
 20
28177.64443617564
 30
0.0
 40
8.0
 41
0.0
 71
     7
 72
     5
  1

1001
ACAD
1000
MTEXTBEGIN
1070
    73
1070
     1
1070
    44
1040
1.0
1070
    74
1070
     0
1000
MTEXTEND
  0
MTEXT
  5
55C4
330
1A
100
AcDbEntity
  8
SUNPOU
100
AcDbMText
 10
43093.65185951858
 20
37689.75582855077
 30
0.0
 40
10.5
 41
0.0
 71
     1
 72
     5
  1

1001
ACAD
1000
MTEXTBEGIN
1070
    73
1070
     1
1070
    44
1040
1.0
1070
    74
1070
     0
1000
MTEXTEND
  0
MTEXT
  5
55C5
330
1A
100
AcDbEntity
  8
SUNPOU
100
AcDbMText
 10
35162.72866358265
 20
36742.96269463781
 30
0.0
 40
10.5
 41
0.0
 71
     7
 72
     5
  1

1001
ACAD
1000
MTEXTBEGIN
1070
    73
1070
     1
1070
    44
1040
1.0
1070
    74
1070
     0
1000
MTEXTEND
  0
MTEXT
  5
55C6
330
1A
100
AcDbEntity
  8
SUNPOU
100
AcDbMText
 10
38111.71232809542
 20
41643.63876648066
 30
0.0
 40
10.5
 41
0.0
 71
     7
 72
     5
  1

1001
ACAD
1000
MTEXTBEGIN
1070
    73
1070
     1
1070
    44
1040
1.0
1070
    74
1070
     0
1000
MTEXTEND
  0
MTEXT
  5
55C7
330
1A
100
AcDbEntity
  8
SUNPOU
100
AcDbMText
 10
42620.79045604597
 20
44079.93951410074
 30
0.0
 40
10.5
 41
0.0
 71
     7
 72
     5
  1

1001
ACAD
1000
MTEXTBEGIN
1070
    73
1070
     1
1070
    44
1040
1.0
1070
    74
1070
     0
1000
MTEXTEND
  0
MTEXT
  5
55C8
330
1A
100
AcDbEntity
  8
SUNPOU
100
AcDbMText
 10
26221.62834281429
 20
23077.53566448964
 30
0.0
 40
10.5
 41
0.0
 71
     7
 72
     5
  1

1001
ACAD
1000
MTEXTBEGIN
1070
    73
1070
     1
1070
    44
1040
1.0
1070
    74
1070
     0
1000
MTEXTEND
  0
MTEXT
  5
55C9
330
1A
100
AcDbEntity
  8
SUNPOU
100
AcDbMText
 10
77413.14677671455
 20
68750.51622813789
 30
0.0
 40
10.5
 41
0.0
 71
     9
 72
     5
  1

1001
ACAD
1000
MTEXTBEGIN
1070
    73
1070
     1
1070
    44
1040
1.0
1070
    74
1070
     0
1000
MTEXTEND
  0
MTEXT
  5
55CA
330
1A
100
AcDbEntity
  8
SUNPOU
100
AcDbMText
 10
86135.31434263256
 20
76166.35075967536
 30
0.0
 40
10.5
 41
0.0
 71
     9
 72
     5
  1

1001
ACAD
1000
MTEXTBEGIN
1070
    73
1070
     1
1070
    44
1040
1.0
1070
    74
1070
     0
1000
MTEXTEND
  0
MTEXT
  5
55CB
330
1A
100
AcDbEntity
  8
SUNPOU
100
AcDbMText
 10
105089.0730599625
 20
93632.92681216739
 30
0.0
 40
10.5
 41
0.0
 71
     9
 72
     5
  1

1001
ACAD
1000
MTEXTBEGIN
1070
    73
1070
     1
1070
    44
1040
1.0
1070
    74
1070
     0
1000
MTEXTEND
  0
MTEXT
  5
55CC
330
1A
100
AcDbEntity
  8
SUNPOU
100
AcDbMText
 10
107032.4803066719
 20
91831.8777322894
 30
0.0
 40
3.5
 41
0.0
 71
     9
 72
     5
  1

1001
ACAD
1000
MTEXTBEGIN
1070
    73
1070
     1
1070
    44
1040
1.0
1070
    74
1070
     0
1000
MTEXTEND
  0
MTEXT
  5
55CD
330
1A
100
AcDbEntity
  8
SUNPOU
100
AcDbMText
 10
138158.6601392916
 20
134326.8233999467
 30
0.0
 40
10.5
 41
0.0
 71
     9
 72
     5
  1

1001
ACAD
1000
MTEXTBEGIN
1070
    73
1070
     1
1070
    44
1040
1.0
1070
    74
1070
     0
1000
MTEXTEND
  0
MTEXT
  5
55CE
330
1A
100
AcDbEntity
  8
SUNPOU
100
AcDbMText
 10
140102.067386001
 20
132525.7743200686
 30
0.0
 40
3.5
 41
0.0
 71
     9
 72
     5
  1

1001
ACAD
1000
MTEXTBEGIN
1070
    73
1070
     1
1070
    44
1040
1.0
1070
    74
1070
     0
1000
MTEXTEND
  0
MTEXT
  5
55CF
330
1A
100
AcDbEntity
  8
SUNPOU
100
AcDbMText
 10
88598.92784508721
 20
80159.98855492179
 30
0.0
 40
10.5
 41
0.0
 71
     9
 72
     5
  1

1001
ACAD
1000
MTEXTBEGIN
1070
    73
1070
     1
1070
    44
1040
1.0
1070
    74
1070
     0
1000
MTEXTEND
  0
MTEXT
  5
55D0
330
1A
100
AcDbEntity
  8
SUNPOU
100
AcDbMText
 10
74650.92774471121
 20
60987.5894158096
 30
0.0
 40
3.5
 41
0.0
 71
     7
 72
     5
  1

1001
ACAD
1000
MTEXTBEGIN
1070
    73
1070
     1
1070
    44
1040
1.0
1070
    74
1070
     0
1000
MTEXTEND
  0
MTEXT
  5
55D1
330
1A
100
AcDbEntity
  8
SUNPOU
100
AcDbMText
 10
55636.09714170436
 20
48749.73814662781
 30
0.0
 40
10.5
 41
0.0
 71
     7
 72
     5
  1

1001
ACAD
1000
MTEXTBEGIN
1070
    73
1070
     1
1070
    44
1040
1.0
1070
    74
1070
     0
1000
MTEXTEND
  0
MTEXT
  5
55D2
330
1A
100
AcDbEntity
  8
SUNPOU
100
AcDbMText
 10
43178.86887675626
 20
32904.80656852938
 30
0.0
 40
35.0
 41
0.0
 71
     9
 72
     5
  1

1001
ACAD
1000
MTEXTBEGIN
1070
    73
1070
     1
1070
    44
1040
1.0
1070
    74
1070
     0
1000
MTEXTEND
  0
MTEXT
  5
55D3
330
1A
100
AcDbEntity
  8
SUNPOU
100
AcDbMText
 10
42087.35393433121
 20
33513.58197857809
 30
0.0
 40
350.0000004171781
 41
0.0
 71
     7
 72
     5
  1

1001
ACAD
1000
MTEXTBEGIN
1070
    73
1070
     1
1070
    44
1040
1.0
1070
    74
1070
     0
1000
MTEXTEND
  0
MTEXT
  5
55D4
330
1A
100
AcDbEntity
  8
0
100
AcDbMText
 10
48131.30469227412
 20
31493.50434071431
 30
0.0
 40
8.0
 41
0.0
 71
     7
 72
     5
  1

1001
ACAD
1000
MTEXTBEGIN
1070
    73
1070
     1
1070
    44
1040
1.0
1070
    74
1070
     0
1000
MTEXTEND
  0
MTEXT
  5
55D5
330
1A
100
AcDbEntity
  8
0
100
AcDbMText
 10
50416.66238216901
 20
32464.29463546537
 30
0.0
 40
8.0
 41
0.0
 71
     7
 72
     5
  1

1001
ACAD
1000
MTEXTBEGIN
1070
    73
1070
     1
1070
    44
1040
1.0
1070
    74
1070
     0
1000
MTEXTEND
  0
MTEXT
  5
55D6
330
1A
100
AcDbEntity
  8
SUNPOU
100
AcDbMText
 10
53082.55940285115
 20
41976.4060278405
 30
0.0
 40
10.5
 41
0.0
 71
     1
 72
     5
  1

1001
ACAD
1000
MTEXTBEGIN
1070
    73
1070
     1
1070
    44
1040
1.0
1070
    74
1070
     0
1000
MTEXTEND
  0
MTEXT
  5
55D7
330
1A
100
AcDbEntity
  8
SUNPOU
100
AcDbMText
 10
45151.63620691522
 20
41029.61289392755
 30
0.0
 40
10.5
 41
0.0
 71
     7
 72
     5
  1

1001
ACAD
1000
MTEXTBEGIN
1070
    73
1070
     1
1070
    44
1040
1.0
1070
    74
1070
     0
1000
MTEXTEND
  0
MTEXT
  5
55D8
330
1A
100
AcDbEntity
  8
SUNPOU
100
AcDbMText
 10
48100.61987142798
 20
45930.28896577039
 30
0.0
 40
10.5
 41
0.0
 71
     7
 72
     5
  1

1001
ACAD
1000
MTEXTBEGIN
1070
    73
1070
     1
1070
    44
1040
1.0
1070
    74
1070
     0
1000
MTEXTEND
  0
MTEXT
  5
55D9
330
1A
100
AcDbEntity
  8
SUNPOU
100
AcDbMText
 10
52609.69799937854
 20
48366.58971339046
 30
0.0
 40
10.5
 41
0.0
 71
     7
 72
     5
  1

1001
ACAD
1000
MTEXTBEGIN
1070
    73
1070
     1
1070
    44
1040
1.0
1070
    74
1070
     0
1000
MTEXTEND
  0
MTEXT
  5
55DA
330
1A
100
AcDbEntity
  8
SUNPOU
100
AcDbMText
 10
36210.53588614687
 20
27364.18586377937
 30
0.0
 40
10.5
 41
0.0
 71
     7
 72
     5
  1

1001
ACAD
1000
MTEXTBEGIN
1070
    73
1070
     1
1070
    44
1040
1.0
1070
    74
1070
     0
1000
MTEXTEND
  0
MTEXT
  5
55DB
330
1A
100
AcDbEntity
  8
SUNPOU
100
AcDbMText
 10
38021.29879752181
 20
33691.59985125794
 30
0.0
 40
10.5
 41
0.0
 71
     9
 72
     5
  1

1001
ACAD
1000
MTEXTBEGIN
1070
    73
1070
     1
1070
    44
1040
1.0
1070
    74
1070
     0
1000
MTEXTEND
  0
MTEXT
  5
55DC
330
1A
100
AcDbEntity
  8
SUNPOU
100
AcDbMText
 10
46743.46636343979
 20
41107.43438279541
 30
0.0
 40
10.5
 41
0.0
 71
     9
 72
     5
  1

1001
ACAD
1000
MTEXTBEGIN
1070
    73
1070
     1
1070
    44
1040
1.0
1070
    74
1070
     0
1000
MTEXTEND
  0
MTEXT
  5
55DD
330
1A
100
AcDbEntity
  8
SUNPOU
100
AcDbMText
 10
65697.22508076975
 20
58574.01043528746
 30
0.0
 40
10.5
 41
0.0
 71
     9
 72
     5
  1

1001
ACAD
1000
MTEXTBEGIN
1070
    73
1070
     1
1070
    44
1040
1.0
1070
    74
1070
     0
1000
MTEXTEND
  0
MTEXT
  5
55DE
330
1A
100
AcDbEntity
  8
SUNPOU
100
AcDbMText
 10
67640.63232747917
 20
56772.96135540945
 30
0.0
 40
3.5
 41
0.0
 71
     9
 72
     5
  1

1001
ACAD
1000
MTEXTBEGIN
1070
    73
1070
     1
1070
    44
1040
1.0
1070
    74
1070
     0
1000
MTEXTEND
  0
MTEXT
  5
55DF
330
1A
100
AcDbEntity
  8
SUNPOU
100
AcDbMText
 10
98766.81216009888
 20
99267.9070230668
 30
0.0
 40
10.5
 41
0.0
 71
     9
 72
     5
  1

1001
ACAD
1000
MTEXTBEGIN
1070
    73
1070
     1
1070
    44
1040
1.0
1070
    74
1070
     0
1000
MTEXTEND
  0
MTEXT
  5
55E0
330
1A
100
AcDbEntity
  8
SUNPOU
100
AcDbMText
 10
100710.2194068083
 20
97466.85794318878
 30
0.0
 40
3.5
 41
0.0
 71
     9
 72
     5
  1

1001
ACAD
1000
MTEXTBEGIN
1070
    73
1070
     1
1070
    44
1040
1.0
1070
    74
1070
     0
1000
MTEXTEND
  0
MTEXT
  5
55E1
330
1A
100
AcDbEntity
  8
SUNPOU
100
AcDbMText
 10
49207.07986589444
 20
45101.07217804185
 30
0.0
 40
10.5
 41
0.0
 71
     9
 72
     5
  1

1001
ACAD
1000
MTEXTBEGIN
1070
    73
1070
     1
1070
    44
1040
1.0
1070
    74
1070
     0
1000
MTEXTEND
  0
MTEXT
  5
55E2
330
1A
100
AcDbEntity
  8
SUNPOU
100
AcDbMText
 10
35259.07976551845
 20
25928.67303892964
 30
0.0
 40
3.5
 41
0.0
 71
     7
 72
     5
  1

1001
ACAD
1000
MTEXTBEGIN
1070
    73
1070
     1
1070
    44
1040
1.0
1070
    74
1070
     0
1000
MTEXTEND
  0
MTEXT
  5
55E3
330
1A
100
AcDbEntity
  8
SUNPOU
100
AcDbMText
 10
48951.43044828905
 20
35287.73625995099
 30
0.0
 40
10.5
 41
0.0
 71
     9
 72
     5
  1

1001
ACAD
1000
MTEXTBEGIN
1070
    73
1070
     1
1070
    44
1040
1.0
1070
    74
1070
     0
1000
MTEXTEND
  0
MTEXT
  5
55E4
330
1A
100
AcDbEntity
  8
SUNPOU
100
AcDbMText
 10
57673.59801420702
 20
42703.57079148847
 30
0.0
 40
10.5
 41
0.0
 71
     9
 72
     5
  1

1001
ACAD
1000
MTEXTBEGIN
1070
    73
1070
     1
1070
    44
1040
1.0
1070
    74
1070
     0
1000
MTEXTEND
  0
MTEXT
  5
55E5
330
1A
100
AcDbEntity
  8
SUNPOU
100
AcDbMText
 10
76627.35673153699
 20
60170.14684398051
 30
0.0
 40
10.5
 41
0.0
 71
     9
 72
     5
  1

1001
ACAD
1000
MTEXTBEGIN
1070
    73
1070
     1
1070
    44
1040
1.0
1070
    74
1070
     0
1000
MTEXTEND
  0
MTEXT
  5
55E6
330
1A
100
AcDbEntity
  8
SUNPOU
100
AcDbMText
 10
78570.76397824641
 20
58369.09776410251
 30
0.0
 40
3.5
 41
0.0
 71
     9
 72
     5
  1

1001
ACAD
1000
MTEXTBEGIN
1070
    73
1070
     1
1070
    44
1040
1.0
1070
    74
1070
     0
1000
MTEXTEND
  0
MTEXT
  5
55E7
330
1A
100
AcDbEntity
  8
SUNPOU
100
AcDbMText
 10
109696.9438108661
 20
100864.0434317598
 30
0.0
 40
10.5
 41
0.0
 71
     9
 72
     5
  1

1001
ACAD
1000
MTEXTBEGIN
1070
    73
1070
     1
1070
    44
1040
1.0
1070
    74
1070
     0
1000
MTEXTEND
  0
MTEXT
  5
55E8
330
1A
100
AcDbEntity
  8
SUNPOU
100
AcDbMText
 10
111640.3510575755
 20
99062.99435188183
 30
0.0
 40
3.5
 41
0.0
 71
     9
 72
     5
  1

1001
ACAD
1000
MTEXTBEGIN
1070
    73
1070
     1
1070
    44
1040
1.0
1070
    74
1070
     0
1000
MTEXTEND
  0
MTEXT
  5
55E9
330
1A
100
AcDbEntity
  8
SUNPOU
100
AcDbMText
 10
60137.21151666167
 20
46697.20858673491
 30
0.0
 40
10.5
 41
0.0
 71
     9
 72
     5
  1

1001
ACAD
1000
MTEXTBEGIN
1070
    73
1070
     1
1070
    44
1040
1.0
1070
    74
1070
     0
1000
MTEXTEND
  0
MTEXT
  5
55EA
330
1A
100
AcDbEntity
  8
SUNPOU
100
AcDbMText
 10
46189.21141628568
 20
27524.80944762269
 30
0.0
 40
3.5
 41
0.0
 71
     7
 72
     5
  1

1001
ACAD
1000
MTEXTBEGIN
1070
    73
1070
     1
1070
    44
1040
1.0
1070
    74
1070
     0
1000
MTEXTEND
  0
MTEXT
  5
55EB
330
1A
100
AcDbEntity
  8
SUNPOU
100
AcDbMText
 10
45007.68847015541
 20
38269.57947701874
 30
0.0
 40
10.5
 41
0.0
 71
     9
 72
     5
  1

1001
ACAD
1000
MTEXTBEGIN
1070
    73
1070
     1
1070
    44
1040
1.0
1070
    74
1070
     0
1000
MTEXTEND
  0
MTEXT
  5
55EC
330
1A
100
AcDbEntity
  8
SUNPOU
100
AcDbMText
 10
63961.44718748539
 20
55736.15552951081
 30
0.0
 40
10.5
 41
0.0
 71
     9
 72
     5
  1

1001
ACAD
1000
MTEXTBEGIN
1070
    73
1070
     1
1070
    44
1040
1.0
1070
    74
1070
     0
1000
MTEXTEND
  0
MTEXT
  5
55ED
330
1A
100
AcDbEntity
  8
SUNPOU
100
AcDbMText
 10
65904.85443419479
 20
53935.10644963279
 30
0.0
 40
3.5
 41
0.0
 71
     9
 72
     5
  1

1001
ACAD
1000
MTEXTBEGIN
1070
    73
1070
     1
1070
    44
1040
1.0
1070
    74
1070
     0
1000
MTEXTEND
  0
MTEXT
  5
55EE
330
1A
100
AcDbEntity
  8
SUNPOU
100
AcDbMText
 10
97031.03426681451
 20
96430.05211729015
 30
0.0
 40
10.5
 41
0.0
 71
     9
 72
     5
  1

1001
ACAD
1000
MTEXTBEGIN
1070
    73
1070
     1
1070
    44
1040
1.0
1070
    74
1070
     0
1000
MTEXTEND
  0
MTEXT
  5
55EF
330
1A
100
AcDbEntity
  8
SUNPOU
100
AcDbMText
 10
98974.44151352393
 20
94629.00303741212
 30
0.0
 40
3.5
 41
0.0
 71
     9
 72
     5
  1

1001
ACAD
1000
MTEXTBEGIN
1070
    73
1070
     1
1070
    44
1040
1.0
1070
    74
1070
     0
1000
MTEXTEND
  0
MTEXT
  5
55F0
330
1A
100
AcDbEntity
  8
SUNPOU
100
AcDbMText
 10
47471.30197261006
 20
42263.21727226519
 30
0.0
 40
10.5
 41
0.0
 71
     9
 72
     5
  1

1001
ACAD
1000
MTEXTBEGIN
1070
    73
1070
     1
1070
    44
1040
1.0
1070
    74
1070
     0
1000
MTEXTEND
  0
MTEXT
  5
55F1
330
1A
100
AcDbEntity
  8
SUNPOU
100
AcDbMText
 10
33523.30187223408
 20
23090.81813315298
 30
0.0
 40
3.5
 41
0.0
 71
     7
 72
     5
  1

1001
ACAD
1000
MTEXTBEGIN
1070
    73
1070
     1
1070
    44
1040
1.0
1070
    74
1070
     0
1000
MTEXTEND
  0
MTEXT
  5
55F2
330
1A
100
AcDbEntity
  8
SUNPOU
100
AcDbMText
 10
57959.46254102503
 20
50038.08111611015
 30
0.0
 40
10.5
 41
0.0
 71
     9
 72
     5
  1

1001
ACAD
1000
MTEXTBEGIN
1070
    73
1070
     1
1070
    44
1040
1.0
1070
    74
1070
     0
1000
MTEXTEND
  0
MTEXT
  5
55F3
330
1A
100
AcDbEntity
  8
SUNPOU
100
AcDbMText
 10
76913.22125835503
 20
67504.65716860222
 30
0.0
 40
10.5
 41
0.0
 71
     9
 72
     5
  1

1001
ACAD
1000
MTEXTBEGIN
1070
    73
1070
     1
1070
    44
1040
1.0
1070
    74
1070
     0
1000
MTEXTEND
  0
MTEXT
  5
55F4
330
1A
100
AcDbEntity
  8
SUNPOU
100
AcDbMText
 10
78856.62850506443
 20
65703.6080887242
 30
0.0
 40
3.5
 41
0.0
 71
     9
 72
     5
  1

1001
ACAD
1000
MTEXTBEGIN
1070
    73
1070
     1
1070
    44
1040
1.0
1070
    74
1070
     0
1000
MTEXTEND
  0
MTEXT
  5
55F5
330
1A
100
AcDbEntity
  8
SUNPOU
100
AcDbMText
 10
109982.8083376841
 20
108198.5537563815
 30
0.0
 40
10.5
 41
0.0
 71
     9
 72
     5
  1

1001
ACAD
1000
MTEXTBEGIN
1070
    73
1070
     1
1070
    44
1040
1.0
1070
    74
1070
     0
1000
MTEXTEND
  0
MTEXT
  5
55F6
330
1A
100
AcDbEntity
  8
SUNPOU
100
AcDbMText
 10
111926.2155843935
 20
106397.5046765035
 30
0.0
 40
3.5
 41
0.0
 71
     9
 72
     5
  1

1001
ACAD
1000
MTEXTBEGIN
1070
    73
1070
     1
1070
    44
1040
1.0
1070
    74
1070
     0
1000
MTEXTEND
  0
MTEXT
  5
55F7
330
1A
100
AcDbEntity
  8
SUNPOU
100
AcDbMText
 10
60423.07604347968
 20
54031.71891135659
 30
0.0
 40
10.5
 41
0.0
 71
     9
 72
     5
  1

1001
ACAD
1000
MTEXTBEGIN
1070
    73
1070
     1
1070
    44
1040
1.0
1070
    74
1070
     0
1000
MTEXTEND
  0
MTEXT
  5
55F8
330
1A
100
AcDbEntity
  8
SUNPOU
100
AcDbMText
 10
46475.07594310369
 20
34859.3197722444
 30
0.0
 40
3.5
 41
0.0
 71
     7
 72
     5
  1

1001
ACAD
1000
MTEXTBEGIN
1070
    73
1070
     1
1070
    44
1040
1.0
1070
    74
1070
     0
1000
MTEXTEND
  0
MTEXT
  5
55F9
330
1A
100
AcDbEntity
  8
SUNPOU
100
AcDbMText
 10
74027.35402123588
 20
68370.58278833383
 30
0.0
 40
10.5
 41
0.0
 71
     9
 72
     5
  1

1001
ACAD
1000
MTEXTBEGIN
1070
    73
1070
     1
1070
    44
1040
1.0
1070
    74
1070
     0
1000
MTEXTEND
  0
MTEXT
  5
55FA
330
1A
100
AcDbEntity
  8
SUNPOU
100
AcDbMText
 10
75970.7612679453
 20
66569.53370845583
 30
0.0
 40
3.5
 41
0.0
 71
     9
 72
     5
  1

1001
ACAD
1000
MTEXTBEGIN
1070
    73
1070
     1
1070
    44
1040
1.0
1070
    74
1070
     0
1000
MTEXTEND
  0
MTEXT
  5
55FB
330
1A
100
AcDbEntity
  8
SUNPOU
100
AcDbMText
 10
107096.941100565
 20
109064.4793761132
 30
0.0
 40
10.5
 41
0.0
 71
     9
 72
     5
  1

1001
ACAD
1000
MTEXTBEGIN
1070
    73
1070
     1
1070
    44
1040
1.0
1070
    74
1070
     0
1000
MTEXTEND
  0
MTEXT
  5
55FC
330
1A
100
AcDbEntity
  8
SUNPOU
100
AcDbMText
 10
109040.3483472744
 20
107263.4302962351
 30
0.0
 40
3.5
 41
0.0
 71
     9
 72
     5
  1

1001
ACAD
1000
MTEXTBEGIN
1070
    73
1070
     1
1070
    44
1040
1.0
1070
    74
1070
     0
1000
MTEXTEND
  0
MTEXT
  5
55FD
330
1A
100
AcDbEntity
  8
SUNPOU
100
AcDbMText
 10
105709.1709283621
 20
108141.3777665285
 30
0.0
 40
10.5
 41
0.0
 71
     9
 72
     5
  1

1001
ACAD
1000
MTEXTBEGIN
1070
    73
1070
     1
1070
    44
1040
1.0
1070
    74
1070
     0
1000
MTEXTEND
  0
MTEXT
  5
55FE
330
1A
100
AcDbEntity
  8
SUNPOU
100
AcDbMText
 10
107652.5781750715
 20
106340.3286866505
 30
0.0
 40
3.5
 41
0.0
 71
     9
 72
     5
  1

1001
ACAD
1000
MTEXTBEGIN
1070
    73
1070
     1
1070
    44
1040
1.0
1070
    74
1070
     0
1000
MTEXTEND
  0
MTEXT
  5
55FF
330
1A
100
AcDbEntity
  8
SUNPOU
100
AcDbMText
 10
73193.09268743351
 20
66158.78082845056
 30
0.0
 40
10.5
 41
0.0
 71
     9
 72
     5
  1

1001
ACAD
1000
MTEXTBEGIN
1070
    73
1070
     1
1070
    44
1040
1.0
1070
    74
1070
     0
1000
MTEXTEND
  0
MTEXT
  5
5600
330
1A
100
AcDbEntity
  8
SUNPOU
100
AcDbMText
 10
75916.39889159806
 20
66563.46252003162
 30
0.0
 40
3.5
 41
0.0
 71
     9
 72
     5
  1

1001
ACAD
1000
MTEXTBEGIN
1070
    73
1070
     1
1070
    44
1040
1.0
1070
    74
1070
     0
1000
MTEXTEND
  0
MTEXT
  5
5601
330
1A
100
AcDbEntity
  8
SUNPOU
100
AcDbMText
 10
75124.04436649058
 20
63402.1566819768
 30
0.0
 40
10.5
 41
0.0
 71
     9
 72
     5
  1

1001
ACAD
1000
MTEXTBEGIN
1070
    73
1070
     1
1070
    44
1040
1.0
1070
    74
1070
     0
1000
MTEXTEND
  0
MTEXT
  5
5602
330
1A
100
AcDbEntity
  8
SUNPOU
100
AcDbMText
 10
77067.4516132
 20
61601.1076020988
 30
0.0
 40
3.5
 41
0.0
 71
     9
 72
     5
  1

1001
ACAD
1000
MTEXTBEGIN
1070
    73
1070
     1
1070
    44
1040
1.0
1070
    74
1070
     0
1000
MTEXTEND
  0
MTEXT
  5
5603
330
1A
100
AcDbEntity
  8
SUNPOU
100
AcDbMText
 10
77012.54710378659
 20
61488.33571981449
 30
0.0
 40
3.5
 41
0.0
 71
     9
 72
     5
  1

1001
ACAD
1000
MTEXTBEGIN
1070
    73
1070
     1
1070
    44
1040
1.0
1070
    74
1070
     0
1000
MTEXTEND
  0
MTEXT
  5
5604
330
1A
100
AcDbEntity
  8
SUNPOU
100
AcDbMText
 10
76376.61896736668
 20
60677.01447874797
 30
0.0
 40
3.5
 41
0.0
 71
     9
 72
     5
  1

1001
ACAD
1000
MTEXTBEGIN
1070
    73
1070
     1
1070
    44
1040
1.0
1070
    74
1070
     0
1000
MTEXTEND
  0
MTEXT
  5
5605
330
1A
100
AcDbEntity
  8
SUNPOU
100
AcDbMText
 10
76375.37854794595
 20
60676.76650181047
 30
0.0
 40
10.5
 41
0.0
 71
     9
 72
     5
  1

1001
ACAD
1000
MTEXTBEGIN
1070
    73
1070
     1
1070
    44
1040
1.0
1070
    74
1070
     0
1000
MTEXTEND
  0
MTEXT
  5
5606
330
1A
100
AcDbEntity
  8
SUNPOU
100
AcDbMText
 10
84709.93991079748
 20
78034.0328293557
 30
0.0
 40
10.5
 41
0.0
 71
     9
 72
     5
  1

1001
ACAD
1000
MTEXTBEGIN
1070
    73
1070
     1
1070
    44
1040
1.0
1070
    74
1070
     0
1000
MTEXTEND
  0
MTEXT
  5
5607
330
1A
100
AcDbEntity
  8
SUNPOU
100
AcDbMText
 10
93432.10747671548
 20
85449.86736089315
 30
0.0
 40
10.5
 41
0.0
 71
     9
 72
     5
  1

1001
ACAD
1000
MTEXTBEGIN
1070
    73
1070
     1
1070
    44
1040
1.0
1070
    74
1070
     0
1000
MTEXTEND
  0
MTEXT
  5
5608
330
1A
100
AcDbEntity
  8
SUNPOU
100
AcDbMText
 10
112385.8661940454
 20
102916.4434133851
 30
0.0
 40
10.5
 41
0.0
 71
     9
 72
     5
  1

1001
ACAD
1000
MTEXTBEGIN
1070
    73
1070
     1
1070
    44
1040
1.0
1070
    74
1070
     0
1000
MTEXTEND
  0
MTEXT
  5
5609
330
1A
100
AcDbEntity
  8
SUNPOU
100
AcDbMText
 10
114329.2734407548
 20
101115.3943335072
 30
0.0
 40
3.5
 41
0.0
 71
     9
 72
     5
  1

1001
ACAD
1000
MTEXTBEGIN
1070
    73
1070
     1
1070
    44
1040
1.0
1070
    74
1070
     0
1000
MTEXTEND
  0
MTEXT
  5
560A
330
1A
100
AcDbEntity
  8
SUNPOU
100
AcDbMText
 10
145455.4532733745
 20
143610.3400011645
 30
0.0
 40
10.5
 41
0.0
 71
     9
 72
     5
  1

1001
ACAD
1000
MTEXTBEGIN
1070
    73
1070
     1
1070
    44
1040
1.0
1070
    74
1070
     0
1000
MTEXTEND
  0
MTEXT
  5
560B
330
1A
100
AcDbEntity
  8
SUNPOU
100
AcDbMText
 10
147398.8605200839
 20
141809.2909212864
 30
0.0
 40
3.5
 41
0.0
 71
     9
 72
     5
  1

1001
ACAD
1000
MTEXTBEGIN
1070
    73
1070
     1
1070
    44
1040
1.0
1070
    74
1070
     0
1000
MTEXTEND
  0
MTEXT
  5
560C
330
1A
100
AcDbEntity
  8
SUNPOU
100
AcDbMText
 10
95895.72097917013
 20
89443.5051561396
 30
0.0
 40
10.5
 41
0.0
 71
     9
 72
     5
  1

1001
ACAD
1000
MTEXTBEGIN
1070
    73
1070
     1
1070
    44
1040
1.0
1070
    74
1070
     0
1000
MTEXTEND
  0
MTEXT
  5
560D
330
1A
100
AcDbEntity
  8
SUNPOU
100
AcDbMText
 10
81947.72087879414
 20
70271.1060170274
 30
0.0
 40
3.5
 41
0.0
 71
     7
 72
     5
  1

1001
ACAD
1000
MTEXTBEGIN
1070
    73
1070
     1
1070
    44
1040
1.0
1070
    74
1070
     0
1000
MTEXTEND
  0
MTEXT
  5
560E
330
1A
100
AcDbEntity
  8
SUNPOU
100
AcDbMText
 10
62932.89027578729
 20
58033.25474784561
 30
0.0
 40
10.5
 41
0.0
 71
     7
 72
     5
  1

1001
ACAD
1000
MTEXTBEGIN
1070
    73
1070
     1
1070
    44
1040
1.0
1070
    74
1070
     0
1000
MTEXTEND
  0
MTEXT
  5
560F
330
1A
100
AcDbEntity
  8
SUNPOU
100
AcDbMText
 10
50475.66201083918
 20
42188.32316974719
 30
0.0
 40
35.0
 41
0.0
 71
     9
 72
     5
  1

1001
ACAD
1000
MTEXTBEGIN
1070
    73
1070
     1
1070
    44
1040
1.0
1070
    74
1070
     0
1000
MTEXTEND
  0
MTEXT
  5
5610
330
1A
100
AcDbEntity
  8
SUNPOU
100
AcDbMText
 10
49384.14706841413
 20
42797.0985797959
 30
0.0
 40
350.0000004171781
 41
0.0
 71
     7
 72
     5
  1

1001
ACAD
1000
MTEXTBEGIN
1070
    73
1070
     1
1070
    44
1040
1.0
1070
    74
1070
     0
1000
MTEXTEND
  0
MTEXT
  5
5611
330
1A
100
AcDbEntity
  8
0
100
AcDbMText
 10
55428.09782635704
 20
40777.02094193211
 30
0.0
 40
8.0
 41
0.0
 71
     7
 72
     5
  1

1001
ACAD
1000
MTEXTBEGIN
1070
    73
1070
     1
1070
    44
1040
1.0
1070
    74
1070
     0
1000
MTEXTEND
  0
MTEXT
  5
5612
330
1A
100
AcDbEntity
  8
0
100
AcDbMText
 10
57713.45551625194
 20
41747.81123668317
 30
0.0
 40
8.0
 41
0.0
 71
     7
 72
     5
  1

1001
ACAD
1000
MTEXTBEGIN
1070
    73
1070
     1
1070
    44
1040
1.0
1070
    74
1070
     0
1000
MTEXTEND
  0
MTEXT
  5
5613
330
1A
100
AcDbEntity
  8
SUNPOU
100
AcDbMText
 10
60379.35253693408
 20
51259.9226290583
 30
0.0
 40
10.5
 41
0.0
 71
     1
 72
     5
  1

1001
ACAD
1000
MTEXTBEGIN
1070
    73
1070
     1
1070
    44
1040
1.0
1070
    74
1070
     0
1000
MTEXTEND
  0
MTEXT
  5
5614
330
1A
100
AcDbEntity
  8
SUNPOU
100
AcDbMText
 10
52448.42934099814
 20
50313.12949514535
 30
0.0
 40
10.5
 41
0.0
 71
     7
 72
     5
  1

1001
ACAD
1000
MTEXTBEGIN
1070
    73
1070
     1
1070
    44
1040
1.0
1070
    74
1070
     0
1000
MTEXTEND
  0
MTEXT
  5
5615
330
1A
100
AcDbEntity
  8
SUNPOU
100
AcDbMText
 10
55397.41300551091
 20
55213.80556698819
 30
0.0
 40
10.5
 41
0.0
 71
     7
 72
     5
  1

1001
ACAD
1000
MTEXTBEGIN
1070
    73
1070
     1
1070
    44
1040
1.0
1070
    74
1070
     0
1000
MTEXTEND
  0
MTEXT
  5
5616
330
1A
100
AcDbEntity
  8
SUNPOU
100
AcDbMText
 10
59906.49113346147
 20
57650.10631460826
 30
0.0
 40
10.5
 41
0.0
 71
     7
 72
     5
  1

1001
ACAD
1000
MTEXTBEGIN
1070
    73
1070
     1
1070
    44
1040
1.0
1070
    74
1070
     0
1000
MTEXTEND
  0
MTEXT
  5
5617
330
1A
100
AcDbEntity
  8
SUNPOU
100
AcDbMText
 10
43507.32902022979
 20
36647.70246499718
 30
0.0
 40
10.5
 41
0.0
 71
     7
 72
     5
  1

1001
ACAD
1000
MTEXTBEGIN
1070
    73
1070
     1
1070
    44
1040
1.0
1070
    74
1070
     0
1000
MTEXTEND
  0
MTEXT
  5
5618
330
1A
100
AcDbEntity
  8
SUNPOU
100
AcDbMText
 10
94698.84745413006
 20
82320.68302864542
 30
0.0
 40
10.5
 41
0.0
 71
     9
 72
     5
  1

1001
ACAD
1000
MTEXTBEGIN
1070
    73
1070
     1
1070
    44
1040
1.0
1070
    74
1070
     0
1000
MTEXTEND
  0
MTEXT
  5
5619
330
1A
100
AcDbEntity
  8
SUNPOU
100
AcDbMText
 10
103421.015020048
 20
89736.5175601829
 30
0.0
 40
10.5
 41
0.0
 71
     9
 72
     5
  1

1001
ACAD
1000
MTEXTBEGIN
1070
    73
1070
     1
1070
    44
1040
1.0
1070
    74
1070
     0
1000
MTEXTEND
  0
MTEXT
  5
561A
330
1A
100
AcDbEntity
  8
SUNPOU
100
AcDbMText
 10
122374.773737378
 20
107203.0936126749
 30
0.0
 40
10.5
 41
0.0
 71
     9
 72
     5
  1

1001
ACAD
1000
MTEXTBEGIN
1070
    73
1070
     1
1070
    44
1040
1.0
1070
    74
1070
     0
1000
MTEXTEND
  0
MTEXT
  5
561B
330
1A
100
AcDbEntity
  8
SUNPOU
100
AcDbMText
 10
124318.1809840874
 20
105402.0445327969
 30
0.0
 40
3.5
 41
0.0
 71
     9
 72
     5
  1

1001
ACAD
1000
MTEXTBEGIN
1070
    73
1070
     1
1070
    44
1040
1.0
1070
    74
1070
     0
1000
MTEXTEND
  0
MTEXT
  5
561C
330
1A
100
AcDbEntity
  8
SUNPOU
100
AcDbMText
 10
155444.3608167071
 20
147896.9902004542
 30
0.0
 40
10.5
 41
0.0
 71
     9
 72
     5
  1

1001
ACAD
1000
MTEXTBEGIN
1070
    73
1070
     1
1070
    44
1040
1.0
1070
    74
1070
     0
1000
MTEXTEND
  0
MTEXT
  5
561D
330
1A
100
AcDbEntity
  8
SUNPOU
100
AcDbMText
 10
157387.7680634165
 20
146095.9411205762
 30
0.0
 40
3.5
 41
0.0
 71
     9
 72
     5
  1

1001
ACAD
1000
MTEXTBEGIN
1070
    73
1070
     1
1070
    44
1040
1.0
1070
    74
1070
     0
1000
MTEXTEND
  0
MTEXT
  5
561E
330
1A
100
AcDbEntity
  8
SUNPOU
100
AcDbMText
 10
105884.6285225027
 20
93730.15535542933
 30
0.0
 40
10.5
 41
0.0
 71
     9
 72
     5
  1

1001
ACAD
1000
MTEXTBEGIN
1070
    73
1070
     1
1070
    44
1040
1.0
1070
    74
1070
     0
1000
MTEXTEND
  0
MTEXT
  5
561F
330
1A
100
AcDbEntity
  8
SUNPOU
100
AcDbMText
 10
91936.6284221267
 20
74557.75621631714
 30
0.0
 40
3.5
 41
0.0
 71
     7
 72
     5
  1

1001
ACAD
1000
MTEXTBEGIN
1070
    73
1070
     1
1070
    44
1040
1.0
1070
    74
1070
     0
1000
MTEXTEND
  0
MTEXT
  5
5620
330
1A
100
AcDbEntity
  8
SUNPOU
100
AcDbMText
 10
72921.79781911986
 20
62319.90494713533
 30
0.0
 40
10.5
 41
0.0
 71
     7
 72
     5
  1

1001
ACAD
1000
MTEXTBEGIN
1070
    73
1070
     1
1070
    44
1040
1.0
1070
    74
1070
     0
1000
MTEXTEND
  0
MTEXT
  5
5621
330
1A
100
AcDbEntity
  8
SUNPOU
100
AcDbMText
 10
60464.56955417175
 20
46474.97336903692
 30
0.0
 40
35.0
 41
0.0
 71
     9
 72
     5
  1

1001
ACAD
1000
MTEXTBEGIN
1070
    73
1070
     1
1070
    44
1040
1.0
1070
    74
1070
     0
1000
MTEXTEND
  0
MTEXT
  5
5622
330
1A
100
AcDbEntity
  8
SUNPOU
100
AcDbMText
 10
59373.05461174672
 20
47083.74877908562
 30
0.0
 40
350.0000004171781
 41
0.0
 71
     7
 72
     5
  1

1001
ACAD
1000
MTEXTBEGIN
1070
    73
1070
     1
1070
    44
1040
1.0
1070
    74
1070
     0
1000
MTEXTEND
  0
MTEXT
  5
5623
330
1A
100
AcDbEntity
  8
0
100
AcDbMText
 10
65417.00536968962
 20
45063.67114122186
 30
0.0
 40
8.0
 41
0.0
 71
     7
 72
     5
  1

1001
ACAD
1000
MTEXTBEGIN
1070
    73
1070
     1
1070
    44
1040
1.0
1070
    74
1070
     0
1000
MTEXTEND
  0
MTEXT
  5
5624
330
1A
100
AcDbEntity
  8
0
100
AcDbMText
 10
67702.36305958452
 20
46034.46143597292
 30
0.0
 40
8.0
 41
0.0
 71
     7
 72
     5
  1

1001
ACAD
1000
MTEXTBEGIN
1070
    73
1070
     1
1070
    44
1040
1.0
1070
    74
1070
     0
1000
MTEXTEND
  0
MTEXT
  5
5625
330
1A
100
AcDbEntity
  8
SUNPOU
100
AcDbMText
 10
70368.26008026666
 20
55546.57282834803
 30
0.0
 40
10.5
 41
0.0
 71
     1
 72
     5
  1

1001
ACAD
1000
MTEXTBEGIN
1070
    73
1070
     1
1070
    44
1040
1.0
1070
    74
1070
     0
1000
MTEXTEND
  0
MTEXT
  5
5626
330
1A
100
AcDbEntity
  8
SUNPOU
100
AcDbMText
 10
62437.33688433072
 20
54599.77969443508
 30
0.0
 40
10.5
 41
0.0
 71
     7
 72
     5
  1

1001
ACAD
1000
MTEXTBEGIN
1070
    73
1070
     1
1070
    44
1040
1.0
1070
    74
1070
     0
1000
MTEXTEND
  0
MTEXT
  5
5627
330
1A
100
AcDbEntity
  8
SUNPOU
100
AcDbMText
 10
65386.32054884349
 20
59500.45576627792
 30
0.0
 40
10.5
 41
0.0
 71
     7
 72
     5
  1

1001
ACAD
1000
MTEXTBEGIN
1070
    73
1070
     1
1070
    44
1040
1.0
1070
    74
1070
     0
1000
MTEXTEND
  0
MTEXT
  5
5628
330
1A
100
AcDbEntity
  8
SUNPOU
100
AcDbMText
 10
69895.39867679405
 20
61936.756513898
 30
0.0
 40
10.5
 41
0.0
 71
     7
 72
     5
  1

1001
ACAD
1000
MTEXTBEGIN
1070
    73
1070
     1
1070
    44
1040
1.0
1070
    74
1070
     0
1000
MTEXTEND
  0
MTEXT
  5
5629
330
1A
100
AcDbEntity
  8
SUNPOU
100
AcDbMText
 10
53496.23656356237
 20
40934.35266428691
 30
0.0
 40
10.5
 41
0.0
 71
     7
 72
     5
  1

1001
ACAD
1000
MTEXTBEGIN
1070
    73
1070
     1
1070
    44
1040
1.0
1070
    74
1070
     0
1000
MTEXTEND
  0
MTEXT
  5
562A
330
1A
100
AcDbEntity
  8
SUNPOU
100
AcDbMText
 10
55306.99947493731
 20
47261.76665176547
 30
0.0
 40
10.5
 41
0.0
 71
     9
 72
     5
  1

1001
ACAD
1000
MTEXTBEGIN
1070
    73
1070
     1
1070
    44
1040
1.0
1070
    74
1070
     0
1000
MTEXTEND
  0
MTEXT
  5
562B
330
1A
100
AcDbEntity
  8
SUNPOU
100
AcDbMText
 10
64029.16704085528
 20
54677.60118330295
 30
0.0
 40
10.5
 41
0.0
 71
     9
 72
     5
  1

1001
ACAD
1000
MTEXTBEGIN
1070
    73
1070
     1
1070
    44
1040
1.0
1070
    74
1070
     0
1000
MTEXTEND
  0
MTEXT
  5
562C
330
1A
100
AcDbEntity
  8
SUNPOU
100
AcDbMText
 10
82982.92575818527
 20
72144.17723579499
 30
0.0
 40
10.5
 41
0.0
 71
     9
 72
     5
  1

1001
ACAD
1000
MTEXTBEGIN
1070
    73
1070
     1
1070
    44
1040
1.0
1070
    74
1070
     0
1000
MTEXTEND
  0
MTEXT
  5
562D
330
1A
100
AcDbEntity
  8
SUNPOU
100
AcDbMText
 10
84926.33300489467
 20
70343.12815591698
 30
0.0
 40
3.5
 41
0.0
 71
     9
 72
     5
  1

1001
ACAD
1000
MTEXTBEGIN
1070
    73
1070
     1
1070
    44
1040
1.0
1070
    74
1070
     0
1000
MTEXTEND
  0
MTEXT
  5
562E
330
1A
100
AcDbEntity
  8
SUNPOU
100
AcDbMText
 10
116052.5128375143
 20
112838.0738235743
 30
0.0
 40
10.5
 41
0.0
 71
     9
 72
     5
  1

1001
ACAD
1000
MTEXTBEGIN
1070
    73
1070
     1
1070
    44
1040
1.0
1070
    74
1070
     0
1000
MTEXTEND
  0
MTEXT
  5
562F
330
1A
100
AcDbEntity
  8
SUNPOU
100
AcDbMText
 10
117995.9200842238
 20
111037.0247436963
 30
0.0
 40
3.5
 41
0.0
 71
     9
 72
     5
  1

1001
ACAD
1000
MTEXTBEGIN
1070
    73
1070
     1
1070
    44
1040
1.0
1070
    74
1070
     0
1000
MTEXTEND
  0
MTEXT
  5
5630
330
1A
100
AcDbEntity
  8
SUNPOU
100
AcDbMText
 10
66492.78054330994
 20
58671.23897854939
 30
0.0
 40
10.5
 41
0.0
 71
     9
 72
     5
  1

1001
ACAD
1000
MTEXTBEGIN
1070
    73
1070
     1
1070
    44
1040
1.0
1070
    74
1070
     0
1000
MTEXTEND
  0
MTEXT
  5
5631
330
1A
100
AcDbEntity
  8
SUNPOU
100
AcDbMText
 10
52544.78044293396
 20
39498.83983943717
 30
0.0
 40
3.5
 41
0.0
 71
     7
 72
     5
  1

1001
ACAD
1000
MTEXTBEGIN
1070
    73
1070
     1
1070
    44
1040
1.0
1070
    74
1070
     0
1000
MTEXTEND
  0
MTEXT
  5
5632
330
1A
100
AcDbEntity
  8
SUNPOU
100
AcDbMText
 10
66237.13112570454
 20
48857.90306045851
 30
0.0
 40
10.5
 41
0.0
 71
     9
 72
     5
  1

1001
ACAD
1000
MTEXTBEGIN
1070
    73
1070
     1
1070
    44
1040
1.0
1070
    74
1070
     0
1000
MTEXTEND
  0
MTEXT
  5
5633
330
1A
100
AcDbEntity
  8
SUNPOU
100
AcDbMText
 10
74959.29869162252
 20
56273.737591996
 30
0.0
 40
10.5
 41
0.0
 71
     9
 72
     5
  1

1001
ACAD
1000
MTEXTBEGIN
1070
    73
1070
     1
1070
    44
1040
1.0
1070
    74
1070
     0
1000
MTEXTEND
  0
MTEXT
  5
5634
330
1A
100
AcDbEntity
  8
SUNPOU
100
AcDbMText
 10
93913.0574089525
 20
73740.31364448805
 30
0.0
 40
10.5
 41
0.0
 71
     9
 72
     5
  1

1001
ACAD
1000
MTEXTBEGIN
1070
    73
1070
     1
1070
    44
1040
1.0
1070
    74
1070
     0
1000
MTEXTEND
  0
MTEXT
  5
5635
330
1A
100
AcDbEntity
  8
SUNPOU
100
AcDbMText
 10
95856.46465566192
 20
71939.26456461004
 30
0.0
 40
3.5
 41
0.0
 71
     9
 72
     5
  1

1001
ACAD
1000
MTEXTBEGIN
1070
    73
1070
     1
1070
    44
1040
1.0
1070
    74
1070
     0
1000
MTEXTEND
  0
MTEXT
  5
5636
330
1A
100
AcDbEntity
  8
SUNPOU
100
AcDbMText
 10
126982.6444882816
 20
114434.2102322673
 30
0.0
 40
10.5
 41
0.0
 71
     9
 72
     5
  1

1001
ACAD
1000
MTEXTBEGIN
1070
    73
1070
     1
1070
    44
1040
1.0
1070
    74
1070
     0
1000
MTEXTEND
  0
MTEXT
  5
5637
330
1A
100
AcDbEntity
  8
SUNPOU
100
AcDbMText
 10
128926.051734991
 20
112633.1611523893
 30
0.0
 40
3.5
 41
0.0
 71
     9
 72
     5
  1

1001
ACAD
1000
MTEXTBEGIN
1070
    73
1070
     1
1070
    44
1040
1.0
1070
    74
1070
     0
1000
MTEXTEND
  0
MTEXT
  5
5638
330
1A
100
AcDbEntity
  8
SUNPOU
100
AcDbMText
 10
77422.91219407717
 20
60267.37538724244
 30
0.0
 40
10.5
 41
0.0
 71
     9
 72
     5
  1

1001
ACAD
1000
MTEXTBEGIN
1070
    73
1070
     1
1070
    44
1040
1.0
1070
    74
1070
     0
1000
MTEXTEND
  0
MTEXT
  5
5639
330
1A
100
AcDbEntity
  8
SUNPOU
100
AcDbMText
 10
63474.91209370119
 20
41094.97624813023
 30
0.0
 40
3.5
 41
0.0
 71
     7
 72
     5
  1

1001
ACAD
1000
MTEXTBEGIN
1070
    73
1070
     1
1070
    44
1040
1.0
1070
    74
1070
     0
1000
MTEXTEND
  0
MTEXT
  5
563A
330
1A
100
AcDbEntity
  8
SUNPOU
100
AcDbMText
 10
48117.65086229006
 20
40806.11043916631
 30
0.0
 40
10.5
 41
0.0
 71
     9
 72
     5
  1

1001
ACAD
1000
MTEXTBEGIN
1070
    73
1070
     1
1070
    44
1040
1.0
1070
    74
1070
     0
1000
MTEXTEND
  0
MTEXT
  5
563B
330
1A
100
AcDbEntity
  8
SUNPOU
100
AcDbMText
 10
67071.40957962004
 20
58272.68649165837
 30
0.0
 40
10.5
 41
0.0
 71
     9
 72
     5
  1

1001
ACAD
1000
MTEXTBEGIN
1070
    73
1070
     1
1070
    44
1040
1.0
1070
    74
1070
     0
1000
MTEXTEND
  0
MTEXT
  5
563C
330
1A
100
AcDbEntity
  8
SUNPOU
100
AcDbMText
 10
69014.81682632945
 20
56471.63741178035
 30
0.0
 40
3.5
 41
0.0
 71
     9
 72
     5
  1

1001
ACAD
1000
MTEXTBEGIN
1070
    73
1070
     1
1070
    44
1040
1.0
1070
    74
1070
     0
1000
MTEXTEND
  0
MTEXT
  5
563D
330
1A
100
AcDbEntity
  8
SUNPOU
100
AcDbMText
 10
100140.9966589491
 20
98966.58307943772
 30
0.0
 40
10.5
 41
0.0
 71
     9
 72
     5
  1

1001
ACAD
1000
MTEXTBEGIN
1070
    73
1070
     1
1070
    44
1040
1.0
1070
    74
1070
     0
1000
MTEXTEND
  0
MTEXT
  5
563E
330
1A
100
AcDbEntity
  8
SUNPOU
100
AcDbMText
 10
102084.4039056586
 20
97165.53399955969
 30
0.0
 40
3.5
 41
0.0
 71
     9
 72
     5
  1

1001
ACAD
1000
MTEXTBEGIN
1070
    73
1070
     1
1070
    44
1040
1.0
1070
    74
1070
     0
1000
MTEXTEND
  0
MTEXT
  5
563F
330
1A
100
AcDbEntity
  8
SUNPOU
100
AcDbMText
 10
50581.26436474472
 20
44799.74823441275
 30
0.0
 40
10.5
 41
0.0
 71
     9
 72
     5
  1

1001
ACAD
1000
MTEXTBEGIN
1070
    73
1070
     1
1070
    44
1040
1.0
1070
    74
1070
     0
1000
MTEXTEND
  0
MTEXT
  5
5640
330
1A
100
AcDbEntity
  8
SUNPOU
100
AcDbMText
 10
36633.26426436873
 20
25627.34909530054
 30
0.0
 40
3.5
 41
0.0
 71
     7
 72
     5
  1

1001
ACAD
1000
MTEXTBEGIN
1070
    73
1070
     1
1070
    44
1040
1.0
1070
    74
1070
     0
1000
MTEXTEND
  0
MTEXT
  5
5641
330
1A
100
AcDbEntity
  8
SUNPOU
100
AcDbMText
 10
61069.42493315968
 20
52574.61207825771
 30
0.0
 40
10.5
 41
0.0
 71
     9
 72
     5
  1

1001
ACAD
1000
MTEXTBEGIN
1070
    73
1070
     1
1070
    44
1040
1.0
1070
    74
1070
     0
1000
MTEXTEND
  0
MTEXT
  5
5642
330
1A
100
AcDbEntity
  8
SUNPOU
100
AcDbMText
 10
80023.18365048967
 20
70041.18813074978
 30
0.0
 40
10.5
 41
0.0
 71
     9
 72
     5
  1

1001
ACAD
1000
MTEXTBEGIN
1070
    73
1070
     1
1070
    44
1040
1.0
1070
    74
1070
     0
1000
MTEXTEND
  0
MTEXT
  5
5643
330
1A
100
AcDbEntity
  8
SUNPOU
100
AcDbMText
 10
81966.59089719908
 20
68240.13905087176
 30
0.0
 40
3.5
 41
0.0
 71
     9
 72
     5
  1

1001
ACAD
1000
MTEXTBEGIN
1070
    73
1070
     1
1070
    44
1040
1.0
1070
    74
1070
     0
1000
MTEXTEND
  0
MTEXT
  5
5644
330
1A
100
AcDbEntity
  8
SUNPOU
100
AcDbMText
 10
113092.7707298187
 20
110735.0847185291
 30
0.0
 40
10.5
 41
0.0
 71
     9
 72
     5
  1

1001
ACAD
1000
MTEXTBEGIN
1070
    73
1070
     1
1070
    44
1040
1.0
1070
    74
1070
     0
1000
MTEXTEND
  0
MTEXT
  5
5645
330
1A
100
AcDbEntity
  8
SUNPOU
100
AcDbMText
 10
115036.1779765282
 20
108934.0356386511
 30
0.0
 40
3.5
 41
0.0
 71
     9
 72
     5
  1

1001
ACAD
1000
MTEXTBEGIN
1070
    73
1070
     1
1070
    44
1040
1.0
1070
    74
1070
     0
1000
MTEXTEND
  0
MTEXT
  5
5646
330
1A
100
AcDbEntity
  8
SUNPOU
100
AcDbMText
 10
63533.03843561433
 20
56568.24987350415
 30
0.0
 40
10.5
 41
0.0
 71
     9
 72
     5
  1

1001
ACAD
1000
MTEXTBEGIN
1070
    73
1070
     1
1070
    44
1040
1.0
1070
    74
1070
     0
1000
MTEXTEND
  0
MTEXT
  5
5647
330
1A
100
AcDbEntity
  8
SUNPOU
100
AcDbMText
 10
49585.03833523835
 20
37395.85073439196
 30
0.0
 40
3.5
 41
0.0
 71
     7
 72
     5
  1

1001
ACAD
1000
MTEXTBEGIN
1070
    73
1070
     1
1070
    44
1040
1.0
1070
    74
1070
     0
1000
MTEXTEND
  0
MTEXT
  5
5648
330
1A
100
AcDbEntity
  8
SUNPOU
100
AcDbMText
 10
77137.31641337052
 20
70907.11375048141
 30
0.0
 40
10.5
 41
0.0
 71
     9
 72
     5
  1

1001
ACAD
1000
MTEXTBEGIN
1070
    73
1070
     1
1070
    44
1040
1.0
1070
    74
1070
     0
1000
MTEXTEND
  0
MTEXT
  5
5649
330
1A
100
AcDbEntity
  8
SUNPOU
100
AcDbMText
 10
79080.72366007995
 20
69106.06467060339
 30
0.0
 40
3.5
 41
0.0
 71
     9
 72
     5
  1

1001
ACAD
1000
MTEXTBEGIN
1070
    73
1070
     1
1070
    44
1040
1.0
1070
    74
1070
     0
1000
MTEXTEND
  0
MTEXT
  5
564A
330
1A
100
AcDbEntity
  8
SUNPOU
100
AcDbMText
 10
110206.9034926996
 20
111601.0103382607
 30
0.0
 40
10.5
 41
0.0
 71
     9
 72
     5
  1

1001
ACAD
1000
MTEXTBEGIN
1070
    73
1070
     1
1070
    44
1040
1.0
1070
    74
1070
     0
1000
MTEXTEND
  0
MTEXT
  5
564B
330
1A
100
AcDbEntity
  8
SUNPOU
100
AcDbMText
 10
112150.310739409
 20
109799.9612583827
 30
0.0
 40
3.5
 41
0.0
 71
     9
 72
     5
  1

1001
ACAD
1000
MTEXTBEGIN
1070
    73
1070
     1
1070
    44
1040
1.0
1070
    74
1070
     0
1000
MTEXTEND
  0
MTEXT
  5
564C
330
1A
100
AcDbEntity
  8
SUNPOU
100
AcDbMText
 10
108819.1333204968
 20
110677.9087286761
 30
0.0
 40
10.5
 41
0.0
 71
     9
 72
     5
  1

1001
ACAD
1000
MTEXTBEGIN
1070
    73
1070
     1
1070
    44
1040
1.0
1070
    74
1070
     0
1000
MTEXTEND
  0
MTEXT
  5
564D
330
1A
100
AcDbEntity
  8
SUNPOU
100
AcDbMText
 10
110762.5405672062
 20
108876.8596487981
 30
0.0
 40
3.5
 41
0.0
 71
     9
 72
     5
  1

1001
ACAD
1000
MTEXTBEGIN
1070
    73
1070
     1
1070
    44
1040
1.0
1070
    74
1070
     0
1000
MTEXTEND
  0
MTEXT
  5
564E
330
1A
100
AcDbEntity
  8
SUNPOU
100
AcDbMText
 10
76303.05507956816
 20
68695.31179059812
 30
0.0
 40
10.5
 41
0.0
 71
     9
 72
     5
  1

1001
ACAD
1000
MTEXTBEGIN
1070
    73
1070
     1
1070
    44
1040
1.0
1070
    74
1070
     0
1000
MTEXTEND
  0
MTEXT
  5
564F
330
1A
100
AcDbEntity
  8
SUNPOU
100
AcDbMText
 10
79026.36128373271
 20
69099.99348217918
 30
0.0
 40
3.5
 41
0.0
 71
     9
 72
     5
  1

1001
ACAD
1000
MTEXTBEGIN
1070
    73
1070
     1
1070
    44
1040
1.0
1070
    74
1070
     0
1000
MTEXTEND
  0
MTEXT
  5
5650
330
1A
100
AcDbEntity
  8
SUNPOU
100
AcDbMText
 10
78234.00675862522
 20
65938.68764412436
 30
0.0
 40
10.5
 41
0.0
 71
     9
 72
     5
  1

1001
ACAD
1000
MTEXTBEGIN
1070
    73
1070
     1
1070
    44
1040
1.0
1070
    74
1070
     0
1000
MTEXTEND
  0
MTEXT
  5
5651
330
1A
100
AcDbEntity
  8
SUNPOU
100
AcDbMText
 10
80177.41400533465
 20
64137.63856424636
 30
0.0
 40
3.5
 41
0.0
 71
     9
 72
     5
  1

1001
ACAD
1000
MTEXTBEGIN
1070
    73
1070
     1
1070
    44
1040
1.0
1070
    74
1070
     0
1000
MTEXTEND
  0
MTEXT
  5
5652
330
1A
100
AcDbEntity
  8
SUNPOU
100
AcDbMText
 10
80122.50949592123
 20
64024.86668196205
 30
0.0
 40
3.5
 41
0.0
 71
     9
 72
     5
  1

1001
ACAD
1000
MTEXTBEGIN
1070
    73
1070
     1
1070
    44
1040
1.0
1070
    74
1070
     0
1000
MTEXTEND
  0
MTEXT
  5
5653
330
1A
100
AcDbEntity
  8
SUNPOU
100
AcDbMText
 10
79486.58135950133
 20
63213.54544089553
 30
0.0
 40
3.5
 41
0.0
 71
     9
 72
     5
  1

1001
ACAD
1000
MTEXTBEGIN
1070
    73
1070
     1
1070
    44
1040
1.0
1070
    74
1070
     0
1000
MTEXTEND
  0
MTEXT
  5
5654
330
1A
100
AcDbEntity
  8
SUNPOU
100
AcDbMText
 10
79485.3409400806
 20
63213.29746395804
 30
0.0
 40
10.5
 41
0.0
 71
     9
 72
     5
  1

1001
ACAD
1000
MTEXTBEGIN
1070
    73
1070
     1
1070
    44
1040
1.0
1070
    74
1070
     0
1000
MTEXTEND
  0
MTEXT
  5
5655
330
1A
100
AcDbEntity
  8
SUNPOU
100
AcDbMText
 10
85473.63363627567
 20
80747.76348077064
 30
0.0
 40
10.5
 41
0.0
 71
     9
 72
     5
  1

1001
ACAD
1000
MTEXTBEGIN
1070
    73
1070
     1
1070
    44
1040
1.0
1070
    74
1070
     0
1000
MTEXTEND
  0
MTEXT
  5
5656
330
1A
100
AcDbEntity
  8
SUNPOU
100
AcDbMText
 10
94195.80120219368
 20
88163.59801230809
 30
0.0
 40
10.5
 41
0.0
 71
     9
 72
     5
  1

1001
ACAD
1000
MTEXTBEGIN
1070
    73
1070
     1
1070
    44
1040
1.0
1070
    74
1070
     0
1000
MTEXTEND
  0
MTEXT
  5
5657
330
1A
100
AcDbEntity
  8
SUNPOU
100
AcDbMText
 10
113149.5599195236
 20
105630.1740648001
 30
0.0
 40
10.5
 41
0.0
 71
     9
 72
     5
  1

1001
ACAD
1000
MTEXTBEGIN
1070
    73
1070
     1
1070
    44
1040
1.0
1070
    74
1070
     0
1000
MTEXTEND
  0
MTEXT
  5
5658
330
1A
100
AcDbEntity
  8
SUNPOU
100
AcDbMText
 10
115092.967166233
 20
103829.1249849221
 30
0.0
 40
3.5
 41
0.0
 71
     9
 72
     5
  1

1001
ACAD
1000
MTEXTBEGIN
1070
    73
1070
     1
1070
    44
1040
1.0
1070
    74
1070
     0
1000
MTEXTEND
  0
MTEXT
  5
5659
330
1A
100
AcDbEntity
  8
SUNPOU
100
AcDbMText
 10
146219.1469988527
 20
146324.0706525794
 30
0.0
 40
10.5
 41
0.0
 71
     9
 72
     5
  1

1001
ACAD
1000
MTEXTBEGIN
1070
    73
1070
     1
1070
    44
1040
1.0
1070
    74
1070
     0
1000
MTEXTEND
  0
MTEXT
  5
565A
330
1A
100
AcDbEntity
  8
SUNPOU
100
AcDbMText
 10
148162.5542455621
 20
144523.0215727014
 30
0.0
 40
3.5
 41
0.0
 71
     9
 72
     5
  1

1001
ACAD
1000
MTEXTBEGIN
1070
    73
1070
     1
1070
    44
1040
1.0
1070
    74
1070
     0
1000
MTEXTEND
  0
MTEXT
  5
565B
330
1A
100
AcDbEntity
  8
SUNPOU
100
AcDbMText
 10
96659.41470464833
 20
92157.23580755453
 30
0.0
 40
10.5
 41
0.0
 71
     9
 72
     5
  1

1001
ACAD
1000
MTEXTBEGIN
1070
    73
1070
     1
1070
    44
1040
1.0
1070
    74
1070
     0
1000
MTEXTEND
  0
MTEXT
  5
565C
330
1A
100
AcDbEntity
  8
SUNPOU
100
AcDbMText
 10
82711.41460427234
 20
72984.83666844234
 30
0.0
 40
3.5
 41
0.0
 71
     7
 72
     5
  1

1001
ACAD
1000
MTEXTBEGIN
1070
    73
1070
     1
1070
    44
1040
1.0
1070
    74
1070
     0
1000
MTEXTEND
  0
MTEXT
  5
565D
330
1A
100
AcDbEntity
  8
SUNPOU
100
AcDbMText
 10
63696.58400126548
 20
60746.98539926055
 30
0.0
 40
10.5
 41
0.0
 71
     7
 72
     5
  1

1001
ACAD
1000
MTEXTBEGIN
1070
    73
1070
     1
1070
    44
1040
1.0
1070
    74
1070
     0
1000
MTEXTEND
  0
MTEXT
  5
565E
330
1A
100
AcDbEntity
  8
SUNPOU
100
AcDbMText
 10
51239.35573631738
 20
44902.05382116213
 30
0.0
 40
35.0
 41
0.0
 71
     9
 72
     5
  1

1001
ACAD
1000
MTEXTBEGIN
1070
    73
1070
     1
1070
    44
1040
1.0
1070
    74
1070
     0
1000
MTEXTEND
  0
MTEXT
  5
565F
330
1A
100
AcDbEntity
  8
SUNPOU
100
AcDbMText
 10
50147.84079389233
 20
45510.82923121084
 30
0.0
 40
350.0000004171781
 41
0.0
 71
     7
 72
     5
  1

1001
ACAD
1000
MTEXTBEGIN
1070
    73
1070
     1
1070
    44
1040
1.0
1070
    74
1070
     0
1000
MTEXTEND
  0
MTEXT
  5
5660
330
1A
100
AcDbEntity
  8
0
100
AcDbMText
 10
56191.79155183523
 20
43490.75159334705
 30
0.0
 40
8.0
 41
0.0
 71
     7
 72
     5
  1

1001
ACAD
1000
MTEXTBEGIN
1070
    73
1070
     1
1070
    44
1040
1.0
1070
    74
1070
     0
1000
MTEXTEND
  0
MTEXT
  5
5661
330
1A
100
AcDbEntity
  8
0
100
AcDbMText
 10
58477.14924173013
 20
44461.54188809812
 30
0.0
 40
8.0
 41
0.0
 71
     7
 72
     5
  1

1001
ACAD
1000
MTEXTBEGIN
1070
    73
1070
     1
1070
    44
1040
1.0
1070
    74
1070
     0
1000
MTEXTEND
  0
MTEXT
  5
5662
330
1A
100
AcDbEntity
  8
SUNPOU
100
AcDbMText
 10
61143.04626241227
 20
53973.65328047324
 30
0.0
 40
10.5
 41
0.0
 71
     1
 72
     5
  1

1001
ACAD
1000
MTEXTBEGIN
1070
    73
1070
     1
1070
    44
1040
1.0
1070
    74
1070
     0
1000
MTEXTEND
  0
MTEXT
  5
5663
330
1A
100
AcDbEntity
  8
SUNPOU
100
AcDbMText
 10
53212.12306647634
 20
53026.86014656028
 30
0.0
 40
10.5
 41
0.0
 71
     7
 72
     5
  1

1001
ACAD
1000
MTEXTBEGIN
1070
    73
1070
     1
1070
    44
1040
1.0
1070
    74
1070
     0
1000
MTEXTEND
  0
MTEXT
  5
5664
330
1A
100
AcDbEntity
  8
SUNPOU
100
AcDbMText
 10
56161.1067309891
 20
57927.53621840312
 30
0.0
 40
10.5
 41
0.0
 71
     7
 72
     5
  1

1001
ACAD
1000
MTEXTBEGIN
1070
    73
1070
     1
1070
    44
1040
1.0
1070
    74
1070
     0
1000
MTEXTEND
  0
MTEXT
  5
5665
330
1A
100
AcDbEntity
  8
SUNPOU
100
AcDbMText
 10
60670.18485893966
 20
60363.8369660232
 30
0.0
 40
10.5
 41
0.0
 71
     7
 72
     5
  1

1001
ACAD
1000
MTEXTBEGIN
1070
    73
1070
     1
1070
    44
1040
1.0
1070
    74
1070
     0
1000
MTEXTEND
  0
MTEXT
  5
5666
330
1A
100
AcDbEntity
  8
SUNPOU
100
AcDbMText
 10
44271.02274570799
 20
39361.43311641212
 30
0.0
 40
10.5
 41
0.0
 71
     7
 72
     5
  1

1001
ACAD
1000
MTEXTBEGIN
1070
    73
1070
     1
1070
    44
1040
1.0
1070
    74
1070
     0
1000
MTEXTEND
  0
MTEXT
  5
5667
330
1A
100
AcDbEntity
  8
SUNPOU
100
AcDbMText
 10
95462.54117960824
 20
85034.41368006038
 30
0.0
 40
10.5
 41
0.0
 71
     9
 72
     5
  1

1001
ACAD
1000
MTEXTBEGIN
1070
    73
1070
     1
1070
    44
1040
1.0
1070
    74
1070
     0
1000
MTEXTEND
  0
MTEXT
  5
5668
330
1A
100
AcDbEntity
  8
SUNPOU
100
AcDbMText
 10
104184.7087455262
 20
92450.24821159784
 30
0.0
 40
10.5
 41
0.0
 71
     9
 72
     5
  1

1001
ACAD
1000
MTEXTBEGIN
1070
    73
1070
     1
1070
    44
1040
1.0
1070
    74
1070
     0
1000
MTEXTEND
  0
MTEXT
  5
5669
330
1A
100
AcDbEntity
  8
SUNPOU
100
AcDbMText
 10
123138.4674628562
 20
109916.8242640898
 30
0.0
 40
10.5
 41
0.0
 71
     9
 72
     5
  1

1001
ACAD
1000
MTEXTBEGIN
1070
    73
1070
     1
1070
    44
1040
1.0
1070
    74
1070
     0
1000
MTEXTEND
  0
MTEXT
  5
566A
330
1A
100
AcDbEntity
  8
SUNPOU
100
AcDbMText
 10
125081.8747095656
 20
108115.7751842118
 30
0.0
 40
3.5
 41
0.0
 71
     9
 72
     5
  1

1001
ACAD
1000
MTEXTBEGIN
1070
    73
1070
     1
1070
    44
1040
1.0
1070
    74
1070
     0
1000
MTEXTEND
  0
MTEXT
  5
566B
330
1A
100
AcDbEntity
  8
SUNPOU
100
AcDbMText
 10
156208.0545421853
 20
150610.7208518691
 30
0.0
 40
10.5
 41
0.0
 71
     9
 72
     5
  1

1001
ACAD
1000
MTEXTBEGIN
1070
    73
1070
     1
1070
    44
1040
1.0
1070
    74
1070
     0
1000
MTEXTEND
  0
MTEXT
  5
566C
330
1A
100
AcDbEntity
  8
SUNPOU
100
AcDbMText
 10
158151.4617888947
 20
148809.6717719911
 30
0.0
 40
3.5
 41
0.0
 71
     9
 72
     5
  1

1001
ACAD
1000
MTEXTBEGIN
1070
    73
1070
     1
1070
    44
1040
1.0
1070
    74
1070
     0
1000
MTEXTEND
  0
MTEXT
  5
566D
330
1A
100
AcDbEntity
  8
SUNPOU
100
AcDbMText
 10
106648.3222479809
 20
96443.88600684427
 30
0.0
 40
10.5
 41
0.0
 71
     9
 72
     5
  1

1001
ACAD
1000
MTEXTBEGIN
1070
    73
1070
     1
1070
    44
1040
1.0
1070
    74
1070
     0
1000
MTEXTEND
  0
MTEXT
  5
566E
330
1A
100
AcDbEntity
  8
SUNPOU
100
AcDbMText
 10
92700.3221476049
 20
77271.48686773207
 30
0.0
 40
3.5
 41
0.0
 71
     7
 72
     5
  1

1001
ACAD
1000
MTEXTBEGIN
1070
    73
1070
     1
1070
    44
1040
1.0
1070
    74
1070
     0
1000
MTEXTEND
  0
MTEXT
  5
566F
330
1A
100
AcDbEntity
  8
SUNPOU
100
AcDbMText
 10
73685.49154459806
 20
65033.63559855027
 30
0.0
 40
10.5
 41
0.0
 71
     7
 72
     5
  1

1001
ACAD
1000
MTEXTBEGIN
1070
    73
1070
     1
1070
    44
1040
1.0
1070
    74
1070
     0
1000
MTEXTEND
  0
MTEXT
  5
5670
330
1A
100
AcDbEntity
  8
SUNPOU
100
AcDbMText
 10
61228.26327964995
 20
49188.70402045185
 30
0.0
 40
35.0
 41
0.0
 71
     9
 72
     5
  1

1001
ACAD
1000
MTEXTBEGIN
1070
    73
1070
     1
1070
    44
1040
1.0
1070
    74
1070
     0
1000
MTEXTEND
  0
MTEXT
  5
5671
330
1A
100
AcDbEntity
  8
SUNPOU
100
AcDbMText
 10
60136.74833722491
 20
49797.47943050056
 30
0.0
 40
350.0000004171781
 41
0.0
 71
     7
 72
     5
  1

1001
ACAD
1000
MTEXTBEGIN
1070
    73
1070
     1
1070
    44
1040
1.0
1070
    74
1070
     0
1000
MTEXTEND
  0
MTEXT
  5
5672
330
1A
100
AcDbEntity
  8
0
100
AcDbMText
 10
66180.69909516782
 20
47777.40179263678
 30
0.0
 40
8.0
 41
0.0
 71
     7
 72
     5
  1

1001
ACAD
1000
MTEXTBEGIN
1070
    73
1070
     1
1070
    44
1040
1.0
1070
    74
1070
     0
1000
MTEXTEND
  0
MTEXT
  5
5673
330
1A
100
AcDbEntity
  8
0
100
AcDbMText
 10
68466.05678506271
 20
48748.19208738784
 30
0.0
 40
8.0
 41
0.0
 71
     7
 72
     5
  1

1001
ACAD
1000
MTEXTBEGIN
1070
    73
1070
     1
1070
    44
1040
1.0
1070
    74
1070
     0
1000
MTEXTEND
  0
MTEXT
  5
5674
330
1A
100
AcDbEntity
  8
SUNPOU
100
AcDbMText
 10
71131.95380574485
 20
58260.30347976296
 30
0.0
 40
10.5
 41
0.0
 71
     1
 72
     5
  1

1001
ACAD
1000
MTEXTBEGIN
1070
    73
1070
     1
1070
    44
1040
1.0
1070
    74
1070
     0
1000
MTEXTEND
  0
MTEXT
  5
5675
330
1A
100
AcDbEntity
  8
SUNPOU
100
AcDbMText
 10
63201.03060980891
 20
57313.51034585002
 30
0.0
 40
10.5
 41
0.0
 71
     7
 72
     5
  1

1001
ACAD
1000
MTEXTBEGIN
1070
    73
1070
     1
1070
    44
1040
1.0
1070
    74
1070
     0
1000
MTEXTEND
  0
MTEXT
  5
5676
330
1A
100
AcDbEntity
  8
SUNPOU
100
AcDbMText
 10
66150.01427432169
 20
62214.18641769286
 30
0.0
 40
10.5
 41
0.0
 71
     7
 72
     5
  1

1001
ACAD
1000
MTEXTBEGIN
1070
    73
1070
     1
1070
    44
1040
1.0
1070
    74
1070
     0
1000
MTEXTEND
  0
MTEXT
  5
5677
330
1A
100
AcDbEntity
  8
SUNPOU
100
AcDbMText
 10
70659.09240227225
 20
64650.48716531294
 30
0.0
 40
10.5
 41
0.0
 71
     7
 72
     5
  1

1001
ACAD
1000
MTEXTBEGIN
1070
    73
1070
     1
1070
    44
1040
1.0
1070
    74
1070
     0
1000
MTEXTEND
  0
MTEXT
  5
5678
330
1A
100
AcDbEntity
  8
SUNPOU
100
AcDbMText
 10
54259.93028904056
 20
43648.08331570185
 30
0.0
 40
10.5
 41
0.0
 71
     7
 72
     5
  1

1001
ACAD
1000
MTEXTBEGIN
1070
    73
1070
     1
1070
    44
1040
1.0
1070
    74
1070
     0
1000
MTEXTEND
  0
MTEXT
  5
5679
330
1A
100
AcDbEntity
  8
SUNPOU
100
AcDbMText
 10
56070.69320041551
 20
49975.4973031804
 30
0.0
 40
10.5
 41
0.0
 71
     9
 72
     5
  1

1001
ACAD
1000
MTEXTBEGIN
1070
    73
1070
     1
1070
    44
1040
1.0
1070
    74
1070
     0
1000
MTEXTEND
  0
MTEXT
  5
567A
330
1A
100
AcDbEntity
  8
SUNPOU
100
AcDbMText
 10
64792.86076633348
 20
57391.33183471788
 30
0.0
 40
10.5
 41
0.0
 71
     9
 72
     5
  1

1001
ACAD
1000
MTEXTBEGIN
1070
    73
1070
     1
1070
    44
1040
1.0
1070
    74
1070
     0
1000
MTEXTEND
  0
MTEXT
  5
567B
330
1A
100
AcDbEntity
  8
SUNPOU
100
AcDbMText
 10
83746.61948366345
 20
74857.90788720994
 30
0.0
 40
10.5
 41
0.0
 71
     9
 72
     5
  1

1001
ACAD
1000
MTEXTBEGIN
1070
    73
1070
     1
1070
    44
1040
1.0
1070
    74
1070
     0
1000
MTEXTEND
  0
MTEXT
  5
567C
330
1A
100
AcDbEntity
  8
SUNPOU
100
AcDbMText
 10
85690.02673037287
 20
73056.85880733192
 30
0.0
 40
3.5
 41
0.0
 71
     9
 72
     5
  1

1001
ACAD
1000
MTEXTBEGIN
1070
    73
1070
     1
1070
    44
1040
1.0
1070
    74
1070
     0
1000
MTEXTEND
  0
MTEXT
  5
567D
330
1A
100
AcDbEntity
  8
SUNPOU
100
AcDbMText
 10
116816.2065629925
 20
115551.8044749892
 30
0.0
 40
10.5
 41
0.0
 71
     9
 72
     5
  1

1001
ACAD
1000
MTEXTBEGIN
1070
    73
1070
     1
1070
    44
1040
1.0
1070
    74
1070
     0
1000
MTEXTEND
  0
MTEXT
  5
567E
330
1A
100
AcDbEntity
  8
SUNPOU
100
AcDbMText
 10
118759.613809702
 20
113750.7553951112
 30
0.0
 40
3.5
 41
0.0
 71
     9
 72
     5
  1

1001
ACAD
1000
MTEXTBEGIN
1070
    73
1070
     1
1070
    44
1040
1.0
1070
    74
1070
     0
1000
MTEXTEND
  0
MTEXT
  5
567F
330
1A
100
AcDbEntity
  8
SUNPOU
100
AcDbMText
 10
67256.47426878814
 20
61384.96962996432
 30
0.0
 40
10.5
 41
0.0
 71
     9
 72
     5
  1

1001
ACAD
1000
MTEXTBEGIN
1070
    73
1070
     1
1070
    44
1040
1.0
1070
    74
1070
     0
1000
MTEXTEND
  0
MTEXT
  5
5680
330
1A
100
AcDbEntity
  8
SUNPOU
100
AcDbMText
 10
53308.47416841216
 20
42212.57049085211
 30
0.0
 40
3.5
 41
0.0
 71
     7
 72
     5
  1

1001
ACAD
1000
MTEXTBEGIN
1070
    73
1070
     1
1070
    44
1040
1.0
1070
    74
1070
     0
1000
MTEXTEND
  0
MTEXT
  5
5681
330
1A
100
AcDbEntity
  8
SUNPOU
100
AcDbMText
 10
67000.82485118274
 20
51571.63371187345
 30
0.0
 40
10.5
 41
0.0
 71
     9
 72
     5
  1

1001
ACAD
1000
MTEXTBEGIN
1070
    73
1070
     1
1070
    44
1040
1.0
1070
    74
1070
     0
1000
MTEXTEND
  0
MTEXT
  5
5682
330
1A
100
AcDbEntity
  8
SUNPOU
100
AcDbMText
 10
75722.99241710071
 20
58987.46824341094
 30
0.0
 40
10.5
 41
0.0
 71
     9
 72
     5
  1

1001
ACAD
1000
MTEXTBEGIN
1070
    73
1070
     1
1070
    44
1040
1.0
1070
    74
1070
     0
1000
MTEXTEND
  0
MTEXT
  5
5683
330
1A
100
AcDbEntity
  8
SUNPOU
100
AcDbMText
 10
94676.75113443068
 20
76454.04429590299
 30
0.0
 40
10.5
 41
0.0
 71
     9
 72
     5
  1

1001
ACAD
1000
MTEXTBEGIN
1070
    73
1070
     1
1070
    44
1040
1.0
1070
    74
1070
     0
1000
MTEXTEND
  0
MTEXT
  5
5684
330
1A
100
AcDbEntity
  8
SUNPOU
100
AcDbMText
 10
96620.1583811401
 20
74652.99521602498
 30
0.0
 40
3.5
 41
0.0
 71
     9
 72
     5
  1

1001
ACAD
1000
MTEXTBEGIN
1070
    73
1070
     1
1070
    44
1040
1.0
1070
    74
1070
     0
1000
MTEXTEND
  0
MTEXT
  5
5685
330
1A
100
AcDbEntity
  8
SUNPOU
100
AcDbMText
 10
127746.3382137598
 20
117147.9408836823
 30
0.0
 40
10.5
 41
0.0
 71
     9
 72
     5
  1

1001
ACAD
1000
MTEXTBEGIN
1070
    73
1070
     1
1070
    44
1040
1.0
1070
    74
1070
     0
1000
MTEXTEND
  0
MTEXT
  5
5686
330
1A
100
AcDbEntity
  8
SUNPOU
100
AcDbMText
 10
129689.7454604692
 20
115346.8918038043
 30
0.0
 40
3.5
 41
0.0
 71
     9
 72
     5
  1

1001
ACAD
1000
MTEXTBEGIN
1070
    73
1070
     1
1070
    44
1040
1.0
1070
    74
1070
     0
1000
MTEXTEND
  0
MTEXT
  5
5687
330
1A
100
AcDbEntity
  8
SUNPOU
100
AcDbMText
 10
78186.60591955537
 20
62981.10603865738
 30
0.0
 40
10.5
 41
0.0
 71
     9
 72
     5
  1

1001
ACAD
1000
MTEXTBEGIN
1070
    73
1070
     1
1070
    44
1040
1.0
1070
    74
1070
     0
1000
MTEXTEND
  0
MTEXT
  5
5688
330
1A
100
AcDbEntity
  8
SUNPOU
100
AcDbMText
 10
64238.60581917939
 20
43808.70689954517
 30
0.0
 40
3.5
 41
0.0
 71
     7
 72
     5
  1

1001
ACAD
1000
MTEXTBEGIN
1070
    73
1070
     1
1070
    44
1040
1.0
1070
    74
1070
     0
1000
MTEXTEND
  0
MTEXT
  5
5689
330
1A
100
AcDbEntity
  8
SUNPOU
100
AcDbMText
 10
33428.13481137435
 20
32770.04710035564
 30
0.0
 40
10.5
 41
0.0
 71
     9
 72
     5
  1

1001
ACAD
1000
MTEXTBEGIN
1070
    73
1070
     1
1070
    44
1040
1.0
1070
    74
1070
     0
1000
MTEXTEND
  0
MTEXT
  5
568A
330
1A
100
AcDbEntity
  8
SUNPOU
100
AcDbMText
 10
52381.89352870432
 20
50236.62315284769
 30
0.0
 40
10.5
 41
0.0
 71
     9
 72
     5
  1

1001
ACAD
1000
MTEXTBEGIN
1070
    73
1070
     1
1070
    44
1040
1.0
1070
    74
1070
     0
1000
MTEXTEND
  0
MTEXT
  5
568B
330
1A
100
AcDbEntity
  8
SUNPOU
100
AcDbMText
 10
54325.30077541374
 20
48435.57407296968
 30
0.0
 40
3.5
 41
0.0
 71
     9
 72
     5
  1

1001
ACAD
1000
MTEXTBEGIN
1070
    73
1070
     1
1070
    44
1040
1.0
1070
    74
1070
     0
1000
MTEXTEND
  0
MTEXT
  5
568C
330
1A
100
AcDbEntity
  8
SUNPOU
100
AcDbMText
 10
85451.48060803343
 20
90930.51974062703
 30
0.0
 40
10.5
 41
0.0
 71
     9
 72
     5
  1

1001
ACAD
1000
MTEXTBEGIN
1070
    73
1070
     1
1070
    44
1040
1.0
1070
    74
1070
     0
1000
MTEXTEND
  0
MTEXT
  5
568D
330
1A
100
AcDbEntity
  8
SUNPOU
100
AcDbMText
 10
87394.88785474286
 20
89129.47066074901
 30
0.0
 40
3.5
 41
0.0
 71
     9
 72
     5
  1

1001
ACAD
1000
MTEXTBEGIN
1070
    73
1070
     1
1070
    44
1040
1.0
1070
    74
1070
     0
1000
MTEXTEND
  0
MTEXT
  5
568E
330
1A
100
AcDbEntity
  8
SUNPOU
100
AcDbMText
 10
35891.74831382901
 20
36763.68489560208
 30
0.0
 40
10.5
 41
0.0
 71
     9
 72
     5
  1

1001
ACAD
1000
MTEXTBEGIN
1070
    73
1070
     1
1070
    44
1040
1.0
1070
    74
1070
     0
1000
MTEXTEND
  0
MTEXT
  5
568F
330
1A
100
AcDbEntity
  8
SUNPOU
100
AcDbMText
 10
21943.74821345303
 20
17591.28575648986
 30
0.0
 40
3.5
 41
0.0
 71
     7
 72
     5
  1

1001
ACAD
1000
MTEXTBEGIN
1070
    73
1070
     1
1070
    44
1040
1.0
1070
    74
1070
     0
1000
MTEXTEND
  0
MTEXT
  5
11D07
330
1A
100
AcDbEntity
  8
ZISSEN1
100
AcDbMText
 10
-1611.188889060103
 20
1745.095368753726
 30
0.0
 40
5.0
 41
111.2412999999999
 71
     1
 72
     5
  1
2C-776Av1　No.SS0001f87
1001
ACAD
1000
MTEXTBEGIN
1070
    73
1070
     1
1070
    44
1040
1.0
1070
    74
1070
     0
1000
MTEXTEND
  0
MTEXT
  5
1352A
330
1A
100
AcDbEntity
  8
ZISSEN1
100
AcDbMText
 10
-1730.189974470233
 20
1694.011726239996
 30
0.0
 40
4.0
 41
94.11750000000001
 71
     5
 72
     5
  1
{\fMS UI Gothic|b0|i0|c128|p17;DIN取付金具(CP-13v1/AT1)装着時}
1001
ACAD
1000
MTEXTBEGIN
1070
    73
1070
     1
1070
    44
1040
1.0
1070
    74
1070
     0
1000
MTEXTEND
  0
LWPOLYLINE
  5
1352B
330
1A
100
AcDbEntity
  8
ZISSEN1
100
AcDbPolyline
 90
        4
 70
     1
 43
0.0
 10
-1626.013034272014
 20
1706.680977234194
 10
-1626.013034272014
 20
1706.680977234194
 10
-1626.013034272014
 20
1706.680977234194
 10
-1626.013034272014
 20
1706.680977234194
  0
LWPOLYLINE
  5
1352C
330
1A
100
AcDbEntity
  8
ZISSEN1
  6
HIDDEN
100
AcDbPolyline
 90
        4
 70
     1
 43
0.0
 10
-1828.094022491423
 20
1706.680977234194
 10
-1626.013034272014
 20
1706.680977234194
 10
-1626.013034272014
 20
1458.764817139832
 10
-1828.094022491423
 20
1458.764817139832
  0
ARC
  5
1352D
330
1A
100
AcDbEntity
  8
ZISSEN1
100
AcDbCircle
 10
-1795.999160170739
 20
1631.0
 30
0.0
 40
1.75
100
AcDbArc
 50
270.0
 51
90.0
  0
ARC
  5
1352E
330
1A
100
AcDbEntity
  8
ZISSEN1
100
AcDbCircle
 10
-1495.999160170739
 20
1636.0
 30
0.0
 40
1.75
100
AcDbArc
 50
270.0
 51
90.0
  0
ARC
  5
1352F
330
1A
100
AcDbEntity
  8
ZISSEN1
100
AcDbCircle
 10
-1380.997421345615
 20
1635.999999999996
 30
0.0
 40
1.75
100
AcDbArc
 50
90.0
 51
270.0
  0
ARC
  5
13530
330
1A
100
AcDbEntity
  8
ZISSEN1
100
AcDbCircle
 10
-1680.998261174875
 20
1631.0
 30
0.0
 40
1.75
100
AcDbArc
 50
90.0
 51
270.0
  0
LINE
  5
13533
330
1A
100
AcDbEntity
  8
ZISSEN1
100
AcDbLine
 10
-1686.747421345613
 20
1624.5
 30
0.0
 11
-1674.997421345615
 21
1624.5
 31
0.0
  0
LINE
  5
13534
330
1A
100
AcDbEntity
  8
ZISSEN1
100
AcDbLine
 10
-1676.997421345615
 20
1625.0
 30
0.0
 11
-1756.199355307591
 21
1625.0
 31
0.0
  0
LINE
  5
13535
330
1A
100
AcDbEntity
  8
ZISSEN1
100
AcDbLine
 10
-1788.597421345617
 20
1625.0
 30
0.0
 11
-1799.0
 21
1625.0
 31
0.0
  0
LINE
  5
13536
330
1A
100
AcDbEntity
  8
ZISSEN1
100
AcDbLine
 10
-1676.997421345615
 20
1625.0
 30
0.0
 11
-1675.997421345615
 21
1626.0
 31
0.0
  0
LINE
  5
13537
330
1A
100
AcDbEntity
  8
ZISSEN1
100
AcDbLine
 10
-1799.649999999999
 20
1502.0
 30
0.0
 11
-1793.35
 21
1502.0
 31
0.0
  0
LINE
  5
13538
102
{ACAD_REACTORS
330
146F5
102
}
330
1A
100
AcDbEntity
  8
ZISSEN1
 48
0.4
100
AcDbLine
 10
-1793.35
 20
1502.900000000001
 30
0.0
 11
-1793.35
 21
1502.0
 31
0.0
  0
LINE
  5
13539
102
{ACAD_REACTORS
330
146F5
102
}
330
1A
100
AcDbEntity
  8
ZISSEN1
 48
0.4
100
AcDbLine
 10
-1799.649999999999
 20
1502.900000000001
 30
0.0
 11
-1799.649999999999
 21
1502.0
 31
0.0
  0
ELLIPSE
  5
1353A
102
{ACAD_REACTORS
330
146F5
102
}
330
1A
100
AcDbEntity
  8
ZISSEN1
 48
0.4
100
AcDbEllipse
 10
-1796.499999999999
 20
1502.900000000001
 30
0.0
 11
-3.149999999999636
 21
0.0000000000000002
 31
0.0
210
0.0
220
0.0
230
1.0
 40
0.3174603174603541
 41
3.141592653589793
 42
6.283185307179586
  0
LINE
  5
1353B
330
1A
100
AcDbEntity
  8
ZISSEN1
100
AcDbLine
 10
-1684.647421345617
 20
1502.0
 30
0.0
 11
-1678.347421345617
 21
1502.0
 31
0.0
  0
LINE
  5
1353C
330
1A
100
AcDbEntity
  8
ZISSEN1
100
AcDbLine
 10
-1800.0
 20
1647.899999999999
 30
0.0
 11
-1800.0
 21
1632.75
 31
0.0
  0
DIMENSION
  5
1353D
330
1A
100
AcDbEntity
  8
SUNPOU
100
AcDbDimension
  2
*D0
 10
-1673.997421345615
 20
1613.988337758181
 30
0.0
 11
-1737.498710672807
 21
1613.988337758181
 31
0.0
 70
   160
  3
ISO-25
100
AcDbAlignedDimension
 13
-1801.0
 23
1625.499999999999
 33
0.0
 14
-1673.997421345615
 24
1625.499999999999
 34
0.0
100
AcDbRotatedDimension
1001
ACAD
1000
DSTYLE
1002
{
1070
   140
1040
3.5
1002
}
  0
LINE
  5
1353E
330
1A
100
AcDbEntity
  8
ZISSEN1
100
AcDbLine
 10
-1800.0
 20
1624.5
 30
0.0
 11
-1801.0
 21
1625.499999999999
 31
0.0
  0
CIRCLE
  5
1353F
330
1A
100
AcDbEntity
  8
ZISSEN1
100
AcDbCircle
 10
-1678.497421345615
 20
1662.5
 30
0.0
 40
1.5
  0
LINE
  5
13540
330
1A
100
AcDbEntity
  8
ZISSEN1
100
AcDbLine
 10
-1675.997421345615
 20
1647.899999999999
 30
0.0
 11
-1675.997421345615
 21
1632.75
 31
0.0
  0
LINE
  5
13541
330
1A
100
AcDbEntity
  8
ZISSEN1
100
AcDbLine
 10
-1674.997421345615
 20
1668.499999999999
 30
0.0
 11
-1673.997421345615
 21
1667.5
 31
0.0
  0
LINE
  5
13542
330
1A
100
AcDbEntity
  8
ZISSEN1
100
AcDbLine
 10
-1800.0
 20
1668.499999999999
 30
0.0
 11
-1801.0
 21
1667.5
 31
0.0
  0
LINE
  5
13543
330
1A
100
AcDbEntity
  8
ZISSEN1
100
AcDbLine
 10
-1674.997421345615
 20
1668.499999999999
 30
0.0
 11
-1800.0
 21
1668.499999999999
 31
0.0
  0
LINE
  5
13544
330
1A
100
AcDbEntity
  8
ZISSEN1
100
AcDbLine
 10
-1793.700000000001
 20
1503.358122847292
 30
0.0
 11
-1793.700000000001
 21
1511.564641577888
 31
0.0
  0
LINE
  5
13545
330
1A
100
AcDbEntity
  8
ZISSEN1
100
AcDbLine
 10
-1794.5
 20
1506.0
 30
0.0
 11
-1794.497421345617
 21
1515.0
 31
0.0
  0
LINE
  5
13546
330
1A
100
AcDbEntity
  8
ZISSEN1
 48
0.4
100
AcDbLine
 10
-1797.397421345614
 20
1658.349999999725
 30
0.0
 11
-1796.497421345615
 21
1658.349999999725
 31
0.0
  0
LINE
  5
13547
330
1A
100
AcDbEntity
  8
ZISSEN1
 48
0.4
100
AcDbLine
 10
-1797.397421345614
 20
1652.049999999726
 30
0.0
 11
-1796.497421345615
 21
1652.049999999726
 31
0.0
  0
ELLIPSE
  5
13548
330
1A
100
AcDbEntity
  8
ZISSEN1
 48
0.4
100
AcDbEllipse
 10
-1797.397421345614
 20
1655.199999999726
 30
0.0
 11
0.0
 21
3.149999999999636
 31
0.0
210
0.0
220
0.0
230
-1.0
 40
0.3174603174603541
 41
3.141592653589793
 42
6.283185307179586
  0
ELLIPSE
  5
13549
330
1A
100
AcDbEntity
  8
ZISSEN1
 48
0.4
100
AcDbEllipse
 10
-1797.399999999999
 20
1507.299999999999
 30
0.0
 11
0.0
 21
3.149999999999636
 31
0.0
210
0.0
220
0.0
230
-1.0
 40
0.3174603174603541
 41
3.141592653589793
 42
6.283185307179586
  0
LINE
  5
1354A
330
1A
100
AcDbEntity
  8
ZISSEN1
 48
0.4
100
AcDbLine
 10
-1797.399999999999
 20
1504.149999999999
 30
0.0
 11
-1796.499999999999
 21
1504.149999999999
 31
0.0
  0
LINE
  5
1354B
330
1A
100
AcDbEntity
  8
ZISSEN1
 48
0.4
100
AcDbLine
 10
-1797.399999999999
 20
1510.449999999998
 30
0.0
 11
-1796.499999999999
 21
1510.449999999998
 31
0.0
  0
LINE
  5
1354C
330
1A
100
AcDbEntity
  8
ZISSEN1
100
AcDbLine
 10
-1796.499999999999
 20
1510.449999999998
 30
0.0
 11
-1796.499999999999
 21
1504.149999999999
 31
0.0
  0
LINE
  5
13552
330
1A
100
AcDbEntity
  8
ZISSEN1
100
AcDbLine
 10
-1737.497421345615
 20
1650.899999999998
 30
0.0
 11
-1684.297421345614
 21
1650.899999999998
 31
0.0
  0
LINE
  5
13553
330
1A
100
AcDbEntity
  8
ZISSEN1
100
AcDbLine
 10
-1737.497421345615
 20
1659.499999999999
 30
0.0
 11
-1683.497421345615
 21
1659.499999999999
 31
0.0
  0
LINE
  5
13554
330
1A
100
AcDbEntity
  8
ZISSEN1
100
AcDbLine
 10
-1739.997421345615
 20
1660.0
 30
0.0
 11
-1739.997421345615
 21
1658.399999999999
 31
0.0
  0
LINE
  5
13555
330
1A
100
AcDbEntity
  8
ZISSEN1
100
AcDbLine
 10
-1737.997421345615
 20
1660.0
 30
0.0
 11
-1737.997421345615
 21
1658.399999999999
 31
0.0
  0
LINE
  5
13556
330
1A
100
AcDbEntity
  8
ZISSEN1
100
AcDbLine
 10
-1737.497421345615
 20
1659.499999999999
 30
0.0
 11
-1737.497421345615
 21
1657.899999999999
 31
0.0
  0
LINE
  5
13557
330
1A
100
AcDbEntity
  8
ZISSEN1
100
AcDbLine
 10
-1740.497421345615
 20
1659.499999999999
 30
0.0
 11
-1740.497421345615
 21
1657.899999999999
 31
0.0
  0
LINE
  5
13558
330
1A
100
AcDbEntity
  8
ZISSEN1
100
AcDbLine
 10
-1737.497421345615
 20
1657.899999999999
 30
0.0
 11
-1740.497421345615
 21
1657.899999999999
 31
0.0
  0
LINE
  5
13559
330
1A
100
AcDbEntity
  8
ZISSEN1
100
AcDbLine
 10
-1737.497421345615
 20
1652.499999999999
 30
0.0
 11
-1740.497421345615
 21
1652.499999999999
 31
0.0
  0
LINE
  5
1355A
330
1A
100
AcDbEntity
  8
ZISSEN1
100
AcDbLine
 10
-1740.497421345615
 20
1650.899999999999
 30
0.0
 11
-1740.497421345615
 21
1652.499999999999
 31
0.0
  0
LINE
  5
1355B
330
1A
100
AcDbEntity
  8
ZISSEN1
100
AcDbLine
 10
-1737.497421345615
 20
1650.899999999999
 30
0.0
 11
-1737.497421345615
 21
1652.499999999999
 31
0.0
  0
LINE
  5
1355C
330
1A
100
AcDbEntity
  8
ZISSEN1
100
AcDbLine
 10
-1737.997421345615
 20
1650.399999999999
 30
0.0
 11
-1737.997421345615
 21
1652.0
 31
0.0
  0
LINE
  5
1355D
330
1A
100
AcDbEntity
  8
ZISSEN1
100
AcDbLine
 10
-1739.997421345615
 20
1650.399999999999
 30
0.0
 11
-1739.997421345615
 21
1652.0
 31
0.0
  0
LINE
  5
1355E
330
1A
100
AcDbEntity
  8
ZISSEN1
100
AcDbLine
 10
-1737.997421345615
 20
1650.399999999999
 30
0.0
 11
-1739.997421345615
 21
1650.399999999999
 31
0.0
  0
LINE
  5
1355F
330
1A
100
AcDbEntity
  8
ZISSEN1
100
AcDbLine
 10
-1737.497421345615
 20
1652.0
 30
0.0
 11
-1740.497421345615
 21
1652.0
 31
0.0
  0
LINE
  5
13560
330
1A
100
AcDbEntity
  8
ZISSEN1
100
AcDbLine
 10
-1737.497421345615
 20
1658.399999999999
 30
0.0
 11
-1740.497421345615
 21
1658.399999999999
 31
0.0
  0
LINE
  5
13561
330
1A
100
AcDbEntity
  8
ZISSEN1
100
AcDbLine
 10
-1734.697236611664
 20
1582.0
 30
0.0
 11
-1683.497421345617
 21
1581.999999999931
 31
0.0
  0
LINE
  5
13562
330
1A
100
AcDbEntity
  8
ZISSEN1
100
AcDbLine
 10
-1735.697236611664
 20
1628.899999999998
 30
0.0
 11
-1687.596139757002
 21
1628.899999999998
 31
0.0
  0
LINE
  5
13563
330
1A
100
AcDbEntity
  8
ZISSEN1
100
AcDbLine
 10
-1684.741260515526
 20
1510.761089494162
 30
0.0
 11
-1684.797421345616
 21
1502.0
 31
0.0
  0
LINE
  5
13564
330
1A
100
AcDbEntity
  8
ZISSEN1
100
AcDbLine
 10
-1683.997421345616
 20
1502.0
 30
0.0
 11
-1683.931921994126
 21
1512.217898832683
 31
0.0
  0
LINE
  5
13565
330
1A
100
AcDbEntity
  8
ZISSEN1
100
AcDbLine
 10
-1688.497421345617
 20
1503.999999999998
 30
0.0
 11
-1683.497421345617
 21
1513.0
 31
0.0
  0
LINE
  5
13566
330
1A
100
AcDbEntity
  8
ZISSEN1
100
AcDbLine
 10
-1792.997421345617
 20
1510.299999999999
 30
0.0
 11
-1792.997421345617
 21
1502.0
 31
0.0
  0
LINE
  5
13567
330
1A
100
AcDbEntity
  8
ZISSEN1
100
AcDbLine
 10
-1794.497421345617
 20
1513.0
 30
0.0
 11
-1789.497421345617
 21
1504.0
 31
0.0
  0
LINE
  5
13568
330
1A
100
AcDbEntity
  8
ZISSEN1
100
AcDbLine
 10
-1773.997421345617
 20
1582.499719799867
 30
0.0
 11
-1770.797421345616
 21
1582.499155541925
 31
0.0
  0
CIRCLE
  5
13569
330
1A
100
AcDbEntity
  8
ZISSEN1
100
AcDbCircle
 10
-1689.497421345615
 20
1509.0
 30
0.0
 40
2.75
  0
LINE
  5
1356A
330
1A
100
AcDbEntity
  8
ZISSEN1
100
AcDbLine
 10
-1675.997421345617
 20
1502.0
 30
0.0
 11
-1675.997421345617
 21
1500.0
 31
0.0
  0
LINE
  5
1356B
330
1A
100
AcDbEntity
  8
ZISSEN1
100
AcDbLine
 10
-1675.997421345617
 20
1500.0
 30
0.0
 11
-1800.0
 21
1500.0
 31
0.0
  0
LINE
  5
1356C
330
1A
100
AcDbEntity
  8
ZISSEN1
100
AcDbLine
 10
-1800.0
 20
1502.0
 30
0.0
 11
-1675.997421345617
 21
1502.0
 31
0.0
  0
ARC
  5
1356D
330
1A
100
AcDbEntity
  8
ZISSEN1
100
AcDbCircle
 10
-1792.997421345615
 20
1505.5
 30
0.0
 40
1.0
100
AcDbArc
 50
0.0
 51
90.0
  0
ARC
  5
1356E
330
1A
100
AcDbEntity
  8
ZISSEN1
100
AcDbCircle
 10
-1684.997421345615
 20
1505.5
 30
0.0
 40
1.0
100
AcDbArc
 50
90.0
 51
180.0
  0
LINE
  5
1356F
330
1A
100
AcDbEntity
  8
ZISSEN1
100
AcDbLine
 10
-1734.697236611664
 20
1582.0
 30
0.0
 11
-1756.197421345616
 21
1582.0
 31
0.0
  0
LINE
  5
13570
330
1A
100
AcDbEntity
  8
ZISSEN1
100
AcDbLine
 10
-1718.897421345614
 20
1581.999999999978
 30
0.0
 11
-1718.897421345614
 21
1589.900000000001
 31
0.0
  0
LINE
  5
13571
330
1A
100
AcDbEntity
  8
ZISSEN1
100
AcDbLine
 10
-1734.697421345614
 20
1589.900000000001
 30
0.0
 11
-1734.697236611664
 21
1582.0
 31
0.0
  0
LINE
  5
13572
330
1A
100
AcDbEntity
  8
ZISSEN1
100
AcDbLine
 10
-1734.697421345614
 20
1589.900000000001
 30
0.0
 11
-1718.897421345614
 21
1589.900000000001
 31
0.0
  0
LINE
  5
13573
330
1A
100
AcDbEntity
  8
ZISSEN1
100
AcDbLine
 10
-1770.797421345616
 20
1589.799999999999
 30
0.0
 11
-1756.197421345618
 21
1589.799999999999
 31
0.0
  0
LINE
  5
13574
330
1A
100
AcDbEntity
  8
ZISSEN1
100
AcDbLine
 10
-1773.997421345617
 20
1589.799999999999
 30
0.0
 11
-1773.997421345617
 21
1585.0
 31
0.0
  0
LINE
  5
13575
330
1A
100
AcDbEntity
  8
ZISSEN1
100
AcDbLine
 10
-1676.997421345617
 20
1502.0
 30
0.0
 11
-1676.997421345617
 21
1500.0
 31
0.0
  0
LINE
  5
13576
330
1A
100
AcDbEntity
  8
ZISSEN1
100
AcDbLine
 10
-1683.497421345617
 20
1513.0
 30
0.0
 11
-1683.497421345617
 21
1581.999999999931
 31
0.0
  0
LINE
  5
13577
330
1A
100
AcDbEntity
  8
ZISSEN1
100
AcDbLine
 10
-1684.997421345617
 20
1510.299999999999
 30
0.0
 11
-1684.997421345617
 21
1502.0
 31
0.0
  0
LINE
  5
13578
330
1A
100
AcDbEntity
  8
ZISSEN1
100
AcDbLine
 10
-1800.0
 20
1500.0
 30
0.0
 11
-1800.0
 21
1502.0
 31
0.0
  0
LINE
  5
13579
330
1A
100
AcDbEntity
  8
ZISSEN1
100
AcDbLine
 10
-1799.0
 20
1500.0
 30
0.0
 11
-1799.0
 21
1502.0
 31
0.0
  0
LINE
  5
1357A
330
1A
100
AcDbEntity
  8
ZISSEN1
100
AcDbLine
 10
-1794.497421345617
 20
1515.0
 30
0.0
 11
-1794.497421345617
 21
1582.0
 31
0.0
  0
LINE
  5
1357B
330
1A
100
AcDbEntity
  8
ZISSEN1
100
AcDbLine
 10
-1683.497421345615
 20
1663.0
 30
0.0
 11
-1683.497421345615
 21
1626.299999999999
 31
0.0
  0
LINE
  5
1357C
330
1A
100
AcDbEntity
  8
ZISSEN1
100
AcDbLine
 10
-1703.347421345617
 20
1659.499999999999
 30
0.0
 11
-1683.497421345615
 21
1659.499999999999
 31
0.0
  0
LINE
  5
1357D
330
1A
100
AcDbEntity
  8
ZISSEN1
100
AcDbLine
 10
-1794.497421345615
 20
1662.0
 30
0.0
 11
-1793.202190259333
 21
1662.0
 31
0.0
  0
LINE
  5
1357E
330
1A
100
AcDbEntity
  8
ZISSEN1
100
AcDbLine
 10
-1683.497421345615
 20
1662.0
 30
0.0
 11
-1684.297421345614
 21
1662.0
 31
0.0
  0
LINE
  5
13580
330
1A
100
AcDbEntity
  8
ZISSEN1
100
AcDbLine
 10
-1792.997421345615
 20
1660.300018999998
 30
0.0
 11
-1792.997421345615
 21
1659.499999999999
 31
0.0
  0
LINE
  5
13581
330
1A
100
AcDbEntity
  8
ZISSEN1
100
AcDbLine
 10
-1792.997421345615
 20
1659.499999999999
 30
0.0
 11
-1792.997421345615
 21
1660.0
 31
0.0
  0
LINE
  5
13582
330
1A
100
AcDbEntity
  8
ZISSEN1
100
AcDbLine
 10
-1792.997421345615
 20
1650.099980999999
 30
0.0
 11
-1792.997421345615
 21
1650.899999999998
 31
0.0
  0
LINE
  5
13583
330
1A
100
AcDbEntity
  8
ZISSEN1
100
AcDbLine
 10
-1684.997421345615
 20
1638.399999999998
 30
0.0
 11
-1750.898238802998
 21
1638.399999999998
 31
0.0
  0
LINE
  5
13584
330
1A
100
AcDbEntity
  8
ZISSEN1
100
AcDbLine
 10
-1684.997421345615
 20
1636.799999999999
 30
0.0
 11
-1750.898238802998
 21
1636.799999999995
 31
0.0
  0
LINE
  5
13585
330
1A
100
AcDbEntity
  8
ZISSEN1
100
AcDbLine
 10
-1687.596139757002
 20
1628.899999999998
 30
0.0
 11
-1687.596139757002
 21
1636.299999999999
 31
0.0
  0
LINE
  5
13586
330
1A
100
AcDbEntity
  8
ZISSEN1
100
AcDbLine
 10
-1684.297421345614
 20
1650.899999999998
 30
0.0
 11
-1684.297421345614
 21
1636.299999999999
 31
0.0
  0
LINE
  5
13587
330
1A
100
AcDbEntity
  8
ZISSEN1
100
AcDbLine
 10
-1788.049999999997
 20
1638.900000000001
 30
0.0
 11
-1789.097421345617
 21
1638.900000000001
 31
0.0
  0
LINE
  5
13588
330
1A
100
AcDbEntity
  8
ZISSEN1
100
AcDbLine
 10
-1735.697236611664
 20
1628.899999999998
 30
0.0
 11
-1735.697236611664
 21
1632.949999999997
 31
0.0
  0
LINE
  5
13589
330
1A
100
AcDbEntity
  8
ZISSEN1
100
AcDbLine
 10
-1793.697421345616
 20
1650.899999999998
 30
0.0
 11
-1793.697421345616
 21
1641.399999999998
 31
0.0
  0
LINE
  5
1358A
330
1A
100
AcDbEntity
  8
ZISSEN1
100
AcDbLine
 10
-1793.697421345616
 20
1663.0
 30
0.0
 11
-1793.697421345616
 21
1659.499999999999
 31
0.0
  0
LINE
  5
1358B
330
1A
100
AcDbEntity
  8
ZISSEN1
  6
CONTINUOUS
100
AcDbLine
 10
-1794.497421345615
 20
1628.799999999999
 30
0.0
 11
-1794.497421345615
 21
1663.0
 31
0.0
  0
LINE
  5
1358C
330
1A
100
AcDbEntity
  8
ZISSEN1
  6
CONTINUOUS
100
AcDbLine
 10
-1750.898238802998
 20
1641.399999999998
 30
0.0
 11
-1794.497421345615
 21
1641.399999999998
 31
0.0
  0
LINE
  5
1358D
330
1A
100
AcDbEntity
  8
ZISSEN1
100
AcDbLine
 10
-1684.297421345614
 20
1663.0
 30
0.0
 11
-1684.297421345614
 21
1659.499999999999
 31
0.0
  0
LINE
  5
1358E
330
1A
100
AcDbEntity
  8
ZISSEN1
100
AcDbLine
 10
-1682.497421345615
 20
1663.0
 30
0.0
 11
-1682.497421345615
 21
1648.899999999999
 31
0.0
  0
LINE
  5
1358F
330
1A
100
AcDbEntity
  8
ZISSEN1
100
AcDbLine
 10
-1683.497421345615
 20
1663.0
 30
0.0
 11
-1684.297421345614
 21
1663.0
 31
0.0
  0
LINE
  5
13590
330
1A
100
AcDbEntity
  8
ZISSEN1
100
AcDbLine
 10
-1737.111383346666
 20
1667.0
 30
0.0
 11
-1740.88509425933
 21
1667.0
 31
0.0
  0
LINE
  5
13591
330
1A
100
AcDbEntity
  8
ZISSEN1
100
AcDbLine
 10
-1737.111383346666
 20
1665.0
 30
0.0
 11
-1740.88509425933
 21
1665.0
 31
0.0
  0
LINE
  5
13592
330
1A
100
AcDbEntity
  8
ZISSEN1
  6
CONTINUOUS
100
AcDbLine
 10
-1684.792687346664
 20
1668.499999999999
 30
0.0
 11
-1694.942842346663
 21
1668.499999999999
 31
0.0
  0
LINE
  5
13593
330
1A
100
AcDbEntity
  8
ZISSEN1
  6
CONTINUOUS
100
AcDbLine
 10
-1684.792687346664
 20
1668.499999999999
 30
0.0
 11
-1684.792687346664
 21
1660.300018999998
 31
0.0
  0
LINE
  5
13594
330
1A
100
AcDbEntity
  8
ZISSEN1
  6
CONTINUOUS
100
AcDbLine
 10
-1737.102183346665
 20
1668.499999999999
 30
0.0
 11
-1737.102183346665
 21
1660.300018999998
 31
0.0
  0
LINE
  5
13595
330
1A
100
AcDbEntity
  8
ZISSEN1
  6
CONTINUOUS
100
AcDbLine
 10
-1737.102183346665
 20
1660.300018999998
 30
0.0
 11
-1684.792687346664
 21
1660.300018999998
 31
0.0
  0
LINE
  5
13596
330
1A
100
AcDbEntity
  8
ZISSEN1
  6
CONTINUOUS
100
AcDbLine
 10
-1737.102183346665
 20
1668.499999999999
 30
0.0
 11
-1726.952028346666
 21
1668.499999999999
 31
0.0
  0
LINE
  5
13597
330
1A
100
AcDbEntity
  8
ZISSEN1
  6
CONTINUOUS
100
AcDbLine
 10
-1699.002831346664
 20
1668.499999999999
 30
0.0
 11
-1705.092436346665
 21
1668.499999999999
 31
0.0
  0
LINE
  5
13598
330
1A
100
AcDbEntity
  8
ZISSEN1
  6
CONTINUOUS
100
AcDbLine
 10
-1716.802434346664
 20
1668.499999999999
 30
0.0
 11
-1722.892039346665
 21
1668.499999999999
 31
0.0
  0
LINE
  5
13599
330
1A
100
AcDbEntity
  8
ZISSEN1
  6
CONTINUOUS
100
AcDbLine
 10
-1740.892694259331
 20
1668.499999999999
 30
0.0
 11
-1751.042849259334
 21
1668.499999999999
 31
0.0
  0
LINE
  5
1359A
330
1A
100
AcDbEntity
  8
ZISSEN1
  6
CONTINUOUS
100
AcDbLine
 10
-1740.892694259331
 20
1668.499999999999
 30
0.0
 11
-1740.892694259331
 21
1660.300018999998
 31
0.0
  0
LINE
  5
1359B
330
1A
100
AcDbEntity
  8
ZISSEN1
  6
CONTINUOUS
100
AcDbLine
 10
-1793.202190259333
 20
1668.499999999999
 30
0.0
 11
-1793.202190259333
 21
1660.300018999998
 31
0.0
  0
LINE
  5
1359C
330
1A
100
AcDbEntity
  8
ZISSEN1
  6
CONTINUOUS
100
AcDbLine
 10
-1793.202190259333
 20
1660.300018999998
 30
0.0
 11
-1740.892694259331
 21
1660.300018999998
 31
0.0
  0
LINE
  5
1359D
330
1A
100
AcDbEntity
  8
ZISSEN1
  6
CONTINUOUS
100
AcDbLine
 10
-1793.202190259333
 20
1668.499999999999
 30
0.0
 11
-1783.052035259333
 21
1668.499999999999
 31
0.0
  0
LINE
  5
1359E
330
1A
100
AcDbEntity
  8
ZISSEN1
  6
CONTINUOUS
100
AcDbLine
 10
-1772.902441259331
 20
1668.499999999999
 30
0.0
 11
-1778.992046259332
 21
1668.499999999999
 31
0.0
  0
LINE
  5
1359F
330
1A
100
AcDbEntity
  8
ZISSEN1
  6
CONTINUOUS
100
AcDbLine
 10
-1793.202190259333
 20
1641.899999999997
 30
0.0
 11
-1793.202190259333
 21
1650.099980999999
 31
0.0
  0
LINE
  5
135A0
330
1A
100
AcDbEntity
  8
ZISSEN1
  6
CONTINUOUS
100
AcDbLine
 10
-1740.892694259331
 20
1641.899999999997
 30
0.0
 11
-1740.892694259331
 21
1650.099980999999
 31
0.0
  0
LINE
  5
135A1
330
1A
100
AcDbEntity
  8
ZISSEN1
  6
CONTINUOUS
100
AcDbLine
 10
-1740.892694259331
 20
1650.099980999999
 30
0.0
 11
-1793.202190259333
 21
1650.099980999999
 31
0.0
  0
LINE
  5
135A2
330
1A
100
AcDbEntity
  8
ZISSEN1
  6
CONTINUOUS
100
AcDbLine
 10
-1740.892694259331
 20
1641.899999999997
 30
0.0
 11
-1793.202190259333
 21
1641.899999999997
 31
0.0
  0
LINE
  5
135A3
330
1A
100
AcDbEntity
  8
ZISSEN1
  6
CONTINUOUS
100
AcDbLine
 10
-1737.102183346665
 20
1650.099980999999
 30
0.0
 11
-1684.792687346664
 21
1650.099980999999
 31
0.0
  0
LINE
  5
135A4
330
1A
100
AcDbEntity
  8
ZISSEN1
  6
CONTINUOUS
100
AcDbLine
 10
-1737.102183346665
 20
1641.899999999997
 30
0.0
 11
-1737.102183346665
 21
1650.099980999999
 31
0.0
  0
LINE
  5
135A5
330
1A
100
AcDbEntity
  8
ZISSEN1
  6
CONTINUOUS
100
AcDbLine
 10
-1684.792687346664
 20
1641.899999999997
 30
0.0
 11
-1684.792687346664
 21
1650.099980999999
 31
0.0
  0
LINE
  5
135A6
330
1A
100
AcDbEntity
  8
ZISSEN1
  6
CONTINUOUS
100
AcDbLine
 10
-1684.792687346664
 20
1641.899999999997
 30
0.0
 11
-1737.102183346665
 21
1641.899999999997
 31
0.0
  0
LINE
  5
135A7
330
1A
100
AcDbEntity
  8
ZISSEN1
100
AcDbLine
 10
-1718.397236611664
 20
1630.099999999998
 30
0.0
 11
-1698.497236611667
 21
1630.099999999998
 31
0.0
  0
LINE
  5
135A8
330
1A
100
AcDbEntity
  8
ZISSEN1
100
AcDbLine
 10
-1716.247236611663
 20
1636.799999999999
 30
0.0
 11
-1715.647236611665
 21
1636.799999999999
 31
0.0
  0
LINE
  5
135A9
330
1A
100
AcDbEntity
  8
ZISSEN1
100
AcDbLine
 10
-1718.397236611664
 20
1636.799999999999
 30
0.0
 11
-1718.397236611664
 21
1630.099999999998
 31
0.0
  0
LINE
  5
135AA
330
1A
100
AcDbEntity
  8
ZISSEN1
100
AcDbLine
 10
-1698.497236611667
 20
1630.099999999998
 30
0.0
 11
-1698.497236611667
 21
1636.799999999999
 31
0.0
  0
LINE
  5
135AB
330
1A
100
AcDbEntity
  8
ZISSEN1
100
AcDbLine
 10
-1697.996139757004
 20
1636.799999999999
 30
0.0
 11
-1697.996139757004
 21
1630.099999999998
 31
0.0
  0
LINE
  5
135AC
330
1A
100
AcDbEntity
  8
ZISSEN1
100
AcDbLine
 10
-1688.096139757002
 20
1630.099999999998
 30
0.0
 11
-1688.096139757002
 21
1636.799999999999
 31
0.0
  0
LINE
  5
135AD
330
1A
100
AcDbEntity
  8
ZISSEN1
100
AcDbLine
 10
-1688.096139757002
 20
1630.099999999998
 30
0.0
 11
-1697.996139757004
 21
1630.099999999998
 31
0.0
  0
LINE
  5
135AE
330
1A
100
AcDbEntity
  8
ZISSEN1
100
AcDbLine
 10
-1770.799355307592
 20
1636.799999999999
 30
0.0
 11
-1770.799355307592
 21
1624.899999999997
 31
0.0
  0
LINE
  5
135AF
330
1A
100
AcDbEntity
  8
ZISSEN1
100
AcDbLine
 10
-1756.199355307591
 20
1624.899999999997
 30
0.0
 11
-1756.199355307591
 21
1636.799999999999
 31
0.0
  0
LINE
  5
135B0
330
1A
100
AcDbEntity
  8
ZISSEN1
100
AcDbLine
 10
-1770.799355307592
 20
1624.899999999997
 30
0.0
 11
-1756.199355307591
 21
1624.899999999997
 31
0.0
  0
LINE
  5
135B1
330
1A
100
AcDbEntity
  8
ZISSEN1
100
AcDbLine
 10
-1788.597421345617
 20
1624.899999999997
 30
0.0
 11
-1773.997421345617
 21
1624.899999999997
 31
0.0
  0
LINE
  5
135B2
330
1A
100
AcDbEntity
  8
ZISSEN1
100
AcDbLine
 10
-1755.699355307592
 20
1636.799999999999
 30
0.0
 11
-1789.097421345617
 21
1636.799999999999
 31
0.0
  0
LINE
  5
135B3
330
1A
100
AcDbEntity
  8
ZISSEN1
100
AcDbLine
 10
-1773.997421345617
 20
1624.899999999997
 30
0.0
 11
-1773.997421345617
 21
1636.799999999999
 31
0.0
  0
LINE
  5
135B4
330
1A
100
AcDbEntity
  8
ZISSEN1
100
AcDbLine
 10
-1788.597421345617
 20
1636.799999999999
 30
0.0
 11
-1788.597421345617
 21
1624.899999999997
 31
0.0
  0
LINE
  5
135B5
330
1A
100
AcDbEntity
  8
ZISSEN1
  6
BYBLOCK
100
AcDbLine
 10
-1721.097236611665
 20
1636.799999999995
 30
0.0
 11
-1718.897236611665
 21
1636.799999999995
 31
0.0
  0
LINE
  5
135B6
330
1A
100
AcDbEntity
  8
ZISSEN1
100
AcDbLine
 10
-1718.897236611665
 20
1629.099999999998
 30
0.0
 11
-1734.697236611664
 21
1629.099999999998
 31
0.0
  0
LINE
  5
135B7
330
1A
100
AcDbEntity
  8
ZISSEN1
100
AcDbLine
 10
-1734.697236611664
 20
1636.799999999997
 30
0.0
 11
-1734.697236611664
 21
1629.099999999998
 31
0.0
  0
LINE
  5
135B8
330
1A
100
AcDbEntity
  8
ZISSEN1
100
AcDbLine
 10
-1718.897236611665
 20
1636.799999999995
 30
0.0
 11
-1718.897236611665
 21
1629.099999999998
 31
0.0
  0
LINE
  5
135B9
330
1A
100
AcDbEntity
  8
ZISSEN1
  6
BYBLOCK
100
AcDbLine
 10
-1732.897236611665
 20
1636.799999999995
 30
0.0
 11
-1734.697236611664
 21
1636.799999999995
 31
0.0
  0
LINE
  5
135BA
330
1A
100
AcDbEntity
  8
ZISSEN1
100
AcDbLine
 10
-1791.997421345615
 20
1659.499999999999
 30
0.0
 11
-1791.997421345615
 21
1660.0
 31
0.0
  0
LINE
  5
135BB
330
1A
100
AcDbEntity
  8
ZISSEN1
100
AcDbLine
 10
-1685.997421345615
 20
1660.0
 30
0.0
 11
-1685.997421345615
 21
1659.499999999999
 31
0.0
  0
LINE
  5
135BD
330
1A
100
AcDbEntity
  8
ZISSEN1
100
AcDbLine
 10
-1684.997421345615
 20
1660.0
 30
0.0
 11
-1684.997421345615
 21
1659.499999999999
 31
0.0
  0
LINE
  5
135BE
330
1A
100
AcDbEntity
  8
ZISSEN1
100
AcDbLine
 10
-1792.997421345615
 20
1660.0
 30
0.0
 11
-1684.997421345615
 21
1660.0
 31
0.0
  0
LINE
  5
135BF
330
1A
100
AcDbEntity
  8
ZISSEN1
100
AcDbLine
 10
-1684.997421345615
 20
1650.399999999998
 30
0.0
 11
-1792.997421345615
 21
1650.399999999998
 31
0.0
  0
LINE
  5
135C0
330
1A
100
AcDbEntity
  8
ZISSEN1
100
AcDbLine
 10
-1684.997421345615
 20
1650.899999999998
 30
0.0
 11
-1684.997421345615
 21
1650.099980999999
 31
0.0
  0
LINE
  5
135C1
330
1A
100
AcDbEntity
  8
ZISSEN1
100
AcDbLine
 10
-1684.997421345615
 20
1650.399999999998
 30
0.0
 11
-1684.997421345615
 21
1650.399999999998
 31
0.0
  0
LINE
  5
135C2
330
1A
100
AcDbEntity
  8
ZISSEN1
100
AcDbLine
 10
-1685.997421345615
 20
1650.899999999998
 30
0.0
 11
-1685.997421345615
 21
1650.399999999998
 31
0.0
  0
LINE
  5
135C3
330
1A
100
AcDbEntity
  8
ZISSEN1
100
AcDbLine
 10
-1791.997421345615
 20
1650.399999999998
 30
0.0
 11
-1791.997421345615
 21
1650.899999999998
 31
0.0
  0
LINE
  5
135C4
330
1A
100
AcDbEntity
  8
ZISSEN1
100
AcDbLine
 10
-1749.397421345614
 20
1589.900000000001
 30
0.0
 11
-1734.697236611664
 21
1589.900000000001
 31
0.0
  0
LINE
  5
135C5
330
1A
100
AcDbEntity
  8
ZISSEN1
100
AcDbLine
 10
-1750.898238802998
 20
1632.949999999997
 30
0.0
 11
-1735.697236611664
 21
1632.949999999997
 31
0.0
  0
LINE
  5
135C6
330
1A
100
AcDbEntity
  8
ZISSEN1
100
AcDbLine
 10
-1791.997421345615
 20
1505.5
 30
0.0
 11
-1790.330754678949
 21
1505.5
 31
0.0
  0
LINE
  5
135C7
330
1A
100
AcDbEntity
  8
ZISSEN1
100
AcDbLine
 10
-1789.497421345617
 20
1504.0
 30
0.0
 11
-1688.497421345617
 21
1503.999999999998
 31
0.0
  0
LINE
  5
135C8
330
1A
100
AcDbEntity
  8
ZISSEN1
100
AcDbLine
 10
-1770.797421345616
 20
1589.799999999999
 30
0.0
 11
-1770.797421345616
 21
1585.0
 31
0.0
  0
LINE
  5
135C9
330
1A
100
AcDbEntity
  8
ZISSEN1
100
AcDbLine
 10
-1756.197421345616
 20
1589.799999999999
 30
0.0
 11
-1756.197421345616
 21
1585.0
 31
0.0
  0
LINE
  5
135CA
330
1A
100
AcDbEntity
  8
ZISSEN1
100
AcDbLine
 10
-1770.797421345616
 20
1572.2
 30
0.0
 11
-1756.197421345616
 21
1572.2
 31
0.0
  0
LINE
  5
135CB
330
1A
100
AcDbEntity
  8
ZISSEN1
100
AcDbLine
 10
-1756.197421345616
 20
1572.2
 30
0.0
 11
-1756.197421345616
 21
1585.0
 31
0.0
  0
LINE
  5
135CC
330
1A
100
AcDbEntity
  8
ZISSEN1
100
AcDbLine
 10
-1770.797421345616
 20
1585.0
 30
0.0
 11
-1770.797421345616
 21
1572.2
 31
0.0
  0
LINE
  5
135CD
330
1A
100
AcDbEntity
  8
ZISSEN1
100
AcDbLine
 10
-1796.497421345615
 20
1651.399999999999
 30
0.0
 11
-1794.497421345615
 21
1651.399999999999
 31
0.0
  0
LINE
  5
135CE
330
1A
100
AcDbEntity
  8
ZISSEN1
100
AcDbLine
 10
-1793.697421345616
 20
1663.0
 30
0.0
 11
-1796.497421345615
 21
1663.0
 31
0.0
  0
LINE
  5
135CF
330
1A
100
AcDbEntity
  8
ZISSEN1
100
AcDbLine
 10
-1796.497421345615
 20
1663.0
 30
0.0
 11
-1796.497421345615
 21
1651.399999999999
 31
0.0
  0
LINE
  5
135D0
330
1A
100
AcDbEntity
  8
ZISSEN1
100
AcDbLine
 10
-1793.202190259333
 20
1663.0
 30
0.0
 11
-1793.697421345616
 21
1663.0
 31
0.0
  0
LINE
  5
135D1
330
1A
100
AcDbEntity
  8
ZISSEN1
100
AcDbLine
 10
-1756.197421345616
 20
1582.497376548877
 30
0.0
 11
-1750.397421345615
 21
1582.497040056539
 31
0.0
  0
LINE
  5
135D2
330
1A
100
AcDbEntity
  8
ZISSEN1
100
AcDbLine
 10
-1794.5
 20
1511.0
 30
0.0
 11
-1794.5
 21
1503.672577366582
 31
0.0
  0
LINE
  5
135D3
330
1A
100
AcDbEntity
  8
ZISSEN1
100
AcDbLine
 10
-1794.5
 20
1511.0
 30
0.0
 11
-1796.499999999999
 21
1511.0
 31
0.0
  0
LINE
  5
135D4
330
1A
100
AcDbEntity
  8
ZISSEN1
100
AcDbLine
 10
-1796.499999999999
 20
1511.0
 30
0.0
 11
-1796.499999999999
 21
1503.900000000001
 31
0.0
  0
LINE
  5
135D5
330
1A
100
AcDbEntity
  8
ZISSEN1
100
AcDbLine
 10
-1794.5
 20
1510.0
 30
0.0
 11
-1796.499999999999
 21
1510.0
 31
0.0
  0
LINE
  5
135D6
330
1A
100
AcDbEntity
  8
ZISSEN1
100
AcDbLine
 10
-1684.792687346664
 20
1664.0
 30
0.0
 11
-1683.497421345615
 21
1664.0
 31
0.0
  0
LINE
  5
135D7
330
1A
100
AcDbEntity
  8
ZISSEN1
100
AcDbLine
 10
-1683.497421345615
 20
1664.0
 30
0.0
 11
-1682.497421345615
 21
1663.0
 31
0.0
  0
LINE
  5
135D8
330
1A
100
AcDbEntity
  8
ZISSEN1
100
AcDbLine
 10
-1740.497421345615
 20
1650.899999999999
 30
0.0
 11
-1794.497421345615
 21
1650.899999999999
 31
0.0
  0
LINE
  5
135D9
330
1A
100
AcDbEntity
  8
ZISSEN1
100
AcDbLine
 10
-1794.497421345615
 20
1662.0
 30
0.0
 11
-1796.497421345615
 21
1662.0
 31
0.0
  0
LINE
  5
135DA
330
1A
100
AcDbEntity
  8
ZISSEN1
100
AcDbLine
 10
-1796.497421345615
 20
1652.399999999999
 30
0.0
 11
-1794.497421345615
 21
1652.399999999999
 31
0.0
  0
LINE
  5
135DB
330
1A
100
AcDbEntity
  8
ZISSEN1
100
AcDbLine
 10
-1794.497421345617
 20
1536.199999999999
 30
0.0
 11
-1798.000000000001
 21
1536.199999999999
 31
0.0
  0
LINE
  5
135DC
330
1A
100
AcDbEntity
  8
ZISSEN1
100
AcDbLine
 10
-1799.0
 20
1625.0
 30
0.0
 11
-1800.0
 21
1626.0
 31
0.0
  0
LINE
  5
135DE
330
1A
100
AcDbEntity
  8
ZISSEN1
100
AcDbLine
 10
-1800.0
 20
1626.0
 30
0.0
 11
-1800.0
 21
1629.25
 31
0.0
  0
LINE
  5
135DF
330
1A
100
AcDbEntity
  8
ZISSEN1
100
AcDbLine
 10
-1799.0
 20
1648.899999999999
 30
0.0
 11
-1800.0
 21
1647.899999999999
 31
0.0
  0
LINE
  5
135E0
330
1A
100
AcDbEntity
  8
ZISSEN1
100
AcDbLine
 10
-1801.0
 20
1667.5
 30
0.0
 11
-1801.0
 21
1625.499999999999
 31
0.0
  0
CIRCLE
  5
135E2
330
1A
100
AcDbEntity
  8
ZISSEN1
100
AcDbCircle
 10
-1796.499999999996
 20
1630.999999999996
 30
0.0
 40
3.149999999999999
  0
LINE
  5
135E3
330
1A
100
AcDbEntity
  8
ZISSEN1
100
AcDbLine
 10
-1793.697421345616
 20
1624.999999999996
 30
0.0
 11
-1793.697421345616
 21
1628.799999999999
 31
0.0
  0
LINE
  5
135E4
330
1A
100
AcDbEntity
  8
ZISSEN1
100
AcDbLine
 10
-1794.497421345615
 20
1628.799999999999
 30
0.0
 11
-1793.697421345616
 21
1628.799999999999
 31
0.0
  0
LINE
  5
135E5
330
1A
100
AcDbEntity
  8
ZISSEN1
100
AcDbLine
 10
-1794.497421345615
 20
1625.799999999999
 30
0.0
 11
-1794.497421345615
 21
1624.999999999996
 31
0.0
  0
LINE
  5
135E6
330
1A
100
AcDbEntity
  8
ZISSEN1
100
AcDbLine
 10
-1794.497421345615
 20
1625.799999999999
 30
0.0
 11
-1793.697421345616
 21
1625.799999999999
 31
0.0
  0
LINE
  5
135E7
330
1A
100
AcDbEntity
  8
ZISSEN1
100
AcDbLine
 10
-1692.247421345613
 20
1624.5
 30
0.0
 11
-1800.0
 21
1624.5
 31
0.0
  0
CIRCLE
  5
135E8
330
1A
100
AcDbEntity
  8
ZISSEN1
100
AcDbCircle
 10
-1680.497421345615
 20
1630.999999999996
 30
0.0
 40
3.149999999999999
  0
LINE
  5
135E9
330
1A
100
AcDbEntity
  8
ZISSEN1
100
AcDbLine
 10
-1674.997421345615
 20
1624.5
 30
0.0
 11
-1673.997421345615
 21
1625.499999999999
 31
0.0
  0
LINE
  5
135EB
330
1A
100
AcDbEntity
  8
ZISSEN1
100
AcDbLine
 10
-1675.997421345615
 20
1626.0
 30
0.0
 11
-1675.997421345615
 21
1629.25
 31
0.0
  0
LINE
  5
135EC
330
1A
100
AcDbEntity
  8
ZISSEN1
100
AcDbLine
 10
-1684.297421345614
 20
1628.799999999999
 30
0.0
 11
-1684.297421345614
 21
1626.299999999999
 31
0.0
  0
LINE
  5
135ED
330
1A
100
AcDbEntity
  8
ZISSEN1
100
AcDbLine
 10
-1684.297421345614
 20
1628.799999999999
 30
0.0
 11
-1683.497421345615
 21
1628.799999999999
 31
0.0
  0
LINE
  5
135EF
330
1A
100
AcDbEntity
  8
ZISSEN1
100
AcDbLine
 10
-1683.497421345615
 20
1625.799999999999
 30
0.0
 11
-1683.497421345615
 21
1625.0
 31
0.0
  0
LINE
  5
135F0
330
1A
100
AcDbEntity
  8
ZISSEN1
100
AcDbLine
 10
-1684.297421345614
 20
1625.799999999999
 30
0.0
 11
-1683.497421345615
 21
1625.799999999999
 31
0.0
  0
LINE
  5
135F1
330
1A
100
AcDbEntity
  8
ZISSEN1
100
AcDbLine
 10
-1676.997421345615
 20
1648.899999999999
 30
0.0
 11
-1682.497421345615
 21
1648.899999999999
 31
0.0
  0
LINE
  5
135F2
330
1A
100
AcDbEntity
  8
ZISSEN1
100
AcDbLine
 10
-1673.997421345615
 20
1667.5
 30
0.0
 11
-1673.997421345615
 21
1625.499999999999
 31
0.0
  0
LINE
  5
135F3
330
1A
100
AcDbEntity
  8
ZISSEN1
100
AcDbLine
 10
-1676.997421345615
 20
1648.899999999999
 30
0.0
 11
-1675.997421345615
 21
1647.899999999999
 31
0.0
  0
ELLIPSE
  5
135F4
330
1A
100
AcDbEntity
  8
ZISSEN1
 48
0.4
100
AcDbEllipse
 10
-1689.497421345613
 20
1624.249999999999
 30
0.0
 11
-2.75
 21
0.0000000000000025
 31
0.0
210
0.0
220
0.0
230
1.0
 40
0.3090909090909173
 41
6.283185307179586
 42
9.424777960769379
  0
LINE
  5
135F5
330
1A
100
AcDbEntity
  8
ZISSEN1
 48
0.4
100
AcDbLine
 10
-1686.747421345613
 20
1624.249999999999
 30
0.0
 11
-1686.747421345613
 21
1625.0
 31
0.0
  0
LINE
  5
135F6
330
1A
100
AcDbEntity
  8
ZISSEN1
 48
0.4
100
AcDbLine
 10
-1692.247421345613
 20
1624.249999999999
 30
0.0
 11
-1692.247421345613
 21
1625.0
 31
0.0
  0
LINE
  5
135F7
330
1A
100
AcDbEntity
  8
ZISSEN1
100
AcDbLine
 10
-1692.247421345613
 20
1625.0
 30
0.0
 11
-1686.747421345613
 21
1625.0
 31
0.0
  0
LINE
  5
135F8
330
1A
100
AcDbEntity
  8
ZISSEN1
100
AcDbLine
 10
-1755.699355307592
 20
1625.0
 30
0.0
 11
-1755.699355307592
 21
1638.899999999997
 31
0.0
  0
LINE
  5
135F9
330
1A
100
AcDbEntity
  8
ZISSEN1
100
AcDbLine
 10
-1789.097421345617
 20
1638.899999999999
 30
0.0
 11
-1789.097421345617
 21
1625.0
 31
0.0
  0
LINE
  5
135FA
330
1A
100
AcDbEntity
  8
ZISSEN1
100
AcDbLine
 10
-1788.597421345617
 20
1625.799999999999
 30
0.0
 11
-1789.097421345617
 21
1625.799999999999
 31
0.0
  0
LINE
  5
135FB
330
1A
100
AcDbEntity
  8
ZISSEN1
100
AcDbLine
 10
-1773.997421345617
 20
1625.799999999999
 30
0.0
 11
-1770.799355307592
 21
1625.799999999999
 31
0.0
  0
LINE
  5
135FC
330
1A
100
AcDbEntity
  8
ZISSEN1
100
AcDbLine
 10
-1770.799355307592
 20
1625.0
 30
0.0
 11
-1773.997421345617
 21
1625.0
 31
0.0
  0
LINE
  5
135FD
330
1A
100
AcDbEntity
  8
ZISSEN1
100
AcDbLine
 10
-1755.699355307592
 20
1625.799999999999
 30
0.0
 11
-1756.199355307591
 21
1625.799999999999
 31
0.0
  0
LINE
  5
135FE
330
1A
100
AcDbEntity
  8
ZISSEN1
100
AcDbLine
 10
-1684.997421345615
 20
1636.799999999995
 30
0.0
 11
-1684.997421345615
 21
1638.399999999998
 31
0.0
  0
LINE
  5
135FF
330
1A
100
AcDbEntity
  8
ZISSEN1
100
AcDbLine
 10
-1685.997421345615
 20
1636.799999999995
 30
0.0
 11
-1685.997421345615
 21
1638.399999999998
 31
0.0
  0
LINE
  5
13600
330
1A
100
AcDbEntity
  8
ZISSEN1
100
AcDbLine
 10
-1687.596139757002
 20
1636.299999999999
 30
0.0
 11
-1683.497421345615
 21
1636.299999999999
 31
0.0
  0
LINE
  5
13601
330
1A
100
AcDbEntity
  8
ZISSEN1
100
AcDbLine
 10
-1688.096139757004
 20
1586.2
 30
0.0
 11
-1688.096139757004
 21
1582.300000000002
 31
0.0
  0
LINE
  5
13602
330
1A
100
AcDbEntity
  8
ZISSEN1
100
AcDbLine
 10
-1697.997421345615
 20
1589.900000000001
 30
0.0
 11
-1688.097421345615
 21
1589.900000000001
 31
0.0
  0
LINE
  5
13603
330
1A
100
AcDbEntity
  8
ZISSEN1
100
AcDbLine
 10
-1718.397421345614
 20
1589.900000000001
 30
0.0
 11
-1698.497421345615
 21
1589.900000000001
 31
0.0
  0
LINE
  5
13604
330
1A
100
AcDbEntity
  8
ZISSEN1
100
AcDbLine
 10
-1698.497421345615
 20
1589.900000000001
 30
0.0
 11
-1698.497421345615
 21
1581.999999999951
 31
0.0
  0
LINE
  5
13605
330
1A
100
AcDbEntity
  8
ZISSEN1
100
AcDbLine
 10
-1697.997421345615
 20
1589.900000000001
 30
0.0
 11
-1697.997421345615
 21
1581.999999999951
 31
0.0
  0
LINE
  5
13606
330
1A
100
AcDbEntity
  8
ZISSEN1
100
AcDbLine
 10
-1688.097421345615
 20
1581.999999999936
 30
0.0
 11
-1688.097421345615
 21
1589.900000000001
 31
0.0
  0
LINE
  5
13607
330
1A
100
AcDbEntity
  8
ZISSEN1
100
AcDbLine
 10
-1718.397421345614
 20
1589.900000000001
 30
0.0
 11
-1718.397421345614
 21
1581.999999999978
 31
0.0
  0
LINE
  5
13608
330
1A
100
AcDbEntity
  8
ZISSEN1
100
AcDbLine
 10
-1718.897236611665
 20
1589.900000000001
 30
0.0
 11
-1718.397236611664
 21
1589.900000000001
 31
0.0
  0
LINE
  5
13609
330
1A
100
AcDbEntity
  8
ZISSEN1
100
AcDbLine
 10
-1771.297421345616
 20
1569.2
 30
0.0
 11
-1755.697421345616
 21
1569.2
 31
0.0
  0
LINE
  5
1360A
330
1A
100
AcDbEntity
  8
ZISSEN1
100
AcDbLine
 10
-1755.697421345616
 20
1569.2
 30
0.0
 11
-1755.697421345616
 21
1582.0
 31
0.0
  0
LINE
  5
1360B
330
1A
100
AcDbEntity
  8
ZISSEN1
100
AcDbLine
 10
-1770.797421345616
 20
1582.0
 30
0.0
 11
-1773.997421345617
 21
1582.0
 31
0.0
  0
LINE
  5
1360C
330
1A
100
AcDbEntity
  8
ZISSEN1
100
AcDbLine
 10
-1794.497421345617
 20
1582.0
 30
0.0
 11
-1788.597421345617
 21
1582.0
 31
0.0
  0
LINE
  5
1360D
330
1A
100
AcDbEntity
  8
ZISSEN1
100
AcDbLine
 10
-1788.597421345617
 20
1589.799999999999
 30
0.0
 11
-1788.597421345617
 21
1585.0
 31
0.0
  0
LINE
  5
1360E
330
1A
100
AcDbEntity
  8
ZISSEN1
100
AcDbLine
 10
-1788.597421345617
 20
1589.799999999999
 30
0.0
 11
-1773.997421345619
 21
1589.799999999999
 31
0.0
  0
LINE
  5
1360F
330
1A
100
AcDbEntity
  8
ZISSEN1
100
AcDbLine
 10
-1773.997421345617
 20
1572.2
 30
0.0
 11
-1773.997421345617
 21
1585.0
 31
0.0
  0
LINE
  5
13610
330
1A
100
AcDbEntity
  8
ZISSEN1
100
AcDbLine
 10
-1789.097421345617
 20
1582.0
 30
0.0
 11
-1789.097421345617
 21
1569.2
 31
0.0
  0
LINE
  5
13611
330
1A
100
AcDbEntity
  8
ZISSEN1
100
AcDbLine
 10
-1789.097421345617
 20
1569.2
 30
0.0
 11
-1755.697421345616
 21
1569.2
 31
0.0
  0
LINE
  5
13612
330
1A
100
AcDbEntity
  8
ZISSEN1
100
AcDbLine
 10
-1788.597421345617
 20
1585.0
 30
0.0
 11
-1788.597421345617
 21
1572.2
 31
0.0
  0
LINE
  5
13613
330
1A
100
AcDbEntity
  8
ZISSEN1
100
AcDbLine
 10
-1788.597421345617
 20
1572.2
 30
0.0
 11
-1773.997421345617
 21
1572.2
 31
0.0
  0
LINE
  5
13614
330
1A
100
AcDbEntity
  8
ZISSEN1
100
AcDbLine
 10
-1683.497421345615
 20
1641.600489
 30
0.0
 11
-1684.297421345614
 21
1641.600489
 31
0.0
  0
LINE
  5
13615
330
1A
100
AcDbEntity
  8
ZISSEN1
100
AcDbLine
 10
-1683.497421345615
 20
1640.600489
 30
0.0
 11
-1684.297421345614
 21
1640.600489
 31
0.0
  0
LINE
  5
13616
330
1A
100
AcDbEntity
  8
ZISSEN1
100
AcDbLine
 10
-1740.497421345615
 20
1659.499999999999
 30
0.0
 11
-1794.497421345615
 21
1659.499999999999
 31
0.0
  0
LINE
  5
13617
330
1A
100
AcDbEntity
  8
ZISSEN1
100
AcDbLine
 10
-1698.497421345615
 20
1589.900000000001
 30
0.0
 11
-1697.997421345615
 21
1589.900000000001
 31
0.0
  0
LINE
  5
13618
330
1A
100
AcDbEntity
  8
ZISSEN1
100
AcDbLine
 10
-1742.297421345616
 20
1587.903689880884
 30
0.0
 11
-1735.697421345614
 21
1587.903689880884
 31
0.0
  0
LINE
  5
13619
330
1A
100
AcDbEntity
  8
ZISSEN1
100
AcDbLine
 10
-1735.697421345614
 20
1587.903689880884
 30
0.0
 11
-1735.697421345614
 21
1582.0
 31
0.0
  0
LINE
  5
1361A
330
1A
100
AcDbEntity
  8
ZISSEN1
100
AcDbLine
 10
-1742.297421345616
 20
1582.0
 30
0.0
 11
-1742.297421345616
 21
1587.903689880884
 31
0.0
  0
LINE
  5
1361B
330
1A
100
AcDbEntity
  8
ZISSEN1
  6
CONTINUOUS
 62
     7
100
AcDbLine
 10
-1735.986164802998
 20
1634.449999999999
 30
0.0
 11
-1742.010314802999
 21
1634.449999999999
 31
0.0
  0
LINE
  5
1361C
330
1A
100
AcDbEntity
  8
ZISSEN1
100
AcDbLine
 10
-1750.398238802998
 20
1638.399999999999
 30
0.0
 11
-1750.398238802998
 21
1636.799999999997
 31
0.0
  0
LINE
  5
1361D
330
1A
100
AcDbEntity
  8
ZISSEN1
100
AcDbLine
 10
-1749.398238802998
 20
1638.399999999999
 30
0.0
 11
-1749.398238802998
 21
1636.799999999997
 31
0.0
  0
LINE
  5
1361E
330
1A
100
AcDbEntity
  8
ZISSEN1
  6
CONTINUOUS
 62
     7
100
AcDbLine
 10
-1743.086164803
 20
1634.449999999999
 30
0.0
 11
-1749.398238544934
 21
1634.449999999999
 31
0.0
  0
LINE
  5
1361F
330
1A
100
AcDbEntity
  8
ZISSEN1
100
AcDbLine
 10
-1750.898238802998
 20
1632.949999999997
 30
0.0
 11
-1750.898238802998
 21
1641.399999999998
 31
0.0
  0
ARC
  5
13620
330
1A
100
AcDbEntity
  8
ZISSEN1
100
AcDbCircle
 10
-1750.397421345615
 20
1589.900000000001
 30
0.0
 40
1.0
100
AcDbArc
 50
270.0
 51
0.0
  0
LINE
  5
13621
330
1A
100
AcDbEntity
  8
ZISSEN1
100
AcDbLine
 10
-1750.397421345615
 20
1588.900000000001
 30
0.0
 11
-1750.397421345615
 21
1582.0
 31
0.0
  0
LINE
  5
13622
330
1A
100
AcDbEntity
  8
ZISSEN1
100
AcDbLine
 10
-1749.397421345614
 20
1582.0
 30
0.0
 11
-1749.397421345614
 21
1587.903689880884
 31
0.0
  0
LINE
  5
13623
330
1A
100
AcDbEntity
  8
ZISSEN1
100
AcDbLine
 10
-1742.797421345612
 20
1587.903689880884
 30
0.0
 11
-1742.797421345612
 21
1582.0
 31
0.0
  0
LINE
  5
13624
330
1A
100
AcDbEntity
  8
ZISSEN1
100
AcDbLine
 10
-1749.397421345614
 20
1587.903689880884
 30
0.0
 11
-1742.797421345612
 21
1587.903689880884
 31
0.0
  0
LINE
  5
13625
330
1A
100
AcDbEntity
  8
ZISSEN1
100
AcDbLine
 10
-1687.597421345617
 20
1581.2
 30
0.0
 11
-1735.197421345617
 21
1581.2
 31
0.0
  0
LINE
  5
13626
330
1A
100
AcDbEntity
  8
ZISSEN1
100
AcDbLine
 10
-1735.197421345617
 20
1581.2
 30
0.0
 11
-1735.197421345617
 21
1579.5
 31
0.0
  0
LINE
  5
13627
330
1A
100
AcDbEntity
  8
ZISSEN1
100
AcDbLine
 10
-1735.197421345617
 20
1579.5
 30
0.0
 11
-1687.597421345617
 21
1579.5
 31
0.0
  0
LINE
  5
13628
330
1A
100
AcDbEntity
  8
ZISSEN1
100
AcDbLine
 10
-1687.597421345617
 20
1579.5
 30
0.0
 11
-1687.597421345617
 21
1581.2
 31
0.0
  0
LINE
  5
13629
330
1A
100
AcDbEntity
  8
ZISSEN1
100
AcDbLine
 10
-1683.497421345615
 20
1626.299999999999
 30
0.0
 11
-1684.297421345614
 21
1626.299999999999
 31
0.0
  0
LINE
  5
1362A
330
1A
100
AcDbEntity
  8
ZISSEN1
100
AcDbLine
 10
-1684.297421345614
 20
1625.799999999999
 30
0.0
 11
-1684.297421345614
 21
1625.0
 31
0.0
  0
LINE
  5
1362B
330
1A
100
AcDbEntity
  8
ZISSEN1
100
AcDbLine
 10
-1684.297421345614
 20
1626.299999999999
 30
0.0
 11
-1684.297421345614
 21
1625.799999999999
 31
0.0
  0
LINE
  5
1362C
330
1A
100
AcDbEntity
  8
ZISSEN1
100
AcDbLine
 10
-1798.000000000001
 20
1554.199999999998
 30
0.0
 11
-1794.497421345617
 21
1554.199999999998
 31
0.0
  0
LINE
  5
1362D
330
1A
100
AcDbEntity
  8
ZISSEN1
100
AcDbLine
 10
-1755.699355307592
 20
1638.399999999998
 30
0.0
 11
-1789.097421345617
 21
1638.399999999998
 31
0.0
  0
LINE
  5
1362E
330
1A
100
AcDbEntity
  8
ZISSEN1
100
AcDbLine
 10
-1756.199355307591
 20
1638.400000000001
 30
0.0
 11
-1756.199355307591
 21
1636.799999999999
 31
0.0
  0
LINE
  5
1362F
330
1A
100
AcDbEntity
  8
ZISSEN1
100
AcDbLine
 10
-1756.699355307591
 20
1638.400000000001
 30
0.0
 11
-1756.699355307591
 21
1636.799999999999
 31
0.0
  0
LINE
  5
13630
330
1A
100
AcDbEntity
  8
ZISSEN1
100
AcDbLine
 10
-1788.597421345617
 20
1638.400000000001
 30
0.0
 11
-1788.597421345617
 21
1636.799999999999
 31
0.0
  0
LINE
  5
13631
330
1A
100
AcDbEntity
  8
ZISSEN1
100
AcDbLine
 10
-1788.097421345617
 20
1638.400000000001
 30
0.0
 11
-1788.097421345617
 21
1636.799999999999
 31
0.0
  0
LINE
  5
13632
330
1A
100
AcDbEntity
  8
ZISSEN1
100
AcDbLine
 10
-1770.797421345616
 20
1581.2
 30
0.0
 11
-1773.997421345617
 21
1581.2
 31
0.0
  0
LINE
  5
13633
330
1A
100
AcDbEntity
  8
ZISSEN1
100
AcDbLine
 10
-1794.497421345615
 20
1638.399999999998
 30
0.0
 11
-1797.997421345615
 21
1638.399999999998
 31
0.0
  0
LINE
  5
13634
330
1A
100
AcDbEntity
  8
ZISSEN1
100
AcDbLine
 10
-1797.997421345615
 20
1638.399999999998
 30
0.0
 11
-1797.997421345615
 21
1643.399999999997
 31
0.0
  0
LINE
  5
13635
330
1A
100
AcDbEntity
  8
ZISSEN1
100
AcDbLine
 10
-1797.997421345615
 20
1643.399999999997
 30
0.0
 11
-1794.497421345615
 21
1643.399999999997
 31
0.0
  0
LINE
  5
13636
330
1A
100
AcDbEntity
  8
ZISSEN1
100
AcDbLine
 10
-1787.549999999997
 20
1639.700000000001
 30
0.0
 11
-1785.549999999997
 21
1639.700000000001
 31
0.0
  0
LINE
  5
13637
330
1A
100
AcDbEntity
  8
ZISSEN1
100
AcDbLine
 10
-1785.549999999997
 20
1638.399999999999
 30
0.0
 11
-1785.549999999997
 21
1639.700000000001
 31
0.0
  0
LINE
  5
13638
330
1A
100
AcDbEntity
  8
ZISSEN1
100
AcDbLine
 10
-1787.549999999997
 20
1639.700000000001
 30
0.0
 11
-1787.549999999997
 21
1638.399999999999
 31
0.0
  0
LINE
  5
13639
330
1A
100
AcDbEntity
  8
ZISSEN1
100
AcDbLine
 10
-1787.549999999997
 20
1639.700000000001
 30
0.0
 11
-1785.549999999997
 21
1639.700000000001
 31
0.0
  0
LINE
  5
1363A
330
1A
100
AcDbEntity
  8
ZISSEN1
100
AcDbLine
 10
-1777.049999999997
 20
1639.699999999998
 30
0.0
 11
-1775.049999999997
 21
1639.699999999998
 31
0.0
  0
LINE
  5
1363B
330
1A
100
AcDbEntity
  8
ZISSEN1
100
AcDbLine
 10
-1777.049999999997
 20
1639.699999999998
 30
0.0
 11
-1777.049999999997
 21
1638.399999999998
 31
0.0
  0
LINE
  5
1363C
330
1A
100
AcDbEntity
  8
ZISSEN1
100
AcDbLine
 10
-1775.049999999997
 20
1638.399999999998
 30
0.0
 11
-1775.049999999997
 21
1639.699999999998
 31
0.0
  0
LINE
  5
1363D
330
1A
100
AcDbEntity
  8
ZISSEN1
100
AcDbLine
 10
-1777.049999999997
 20
1639.699999999998
 30
0.0
 11
-1775.049999999997
 21
1639.699999999998
 31
0.0
  0
LINE
  5
1363E
330
1A
100
AcDbEntity
  8
ZISSEN1
100
AcDbLine
 10
-1759.249999999998
 20
1639.699999999997
 30
0.0
 11
-1757.249999999998
 21
1639.699999999997
 31
0.0
  0
LINE
  5
1363F
330
1A
100
AcDbEntity
  8
ZISSEN1
100
AcDbLine
 10
-1757.249999999998
 20
1638.399999999996
 30
0.0
 11
-1757.249999999998
 21
1639.699999999997
 31
0.0
  0
LINE
  5
13640
330
1A
100
AcDbEntity
  8
ZISSEN1
100
AcDbLine
 10
-1759.249999999998
 20
1639.699999999997
 30
0.0
 11
-1759.249999999998
 21
1638.399999999996
 31
0.0
  0
LINE
  5
13641
330
1A
100
AcDbEntity
  8
ZISSEN1
100
AcDbLine
 10
-1759.249999999998
 20
1639.699999999997
 30
0.0
 11
-1757.249999999998
 21
1639.699999999997
 31
0.0
  0
LINE
  5
13642
330
1A
100
AcDbEntity
  8
ZISSEN1
100
AcDbLine
 10
-1769.749999999998
 20
1639.699999999998
 30
0.0
 11
-1767.749999999998
 21
1639.699999999998
 31
0.0
  0
LINE
  5
13643
330
1A
100
AcDbEntity
  8
ZISSEN1
100
AcDbLine
 10
-1769.749999999998
 20
1639.699999999998
 30
0.0
 11
-1769.749999999998
 21
1638.399999999998
 31
0.0
  0
LINE
  5
13644
330
1A
100
AcDbEntity
  8
ZISSEN1
100
AcDbLine
 10
-1767.749999999998
 20
1638.399999999998
 30
0.0
 11
-1767.749999999998
 21
1639.699999999998
 31
0.0
  0
LINE
  5
13645
330
1A
100
AcDbEntity
  8
ZISSEN1
100
AcDbLine
 10
-1769.749999999998
 20
1639.699999999998
 30
0.0
 11
-1767.749999999998
 21
1639.699999999998
 31
0.0
  0
ARC
  5
13646
330
1A
100
AcDbEntity
  8
ZISSEN1
100
AcDbCircle
 10
-1786.549999999997
 20
1638.900000000001
 30
0.0
 40
1.5
100
AcDbArc
 50
0.0
 51
180.0
  0
ARC
  5
13647
330
1A
100
AcDbEntity
  8
ZISSEN1
100
AcDbCircle
 10
-1776.049999999997
 20
1638.899999999999
 30
0.0
 40
1.5
100
AcDbArc
 50
0.0
 51
180.0
  0
ARC
  5
13648
330
1A
100
AcDbEntity
  8
ZISSEN1
100
AcDbCircle
 10
-1768.749999999998
 20
1638.899999999999
 30
0.0
 40
1.5
100
AcDbArc
 50
0.0
 51
180.0
  0
ARC
  5
13649
330
1A
100
AcDbEntity
  8
ZISSEN1
100
AcDbCircle
 10
-1758.249999999998
 20
1638.899999999997
 30
0.0
 40
1.5
100
AcDbArc
 50
0.0
 51
180.0
  0
LINE
  5
1364A
330
1A
100
AcDbEntity
  8
ZISSEN1
100
AcDbLine
 10
-1785.049999999997
 20
1638.900000000001
 30
0.0
 11
-1777.549999999997
 21
1638.899999999999
 31
0.0
  0
LINE
  5
1364B
330
1A
100
AcDbEntity
  8
ZISSEN1
100
AcDbLine
 10
-1774.549999999997
 20
1638.899999999999
 30
0.0
 11
-1770.249999999998
 21
1638.899999999999
 31
0.0
  0
LINE
  5
1364C
330
1A
100
AcDbEntity
  8
ZISSEN1
100
AcDbLine
 10
-1767.249999999998
 20
1638.899999999999
 30
0.0
 11
-1759.749999999998
 21
1638.899999999997
 31
0.0
  0
LINE
  5
1364D
330
1A
100
AcDbEntity
  8
ZISSEN1
100
AcDbLine
 10
-1756.749999999998
 20
1638.899999999997
 30
0.0
 11
-1755.699355307592
 21
1638.899999999997
 31
0.0
  0
LINE
  5
1364E
330
1A
100
AcDbEntity
  8
ZISSEN1
100
AcDbLine
 10
-1798.000000000001
 20
1554.199999999998
 30
0.0
 11
-1798.000000000001
 21
1536.199999999999
 31
0.0
  0
LINE
  5
1364F
330
1A
100
AcDbEntity
  8
ZISSEN1
100
AcDbLine
 10
-1799.0
 20
1648.899999999999
 30
0.0
 11
-1794.497421345615
 21
1648.899999999999
 31
0.0
  0
LINE
  5
13650
330
1A
100
AcDbEntity
  8
ZISSEN1
100
AcDbLine
 10
-1687.664088012283
 20
1505.5
 30
0.0
 11
-1685.997421345615
 21
1505.5
 31
0.0
  0
LINE
  5
13651
330
1A
100
AcDbEntity
  8
ZISSEN1
100
AcDbLine
 10
-1740.892694259333
 20
1595.999998905785
 30
0.0
 11
-1793.202190259335
 21
1595.999998905785
 31
0.0
  0
LINE
  5
13652
330
1A
100
AcDbEntity
  8
ZISSEN1
100
AcDbLine
 10
-1793.202190259335
 20
1595.999998905785
 30
0.0
 11
-1793.202190259335
 21
1581.999998905785
 31
0.0
  0
LINE
  5
13653
330
1A
100
AcDbEntity
  8
ZISSEN1
100
AcDbLine
 10
-1740.892694259333
 20
1589.899998905786
 30
0.0
 11
-1740.892694259333
 21
1595.999998905785
 31
0.0
  0
LINE
  5
13654
330
1A
100
AcDbEntity
  8
ZISSEN1
100
AcDbLine
 10
-1737.102183346667
 20
1595.999998905785
 30
0.0
 11
-1737.102183346667
 21
1589.899998905786
 31
0.0
  0
LINE
  5
13655
330
1A
100
AcDbEntity
  8
ZISSEN1
100
AcDbLine
 10
-1684.792687346665
 20
1595.999998905785
 30
0.0
 11
-1737.102183346667
 21
1595.999998905785
 31
0.0
  0
LINE
  5
13656
330
1A
100
AcDbEntity
  8
ZISSEN1
100
AcDbLine
 10
-1684.792687346665
 20
1581.999998905717
 30
0.0
 11
-1684.792687346665
 21
1595.999998905785
 31
0.0
  0
LINE
  5
13659
330
1A
100
AcDbEntity
  8
ZISSEN1
100
AcDbLine
 10
-1735.697729234583
 20
1634.449999999999
 30
0.0
 11
-1735.698501414792
 21
1636.799999999995
 31
0.0
  0
LINE
  5
1365A
330
1A
100
AcDbEntity
  8
ZISSEN1
100
AcDbLine
 10
-1742.298238544935
 20
1634.449999999999
 30
0.0
 11
-1742.298238544935
 21
1636.799999999995
 31
0.0
  0
LINE
  5
1365B
330
1A
100
AcDbEntity
  8
ZISSEN1
100
AcDbLine
 10
-1742.798238544935
 20
1634.449999999999
 30
0.0
 11
-1742.798238544935
 21
1636.799999999995
 31
0.0
  0
LINE
  5
1365C
330
1A
100
AcDbEntity
  8
ZISSEN1
100
AcDbLine
 10
-1749.398238544934
 20
1634.449999999999
 30
0.0
 11
-1749.398238544934
 21
1636.799999999995
 31
0.0
  0
LINE
  5
1365D
330
1A
100
AcDbEntity
  8
ZISSEN1
  6
CONTINUOUS
 62
     7
100
AcDbLine
 10
-1742.798238544935
 20
1634.449999999999
 30
0.0
 11
-1749.398238544934
 21
1634.449999999999
 31
0.0
  0
LINE
  5
1365E
330
1A
100
AcDbEntity
  8
ZISSEN1
  6
CONTINUOUS
 62
     7
100
AcDbLine
 10
-1735.697729234583
 20
1634.449999999999
 30
0.0
 11
-1742.298238544935
 21
1634.449999999999
 31
0.0
  0
LINE
  5
1365F
330
1A
100
AcDbEntity
  8
CL1
100
AcDbLine
 10
-1680.497421345615
 20
1635.410962400157
 30
0.0
 11
-1680.497421345615
 21
1626.410962400157
 31
0.0
  0
LINE
  5
13660
330
1A
100
AcDbEntity
  8
CL1
100
AcDbLine
 10
-1684.489233818558
 20
1630.999999999996
 30
0.0
 11
-1676.489233818558
 21
1630.999999999996
 31
0.0
  0
LINE
  5
13661
330
1A
100
AcDbEntity
  8
CL1
100
AcDbLine
 10
-1383.118184569368
 20
1635.999999999996
 30
0.0
 11
-1377.818184569369
 21
1635.999999999996
 31
0.0
  0
LINE
  5
13662
330
1A
100
AcDbEntity
  8
CL1
100
AcDbLine
 10
-1380.497421345615
 20
1640.410962400157
 30
0.0
 11
-1380.497421345615
 21
1631.410962400157
 31
0.0
  0
LINE
  5
13663
330
1A
100
AcDbEntity
  8
ZISSEN1
  6
CONTINUOUS
 62
     7
100
AcDbLine
 10
-1435.697729234583
 20
1639.449999999999
 30
0.0
 11
-1442.298238544935
 21
1639.449999999999
 31
0.0
  0
LINE
  5
13664
330
1A
100
AcDbEntity
  8
ZISSEN1
  6
CONTINUOUS
 62
     7
100
AcDbLine
 10
-1442.798238544936
 20
1639.449999999999
 30
0.0
 11
-1449.398238544934
 21
1639.449999999999
 31
0.0
  0
LINE
  5
13665
330
1A
100
AcDbEntity
  8
ZISSEN1
100
AcDbLine
 10
-1449.398238544934
 20
1639.449999999999
 30
0.0
 11
-1449.398238544934
 21
1641.799999999995
 31
0.0
  0
LINE
  5
13666
330
1A
100
AcDbEntity
  8
ZISSEN1
100
AcDbLine
 10
-1442.798238544936
 20
1639.449999999999
 30
0.0
 11
-1442.798238544936
 21
1641.799999999995
 31
0.0
  0
LINE
  5
13667
330
1A
100
AcDbEntity
  8
ZISSEN1
100
AcDbLine
 10
-1442.298238544935
 20
1639.449999999999
 30
0.0
 11
-1442.298238544935
 21
1641.799999999995
 31
0.0
  0
LINE
  5
13668
330
1A
100
AcDbEntity
  8
ZISSEN1
100
AcDbLine
 10
-1435.697729234583
 20
1639.449999999999
 30
0.0
 11
-1435.698501414792
 21
1641.799999999995
 31
0.0
  0
LINE
  5
1366C
330
1A
100
AcDbEntity
  8
ZISSEN1
100
AcDbLine
 10
-1346.199999999997
 20
1581.199999999997
 30
0.0
 11
-1349.2
 21
1581.199999999997
 31
0.0
  0
LINE
  5
1366E
330
1A
100
AcDbEntity
  8
ZISSEN1
100
AcDbLine
 10
-1562.499653717743
 20
1572.899999999997
 30
0.0
 11
-1562.499653717743
 21
1581.999999999994
 31
0.0
  0
DIMENSION
  5
1366F
330
1A
100
AcDbEntity
  8
SUNPOU
100
AcDbDimension
  2
*D1
 10
-1519.296496587532
 20
1582.0
 30
0.0
 11
-1519.296496587532
 21
1541.000000000001
 31
0.0
 70
   160
  3
ISO-25
100
AcDbAlignedDimension
 13
-1528.000000000003
 23
1500.0
 33
0.0
 14
-1528.800000000003
 24
1582.0
 34
0.0
 50
90.0
100
AcDbRotatedDimension
1001
ACAD
1000
DSTYLE
1002
{
1070
   140
1040
3.5
1002
}
  0
LINE
  5
13672
330
1A
100
AcDbEntity
  8
ZISSEN1
100
AcDbLine
 10
-1384.792687346665
 20
1581.999998905717
 30
0.0
 11
-1384.792687346665
 21
1595.999998905785
 31
0.0
  0
LINE
  5
13673
330
1A
100
AcDbEntity
  8
ZISSEN1
100
AcDbLine
 10
-1384.792687346665
 20
1595.999998905785
 30
0.0
 11
-1437.102183346667
 21
1595.999998905785
 31
0.0
  0
LINE
  5
13674
330
1A
100
AcDbEntity
  8
ZISSEN1
100
AcDbLine
 10
-1437.102183346667
 20
1595.999998905785
 30
0.0
 11
-1437.102183346667
 21
1589.899998905786
 31
0.0
  0
LINE
  5
13675
330
1A
100
AcDbEntity
  8
ZISSEN1
100
AcDbLine
 10
-1440.892694259333
 20
1589.899998905786
 30
0.0
 11
-1440.892694259333
 21
1595.999998905785
 31
0.0
  0
LINE
  5
13676
330
1A
100
AcDbEntity
  8
ZISSEN1
100
AcDbLine
 10
-1493.202190259335
 20
1595.999998905785
 30
0.0
 11
-1493.202190259335
 21
1581.999998905785
 31
0.0
  0
LINE
  5
13677
330
1A
100
AcDbEntity
  8
ZISSEN1
100
AcDbLine
 10
-1440.892694259333
 20
1595.999998905785
 30
0.0
 11
-1493.202190259335
 21
1595.999998905785
 31
0.0
  0
LINE
  5
13678
330
1A
100
AcDbEntity
  8
ZISSEN1
100
AcDbLine
 10
-1798.0
 20
1496.0
 30
0.0
 11
-1795.0
 21
1496.0
 31
0.0
  0
LINE
  5
13679
330
1A
100
AcDbEntity
  8
ZISSEN1
100
AcDbLine
 10
-1798.0
 20
1497.0
 30
0.0
 11
-1798.0
 21
1496.0
 31
0.0
  0
LINE
  5
1367A
330
1A
100
AcDbEntity
  8
ZISSEN1
100
AcDbLine
 10
-1795.0
 20
1497.0
 30
0.0
 11
-1795.0
 21
1496.0
 31
0.0
  0
LINE
  5
1367B
330
1A
100
AcDbEntity
  8
ZISSEN1
100
AcDbLine
 10
-1678.997421345617
 20
1497.0
 30
0.0
 11
-1678.997421345617
 21
1496.0
 31
0.0
  0
LINE
  5
1367C
330
1A
100
AcDbEntity
  8
ZISSEN1
100
AcDbLine
 10
-1681.997421345617
 20
1497.0
 30
0.0
 11
-1681.997421345617
 21
1496.0
 31
0.0
  0
LINE
  5
1367D
330
1A
100
AcDbEntity
  8
ZISSEN1
100
AcDbLine
 10
-1681.997421345617
 20
1496.0
 30
0.0
 11
-1678.997421345617
 21
1496.0
 31
0.0
  0
LINE
  5
1367E
330
1A
100
AcDbEntity
  8
ZISSEN1
100
AcDbLine
 10
-1674.0
 20
1497.0
 30
0.0
 11
-1801.0
 21
1497.0
 31
0.0
  0
LINE
  5
1367F
330
1A
100
AcDbEntity
  8
ZISSEN1
100
AcDbLine
 10
-1674.0
 20
1500.0
 30
0.0
 11
-1674.0
 21
1497.0
 31
0.0
  0
LINE
  5
13680
330
1A
100
AcDbEntity
  8
ZISSEN1
100
AcDbLine
 10
-1675.0
 20
1497.0
 30
0.0
 11
-1675.0
 21
1500.0
 31
0.0
  0
LINE
  5
13681
330
1A
100
AcDbEntity
  8
ZISSEN1
100
AcDbLine
 10
-1801.0
 20
1497.0
 30
0.0
 11
-1801.0
 21
1500.0
 31
0.0
  0
LINE
  5
13682
330
1A
100
AcDbEntity
  8
ZISSEN1
100
AcDbLine
 10
-1800.0
 20
1500.0
 30
0.0
 11
-1800.0
 21
1497.0
 31
0.0
  0
LINE
  5
13683
330
1A
100
AcDbEntity
  8
ZISSEN1
100
AcDbLine
 10
-1722.0
 20
1497.0
 30
0.0
 11
-1799.0
 21
1497.0
 31
0.0
  0
LINE
  5
13684
330
1A
100
AcDbEntity
  8
ZISSEN1
100
AcDbLine
 10
-1721.25
 20
1494.5
 30
0.0
 11
-1756.75
 21
1494.5
 31
0.0
  0
LINE
  5
13685
330
1A
100
AcDbEntity
  8
ZISSEN1
100
AcDbLine
 10
-1697.25
 20
1489.0
 30
0.0
 11
-1721.25
 21
1489.0
 31
0.0
  0
LINE
  5
13686
330
1A
100
AcDbEntity
  8
ZISSEN1
100
AcDbLine
 10
-1721.25
 20
1489.0
 30
0.0
 11
-1721.25
 21
1494.5
 31
0.0
  0
LINE
  5
13687
330
1A
100
AcDbEntity
  8
ZISSEN1
100
AcDbLine
 10
-1722.75
 20
1493.0
 30
0.0
 11
-1723.25
 21
1492.5
 31
0.0
  0
LINE
  5
13688
330
1A
100
AcDbEntity
  8
ZISSEN1
100
AcDbLine
 10
-1723.25
 20
1492.0
 30
0.0
 11
-1721.25
 21
1489.0
 31
0.0
  0
LINE
  5
13689
330
1A
100
AcDbEntity
  8
ZISSEN1
100
AcDbLine
 10
-1723.25
 20
1492.5
 30
0.0
 11
-1723.25
 21
1492.0
 31
0.0
  0
LINE
  5
1368A
330
1A
100
AcDbEntity
  8
ZISSEN1
100
AcDbLine
 10
-1721.25
 20
1493.0
 30
0.0
 11
-1722.75
 21
1493.0
 31
0.0
  0
LINE
  5
1368B
330
1A
100
AcDbEntity
  8
ZISSEN1
100
AcDbLine
 10
-1756.75
 20
1489.0
 30
0.0
 11
-1774.25
 21
1489.0
 31
0.0
  0
LINE
  5
1368C
330
1A
100
AcDbEntity
  8
ZISSEN1
100
AcDbLine
 10
-1753.962187000001
 20
1492.823177999999
 30
0.0
 11
-1756.75
 21
1490.5
 31
0.0
  0
LINE
  5
1368D
330
1A
100
AcDbEntity
  8
ZISSEN1
100
AcDbLine
 10
-1756.75
 20
1494.5
 30
0.0
 11
-1756.75
 21
1489.0
 31
0.0
  0
LINE
  5
1368E
330
1A
100
AcDbEntity
  8
ZISSEN1
100
AcDbLine
 10
-1754.026205
 20
1493.0
 30
0.0
 11
-1755.25
 21
1493.0
 31
0.0
  0
ARC
  5
1368F
330
1A
100
AcDbEntity
  8
ZISSEN1
100
AcDbCircle
 10
-1754.026205
 20
1492.899999999999
 30
0.0
 40
0.1
100
AcDbArc
 50
309.8055710000026
 51
90.0
  0
LINE
  5
13690
330
1A
100
AcDbEntity
  8
ZISSEN1
100
AcDbLine
 10
-1755.25
 20
1494.5
 30
0.0
 11
-1755.25
 21
1493.0
 31
0.0
  0
LINE
  5
13691
330
1A
100
AcDbEntity
  8
ZISSEN1
100
AcDbLine
 10
-1774.25
 20
1497.0
 30
0.0
 11
-1774.25
 21
1489.0
 31
0.0
  0
LINE
  5
13692
330
1A
100
AcDbEntity
  8
ZISSEN1
100
AcDbLine
 10
-1779.749999999999
 20
1494.0
 30
0.0
 11
-1779.749999999999
 21
1491.0
 31
0.0
  0
LINE
  5
13693
330
1A
100
AcDbEntity
  8
ZISSEN1
100
AcDbLine
 10
-1774.25
 20
1490.5
 30
0.0
 11
-1779.25
 21
1490.5
 31
0.0
  0
ARC
  5
13694
330
1A
100
AcDbEntity
  8
ZISSEN1
100
AcDbCircle
 10
-1779.25
 20
1491.0
 30
0.0
 40
0.5
100
AcDbArc
 50
180.0
 51
270.0
  0
LINE
  5
13695
330
1A
100
AcDbEntity
  8
ZISSEN1
100
AcDbLine
 10
-1774.25
 20
1494.5
 30
0.0
 11
-1779.25
 21
1494.5
 31
0.0
  0
ARC
  5
13696
330
1A
100
AcDbEntity
  8
ZISSEN1
100
AcDbCircle
 10
-1779.25
 20
1494.0
 30
0.0
 40
0.5
100
AcDbArc
 50
90.0
 51
180.0
  0
LINE
  5
13697
330
1A
100
AcDbEntity
  8
ZISSEN1
100
AcDbLine
 10
-1697.25
 20
1497.0
 30
0.0
 11
-1697.25
 21
1489.0
 31
0.0
  0
LINE
  5
13698
330
1A
100
AcDbEntity
  8
ZISSEN1
100
AcDbLine
 10
-1674.0
 20
1500.0
 30
0.0
 11
-1801.0
 21
1500.0
 31
0.0
  0
LINE
  5
13699
330
1A
100
AcDbEntity
  8
ZISSEN1
100
AcDbLine
 10
-1387.664088012283
 20
1505.5
 30
0.0
 11
-1385.997421345615
 21
1505.5
 31
0.0
  0
LINE
  5
1369A
330
1A
100
AcDbEntity
  8
ZISSEN1
100
AcDbLine
 10
-1499.0
 20
1653.899999999999
 30
0.0
 11
-1494.497421345615
 21
1653.899999999999
 31
0.0
  0
LINE
  5
1369B
330
1A
100
AcDbEntity
  8
ZISSEN1
100
AcDbLine
 10
-1541.400000000003
 20
1506.504999999997
 30
0.0
 11
-1540.900000000003
 21
1506.504999999997
 31
0.0
  0
LINE
  5
1369C
330
1A
100
AcDbEntity
  8
ZISSEN1
100
AcDbLine
 10
-1498.000000000001
 20
1554.199999999998
 30
0.0
 11
-1498.000000000001
 21
1536.199999999999
 31
0.0
  0
LINE
  5
1369D
330
1A
100
AcDbEntity
  8
ZISSEN1
100
AcDbLine
 10
-1456.749999999998
 20
1643.899999999997
 30
0.0
 11
-1455.699355307591
 21
1643.899999999997
 31
0.0
  0
LINE
  5
1369E
330
1A
100
AcDbEntity
  8
ZISSEN1
100
AcDbLine
 10
-1467.249999999998
 20
1643.899999999999
 30
0.0
 11
-1459.749999999998
 21
1643.899999999997
 31
0.0
  0
LINE
  5
1369F
330
1A
100
AcDbEntity
  8
ZISSEN1
100
AcDbLine
 10
-1474.549999999997
 20
1643.899999999999
 30
0.0
 11
-1470.249999999998
 21
1643.899999999999
 31
0.0
  0
LINE
  5
136A0
330
1A
100
AcDbEntity
  8
ZISSEN1
100
AcDbLine
 10
-1485.049999999997
 20
1643.900000000001
 30
0.0
 11
-1477.549999999997
 21
1643.899999999999
 31
0.0
  0
ARC
  5
136A1
330
1A
100
AcDbEntity
  8
ZISSEN1
100
AcDbCircle
 10
-1458.249999999998
 20
1643.899999999997
 30
0.0
 40
1.5
100
AcDbArc
 50
0.0
 51
180.0
  0
ARC
  5
136A2
330
1A
100
AcDbEntity
  8
ZISSEN1
100
AcDbCircle
 10
-1468.749999999998
 20
1643.899999999999
 30
0.0
 40
1.5
100
AcDbArc
 50
0.0
 51
180.0
  0
ARC
  5
136A3
330
1A
100
AcDbEntity
  8
ZISSEN1
100
AcDbCircle
 10
-1476.049999999997
 20
1643.899999999999
 30
0.0
 40
1.5
100
AcDbArc
 50
0.0
 51
180.0
  0
ARC
  5
136A4
330
1A
100
AcDbEntity
  8
ZISSEN1
100
AcDbCircle
 10
-1486.549999999997
 20
1643.900000000001
 30
0.0
 40
1.5
100
AcDbArc
 50
0.0
 51
180.0
  0
LINE
  5
136A5
330
1A
100
AcDbEntity
  8
ZISSEN1
100
AcDbLine
 10
-1469.749999999998
 20
1644.699999999998
 30
0.0
 11
-1467.749999999998
 21
1644.699999999998
 31
0.0
  0
LINE
  5
136A6
330
1A
100
AcDbEntity
  8
ZISSEN1
100
AcDbLine
 10
-1467.749999999998
 20
1643.399999999997
 30
0.0
 11
-1467.749999999998
 21
1644.699999999998
 31
0.0
  0
LINE
  5
136A7
330
1A
100
AcDbEntity
  8
ZISSEN1
100
AcDbLine
 10
-1469.749999999998
 20
1644.699999999998
 30
0.0
 11
-1469.749999999998
 21
1643.399999999997
 31
0.0
  0
LINE
  5
136A8
330
1A
100
AcDbEntity
  8
ZISSEN1
100
AcDbLine
 10
-1469.749999999998
 20
1644.699999999998
 30
0.0
 11
-1467.749999999998
 21
1644.699999999998
 31
0.0
  0
LINE
  5
136A9
330
1A
100
AcDbEntity
  8
ZISSEN1
100
AcDbLine
 10
-1459.249999999998
 20
1644.699999999997
 30
0.0
 11
-1457.249999999998
 21
1644.699999999997
 31
0.0
  0
LINE
  5
136AA
330
1A
100
AcDbEntity
  8
ZISSEN1
100
AcDbLine
 10
-1459.249999999998
 20
1644.699999999997
 30
0.0
 11
-1459.249999999998
 21
1643.399999999996
 31
0.0
  0
LINE
  5
136AB
330
1A
100
AcDbEntity
  8
ZISSEN1
100
AcDbLine
 10
-1457.249999999998
 20
1643.399999999996
 30
0.0
 11
-1457.249999999998
 21
1644.699999999997
 31
0.0
  0
LINE
  5
136AC
330
1A
100
AcDbEntity
  8
ZISSEN1
100
AcDbLine
 10
-1459.249999999998
 20
1644.699999999997
 30
0.0
 11
-1457.249999999998
 21
1644.699999999997
 31
0.0
  0
LINE
  5
136AD
330
1A
100
AcDbEntity
  8
ZISSEN1
100
AcDbLine
 10
-1477.049999999997
 20
1644.699999999998
 30
0.0
 11
-1475.049999999997
 21
1644.699999999998
 31
0.0
  0
LINE
  5
136AE
330
1A
100
AcDbEntity
  8
ZISSEN1
100
AcDbLine
 10
-1475.049999999997
 20
1643.399999999997
 30
0.0
 11
-1475.049999999997
 21
1644.699999999998
 31
0.0
  0
LINE
  5
136AF
330
1A
100
AcDbEntity
  8
ZISSEN1
100
AcDbLine
 10
-1477.049999999997
 20
1644.699999999998
 30
0.0
 11
-1477.049999999997
 21
1643.399999999997
 31
0.0
  0
LINE
  5
136B0
330
1A
100
AcDbEntity
  8
ZISSEN1
100
AcDbLine
 10
-1477.049999999997
 20
1644.699999999998
 30
0.0
 11
-1475.049999999997
 21
1644.699999999998
 31
0.0
  0
LINE
  5
136B1
330
1A
100
AcDbEntity
  8
ZISSEN1
100
AcDbLine
 10
-1487.549999999997
 20
1644.7
 30
0.0
 11
-1485.549999999997
 21
1644.7
 31
0.0
  0
LINE
  5
136B2
330
1A
100
AcDbEntity
  8
ZISSEN1
100
AcDbLine
 10
-1487.549999999997
 20
1644.7
 30
0.0
 11
-1487.549999999997
 21
1643.399999999999
 31
0.0
  0
LINE
  5
136B3
330
1A
100
AcDbEntity
  8
ZISSEN1
100
AcDbLine
 10
-1485.549999999997
 20
1643.399999999999
 30
0.0
 11
-1485.549999999997
 21
1644.7
 31
0.0
  0
LINE
  5
136B4
330
1A
100
AcDbEntity
  8
ZISSEN1
100
AcDbLine
 10
-1487.549999999997
 20
1644.7
 30
0.0
 11
-1485.549999999997
 21
1644.7
 31
0.0
  0
LINE
  5
136B5
330
1A
100
AcDbEntity
  8
ZISSEN1
100
AcDbLine
 10
-1497.997421345615
 20
1648.399999999997
 30
0.0
 11
-1494.497421345615
 21
1648.399999999997
 31
0.0
  0
LINE
  5
136B6
330
1A
100
AcDbEntity
  8
ZISSEN1
100
AcDbLine
 10
-1497.997421345615
 20
1643.399999999997
 30
0.0
 11
-1497.997421345615
 21
1648.399999999997
 31
0.0
  0
LINE
  5
136B7
330
1A
100
AcDbEntity
  8
ZISSEN1
100
AcDbLine
 10
-1494.497421345615
 20
1643.399999999997
 30
0.0
 11
-1497.997421345615
 21
1643.399999999997
 31
0.0
  0
LINE
  5
136B8
330
1A
100
AcDbEntity
  8
ZISSEN1
100
AcDbLine
 10
-1537.900000000003
 20
1513.0
 30
0.0
 11
-1537.900000000003
 21
1501.999999999998
 31
0.0
  0
LINE
  5
136B9
330
1A
100
AcDbEntity
  8
ZISSEN1
100
AcDbLine
 10
-1546.900000000003
 20
1505.0
 30
0.0
 11
-1547.900000000003
 21
1504.0
 31
0.0
  0
LINE
  5
136BA
330
1A
100
AcDbEntity
  8
ZISSEN1
100
AcDbLine
 10
-1546.900000000003
 20
1555.199999999999
 30
0.0
 11
-1546.900000000003
 21
1505.0
 31
0.0
  0
LINE
  5
136BB
330
1A
100
AcDbEntity
  8
ZISSEN1
100
AcDbLine
 10
-1470.797421345616
 20
1581.2
 30
0.0
 11
-1473.997421345617
 21
1581.2
 31
0.0
  0
LINE
  5
136BC
330
1A
100
AcDbEntity
  8
ZISSEN1
100
AcDbLine
 10
-1488.097421345617
 20
1643.400000000001
 30
0.0
 11
-1488.097421345617
 21
1641.799999999999
 31
0.0
  0
LINE
  5
136BD
330
1A
100
AcDbEntity
  8
ZISSEN1
100
AcDbLine
 10
-1488.597421345617
 20
1643.400000000001
 30
0.0
 11
-1488.597421345617
 21
1641.799999999999
 31
0.0
  0
LINE
  5
136BE
330
1A
100
AcDbEntity
  8
ZISSEN1
100
AcDbLine
 10
-1456.699355307591
 20
1643.400000000001
 30
0.0
 11
-1456.699355307591
 21
1641.799999999999
 31
0.0
  0
LINE
  5
136BF
330
1A
100
AcDbEntity
  8
ZISSEN1
100
AcDbLine
 10
-1456.199355307592
 20
1643.400000000001
 30
0.0
 11
-1456.199355307592
 21
1641.799999999999
 31
0.0
  0
LINE
  5
136C0
330
1A
100
AcDbEntity
  8
ZISSEN1
100
AcDbLine
 10
-1455.699355307591
 20
1643.399999999997
 30
0.0
 11
-1489.097421345617
 21
1643.399999999997
 31
0.0
  0
LINE
  5
136C1
330
1A
100
AcDbEntity
  8
ZISSEN1
100
AcDbLine
 10
-1498.000000000001
 20
1554.199999999998
 30
0.0
 11
-1494.497421345617
 21
1554.199999999998
 31
0.0
  0
LINE
  5
136C2
330
1A
100
AcDbEntity
  8
ZISSEN1
100
AcDbLine
 10
-1312.0
 20
1500.0
 30
0.0
 11
-1312.0
 21
1502.0
 31
0.0
  0
LINE
  5
136C3
330
1A
100
AcDbEntity
  8
ZISSEN1
100
AcDbLine
 10
-1311.0
 20
1500.0
 30
0.0
 11
-1311.0
 21
1502.0
 31
0.0
  0
LINE
  5
136C4
330
1A
100
AcDbEntity
  8
ZISSEN1
100
AcDbLine
 10
-1333.099501
 20
1581.199999999997
 30
0.0
 11
-1334.399510999999
 21
1581.199999999997
 31
0.0
  0
LINE
  5
136C5
330
1A
100
AcDbEntity
  8
ZISSEN1
100
AcDbLine
 10
-1316.50034628226
 20
1582.0
 30
0.0
 11
-1324.099654554127
 21
1582.0
 31
0.0
  0
LINE
  5
136C6
330
1A
100
AcDbEntity
  8
ZISSEN1
100
AcDbLine
 10
-1344.900000000001
 20
1582.296531799085
 30
0.0
 11
-1344.900000000001
 21
1587.546531799085
 31
0.0
  0
LINE
  5
136C7
330
1A
100
AcDbEntity
  8
ZISSEN1
100
AcDbLine
 10
-1333.099501
 20
1581.999999999998
 30
0.0
 11
-1350.0
 21
1582.0
 31
0.0
  0
LINE
  5
136CB
330
1A
100
AcDbEntity
  8
ZISSEN1
100
AcDbLine
 10
-1344.900000000001
 20
1589.799999999999
 30
0.0
 11
-1350.099999999998
 21
1589.799999999999
 31
0.0
  0
LINE
  5
136CC
330
1A
100
AcDbEntity
  8
ZISSEN1
100
AcDbLine
 10
-1344.900000000001
 20
1589.899999999997
 30
0.0
 11
-1344.900000000001
 21
1586.546531799085
 31
0.0
  0
LINE
  5
136CD
330
1A
100
AcDbEntity
  8
ZISSEN1
  6
CONTINUOUS
 62
     7
100
AcDbLine
 10
-1314.699996999999
 20
1595.910497999997
 30
0.0
 11
-1314.699996999999
 21
1572.899999999997
 31
0.0
  0
LINE
  5
136CE
330
1A
100
AcDbEntity
  8
ZISSEN1
  6
CONTINUOUS
 62
     7
100
AcDbLine
 10
-1306.500499000001
 20
1595.910497999997
 30
0.0
 11
-1306.500499000001
 21
1568.899999999997
 31
0.0
  0
LINE
  5
136CF
330
1A
100
AcDbEntity
  8
ZISSEN1
  6
CONTINUOUS
 62
     7
100
AcDbLine
 10
-1306.500499000001
 20
1595.910497999997
 30
0.0
 11
-1314.699996999999
 21
1595.910497999997
 31
0.0
  0
LINE
  5
136D0
330
1A
100
AcDbEntity
  8
ZISSEN1
  6
CONTINUOUS
 62
     7
100
AcDbLine
 10
-1333.099501
 20
1595.910497999997
 30
0.0
 11
-1324.900003000002
 21
1595.910497999997
 31
0.0
  0
LINE
  5
136D1
330
1A
100
AcDbEntity
  8
ZISSEN1
  6
CONTINUOUS
 62
     7
100
AcDbLine
 10
-1333.099501
 20
1595.910497999997
 30
0.0
 11
-1333.099501
 21
1572.899999999997
 31
0.0
  0
LINE
  5
136D2
330
1A
100
AcDbEntity
  8
ZISSEN1
  6
CONTINUOUS
 62
     7
100
AcDbLine
 10
-1324.900003000002
 20
1595.910497999997
 30
0.0
 11
-1324.900003000002
 21
1572.899999999997
 31
0.0
  0
LINE
  5
136D3
330
1A
100
AcDbEntity
  8
ZISSEN1
100
AcDbLine
 10
-1334.399510999999
 20
1581.199999999997
 30
0.0
 11
-1333.399510999999
 21
1580.199999999997
 31
0.0
  0
LINE
  5
136D4
330
1A
100
AcDbEntity
  8
ZISSEN1
100
AcDbLine
 10
-1338.7
 20
1581.199999999997
 30
0.0
 11
-1334.399510999999
 21
1581.199999999997
 31
0.0
  0
LINE
  5
136D5
330
1A
100
AcDbEntity
  8
ZISSEN1
100
AcDbLine
 10
-1338.7
 20
1582.0
 30
0.0
 11
-1338.7
 21
1581.199999999997
 31
0.0
  0
LINE
  5
136D6
330
1A
100
AcDbEntity
  8
ZISSEN1
100
AcDbLine
 10
-1308.0
 20
1567.899999999998
 30
0.0
 11
-1308.0
 21
1501.999999999996
 31
0.0
  0
LINE
  5
136D7
330
1A
100
AcDbEntity
  8
ZISSEN1
100
AcDbLine
 10
-1349.0
 20
1502.0
 30
0.0
 11
-1349.0
 21
1500.0
 31
0.0
  0
LINE
  5
136D8
330
1A
100
AcDbEntity
  8
ZISSEN1
100
AcDbLine
 10
-1345.75
 20
1500.0
 30
0.0
 11
-1345.75
 21
1502.0
 31
0.0
  0
LINE
  5
136D9
330
1A
100
AcDbEntity
  8
ZISSEN1
100
AcDbLine
 10
-1342.249999999999
 20
1500.0
 30
0.0
 11
-1342.249999999999
 21
1502.0
 31
0.0
  0
LINE
  5
136DA
330
1A
100
AcDbEntity
  8
ZISSEN1
100
AcDbLine
 10
-1327.1
 20
1502.0
 30
0.0
 11
-1327.1
 21
1500.0
 31
0.0
  0
LINE
  5
136DB
330
1A
100
AcDbEntity
  8
ZISSEN1
100
AcDbLine
 10
-1326.1
 20
1502.0
 30
0.0
 11
-1326.1
 21
1500.0
 31
0.0
  0
LINE
  5
136DC
330
1A
100
AcDbEntity
  8
ZISSEN1
100
AcDbLine
 10
-1350.0
 20
1513.0
 30
0.0
 11
-1349.2
 21
1513.0
 31
0.0
  0
LINE
  5
136DD
330
1A
100
AcDbEntity
  8
ZISSEN1
100
AcDbLine
 10
-1346.199999999997
 20
1582.0
 30
0.0
 11
-1346.199999999997
 21
1513.999999999996
 31
0.0
  0
LINE
  5
136DE
330
1A
100
AcDbEntity
  8
ZISSEN1
100
AcDbLine
 10
-1350.0
 20
1506.254999999728
 30
0.0
 11
-1350.0
 21
1511.754999999728
 31
0.0
  0
LINE
  5
136DF
330
1A
100
AcDbEntity
  8
ZISSEN1
 48
0.4
100
AcDbLine
 10
-1350.75
 20
1506.254999999728
 30
0.0
 11
-1350.0
 21
1506.254999999728
 31
0.0
  0
ELLIPSE
  5
136E0
330
1A
100
AcDbEntity
  8
ZISSEN1
 48
0.4
100
AcDbEllipse
 10
-1350.749999999998
 20
1509.004999999728
 30
0.0
 11
0.0000000000000051
 21
2.75
 31
0.0
210
0.0
220
0.0
230
1.0
 40
0.3090909090909173
 41
6.283185307179586
 42
9.424777960769379
  0
LINE
  5
136E1
330
1A
100
AcDbEntity
  8
ZISSEN1
 48
0.4
100
AcDbLine
 10
-1350.75
 20
1511.754999999728
 30
0.0
 11
-1350.0
 21
1511.754999999728
 31
0.0
  0
LINE
  5
136E2
330
1A
100
AcDbEntity
  8
ZISSEN1
100
AcDbLine
 10
-1349.2
 20
1504.0
 30
0.0
 11
-1349.2
 21
1582.0
 31
0.0
  0
LINE
  5
136E3
330
1A
100
AcDbEntity
  8
ZISSEN1
100
AcDbLine
 10
-1350.0
 20
1504.0
 30
0.0
 11
-1349.2
 21
1504.0
 31
0.0
  0
LINE
  5
136E4
330
1A
100
AcDbEntity
  8
ZISSEN1
100
AcDbLine
 10
-1350.0
 20
1582.0
 30
0.0
 11
-1350.0
 21
1504.0
 31
0.0
  0
LINE
  5
136E5
330
1A
100
AcDbEntity
  8
ZISSEN1
100
AcDbLine
 10
-1346.2
 20
1514.0
 30
0.0
 11
-1345.2
 21
1513.0
 31
0.0
  0
LINE
  5
136E6
330
1A
100
AcDbEntity
  8
ZISSEN1
100
AcDbLine
 10
-1338.800000000003
 20
1513.0
 30
0.0
 11
-1345.2
 21
1513.0
 31
0.0
  0
LINE
  5
136E7
330
1A
100
AcDbEntity
  8
ZISSEN1
100
AcDbLine
 10
-1338.800000000003
 20
1502.0
 30
0.0
 11
-1338.800000000003
 21
1513.0
 31
0.0
  0
LINE
  5
136E8
330
1A
100
AcDbEntity
  8
ZISSEN1
100
AcDbLine
 10
-1324.600000000005
 20
1537.349999999998
 30
0.0
 11
-1324.600000000005
 21
1534.899999999997
 31
0.0
  0
LINE
  5
136E9
330
1A
100
AcDbEntity
  8
ZISSEN1
100
AcDbLine
 10
-1331.300000000003
 20
1534.899999999997
 30
0.0
 11
-1324.600000000005
 21
1534.899999999997
 31
0.0
  0
LINE
  5
136EA
330
1A
100
AcDbEntity
  8
ZISSEN1
100
AcDbLine
 10
-1324.600000000005
 20
1534.399999999997
 30
0.0
 11
-1331.300000000003
 21
1534.399999999997
 31
0.0
  0
LINE
  5
136EB
330
1A
100
AcDbEntity
  8
ZISSEN1
100
AcDbLine
 10
-1331.300000000003
 20
1517.0
 30
0.0
 11
-1324.600000000005
 21
1517.0
 31
0.0
  0
LINE
  5
136EC
330
1A
100
AcDbEntity
  8
ZISSEN1
100
AcDbLine
 10
-1331.300000000003
 20
1534.399999999997
 30
0.0
 11
-1331.300000000003
 21
1517.0
 31
0.0
  0
LINE
  5
136ED
330
1A
100
AcDbEntity
  8
ZISSEN1
100
AcDbLine
 10
-1324.600000000005
 20
1534.399999999997
 30
0.0
 11
-1331.300000000003
 21
1534.399999999997
 31
0.0
  0
LINE
  5
136EE
330
1A
100
AcDbEntity
  8
ZISSEN1
100
AcDbLine
 10
-1324.600000000005
 20
1519.45
 30
0.0
 11
-1324.600000000005
 21
1517.0
 31
0.0
  0
LINE
  5
136EF
330
1A
100
AcDbEntity
  8
ZISSEN1
100
AcDbLine
 10
-1315.0
 20
1534.399999999997
 30
0.0
 11
-1308.299999999999
 21
1534.399999999997
 31
0.0
  0
LINE
  5
136F0
330
1A
100
AcDbEntity
  8
ZISSEN1
100
AcDbLine
 10
-1308.299999999999
 20
1534.399999999997
 30
0.0
 11
-1308.299999999999
 21
1517.0
 31
0.0
  0
LINE
  5
136F1
330
1A
100
AcDbEntity
  8
ZISSEN1
100
AcDbLine
 10
-1308.299999999999
 20
1517.0
 30
0.0
 11
-1315.0
 21
1517.0
 31
0.0
  0
LINE
  5
136F2
330
1A
100
AcDbEntity
  8
ZISSEN1
100
AcDbLine
 10
-1333.299999999999
 20
1552.799999999999
 30
0.0
 11
-1333.299999999999
 21
1538.649999999997
 31
0.0
  0
LINE
  5
136F3
330
1A
100
AcDbEntity
  8
ZISSEN1
 48
0.4
100
AcDbLine
 10
-1307.250000000003
 20
1511.749999999723
 30
0.0
 11
-1308.000000000003
 21
1511.749999999723
 31
0.0
  0
ELLIPSE
  5
136F4
330
1A
100
AcDbEntity
  8
ZISSEN1
 48
0.4
100
AcDbEllipse
 10
-1307.250000000002
 20
1508.999999999723
 30
0.0
 11
0.0000000000000024
 21
2.75
 31
0.0
210
0.0
220
0.0
230
-1.0
 40
0.3090909090909173
 41
6.283185307179586
 42
9.424777960769379
  0
LINE
  5
136F5
330
1A
100
AcDbEntity
  8
ZISSEN1
 48
0.4
100
AcDbLine
 10
-1307.250000000003
 20
1506.249999999723
 30
0.0
 11
-1308.000000000003
 21
1506.249999999723
 31
0.0
  0
LINE
  5
136F6
330
1A
100
AcDbEntity
  8
ZISSEN1
100
AcDbLine
 10
-1310.0
 20
1517.0
 30
0.0
 11
-1310.0
 21
1501.999999999996
 31
0.0
  0
LINE
  5
136F7
330
1A
100
AcDbEntity
  8
ZISSEN1
100
AcDbLine
 10
-1310.0
 20
1534.399999999997
 30
0.0
 11
-1310.0
 21
1534.899999999997
 31
0.0
  0
LINE
  5
136F8
330
1A
100
AcDbEntity
  8
ZISSEN1
100
AcDbLine
 10
-1308.0
 20
1515.0
 30
0.0
 11
-1310.0
 21
1515.0
 31
0.0
  0
LINE
  5
136F9
330
1A
100
AcDbEntity
  8
ZISSEN1
100
AcDbLine
 10
-1308.0
 20
1516.0
 30
0.0
 11
-1310.0
 21
1516.0
 31
0.0
  0
LINE
  5
136FA
330
1A
100
AcDbEntity
  8
ZISSEN1
100
AcDbLine
 10
-1315.0
 20
1534.399999999997
 30
0.0
 11
-1308.299999999999
 21
1534.399999999997
 31
0.0
  0
LINE
  5
136FB
330
1A
100
AcDbEntity
  8
ZISSEN1
100
AcDbLine
 10
-1308.299999999999
 20
1534.899999999997
 30
0.0
 11
-1315.0
 21
1534.899999999997
 31
0.0
  0
LINE
  5
136FC
330
1A
100
AcDbEntity
  8
ZISSEN1
100
AcDbLine
 10
-1308.299999999999
 20
1534.899999999997
 30
0.0
 11
-1308.299999999999
 21
1552.299999999999
 31
0.0
  0
LINE
  5
136FD
330
1A
100
AcDbEntity
  8
ZISSEN1
100
AcDbLine
 10
-1315.0
 20
1516.0
 30
0.0
 11
-1315.0
 21
1553.299999999999
 31
0.0
  0
ARC
  5
136FE
330
1A
100
AcDbEntity
  8
ZISSEN1
100
AcDbCircle
 10
-1309.999999999998
 20
1502.0
 30
0.0
 40
2.0
100
AcDbArc
 50
270.0
 51
0.0
  0
LINE
  5
136FF
330
1A
100
AcDbEntity
  8
ZISSEN1
100
AcDbLine
 10
-1350.0
 20
1502.0
 30
0.0
 11
-1310.0
 21
1501.999999999996
 31
0.0
  0
LINE
  5
13700
330
1A
100
AcDbEntity
  8
ZISSEN1
100
AcDbLine
 10
-1350.0
 20
1500.0
 30
0.0
 11
-1309.999999999998
 21
1500.0
 31
0.0
  0
LINE
  5
13701
330
1A
100
AcDbEntity
  8
ZISSEN1
100
AcDbLine
 10
-1315.5
 20
1553.299999999999
 30
0.0
 11
-1315.5
 21
1516.0
 31
0.0
  0
LINE
  5
13702
330
1A
100
AcDbEntity
  8
ZISSEN1
100
AcDbLine
 10
-1313.0
 20
1504.0
 30
0.0
 11
-1333.300000000003
 21
1504.0
 31
0.0
  0
LINE
  5
13703
330
1A
100
AcDbEntity
  8
ZISSEN1
100
AcDbLine
 10
-1324.100000000005
 20
1516.0
 30
0.0
 11
-1333.300000000003
 21
1516.0
 31
0.0
  0
LINE
  5
13704
330
1A
100
AcDbEntity
  8
ZISSEN1
100
AcDbLine
 10
-1324.100000000005
 20
1516.0
 30
0.0
 11
-1324.100000000009
 21
1553.299999999999
 31
0.0
  0
LINE
  5
13705
330
1A
100
AcDbEntity
  8
ZISSEN1
100
AcDbLine
 10
-1333.300000000003
 20
1516.0
 30
0.0
 11
-1333.300000000006
 21
1553.299999999999
 31
0.0
  0
LINE
  5
13706
330
1A
100
AcDbEntity
  8
ZISSEN1
100
AcDbLine
 10
-1324.600000000002
 20
1516.0
 30
0.0
 11
-1324.59998723755
 21
1553.299999999999
 31
0.0
  0
LINE
  5
13707
330
1A
100
AcDbEntity
  8
ZISSEN1
100
AcDbLine
 10
-1338.800000000003
 20
1511.02
 30
0.0
 11
-1349.2
 21
1511.02
 31
0.0
  0
LINE
  5
13709
330
1A
100
AcDbEntity
  8
ZISSEN1
100
AcDbLine
 10
-1333.300000000003
 20
1502.0
 30
0.0
 11
-1333.300000000003
 21
1504.0
 31
0.0
  0
LINE
  5
1370A
330
1A
100
AcDbEntity
  8
ZISSEN1
100
AcDbLine
 10
-1338.800000000003
 20
1506.979999999999
 30
0.0
 11
-1349.2
 21
1506.979999999999
 31
0.0
  0
LINE
  5
1370B
330
1A
100
AcDbEntity
  8
ZISSEN1
100
AcDbLine
 10
-1313.0
 20
1516.0
 30
0.0
 11
-1315.5
 21
1516.0
 31
0.0
  0
LINE
  5
1370C
330
1A
100
AcDbEntity
  8
ZISSEN1
100
AcDbLine
 10
-1313.0
 20
1516.0
 30
0.0
 11
-1312.0
 21
1515.0
 31
0.0
  0
LINE
  5
1370D
330
1A
100
AcDbEntity
  8
ZISSEN1
100
AcDbLine
 10
-1312.0
 20
1515.0
 30
0.0
 11
-1312.0
 21
1507.0
 31
0.0
  0
LINE
  5
1370E
330
1A
100
AcDbEntity
  8
ZISSEN1
100
AcDbLine
 10
-1313.0
 20
1504.0
 30
0.0
 11
-1312.0
 21
1505.0
 31
0.0
  0
LINE
  5
1370F
330
1A
100
AcDbEntity
  8
ZISSEN1
100
AcDbLine
 10
-1310.0
 20
1511.5
 30
0.0
 11
-1312.0
 21
1511.5
 31
0.0
  0
LINE
  5
13710
330
1A
100
AcDbEntity
  8
ZISSEN1
100
AcDbLine
 10
-1310.0
 20
1506.499999999999
 30
0.0
 11
-1312.0
 21
1506.499999999999
 31
0.0
  0
LINE
  5
13713
330
1A
100
AcDbEntity
  8
ZISSEN1
100
AcDbLine
 10
-1310.0
 20
1566.500000000273
 30
0.0
 11
-1312.0
 21
1566.500000000273
 31
0.0
  0
LINE
  5
13714
330
1A
100
AcDbEntity
  8
ZISSEN1
100
AcDbLine
 10
-1313.0
 20
1572.899999999997
 30
0.0
 11
-1312.0
 21
1571.899999999997
 31
0.0
  0
LINE
  5
13715
330
1A
100
AcDbEntity
  8
ZISSEN1
100
AcDbLine
 10
-1324.600000000005
 20
1552.299999999999
 30
0.0
 11
-1331.300000000003
 21
1552.299999999999
 31
0.0
  0
LINE
  5
13716
330
1A
100
AcDbEntity
  8
ZISSEN1
100
AcDbLine
 10
-1331.300000000003
 20
1552.299999999999
 30
0.0
 11
-1331.300000000003
 21
1534.899999999997
 31
0.0
  0
LINE
  5
13717
330
1A
100
AcDbEntity
  8
ZISSEN1
100
AcDbLine
 10
-1315.50034628226
 20
1581.999999999996
 30
0.0
 11
-1324.099654554127
 21
1582.0
 31
0.0
  0
LINE
  5
13718
330
1A
100
AcDbEntity
  8
ZISSEN1
100
AcDbLine
 10
-1336.600000000002
 20
1581.999999999998
 30
0.0
 11
-1336.600000000002
 21
1589.899999999997
 31
0.0
  0
LINE
  5
13719
330
1A
100
AcDbEntity
  8
ZISSEN1
100
AcDbLine
 10
-1338.199999999998
 20
1581.999999999998
 30
0.0
 11
-1338.2
 21
1589.899999999997
 31
0.0
  0
LINE
  5
1371A
330
1A
100
AcDbEntity
  8
ZISSEN1
100
AcDbLine
 10
-1344.900000000001
 20
1581.999999999998
 30
0.0
 11
-1344.900000000001
 21
1586.496531799086
 31
0.0
  0
LINE
  5
1371B
330
1A
100
AcDbEntity
  8
ZISSEN1
100
AcDbLine
 10
-1324.099654554127
 20
1582.0
 30
0.0
 11
-1324.099654554127
 21
1572.899999999997
 31
0.0
  0
LINE
  5
1371C
330
1A
100
AcDbEntity
  8
ZISSEN1
100
AcDbLine
 10
-1324.099654554127
 20
1572.899999999997
 30
0.0
 11
-1333.399510999999
 21
1572.899999999997
 31
0.0
  0
LINE
  5
1371D
330
1A
100
AcDbEntity
  8
ZISSEN1
100
AcDbLine
 10
-1333.399510999999
 20
1572.899999999997
 30
0.0
 11
-1333.399510999999
 21
1580.199999999997
 31
0.0
  0
LINE
  5
1371E
330
1A
100
AcDbEntity
  8
ZISSEN1
100
AcDbLine
 10
-1315.50034628226
 20
1572.899999999997
 30
0.0
 11
-1315.50034628226
 21
1581.999999999996
 31
0.0
  0
LINE
  5
1371F
330
1A
100
AcDbEntity
  8
ZISSEN1
100
AcDbLine
 10
-1313.0
 20
1572.899999999997
 30
0.0
 11
-1315.50034628226
 21
1572.899999999997
 31
0.0
  0
LINE
  5
13720
330
1A
100
AcDbEntity
  8
ZISSEN1
100
AcDbLine
 10
-1312.0
 20
1554.299999999999
 30
0.0
 11
-1312.0
 21
1571.899999999997
 31
0.0
  0
LINE
  5
13721
330
1A
100
AcDbEntity
  8
ZISSEN1
 48
0.4
100
AcDbLine
 10
-1307.250000000003
 20
1566.749999999996
 30
0.0
 11
-1308.000000000003
 21
1566.749999999996
 31
0.0
  0
ELLIPSE
  5
13722
330
1A
100
AcDbEntity
  8
ZISSEN1
 48
0.4
100
AcDbEllipse
 10
-1307.250000000002
 20
1563.999999999996
 30
0.0
 11
0.0000000000000024
 21
2.75
 31
0.0
210
0.0
220
0.0
230
-1.0
 40
0.3090909090909173
 41
6.283185307179586
 42
9.424777960769379
  0
LINE
  5
13723
330
1A
100
AcDbEntity
  8
ZISSEN1
 48
0.4
100
AcDbLine
 10
-1307.250000000003
 20
1561.249999999996
 30
0.0
 11
-1308.000000000003
 21
1561.249999999996
 31
0.0
  0
LINE
  5
13724
330
1A
100
AcDbEntity
  8
ZISSEN1
100
AcDbLine
 10
-1338.2
 20
1589.899999999997
 30
0.0
 11
-1344.900000000001
 21
1589.899999999997
 31
0.0
  0
LINE
  5
13725
330
1A
100
AcDbEntity
  8
ZISSEN1
100
AcDbLine
 10
-1344.900000000001
 20
1589.799999999999
 30
0.0
 11
-1350.099999999998
 21
1589.799999999999
 31
0.0
  0
LINE
  5
13726
330
1A
100
AcDbEntity
  8
ZISSEN1
100
AcDbLine
 10
-1344.900000000001
 20
1589.899999999997
 30
0.0
 11
-1344.900000000001
 21
1586.496531799086
 31
0.0
  0
LINE
  5
13727
330
1A
100
AcDbEntity
  8
ZISSEN1
100
AcDbLine
 10
-1350.099999999998
 20
1589.799999999999
 30
0.0
 11
-1350.099999999998
 21
1572.2
 31
0.0
  0
LINE
  5
13728
330
1A
100
AcDbEntity
  8
ZISSEN1
100
AcDbLine
 10
-1349.2
 20
1572.2
 30
0.0
 11
-1346.199999999997
 21
1572.2
 31
0.0
  0
LINE
  5
13729
330
1A
100
AcDbEntity
  8
ZISSEN1
100
AcDbLine
 10
-1338.2
 20
1589.899999999997
 30
0.0
 11
-1336.600000000002
 21
1589.899999999997
 31
0.0
  0
LINE
  5
1372A
330
1A
100
AcDbEntity
  8
ZISSEN1
  6
CONTINUOUS
 62
     7
100
AcDbLine
 10
-1314.699996999999
 20
1595.910497999997
 30
0.0
 11
-1314.699996999999
 21
1586.410497999997
 31
0.0
  0
LINE
  5
1372B
330
1A
100
AcDbEntity
  8
ZISSEN1
100
AcDbLine
 10
-1312.0
 20
1568.899999999997
 30
0.0
 11
-1306.500499000001
 21
1568.899999999997
 31
0.0
  0
LINE
  5
1372C
330
1A
100
AcDbEntity
  8
ZISSEN1
  6
CONTINUOUS
 62
     7
100
AcDbLine
 10
-1306.699999
 20
1595.910497999997
 30
0.0
 11
-1314.699996999999
 21
1595.910497999997
 31
0.0
  0
LINE
  5
1372D
330
1A
100
AcDbEntity
  8
ZISSEN1
100
AcDbLine
 10
-1315.0
 20
1552.299999999999
 30
0.0
 11
-1308.299999999999
 21
1552.299999999999
 31
0.0
  0
LINE
  5
1372E
330
1A
100
AcDbEntity
  8
ZISSEN1
  6
CONTINUOUS
 62
     7
100
AcDbLine
 10
-1332.900001000001
 20
1595.910497999997
 30
0.0
 11
-1324.900003000002
 21
1595.910497999997
 31
0.0
  0
LINE
  5
1372F
330
1A
100
AcDbEntity
  8
ZISSEN1
  6
CONTINUOUS
 62
     7
100
AcDbLine
 10
-1324.900003000002
 20
1595.910497999997
 30
0.0
 11
-1324.900003000002
 21
1586.410497999997
 31
0.0
  0
LINE
  5
13730
330
1A
100
AcDbEntity
  8
ZISSEN1
100
AcDbLine
 10
-1308.0
 20
1566.899999999997
 30
0.0
 11
-1310.0
 21
1566.899999999997
 31
0.0
  0
LINE
  5
13731
330
1A
100
AcDbEntity
  8
ZISSEN1
100
AcDbLine
 10
-1310.0
 20
1567.899999999998
 30
0.0
 11
-1310.0
 21
1552.299999999999
 31
0.0
  0
LINE
  5
13732
330
1A
100
AcDbEntity
  8
ZISSEN1
100
AcDbLine
 10
-1308.0
 20
1567.899999999998
 30
0.0
 11
-1310.0
 21
1567.899999999998
 31
0.0
  0
LINE
  5
13733
330
1A
100
AcDbEntity
  8
ZISSEN1
100
AcDbLine
 10
-1313.0
 20
1553.299999999999
 30
0.0
 11
-1312.0
 21
1554.299999999999
 31
0.0
  0
LINE
  5
13734
330
1A
100
AcDbEntity
  8
ZISSEN1
100
AcDbLine
 10
-1313.0
 20
1553.299999999999
 30
0.0
 11
-1315.5
 21
1553.299999999999
 31
0.0
  0
LINE
  5
13735
330
1A
100
AcDbEntity
  8
ZISSEN1
100
AcDbLine
 10
-1324.100000000009
 20
1553.299999999999
 30
0.0
 11
-1333.300000000006
 21
1553.299999999999
 31
0.0
  0
LINE
  5
13736
330
1A
100
AcDbEntity
  8
ZISSEN1
100
AcDbLine
 10
-1310.0
 20
1561.500000000273
 30
0.0
 11
-1312.0
 21
1561.500000000273
 31
0.0
  0
LINE
  5
13739
330
1A
100
AcDbEntity
  8
ZISSEN1
100
AcDbLine
 10
-1339.450000000004
 20
1572.249999999996
 30
0.0
 11
-1339.45
 21
1545.749999999996
 31
0.0
  0
LINE
  5
1373A
330
1A
100
AcDbEntity
  8
ZISSEN1
100
AcDbLine
 10
-1342.950000000004
 20
1572.249999999996
 30
0.0
 11
-1342.95
 21
1545.749999999996
 31
0.0
  0
ARC
  5
1373B
330
1A
100
AcDbEntity
  8
ZISSEN1
100
AcDbCircle
 10
-1341.2
 20
1572.25
 30
0.0
 40
1.75
100
AcDbArc
 50
0.0
 51
180.0
  0
ARC
  5
1373C
330
1A
100
AcDbEntity
  8
ZISSEN1
100
AcDbCircle
 10
-1341.2
 20
1545.749999999999
 30
0.0
 40
1.75
100
AcDbArc
 50
180.0
 51
0.0
  0
LINE
  5
1373D
330
1A
100
AcDbEntity
  8
ZISSEN1
100
AcDbLine
 10
-1350.099999999998
 20
1572.2
 30
0.0
 11
-1350.0
 21
1572.2
 31
0.0
  0
LINE
  5
1373E
330
1A
100
AcDbEntity
  8
ZISSEN1
100
AcDbLine
 10
-1338.2
 20
1588.899999999997
 30
0.0
 11
-1336.600000000002
 21
1588.899999999997
 31
0.0
  0
DIMENSION
  5
1373F
330
1A
100
AcDbEntity
  8
SUNPOU
100
AcDbDimension
  2
*D2
 10
-1371.276302446936
 20
1500.0
 30
0.0
 11
-1373.651302446937
 21
1547.999999452892
 31
0.0
 70
    32
  3
ISO-25
100
AcDbAlignedDimension
 13
-1384.792687346665
 23
1595.999998905785
 33
0.0
 14
-1374.0
 24
1500.0
 34
0.0
 50
90.0
100
AcDbRotatedDimension
1001
ACAD
1000
DSTYLE
1002
{
1070
   140
1040
3.5
1002
}
  0
LINE
  5
13742
330
1A
100
AcDbEntity
  8
ZISSEN1
100
AcDbLine
 10
-1384.297421345614
 20
1631.299999999999
 30
0.0
 11
-1384.297421345614
 21
1630.799999999999
 31
0.0
  0
LINE
  5
13743
330
1A
100
AcDbEntity
  8
ZISSEN1
100
AcDbLine
 10
-1384.297421345614
 20
1630.799999999999
 30
0.0
 11
-1384.297421345614
 21
1630.0
 31
0.0
  0
LINE
  5
13744
330
1A
100
AcDbEntity
  8
ZISSEN1
100
AcDbLine
 10
-1383.497421345615
 20
1631.299999999999
 30
0.0
 11
-1384.297421345614
 21
1631.299999999999
 31
0.0
  0
LINE
  5
13745
330
1A
100
AcDbEntity
  8
ZISSEN1
100
AcDbLine
 10
-1387.597421345617
 20
1579.5
 30
0.0
 11
-1387.597421345617
 21
1581.2
 31
0.0
  0
LINE
  5
13746
330
1A
100
AcDbEntity
  8
ZISSEN1
100
AcDbLine
 10
-1435.197421345618
 20
1579.5
 30
0.0
 11
-1387.597421345617
 21
1579.5
 31
0.0
  0
LINE
  5
13747
330
1A
100
AcDbEntity
  8
ZISSEN1
100
AcDbLine
 10
-1435.197421345618
 20
1581.2
 30
0.0
 11
-1435.197421345618
 21
1579.5
 31
0.0
  0
LINE
  5
13748
330
1A
100
AcDbEntity
  8
ZISSEN1
100
AcDbLine
 10
-1387.597421345617
 20
1581.2
 30
0.0
 11
-1435.197421345618
 21
1581.2
 31
0.0
  0
LINE
  5
13749
330
1A
100
AcDbEntity
  8
ZISSEN1
100
AcDbLine
 10
-1529.300000000002
 20
1525.0
 30
0.0
 11
-1531.800000000004
 21
1525.0
 31
0.0
  0
LINE
  5
1374A
330
1A
100
AcDbEntity
  8
ZISSEN1
100
AcDbLine
 10
-1529.300000000002
 20
1525.0
 30
0.0
 11
-1529.300000000004
 21
1513.999999999996
 31
0.0
  0
LINE
  5
1374B
330
1A
100
AcDbEntity
  8
ZISSEN1
100
AcDbLine
 10
-1529.300000000002
 20
1514.0
 30
0.0
 11
-1530.300000000003
 21
1513.0
 31
0.0
  0
LINE
  5
1374C
330
1A
100
AcDbEntity
  8
ZISSEN1
100
AcDbLine
 10
-1449.397421345615
 20
1587.903689880884
 30
0.0
 11
-1442.797421345612
 21
1587.903689880884
 31
0.0
  0
LINE
  5
1374D
330
1A
100
AcDbEntity
  8
ZISSEN1
100
AcDbLine
 10
-1442.797421345612
 20
1587.903689880884
 30
0.0
 11
-1442.797421345612
 21
1582.0
 31
0.0
  0
LINE
  5
1374E
330
1A
100
AcDbEntity
  8
ZISSEN1
100
AcDbLine
 10
-1449.397421345615
 20
1582.0
 30
0.0
 11
-1449.397421345615
 21
1587.903689880884
 31
0.0
  0
LINE
  5
1374F
330
1A
100
AcDbEntity
  8
ZISSEN1
100
AcDbLine
 10
-1450.397421345615
 20
1588.900000000001
 30
0.0
 11
-1450.397421345615
 21
1582.0
 31
0.0
  0
ARC
  5
13750
330
1A
100
AcDbEntity
  8
ZISSEN1
100
AcDbCircle
 10
-1450.397421345615
 20
1589.900000000001
 30
0.0
 40
1.0
100
AcDbArc
 50
270.0
 51
0.0
  0
LINE
  5
13751
330
1A
100
AcDbEntity
  8
ZISSEN1
100
AcDbLine
 10
-1450.898238802998
 20
1637.949999999997
 30
0.0
 11
-1450.898238802998
 21
1646.399999999997
 31
0.0
  0
LINE
  5
13752
330
1A
100
AcDbEntity
  8
ZISSEN1
  6
CONTINUOUS
 62
     7
100
AcDbLine
 10
-1443.086164803
 20
1639.449999999999
 30
0.0
 11
-1449.398238544934
 21
1639.449999999999
 31
0.0
  0
LINE
  5
13753
330
1A
100
AcDbEntity
  8
ZISSEN1
100
AcDbLine
 10
-1449.398238802998
 20
1643.399999999999
 30
0.0
 11
-1449.398238802998
 21
1641.799999999997
 31
0.0
  0
LINE
  5
13754
330
1A
100
AcDbEntity
  8
ZISSEN1
100
AcDbLine
 10
-1450.398238802998
 20
1643.399999999999
 30
0.0
 11
-1450.398238802998
 21
1641.799999999997
 31
0.0
  0
LINE
  5
13755
330
1A
100
AcDbEntity
  8
ZISSEN1
  6
CONTINUOUS
 62
     7
100
AcDbLine
 10
-1435.986164802998
 20
1639.449999999999
 30
0.0
 11
-1442.010314802999
 21
1639.449999999999
 31
0.0
  0
LINE
  5
13756
330
1A
100
AcDbEntity
  8
ZISSEN1
100
AcDbLine
 10
-1551.900000000003
 20
1500.0
 30
0.0
 11
-1551.900000000003
 21
1501.999999999998
 31
0.0
  0
LINE
  5
13757
330
1A
100
AcDbEntity
  8
ZISSEN1
100
AcDbLine
 10
-1550.900000000003
 20
1500.0
 30
0.0
 11
-1550.900000000003
 21
1501.999999999998
 31
0.0
  0
LINE
  5
13758
330
1A
100
AcDbEntity
  8
ZISSEN1
100
AcDbLine
 10
-1568.000000000005
 20
1502.0
 30
0.0
 11
-1566.000000000003
 21
1501.999999999996
 31
0.0
  0
CIRCLE
  5
13759
330
1A
100
AcDbEntity
  8
ZISSEN1
100
AcDbCircle
 10
-1558.199999999728
 20
1507.299999999999
 30
0.0
 40
3.149999999999999
  0
LINE
  5
1375A
330
1A
100
AcDbEntity
  8
ZISSEN1
100
AcDbLine
 10
-1554.400000000005
 20
1500.0
 30
0.0
 11
-1554.400000000007
 21
1510.0
 31
0.0
  0
LINE
  5
1375B
330
1A
100
AcDbEntity
  8
ZISSEN1
100
AcDbLine
 10
-1555.400000000006
 20
1511.0
 30
0.0
 11
-1554.400000000007
 21
1510.0
 31
0.0
  0
LINE
  5
1375C
330
1A
100
AcDbEntity
  8
ZISSEN1
100
AcDbLine
 10
-1565.000000000001
 20
1511.0
 30
0.0
 11
-1555.400000000006
 21
1511.0
 31
0.0
  0
LINE
  5
1375D
330
1A
100
AcDbEntity
  8
ZISSEN1
100
AcDbLine
 10
-1565.000000000001
 20
1511.0
 30
0.0
 11
-1566.000000000001
 21
1510.0
 31
0.0
  0
LINE
  5
1375E
330
1A
100
AcDbEntity
  8
ZISSEN1
100
AcDbLine
 10
-1566.000000000003
 20
1571.899999999997
 30
0.0
 11
-1566.000000000003
 21
1500.0
 31
0.0
  0
CIRCLE
  5
1375F
330
1A
100
AcDbEntity
  8
ZISSEN1
100
AcDbCircle
 10
-1558.200000000002
 20
1545.599999999998
 30
0.0
 40
2.399999999999999
  0
LINE
  5
13760
330
1A
100
AcDbEntity
  8
ZISSEN1
100
AcDbLine
 10
-1541.400000000003
 20
1528.6
 30
0.0
 11
-1541.400000000003
 21
1555.199999999999
 31
0.0
  0
LINE
  5
13761
330
1A
100
AcDbEntity
  8
ZISSEN1
100
AcDbLine
 10
-1540.900000000003
 20
1501.999999999998
 30
0.0
 11
-1540.900000000003
 21
1555.199999999999
 31
0.0
  0
LINE
  5
13762
330
1A
100
AcDbEntity
  8
ZISSEN1
100
AcDbLine
 10
-1546.900000000003
 20
1555.199999999999
 30
0.0
 11
-1540.900000000003
 21
1555.199999999999
 31
0.0
  0
LINE
  5
13763
330
1A
100
AcDbEntity
  8
ZISSEN1
100
AcDbLine
 10
-1541.400000000003
 20
1536.199999999999
 30
0.0
 11
-1546.400000000003
 21
1536.199999999999
 31
0.0
  0
LINE
  5
13764
330
1A
100
AcDbEntity
  8
ZISSEN1
100
AcDbLine
 10
-1546.400000000003
 20
1554.199999999998
 30
0.0
 11
-1541.400000000003
 21
1554.199999999998
 31
0.0
  0
LINE
  5
13765
330
1A
100
AcDbEntity
  8
ZISSEN1
100
AcDbLine
 10
-1546.400000000003
 20
1536.199999999999
 30
0.0
 11
-1546.400000000003
 21
1554.199999999998
 31
0.0
  0
LINE
  5
13766
330
1A
100
AcDbEntity
  8
ZISSEN1
100
AcDbLine
 10
-1541.400000000003
 20
1554.199999999998
 30
0.0
 11
-1541.400000000003
 21
1536.199999999999
 31
0.0
  0
LINE
  5
13767
330
1A
100
AcDbEntity
  8
ZISSEN1
100
AcDbLine
 10
-1540.900000000003
 20
1528.6
 30
0.0
 11
-1540.900000000003
 21
1512.599999999998
 31
0.0
  0
LINE
  5
13768
330
1A
100
AcDbEntity
  8
ZISSEN1
100
AcDbLine
 10
-1541.400000000003
 20
1528.6
 30
0.0
 11
-1541.400000000003
 21
1505.499999999996
 31
0.0
  0
LINE
  5
13769
330
1A
100
AcDbEntity
  8
ZISSEN1
  6
CONTINUOUS
 62
     7
100
AcDbLine
 10
-1542.600000000002
 20
1527.549999999999
 30
0.0
 11
-1542.600000000002
 21
1513.649999999999
 31
0.0
  0
LINE
  5
1376A
330
1A
100
AcDbEntity
  8
ZISSEN1
  6
CONTINUOUS
 62
     7
100
AcDbLine
 10
-1541.420000000002
 20
1527.549999999999
 30
0.0
 11
-1542.600000000002
 21
1527.549999999999
 31
0.0
  0
LINE
  5
1376B
330
1A
100
AcDbEntity
  8
ZISSEN1
  6
CONTINUOUS
 62
     7
100
AcDbLine
 10
-1541.420000000002
 20
1513.649999999999
 30
0.0
 11
-1542.600000000002
 21
1513.649999999999
 31
0.0
  0
LINE
  5
1376C
330
1A
100
AcDbEntity
  8
ZISSEN1
  6
CONTINUOUS
 62
     7
100
AcDbLine
 10
-1541.420000000002
 20
1527.549999999999
 30
0.0
 11
-1541.420000000002
 21
1513.649999999999
 31
0.0
  0
LINE
  5
1376D
330
1A
100
AcDbEntity
  8
ZISSEN1
100
AcDbLine
 10
-1539.800000000003
 20
1588.899999999997
 30
0.0
 11
-1541.400000000003
 21
1588.899999999997
 31
0.0
  0
LINE
  5
1376E
330
1A
100
AcDbEntity
  8
ZISSEN1
100
AcDbLine
 10
-1528.000000000005
 20
1572.2
 30
0.0
 11
-1528.800000000003
 21
1572.2
 31
0.0
  0
LINE
  5
1376F
330
1A
100
AcDbEntity
  8
ZISSEN1
100
AcDbLine
 10
-1527.900000000005
 20
1572.2
 30
0.0
 11
-1528.000000000005
 21
1572.2
 31
0.0
  0
ARC
  5
13770
330
1A
100
AcDbEntity
  8
ZISSEN1
100
AcDbCircle
 10
-1536.800000000001
 20
1545.749999999999
 30
0.0
 40
1.75
100
AcDbArc
 50
180.0
 51
0.0
  0
ARC
  5
13771
330
1A
100
AcDbEntity
  8
ZISSEN1
100
AcDbCircle
 10
-1536.800000000001
 20
1572.25
 30
0.0
 40
1.75
100
AcDbArc
 50
0.0
 51
180.0
  0
LINE
  5
13772
330
1A
100
AcDbEntity
  8
ZISSEN1
100
AcDbLine
 10
-1535.050000000001
 20
1572.249999999996
 30
0.0
 11
-1535.050000000002
 21
1545.749999999996
 31
0.0
  0
LINE
  5
13773
330
1A
100
AcDbEntity
  8
ZISSEN1
100
AcDbLine
 10
-1538.550000000001
 20
1572.249999999996
 30
0.0
 11
-1538.550000000002
 21
1545.749999999996
 31
0.0
  0
LINE
  5
13774
330
1A
100
AcDbEntity
  8
ZISSEN1
100
AcDbLine
 10
-1568.000000000003
 20
1561.500000000273
 30
0.0
 11
-1566.000000000003
 21
1561.500000000273
 31
0.0
  0
LINE
  5
13775
330
1A
100
AcDbEntity
  8
ZISSEN1
100
AcDbLine
 10
-1570.000000000003
 20
1567.899999999998
 30
0.0
 11
-1568.000000000003
 21
1567.899999999998
 31
0.0
  0
LINE
  5
13776
330
1A
100
AcDbEntity
  8
ZISSEN1
100
AcDbLine
 10
-1570.000000000003
 20
1566.899999999997
 30
0.0
 11
-1568.000000000003
 21
1566.899999999997
 31
0.0
  0
LINE
  5
13777
330
1A
100
AcDbEntity
  8
ZISSEN1
  6
CONTINUOUS
 62
     7
100
AcDbLine
 10
-1553.099997000003
 20
1595.910497999997
 30
0.0
 11
-1553.099997000003
 21
1572.899999999997
 31
0.0
  0
LINE
  5
13778
330
1A
100
AcDbEntity
  8
ZISSEN1
  6
CONTINUOUS
 62
     7
100
AcDbLine
 10
-1544.900499000003
 20
1595.910497999997
 30
0.0
 11
-1544.900499000003
 21
1572.899999999997
 31
0.0
  0
LINE
  5
13779
330
1A
100
AcDbEntity
  8
ZISSEN1
  6
CONTINUOUS
 62
     7
100
AcDbLine
 10
-1544.900499000003
 20
1595.910497999997
 30
0.0
 11
-1553.099997000003
 21
1595.910497999997
 31
0.0
  0
LINE
  5
1377A
330
1A
100
AcDbEntity
  8
ZISSEN1
  6
CONTINUOUS
 62
     7
100
AcDbLine
 10
-1571.499501000004
 20
1595.910497999997
 30
0.0
 11
-1563.300003000003
 21
1595.910497999997
 31
0.0
  0
LINE
  5
1377B
330
1A
100
AcDbEntity
  8
ZISSEN1
  6
CONTINUOUS
 62
     7
100
AcDbLine
 10
-1571.499501000004
 20
1568.899999999997
 30
0.0
 11
-1571.499501000004
 21
1595.910497999997
 31
0.0
  0
LINE
  5
1377C
330
1A
100
AcDbEntity
  8
ZISSEN1
100
AcDbLine
 10
-1566.000000000003
 20
1568.899999999997
 30
0.0
 11
-1571.499501000004
 21
1568.899999999997
 31
0.0
  0
LINE
  5
1377D
330
1A
100
AcDbEntity
  8
ZISSEN1
  6
CONTINUOUS
 62
     7
100
AcDbLine
 10
-1563.300003000003
 20
1595.910497999997
 30
0.0
 11
-1563.300003000003
 21
1572.899999999997
 31
0.0
  0
LINE
  5
1377E
330
1A
100
AcDbEntity
  8
ZISSEN1
100
AcDbLine
 10
-1539.800000000003
 20
1589.899999999997
 30
0.0
 11
-1541.400000000003
 21
1589.899999999997
 31
0.0
  0
LINE
  5
1377F
330
1A
100
AcDbEntity
  8
ZISSEN1
100
AcDbLine
 10
-1528.800000000003
 20
1572.2
 30
0.0
 11
-1531.800000000006
 21
1572.2
 31
0.0
  0
LINE
  5
13780
330
1A
100
AcDbEntity
  8
ZISSEN1
100
AcDbLine
 10
-1527.900000000005
 20
1589.799999999999
 30
0.0
 11
-1527.900000000005
 21
1572.2
 31
0.0
  0
LINE
  5
13781
330
1A
100
AcDbEntity
  8
ZISSEN1
100
AcDbLine
 10
-1533.100000000002
 20
1589.899999999997
 30
0.0
 11
-1533.100000000002
 21
1589.799999999999
 31
0.0
  0
LINE
  5
13782
330
1A
100
AcDbEntity
  8
ZISSEN1
100
AcDbLine
 10
-1539.800000000003
 20
1589.799999999999
 30
0.0
 11
-1527.900000000005
 21
1589.799999999999
 31
0.0
  0
LINE
  5
13785
330
1A
100
AcDbEntity
  8
ZISSEN1
100
AcDbLine
 10
-1539.800000000003
 20
1589.899999999997
 30
0.0
 11
-1533.100000000002
 21
1589.899999999997
 31
0.0
  0
LINE
  5
13786
330
1A
100
AcDbEntity
  8
ZISSEN1
 48
0.4
100
AcDbLine
 10
-1570.75
 20
1561.249999999996
 30
0.0
 11
-1570.0
 21
1561.249999999996
 31
0.0
  0
ELLIPSE
  5
13787
330
1A
100
AcDbEntity
  8
ZISSEN1
 48
0.4
100
AcDbEllipse
 10
-1570.75
 20
1563.999999999996
 30
0.0
 11
-0.000000000000001
 21
2.75
 31
0.0
210
0.0
220
0.0
230
1.0
 40
0.3090909090909173
 41
6.283185307179586
 42
9.424777960769379
  0
LINE
  5
13788
330
1A
100
AcDbEntity
  8
ZISSEN1
 48
0.4
100
AcDbLine
 10
-1570.75
 20
1566.749999999996
 30
0.0
 11
-1570.0
 21
1566.749999999996
 31
0.0
  0
LINE
  5
13789
330
1A
100
AcDbEntity
  8
ZISSEN1
100
AcDbLine
 10
-1565.000000000003
 20
1572.899999999997
 30
0.0
 11
-1562.499653717743
 21
1572.899999999997
 31
0.0
  0
LINE
  5
1378A
330
1A
100
AcDbEntity
  8
ZISSEN1
100
AcDbLine
 10
-1544.600489000004
 20
1572.899999999997
 30
0.0
 11
-1544.600489000004
 21
1582.0
 31
0.0
  0
LINE
  5
1378B
330
1A
100
AcDbEntity
  8
ZISSEN1
100
AcDbLine
 10
-1553.900345445876
 20
1572.899999999997
 30
0.0
 11
-1544.600489000004
 21
1572.899999999997
 31
0.0
  0
LINE
  5
1378C
330
1A
100
AcDbEntity
  8
ZISSEN1
100
AcDbLine
 10
-1553.900345445876
 20
1582.0
 30
0.0
 11
-1553.900345445876
 21
1572.899999999997
 31
0.0
  0
LINE
  5
1378D
330
1A
100
AcDbEntity
  8
ZISSEN1
100
AcDbLine
 10
-1539.800000000003
 20
1582.0
 30
0.0
 11
-1539.800000000003
 21
1589.899999999997
 31
0.0
  0
LINE
  5
1378E
330
1A
100
AcDbEntity
  8
ZISSEN1
100
AcDbLine
 10
-1541.400000000001
 20
1581.999999999998
 30
0.0
 11
-1541.400000000003
 21
1589.899999999997
 31
0.0
  0
LINE
  5
1378F
330
1A
100
AcDbEntity
  8
ZISSEN1
100
AcDbLine
 10
-1565.000000000003
 20
1572.899999999997
 30
0.0
 11
-1566.000000000003
 21
1571.899999999997
 31
0.0
  0
LINE
  5
13790
330
1A
100
AcDbEntity
  8
ZISSEN1
100
AcDbLine
 10
-1531.800000000006
 20
1581.199999999997
 30
0.0
 11
-1528.800000000003
 21
1581.199999999997
 31
0.0
  0
LINE
  5
13791
330
1A
100
AcDbEntity
  8
ZISSEN1
100
AcDbLine
 10
-1568.000000000003
 20
1566.500000000273
 30
0.0
 11
-1566.000000000003
 21
1566.500000000273
 31
0.0
  0
LINE
  5
13792
330
1A
100
AcDbEntity
  8
ZISSEN1
100
AcDbLine
 10
-1568.000000000003
 20
1506.499999999999
 30
0.0
 11
-1566.000000000003
 21
1506.499999999999
 31
0.0
  0
LINE
  5
13793
330
1A
100
AcDbEntity
  8
ZISSEN1
100
AcDbLine
 10
-1568.000000000003
 20
1511.5
 30
0.0
 11
-1566.000000000003
 21
1511.5
 31
0.0
  0
LINE
  5
13794
330
1A
100
AcDbEntity
  8
ZISSEN1
100
AcDbLine
 10
-1566.000000000003
 20
1571.899999999997
 30
0.0
 11
-1566.000000000003
 21
1507.0
 31
0.0
  0
LINE
  5
13795
330
1A
100
AcDbEntity
  8
ZISSEN1
100
AcDbLine
 10
-1537.900000000003
 20
1506.979999999999
 30
0.0
 11
-1528.800000000003
 21
1506.979999999999
 31
0.0
  0
LINE
  5
13796
330
1A
100
AcDbEntity
  8
ZISSEN1
100
AcDbLine
 10
-1566.000000000003
 20
1511.0
 30
0.0
 11
-1566.000000000003
 21
1507.0
 31
0.0
  0
LINE
  5
13797
330
1A
100
AcDbEntity
  8
ZISSEN1
100
AcDbLine
 10
-1534.200000000002
 20
1500.0
 30
0.0
 11
-1540.600000000002
 21
1500.0
 31
0.0
  0
LINE
  5
13798
330
1A
100
AcDbEntity
  8
ZISSEN1
100
AcDbLine
 10
-1533.650000000001
 20
1503.499999999996
 30
0.0
 11
-1537.150000000003
 21
1503.499999999996
 31
0.0
  0
ARC
  5
13799
330
1A
100
AcDbEntity
  8
ZISSEN1
100
AcDbCircle
 10
-1532.149999999999
 20
1503.5
 30
0.0
 40
1.500000000001818
100
AcDbArc
 50
221.8103148957614
 51
270.0
  0
ARC
  5
1379A
330
1A
100
AcDbEntity
  8
ZISSEN1
100
AcDbCircle
 10
-1532.149999999999
 20
1503.499999999996
 30
0.0
 40
1.500000000001764
100
AcDbArc
 50
180.0000000001042
 51
221.8103148957614
  0
LINE
  5
1379B
330
1A
100
AcDbEntity
  8
ZISSEN1
100
AcDbLine
 10
-1537.900000000003
 20
1511.02
 30
0.0
 11
-1528.800000000003
 21
1511.02
 31
0.0
  0
LINE
  5
1379C
330
1A
100
AcDbEntity
  8
ZISSEN1
100
AcDbLine
 10
-1554.400000000005
 20
1504.0
 30
0.0
 11
-1547.900000000003
 21
1504.0
 31
0.0
  0
LINE
  5
1379D
330
1A
100
AcDbEntity
  8
ZISSEN1
100
AcDbLine
 10
-1528.000000000003
 20
1500.0
 30
0.0
 11
-1570.0
 21
1500.0
 31
0.0
  0
LINE
  5
1379E
330
1A
100
AcDbEntity
  8
ZISSEN1
100
AcDbLine
 10
-1528.000000000003
 20
1502.0
 30
0.0
 11
-1554.400000000005
 21
1501.999999999996
 31
0.0
  0
ARC
  5
1379F
330
1A
100
AcDbEntity
  8
ZISSEN1
100
AcDbCircle
 10
-1568.000000000003
 20
1502.0
 30
0.0
 40
2.0
100
AcDbArc
 50
180.0
 51
270.0
  0
LINE
  5
137A0
330
1A
100
AcDbEntity
  8
ZISSEN1
100
AcDbLine
 10
-1541.400000000003
 20
1505.499999999996
 30
0.0
 11
-1540.900000000003
 21
1505.499999999996
 31
0.0
  0
LINE
  5
137A1
330
1A
100
AcDbEntity
  8
ZISSEN1
100
AcDbLine
 10
-1568.000000000003
 20
1567.899999999998
 30
0.0
 11
-1568.000000000003
 21
1501.999999999996
 31
0.0
  0
LINE
  5
137A2
330
1A
100
AcDbEntity
  8
ZISSEN1
 48
0.4
100
AcDbLine
 10
-1570.75
 20
1506.249999999723
 30
0.0
 11
-1570.0
 21
1506.249999999723
 31
0.0
  0
ELLIPSE
  5
137A3
330
1A
100
AcDbEntity
  8
ZISSEN1
 48
0.4
100
AcDbEllipse
 10
-1570.75
 20
1508.999999999723
 30
0.0
 11
-0.000000000000001
 21
2.75
 31
0.0
210
0.0
220
0.0
230
1.0
 40
0.3090909090909173
 41
6.283185307179586
 42
9.424777960769379
  0
LINE
  5
137A4
330
1A
100
AcDbEntity
  8
ZISSEN1
 48
0.4
100
AcDbLine
 10
-1570.75
 20
1511.749999999723
 30
0.0
 11
-1570.0
 21
1511.749999999723
 31
0.0
  0
LINE
  5
137A5
330
1A
100
AcDbEntity
  8
ZISSEN1
100
AcDbLine
 10
-1537.900000000003
 20
1513.0
 30
0.0
 11
-1530.300000000003
 21
1513.0
 31
0.0
  0
LINE
  5
137A6
330
1A
100
AcDbEntity
  8
ZISSEN1
100
AcDbLine
 10
-1528.000000000005
 20
1582.0
 30
0.0
 11
-1528.000000000003
 21
1504.0
 31
0.0
  0
LINE
  5
137A7
330
1A
100
AcDbEntity
  8
ZISSEN1
100
AcDbLine
 10
-1528.000000000003
 20
1504.0
 30
0.0
 11
-1528.800000000003
 21
1504.0
 31
0.0
  0
LINE
  5
137A8
330
1A
100
AcDbEntity
  8
ZISSEN1
100
AcDbLine
 10
-1528.800000000003
 20
1504.0
 30
0.0
 11
-1528.800000000003
 21
1582.0
 31
0.0
  0
LINE
  5
137A9
330
1A
100
AcDbEntity
  8
ZISSEN1
 48
0.4
100
AcDbLine
 10
-1527.250000000003
 20
1511.754999999728
 30
0.0
 11
-1528.000000000003
 21
1511.754999999728
 31
0.0
  0
ELLIPSE
  5
137AA
330
1A
100
AcDbEntity
  8
ZISSEN1
 48
0.4
100
AcDbEllipse
 10
-1527.250000000003
 20
1509.004999999728
 30
0.0
 11
-0.0000000000000037
 21
2.75
 31
0.0
210
0.0
220
0.0
230
-1.0
 40
0.3090909090909173
 41
6.283185307179586
 42
9.424777960769379
  0
LINE
  5
137AB
330
1A
100
AcDbEntity
  8
ZISSEN1
 48
0.4
100
AcDbLine
 10
-1527.250000000003
 20
1506.254999999728
 30
0.0
 11
-1528.000000000003
 21
1506.254999999728
 31
0.0
  0
LINE
  5
137AC
330
1A
100
AcDbEntity
  8
ZISSEN1
100
AcDbLine
 10
-1528.000000000003
 20
1506.254999999728
 30
0.0
 11
-1528.000000000003
 21
1511.754999999728
 31
0.0
  0
LINE
  5
137AD
330
1A
100
AcDbEntity
  8
ZISSEN1
100
AcDbLine
 10
-1553.426929717952
 20
1500.0
 30
0.0
 11
-1551.676929717952
 21
1500.0
 31
0.0
  0
LINE
  5
137AE
330
1A
100
AcDbEntity
  8
ZISSEN1
100
AcDbLine
 10
-1547.050000000003
 20
1500.0
 30
0.0
 11
-1553.45
 21
1500.0
 31
0.0
  0
LINE
  5
137AF
330
1A
100
AcDbEntity
  8
ZISSEN1
100
AcDbLine
 10
-1553.45
 20
1500.0
 30
0.0
 11
-1547.050000000003
 21
1500.0
 31
0.0
  0
LINE
  5
137B0
330
1A
100
AcDbEntity
  8
ZISSEN1
100
AcDbLine
 10
-1537.150000000003
 20
1503.499999999996
 30
0.0
 11
-1538.150000000001
 21
1503.499999999996
 31
0.0
  0
LINE
  5
137B1
330
1A
100
AcDbEntity
  8
ZISSEN1
100
AcDbLine
 10
-1531.800000000006
 20
1582.0
 30
0.0
 11
-1531.800000000006
 21
1525.0
 31
0.0
  0
LINE
  5
137B2
330
1A
100
AcDbEntity
  8
ZISSEN1
100
AcDbLine
 10
-1528.000000000003
 20
1513.0
 30
0.0
 11
-1528.800000000003
 21
1513.0
 31
0.0
  0
LINE
  5
137B3
330
1A
100
AcDbEntity
  8
ZISSEN1
100
AcDbLine
 10
-1535.750000000003
 20
1500.0
 30
0.0
 11
-1535.750000000003
 21
1502.0
 31
0.0
  0
LINE
  5
137B4
330
1A
100
AcDbEntity
  8
ZISSEN1
100
AcDbLine
 10
-1532.250000000003
 20
1500.0
 30
0.0
 11
-1532.250000000003
 21
1502.0
 31
0.0
  0
LINE
  5
137B5
330
1A
100
AcDbEntity
  8
ZISSEN1
100
AcDbLine
 10
-1528.000000000003
 20
1502.0
 30
0.0
 11
-1528.000000000003
 21
1500.0
 31
0.0
  0
LINE
  5
137B6
330
1A
100
AcDbEntity
  8
ZISSEN1
100
AcDbLine
 10
-1529.000000000003
 20
1502.0
 30
0.0
 11
-1529.000000000003
 21
1500.0
 31
0.0
  0
LINE
  5
137B7
330
1A
100
AcDbEntity
  8
ZISSEN1
100
AcDbLine
 10
-1570.000000000003
 20
1567.899999999998
 30
0.0
 11
-1570.000000000003
 21
1501.999999999996
 31
0.0
  0
LINE
  5
137B8
330
1A
100
AcDbEntity
  8
ZISSEN1
  6
CONTINUOUS
 62
     7
100
AcDbLine
 10
-1571.300001000003
 20
1595.910497999997
 30
0.0
 11
-1563.300003000003
 21
1595.910497999997
 31
0.0
  0
LINE
  5
137B9
330
1A
100
AcDbEntity
  8
ZISSEN1
  6
CONTINUOUS
 62
     7
100
AcDbLine
 10
-1563.300003000003
 20
1595.910497999997
 30
0.0
 11
-1563.300003000003
 21
1586.410497999997
 31
0.0
  0
LINE
  5
137BA
330
1A
100
AcDbEntity
  8
ZISSEN1
100
AcDbLine
 10
-1533.100000000002
 20
1589.799999999999
 30
0.0
 11
-1527.900000000005
 21
1589.799999999999
 31
0.0
  0
LINE
  5
137BB
330
1A
100
AcDbEntity
  8
ZISSEN1
100
AcDbLine
 10
-1544.600489000004
 20
1582.0
 30
0.0
 11
-1528.000000000005
 21
1582.0
 31
0.0
  0
LINE
  5
137BC
330
1A
100
AcDbEntity
  8
ZISSEN1
100
AcDbLine
 10
-1562.499653717743
 20
1581.999999999994
 30
0.0
 11
-1553.900345445876
 21
1582.0
 31
0.0
  0
LINE
  5
137BD
330
1A
100
AcDbEntity
  8
ZISSEN1
100
AcDbLine
 10
-1531.800000000006
 20
1581.199999999997
 30
0.0
 11
-1528.800000000003
 21
1581.199999999997
 31
0.0
  0
LINE
  5
137BE
330
1A
100
AcDbEntity
  8
ZISSEN1
100
AcDbLine
 10
-1350.0
 20
1502.0
 30
0.0
 11
-1350.0
 21
1500.0
 31
0.0
  0
LINE
  5
137BF
330
1A
100
AcDbEntity
  8
ZISSEN1
100
AcDbLine
 10
-1442.297421345616
 20
1582.0
 30
0.0
 11
-1442.297421345616
 21
1587.903689880884
 31
0.0
  0
LINE
  5
137C0
330
1A
100
AcDbEntity
  8
ZISSEN1
100
AcDbLine
 10
-1435.697421345614
 20
1587.903689880884
 30
0.0
 11
-1435.697421345614
 21
1582.0
 31
0.0
  0
LINE
  5
137C1
330
1A
100
AcDbEntity
  8
ZISSEN1
100
AcDbLine
 10
-1442.297421345616
 20
1587.903689880884
 30
0.0
 11
-1435.697421345614
 21
1587.903689880884
 31
0.0
  0
LINE
  5
137C2
330
1A
100
AcDbEntity
  8
ZISSEN1
100
AcDbLine
 10
-1398.497421345615
 20
1589.900000000001
 30
0.0
 11
-1397.997421345615
 21
1589.900000000001
 31
0.0
  0
LINE
  5
137C3
330
1A
100
AcDbEntity
  8
ZISSEN1
100
AcDbLine
 10
-1440.497421345615
 20
1664.5
 30
0.0
 11
-1494.497421345615
 21
1664.5
 31
0.0
  0
LINE
  5
137C4
330
1A
100
AcDbEntity
  8
ZISSEN1
100
AcDbLine
 10
-1383.497421345615
 20
1645.600489
 30
0.0
 11
-1384.297421345614
 21
1645.600489
 31
0.0
  0
LINE
  5
137C5
330
1A
100
AcDbEntity
  8
ZISSEN1
100
AcDbLine
 10
-1383.497421345615
 20
1646.600489
 30
0.0
 11
-1384.297421345614
 21
1646.600489
 31
0.0
  0
LINE
  5
137C6
330
1A
100
AcDbEntity
  8
ZISSEN1
100
AcDbLine
 10
-1488.597421345617
 20
1572.2
 30
0.0
 11
-1473.997421345617
 21
1572.2
 31
0.0
  0
LINE
  5
137C7
330
1A
100
AcDbEntity
  8
ZISSEN1
100
AcDbLine
 10
-1488.597421345617
 20
1585.0
 30
0.0
 11
-1488.597421345617
 21
1572.2
 31
0.0
  0
LINE
  5
137C8
330
1A
100
AcDbEntity
  8
ZISSEN1
100
AcDbLine
 10
-1489.097421345617
 20
1569.2
 30
0.0
 11
-1455.697421345615
 21
1569.2
 31
0.0
  0
LINE
  5
137C9
330
1A
100
AcDbEntity
  8
ZISSEN1
100
AcDbLine
 10
-1489.097421345617
 20
1582.0
 30
0.0
 11
-1489.097421345617
 21
1569.2
 31
0.0
  0
LINE
  5
137CA
330
1A
100
AcDbEntity
  8
ZISSEN1
100
AcDbLine
 10
-1473.997421345617
 20
1572.2
 30
0.0
 11
-1473.997421345617
 21
1585.0
 31
0.0
  0
LINE
  5
137CB
330
1A
100
AcDbEntity
  8
ZISSEN1
100
AcDbLine
 10
-1488.597421345617
 20
1589.799999999999
 30
0.0
 11
-1473.997421345619
 21
1589.799999999999
 31
0.0
  0
LINE
  5
137CC
330
1A
100
AcDbEntity
  8
ZISSEN1
100
AcDbLine
 10
-1488.597421345617
 20
1589.799999999999
 30
0.0
 11
-1488.597421345617
 21
1585.0
 31
0.0
  0
LINE
  5
137CD
330
1A
100
AcDbEntity
  8
ZISSEN1
100
AcDbLine
 10
-1494.497421345617
 20
1582.0
 30
0.0
 11
-1488.597421345617
 21
1582.0
 31
0.0
  0
LINE
  5
137CE
330
1A
100
AcDbEntity
  8
ZISSEN1
100
AcDbLine
 10
-1470.797421345616
 20
1582.0
 30
0.0
 11
-1473.997421345617
 21
1582.0
 31
0.0
  0
LINE
  5
137CF
330
1A
100
AcDbEntity
  8
ZISSEN1
100
AcDbLine
 10
-1455.697421345615
 20
1569.2
 30
0.0
 11
-1455.697421345615
 21
1582.0
 31
0.0
  0
LINE
  5
137D0
330
1A
100
AcDbEntity
  8
ZISSEN1
100
AcDbLine
 10
-1471.297421345616
 20
1569.2
 30
0.0
 11
-1455.697421345615
 21
1569.2
 31
0.0
  0
LINE
  5
137D1
330
1A
100
AcDbEntity
  8
ZISSEN1
100
AcDbLine
 10
-1418.897236611664
 20
1589.900000000001
 30
0.0
 11
-1418.397236611665
 21
1589.900000000001
 31
0.0
  0
LINE
  5
137D2
330
1A
100
AcDbEntity
  8
ZISSEN1
100
AcDbLine
 10
-1418.397421345614
 20
1589.900000000001
 30
0.0
 11
-1418.397421345614
 21
1581.999999999978
 31
0.0
  0
LINE
  5
137D3
330
1A
100
AcDbEntity
  8
ZISSEN1
100
AcDbLine
 10
-1388.097421345615
 20
1581.999999999936
 30
0.0
 11
-1388.097421345615
 21
1589.900000000001
 31
0.0
  0
LINE
  5
137D4
330
1A
100
AcDbEntity
  8
ZISSEN1
100
AcDbLine
 10
-1397.997421345615
 20
1589.900000000001
 30
0.0
 11
-1397.997421345615
 21
1581.999999999951
 31
0.0
  0
LINE
  5
137D5
330
1A
100
AcDbEntity
  8
ZISSEN1
100
AcDbLine
 10
-1398.497421345615
 20
1589.900000000001
 30
0.0
 11
-1398.497421345615
 21
1581.999999999951
 31
0.0
  0
LINE
  5
137D6
330
1A
100
AcDbEntity
  8
ZISSEN1
100
AcDbLine
 10
-1418.397421345614
 20
1589.900000000001
 30
0.0
 11
-1398.497421345615
 21
1589.900000000001
 31
0.0
  0
LINE
  5
137D7
330
1A
100
AcDbEntity
  8
ZISSEN1
100
AcDbLine
 10
-1397.997421345615
 20
1589.900000000001
 30
0.0
 11
-1388.097421345615
 21
1589.900000000001
 31
0.0
  0
LINE
  5
137D8
330
1A
100
AcDbEntity
  8
ZISSEN1
100
AcDbLine
 10
-1388.096139757004
 20
1586.2
 30
0.0
 11
-1388.096139757004
 21
1582.300000000002
 31
0.0
  0
LINE
  5
137D9
330
1A
100
AcDbEntity
  8
ZISSEN1
100
AcDbLine
 10
-1387.596139757002
 20
1641.299999999999
 30
0.0
 11
-1383.497421345615
 21
1641.299999999999
 31
0.0
  0
LINE
  5
137DA
330
1A
100
AcDbEntity
  8
ZISSEN1
100
AcDbLine
 10
-1385.997421345615
 20
1641.799999999995
 30
0.0
 11
-1385.997421345615
 21
1643.399999999997
 31
0.0
  0
LINE
  5
137DB
330
1A
100
AcDbEntity
  8
ZISSEN1
100
AcDbLine
 10
-1384.997421345615
 20
1641.799999999995
 30
0.0
 11
-1384.997421345615
 21
1643.399999999997
 31
0.0
  0
LINE
  5
137DC
330
1A
100
AcDbEntity
  8
ZISSEN1
100
AcDbLine
 10
-1455.699355307591
 20
1630.799999999999
 30
0.0
 11
-1456.199355307592
 21
1630.799999999999
 31
0.0
  0
LINE
  5
137DD
330
1A
100
AcDbEntity
  8
ZISSEN1
100
AcDbLine
 10
-1470.799355307592
 20
1630.0
 30
0.0
 11
-1473.997421345617
 21
1630.0
 31
0.0
  0
LINE
  5
137DE
330
1A
100
AcDbEntity
  8
ZISSEN1
100
AcDbLine
 10
-1473.997421345617
 20
1630.799999999999
 30
0.0
 11
-1470.799355307592
 21
1630.799999999999
 31
0.0
  0
LINE
  5
137DF
330
1A
100
AcDbEntity
  8
ZISSEN1
100
AcDbLine
 10
-1488.597421345617
 20
1630.799999999999
 30
0.0
 11
-1489.097421345617
 21
1630.799999999999
 31
0.0
  0
LINE
  5
137E0
330
1A
100
AcDbEntity
  8
ZISSEN1
100
AcDbLine
 10
-1489.097421345617
 20
1643.899999999999
 30
0.0
 11
-1489.097421345617
 21
1630.0
 31
0.0
  0
LINE
  5
137E1
330
1A
100
AcDbEntity
  8
ZISSEN1
100
AcDbLine
 10
-1455.699355307591
 20
1630.0
 30
0.0
 11
-1455.699355307591
 21
1643.899999999997
 31
0.0
  0
LINE
  5
137E2
330
1A
100
AcDbEntity
  8
ZISSEN1
100
AcDbLine
 10
-1392.247421345613
 20
1630.0
 30
0.0
 11
-1386.747421345613
 21
1630.0
 31
0.0
  0
LINE
  5
137E3
330
1A
100
AcDbEntity
  8
ZISSEN1
 48
0.4
100
AcDbLine
 10
-1392.247421345613
 20
1629.25
 30
0.0
 11
-1392.247421345613
 21
1630.0
 31
0.0
  0
LINE
  5
137E4
330
1A
100
AcDbEntity
  8
ZISSEN1
 48
0.4
100
AcDbLine
 10
-1386.747421345613
 20
1629.25
 30
0.0
 11
-1386.747421345613
 21
1630.0
 31
0.0
  0
ELLIPSE
  5
137E5
330
1A
100
AcDbEntity
  8
ZISSEN1
 48
0.4
100
AcDbEllipse
 10
-1389.497421345613
 20
1629.25
 30
0.0
 11
-2.75
 21
0.0000000000000025
 31
0.0
210
0.0
220
0.0
230
1.0
 40
0.3090909090909173
 41
6.283185307179586
 42
9.424777960769379
  0
LINE
  5
137E6
330
1A
100
AcDbEntity
  8
ZISSEN1
100
AcDbLine
 10
-1376.997421345615
 20
1653.899999999999
 30
0.0
 11
-1375.997421345615
 21
1652.899999999999
 31
0.0
  0
LINE
  5
137E7
330
1A
100
AcDbEntity
  8
ZISSEN1
100
AcDbLine
 10
-1376.997421345615
 20
1653.899999999999
 30
0.0
 11
-1382.497421345615
 21
1653.899999999999
 31
0.0
  0
LINE
  5
137E8
330
1A
100
AcDbEntity
  8
ZISSEN1
100
AcDbLine
 10
-1384.297421345614
 20
1630.799999999999
 30
0.0
 11
-1383.497421345615
 21
1630.799999999999
 31
0.0
  0
LINE
  5
137E9
330
1A
100
AcDbEntity
  8
ZISSEN1
100
AcDbLine
 10
-1383.497421345615
 20
1630.799999999999
 30
0.0
 11
-1383.497421345615
 21
1630.0
 31
0.0
  0
LINE
  5
137EB
330
1A
100
AcDbEntity
  8
ZISSEN1
100
AcDbLine
 10
-1384.297421345614
 20
1633.799999999999
 30
0.0
 11
-1383.497421345615
 21
1633.799999999999
 31
0.0
  0
LINE
  5
137EC
330
1A
100
AcDbEntity
  8
ZISSEN1
100
AcDbLine
 10
-1384.297421345614
 20
1633.799999999999
 30
0.0
 11
-1384.297421345614
 21
1631.299999999999
 31
0.0
  0
LINE
  5
137ED
330
1A
100
AcDbEntity
  8
ZISSEN1
100
AcDbLine
 10
-1375.997421345615
 20
1631.0
 30
0.0
 11
-1375.997421345615
 21
1634.25
 31
0.0
  0
LINE
  5
137EF
330
1A
100
AcDbEntity
  8
ZISSEN1
100
AcDbLine
 10
-1494.497421345615
 20
1630.799999999999
 30
0.0
 11
-1493.697421345616
 21
1630.799999999999
 31
0.0
  0
LINE
  5
137F0
330
1A
100
AcDbEntity
  8
ZISSEN1
100
AcDbLine
 10
-1494.497421345615
 20
1630.799999999999
 30
0.0
 11
-1494.497421345615
 21
1629.999999999996
 31
0.0
  0
LINE
  5
137F1
330
1A
100
AcDbEntity
  8
ZISSEN1
100
AcDbLine
 10
-1494.497421345615
 20
1633.799999999999
 30
0.0
 11
-1493.697421345616
 21
1633.799999999999
 31
0.0
  0
LINE
  5
137F2
330
1A
100
AcDbEntity
  8
ZISSEN1
100
AcDbLine
 10
-1493.697421345616
 20
1629.999999999996
 30
0.0
 11
-1493.697421345616
 21
1633.799999999999
 31
0.0
  0
LINE
  5
137F4
330
1A
100
AcDbEntity
  8
ZISSEN1
100
AcDbLine
 10
-1499.0
 20
1653.899999999999
 30
0.0
 11
-1500.0
 21
1652.899999999999
 31
0.0
  0
LINE
  5
137F5
330
1A
100
AcDbEntity
  8
ZISSEN1
100
AcDbLine
 10
-1500.0
 20
1631.0
 30
0.0
 11
-1500.0
 21
1634.25
 31
0.0
  0
LINE
  5
137F7
330
1A
100
AcDbEntity
  8
ZISSEN1
100
AcDbLine
 10
-1499.0
 20
1630.0
 30
0.0
 11
-1500.0
 21
1631.0
 31
0.0
  0
LINE
  5
137F8
330
1A
100
AcDbEntity
  8
ZISSEN1
100
AcDbLine
 10
-1494.497421345617
 20
1536.199999999999
 30
0.0
 11
-1498.000000000001
 21
1536.199999999999
 31
0.0
  0
LINE
  5
137F9
330
1A
100
AcDbEntity
  8
ZISSEN1
100
AcDbLine
 10
-1496.497421345615
 20
1657.399999999999
 30
0.0
 11
-1494.497421345615
 21
1657.399999999999
 31
0.0
  0
LINE
  5
137FA
330
1A
100
AcDbEntity
  8
ZISSEN1
100
AcDbLine
 10
-1494.497421345615
 20
1667.0
 30
0.0
 11
-1496.497421345615
 21
1667.0
 31
0.0
  0
LINE
  5
137FB
330
1A
100
AcDbEntity
  8
ZISSEN1
100
AcDbLine
 10
-1440.497421345615
 20
1655.899999999999
 30
0.0
 11
-1494.497421345615
 21
1655.899999999999
 31
0.0
  0
LINE
  5
137FC
330
1A
100
AcDbEntity
  8
ZISSEN1
100
AcDbLine
 10
-1383.497421345615
 20
1669.0
 30
0.0
 11
-1382.497421345615
 21
1668.0
 31
0.0
  0
LINE
  5
137FD
330
1A
100
AcDbEntity
  8
ZISSEN1
100
AcDbLine
 10
-1384.792687346664
 20
1669.0
 30
0.0
 11
-1383.497421345615
 21
1669.0
 31
0.0
  0
LINE
  5
137FE
330
1A
100
AcDbEntity
  8
ZISSEN1
100
AcDbLine
 10
-1494.5
 20
1510.0
 30
0.0
 11
-1496.5
 21
1510.0
 31
0.0
  0
LINE
  5
137FF
330
1A
100
AcDbEntity
  8
ZISSEN1
100
AcDbLine
 10
-1496.5
 20
1511.0
 30
0.0
 11
-1496.5
 21
1503.900000000001
 31
0.0
  0
LINE
  5
13800
330
1A
100
AcDbEntity
  8
ZISSEN1
100
AcDbLine
 10
-1494.5
 20
1511.0
 30
0.0
 11
-1496.5
 21
1511.0
 31
0.0
  0
LINE
  5
13801
330
1A
100
AcDbEntity
  8
ZISSEN1
100
AcDbLine
 10
-1494.5
 20
1511.0
 30
0.0
 11
-1494.5
 21
1503.672577366582
 31
0.0
  0
LINE
  5
13802
330
1A
100
AcDbEntity
  8
ZISSEN1
100
AcDbLine
 10
-1456.197421345616
 20
1582.497376548877
 30
0.0
 11
-1450.397421345615
 21
1582.497040056539
 31
0.0
  0
LINE
  5
13803
330
1A
100
AcDbEntity
  8
ZISSEN1
100
AcDbLine
 10
-1493.202190259333
 20
1668.0
 30
0.0
 11
-1493.697421345616
 21
1668.0
 31
0.0
  0
LINE
  5
13804
330
1A
100
AcDbEntity
  8
ZISSEN1
100
AcDbLine
 10
-1496.497421345615
 20
1668.0
 30
0.0
 11
-1496.497421345615
 21
1656.399999999999
 31
0.0
  0
LINE
  5
13805
330
1A
100
AcDbEntity
  8
ZISSEN1
100
AcDbLine
 10
-1493.697421345616
 20
1668.0
 30
0.0
 11
-1496.497421345615
 21
1668.0
 31
0.0
  0
LINE
  5
13806
330
1A
100
AcDbEntity
  8
ZISSEN1
100
AcDbLine
 10
-1496.497421345615
 20
1656.399999999999
 30
0.0
 11
-1494.497421345615
 21
1656.399999999999
 31
0.0
  0
LINE
  5
13807
330
1A
100
AcDbEntity
  8
ZISSEN1
100
AcDbLine
 10
-1470.797421345616
 20
1585.0
 30
0.0
 11
-1470.797421345616
 21
1572.2
 31
0.0
  0
LINE
  5
13808
330
1A
100
AcDbEntity
  8
ZISSEN1
100
AcDbLine
 10
-1456.197421345616
 20
1572.2
 30
0.0
 11
-1456.197421345616
 21
1585.0
 31
0.0
  0
LINE
  5
13809
330
1A
100
AcDbEntity
  8
ZISSEN1
100
AcDbLine
 10
-1470.797421345616
 20
1572.2
 30
0.0
 11
-1456.197421345616
 21
1572.2
 31
0.0
  0
LINE
  5
1380A
330
1A
100
AcDbEntity
  8
ZISSEN1
100
AcDbLine
 10
-1456.197421345616
 20
1589.799999999999
 30
0.0
 11
-1456.197421345616
 21
1585.0
 31
0.0
  0
LINE
  5
1380B
330
1A
100
AcDbEntity
  8
ZISSEN1
100
AcDbLine
 10
-1470.797421345616
 20
1589.799999999999
 30
0.0
 11
-1470.797421345616
 21
1585.0
 31
0.0
  0
LINE
  5
1380C
330
1A
100
AcDbEntity
  8
ZISSEN1
100
AcDbLine
 10
-1489.497421345617
 20
1504.0
 30
0.0
 11
-1388.497421345617
 21
1503.999999999998
 31
0.0
  0
DIMENSION
  5
1380D
330
1A
100
AcDbEntity
  8
SUNPOU
100
AcDbDimension
  2
*D3
 10
-1496.497421345615
 20
1686.061375839192
 30
0.0
 11
-1439.497421345615
 21
1688.436375839192
 31
0.0
 70
    32
  3
ISO-25
100
AcDbAlignedDimension
 13
-1382.497421345615
 23
1668.0
 33
0.0
 14
-1496.497421345615
 24
1668.0
 34
0.0
100
AcDbRotatedDimension
1001
ACAD
1000
DSTYLE
1002
{
1070
   140
1040
3.5
1002
}
  0
LINE
  5
1380E
330
1A
100
AcDbEntity
  8
ZISSEN1
100
AcDbLine
 10
-1491.997421345615
 20
1505.5
 30
0.0
 11
-1490.330754678949
 21
1505.5
 31
0.0
  0
LINE
  5
1380F
330
1A
100
AcDbEntity
  8
ZISSEN1
100
AcDbLine
 10
-1450.898238802998
 20
1637.949999999997
 30
0.0
 11
-1435.697236611664
 21
1637.949999999997
 31
0.0
  0
LINE
  5
13810
330
1A
100
AcDbEntity
  8
ZISSEN1
100
AcDbLine
 10
-1449.397421345615
 20
1589.900000000001
 30
0.0
 11
-1434.697236611664
 21
1589.900000000001
 31
0.0
  0
DIMENSION
  5
13811
330
1A
100
AcDbEntity
  8
SUNPOU
100
AcDbDimension
  2
*D4
 10
-1500.0
 20
1613.562690579598
 30
0.0
 11
-1437.998710672807
 21
1615.937690579598
 31
0.0
 70
    32
  3
ISO-25
100
AcDbAlignedDimension
 13
-1375.997421345615
 23
1631.0
 33
0.0
 14
-1500.0
 24
1631.0
 34
0.0
100
AcDbRotatedDimension
1001
ACAD
1000
DSTYLE
1002
{
1070
   140
1040
3.5
1002
}
  0
MTEXT
  5
13812
330
1A
100
AcDbEntity
  8
ZISSEN1
  6
BYBLOCK
100
AcDbMText
 10
-1431.339056117085
 20
1622.998206111089
 30
0.0
 40
3.0
 41
28.41066376571898
 71
     1
 72
     5
  1
{\fＭＳ ゴシック|b0|i0|c128|p49;(USER取付寸法)}
  7
ｽﾀｲﾙ2
1001
ACAD
1000
MTEXTBEGIN
1070
    73
1070
     1
1070
    44
1040
1.0
1070
    74
1070
     0
1000
MTEXTEND
  0
DIMENSION
  5
13813
330
1A
100
AcDbEntity
  8
SUNPOU
100
AcDbDimension
  2
*D5
 10
-1496.499999999996
 20
1618.930615911591
 30
0.0
 11
-1438.498710672805
 21
1621.305615911591
 31
0.0
 70
    32
  3
ISO-25
100
AcDbAlignedDimension
 13
-1380.497421345615
 23
1634.249999999997
 33
0.0
 14
-1496.499999999996
 24
1635.999999999996
 34
0.0
100
AcDbRotatedDimension
1001
ACAD
1000
DSTYLE
1002
{
1070
   140
1040
3.5
1002
}
  0
LINE
  5
13814
330
1A
100
AcDbEntity
  8
ZISSEN1
100
AcDbLine
 10
-1491.997421345615
 20
1655.399999999997
 30
0.0
 11
-1491.997421345615
 21
1655.899999999998
 31
0.0
  0
LINE
  5
13815
330
1A
100
AcDbEntity
  8
ZISSEN1
100
AcDbLine
 10
-1385.997421345615
 20
1655.899999999998
 30
0.0
 11
-1385.997421345615
 21
1655.399999999997
 31
0.0
  0
LINE
  5
13816
330
1A
100
AcDbEntity
  8
ZISSEN1
100
AcDbLine
 10
-1384.997421345615
 20
1655.399999999997
 30
0.0
 11
-1384.997421345615
 21
1655.399999999997
 31
0.0
  0
LINE
  5
13817
330
1A
100
AcDbEntity
  8
ZISSEN1
100
AcDbLine
 10
-1384.997421345615
 20
1655.899999999998
 30
0.0
 11
-1384.997421345615
 21
1655.099980999999
 31
0.0
  0
LINE
  5
13818
330
1A
100
AcDbEntity
  8
ZISSEN1
100
AcDbLine
 10
-1384.997421345615
 20
1655.399999999997
 30
0.0
 11
-1492.997421345615
 21
1655.399999999997
 31
0.0
  0
LINE
  5
13819
330
1A
100
AcDbEntity
  8
ZISSEN1
100
AcDbLine
 10
-1492.997421345615
 20
1665.0
 30
0.0
 11
-1384.997421345615
 21
1665.0
 31
0.0
  0
LINE
  5
1381A
330
1A
100
AcDbEntity
  8
ZISSEN1
100
AcDbLine
 10
-1384.997421345615
 20
1665.0
 30
0.0
 11
-1384.997421345615
 21
1664.5
 31
0.0
  0
LINE
  5
1381C
330
1A
100
AcDbEntity
  8
ZISSEN1
100
AcDbLine
 10
-1385.997421345615
 20
1665.0
 30
0.0
 11
-1385.997421345615
 21
1664.5
 31
0.0
  0
LINE
  5
1381D
330
1A
100
AcDbEntity
  8
ZISSEN1
100
AcDbLine
 10
-1491.997421345615
 20
1664.5
 30
0.0
 11
-1491.997421345615
 21
1665.0
 31
0.0
  0
LINE
  5
1381E
330
1A
100
AcDbEntity
  8
ZISSEN1
  6
BYBLOCK
100
AcDbLine
 10
-1432.897236611665
 20
1641.799999999995
 30
0.0
 11
-1434.697236611664
 21
1641.799999999995
 31
0.0
  0
LINE
  5
1381F
330
1A
100
AcDbEntity
  8
ZISSEN1
100
AcDbLine
 10
-1418.897236611664
 20
1641.799999999995
 30
0.0
 11
-1418.897236611664
 21
1634.099999999998
 31
0.0
  0
LINE
  5
13820
330
1A
100
AcDbEntity
  8
ZISSEN1
100
AcDbLine
 10
-1434.697236611664
 20
1641.799999999997
 30
0.0
 11
-1434.697236611664
 21
1634.099999999998
 31
0.0
  0
LINE
  5
13821
330
1A
100
AcDbEntity
  8
ZISSEN1
100
AcDbLine
 10
-1418.897236611664
 20
1634.099999999998
 30
0.0
 11
-1434.697236611664
 21
1634.099999999998
 31
0.0
  0
LINE
  5
13822
330
1A
100
AcDbEntity
  8
ZISSEN1
  6
BYBLOCK
100
AcDbLine
 10
-1421.097236611665
 20
1641.799999999995
 30
0.0
 11
-1418.897236611664
 21
1641.799999999995
 31
0.0
  0
LINE
  5
13823
330
1A
100
AcDbEntity
  8
ZISSEN1
100
AcDbLine
 10
-1488.597421345617
 20
1641.799999999999
 30
0.0
 11
-1488.597421345617
 21
1629.899999999997
 31
0.0
  0
LINE
  5
13824
330
1A
100
AcDbEntity
  8
ZISSEN1
100
AcDbLine
 10
-1473.997421345617
 20
1629.899999999997
 30
0.0
 11
-1473.997421345617
 21
1641.799999999999
 31
0.0
  0
LINE
  5
13825
330
1A
100
AcDbEntity
  8
ZISSEN1
100
AcDbLine
 10
-1455.699355307591
 20
1641.799999999999
 30
0.0
 11
-1489.097421345617
 21
1641.799999999999
 31
0.0
  0
LINE
  5
13826
330
1A
100
AcDbEntity
  8
ZISSEN1
100
AcDbLine
 10
-1488.597421345617
 20
1629.899999999997
 30
0.0
 11
-1473.997421345617
 21
1629.899999999997
 31
0.0
  0
LINE
  5
13827
330
1A
100
AcDbEntity
  8
ZISSEN1
100
AcDbLine
 10
-1470.799355307592
 20
1629.899999999997
 30
0.0
 11
-1456.199355307592
 21
1629.899999999997
 31
0.0
  0
LINE
  5
13828
330
1A
100
AcDbEntity
  8
ZISSEN1
100
AcDbLine
 10
-1456.199355307592
 20
1629.899999999997
 30
0.0
 11
-1456.199355307592
 21
1641.799999999999
 31
0.0
  0
LINE
  5
13829
330
1A
100
AcDbEntity
  8
ZISSEN1
100
AcDbLine
 10
-1470.799355307592
 20
1641.799999999999
 30
0.0
 11
-1470.799355307592
 21
1629.899999999997
 31
0.0
  0
LINE
  5
1382A
330
1A
100
AcDbEntity
  8
ZISSEN1
100
AcDbLine
 10
-1388.096139757002
 20
1635.099999999998
 30
0.0
 11
-1397.996139757004
 21
1635.099999999998
 31
0.0
  0
LINE
  5
1382B
330
1A
100
AcDbEntity
  8
ZISSEN1
100
AcDbLine
 10
-1388.096139757002
 20
1635.099999999998
 30
0.0
 11
-1388.096139757002
 21
1641.799999999999
 31
0.0
  0
LINE
  5
1382C
330
1A
100
AcDbEntity
  8
ZISSEN1
100
AcDbLine
 10
-1397.996139757004
 20
1641.799999999999
 30
0.0
 11
-1397.996139757004
 21
1635.099999999998
 31
0.0
  0
LINE
  5
1382D
330
1A
100
AcDbEntity
  8
ZISSEN1
100
AcDbLine
 10
-1398.497236611667
 20
1635.099999999998
 30
0.0
 11
-1398.497236611667
 21
1641.799999999999
 31
0.0
  0
LINE
  5
1382E
330
1A
100
AcDbEntity
  8
ZISSEN1
100
AcDbLine
 10
-1418.397236611665
 20
1641.799999999999
 30
0.0
 11
-1418.397236611665
 21
1635.099999999998
 31
0.0
  0
LINE
  5
1382F
330
1A
100
AcDbEntity
  8
ZISSEN1
100
AcDbLine
 10
-1416.247236611663
 20
1641.799999999999
 30
0.0
 11
-1415.647236611665
 21
1641.799999999999
 31
0.0
  0
LINE
  5
13830
330
1A
100
AcDbEntity
  8
ZISSEN1
100
AcDbLine
 10
-1418.397236611665
 20
1635.099999999998
 30
0.0
 11
-1398.497236611667
 21
1635.099999999998
 31
0.0
  0
LINE
  5
13831
330
1A
100
AcDbEntity
  8
ZISSEN1
  6
CONTINUOUS
100
AcDbLine
 10
-1384.792687346664
 20
1646.899999999997
 30
0.0
 11
-1437.102183346665
 21
1646.899999999997
 31
0.0
  0
LINE
  5
13832
330
1A
100
AcDbEntity
  8
ZISSEN1
  6
CONTINUOUS
100
AcDbLine
 10
-1384.792687346664
 20
1646.899999999997
 30
0.0
 11
-1384.792687346664
 21
1655.099980999999
 31
0.0
  0
LINE
  5
13833
330
1A
100
AcDbEntity
  8
ZISSEN1
  6
CONTINUOUS
100
AcDbLine
 10
-1437.102183346665
 20
1646.899999999997
 30
0.0
 11
-1437.102183346665
 21
1655.099980999999
 31
0.0
  0
LINE
  5
13834
330
1A
100
AcDbEntity
  8
ZISSEN1
  6
CONTINUOUS
100
AcDbLine
 10
-1437.102183346665
 20
1655.099980999999
 30
0.0
 11
-1384.792687346664
 21
1655.099980999999
 31
0.0
  0
LINE
  5
13835
330
1A
100
AcDbEntity
  8
ZISSEN1
  6
CONTINUOUS
100
AcDbLine
 10
-1440.892694259331
 20
1646.899999999997
 30
0.0
 11
-1493.202190259333
 21
1646.899999999997
 31
0.0
  0
LINE
  5
13836
330
1A
100
AcDbEntity
  8
ZISSEN1
  6
CONTINUOUS
100
AcDbLine
 10
-1440.892694259331
 20
1655.099980999999
 30
0.0
 11
-1493.202190259333
 21
1655.099980999999
 31
0.0
  0
LINE
  5
13837
330
1A
100
AcDbEntity
  8
ZISSEN1
  6
CONTINUOUS
100
AcDbLine
 10
-1440.892694259331
 20
1646.899999999997
 30
0.0
 11
-1440.892694259331
 21
1655.099980999999
 31
0.0
  0
LINE
  5
13838
330
1A
100
AcDbEntity
  8
ZISSEN1
  6
CONTINUOUS
100
AcDbLine
 10
-1493.202190259333
 20
1646.899999999997
 30
0.0
 11
-1493.202190259333
 21
1655.099980999999
 31
0.0
  0
LINE
  5
13839
330
1A
100
AcDbEntity
  8
ZISSEN1
  6
CONTINUOUS
100
AcDbLine
 10
-1493.202190259333
 20
1673.499999999999
 30
0.0
 11
-1440.892694259331
 21
1673.499999999999
 31
0.0
  0
LINE
  5
1383A
330
1A
100
AcDbEntity
  8
ZISSEN1
  6
CONTINUOUS
100
AcDbLine
 10
-1493.202190259333
 20
1665.300018999998
 30
0.0
 11
-1440.892694259331
 21
1665.300018999998
 31
0.0
  0
LINE
  5
1383B
330
1A
100
AcDbEntity
  8
ZISSEN1
  6
CONTINUOUS
100
AcDbLine
 10
-1493.202190259333
 20
1673.499999999999
 30
0.0
 11
-1493.202190259333
 21
1665.300018999998
 31
0.0
  0
LINE
  5
1383C
330
1A
100
AcDbEntity
  8
ZISSEN1
  6
CONTINUOUS
100
AcDbLine
 10
-1440.892694259331
 20
1673.499999999999
 30
0.0
 11
-1440.892694259331
 21
1665.300018999998
 31
0.0
  0
LINE
  5
1383D
330
1A
100
AcDbEntity
  8
ZISSEN1
  6
CONTINUOUS
100
AcDbLine
 10
-1437.102183346665
 20
1665.300018999998
 30
0.0
 11
-1384.792687346664
 21
1665.300018999998
 31
0.0
  0
LINE
  5
1383E
330
1A
100
AcDbEntity
  8
ZISSEN1
  6
CONTINUOUS
100
AcDbLine
 10
-1437.102183346665
 20
1673.499999999999
 30
0.0
 11
-1437.102183346665
 21
1665.300018999998
 31
0.0
  0
LINE
  5
1383F
330
1A
100
AcDbEntity
  8
ZISSEN1
  6
CONTINUOUS
100
AcDbLine
 10
-1384.792687346664
 20
1673.499999999999
 30
0.0
 11
-1384.792687346664
 21
1665.300018999998
 31
0.0
  0
LINE
  5
13840
330
1A
100
AcDbEntity
  8
ZISSEN1
  6
CONTINUOUS
100
AcDbLine
 10
-1384.792687346664
 20
1673.499999999999
 30
0.0
 11
-1437.102183346665
 21
1673.499999999999
 31
0.0
  0
LINE
  5
13841
330
1A
100
AcDbEntity
  8
ZISSEN1
100
AcDbLine
 10
-1437.111383346666
 20
1670.0
 30
0.0
 11
-1440.88509425933
 21
1670.0
 31
0.0
  0
LINE
  5
13842
330
1A
100
AcDbEntity
  8
ZISSEN1
100
AcDbLine
 10
-1437.111383346666
 20
1672.0
 30
0.0
 11
-1440.88509425933
 21
1672.0
 31
0.0
  0
LINE
  5
13843
330
1A
100
AcDbEntity
  8
ZISSEN1
100
AcDbLine
 10
-1383.497421345615
 20
1668.0
 30
0.0
 11
-1384.297421345614
 21
1668.0
 31
0.0
  0
LINE
  5
13844
330
1A
100
AcDbEntity
  8
ZISSEN1
100
AcDbLine
 10
-1382.497421345615
 20
1668.0
 30
0.0
 11
-1382.497421345615
 21
1653.899999999999
 31
0.0
  0
LINE
  5
13845
330
1A
100
AcDbEntity
  8
ZISSEN1
100
AcDbLine
 10
-1384.297421345614
 20
1668.0
 30
0.0
 11
-1384.297421345614
 21
1664.5
 31
0.0
  0
LINE
  5
13846
330
1A
100
AcDbEntity
  8
ZISSEN1
  6
CONTINUOUS
100
AcDbLine
 10
-1450.898238802998
 20
1646.399999999997
 30
0.0
 11
-1494.497421345615
 21
1646.399999999997
 31
0.0
  0
LINE
  5
13847
330
1A
100
AcDbEntity
  8
ZISSEN1
  6
CONTINUOUS
100
AcDbLine
 10
-1494.497421345615
 20
1633.799999999999
 30
0.0
 11
-1494.497421345615
 21
1668.0
 31
0.0
  0
LINE
  5
13848
330
1A
100
AcDbEntity
  8
ZISSEN1
100
AcDbLine
 10
-1493.697421345616
 20
1668.0
 30
0.0
 11
-1493.697421345616
 21
1664.5
 31
0.0
  0
LINE
  5
13849
330
1A
100
AcDbEntity
  8
ZISSEN1
100
AcDbLine
 10
-1493.697421345616
 20
1655.899999999998
 30
0.0
 11
-1493.697421345616
 21
1646.399999999997
 31
0.0
  0
LINE
  5
1384A
330
1A
100
AcDbEntity
  8
ZISSEN1
100
AcDbLine
 10
-1435.697236611664
 20
1633.899999999997
 30
0.0
 11
-1435.697236611664
 21
1637.949999999997
 31
0.0
  0
LINE
  5
1384B
330
1A
100
AcDbEntity
  8
ZISSEN1
100
AcDbLine
 10
-1488.049999999997
 20
1643.900000000001
 30
0.0
 11
-1489.097421345617
 21
1643.900000000001
 31
0.0
  0
LINE
  5
1384C
330
1A
100
AcDbEntity
  8
ZISSEN1
100
AcDbLine
 10
-1384.297421345614
 20
1655.899999999998
 30
0.0
 11
-1384.297421345614
 21
1641.299999999999
 31
0.0
  0
LINE
  5
1384D
330
1A
100
AcDbEntity
  8
ZISSEN1
100
AcDbLine
 10
-1387.596139757002
 20
1633.899999999997
 30
0.0
 11
-1387.596139757002
 21
1641.299999999999
 31
0.0
  0
LINE
  5
1384E
330
1A
100
AcDbEntity
  8
ZISSEN1
100
AcDbLine
 10
-1384.997421345615
 20
1641.799999999999
 30
0.0
 11
-1450.898238802998
 21
1641.799999999995
 31
0.0
  0
LINE
  5
1384F
330
1A
100
AcDbEntity
  8
ZISSEN1
100
AcDbLine
 10
-1384.997421345615
 20
1643.399999999997
 30
0.0
 11
-1450.898238802998
 21
1643.399999999997
 31
0.0
  0
LINE
  5
13850
330
1A
100
AcDbEntity
  8
ZISSEN1
100
AcDbLine
 10
-1492.997421345615
 20
1655.099980999999
 30
0.0
 11
-1492.997421345615
 21
1655.899999999998
 31
0.0
  0
LINE
  5
13851
330
1A
100
AcDbEntity
  8
ZISSEN1
100
AcDbLine
 10
-1492.997421345615
 20
1664.5
 30
0.0
 11
-1492.997421345615
 21
1665.0
 31
0.0
  0
LINE
  5
13852
330
1A
100
AcDbEntity
  8
ZISSEN1
100
AcDbLine
 10
-1492.997421345615
 20
1665.300018999998
 30
0.0
 11
-1492.997421345615
 21
1664.5
 31
0.0
  0
LINE
  5
13854
330
1A
100
AcDbEntity
  8
ZISSEN1
100
AcDbLine
 10
-1383.497421345615
 20
1667.0
 30
0.0
 11
-1384.297421345614
 21
1667.0
 31
0.0
  0
LINE
  5
13855
330
1A
100
AcDbEntity
  8
ZISSEN1
100
AcDbLine
 10
-1494.497421345615
 20
1667.0
 30
0.0
 11
-1493.202190259333
 21
1667.0
 31
0.0
  0
LINE
  5
13856
330
1A
100
AcDbEntity
  8
ZISSEN1
100
AcDbLine
 10
-1403.347421345617
 20
1664.5
 30
0.0
 11
-1383.497421345615
 21
1664.5
 31
0.0
  0
LINE
  5
13857
330
1A
100
AcDbEntity
  8
ZISSEN1
100
AcDbLine
 10
-1383.497421345615
 20
1668.0
 30
0.0
 11
-1383.497421345615
 21
1631.299999999999
 31
0.0
  0
LINE
  5
13858
330
1A
100
AcDbEntity
  8
ZISSEN1
100
AcDbLine
 10
-1494.497421345617
 20
1515.0
 30
0.0
 11
-1494.497421345617
 21
1582.0
 31
0.0
  0
LINE
  5
13859
330
1A
100
AcDbEntity
  8
ZISSEN1
100
AcDbLine
 10
-1499.0
 20
1500.0
 30
0.0
 11
-1499.0
 21
1502.0
 31
0.0
  0
LINE
  5
1385A
330
1A
100
AcDbEntity
  8
ZISSEN1
100
AcDbLine
 10
-1500.0
 20
1500.0
 30
0.0
 11
-1500.0
 21
1502.0
 31
0.0
  0
LINE
  5
1385B
330
1A
100
AcDbEntity
  8
ZISSEN1
100
AcDbLine
 10
-1384.997421345617
 20
1510.299999999999
 30
0.0
 11
-1384.997421345617
 21
1502.0
 31
0.0
  0
LINE
  5
1385C
330
1A
100
AcDbEntity
  8
ZISSEN1
100
AcDbLine
 10
-1383.497421345617
 20
1513.0
 30
0.0
 11
-1383.497421345617
 21
1581.999999999931
 31
0.0
  0
LINE
  5
1385D
330
1A
100
AcDbEntity
  8
ZISSEN1
100
AcDbLine
 10
-1377.0
 20
1502.0
 30
0.0
 11
-1377.0
 21
1500.0
 31
0.0
  0
LINE
  5
1385E
330
1A
100
AcDbEntity
  8
ZISSEN1
100
AcDbLine
 10
-1473.997421345617
 20
1589.799999999999
 30
0.0
 11
-1473.997421345617
 21
1585.0
 31
0.0
  0
LINE
  5
1385F
330
1A
100
AcDbEntity
  8
ZISSEN1
100
AcDbLine
 10
-1470.797421345616
 20
1589.799999999999
 30
0.0
 11
-1456.197421345617
 21
1589.799999999999
 31
0.0
  0
LINE
  5
13860
330
1A
100
AcDbEntity
  8
ZISSEN1
100
AcDbLine
 10
-1434.697421345614
 20
1589.900000000001
 30
0.0
 11
-1418.897421345614
 21
1589.900000000001
 31
0.0
  0
LINE
  5
13861
330
1A
100
AcDbEntity
  8
ZISSEN1
100
AcDbLine
 10
-1434.697421345614
 20
1589.900000000001
 30
0.0
 11
-1434.697236611664
 21
1582.0
 31
0.0
  0
LINE
  5
13862
330
1A
100
AcDbEntity
  8
ZISSEN1
100
AcDbLine
 10
-1418.897421345614
 20
1581.999999999978
 30
0.0
 11
-1418.897421345614
 21
1589.900000000001
 31
0.0
  0
LINE
  5
13863
330
1A
100
AcDbEntity
  8
ZISSEN1
100
AcDbLine
 10
-1434.697236611664
 20
1582.0
 30
0.0
 11
-1456.197421345616
 21
1582.0
 31
0.0
  0
ARC
  5
13864
330
1A
100
AcDbEntity
  8
ZISSEN1
100
AcDbCircle
 10
-1384.997421345615
 20
1505.5
 30
0.0
 40
1.0
100
AcDbArc
 50
90.0
 51
180.0
  0
ARC
  5
13865
330
1A
100
AcDbEntity
  8
ZISSEN1
100
AcDbCircle
 10
-1492.997421345615
 20
1505.5
 30
0.0
 40
1.0
100
AcDbArc
 50
0.0
 51
90.0
  0
LINE
  5
13866
330
1A
100
AcDbEntity
  8
ZISSEN1
100
AcDbLine
 10
-1500.0
 20
1502.0
 30
0.0
 11
-1376.0
 21
1502.0
 31
0.0
  0
LINE
  5
13867
330
1A
100
AcDbEntity
  8
ZISSEN1
100
AcDbLine
 10
-1376.0
 20
1500.0
 30
0.0
 11
-1500.0
 21
1500.0
 31
0.0
  0
LINE
  5
13868
330
1A
100
AcDbEntity
  8
ZISSEN1
100
AcDbLine
 10
-1376.0
 20
1502.0
 30
0.0
 11
-1376.0
 21
1500.0
 31
0.0
  0
CIRCLE
  5
13869
330
1A
100
AcDbEntity
  8
ZISSEN1
100
AcDbCircle
 10
-1389.497421345615
 20
1509.0
 30
0.0
 40
2.75
  0
LINE
  5
1386A
330
1A
100
AcDbEntity
  8
ZISSEN1
100
AcDbLine
 10
-1473.997421345617
 20
1582.499719799867
 30
0.0
 11
-1470.797421345616
 21
1582.499155541925
 31
0.0
  0
LINE
  5
1386B
330
1A
100
AcDbEntity
  8
ZISSEN1
100
AcDbLine
 10
-1494.497421345617
 20
1513.0
 30
0.0
 11
-1489.497421345617
 21
1504.0
 31
0.0
  0
LINE
  5
1386C
330
1A
100
AcDbEntity
  8
ZISSEN1
100
AcDbLine
 10
-1492.997421345617
 20
1510.299999999999
 30
0.0
 11
-1492.997421345617
 21
1502.0
 31
0.0
  0
LINE
  5
1386D
330
1A
100
AcDbEntity
  8
ZISSEN1
100
AcDbLine
 10
-1388.497421345617
 20
1503.999999999998
 30
0.0
 11
-1383.497421345617
 21
1513.0
 31
0.0
  0
LINE
  5
1386E
330
1A
100
AcDbEntity
  8
ZISSEN1
100
AcDbLine
 10
-1383.997421345617
 20
1502.0
 30
0.0
 11
-1383.931921994126
 21
1512.217898832683
 31
0.0
  0
LINE
  5
1386F
330
1A
100
AcDbEntity
  8
ZISSEN1
100
AcDbLine
 10
-1384.741260515526
 20
1510.761089494162
 30
0.0
 11
-1384.797421345616
 21
1502.0
 31
0.0
  0
LINE
  5
13870
330
1A
100
AcDbEntity
  8
ZISSEN1
100
AcDbLine
 10
-1435.697236611664
 20
1633.899999999997
 30
0.0
 11
-1387.596139757002
 21
1633.899999999997
 31
0.0
  0
LINE
  5
13871
330
1A
100
AcDbEntity
  8
ZISSEN1
100
AcDbLine
 10
-1434.697236611664
 20
1582.0
 30
0.0
 11
-1383.497421345617
 21
1581.999999999931
 31
0.0
  0
LINE
  5
13872
330
1A
100
AcDbEntity
  8
ZISSEN1
 48
0.4
100
AcDbLine
 10
-1570.75
 20
1561.249999999996
 30
0.0
 11
-1570.0
 21
1561.249999999996
 31
0.0
  0
ELLIPSE
  5
13873
330
1A
100
AcDbEntity
  8
ZISSEN1
 48
0.4
100
AcDbEllipse
 10
-1570.75
 20
1563.999999999996
 30
0.0
 11
-0.000000000000001
 21
2.75
 31
0.0
210
0.0
220
0.0
230
1.0
 40
0.3090909090909173
 41
6.283185307179586
 42
9.424777960769379
  0
LINE
  5
13874
330
1A
100
AcDbEntity
  8
ZISSEN1
 48
0.4
100
AcDbLine
 10
-1570.75
 20
1566.749999999996
 30
0.0
 11
-1570.0
 21
1566.749999999996
 31
0.0
  0
LINE
  5
13875
330
1A
100
AcDbEntity
  8
ZISSEN1
100
AcDbLine
 10
-1437.497421345615
 20
1663.399999999999
 30
0.0
 11
-1440.497421345615
 21
1663.399999999999
 31
0.0
  0
LINE
  5
13876
330
1A
100
AcDbEntity
  8
ZISSEN1
100
AcDbLine
 10
-1437.497421345615
 20
1657.0
 30
0.0
 11
-1440.497421345615
 21
1657.0
 31
0.0
  0
LINE
  5
13877
330
1A
100
AcDbEntity
  8
ZISSEN1
100
AcDbLine
 10
-1437.997421345615
 20
1655.399999999999
 30
0.0
 11
-1439.997421345615
 21
1655.399999999999
 31
0.0
  0
LINE
  5
13878
330
1A
100
AcDbEntity
  8
ZISSEN1
100
AcDbLine
 10
-1439.997421345615
 20
1655.399999999999
 30
0.0
 11
-1439.997421345615
 21
1657.0
 31
0.0
  0
LINE
  5
13879
330
1A
100
AcDbEntity
  8
ZISSEN1
100
AcDbLine
 10
-1437.997421345615
 20
1655.399999999999
 30
0.0
 11
-1437.997421345615
 21
1657.0
 31
0.0
  0
LINE
  5
1387A
330
1A
100
AcDbEntity
  8
ZISSEN1
100
AcDbLine
 10
-1437.497421345615
 20
1655.899999999999
 30
0.0
 11
-1437.497421345615
 21
1657.499999999999
 31
0.0
  0
LINE
  5
1387B
330
1A
100
AcDbEntity
  8
ZISSEN1
100
AcDbLine
 10
-1440.497421345615
 20
1655.899999999999
 30
0.0
 11
-1440.497421345615
 21
1657.499999999999
 31
0.0
  0
LINE
  5
1387C
330
1A
100
AcDbEntity
  8
ZISSEN1
100
AcDbLine
 10
-1437.497421345615
 20
1657.499999999999
 30
0.0
 11
-1440.497421345615
 21
1657.499999999999
 31
0.0
  0
LINE
  5
1387D
330
1A
100
AcDbEntity
  8
ZISSEN1
100
AcDbLine
 10
-1437.497421345615
 20
1662.899999999999
 30
0.0
 11
-1440.497421345615
 21
1662.899999999999
 31
0.0
  0
LINE
  5
1387E
330
1A
100
AcDbEntity
  8
ZISSEN1
100
AcDbLine
 10
-1440.497421345615
 20
1664.5
 30
0.0
 11
-1440.497421345615
 21
1662.899999999999
 31
0.0
  0
LINE
  5
1387F
330
1A
100
AcDbEntity
  8
ZISSEN1
100
AcDbLine
 10
-1437.497421345615
 20
1664.5
 30
0.0
 11
-1437.497421345615
 21
1662.899999999999
 31
0.0
  0
LINE
  5
13880
330
1A
100
AcDbEntity
  8
ZISSEN1
100
AcDbLine
 10
-1437.997421345615
 20
1665.0
 30
0.0
 11
-1437.997421345615
 21
1663.399999999999
 31
0.0
  0
LINE
  5
13881
330
1A
100
AcDbEntity
  8
ZISSEN1
100
AcDbLine
 10
-1439.997421345615
 20
1665.0
 30
0.0
 11
-1439.997421345615
 21
1663.399999999999
 31
0.0
  0
LINE
  5
13882
330
1A
100
AcDbEntity
  8
ZISSEN1
100
AcDbLine
 10
-1437.497421345615
 20
1664.5
 30
0.0
 11
-1383.497421345615
 21
1664.5
 31
0.0
  0
LINE
  5
13883
330
1A
100
AcDbEntity
  8
ZISSEN1
100
AcDbLine
 10
-1437.497421345615
 20
1655.899999999998
 30
0.0
 11
-1384.297421345614
 21
1655.899999999998
 31
0.0
  0
LINE
  5
13888
330
1A
100
AcDbEntity
  8
ZISSEN1
100
AcDbLine
 10
-1570.040000000004
 20
1554.819999999992
 30
0.0
 11
-1570.040000000004
 21
1554.179999999993
 31
0.0
  0
LINE
  5
13889
330
1A
100
AcDbEntity
  8
ZISSEN1
100
AcDbLine
 10
-1570.040000000004
 20
1554.179999999993
 30
0.0
 11
-1570.000000000003
 21
1554.179999999993
 31
0.0
  0
LINE
  5
1388A
330
1A
100
AcDbEntity
  8
ZISSEN1
100
AcDbLine
 10
-1570.040000000004
 20
1554.819999999992
 30
0.0
 11
-1570.000000000003
 21
1554.819999999992
 31
0.0
  0
LINE
  5
1388C
330
1A
100
AcDbEntity
  8
ZISSEN1
100
AcDbLine
 10
-1496.5
 20
1510.449999999998
 30
0.0
 11
-1496.5
 21
1504.149999999999
 31
0.0
  0
LINE
  5
1388D
330
1A
100
AcDbEntity
  8
ZISSEN1
 48
0.4
100
AcDbLine
 10
-1497.399999999999
 20
1510.449999999998
 30
0.0
 11
-1496.5
 21
1510.449999999998
 31
0.0
  0
LINE
  5
1388E
330
1A
100
AcDbEntity
  8
ZISSEN1
 48
0.4
100
AcDbLine
 10
-1497.399999999999
 20
1504.149999999999
 30
0.0
 11
-1496.5
 21
1504.149999999999
 31
0.0
  0
ELLIPSE
  5
1388F
330
1A
100
AcDbEntity
  8
ZISSEN1
 48
0.4
100
AcDbEllipse
 10
-1497.399999999999
 20
1507.299999999999
 30
0.0
 11
0.0
 21
3.149999999999636
 31
0.0
210
0.0
220
0.0
230
-1.0
 40
0.3174603174603541
 41
3.141592653589793
 42
6.283185307179586
  0
ELLIPSE
  5
13890
330
1A
100
AcDbEntity
  8
ZISSEN1
 48
0.4
100
AcDbEllipse
 10
-1497.397421345614
 20
1660.199999999726
 30
0.0
 11
0.0
 21
3.149999999999636
 31
0.0
210
0.0
220
0.0
230
-1.0
 40
0.3174603174603541
 41
3.141592653589793
 42
6.283185307179586
  0
LINE
  5
13891
330
1A
100
AcDbEntity
  8
ZISSEN1
 48
0.4
100
AcDbLine
 10
-1497.397421345614
 20
1657.049999999726
 30
0.0
 11
-1496.497421345615
 21
1657.049999999726
 31
0.0
  0
LINE
  5
13892
330
1A
100
AcDbEntity
  8
ZISSEN1
 48
0.4
100
AcDbLine
 10
-1497.397421345614
 20
1663.349999999725
 30
0.0
 11
-1496.497421345615
 21
1663.349999999725
 31
0.0
  0
LINE
  5
13893
330
1A
100
AcDbEntity
  8
ZISSEN1
100
AcDbLine
 10
-1494.5
 20
1506.0
 30
0.0
 11
-1494.497421345617
 21
1515.0
 31
0.0
  0
LINE
  5
13894
330
1A
100
AcDbEntity
  8
ZISSEN1
100
AcDbLine
 10
-1493.7
 20
1503.358122847292
 30
0.0
 11
-1493.7
 21
1511.564641577888
 31
0.0
  0
LINE
  5
13895
330
1A
100
AcDbEntity
  8
ZISSEN1
100
AcDbLine
 10
-1308.0
 20
1553.299999999997
 30
0.0
 11
-1310.0
 21
1553.299999999997
 31
0.0
  0
LINE
  5
13896
330
1A
100
AcDbEntity
  8
ZISSEN1
100
AcDbLine
 10
-1308.0
 20
1554.299999999997
 30
0.0
 11
-1310.0
 21
1554.299999999997
 31
0.0
  0
LINE
  5
13897
330
1A
100
AcDbEntity
  8
ZISSEN1
100
AcDbLine
 10
-1327.100000000002
 20
1502.0
 30
0.0
 11
-1327.100000000002
 21
1500.0
 31
0.0
  0
LINE
  5
13898
330
1A
100
AcDbEntity
  8
ZISSEN1
100
AcDbLine
 10
-1342.249999999999
 20
1500.0
 30
0.0
 11
-1342.249999999999
 21
1502.0
 31
0.0
  0
LINE
  5
1389A
330
1A
100
AcDbEntity
  8
ZISSEN1
100
AcDbLine
 10
-1375.997421345615
 20
1652.899999999999
 30
0.0
 11
-1375.997421345615
 21
1637.75
 31
0.0
  0
LINE
  5
1389B
330
1A
100
AcDbEntity
  8
ZISSEN1
100
AcDbLine
 10
-1500.0
 20
1652.899999999999
 30
0.0
 11
-1500.0
 21
1637.75
 31
0.0
  0
LINE
  5
1389C
330
1A
100
AcDbEntity
  8
ZISSEN1
100
AcDbLine
 10
-1384.647421345616
 20
1502.0
 30
0.0
 11
-1378.347421345617
 21
1502.0
 31
0.0
  0
ELLIPSE
  5
1389D
330
1A
100
AcDbEntity
  8
ZISSEN1
 48
0.4
100
AcDbEllipse
 10
-1496.5
 20
1502.900000000001
 30
0.0
 11
-3.149999999999636
 21
0.0000000000000002
 31
0.0
210
0.0
220
0.0
230
1.0
 40
0.3174603174603541
 41
3.141592653589793
 42
6.283185307179586
  0
LINE
  5
1389E
330
1A
100
AcDbEntity
  8
ZISSEN1
 48
0.4
100
AcDbLine
 10
-1499.649999999999
 20
1502.900000000001
 30
0.0
 11
-1499.649999999999
 21
1502.0
 31
0.0
  0
LINE
  5
1389F
330
1A
100
AcDbEntity
  8
ZISSEN1
 48
0.4
100
AcDbLine
 10
-1493.35
 20
1502.900000000001
 30
0.0
 11
-1493.35
 21
1502.0
 31
0.0
  0
LINE
  5
138A0
330
1A
100
AcDbEntity
  8
ZISSEN1
100
AcDbLine
 10
-1499.649999999999
 20
1502.0
 30
0.0
 11
-1493.35
 21
1502.0
 31
0.0
  0
LINE
  5
138A1
330
1A
100
AcDbEntity
  8
ZISSEN1
100
AcDbLine
 10
-1376.997421345615
 20
1630.0
 30
0.0
 11
-1375.997421345615
 21
1631.0
 31
0.0
  0
LINE
  5
138A2
330
1A
100
AcDbEntity
  8
ZISSEN1
100
AcDbLine
 10
-1488.597421345617
 20
1630.0
 30
0.0
 11
-1499.0
 21
1630.0
 31
0.0
  0
LINE
  5
138A3
330
1A
100
AcDbEntity
  8
ZISSEN1
100
AcDbLine
 10
-1376.997421345615
 20
1630.0
 30
0.0
 11
-1456.199355307592
 21
1630.0
 31
0.0
  0
DIMENSION
  5
138A4
330
1A
100
AcDbEntity
  8
SUNPOU
100
AcDbDimension
  2
*D6
 10
-1349.381460346695
 20
1635.999999999996
 30
0.0
 11
-1349.381460346695
 21
1632.999999999998
 31
0.0
 70
   160
  3
ISO-25
100
AcDbAlignedDimension
 13
-1376.997421345615
 23
1630.0
 33
0.0
 14
-1377.818184569369
 24
1635.999999999996
 34
0.0
 50
90.0
100
AcDbRotatedDimension
1001
ACAD
1000
DSTYLE
1002
{
1070
   140
1040
3.5
1002
}
  0
LINE
  5
13B41
330
1A
100
AcDbEntity
  8
CL1
100
AcDbLine
 10
-1796.499160170739
 20
1635.410962400161
 30
0.0
 11
-1796.499160170739
 21
1626.410962400161
 31
0.0
  0
LINE
  5
13B42
330
1A
100
AcDbEntity
  8
CL1
100
AcDbLine
 10
-1800.610972643682
 20
1631.0
 30
0.0
 11
-1792.610972643682
 21
1631.0
 31
0.0
  0
LINE
  5
13B69
330
1A
100
AcDbEntity
  8
CL1
100
AcDbLine
 10
-1534.0
 20
1506.0
 30
0.0
 11
-1534.0
 21
1496.0
 31
0.0
  0
LINE
  5
13B95
330
1A
100
AcDbEntity
  8
CL1
100
AcDbLine
 10
-1344.0
 20
1506.0
 30
0.0
 11
-1344.0
 21
1496.0
 31
0.0
  0
LINE
  5
13BC0
330
1A
100
AcDbEntity
  8
ZISSEN1
100
AcDbLine
 10
-1389.497421345613
 20
1629.25
 30
0.0
 11
-1389.497421345613
 21
1629.25
 31
0.0
  0
DIMENSION
  5
13BF9
330
1A
100
AcDbEntity
  8
SUNPOU
100
AcDbDimension
  2
*D7
 10
-1368.646130258036
 20
1628.407849090647
 30
0.0
 11
-1368.646130258037
 21
1618.11618242398
 31
0.0
 70
   160
  1
(2)
  3
ISO-25
100
AcDbAlignedDimension
 13
-1376.997421345615
 23
1630.0
 33
0.0
 14
-1389.124563757202
 24
1628.407849090647
 34
0.0
 50
90.0
100
AcDbRotatedDimension
1001
ACAD
1000
DSTYLE
1002
{
1070
   140
1040
3.5
1002
}
  0
LINE
  5
13C34
330
1A
100
AcDbEntity
  8
ZISSEN1
100
AcDbLine
 10
-1389.741815235109
 20
1628.407849090647
 30
0.0
 11
-1388.94181523511
 21
1628.407849090647
 31
0.0
  0
MTEXT
  5
13D1F
330
1A
100
AcDbEntity
  8
ZISSEN1
  6
BYBLOCK
100
AcDbMText
 10
-1353.128560746829
 20
1602.765127254214
 30
0.0
 40
3.0
 41
28.41066376571898
 71
     1
 72
     5
  1
{\fＭＳ ゴシック|b0|i0|c128|p49;(USER取付寸法)}
  7
ｽﾀｲﾙ2
 11
0.0000000000000006
 21
1.0
 31
0.0
1001
ACAD
1000
MTEXTBEGIN
1070
    73
1070
     1
1070
    44
1040
1.0
1070
    74
1070
     0
1000
MTEXTEND
  0
LINE
  5
13D97
330
1A
100
AcDbEntity
  8
CL1
100
AcDbLine
 10
-1496.499160170739
 20
1640.410962400161
 30
0.0
 11
-1496.499160170739
 21
1631.410962400161
 31
0.0
  0
LINE
  5
13D98
330
1A
100
AcDbEntity
  8
CL1
100
AcDbLine
 10
-1499.239923394492
 20
1636.0
 30
0.0
 11
-1493.939923394493
 21
1636.0
 31
0.0
  0
MTEXT
  5
13DA1
330
1A
100
AcDbEntity
  8
ZISSEN1
  6
BYBLOCK
100
AcDbMText
 10
-1518.372210147498
 20
1634.246033045185
 30
0.0
 40
3.0
 41
28.41066376571898
 71
     1
 72
     5
  1
{\fＭＳ ゴシック|b0|i0|c128|p49;2-M3}
  7
ｽﾀｲﾙ2
1001
ACAD
1000
MTEXTBEGIN
1070
    73
1070
     1
1070
    44
1040
1.0
1070
    74
1070
     0
1000
MTEXTEND
  0
LINE
  5
13DB1
330
1A
100
AcDbEntity
  8
SUNPOU
100
AcDbLine
 10
-1509.978019043916
 20
1628.768304750402
 30
0.0
 11
-1520.337470281427
 21
1628.768304750402
 31
0.0
  0
DIMENSION
  5
13DD0
330
1A
100
AcDbEntity
  8
SUNPOU
100
AcDbDimension
  2
*D8
 10
-1341.153479665816
 20
1673.499999999999
 30
0.0
 11
-1341.153479665817
 21
1651.749999999999
 31
0.0
 70
   160
  3
標準スタイル
100
AcDbAlignedDimension
 13
-1380.497421345615
 23
1630.0
 33
0.0
 14
-1384.792687346664
 24
1673.499999999999
 34
0.0
 50
90.0
100
AcDbRotatedDimension
1001
ACAD
1000
DSTYLE
1002
{
1070
   340
1005
10
1070
    40
1040
1.0
1002
}
  0
DIMENSION
  5
13E6C
330
1A
100
AcDbEntity
  8
SUNPOU
100
AcDbDimension
  2
*D9
 10
-1662.206270668453
 20
1624.5
 30
0.0
 11
-1664.581270668453
 21
1646.499999999999
 31
0.0
 70
    32
  3
ISO-25
100
AcDbAlignedDimension
 13
-1674.997421345615
 23
1668.499999999999
 33
0.0
 14
-1674.997421345615
 24
1624.5
 34
0.0
 50
90.0
100
AcDbRotatedDimension
1001
ACAD
1000
DSTYLE
1002
{
1070
   140
1040
3.5
1002
}
  0
LINE
  5
1401B
330
1A
100
AcDbEntity
  8
ZISSEN1
100
AcDbLine
 10
-1680.500141115338
 20
1503.919647565146
 30
0.0
 11
-1680.500141115338
 21
1494.611914404807
 31
0.0
  0
LINE
  5
14037
330
1A
100
AcDbEntity
  8
CL1
100
AcDbLine
 10
-1796.500141115338
 20
1503.919647565146
 30
0.0
 11
-1796.500141115338
 21
1494.919647565146
 31
0.0
  0
DIMENSION
  5
1410C
330
1A
100
AcDbEntity
  8
SUNPOU
100
AcDbDimension
  2
*D10
 10
-1660.981309622511
 20
1497.0
 30
0.0
 11
-1664.402879335566
 21
1503.426935376636
 31
0.0
 70
   160
  3
標準スタイル
100
AcDbAlignedDimension
 13
-1674.0
 23
1500.0
 33
0.0
 14
-1674.0
 24
1497.0
 34
0.0
 50
90.0
100
AcDbRotatedDimension
1001
ACAD
1000
DSTYLE
1002
{
1070
   287
1070
     5
1070
    40
1040
1.0
1070
   279
1070
     2
1070
   283
1070
     2
1070
   340
1005
10
1002
}
  0
DIMENSION
  5
1413C
330
1A
100
AcDbEntity
  8
SUNPOU
100
AcDbDimension
  2
*D11
 10
-1649.663812124456
 20
1489.0
 30
0.0
 11
-1652.413812124455
 21
1492.999999999999
 31
0.0
 70
    32
  3
標準スタイル
100
AcDbAlignedDimension
 13
-1662.445699951032
 23
1497.0
 33
0.0
 14
-1686.195699951031
 24
1489.0
 34
0.0
 50
90.0
100
AcDbRotatedDimension
1001
ACAD
1000
DSTYLE
1002
{
1070
   340
1005
10
1070
    40
1040
1.0
1002
}
  0
DIMENSION
  5
141D8
330
1A
100
AcDbEntity
  8
SUNPOU
100
AcDbDimension
  2
*D12
 10
-1358.826378624067
 20
1634.25
 30
0.0
 11
-1361.201378624068
 21
1625.124999999999
 31
0.0
 70
    32
  3
ISO-25
100
AcDbAlignedDimension
 13
-1375.997421345615
 23
1637.75
 33
0.0
 14
-1375.997421345615
 24
1634.25
 34
0.0
 50
90.0
100
AcDbRotatedDimension
1001
ACAD
1000
DSTYLE
1002
{
1070
   140
1040
3.5
1002
}
  0
LEADER
  5
1423B
330
1A
100
AcDbEntity
  8
ZISSEN1
100
AcDbLeader
  3
標準スタイル
 76
     2
 10
-1496.619160170739
 20
1636.0
 30
0.0
 10
-1509.978019043916
 20
1628.768304750402
 30
0.0
1001
ACAD
1000
DSTYLE
1002
{
1070
     5
1000

1070
    77
1070
     0
1070
   147
1040
1.0
1002
}
  0
LINE
  5
142FB
330
1A
100
AcDbEntity
  8
SOUZOUSEN
  6
PHANTOMX2
100
AcDbLine
 10
-1528.287110890882
 20
1589.799999999999
 30
0.0
 11
-1528.287110890882
 21
1599.999999999999
 31
0.0
  0
LINE
  5
142FD
330
1A
100
AcDbEntity
  8
SOUZOUSEN
  6
PHANTOMX2
100
AcDbLine
 10
-1535.787110890882
 20
1589.899999999997
 30
0.0
 11
-1535.787110890882
 21
1599.999999999997
 31
0.0
  0
LINE
  5
142FE
330
1A
100
AcDbEntity
  8
SOUZOUSEN
  6
PHANTOMX2
100
AcDbLine
 10
-1535.787110890882
 20
1599.999999999997
 30
0.0
 11
-1528.287110890882
 21
1599.999999999999
 31
0.0
  0
DIMENSION
  5
142FF
330
1A
100
AcDbEntity
  8
SUNPOU
100
AcDbDimension
  2
*D13
 10
-1519.333985951195
 20
1599.999999999999
 30
0.0
 11
-1521.708985951195
 21
1590.999999999999
 31
0.0
 70
    32
  1
(18)
  3
ISO-25
100
AcDbAlignedDimension
 13
-1527.900000000005
 23
1582.0
 33
0.0
 14
-1528.287110890882
 24
1599.999999999999
 34
0.0
 50
90.0
100
AcDbRotatedDimension
1001
ACAD
1000
DSTYLE
1002
{
1070
   140
1040
3.5
1002
}
  0
LINE
  5
14362
330
1A
100
AcDbEntity
  8
ZISSEN1
100
AcDbLine
 10
-1500.0
 20
1637.75
 30
0.0
 11
-1495.999160170739
 21
1637.75
 31
0.0
  0
LINE
  5
14363
330
1A
100
AcDbEntity
  8
ZISSEN1
100
AcDbLine
 10
-1500.0
 20
1634.25
 30
0.0
 11
-1495.999160170739
 21
1634.25
 31
0.0
  0
LINE
  5
143A0
330
1A
100
AcDbEntity
  8
ZISSEN1
100
AcDbLine
 10
-1380.997421345615
 20
1637.749999999996
 30
0.0
 11
-1375.997421345615
 21
1637.75
 31
0.0
  0
LINE
  5
143A1
330
1A
100
AcDbEntity
  8
ZISSEN1
100
AcDbLine
 10
-1380.997421345615
 20
1634.249999999996
 30
0.0
 11
-1375.997421345615
 21
1634.25
 31
0.0
  0
LINE
  5
143DD
330
1A
100
AcDbEntity
  8
SOUZOUSEN
  6
PHANTOMX2
100
AcDbLine
 10
-1349.712889109123
 20
1589.799999999999
 30
0.0
 11
-1349.712889109123
 21
1599.999999999999
 31
0.0
  0
LINE
  5
143EC
330
1A
100
AcDbEntity
  8
SOUZOUSEN
  6
PHANTOMX2
100
AcDbLine
 10
-1342.212889109123
 20
1589.899999999997
 30
0.0
 11
-1342.212889109123
 21
1599.999999999997
 31
0.0
  0
LINE
  5
143ED
330
1A
100
AcDbEntity
  8
SOUZOUSEN
  6
PHANTOMX2
100
AcDbLine
 10
-1342.212889109123
 20
1599.999999999997
 30
0.0
 11
-1349.712889109123
 21
1599.999999999999
 31
0.0
  0
LINE
  5
143EE
330
1A
100
AcDbEntity
  8
CL1
100
AcDbLine
 10
-1496.5
 20
1507.0
 30
0.0
 11
-1496.5
 21
1497.0
 31
0.0
  0
LINE
  5
1440D
330
1A
100
AcDbEntity
  8
CL1
100
AcDbLine
 10
-1380.5
 20
1507.0
 30
0.0
 11
-1380.5
 21
1497.0
 31
0.0
  0
LINE
  5
1443B
330
1A
100
AcDbEntity
  8
ZISSEN1
100
AcDbLine
 10
-1800.0
 20
1632.75
 30
0.0
 11
-1795.999160170739
 21
1632.75
 31
0.0
  0
LINE
  5
1443C
330
1A
100
AcDbEntity
  8
ZISSEN1
100
AcDbLine
 10
-1800.0
 20
1629.25
 30
0.0
 11
-1795.999160170739
 21
1629.25
 31
0.0
  0
LINE
  5
1445B
330
1A
100
AcDbEntity
  8
ZISSEN1
100
AcDbLine
 10
-1680.998261174875
 20
1632.75
 30
0.0
 11
-1675.997421345615
 21
1632.75
 31
0.0
  0
LINE
  5
1445C
330
1A
100
AcDbEntity
  8
ZISSEN1
100
AcDbLine
 10
-1680.998261174875
 20
1629.25
 30
0.0
 11
-1675.997421345615
 21
1629.25
 31
0.0
  0
DIMENSION
  5
1460A
330
1A
100
AcDbEntity
  8
SUNPOU
100
AcDbDimension
  2
*D14
 10
-1383.497421345617
 20
1602.536984732304
 30
0.0
 11
-1438.997421345617
 21
1605.286984732304
 31
0.0
 70
    32
  3
標準スタイル
100
AcDbAlignedDimension
 13
-1494.497421345617
 23
1582.0
 33
0.0
 14
-1383.497421345617
 24
1581.999999999931
 34
0.0
100
AcDbRotatedDimension
1001
ACAD
1000
DSTYLE
1002
{
1070
   340
1005
10
1070
    40
1040
1.0
1002
}
  0
LINE
  5
14693
102
{ACAD_REACTORS
330
14697
102
}
330
1A
100
AcDbEntity
  8
CL1
100
AcDbLine
 10
-1785.495589334999
 20
1658.199999999999
 30
0.0
 11
-1785.495589334999
 21
1652.199999999998
 31
0.0
  0
LINE
  5
14694
102
{ACAD_REACTORS
330
14697
102
}
330
1A
100
AcDbEntity
  8
CL1
100
AcDbLine
 10
-1788.495589334999
 20
1655.199999999998
 30
0.0
 11
-1782.495589334999
 21
1655.199999999998
 31
0.0
  0
CIRCLE
  5
14695
102
{ACAD_REACTORS
330
14697
102
}
330
1A
100
AcDbEntity
  8
ZISSEN1
100
AcDbCircle
 10
-1785.495589334999
 20
1655.199999999998
 30
0.0
 40
1.0
  0
CIRCLE
  5
14696
102
{ACAD_REACTORS
330
14697
102
}
330
1A
100
AcDbEntity
  8
SAISEN
100
AcDbCircle
 10
-1785.495589334999
 20
1655.199999999998
 30
0.0
 40
1.5
  0
LINE
  5
14699
102
{ACAD_REACTORS
330
1469D
102
}
330
1A
100
AcDbEntity
  8
CL1
100
AcDbLine
 10
-1778.494095183663
 20
1655.199999999998
 30
0.0
 11
-1772.494095183663
 21
1655.199999999998
 31
0.0
  0
CIRCLE
  5
1469A
102
{ACAD_REACTORS
330
1469D
102
}
330
1A
100
AcDbEntity
  8
SAISEN
100
AcDbCircle
 10
-1775.494095183663
 20
1655.199999999998
 30
0.0
 40
1.5
  0
CIRCLE
  5
1469B
102
{ACAD_REACTORS
330
1469D
102
}
330
1A
100
AcDbEntity
  8
ZISSEN1
100
AcDbCircle
 10
-1775.494095183663
 20
1655.199999999998
 30
0.0
 40
1.0
  0
LINE
  5
1469C
102
{ACAD_REACTORS
330
1469D
102
}
330
1A
100
AcDbEntity
  8
CL1
100
AcDbLine
 10
-1775.494095183663
 20
1658.199999999999
 30
0.0
 11
-1775.494095183663
 21
1652.199999999998
 31
0.0
  0
LINE
  5
1469E
102
{ACAD_REACTORS
330
146A2
102
}
330
1A
100
AcDbEntity
  8
CL1
100
AcDbLine
 10
-1765.494095183663
 20
1658.199999999999
 30
0.0
 11
-1765.494095183663
 21
1652.199999999998
 31
0.0
  0
CIRCLE
  5
1469F
102
{ACAD_REACTORS
330
146A2
102
}
330
1A
100
AcDbEntity
  8
SAISEN
100
AcDbCircle
 10
-1765.494095183663
 20
1655.199999999998
 30
0.0
 40
1.5
  0
CIRCLE
  5
146A0
102
{ACAD_REACTORS
330
146A2
102
}
330
1A
100
AcDbEntity
  8
ZISSEN1
100
AcDbCircle
 10
-1765.494095183663
 20
1655.199999999998
 30
0.0
 40
1.0
  0
LINE
  5
146A1
102
{ACAD_REACTORS
330
146A2
102
}
330
1A
100
AcDbEntity
  8
CL1
100
AcDbLine
 10
-1768.494095183663
 20
1655.199999999998
 30
0.0
 11
-1762.494095183663
 21
1655.199999999998
 31
0.0
  0
LINE
  5
146A3
102
{ACAD_REACTORS
330
146A7
102
}
330
1A
100
AcDbEntity
  8
CL1
100
AcDbLine
 10
-1712.499042228761
 20
1655.199999999998
 30
0.0
 11
-1706.499042228761
 21
1655.199999999998
 31
0.0
  0
CIRCLE
  5
146A4
102
{ACAD_REACTORS
330
146A7
102
}
330
1A
100
AcDbEntity
  8
SAISEN
100
AcDbCircle
 10
-1709.499042228761
 20
1655.199999999998
 30
0.0
 40
1.5
  0
CIRCLE
  5
146A5
102
{ACAD_REACTORS
330
146A7
102
}
330
1A
100
AcDbEntity
  8
ZISSEN1
100
AcDbCircle
 10
-1709.499042228761
 20
1655.199999999998
 30
0.0
 40
1.0
  0
LINE
  5
146A6
102
{ACAD_REACTORS
330
146A7
102
}
330
1A
100
AcDbEntity
  8
CL1
100
AcDbLine
 10
-1709.499042228761
 20
1658.199999999999
 30
0.0
 11
-1709.499042228761
 21
1652.199999999998
 31
0.0
  0
LINE
  5
146A8
102
{ACAD_REACTORS
330
146AC
102
}
330
1A
100
AcDbEntity
  8
CL1
100
AcDbLine
 10
-1702.497421345615
 20
1655.199999999998
 30
0.0
 11
-1696.497421345615
 21
1655.199999999998
 31
0.0
  0
CIRCLE
  5
146A9
102
{ACAD_REACTORS
330
146AC
102
}
330
1A
100
AcDbEntity
  8
SAISEN
100
AcDbCircle
 10
-1699.497421345615
 20
1655.199999999998
 30
0.0
 40
1.5
  0
CIRCLE
  5
146AA
102
{ACAD_REACTORS
330
146AC
102
}
330
1A
100
AcDbEntity
  8
ZISSEN1
100
AcDbCircle
 10
-1699.497421345615
 20
1655.199999999998
 30
0.0
 40
1.0
  0
LINE
  5
146AB
102
{ACAD_REACTORS
330
146AC
102
}
330
1A
100
AcDbEntity
  8
CL1
100
AcDbLine
 10
-1699.497421345615
 20
1658.199999999999
 30
0.0
 11
-1699.497421345615
 21
1652.199999999998
 31
0.0
  0
LINE
  5
146BF
102
{ACAD_REACTORS
330
146DF
102
}
330
1A
100
AcDbEntity
  8
CL1
100
AcDbLine
 10
-1319.799999999999
 20
1552.399999999999
 30
0.0
 11
-1319.799999999999
 21
1546.399999999999
 31
0.0
  0
LINE
  5
146C0
102
{ACAD_REACTORS
330
146DF
102
}
330
1A
100
AcDbEntity
  8
CL1
100
AcDbLine
 10
-1319.799999999999
 20
1552.399999999999
 30
0.0
 11
-1319.799999999999
 21
1546.399999999999
 31
0.0
  0
LINE
  5
146C1
102
{ACAD_REACTORS
330
146DF
102
}
330
1A
100
AcDbEntity
  8
CL1
100
AcDbLine
 10
-1322.799999999999
 20
1549.399999999999
 30
0.0
 11
-1316.799999999999
 21
1549.399999999999
 31
0.0
  0
LINE
  5
146C2
102
{ACAD_REACTORS
330
146DF
102
}
330
1A
100
AcDbEntity
  8
CL1
100
AcDbLine
 10
-1322.799999999999
 20
1549.399999999999
 30
0.0
 11
-1316.799999999999
 21
1549.399999999999
 31
0.0
  0
CIRCLE
  5
146C3
102
{ACAD_REACTORS
330
146DF
102
}
330
1A
100
AcDbEntity
  8
ZISSEN1
100
AcDbCircle
 10
-1319.799999999999
 20
1549.399999999999
 30
0.0
 40
0.8
  0
CIRCLE
  5
146C4
102
{ACAD_REACTORS
330
146DF
102
}
330
1A
100
AcDbEntity
  8
SAISEN
100
AcDbCircle
 10
-1319.799999999999
 20
1549.399999999999
 30
0.0
 40
1.3
  0
LINE
  5
146E0
102
{ACAD_REACTORS
330
146E6
102
}
330
1A
100
AcDbEntity
  8
CL1
100
AcDbLine
 10
-1322.799999999999
 20
1542.899999999999
 30
0.0
 11
-1316.799999999999
 21
1542.899999999999
 31
0.0
  0
CIRCLE
  5
146E1
102
{ACAD_REACTORS
330
146E6
102
}
330
1A
100
AcDbEntity
  8
SAISEN
100
AcDbCircle
 10
-1319.799999999999
 20
1542.899999999999
 30
0.0
 40
1.3
  0
CIRCLE
  5
146E2
102
{ACAD_REACTORS
330
146E6
102
}
330
1A
100
AcDbEntity
  8
ZISSEN1
100
AcDbCircle
 10
-1319.799999999999
 20
1542.899999999999
 30
0.0
 40
0.8
  0
LINE
  5
146E3
102
{ACAD_REACTORS
330
146E6
102
}
330
1A
100
AcDbEntity
  8
CL1
100
AcDbLine
 10
-1322.799999999999
 20
1542.899999999999
 30
0.0
 11
-1316.799999999999
 21
1542.899999999999
 31
0.0
  0
LINE
  5
146E4
102
{ACAD_REACTORS
330
146E6
102
}
330
1A
100
AcDbEntity
  8
CL1
100
AcDbLine
 10
-1319.799999999999
 20
1545.899999999999
 30
0.0
 11
-1319.799999999999
 21
1539.899999999999
 31
0.0
  0
LINE
  5
146E5
102
{ACAD_REACTORS
330
146E6
102
}
330
1A
100
AcDbEntity
  8
CL1
100
AcDbLine
 10
-1319.799999999999
 20
1545.899999999999
 30
0.0
 11
-1319.799999999999
 21
1539.899999999999
 31
0.0
  0
LINE
  5
146E7
102
{ACAD_REACTORS
330
146F4
102
}
330
1A
100
AcDbEntity
  8
CL1
100
AcDbLine
 10
-1322.799999999999
 20
1513.5
 30
0.0
 11
-1316.799999999999
 21
1513.5
 31
0.0
  0
CIRCLE
  5
146E8
102
{ACAD_REACTORS
330
146F4
102
}
330
1A
100
AcDbEntity
  8
SAISEN
100
AcDbCircle
 10
-1319.799999999999
 20
1513.5
 30
0.0
 40
1.3
  0
CIRCLE
  5
146E9
102
{ACAD_REACTORS
330
146F4
102
}
330
1A
100
AcDbEntity
  8
ZISSEN1
100
AcDbCircle
 10
-1319.799999999999
 20
1513.5
 30
0.0
 40
0.8
  0
LINE
  5
146EA
102
{ACAD_REACTORS
330
146F4
102
}
330
1A
100
AcDbEntity
  8
CL1
100
AcDbLine
 10
-1322.799999999999
 20
1513.5
 30
0.0
 11
-1316.799999999999
 21
1513.5
 31
0.0
  0
LINE
  5
146EB
102
{ACAD_REACTORS
330
146F4
102
}
330
1A
100
AcDbEntity
  8
CL1
100
AcDbLine
 10
-1319.799999999999
 20
1516.5
 30
0.0
 11
-1319.799999999999
 21
1510.5
 31
0.0
  0
LINE
  5
146EC
102
{ACAD_REACTORS
330
146F4
102
}
330
1A
100
AcDbEntity
  8
CL1
100
AcDbLine
 10
-1319.799999999999
 20
1516.5
 30
0.0
 11
-1319.799999999999
 21
1510.5
 31
0.0
  0
LINE
  5
146ED
102
{ACAD_REACTORS
330
146F3
102
}
330
1A
100
AcDbEntity
  8
CL1
100
AcDbLine
 10
-1322.799999999999
 20
1520.0
 30
0.0
 11
-1316.799999999999
 21
1520.0
 31
0.0
  0
CIRCLE
  5
146EE
102
{ACAD_REACTORS
330
146F3
102
}
330
1A
100
AcDbEntity
  8
SAISEN
100
AcDbCircle
 10
-1319.799999999999
 20
1520.0
 30
0.0
 40
1.3
  0
CIRCLE
  5
146EF
102
{ACAD_REACTORS
330
146F3
102
}
330
1A
100
AcDbEntity
  8
ZISSEN1
100
AcDbCircle
 10
-1319.799999999999
 20
1520.0
 30
0.0
 40
0.8
  0
LINE
  5
146F0
102
{ACAD_REACTORS
330
146F3
102
}
330
1A
100
AcDbEntity
  8
CL1
100
AcDbLine
 10
-1322.799999999999
 20
1520.0
 30
0.0
 11
-1316.799999999999
 21
1520.0
 31
0.0
  0
LINE
  5
146F1
102
{ACAD_REACTORS
330
146F3
102
}
330
1A
100
AcDbEntity
  8
CL1
100
AcDbLine
 10
-1319.799999999999
 20
1523.0
 30
0.0
 11
-1319.799999999999
 21
1517.0
 31
0.0
  0
LINE
  5
146F2
102
{ACAD_REACTORS
330
146F3
102
}
330
1A
100
AcDbEntity
  8
CL1
100
AcDbLine
 10
-1319.799999999999
 20
1523.0
 30
0.0
 11
-1319.799999999999
 21
1517.0
 31
0.0
  0
LINE
  5
146F7
330
1A
100
AcDbEntity
  8
CL1
100
AcDbLine
 10
-1680.500141115338
 20
1503.919647565146
 30
0.0
 11
-1680.500141115338
 21
1494.919647565146
 31
0.0
  0
ELLIPSE
  5
146F8
102
{ACAD_REACTORS
330
146FB
102
}
330
1A
100
AcDbEntity
  8
ZISSEN1
 48
0.4
100
AcDbEllipse
 10
-1680.5
 20
1502.900000000001
 30
0.0
 11
-3.149999999999636
 21
0.0000000000000002
 31
0.0
210
0.0
220
0.0
230
1.0
 40
0.3174603174603541
 41
3.141592653589793
 42
6.283185307179586
  0
LINE
  5
146F9
102
{ACAD_REACTORS
330
146FB
102
}
330
1A
100
AcDbEntity
  8
ZISSEN1
 48
0.4
100
AcDbLine
 10
-1683.649999999999
 20
1502.900000000001
 30
0.0
 11
-1683.649999999999
 21
1502.0
 31
0.0
  0
LINE
  5
146FA
102
{ACAD_REACTORS
330
146FB
102
}
330
1A
100
AcDbEntity
  8
ZISSEN1
 48
0.4
100
AcDbLine
 10
-1677.35
 20
1502.900000000001
 30
0.0
 11
-1677.35
 21
1502.0
 31
0.0
  0
CIRCLE
  5
147EB
102
{ACAD_REACTORS
330
14805
102
}
330
1A
100
AcDbEntity
  8
SAISEN
100
AcDbCircle
 10
-1465.494095183663
 20
1660.199999999998
 30
0.0
 40
1.5
  0
LINE
  5
147EC
102
{ACAD_REACTORS
330
14805
102
}
330
1A
100
AcDbEntity
  8
CL1
100
AcDbLine
 10
-1465.494095183663
 20
1663.199999999999
 30
0.0
 11
-1465.494095183663
 21
1657.199999999998
 31
0.0
  0
LINE
  5
147ED
102
{ACAD_REACTORS
330
14804
102
}
330
1A
100
AcDbEntity
  8
CL1
100
AcDbLine
 10
-1475.494095183663
 20
1663.199999999999
 30
0.0
 11
-1475.494095183663
 21
1657.199999999998
 31
0.0
  0
CIRCLE
  5
147EE
102
{ACAD_REACTORS
330
14804
102
}
330
1A
100
AcDbEntity
  8
SAISEN
100
AcDbCircle
 10
-1475.494095183663
 20
1660.199999999998
 30
0.0
 40
1.5
  0
CIRCLE
  5
147EF
102
{ACAD_REACTORS
330
14803
102
}
330
1A
100
AcDbEntity
  8
SAISEN
100
AcDbCircle
 10
-1485.495589334999
 20
1660.199999999998
 30
0.0
 40
1.5
  0
LINE
  5
147F0
102
{ACAD_REACTORS
330
14803
102
}
330
1A
100
AcDbEntity
  8
CL1
100
AcDbLine
 10
-1485.495589334999
 20
1663.199999999999
 30
0.0
 11
-1485.495589334999
 21
1657.199999999998
 31
0.0
  0
CIRCLE
  5
147F1
102
{ACAD_REACTORS
330
14803
102
}
330
1A
100
AcDbEntity
  8
ZISSEN1
100
AcDbCircle
 10
-1485.495589334999
 20
1660.199999999998
 30
0.0
 40
1.0
  0
LINE
  5
147F2
102
{ACAD_REACTORS
330
14803
102
}
330
1A
100
AcDbEntity
  8
CL1
100
AcDbLine
 10
-1488.495589334999
 20
1660.199999999998
 30
0.0
 11
-1482.495589334999
 21
1660.199999999998
 31
0.0
  0
LINE
  5
147F3
102
{ACAD_REACTORS
330
14805
102
}
330
1A
100
AcDbEntity
  8
CL1
100
AcDbLine
 10
-1468.494095183663
 20
1660.199999999998
 30
0.0
 11
-1462.494095183663
 21
1660.199999999998
 31
0.0
  0
CIRCLE
  5
147F4
102
{ACAD_REACTORS
330
14805
102
}
330
1A
100
AcDbEntity
  8
ZISSEN1
100
AcDbCircle
 10
-1465.494095183663
 20
1660.199999999998
 30
0.0
 40
1.0
  0
CIRCLE
  5
147F5
102
{ACAD_REACTORS
330
14804
102
}
330
1A
100
AcDbEntity
  8
ZISSEN1
100
AcDbCircle
 10
-1475.494095183663
 20
1660.199999999998
 30
0.0
 40
1.0
  0
LINE
  5
147F6
102
{ACAD_REACTORS
330
14804
102
}
330
1A
100
AcDbEntity
  8
CL1
100
AcDbLine
 10
-1478.494095183663
 20
1660.199999999998
 30
0.0
 11
-1472.494095183663
 21
1660.199999999998
 31
0.0
  0
LINE
  5
147F7
330
1A
100
AcDbEntity
  8
ZISSEN1
100
AcDbLine
 10
-1437.497421345615
 20
1657.0
 30
0.0
 11
-1440.497421345615
 21
1657.0
 31
0.0
  0
LINE
  5
147F8
330
1A
100
AcDbEntity
  8
ZISSEN1
100
AcDbLine
 10
-1437.497421345615
 20
1657.499999999999
 30
0.0
 11
-1440.497421345615
 21
1657.499999999999
 31
0.0
  0
LINE
  5
147F9
330
1A
100
AcDbEntity
  8
ZISSEN1
100
AcDbLine
 10
-1437.497421345615
 20
1663.399999999999
 30
0.0
 11
-1440.497421345615
 21
1663.399999999999
 31
0.0
  0
LINE
  5
147FA
330
1A
100
AcDbEntity
  8
ZISSEN1
100
AcDbLine
 10
-1437.497421345615
 20
1662.899999999999
 30
0.0
 11
-1440.497421345615
 21
1662.899999999999
 31
0.0
  0
LINE
  5
147FB
102
{ACAD_REACTORS
330
14807
102
}
330
1A
100
AcDbEntity
  8
CL1
100
AcDbLine
 10
-1399.497421345615
 20
1663.199999999999
 30
0.0
 11
-1399.497421345615
 21
1657.199999999998
 31
0.0
  0
CIRCLE
  5
147FC
102
{ACAD_REACTORS
330
14807
102
}
330
1A
100
AcDbEntity
  8
SAISEN
100
AcDbCircle
 10
-1399.497421345615
 20
1660.199999999998
 30
0.0
 40
1.5
  0
LINE
  5
147FD
102
{ACAD_REACTORS
330
14806
102
}
330
1A
100
AcDbEntity
  8
CL1
100
AcDbLine
 10
-1409.499042228761
 20
1663.199999999999
 30
0.0
 11
-1409.499042228761
 21
1657.199999999998
 31
0.0
  0
CIRCLE
  5
147FE
102
{ACAD_REACTORS
330
14806
102
}
330
1A
100
AcDbEntity
  8
SAISEN
100
AcDbCircle
 10
-1409.499042228761
 20
1660.199999999998
 30
0.0
 40
1.5
  0
CIRCLE
  5
147FF
102
{ACAD_REACTORS
330
14807
102
}
330
1A
100
AcDbEntity
  8
ZISSEN1
100
AcDbCircle
 10
-1399.497421345615
 20
1660.199999999998
 30
0.0
 40
1.0
  0
LINE
  5
14800
102
{ACAD_REACTORS
330
14807
102
}
330
1A
100
AcDbEntity
  8
CL1
100
AcDbLine
 10
-1402.497421345615
 20
1660.199999999998
 30
0.0
 11
-1396.497421345615
 21
1660.199999999998
 31
0.0
  0
CIRCLE
  5
14801
102
{ACAD_REACTORS
330
14806
102
}
330
1A
100
AcDbEntity
  8
ZISSEN1
100
AcDbCircle
 10
-1409.499042228761
 20
1660.199999999998
 30
0.0
 40
1.0
  0
LINE
  5
14802
102
{ACAD_REACTORS
330
14806
102
}
330
1A
100
AcDbEntity
  8
CL1
100
AcDbLine
 10
-1412.499042228761
 20
1660.199999999998
 30
0.0
 11
-1406.499042228761
 21
1660.199999999998
 31
0.0
  0
VIEWPORT
  5
5D8F
330
5D8E
100
AcDbEntity
 67
     1
  8
0
100
AcDbViewport
 10
221.8054669198946
 20
165.4114840509368
 30
0.0
 40
573.9825248868203
 41
329.6562736515749
 68
     1
 69
     1
1001
ACAD
1000
MVIEW
1002
{
1070
    16
1010
0.0
1020
0.0
1030
0.0
1010
0.0
1020
0.0
1030
1.0
1040
0.0
1040
329.6562736515749
1040
221.8054669198946
1040
165.4114840509368
1040
50.0
1040
0.0
1040
0.0
1070
     0
1070
   100
1070
     1
1070
     0
1070
     0
1070
     0
1070
     0
1070
     0
1040
0.0
1040
0.0
1040
0.0
1040
1.0
1040
1.0
1040
10.0
1040
10.0
1070
     0
1002
{
1002
}
1002
}
  0
VIEWPORT
  5
6001
330
5D8E
100
AcDbEntity
 67
     1
  8
ZISSEN1
100
AcDbViewport
 10
221.7861955525412
 20
157.6960273330388
 30
0.0
 40
385.4999999999997
 41
259.9999999999999
 68
     2
 69
     2
1001
ACAD
1000
MVIEW
1002
{
1070
    16
1010
0.0
1020
0.0
1030
0.0
1010
0.0
1020
0.0
1030
1.0
1040
0.0
1040
519.9999999999999
1040
-1567.2010878412
1040
1601.95633321897
1040
50.0
1040
0.0
1040
0.0
1070
     0
1070
   100
1070
     1
1070
     0
1070
     0
1070
     0
1070
     0
1070
     0
1040
0.0
1040
0.0
1040
0.0
1040
1.0
1040
1.0
1040
10.0
1040
10.0
1070
     0
1002
{
1002
}
1002
}
  0
TEXT
  5
716F
330
5D8E
100
AcDbEntity
 67
     1
  8
SUNPOU
 62
     0
100
AcDbText
 10
329.2365168140136
 20
48.53763487172603
 30
0.0
 40
3.5
  1
縮尺 1/2
  7
ゴシック体
100
AcDbText
  0
ENDSEC
  0
SECTION
  2
OBJECTS
  0
DICTIONARY
  5
C
330
0
100
AcDbDictionary
  3
ACAD_GROUP
350
D
  3
ACAD_LAYOUT
350
5C7D
  3
ACAD_MLINESTYLE
350
E
  3
ACAD_PLOTSETTINGS
350
5C7E
  3
ACAD_PLOTSTYLENAME
350
5C7B
  3
DWGPROPS
350
13E94
  3
ACDBHEADERROUNDTRIPXREC
350
14810
  0
DICTIONARY
  5
130FA
330
2
100
AcDbDictionary
280
     1
  3
ACAD_LAYERFILTERS
360
130FB
  0
DICTIONARY
  5
14830
330
1A
100
AcDbDictionary
280
     1
  3
ACAD_LAYOUTSELFREF
360
14831
  0
DICTIONARY
  5
14832
330
5D8E
100
AcDbDictionary
280
     1
  3
ACAD_LAYOUTSELFREF
360
14833
  0
DICTIONARY
  5
D
102
{ACAD_REACTORS
330
C
102
}
330
C
100
AcDbDictionary
  3
*A1
350
477D
  3
*A2
350
146F5
  3
*A3
350
477E
  3
*A4
350
146FB
  3
*A5
350
4C11
  3
*A6
350
4C12
  3
*A7
350
4C13
  3
*A8
350
4C14
  3
*A9
350
4C15
  3
*A10
350
146A2
  3
*A11
350
4C16
  3
*A12
350
4C17
  3
*A13
350
477F
  3
*A14
350
4780
  3
*A15
350
4781
  3
*A16
350
4C0E
  3
*A17
350
4C0F
  3
*A18
350
14697
  3
*A19
350
1469D
  3
*A20
350
14803
  3
*A21
350
146A7
  3
*A22
350
14804
  3
*A23
350
14805
  3
*A24
350
14806
  3
*A25
350
14807
  3
*A26
350
4C10
  3
*A27
350
146AC
  3
*A28
350
146DF
  3
*A29
350
146E6
  3
*A30
350
146F3
  3
*A31
350
146F4
  0
DICTIONARY
  5
5C7D
102
{ACAD_REACTORS
330
C
102
}
330
C
100
AcDbDictionary
  0
DICTIONARY
  5
E
102
{ACAD_REACTORS
330
C
102
}
330
C
100
AcDbDictionary
  3
STANDARD
350
13
  0
DICTIONARY
  5
5C7E
102
{ACAD_REACTORS
330
C
102
}
330
C
100
AcDbDictionary
  0
ACDBDICTIONARYWDFLT
  5
5C7B
102
{ACAD_REACTORS
330
C
102
}
330
C
100
AcDbDictionary
281
     1
  3
Normal
350
5C7C
100
AcDbDictionaryWithDefault
340
5C7C
  0
XRECORD
  5
13E94
102
{ACAD_REACTORS
330
C
102
}
330
C
100
AcDbXrecord
  1
DWGPROPS COOKIE
  2

  3

  4

  6

  7

  8

  9

300
=
301
=
302
=
303
=
304
=
305
=
306
=
307
=
308
=
309
=
 40
1.825955324074074
 41
2450495.493631365
 42
2455083.433891168
  1

 90
        0
  0
DICTIONARY
  5
14810
102
{ACAD_REACTORS
330
C
102
}
330
C
100
AcDbDictionary
  3
TSTACKALIGN
350
14811
  3
TSTACKSIZE
350
14812
  3
HYPERLINKBASE
350
14813
  3
STYLESHEET
350
14814
  3
LAYOUTDICT
350
14815
  3
PLOTSETDICT
350
14816
  3
PLOTSTYLNAMDICT
350
14817
  3
LWETCUNION
350
14818
  3
INSUNITS
350
14819
  3
CEPSNTYPE
350
1481A
  3
FINGERPRINTGUID
350
1481B
  3
VERSIONGUID
350
1481C
  3
PSVPSCALE
350
1481D
  3
PUCSORTHOREF
350
1481E
  3
PUCSORTHOVIEW
350
1481F
  3
PUCSBASE
350
14820
  3
PUCSORGTOP
350
14821
  3
PUCSORGBOTTOM
350
14822
  3
PUCSORGLEFT
350
14823
  3
PUCSORGRIGHT
350
14824
  3
PUCSORGFRONT
350
14825
  3
PUCSORGBACK
350
14826
  3
UCSORTHOREF
350
14827
  3
UCSORTHOVIEW
350
14828
  3
UCSBASE
350
14829
  3
UCSORGTOP
350
1482A
  3
UCSORGBOTTOM
350
1482B
  3
UCSORGLEFT
350
1482C
  3
UCSORGRIGHT
350
1482D
  3
UCSORGFRONT
350
1482E
  3
UCSORGBACK
350
1482F
  0
DICTIONARY
  5
130FB
102
{ACAD_REACTORS
330
130FA
102
}
330
130FA
100
AcDbDictionary
280
     1
  3
BASE
360
130FC
  3
CASE
360
130FD
  3
KIKOU
360
130FE
  0
XRECORD
  5
14831
102
{ACAD_REACTORS
330
14830
102
}
330
14830
100
AcDbXrecord
340
1A
  0
XRECORD
  5
14833
102
{ACAD_REACTORS
330
14832
102
}
330
14832
100
AcDbXrecord
340
5D8E
  0
GROUP
  5
477D
102
{ACAD_REACTORS
330
D
102
}
330
D
100
AcDbGroup
300

 70
     1
 71
     1
  0
GROUP
  5
146F5
102
{ACAD_REACTORS
330
D
102
}
330
D
100
AcDbGroup
300

 70
     1
 71
     1
340
1353A
340
13539
340
13538
  0
GROUP
  5
477E
102
{ACAD_REACTORS
330
D
102
}
330
D
100
AcDbGroup
300

 70
     1
 71
     1
  0
GROUP
  5
146FB
102
{ACAD_REACTORS
330
D
102
}
330
D
100
AcDbGroup
300

 70
     1
 71
     1
340
146F8
340
146F9
340
146FA
  0
GROUP
  5
4C11
102
{ACAD_REACTORS
330
D
102
}
330
D
100
AcDbGroup
300

 70
     1
 71
     1
  0
GROUP
  5
4C12
102
{ACAD_REACTORS
330
D
102
}
330
D
100
AcDbGroup
300

 70
     1
 71
     1
  0
GROUP
  5
4C13
102
{ACAD_REACTORS
330
D
102
}
330
D
100
AcDbGroup
300

 70
     1
 71
     1
  0
GROUP
  5
4C14
102
{ACAD_REACTORS
330
D
102
}
330
D
100
AcDbGroup
300

 70
     1
 71
     1
  0
GROUP
  5
4C15
102
{ACAD_REACTORS
330
D
102
}
330
D
100
AcDbGroup
300

 70
     1
 71
     1
  0
GROUP
  5
146A2
102
{ACAD_REACTORS
330
D
102
}
330
D
100
AcDbGroup
300

 70
     1
 71
     1
340
1469F
340
146A0
340
1469E
340
146A1
  0
GROUP
  5
4C16
102
{ACAD_REACTORS
330
D
102
}
330
D
100
AcDbGroup
300

 70
     1
 71
     1
  0
GROUP
  5
4C17
102
{ACAD_REACTORS
330
D
102
}
330
D
100
AcDbGroup
300

 70
     1
 71
     1
  0
GROUP
  5
477F
102
{ACAD_REACTORS
330
D
102
}
330
D
100
AcDbGroup
300

 70
     1
 71
     1
  0
GROUP
  5
4780
102
{ACAD_REACTORS
330
D
102
}
330
D
100
AcDbGroup
300

 70
     1
 71
     1
  0
GROUP
  5
4781
102
{ACAD_REACTORS
330
D
102
}
330
D
100
AcDbGroup
300

 70
     1
 71
     1
  0
GROUP
  5
4C0E
102
{ACAD_REACTORS
330
D
102
}
330
D
100
AcDbGroup
300

 70
     1
 71
     1
  0
GROUP
  5
4C0F
102
{ACAD_REACTORS
330
D
102
}
330
D
100
AcDbGroup
300

 70
     1
 71
     1
  0
GROUP
  5
14697
102
{ACAD_REACTORS
330
D
102
}
330
D
100
AcDbGroup
300

 70
     1
 71
     1
340
14696
340
14695
340
14693
340
14694
  0
GROUP
  5
1469D
102
{ACAD_REACTORS
330
D
102
}
330
D
100
AcDbGroup
300

 70
     1
 71
     1
340
1469A
340
1469B
340
1469C
340
14699
  0
GROUP
  5
14803
102
{ACAD_REACTORS
330
D
102
}
330
D
100
AcDbGroup
300

 70
     1
 71
     1
340
147EF
340
147F1
340
147F0
340
147F2
  0
GROUP
  5
146A7
102
{ACAD_REACTORS
330
D
102
}
330
D
100
AcDbGroup
300

 70
     1
 71
     1
340
146A4
340
146A5
340
146A6
340
146A3
  0
GROUP
  5
14804
102
{ACAD_REACTORS
330
D
102
}
330
D
100
AcDbGroup
300

 70
     1
 71
     1
340
147EE
340
147F5
340
147ED
340
147F6
  0
GROUP
  5
14805
102
{ACAD_REACTORS
330
D
102
}
330
D
100
AcDbGroup
300

 70
     1
 71
     1
340
147EB
340
147F4
340
147EC
340
147F3
  0
GROUP
  5
14806
102
{ACAD_REACTORS
330
D
102
}
330
D
100
AcDbGroup
300

 70
     1
 71
     1
340
147FE
340
14801
340
147FD
340
14802
  0
GROUP
  5
14807
102
{ACAD_REACTORS
330
D
102
}
330
D
100
AcDbGroup
300

 70
     1
 71
     1
340
147FC
340
147FF
340
147FB
340
14800
  0
GROUP
  5
4C10
102
{ACAD_REACTORS
330
D
102
}
330
D
100
AcDbGroup
300

 70
     1
 71
     1
  0
GROUP
  5
146AC
102
{ACAD_REACTORS
330
D
102
}
330
D
100
AcDbGroup
300

 70
     1
 71
     1
340
146A9
340
146AA
340
146AB
340
146A8
  0
GROUP
  5
146DF
102
{ACAD_REACTORS
330
D
102
}
330
D
100
AcDbGroup
300

 70
     1
 71
     1
340
146C4
340
146C3
340
146C2
340
146C1
340
146C0
340
146BF
  0
GROUP
  5
146E6
102
{ACAD_REACTORS
330
D
102
}
330
D
100
AcDbGroup
300

 70
     1
 71
     1
340
146E1
340
146E2
340
146E3
340
146E0
340
146E4
340
146E5
  0
GROUP
  5
146F3
102
{ACAD_REACTORS
330
D
102
}
330
D
100
AcDbGroup
300

 70
     1
 71
     1
340
146EE
340
146EF
340
146F0
340
146ED
340
146F1
340
146F2
  0
GROUP
  5
146F4
102
{ACAD_REACTORS
330
D
102
}
330
D
100
AcDbGroup
300

 70
     1
 71
     1
340
146E8
340
146E9
340
146E7
340
146EA
340
146EB
340
146EC
  0
MLINESTYLE
  5
13
102
{ACAD_REACTORS
330
E
102
}
330
E
100
AcDbMlineStyle
  2
STANDARD
 70
     0
  3

 62
     0
 51
90.0
 52
90.0
 71
     2
 49
0.5
 62
   256
  6
BYLAYER
 49
-0.5
 62
   256
  6
BYLAYER
  0
ACDBPLACEHOLDER
  5
5C7C
102
{ACAD_REACTORS
330
5C7B
102
}
330
5C7B
100
AcDbPlaceHolder
280
     0
  0
XRECORD
  5
14811
102
{ACAD_REACTORS
330
14810
102
}
330
14810
100
AcDbXrecord
 90
        1
  0
XRECORD
  5
14812
102
{ACAD_REACTORS
330
14810
102
}
330
14810
100
AcDbXrecord
 90
       70
  0
XRECORD
  5
14813
102
{ACAD_REACTORS
330
14810
102
}
330
14810
100
AcDbXrecord
  1

  0
XRECORD
  5
14814
102
{ACAD_REACTORS
330
14810
102
}
330
14810
100
AcDbXrecord
  1

  0
XRECORD
  5
14815
102
{ACAD_REACTORS
330
14810
102
}
330
14810
100
AcDbXrecord
340
5C7D
  0
XRECORD
  5
14816
102
{ACAD_REACTORS
330
14810
102
}
330
14810
100
AcDbXrecord
340
5C7E
  0
XRECORD
  5
14817
102
{ACAD_REACTORS
330
14810
102
}
330
14810
100
AcDbXrecord
340
5C7B
  0
XRECORD
  5
14818
102
{ACAD_REACTORS
330
14810
102
}
330
14810
100
AcDbXrecord
 90
    10781
  0
XRECORD
  5
14819
102
{ACAD_REACTORS
330
14810
102
}
330
14810
100
AcDbXrecord
 90
        0
  0
XRECORD
  5
1481A
102
{ACAD_REACTORS
330
14810
102
}
330
14810
100
AcDbXrecord
 90
        0
  0
XRECORD
  5
1481B
102
{ACAD_REACTORS
330
14810
102
}
330
14810
100
AcDbXrecord
  1
{225A7F0D-DA29-11D8-946A-0000E2416295}
  0
XRECORD
  5
1481C
102
{ACAD_REACTORS
330
14810
102
}
330
14810
100
AcDbXrecord
  1
{02A5C75D-DC74-45F4-8C1F-12083D3E1428}
  0
XRECORD
  5
1481D
102
{ACAD_REACTORS
330
14810
102
}
330
14810
100
AcDbXrecord
 40
0.0
  0
XRECORD
  5
1481E
102
{ACAD_REACTORS
330
14810
102
}
330
14810
100
AcDbXrecord
340
0
  0
XRECORD
  5
1481F
102
{ACAD_REACTORS
330
14810
102
}
330
14810
100
AcDbXrecord
 70
     0
  0
XRECORD
  5
14820
102
{ACAD_REACTORS
330
14810
102
}
330
14810
100
AcDbXrecord
340
0
  0
XRECORD
  5
14821
102
{ACAD_REACTORS
330
14810
102
}
330
14810
100
AcDbXrecord
 10
0.0
 20
0.0
 30
0.0
  0
XRECORD
  5
14822
102
{ACAD_REACTORS
330
14810
102
}
330
14810
100
AcDbXrecord
 10
0.0
 20
0.0
 30
0.0
  0
XRECORD
  5
14823
102
{ACAD_REACTORS
330
14810
102
}
330
14810
100
AcDbXrecord
 10
0.0
 20
0.0
 30
0.0
  0
XRECORD
  5
14824
102
{ACAD_REACTORS
330
14810
102
}
330
14810
100
AcDbXrecord
 10
0.0
 20
0.0
 30
0.0
  0
XRECORD
  5
14825
102
{ACAD_REACTORS
330
14810
102
}
330
14810
100
AcDbXrecord
 10
0.0
 20
0.0
 30
0.0
  0
XRECORD
  5
14826
102
{ACAD_REACTORS
330
14810
102
}
330
14810
100
AcDbXrecord
 10
0.0
 20
0.0
 30
0.0
  0
XRECORD
  5
14827
102
{ACAD_REACTORS
330
14810
102
}
330
14810
100
AcDbXrecord
340
0
  0
XRECORD
  5
14828
102
{ACAD_REACTORS
330
14810
102
}
330
14810
100
AcDbXrecord
 70
     0
  0
XRECORD
  5
14829
102
{ACAD_REACTORS
330
14810
102
}
330
14810
100
AcDbXrecord
340
0
  0
XRECORD
  5
1482A
102
{ACAD_REACTORS
330
14810
102
}
330
14810
100
AcDbXrecord
 10
0.0
 20
0.0
 30
0.0
  0
XRECORD
  5
1482B
102
{ACAD_REACTORS
330
14810
102
}
330
14810
100
AcDbXrecord
 10
0.0
 20
0.0
 30
0.0
  0
XRECORD
  5
1482C
102
{ACAD_REACTORS
330
14810
102
}
330
14810
100
AcDbXrecord
 10
0.0
 20
0.0
 30
0.0
  0
XRECORD
  5
1482D
102
{ACAD_REACTORS
330
14810
102
}
330
14810
100
AcDbXrecord
 10
0.0
 20
0.0
 30
0.0
  0
XRECORD
  5
1482E
102
{ACAD_REACTORS
330
14810
102
}
330
14810
100
AcDbXrecord
 10
0.0
 20
0.0
 30
0.0
  0
XRECORD
  5
1482F
102
{ACAD_REACTORS
330
14810
102
}
330
14810
100
AcDbXrecord
 10
0.0
 20
0.0
 30
0.0
  0
XRECORD
  5
130FC
102
{ACAD_REACTORS
330
130FB
102
}
330
130FB
100
AcDbXrecord
  1
BASE
  1
BASE*
  1
*
  1
*
 70
     0
  1
*
  1
*
  0
XRECORD
  5
130FD
102
{ACAD_REACTORS
330
130FB
102
}
330
130FB
100
AcDbXrecord
  1
CASE
  1
CASE*
  1
*
  1
*
 70
     0
  1
*
  1
*
  0
XRECORD
  5
130FE
102
{ACAD_REACTORS
330
130FB
102
}
330
130FB
100
AcDbXrecord
  1
KIKOU
  1
KIKOU*
  1
*
  1
*
 70
     0
  1
*
  1
*
  0
ENDSEC
  0
EOF
