  0
SECTION
  2
HEADER
  9
$ACADVER
  1
AC1014
  9
$ACADMAINTVER
 70
     9
  9
$DWGCODEPAGE
  3
ANSI_932
  9
$INSBASE
 10
0.0
 20
0.0
 30
0.0
  9
$EXTMIN
 10
-1611.188889060103
 20
1523.85
 30
-0.00000001
  9
$EXTMAX
 10
-1331.14412377729
 20
1745.095368753726
 30
0.00000001
  9
$LIMMIN
 10
0.0
 20
0.0
  9
$LIMMAX
 10
420.0
 20
297.0
  9
$ORTHOMODE
 70
     1
  9
$REGENMODE
 70
     1
  9
$FILLMODE
 70
     1
  9
$QTEXTMODE
 70
     0
  9
$MIRRTEXT
 70
     1
  9
$DRAGMODE
 70
     2
  9
$LTSCALE
 40
1.0
  9
$OSMODE
 70
    37
  9
$ATTMODE
 70
     1
  9
$TEXTSIZE
 40
2.5
  9
$TRACEWID
 40
1.0
  9
$TEXTSTYLE
  7
ゴシック体
  9
$CLAYER
  8
PL1
  9
$CELTYPE
  6
BYLAYER
  9
$CECOLOR
 62
   256
  9
$CELTSCALE
 40
1.0
  9
$DELOBJ
 70
     1
  9
$DISPSILH
 70
     0
  9
$DIMSCALE
 40
0.0
  9
$DIMASZ
 40
3.0
  9
$DIMEXO
 40
0.5
  9
$DIMDLI
 40
0.5
  9
$DIMRND
 40
0.0
  9
$DIMDLE
 40
0.0
  9
$DIMEXE
 40
0.5
  9
$DIMTP
 40
0.0
  9
$DIMTM
 40
0.0
  9
$DIMTXT
 40
3.5
  9
$DIMCEN
 40
0.0
  9
$DIMTSZ
 40
0.0
  9
$DIMTOL
 70
     0
  9
$DIMLIM
 70
     0
  9
$DIMTIH
 70
     0
  9
$DIMTOH
 70
     0
  9
$DIMSE1
 70
     0
  9
$DIMSE2
 70
     0
  9
$DIMTAD
 70
     1
  9
$DIMZIN
 70
     8
  9
$DIMBLK
  1

  9
$DIMASO
 70
     1
  9
$DIMSHO
 70
     1
  9
$DIMPOST
  1

  9
$DIMAPOST
  1

  9
$DIMALT
 70
     0
  9
$DIMALTD
 70
     2
  9
$DIMALTF
 40
25.4
  9
$DIMLFAC
 40
1.0
  9
$DIMTOFL
 70
     1
  9
$DIMTVP
 40
0.0
  9
$DIMTIX
 70
     0
  9
$DIMSOXD
 70
     0
  9
$DIMSAH
 70
     0
  9
$DIMBLK1
  1

  9
$DIMBLK2
  1

  9
$DIMSTYLE
  2
標準スタイル
  9
$DIMCLRD
 70
     1
  9
$DIMCLRE
 70
     1
  9
$DIMCLRT
 70
     1
  9
$DIMTFAC
 40
1.0
  9
$DIMGAP
 40
1.0
  9
$DIMJUST
 70
     0
  9
$DIMSD1
 70
     0
  9
$DIMSD2
 70
     0
  9
$DIMTOLJ
 70
     1
  9
$DIMTZIN
 70
     8
  9
$DIMALTZ
 70
     0
  9
$DIMALTTZ
 70
     0
  9
$DIMFIT
 70
     3
  9
$DIMUPT
 70
     0
  9
$DIMUNIT
 70
     2
  9
$DIMDEC
 70
     2
  9
$DIMTDEC
 70
     2
  9
$DIMALTU
 70
     2
  9
$DIMALTTD
 70
     2
  9
$DIMTXSTY
  7
ゴシック体
  9
$DIMAUNIT
 70
     0
  9
$LUNITS
 70
     2
  9
$LUPREC
 70
     4
  9
$SKETCHINC
 40
1.0
  9
$FILLETRAD
 40
0.0
  9
$AUNITS
 70
     0
  9
$AUPREC
 70
     0
  9
$MENU
  1
.
  9
$ELEVATION
 40
0.0
  9
$PELEVATION
 40
0.0
  9
$THICKNESS
 40
0.0
  9
$LIMCHECK
 70
     0
  9
$BLIPMODE
 70
     0
  9
$CHAMFERA
 40
10.0
  9
$CHAMFERB
 40
10.0
  9
$CHAMFERC
 40
2.0
  9
$CHAMFERD
 40
0.7853981633974483
  9
$SKPOLY
 70
     0
  9
$TDCREATE
 40
2450495.493631365
  9
$TDUPDATE
 40
2455484.420680879
  9
$TDINDWG
 40
1.9045504167
  9
$TDUSRTIMER
 40
1.9045504167
  9
$USRTIMER
 70
     1
  9
$ANGBASE
 50
0.0
  9
$ANGDIR
 70
     0
  9
$PDMODE
 70
    99
  9
$PDSIZE
 40
0.0
  9
$PLINEWID
 40
0.0
  9
$COORDS
 70
     1
  9
$SPLFRAME
 70
     0
  9
$SPLINETYPE
 70
     6
  9
$SPLINESEGS
 70
     8
  9
$ATTDIA
 70
     0
  9
$ATTREQ
 70
     1
  9
$HANDLING
 70
 10241
  9
$HANDSEED
  5
1688E
  9
$SURFTAB1
 70
     6
  9
$SURFTAB2
 70
     6
  9
$SURFTYPE
 70
     6
  9
$SURFU
 70
     6
  9
$SURFV
 70
     6
  9
$UCSNAME
  2

  9
$UCSORG
 10
0.0
 20
0.0
 30
0.0
  9
$UCSXDIR
 10
1.0
 20
0.0
 30
0.0
  9
$UCSYDIR
 10
0.0
 20
1.0
 30
0.0
  9
$PUCSNAME
  2

  9
$PUCSORG
 10
0.0
 20
0.0
 30
0.0
  9
$PUCSXDIR
 10
1.0
 20
0.0
 30
0.0
  9
$PUCSYDIR
 10
0.0
 20
1.0
 30
0.0
  9
$USERI1
 70
     0
  9
$USERI2
 70
     0
  9
$USERI3
 70
     0
  9
$USERI4
 70
     0
  9
$USERI5
 70
     0
  9
$USERR1
 40
0.0
  9
$USERR2
 40
0.0
  9
$USERR3
 40
0.0
  9
$USERR4
 40
0.0
  9
$USERR5
 40
0.0
  9
$WORLDVIEW
 70
     1
  9
$SHADEDGE
 70
     3
  9
$SHADEDIF
 70
    70
  9
$TILEMODE
 70
     0
  9
$MAXACTVP
 70
    16
  9
$PINSBASE
 10
0.0
 20
0.0
 30
0.0
  9
$PLIMCHECK
 70
     0
  9
$PEXTMIN
 10
29.03619555254135
 20
27.69602733303884
 30
0.0
  9
$PEXTMAX
 10
414.5361955525411
 20
287.6960273330388
 30
0.0
  9
$PLIMMIN
 10
11.81292516792682
 20
9.198315512921345
  9
$PLIMMAX
 10
431.7595804413643
 20
306.2089661476869
  9
$UNITMODE
 70
     0
  9
$VISRETAIN
 70
     0
  9
$PLINEGEN
 70
     0
  9
$PSLTSCALE
 70
     1
  9
$TREEDEPTH
 70
  3020
  9
$PICKSTYLE
 70
     1
  9
$CMLSTYLE
  2
STANDARD
  9
$CMLJUST
 70
     0
  9
$CMLSCALE
 40
1.0
  9
$PROXYGRAPHICS
 70
     1
  9
$MEASUREMENT
 70
     1
  0
ENDSEC
  0
SECTION
  2
CLASSES
  0
CLASS
  1
LWPOLYLINE
  2
AcDbPolyline
  3
AutoCAD 2000
 90
        0
280
     0
281
     1
  0
CLASS
  1
HATCH
  2
AcDbHatch
  3
AutoCAD 2000
 90
        0
280
     0
281
     1
  0
CLASS
  1
ACDBDICTIONARYWDFLT
  2
AcDbDictionaryWithDefault
  3
AutoCAD 2000
 90
        0
280
     0
281
     0
  0
CLASS
  1
ACDBPLACEHOLDER
  2
AcDbPlaceHolder
  3
AutoCAD 2000
 90
        0
280
     0
281
     0
  0
CLASS
  1
LAYOUT
  2
AcDbLayout
  3
AutoCAD 2000
 90
        0
280
     0
281
     0
  0
CLASS
  1
LONG_TRANSACTION
  2
AcDbLongTransaction
  3
AutoCAD 2000
 90
        0
280
     0
281
     0
  0
CLASS
  1
LWPOLYLINE
  2
AcDbPolyline
  3
AutoCAD 2000
 90
        0
280
     0
281
     1
  0
CLASS
  1
HATCH
  2
AcDbHatch
  3
AutoCAD 2000
 90
        0
280
     0
281
     1
  0
CLASS
  1
XRECORD
  2
AcDbXrecord
  3
AutoCAD 2000
 90
        0
280
     0
281
     0
  0
ENDSEC
  0
SECTION
  2
TABLES
  0
TABLE
  2
VPORT
  5
8
330
0
100
AcDbSymbolTable
 70
     2
  0
VPORT
  5
1684D
330
8
100
AcDbSymbolTableRecord
100
AcDbViewportTableRecord
  2
*ACTIVE
 70
     0
 10
0.0
 20
0.0
 11
1.0
 21
1.0
 12
-1471.16033004051
 22
1634.442544650215
 13
0.0
 23
0.0
 14
5.0
 24
5.0
 15
0.0
 25
0.0
 16
0.0
 26
0.0
 36
1.0
 17
0.0
 27
0.0
 37
0.0
 40
223.8814491914945
 41
1.741154562383612
 42
50.0
 43
0.0
 44
0.0
 50
0.0
 51
0.0
 71
     0
 72
   100
 73
     1
 74
     0
 75
     0
 76
     0
 77
     0
 78
     0
  0
ENDTAB
  0
TABLE
  2
LTYPE
  5
5
330
0
100
AcDbSymbolTable
 70
     3
  0
LTYPE
  5
14
330
5
100
AcDbSymbolTableRecord
100
AcDbLinetypeTableRecord
  2
BYBLOCK
 70
     0
  3

 72
    65
 73
     0
 40
0.0
  0
LTYPE
  5
15
330
5
100
AcDbSymbolTableRecord
100
AcDbLinetypeTableRecord
  2
BYLAYER
 70
     0
  3

 72
    65
 73
     0
 40
0.0
  0
LTYPE
  5
16
330
5
100
AcDbSymbolTableRecord
100
AcDbLinetypeTableRecord
  2
CONTINUOUS
 70
     0
  3
Solid line
 72
    65
 73
     0
 40
0.0
  0
LTYPE
  5
329
330
5
100
AcDbSymbolTableRecord
100
AcDbLinetypeTableRecord
  2
DASHEDX2
 70
     0
  3
____  ____  ____  ____  ____  ____  ____  ____ 
 72
    65
 73
     2
 40
1.5
 49
1.0
 74
     0
 49
-0.5
 74
     0
  0
LTYPE
  5
1673C
330
5
100
AcDbSymbolTableRecord
100
AcDbLinetypeTableRecord
  2
CENTERX2
 70
     0
  3
Center (2x) ________  __  ________  __  _____
 72
    65
 73
     4
 40
101.6
 49
63.5
 74
     0
 49
-12.7
 74
     0
 49
12.7
 74
     0
 49
-12.7
 74
     0
  0
ENDTAB
  0
TABLE
  2
LAYER
  5
2
102
{ACAD_XDICTIONARY
360
130FA
102
}
330
0
100
AcDbSymbolTable
 70
     5
  0
LAYER
  5
F
330
2
100
AcDbSymbolTableRecord
100
AcDbLayerTableRecord
  2
0
 70
     0
 62
     7
  6
CONTINUOUS
  0
LAYER
  5
18F
330
2
100
AcDbSymbolTableRecord
100
AcDbLayerTableRecord
  2
ZISSEN1
 70
     0
 62
     7
  6
CONTINUOUS
  0
LAYER
  5
529
330
2
100
AcDbSymbolTableRecord
100
AcDbLayerTableRecord
  2
SUNPOU
 70
     0
 62
     1
  6
CONTINUOUS
  0
LAYER
  5
3A9B
330
2
100
AcDbSymbolTableRecord
100
AcDbLayerTableRecord
  2
DEFPOINTS
 70
     0
 62
     7
  6
CONTINUOUS
  0
LAYER
  5
1673D
330
2
100
AcDbSymbolTableRecord
100
AcDbLayerTableRecord
  2
PL1
 70
     0
 62
     6
  6
CENTERX2
  0
ENDTAB
  0
TABLE
  2
STYLE
  5
3
330
0
100
AcDbSymbolTable
 70
     3
  0
STYLE
  5
10
330
3
100
AcDbSymbolTableRecord
100
AcDbTextStyleTableRecord
  2
STANDARD
 70
     0
 40
0.0
 41
1.0
 50
0.0
 71
     0
 42
3.0
  3
txt
  4
BigFont
  0
STYLE
  5
1960
330
3
100
AcDbSymbolTableRecord
100
AcDbTextStyleTableRecord
  2
ゴシック体
 70
     0
 40
0.0
 41
1.0
 50
0.0
 71
     0
 42
2.5
  3
MS Gothic.ttf
  4

1001
ACAD
1000
MS Gothic
1071
    32817
  0
STYLE
  5
131A6
330
3
100
AcDbSymbolTableRecord
100
AcDbTextStyleTableRecord
  2
ｽﾀｲﾙ2
 70
     0
 40
0.0
 41
1.0
 50
0.0
 71
     0
 42
3.0
  3
ARIAL.TTF
  4

1001
ACAD
1000
Arial
1071
       34
  0
ENDTAB
  0
TABLE
  2
VIEW
  5
6
330
0
100
AcDbSymbolTable
 70
     0
  0
ENDTAB
  0
TABLE
  2
UCS
  5
7
330
0
100
AcDbSymbolTable
 70
     0
  0
ENDTAB
  0
TABLE
  2
APPID
  5
9
330
0
100
AcDbSymbolTable
 70
     5
  0
APPID
  5
11
330
9
100
AcDbSymbolTableRecord
100
AcDbRegAppTableRecord
  2
ACAD
 70
     0
  0
APPID
  5
4005
330
9
100
AcDbSymbolTableRecord
100
AcDbRegAppTableRecord
  2
CONTENTTABDATA
 70
     0
  0
APPID
  5
4006
330
9
100
AcDbSymbolTableRecord
100
AcDbRegAppTableRecord
  2
CONTENTCURRENTTAB
 70
     0
  0
APPID
  5
477B
330
9
100
AcDbSymbolTableRecord
100
AcDbRegAppTableRecord
  2
CONTENTBLOCKDESCRIPTION
 70
     0
  0
APPID
  5
477C
330
9
100
AcDbSymbolTableRecord
100
AcDbRegAppTableRecord
  2
CONTENTBLOCKICON
 70
     0
  0
ENDTAB
  0
TABLE
  2
DIMSTYLE
  5
A
330
0
100
AcDbSymbolTable
 70
     2
  0
DIMSTYLE
105
1D
330
A
100
AcDbSymbolTableRecord
100
AcDbDimStyleTableRecord
  2
STANDARD
 70
     0
  3

  4

  5

  6

  7

 40
1.0
 41
0.18
 42
0.0625
 43
0.38
 44
0.18
 45
0.0
 46
0.0
 47
0.0
 48
0.0
140
0.18
141
0.09
142
0.0
143
25.4
144
1.0
145
0.0
146
1.0
147
0.09
 71
     0
 72
     0
 73
     1
 74
     1
 75
     0
 76
     0
 77
     0
 78
     0
170
     0
171
     2
172
     0
173
     0
174
     0
175
     0
176
     0
177
     0
178
     0
270
     2
271
     4
272
     4
273
     2
274
     2
340
10
275
     0
280
     0
281
     0
282
     0
283
     1
284
     0
285
     0
286
     0
287
     3
288
     0
  0
DIMSTYLE
105
52E
102
{ACAD_REACTORS
330
15F6D
330
165AB
330
16599
330
1658C
330
16572
330
1657F
330
15F6C
102
}
330
A
100
AcDbSymbolTableRecord
100
AcDbDimStyleTableRecord
  2
標準スタイル
 70
     0
  3

  4

  5

  6

  7

 40
0.0
 41
3.0
 42
0.5
 43
0.5
 44
0.5
 45
0.0
 46
0.0
 47
0.0
 48
0.0
140
3.5
141
0.0
142
0.0
143
25.4
144
1.0
145
0.0
146
1.0
147
1.0
 71
     0
 72
     0
 73
     0
 74
     0
 75
     0
 76
     0
 77
     1
 78
     8
170
     0
171
     2
172
     1
173
     0
174
     0
175
     0
176
     1
177
     1
178
     1
270
     2
271
     2
272
     2
273
     2
274
     2
340
1960
275
     0
280
     0
281
     0
282
     0
283
     1
284
     8
285
     0
286
     0
287
     3
288
     0
  0
ENDTAB
  0
TABLE
  2
BLOCK_RECORD
  5
1
330
0
100
AcDbSymbolTable
 70
     7
  0
BLOCK_RECORD
  5
1A
102
{ACAD_XDICTIONARY
360
1686E
102
}
330
1
100
AcDbSymbolTableRecord
100
AcDbBlockTableRecord
  2
*MODEL_SPACE
  0
BLOCK_RECORD
  5
5D8E
102
{ACAD_XDICTIONARY
360
16870
102
}
330
1
100
AcDbSymbolTableRecord
100
AcDbBlockTableRecord
  2
*PAPER_SPACE
  0
BLOCK_RECORD
  5
164DF
330
1
100
AcDbSymbolTableRecord
100
AcDbBlockTableRecord
  2
*D0
  0
BLOCK_RECORD
  5
164EB
330
1
100
AcDbSymbolTableRecord
100
AcDbBlockTableRecord
  2
*D1
  0
BLOCK_RECORD
  5
16573
330
1
100
AcDbSymbolTableRecord
100
AcDbBlockTableRecord
  2
*D2
  0
BLOCK_RECORD
  5
16580
330
1
100
AcDbSymbolTableRecord
100
AcDbBlockTableRecord
  2
*D3
  0
BLOCK_RECORD
  5
1658D
330
1
100
AcDbSymbolTableRecord
100
AcDbBlockTableRecord
  2
*D4
  0
BLOCK_RECORD
  5
1659A
330
1
100
AcDbSymbolTableRecord
100
AcDbBlockTableRecord
  2
*D5
  0
BLOCK_RECORD
  5
165AC
330
1
100
AcDbSymbolTableRecord
100
AcDbBlockTableRecord
  2
*D6
  0
ENDTAB
  0
ENDSEC
  0
SECTION
  2
BLOCKS
  0
BLOCK
  5
1B
330
1A
100
AcDbEntity
  8
0
100
AcDbBlockBegin
  2
*MODEL_SPACE
 70
     0
 10
0.0
 20
0.0
 30
0.0
  3
*MODEL_SPACE
  1

  0
ENDBLK
  5
1C
330
1A
100
AcDbEntity
  8
0
100
AcDbBlockEnd
  0
BLOCK
  5
5E60
330
5D8E
100
AcDbEntity
 67
     1
  8
0
100
AcDbBlockBegin
  2
*PAPER_SPACE
 70
     0
 10
0.0
 20
0.0
 30
0.0
  3
*PAPER_SPACE
  1

  0
ENDBLK
  5
5E61
330
5D8E
100
AcDbEntity
 67
     1
  8
0
100
AcDbBlockEnd
  0
BLOCK
  5
164E9
330
164DF
100
AcDbEntity
  8
0
100
AcDbBlockBegin
  2
*D0
 70
     1
 10
0.0
 20
0.0
 30
0.0
  3
*D0
  1

  0
LINE
  5
16819
330
164DF
100
AcDbEntity
  8
ZISSEN1
 62
     1
100
AcDbLine
 10
-1358.719999999999
 20
1659.669999999999
 30
0.0
 11
-1345.298354965222
 21
1659.669999999999
 31
0.0
  0
LINE
  5
1681A
330
164DF
100
AcDbEntity
  8
ZISSEN1
 62
     1
100
AcDbLine
 10
-1378.191
 20
1599.669999999999
 30
0.0
 11
-1345.298354965222
 21
1599.669999999999
 31
0.0
  0
LINE
  5
1681B
330
164DF
100
AcDbEntity
  8
ZISSEN1
 62
     1
100
AcDbLine
 10
-1345.798354965222
 20
1656.669999999999
 30
0.0
 11
-1345.798354965222
 21
1602.669999999999
 31
0.0
  0
SOLID
  5
1681C
330
164DF
100
AcDbEntity
  8
ZISSEN1
 62
     1
100
AcDbTrace
 10
-1346.298354965222
 20
1656.669999999999
 30
0.0
 11
-1345.298354965222
 21
1656.669999999999
 31
0.0
 12
-1345.798354965222
 22
1659.669999999999
 32
0.0
 13
-1345.798354965222
 23
1659.669999999999
 33
0.0
  0
SOLID
  5
1681D
330
164DF
100
AcDbEntity
  8
ZISSEN1
 62
     1
100
AcDbTrace
 10
-1346.298354965222
 20
1602.669999999999
 30
0.0
 11
-1345.298354965222
 21
1602.669999999999
 31
0.0
 12
-1345.798354965222
 22
1599.669999999999
 32
0.0
 13
-1345.798354965222
 23
1599.669999999999
 33
0.0
  0
MTEXT
  5
1681E
330
164DF
100
AcDbEntity
  8
ZISSEN1
 62
     1
100
AcDbMText
 10
-1348.548354965223
 20
1629.669999999999
 30
0.0
 40
3.5
 41
0.0
 71
     5
 72
     1
  1
\A1;60
 11
0.0000000000000001
 21
1.0
 31
0.0
1001
ACAD
1000
MTEXTBEGIN
1070
    73
1070
     1
1070
    44
1040
1.0
1070
    74
1070
     0
1000
MTEXTEND
  0
POINT
  5
1681F
330
164DF
100
AcDbEntity
  8
DEFPOINTS
 62
     0
100
AcDbPoint
 10
-1359.219999999999
 20
1659.669999999999
 30
0.0
  0
POINT
  5
16820
330
164DF
100
AcDbEntity
  8
DEFPOINTS
 62
     0
100
AcDbPoint
 10
-1378.691
 20
1599.669999999999
 30
0.0
  0
POINT
  5
16821
330
164DF
100
AcDbEntity
  8
DEFPOINTS
 62
     0
100
AcDbPoint
 10
-1345.798354965222
 20
1599.669999999999
 30
0.0
  0
ENDBLK
  5
164EA
330
164DF
100
AcDbEntity
  8
0
100
AcDbBlockEnd
  0
BLOCK
  5
164F5
330
164EB
100
AcDbEntity
  8
0
100
AcDbBlockBegin
  2
*D1
 70
     1
 10
0.0
 20
0.0
 30
0.0
  3
*D1
  1

  0
LINE
  5
16798
330
164EB
100
AcDbEntity
  8
ZISSEN1
 62
     1
100
AcDbLine
 10
-1358.219999999999
 20
1659.169999999999
 30
0.0
 11
-1358.219999999999
 21
1712.590045056303
 31
0.0
  0
LINE
  5
16799
330
164EB
100
AcDbEntity
  8
ZISSEN1
 62
     1
100
AcDbLine
 10
-1500.0
 20
1700.499999999999
 30
0.0
 11
-1500.0
 21
1712.590045056303
 31
0.0
  0
LINE
  5
1679A
330
164EB
100
AcDbEntity
  8
ZISSEN1
 62
     1
100
AcDbLine
 10
-1361.219999999999
 20
1712.090045056303
 30
0.0
 11
-1497.0
 21
1712.090045056303
 31
0.0
  0
SOLID
  5
1679B
330
164EB
100
AcDbEntity
  8
ZISSEN1
 62
     1
100
AcDbTrace
 10
-1361.219999999999
 20
1712.590045056303
 30
0.0
 11
-1361.219999999999
 21
1711.590045056303
 31
0.0
 12
-1358.219999999999
 22
1712.090045056303
 32
0.0
 13
-1358.219999999999
 23
1712.090045056303
 33
0.0
  0
SOLID
  5
1679C
330
164EB
100
AcDbEntity
  8
ZISSEN1
 62
     1
100
AcDbTrace
 10
-1497.0
 20
1712.590045056303
 30
0.0
 11
-1497.0
 21
1711.590045056303
 31
0.0
 12
-1500.0
 22
1712.090045056303
 32
0.0
 13
-1500.0
 23
1712.090045056303
 33
0.0
  0
MTEXT
  5
1679D
330
164EB
100
AcDbEntity
  8
ZISSEN1
 62
     1
100
AcDbMText
 10
-1429.109999999999
 20
1714.840045056303
 30
0.0
 40
3.5
 41
0.0
 71
     5
 72
     1
  1
\A1;141.78
1001
ACAD
1000
MTEXTBEGIN
1070
    73
1070
     1
1070
    44
1040
1.0
1070
    74
1070
     0
1000
MTEXTEND
  0
POINT
  5
1679E
330
164EB
100
AcDbEntity
  8
DEFPOINTS
 62
     0
100
AcDbPoint
 10
-1358.219999999999
 20
1658.669999999999
 30
0.0
  0
POINT
  5
1679F
330
164EB
100
AcDbEntity
  8
DEFPOINTS
 62
     0
100
AcDbPoint
 10
-1500.0
 20
1700.0
 30
0.0
  0
POINT
  5
167A0
330
164EB
100
AcDbEntity
  8
DEFPOINTS
 62
     0
100
AcDbPoint
 10
-1500.0
 20
1712.090045056303
 30
0.0
  0
ENDBLK
  5
164F6
330
164EB
100
AcDbEntity
  8
0
100
AcDbBlockEnd
  0
BLOCK
  5
1657D
330
16573
100
AcDbEntity
  8
0
100
AcDbBlockBegin
  2
*D2
 70
     1
 10
0.0
 20
0.0
 30
0.0
  3
*D2
  1

  0
LINE
  5
16807
330
16573
100
AcDbEntity
  8
ZISSEN1
 62
     1
100
AcDbLine
 10
-1500.0
 20
1586.750000000001
 30
0.0
 11
-1500.0
 21
1575.31214551423
 31
0.0
  0
LINE
  5
16808
330
16573
100
AcDbEntity
  8
ZISSEN1
 62
     1
100
AcDbLine
 10
-1442.009999999998
 20
1606.502999999999
 30
0.0
 11
-1442.009999999998
 21
1575.31214551423
 31
0.0
  0
LINE
  5
16809
330
16573
100
AcDbEntity
  8
ZISSEN1
 62
     1
100
AcDbLine
 10
-1497.0
 20
1575.81214551423
 30
0.0
 11
-1445.009999999998
 21
1575.81214551423
 31
0.0
  0
SOLID
  5
1680A
330
16573
100
AcDbEntity
  8
ZISSEN1
 62
     1
100
AcDbTrace
 10
-1497.0
 20
1576.31214551423
 30
0.0
 11
-1497.0
 21
1575.31214551423
 31
0.0
 12
-1500.0
 22
1575.81214551423
 32
0.0
 13
-1500.0
 23
1575.81214551423
 33
0.0
  0
SOLID
  5
1680B
330
16573
100
AcDbEntity
  8
ZISSEN1
 62
     1
100
AcDbTrace
 10
-1445.009999999998
 20
1576.31214551423
 30
0.0
 11
-1445.009999999998
 21
1575.31214551423
 31
0.0
 12
-1442.009999999998
 22
1575.81214551423
 32
0.0
 13
-1442.009999999998
 23
1575.81214551423
 33
0.0
  0
MTEXT
  5
1680C
330
16573
100
AcDbEntity
  8
ZISSEN1
 62
     1
100
AcDbMText
 10
-1471.004999999999
 20
1578.56214551423
 30
0.0
 40
3.5
 41
0.0
 71
     5
 72
     1
  1
\A1;57.99
1001
ACAD
1000
MTEXTBEGIN
1070
    73
1070
     1
1070
    44
1040
1.0
1070
    74
1070
     0
1000
MTEXTEND
  0
POINT
  5
1680D
330
16573
100
AcDbEntity
  8
DEFPOINTS
 62
     0
100
AcDbPoint
 10
-1500.0
 20
1587.25
 30
0.0
  0
POINT
  5
1680E
330
16573
100
AcDbEntity
  8
DEFPOINTS
 62
     0
100
AcDbPoint
 10
-1442.009999999998
 20
1607.002999999998
 30
0.0
  0
POINT
  5
1680F
330
16573
100
AcDbEntity
  8
DEFPOINTS
 62
     0
100
AcDbPoint
 10
-1442.009999999998
 20
1575.81214551423
 30
0.0
  0
ENDBLK
  5
1657E
330
16573
100
AcDbEntity
  8
0
100
AcDbBlockEnd
  0
BLOCK
  5
1658A
330
16580
100
AcDbEntity
  8
0
100
AcDbBlockBegin
  2
*D3
 70
     1
 10
0.0
 20
0.0
 30
0.0
  3
*D3
  1

  0
LINE
  5
16810
330
16580
100
AcDbEntity
  8
ZISSEN1
 62
     1
100
AcDbLine
 10
-1442.009999999998
 20
1606.502999999999
 30
0.0
 11
-1442.009999999998
 21
1575.31214551423
 31
0.0
  0
LINE
  5
16811
330
16580
100
AcDbEntity
  8
ZISSEN1
 62
     1
100
AcDbLine
 10
-1393.749999999998
 20
1606.502999999999
 30
0.0
 11
-1393.749999999998
 21
1575.31214551423
 31
0.0
  0
LINE
  5
16812
330
16580
100
AcDbEntity
  8
ZISSEN1
 62
     1
100
AcDbLine
 10
-1439.009999999998
 20
1575.81214551423
 30
0.0
 11
-1396.749999999998
 21
1575.81214551423
 31
0.0
  0
SOLID
  5
16813
330
16580
100
AcDbEntity
  8
ZISSEN1
 62
     1
100
AcDbTrace
 10
-1439.009999999998
 20
1576.31214551423
 30
0.0
 11
-1439.009999999998
 21
1575.31214551423
 31
0.0
 12
-1442.009999999998
 22
1575.81214551423
 32
0.0
 13
-1442.009999999998
 23
1575.81214551423
 33
0.0
  0
SOLID
  5
16814
330
16580
100
AcDbEntity
  8
ZISSEN1
 62
     1
100
AcDbTrace
 10
-1396.749999999998
 20
1576.31214551423
 30
0.0
 11
-1396.749999999998
 21
1575.31214551423
 31
0.0
 12
-1393.749999999998
 22
1575.81214551423
 32
0.0
 13
-1393.749999999998
 23
1575.81214551423
 33
0.0
  0
MTEXT
  5
16815
330
16580
100
AcDbEntity
  8
ZISSEN1
 62
     1
100
AcDbMText
 10
-1417.879999999998
 20
1578.56214551423
 30
0.0
 40
3.5
 41
0.0
 71
     5
 72
     1
  1
\A1;48.26
1001
ACAD
1000
MTEXTBEGIN
1070
    73
1070
     1
1070
    44
1040
1.0
1070
    74
1070
     0
1000
MTEXTEND
  0
POINT
  5
16816
330
16580
100
AcDbEntity
  8
DEFPOINTS
 62
     0
100
AcDbPoint
 10
-1442.009999999998
 20
1607.002999999998
 30
0.0
  0
POINT
  5
16817
330
16580
100
AcDbEntity
  8
DEFPOINTS
 62
     0
100
AcDbPoint
 10
-1393.749999999998
 20
1607.002999999999
 30
0.0
  0
POINT
  5
16818
330
16580
100
AcDbEntity
  8
DEFPOINTS
 62
     0
100
AcDbPoint
 10
-1393.749999999998
 20
1575.81214551423
 30
0.0
  0
ENDBLK
  5
1658B
330
16580
100
AcDbEntity
  8
0
100
AcDbBlockEnd
  0
BLOCK
  5
16597
330
1658D
100
AcDbEntity
  8
0
100
AcDbBlockBegin
  2
*D4
 70
     1
 10
0.0
 20
0.0
 30
0.0
  3
*D4
  1

  0
LINE
  5
167DB
330
1658D
100
AcDbEntity
  8
ZISSEN1
 62
     1
100
AcDbLine
 10
-1485.72
 20
1546.45
 30
0.0
 11
-1340.343115757581
 21
1546.45
 31
0.0
  0
LINE
  5
167DC
330
1658D
100
AcDbEntity
  8
ZISSEN1
 62
     1
100
AcDbLine
 10
-1357.72
 20
1534.45
 30
0.0
 11
-1340.343115757581
 21
1534.45
 31
0.0
  0
LINE
  5
167DD
330
1658D
100
AcDbEntity
  8
ZISSEN1
 62
     1
100
AcDbLine
 10
-1340.843115757581
 20
1543.45
 30
0.0
 11
-1340.843115757581
 21
1537.45
 31
0.0
  0
SOLID
  5
167DE
330
1658D
100
AcDbEntity
  8
ZISSEN1
 62
     1
100
AcDbTrace
 10
-1341.343115757581
 20
1543.45
 30
0.0
 11
-1340.343115757581
 21
1543.45
 31
0.0
 12
-1340.843115757581
 22
1546.45
 32
0.0
 13
-1340.843115757581
 23
1546.45
 33
0.0
  0
SOLID
  5
167DF
330
1658D
100
AcDbEntity
  8
ZISSEN1
 62
     1
100
AcDbTrace
 10
-1341.343115757581
 20
1537.45
 30
0.0
 11
-1340.343115757581
 21
1537.45
 31
0.0
 12
-1340.843115757581
 22
1534.45
 32
0.0
 13
-1340.843115757581
 23
1534.45
 33
0.0
  0
MTEXT
  5
167E0
330
1658D
100
AcDbEntity
  8
ZISSEN1
 62
     1
100
AcDbMText
 10
-1343.593115757581
 20
1540.45
 30
0.0
 40
3.5
 41
0.0
 71
     5
 72
     1
  1
\A1;12
 11
0.0000000000000001
 21
1.0
 31
0.0
1001
ACAD
1000
MTEXTBEGIN
1070
    73
1070
     1
1070
    44
1040
1.0
1070
    74
1070
     0
1000
MTEXTEND
  0
POINT
  5
167E1
330
1658D
100
AcDbEntity
  8
DEFPOINTS
 62
     0
100
AcDbPoint
 10
-1486.22
 20
1546.45
 30
0.0
  0
POINT
  5
167E2
330
1658D
100
AcDbEntity
  8
DEFPOINTS
 62
     0
100
AcDbPoint
 10
-1358.22
 20
1534.45
 30
0.0
  0
POINT
  5
167E3
330
1658D
100
AcDbEntity
  8
DEFPOINTS
 62
     0
100
AcDbPoint
 10
-1340.843115757581
 20
1534.45
 30
0.0
  0
ENDBLK
  5
16598
330
1658D
100
AcDbEntity
  8
0
100
AcDbBlockEnd
  0
BLOCK
  5
165A9
330
1659A
100
AcDbEntity
  8
0
100
AcDbBlockBegin
  2
*D5
 70
     1
 10
0.0
 20
0.0
 30
0.0
  3
*D5
  1

  0
LINE
  5
16872
330
1659A
100
AcDbEntity
  8
ZISSEN1
 62
     1
100
AcDbLine
 10
-1357.72
 20
1534.45
 30
0.0
 11
-1340.343115757581
 21
1534.45
 31
0.0
  0
LINE
  5
16873
330
1659A
100
AcDbEntity
  8
ZISSEN1
 62
     1
100
AcDbLine
 10
-1357.72
 20
1532.85
 30
0.0
 11
-1340.343115757581
 21
1532.85
 31
0.0
  0
LINE
  5
16874
330
1659A
100
AcDbEntity
  8
ZISSEN1
 62
     1
100
AcDbLine
 10
-1340.843115757581
 20
1537.45
 30
0.0
 11
-1340.843115757581
 21
1540.45
 31
0.0
  0
LINE
  5
16875
330
1659A
100
AcDbEntity
  8
ZISSEN1
 62
     1
100
AcDbLine
 10
-1340.843115757581
 20
1529.85
 30
0.0
 11
-1340.843115757581
 21
1526.85
 31
0.0
  0
LINE
  5
16876
330
1659A
100
AcDbEntity
  8
ZISSEN1
 62
     1
100
AcDbLine
 10
-1340.843115757581
 20
1533.65
 30
0.0
 11
-1331.14412377729
 21
1535.825
 31
0.0
  0
LINE
  5
16877
330
1659A
100
AcDbEntity
  8
ZISSEN1
 62
     1
100
AcDbLine
 10
-1331.14412377729
 20
1535.825
 30
0.0
 11
-1331.14412377729
 21
1543.658333333334
 31
0.0
  0
MTEXT
  5
16878
330
1659A
100
AcDbEntity
  8
ZISSEN1
 62
     1
100
AcDbMText
 10
-1333.894123777291
 20
1539.741666666667
 30
0.0
 40
3.5
 41
0.0
 71
     5
 72
     1
  1
\A1;1.6
 11
0.0000000000000001
 21
1.0
 31
0.0
  0
LINE
  5
16879
330
1659A
100
AcDbEntity
  8
ZISSEN1
 62
     1
100
AcDbLine
 10
-1340.843115757581
 20
1534.45
 30
0.0
 11
-1340.843115757581
 21
1532.85
 31
0.0
  0
LINE
  5
1687A
330
1659A
100
AcDbEntity
  8
ZISSEN1
 62
     1
100
AcDbLine
 10
-1340.843115757581
 20
1534.45
 30
0.0
 11
-1340.843115757581
 21
1532.85
 31
0.0
  0
SOLID
  5
1687B
330
1659A
100
AcDbEntity
  8
ZISSEN1
 62
     1
100
AcDbTrace
 10
-1341.343115757581
 20
1537.45
 30
0.0
 11
-1340.343115757581
 21
1537.45
 31
0.0
 12
-1340.843115757581
 22
1534.45
 32
0.0
 13
-1340.843115757581
 23
1534.45
 33
0.0
  0
SOLID
  5
1687C
330
1659A
100
AcDbEntity
  8
ZISSEN1
 62
     1
100
AcDbTrace
 10
-1341.343115757581
 20
1529.85
 30
0.0
 11
-1340.343115757581
 21
1529.85
 31
0.0
 12
-1340.843115757581
 22
1532.85
 32
0.0
 13
-1340.843115757581
 23
1532.85
 33
0.0
  0
POINT
  5
1687D
330
1659A
100
AcDbEntity
  8
DEFPOINTS
 62
     0
100
AcDbPoint
 10
-1358.22
 20
1534.45
 30
0.0
  0
POINT
  5
1687E
330
1659A
100
AcDbEntity
  8
DEFPOINTS
 62
     0
100
AcDbPoint
 10
-1358.22
 20
1532.85
 30
0.0
  0
POINT
  5
1687F
330
1659A
100
AcDbEntity
  8
DEFPOINTS
 62
     0
100
AcDbPoint
 10
-1340.843115757581
 20
1532.85
 30
0.0
  0
ENDBLK
  5
165AA
330
1659A
100
AcDbEntity
  8
0
100
AcDbBlockEnd
  0
BLOCK
  5
165BB
330
165AC
100
AcDbEntity
  8
0
100
AcDbBlockBegin
  2
*D6
 70
     1
 10
0.0
 20
0.0
 30
0.0
  3
*D6
  1

  0
LINE
  5
16880
330
165AC
100
AcDbEntity
  8
ZISSEN1
 62
     1
100
AcDbLine
 10
-1357.72
 20
1532.85
 30
0.0
 11
-1340.343115757581
 21
1532.85
 31
0.0
  0
LINE
  5
16881
330
165AC
100
AcDbEntity
  8
ZISSEN1
 62
     1
100
AcDbLine
 10
-1369.5
 20
1529.85
 30
0.0
 11
-1340.343115757581
 21
1529.85
 31
0.0
  0
LINE
  5
16882
330
165AC
100
AcDbEntity
  8
ZISSEN1
 62
     1
100
AcDbLine
 10
-1340.843115757581
 20
1535.85
 30
0.0
 11
-1340.843115757581
 21
1538.85
 31
0.0
  0
LINE
  5
16883
330
165AC
100
AcDbEntity
  8
ZISSEN1
 62
     1
100
AcDbLine
 10
-1340.843115757581
 20
1526.85
 30
0.0
 11
-1340.843115757581
 21
1523.85
 31
0.0
  0
LINE
  5
16884
330
165AC
100
AcDbEntity
  8
ZISSEN1
 62
     1
100
AcDbLine
 10
-1340.843115757581
 20
1531.35
 30
0.0
 11
-1334.697070038522
 21
1529.982897748531
 31
0.0
  0
LINE
  5
16885
330
165AC
100
AcDbEntity
  8
ZISSEN1
 62
     1
100
AcDbLine
 10
-1334.697070038522
 20
1529.982897748531
 30
0.0
 11
-1334.697070038522
 21
1525.649564415198
 31
0.0
  0
MTEXT
  5
16886
330
165AC
100
AcDbEntity
  8
ZISSEN1
 62
     1
100
AcDbMText
 10
-1337.447070038522
 20
1527.816231081864
 30
0.0
 40
3.5
 41
0.0
 71
     5
 72
     1
  1
\A1;3
 11
0.0000000000000001
 21
1.0
 31
0.0
  0
LINE
  5
16887
330
165AC
100
AcDbEntity
  8
ZISSEN1
 62
     1
100
AcDbLine
 10
-1340.843115757581
 20
1532.85
 30
0.0
 11
-1340.843115757581
 21
1529.85
 31
0.0
  0
LINE
  5
16888
330
165AC
100
AcDbEntity
  8
ZISSEN1
 62
     1
100
AcDbLine
 10
-1340.843115757581
 20
1532.85
 30
0.0
 11
-1340.843115757581
 21
1529.85
 31
0.0
  0
SOLID
  5
16889
330
165AC
100
AcDbEntity
  8
ZISSEN1
 62
     1
100
AcDbTrace
 10
-1341.343115757581
 20
1535.85
 30
0.0
 11
-1340.343115757581
 21
1535.85
 31
0.0
 12
-1340.843115757581
 22
1532.85
 32
0.0
 13
-1340.843115757581
 23
1532.85
 33
0.0
  0
SOLID
  5
1688A
330
165AC
100
AcDbEntity
  8
ZISSEN1
 62
     1
100
AcDbTrace
 10
-1341.343115757581
 20
1526.85
 30
0.0
 11
-1340.343115757581
 21
1526.85
 31
0.0
 12
-1340.843115757581
 22
1529.85
 32
0.0
 13
-1340.843115757581
 23
1529.85
 33
0.0
  0
POINT
  5
1688B
330
165AC
100
AcDbEntity
  8
DEFPOINTS
 62
     0
100
AcDbPoint
 10
-1358.22
 20
1532.85
 30
0.0
  0
POINT
  5
1688C
330
165AC
100
AcDbEntity
  8
DEFPOINTS
 62
     0
100
AcDbPoint
 10
-1370.0
 20
1529.85
 30
0.0
  0
POINT
  5
1688D
330
165AC
100
AcDbEntity
  8
DEFPOINTS
 62
     0
100
AcDbPoint
 10
-1340.843115757581
 20
1529.85
 30
0.0
  0
ENDBLK
  5
165BC
330
165AC
100
AcDbEntity
  8
0
100
AcDbBlockEnd
  0
ENDSEC
  0
SECTION
  2
ENTITIES
  0
MTEXT
  5
5084
330
1A
100
AcDbEntity
  8
0
100
AcDbMText
 10
1985.239088685435
 20
-948.5420423450428
 30
0.0
 40
8.0
 41
0.0
 71
     7
 72
     5
  1

1001
ACAD
1000
MTEXTBEGIN
1070
    73
1070
     1
1070
    44
1040
1.0
1070
    74
1070
     0
1000
MTEXTEND
  0
MTEXT
  5
5085
330
1A
100
AcDbEntity
  8
0
100
AcDbMText
 10
4270.596778580329
 20
22.24825240601649
 30
0.0
 40
8.0
 41
0.0
 71
     7
 72
     5
  1

1001
ACAD
1000
MTEXTBEGIN
1070
    73
1070
     1
1070
    44
1040
1.0
1070
    74
1070
     0
1000
MTEXTEND
  0
MTEXT
  5
5343
330
1A
100
AcDbEntity
  8
SUNPOU
100
AcDbMText
 10
6936.493799262471
 20
9534.359644781135
 30
0.0
 40
10.5
 41
0.0
 71
     1
 72
     5
  1

1001
ACAD
1000
MTEXTBEGIN
1070
    73
1070
     1
1070
    44
1040
1.0
1070
    74
1070
     0
1000
MTEXTEND
  0
MTEXT
  5
544F
330
1A
100
AcDbEntity
  8
0
100
AcDbMText
 10
16317.2832773148
 20
12833.35428897674
 30
0.0
 40
8.0
 41
0.0
 71
     7
 72
     5
  1

1001
ACAD
1000
MTEXTBEGIN
1070
    73
1070
     1
1070
    44
1040
1.0
1070
    74
1070
     0
1000
MTEXTEND
  0
MTEXT
  5
5450
330
1A
100
AcDbEntity
  8
0
100
AcDbMText
 10
18602.64096720969
 20
13804.1445837278
 30
0.0
 40
8.0
 41
0.0
 71
     7
 72
     5
  1

1001
ACAD
1000
MTEXTBEGIN
1070
    73
1070
     1
1070
    44
1040
1.0
1070
    74
1070
     0
1000
MTEXTEND
  0
MTEXT
  5
5451
330
1A
100
AcDbEntity
  8
SUNPOU
100
AcDbMText
 10
21268.53798789184
 20
23316.25597610292
 30
0.0
 40
10.5
 41
0.0
 71
     1
 72
     5
  1

1001
ACAD
1000
MTEXTBEGIN
1070
    73
1070
     1
1070
    44
1040
1.0
1070
    74
1070
     0
1000
MTEXTEND
  0
MTEXT
  5
5452
330
1A
100
AcDbEntity
  8
SUNPOU
100
AcDbMText
 10
13337.6147919559
 20
22369.46284218996
 30
0.0
 40
10.5
 41
0.0
 71
     7
 72
     5
  1

1001
ACAD
1000
MTEXTBEGIN
1070
    73
1070
     1
1070
    44
1040
1.0
1070
    74
1070
     0
1000
MTEXTEND
  0
MTEXT
  5
5453
330
1A
100
AcDbEntity
  8
SUNPOU
100
AcDbMText
 10
16286.59845646867
 20
27270.13891403281
 30
0.0
 40
10.5
 41
0.0
 71
     7
 72
     5
  1

1001
ACAD
1000
MTEXTBEGIN
1070
    73
1070
     1
1070
    44
1040
1.0
1070
    74
1070
     0
1000
MTEXTEND
  0
MTEXT
  5
5454
330
1A
100
AcDbEntity
  8
SUNPOU
100
AcDbMText
 10
20795.67658441924
 20
29706.43966165288
 30
0.0
 40
10.5
 41
0.0
 71
     7
 72
     5
  1

1001
ACAD
1000
MTEXTBEGIN
1070
    73
1070
     1
1070
    44
1040
1.0
1070
    74
1070
     0
1000
MTEXTEND
  0
MTEXT
  5
5455
330
1A
100
AcDbEntity
  8
0
100
AcDbMText
 10
16611.93789220314
 20
14707.52144344448
 30
0.0
 40
8.0
 41
0.0
 71
     7
 72
     5
  1

1001
ACAD
1000
MTEXTBEGIN
1070
    73
1070
     1
1070
    44
1040
1.0
1070
    74
1070
     0
1000
MTEXTEND
  0
MTEXT
  5
5456
330
1A
100
AcDbEntity
  8
0
100
AcDbMText
 10
18897.29558209804
 20
15678.31173819554
 30
0.0
 40
8.0
 41
0.0
 71
     7
 72
     5
  1

1001
ACAD
1000
MTEXTBEGIN
1070
    73
1070
     1
1070
    44
1040
1.0
1070
    74
1070
     0
1000
MTEXTEND
  0
MTEXT
  5
5457
330
1A
100
AcDbEntity
  8
SUNPOU
100
AcDbMText
 10
21563.19260278019
 20
25190.42313057066
 30
0.0
 40
10.5
 41
0.0
 71
     1
 72
     5
  1

1001
ACAD
1000
MTEXTBEGIN
1070
    73
1070
     1
1070
    44
1040
1.0
1070
    74
1070
     0
1000
MTEXTEND
  0
MTEXT
  5
5458
330
1A
100
AcDbEntity
  8
SUNPOU
100
AcDbMText
 10
13632.26940684426
 20
24243.6299966577
 30
0.0
 40
10.5
 41
0.0
 71
     7
 72
     5
  1

1001
ACAD
1000
MTEXTBEGIN
1070
    73
1070
     1
1070
    44
1040
1.0
1070
    74
1070
     0
1000
MTEXTEND
  0
MTEXT
  5
5459
330
1A
100
AcDbEntity
  8
SUNPOU
100
AcDbMText
 10
16581.25307135702
 20
29144.30606850055
 30
0.0
 40
10.5
 41
0.0
 71
     7
 72
     5
  1

1001
ACAD
1000
MTEXTBEGIN
1070
    73
1070
     1
1070
    44
1040
1.0
1070
    74
1070
     0
1000
MTEXTEND
  0
MTEXT
  5
545A
330
1A
100
AcDbEntity
  8
SUNPOU
100
AcDbMText
 10
21090.33119930759
 20
31580.60681612062
 30
0.0
 40
10.5
 41
0.0
 71
     7
 72
     5
  1

1001
ACAD
1000
MTEXTBEGIN
1070
    73
1070
     1
1070
    44
1040
1.0
1070
    74
1070
     0
1000
MTEXTEND
  0
MTEXT
  5
545B
330
1A
100
AcDbEntity
  8
0
100
AcDbMText
 10
22871.60517627167
 20
23974.88367124799
 30
0.0
 40
8.0
 41
0.0
 71
     7
 72
     5
  1

1001
ACAD
1000
MTEXTBEGIN
1070
    73
1070
     1
1070
    44
1040
1.0
1070
    74
1070
     0
1000
MTEXTEND
  0
MTEXT
  5
545C
330
1A
100
AcDbEntity
  8
0
100
AcDbMText
 10
25156.96286616657
 20
24945.67396599906
 30
0.0
 40
8.0
 41
0.0
 71
     7
 72
     5
  1

1001
ACAD
1000
MTEXTBEGIN
1070
    73
1070
     1
1070
    44
1040
1.0
1070
    74
1070
     0
1000
MTEXTEND
  0
MTEXT
  5
545D
330
1A
100
AcDbEntity
  8
SUNPOU
100
AcDbMText
 10
27822.85988684871
 20
34457.78535837418
 30
0.0
 40
10.5
 41
0.0
 71
     1
 72
     5
  1

1001
ACAD
1000
MTEXTBEGIN
1070
    73
1070
     1
1070
    44
1040
1.0
1070
    74
1070
     0
1000
MTEXTEND
  0
MTEXT
  5
545E
330
1A
100
AcDbEntity
  8
SUNPOU
100
AcDbMText
 10
19891.93669091278
 20
33510.99222446122
 30
0.0
 40
10.5
 41
0.0
 71
     7
 72
     5
  1

1001
ACAD
1000
MTEXTBEGIN
1070
    73
1070
     1
1070
    44
1040
1.0
1070
    74
1070
     0
1000
MTEXTEND
  0
MTEXT
  5
545F
330
1A
100
AcDbEntity
  8
SUNPOU
100
AcDbMText
 10
22840.92035542555
 20
38411.66829630407
 30
0.0
 40
10.5
 41
0.0
 71
     7
 72
     5
  1

1001
ACAD
1000
MTEXTBEGIN
1070
    73
1070
     1
1070
    44
1040
1.0
1070
    74
1070
     0
1000
MTEXTEND
  0
MTEXT
  5
5460
330
1A
100
AcDbEntity
  8
SUNPOU
100
AcDbMText
 10
27349.99848337611
 20
40847.96904392415
 30
0.0
 40
10.5
 41
0.0
 71
     7
 72
     5
  1

1001
ACAD
1000
MTEXTBEGIN
1070
    73
1070
     1
1070
    44
1040
1.0
1070
    74
1070
     0
1000
MTEXTEND
  0
MTEXT
  5
55B7
330
1A
100
AcDbEntity
  8
SUNPOU
100
AcDbMText
 10
67424.23923338197
 20
64463.86602884816
 30
0.0
 40
10.5
 41
0.0
 71
     9
 72
     5
  1

1001
ACAD
1000
MTEXTBEGIN
1070
    73
1070
     1
1070
    44
1040
1.0
1070
    74
1070
     0
1000
MTEXTEND
  0
MTEXT
  5
55B8
330
1A
100
AcDbEntity
  8
SUNPOU
100
AcDbMText
 10
76146.40679929998
 20
71879.70056038563
 30
0.0
 40
10.5
 41
0.0
 71
     9
 72
     5
  1

1001
ACAD
1000
MTEXTBEGIN
1070
    73
1070
     1
1070
    44
1040
1.0
1070
    74
1070
     0
1000
MTEXTEND
  0
MTEXT
  5
55B9
330
1A
100
AcDbEntity
  8
SUNPOU
100
AcDbMText
 10
95100.16551662994
 20
89346.27661287766
 30
0.0
 40
10.5
 41
0.0
 71
     9
 72
     5
  1

1001
ACAD
1000
MTEXTBEGIN
1070
    73
1070
     1
1070
    44
1040
1.0
1070
    74
1070
     0
1000
MTEXTEND
  0
MTEXT
  5
55BA
330
1A
100
AcDbEntity
  8
SUNPOU
100
AcDbMText
 10
97043.57276333936
 20
87545.22753299966
 30
0.0
 40
3.5
 41
0.0
 71
     9
 72
     5
  1

1001
ACAD
1000
MTEXTBEGIN
1070
    73
1070
     1
1070
    44
1040
1.0
1070
    74
1070
     0
1000
MTEXTEND
  0
MTEXT
  5
55BB
330
1A
100
AcDbEntity
  8
SUNPOU
100
AcDbMText
 10
128169.752595959
 20
130040.1732006569
 30
0.0
 40
10.5
 41
0.0
 71
     9
 72
     5
  1

1001
ACAD
1000
MTEXTBEGIN
1070
    73
1070
     1
1070
    44
1040
1.0
1070
    74
1070
     0
1000
MTEXTEND
  0
MTEXT
  5
55BC
330
1A
100
AcDbEntity
  8
SUNPOU
100
AcDbMText
 10
130113.1598426684
 20
128239.1241207789
 30
0.0
 40
3.5
 41
0.0
 71
     9
 72
     5
  1

1001
ACAD
1000
MTEXTBEGIN
1070
    73
1070
     1
1070
    44
1040
1.0
1070
    74
1070
     0
1000
MTEXTEND
  0
MTEXT
  5
55BD
330
1A
100
AcDbEntity
  8
SUNPOU
100
AcDbMText
 10
78610.02030175463
 20
75873.33835563206
 30
0.0
 40
10.5
 41
0.0
 71
     9
 72
     5
  1

1001
ACAD
1000
MTEXTBEGIN
1070
    73
1070
     1
1070
    44
1040
1.0
1070
    74
1070
     0
1000
MTEXTEND
  0
MTEXT
  5
55BE
330
1A
100
AcDbEntity
  8
SUNPOU
100
AcDbMText
 10
64662.02020137863
 20
56700.93921651987
 30
0.0
 40
3.5
 41
0.0
 71
     7
 72
     5
  1

1001
ACAD
1000
MTEXTBEGIN
1070
    73
1070
     1
1070
    44
1040
1.0
1070
    74
1070
     0
1000
MTEXTEND
  0
MTEXT
  5
55BF
330
1A
100
AcDbEntity
  8
SUNPOU
100
AcDbMText
 10
45647.18959837178
 20
44463.08794733807
 30
0.0
 40
10.5
 41
0.0
 71
     7
 72
     5
  1

1001
ACAD
1000
MTEXTBEGIN
1070
    73
1070
     1
1070
    44
1040
1.0
1070
    74
1070
     0
1000
MTEXTEND
  0
MTEXT
  5
55C0
330
1A
100
AcDbEntity
  8
SUNPOU
100
AcDbMText
 10
33189.96133342368
 20
28618.15636923965
 30
0.0
 40
35.0
 41
0.0
 71
     9
 72
     5
  1

1001
ACAD
1000
MTEXTBEGIN
1070
    73
1070
     1
1070
    44
1040
1.0
1070
    74
1070
     0
1000
MTEXTEND
  0
MTEXT
  5
55C1
330
1A
100
AcDbEntity
  8
SUNPOU
100
AcDbMText
 10
32098.44639099864
 20
29226.93177928835
 30
0.0
 40
350.0000004171781
 41
0.0
 71
     7
 72
     5
  1

1001
ACAD
1000
MTEXTBEGIN
1070
    73
1070
     1
1070
    44
1040
1.0
1070
    74
1070
     0
1000
MTEXTEND
  0
MTEXT
  5
55C2
330
1A
100
AcDbEntity
  8
0
100
AcDbMText
 10
38142.39714894154
 20
27206.85414142458
 30
0.0
 40
8.0
 41
0.0
 71
     7
 72
     5
  1

1001
ACAD
1000
MTEXTBEGIN
1070
    73
1070
     1
1070
    44
1040
1.0
1070
    74
1070
     0
1000
MTEXTEND
  0
MTEXT
  5
55C3
330
1A
100
AcDbEntity
  8
0
100
AcDbMText
 10
40427.75483883644
 20
28177.64443617564
 30
0.0
 40
8.0
 41
0.0
 71
     7
 72
     5
  1

1001
ACAD
1000
MTEXTBEGIN
1070
    73
1070
     1
1070
    44
1040
1.0
1070
    74
1070
     0
1000
MTEXTEND
  0
MTEXT
  5
55C4
330
1A
100
AcDbEntity
  8
SUNPOU
100
AcDbMText
 10
43093.65185951858
 20
37689.75582855077
 30
0.0
 40
10.5
 41
0.0
 71
     1
 72
     5
  1

1001
ACAD
1000
MTEXTBEGIN
1070
    73
1070
     1
1070
    44
1040
1.0
1070
    74
1070
     0
1000
MTEXTEND
  0
MTEXT
  5
55C5
330
1A
100
AcDbEntity
  8
SUNPOU
100
AcDbMText
 10
35162.72866358265
 20
36742.96269463781
 30
0.0
 40
10.5
 41
0.0
 71
     7
 72
     5
  1

1001
ACAD
1000
MTEXTBEGIN
1070
    73
1070
     1
1070
    44
1040
1.0
1070
    74
1070
     0
1000
MTEXTEND
  0
MTEXT
  5
55C6
330
1A
100
AcDbEntity
  8
SUNPOU
100
AcDbMText
 10
38111.71232809542
 20
41643.63876648066
 30
0.0
 40
10.5
 41
0.0
 71
     7
 72
     5
  1

1001
ACAD
1000
MTEXTBEGIN
1070
    73
1070
     1
1070
    44
1040
1.0
1070
    74
1070
     0
1000
MTEXTEND
  0
MTEXT
  5
55C7
330
1A
100
AcDbEntity
  8
SUNPOU
100
AcDbMText
 10
42620.79045604597
 20
44079.93951410074
 30
0.0
 40
10.5
 41
0.0
 71
     7
 72
     5
  1

1001
ACAD
1000
MTEXTBEGIN
1070
    73
1070
     1
1070
    44
1040
1.0
1070
    74
1070
     0
1000
MTEXTEND
  0
MTEXT
  5
55C8
330
1A
100
AcDbEntity
  8
SUNPOU
100
AcDbMText
 10
26221.62834281429
 20
23077.53566448964
 30
0.0
 40
10.5
 41
0.0
 71
     7
 72
     5
  1

1001
ACAD
1000
MTEXTBEGIN
1070
    73
1070
     1
1070
    44
1040
1.0
1070
    74
1070
     0
1000
MTEXTEND
  0
MTEXT
  5
55C9
330
1A
100
AcDbEntity
  8
SUNPOU
100
AcDbMText
 10
77413.14677671455
 20
68750.51622813789
 30
0.0
 40
10.5
 41
0.0
 71
     9
 72
     5
  1

1001
ACAD
1000
MTEXTBEGIN
1070
    73
1070
     1
1070
    44
1040
1.0
1070
    74
1070
     0
1000
MTEXTEND
  0
MTEXT
  5
55CA
330
1A
100
AcDbEntity
  8
SUNPOU
100
AcDbMText
 10
86135.31434263256
 20
76166.35075967536
 30
0.0
 40
10.5
 41
0.0
 71
     9
 72
     5
  1

1001
ACAD
1000
MTEXTBEGIN
1070
    73
1070
     1
1070
    44
1040
1.0
1070
    74
1070
     0
1000
MTEXTEND
  0
MTEXT
  5
55CB
330
1A
100
AcDbEntity
  8
SUNPOU
100
AcDbMText
 10
105089.0730599625
 20
93632.92681216739
 30
0.0
 40
10.5
 41
0.0
 71
     9
 72
     5
  1

1001
ACAD
1000
MTEXTBEGIN
1070
    73
1070
     1
1070
    44
1040
1.0
1070
    74
1070
     0
1000
MTEXTEND
  0
MTEXT
  5
55CC
330
1A
100
AcDbEntity
  8
SUNPOU
100
AcDbMText
 10
107032.4803066719
 20
91831.8777322894
 30
0.0
 40
3.5
 41
0.0
 71
     9
 72
     5
  1

1001
ACAD
1000
MTEXTBEGIN
1070
    73
1070
     1
1070
    44
1040
1.0
1070
    74
1070
     0
1000
MTEXTEND
  0
MTEXT
  5
55CD
330
1A
100
AcDbEntity
  8
SUNPOU
100
AcDbMText
 10
138158.6601392916
 20
134326.8233999467
 30
0.0
 40
10.5
 41
0.0
 71
     9
 72
     5
  1

1001
ACAD
1000
MTEXTBEGIN
1070
    73
1070
     1
1070
    44
1040
1.0
1070
    74
1070
     0
1000
MTEXTEND
  0
MTEXT
  5
55CE
330
1A
100
AcDbEntity
  8
SUNPOU
100
AcDbMText
 10
140102.067386001
 20
132525.7743200686
 30
0.0
 40
3.5
 41
0.0
 71
     9
 72
     5
  1

1001
ACAD
1000
MTEXTBEGIN
1070
    73
1070
     1
1070
    44
1040
1.0
1070
    74
1070
     0
1000
MTEXTEND
  0
MTEXT
  5
55CF
330
1A
100
AcDbEntity
  8
SUNPOU
100
AcDbMText
 10
88598.92784508721
 20
80159.98855492179
 30
0.0
 40
10.5
 41
0.0
 71
     9
 72
     5
  1

1001
ACAD
1000
MTEXTBEGIN
1070
    73
1070
     1
1070
    44
1040
1.0
1070
    74
1070
     0
1000
MTEXTEND
  0
MTEXT
  5
55D0
330
1A
100
AcDbEntity
  8
SUNPOU
100
AcDbMText
 10
74650.92774471121
 20
60987.5894158096
 30
0.0
 40
3.5
 41
0.0
 71
     7
 72
     5
  1

1001
ACAD
1000
MTEXTBEGIN
1070
    73
1070
     1
1070
    44
1040
1.0
1070
    74
1070
     0
1000
MTEXTEND
  0
MTEXT
  5
55D1
330
1A
100
AcDbEntity
  8
SUNPOU
100
AcDbMText
 10
55636.09714170436
 20
48749.73814662781
 30
0.0
 40
10.5
 41
0.0
 71
     7
 72
     5
  1

1001
ACAD
1000
MTEXTBEGIN
1070
    73
1070
     1
1070
    44
1040
1.0
1070
    74
1070
     0
1000
MTEXTEND
  0
MTEXT
  5
55D2
330
1A
100
AcDbEntity
  8
SUNPOU
100
AcDbMText
 10
43178.86887675626
 20
32904.80656852938
 30
0.0
 40
35.0
 41
0.0
 71
     9
 72
     5
  1

1001
ACAD
1000
MTEXTBEGIN
1070
    73
1070
     1
1070
    44
1040
1.0
1070
    74
1070
     0
1000
MTEXTEND
  0
MTEXT
  5
55D3
330
1A
100
AcDbEntity
  8
SUNPOU
100
AcDbMText
 10
42087.35393433121
 20
33513.58197857809
 30
0.0
 40
350.0000004171781
 41
0.0
 71
     7
 72
     5
  1

1001
ACAD
1000
MTEXTBEGIN
1070
    73
1070
     1
1070
    44
1040
1.0
1070
    74
1070
     0
1000
MTEXTEND
  0
MTEXT
  5
55D4
330
1A
100
AcDbEntity
  8
0
100
AcDbMText
 10
48131.30469227412
 20
31493.50434071431
 30
0.0
 40
8.0
 41
0.0
 71
     7
 72
     5
  1

1001
ACAD
1000
MTEXTBEGIN
1070
    73
1070
     1
1070
    44
1040
1.0
1070
    74
1070
     0
1000
MTEXTEND
  0
MTEXT
  5
55D5
330
1A
100
AcDbEntity
  8
0
100
AcDbMText
 10
50416.66238216901
 20
32464.29463546537
 30
0.0
 40
8.0
 41
0.0
 71
     7
 72
     5
  1

1001
ACAD
1000
MTEXTBEGIN
1070
    73
1070
     1
1070
    44
1040
1.0
1070
    74
1070
     0
1000
MTEXTEND
  0
MTEXT
  5
55D6
330
1A
100
AcDbEntity
  8
SUNPOU
100
AcDbMText
 10
53082.55940285115
 20
41976.4060278405
 30
0.0
 40
10.5
 41
0.0
 71
     1
 72
     5
  1

1001
ACAD
1000
MTEXTBEGIN
1070
    73
1070
     1
1070
    44
1040
1.0
1070
    74
1070
     0
1000
MTEXTEND
  0
MTEXT
  5
55D7
330
1A
100
AcDbEntity
  8
SUNPOU
100
AcDbMText
 10
45151.63620691522
 20
41029.61289392755
 30
0.0
 40
10.5
 41
0.0
 71
     7
 72
     5
  1

1001
ACAD
1000
MTEXTBEGIN
1070
    73
1070
     1
1070
    44
1040
1.0
1070
    74
1070
     0
1000
MTEXTEND
  0
MTEXT
  5
55D8
330
1A
100
AcDbEntity
  8
SUNPOU
100
AcDbMText
 10
48100.61987142798
 20
45930.28896577039
 30
0.0
 40
10.5
 41
0.0
 71
     7
 72
     5
  1

1001
ACAD
1000
MTEXTBEGIN
1070
    73
1070
     1
1070
    44
1040
1.0
1070
    74
1070
     0
1000
MTEXTEND
  0
MTEXT
  5
55D9
330
1A
100
AcDbEntity
  8
SUNPOU
100
AcDbMText
 10
52609.69799937854
 20
48366.58971339046
 30
0.0
 40
10.5
 41
0.0
 71
     7
 72
     5
  1

1001
ACAD
1000
MTEXTBEGIN
1070
    73
1070
     1
1070
    44
1040
1.0
1070
    74
1070
     0
1000
MTEXTEND
  0
MTEXT
  5
55DA
330
1A
100
AcDbEntity
  8
SUNPOU
100
AcDbMText
 10
36210.53588614687
 20
27364.18586377937
 30
0.0
 40
10.5
 41
0.0
 71
     7
 72
     5
  1

1001
ACAD
1000
MTEXTBEGIN
1070
    73
1070
     1
1070
    44
1040
1.0
1070
    74
1070
     0
1000
MTEXTEND
  0
MTEXT
  5
55DB
330
1A
100
AcDbEntity
  8
SUNPOU
100
AcDbMText
 10
38021.29879752181
 20
33691.59985125794
 30
0.0
 40
10.5
 41
0.0
 71
     9
 72
     5
  1

1001
ACAD
1000
MTEXTBEGIN
1070
    73
1070
     1
1070
    44
1040
1.0
1070
    74
1070
     0
1000
MTEXTEND
  0
MTEXT
  5
55DC
330
1A
100
AcDbEntity
  8
SUNPOU
100
AcDbMText
 10
46743.46636343979
 20
41107.43438279541
 30
0.0
 40
10.5
 41
0.0
 71
     9
 72
     5
  1

1001
ACAD
1000
MTEXTBEGIN
1070
    73
1070
     1
1070
    44
1040
1.0
1070
    74
1070
     0
1000
MTEXTEND
  0
MTEXT
  5
55DD
330
1A
100
AcDbEntity
  8
SUNPOU
100
AcDbMText
 10
65697.22508076975
 20
58574.01043528746
 30
0.0
 40
10.5
 41
0.0
 71
     9
 72
     5
  1

1001
ACAD
1000
MTEXTBEGIN
1070
    73
1070
     1
1070
    44
1040
1.0
1070
    74
1070
     0
1000
MTEXTEND
  0
MTEXT
  5
55DE
330
1A
100
AcDbEntity
  8
SUNPOU
100
AcDbMText
 10
67640.63232747917
 20
56772.96135540945
 30
0.0
 40
3.5
 41
0.0
 71
     9
 72
     5
  1

1001
ACAD
1000
MTEXTBEGIN
1070
    73
1070
     1
1070
    44
1040
1.0
1070
    74
1070
     0
1000
MTEXTEND
  0
MTEXT
  5
55DF
330
1A
100
AcDbEntity
  8
SUNPOU
100
AcDbMText
 10
98766.81216009888
 20
99267.9070230668
 30
0.0
 40
10.5
 41
0.0
 71
     9
 72
     5
  1

1001
ACAD
1000
MTEXTBEGIN
1070
    73
1070
     1
1070
    44
1040
1.0
1070
    74
1070
     0
1000
MTEXTEND
  0
MTEXT
  5
55E0
330
1A
100
AcDbEntity
  8
SUNPOU
100
AcDbMText
 10
100710.2194068083
 20
97466.85794318878
 30
0.0
 40
3.5
 41
0.0
 71
     9
 72
     5
  1

1001
ACAD
1000
MTEXTBEGIN
1070
    73
1070
     1
1070
    44
1040
1.0
1070
    74
1070
     0
1000
MTEXTEND
  0
MTEXT
  5
55E1
330
1A
100
AcDbEntity
  8
SUNPOU
100
AcDbMText
 10
49207.07986589444
 20
45101.07217804185
 30
0.0
 40
10.5
 41
0.0
 71
     9
 72
     5
  1

1001
ACAD
1000
MTEXTBEGIN
1070
    73
1070
     1
1070
    44
1040
1.0
1070
    74
1070
     0
1000
MTEXTEND
  0
MTEXT
  5
55E2
330
1A
100
AcDbEntity
  8
SUNPOU
100
AcDbMText
 10
35259.07976551845
 20
25928.67303892964
 30
0.0
 40
3.5
 41
0.0
 71
     7
 72
     5
  1

1001
ACAD
1000
MTEXTBEGIN
1070
    73
1070
     1
1070
    44
1040
1.0
1070
    74
1070
     0
1000
MTEXTEND
  0
MTEXT
  5
55E3
330
1A
100
AcDbEntity
  8
SUNPOU
100
AcDbMText
 10
48951.43044828905
 20
35287.73625995099
 30
0.0
 40
10.5
 41
0.0
 71
     9
 72
     5
  1

1001
ACAD
1000
MTEXTBEGIN
1070
    73
1070
     1
1070
    44
1040
1.0
1070
    74
1070
     0
1000
MTEXTEND
  0
MTEXT
  5
55E4
330
1A
100
AcDbEntity
  8
SUNPOU
100
AcDbMText
 10
57673.59801420702
 20
42703.57079148847
 30
0.0
 40
10.5
 41
0.0
 71
     9
 72
     5
  1

1001
ACAD
1000
MTEXTBEGIN
1070
    73
1070
     1
1070
    44
1040
1.0
1070
    74
1070
     0
1000
MTEXTEND
  0
MTEXT
  5
55E5
330
1A
100
AcDbEntity
  8
SUNPOU
100
AcDbMText
 10
76627.35673153699
 20
60170.14684398051
 30
0.0
 40
10.5
 41
0.0
 71
     9
 72
     5
  1

1001
ACAD
1000
MTEXTBEGIN
1070
    73
1070
     1
1070
    44
1040
1.0
1070
    74
1070
     0
1000
MTEXTEND
  0
MTEXT
  5
55E6
330
1A
100
AcDbEntity
  8
SUNPOU
100
AcDbMText
 10
78570.76397824641
 20
58369.09776410251
 30
0.0
 40
3.5
 41
0.0
 71
     9
 72
     5
  1

1001
ACAD
1000
MTEXTBEGIN
1070
    73
1070
     1
1070
    44
1040
1.0
1070
    74
1070
     0
1000
MTEXTEND
  0
MTEXT
  5
55E7
330
1A
100
AcDbEntity
  8
SUNPOU
100
AcDbMText
 10
109696.9438108661
 20
100864.0434317598
 30
0.0
 40
10.5
 41
0.0
 71
     9
 72
     5
  1

1001
ACAD
1000
MTEXTBEGIN
1070
    73
1070
     1
1070
    44
1040
1.0
1070
    74
1070
     0
1000
MTEXTEND
  0
MTEXT
  5
55E8
330
1A
100
AcDbEntity
  8
SUNPOU
100
AcDbMText
 10
111640.3510575755
 20
99062.99435188183
 30
0.0
 40
3.5
 41
0.0
 71
     9
 72
     5
  1

1001
ACAD
1000
MTEXTBEGIN
1070
    73
1070
     1
1070
    44
1040
1.0
1070
    74
1070
     0
1000
MTEXTEND
  0
MTEXT
  5
55E9
330
1A
100
AcDbEntity
  8
SUNPOU
100
AcDbMText
 10
60137.21151666167
 20
46697.20858673491
 30
0.0
 40
10.5
 41
0.0
 71
     9
 72
     5
  1

1001
ACAD
1000
MTEXTBEGIN
1070
    73
1070
     1
1070
    44
1040
1.0
1070
    74
1070
     0
1000
MTEXTEND
  0
MTEXT
  5
55EA
330
1A
100
AcDbEntity
  8
SUNPOU
100
AcDbMText
 10
46189.21141628568
 20
27524.80944762269
 30
0.0
 40
3.5
 41
0.0
 71
     7
 72
     5
  1

1001
ACAD
1000
MTEXTBEGIN
1070
    73
1070
     1
1070
    44
1040
1.0
1070
    74
1070
     0
1000
MTEXTEND
  0
MTEXT
  5
55EB
330
1A
100
AcDbEntity
  8
SUNPOU
100
AcDbMText
 10
45007.68847015541
 20
38269.57947701874
 30
0.0
 40
10.5
 41
0.0
 71
     9
 72
     5
  1

1001
ACAD
1000
MTEXTBEGIN
1070
    73
1070
     1
1070
    44
1040
1.0
1070
    74
1070
     0
1000
MTEXTEND
  0
MTEXT
  5
55EC
330
1A
100
AcDbEntity
  8
SUNPOU
100
AcDbMText
 10
63961.44718748539
 20
55736.15552951081
 30
0.0
 40
10.5
 41
0.0
 71
     9
 72
     5
  1

1001
ACAD
1000
MTEXTBEGIN
1070
    73
1070
     1
1070
    44
1040
1.0
1070
    74
1070
     0
1000
MTEXTEND
  0
MTEXT
  5
55ED
330
1A
100
AcDbEntity
  8
SUNPOU
100
AcDbMText
 10
65904.85443419479
 20
53935.10644963279
 30
0.0
 40
3.5
 41
0.0
 71
     9
 72
     5
  1

1001
ACAD
1000
MTEXTBEGIN
1070
    73
1070
     1
1070
    44
1040
1.0
1070
    74
1070
     0
1000
MTEXTEND
  0
MTEXT
  5
55EE
330
1A
100
AcDbEntity
  8
SUNPOU
100
AcDbMText
 10
97031.03426681451
 20
96430.05211729015
 30
0.0
 40
10.5
 41
0.0
 71
     9
 72
     5
  1

1001
ACAD
1000
MTEXTBEGIN
1070
    73
1070
     1
1070
    44
1040
1.0
1070
    74
1070
     0
1000
MTEXTEND
  0
MTEXT
  5
55EF
330
1A
100
AcDbEntity
  8
SUNPOU
100
AcDbMText
 10
98974.44151352393
 20
94629.00303741212
 30
0.0
 40
3.5
 41
0.0
 71
     9
 72
     5
  1

1001
ACAD
1000
MTEXTBEGIN
1070
    73
1070
     1
1070
    44
1040
1.0
1070
    74
1070
     0
1000
MTEXTEND
  0
MTEXT
  5
55F0
330
1A
100
AcDbEntity
  8
SUNPOU
100
AcDbMText
 10
47471.30197261006
 20
42263.21727226519
 30
0.0
 40
10.5
 41
0.0
 71
     9
 72
     5
  1

1001
ACAD
1000
MTEXTBEGIN
1070
    73
1070
     1
1070
    44
1040
1.0
1070
    74
1070
     0
1000
MTEXTEND
  0
MTEXT
  5
55F1
330
1A
100
AcDbEntity
  8
SUNPOU
100
AcDbMText
 10
33523.30187223408
 20
23090.81813315298
 30
0.0
 40
3.5
 41
0.0
 71
     7
 72
     5
  1

1001
ACAD
1000
MTEXTBEGIN
1070
    73
1070
     1
1070
    44
1040
1.0
1070
    74
1070
     0
1000
MTEXTEND
  0
MTEXT
  5
55F2
330
1A
100
AcDbEntity
  8
SUNPOU
100
AcDbMText
 10
57959.46254102503
 20
50038.08111611015
 30
0.0
 40
10.5
 41
0.0
 71
     9
 72
     5
  1

1001
ACAD
1000
MTEXTBEGIN
1070
    73
1070
     1
1070
    44
1040
1.0
1070
    74
1070
     0
1000
MTEXTEND
  0
MTEXT
  5
55F3
330
1A
100
AcDbEntity
  8
SUNPOU
100
AcDbMText
 10
76913.22125835503
 20
67504.65716860222
 30
0.0
 40
10.5
 41
0.0
 71
     9
 72
     5
  1

1001
ACAD
1000
MTEXTBEGIN
1070
    73
1070
     1
1070
    44
1040
1.0
1070
    74
1070
     0
1000
MTEXTEND
  0
MTEXT
  5
55F4
330
1A
100
AcDbEntity
  8
SUNPOU
100
AcDbMText
 10
78856.62850506443
 20
65703.6080887242
 30
0.0
 40
3.5
 41
0.0
 71
     9
 72
     5
  1

1001
ACAD
1000
MTEXTBEGIN
1070
    73
1070
     1
1070
    44
1040
1.0
1070
    74
1070
     0
1000
MTEXTEND
  0
MTEXT
  5
55F5
330
1A
100
AcDbEntity
  8
SUNPOU
100
AcDbMText
 10
109982.8083376841
 20
108198.5537563815
 30
0.0
 40
10.5
 41
0.0
 71
     9
 72
     5
  1

1001
ACAD
1000
MTEXTBEGIN
1070
    73
1070
     1
1070
    44
1040
1.0
1070
    74
1070
     0
1000
MTEXTEND
  0
MTEXT
  5
55F6
330
1A
100
AcDbEntity
  8
SUNPOU
100
AcDbMText
 10
111926.2155843935
 20
106397.5046765035
 30
0.0
 40
3.5
 41
0.0
 71
     9
 72
     5
  1

1001
ACAD
1000
MTEXTBEGIN
1070
    73
1070
     1
1070
    44
1040
1.0
1070
    74
1070
     0
1000
MTEXTEND
  0
MTEXT
  5
55F7
330
1A
100
AcDbEntity
  8
SUNPOU
100
AcDbMText
 10
60423.07604347968
 20
54031.71891135659
 30
0.0
 40
10.5
 41
0.0
 71
     9
 72
     5
  1

1001
ACAD
1000
MTEXTBEGIN
1070
    73
1070
     1
1070
    44
1040
1.0
1070
    74
1070
     0
1000
MTEXTEND
  0
MTEXT
  5
55F8
330
1A
100
AcDbEntity
  8
SUNPOU
100
AcDbMText
 10
46475.07594310369
 20
34859.3197722444
 30
0.0
 40
3.5
 41
0.0
 71
     7
 72
     5
  1

1001
ACAD
1000
MTEXTBEGIN
1070
    73
1070
     1
1070
    44
1040
1.0
1070
    74
1070
     0
1000
MTEXTEND
  0
MTEXT
  5
55F9
330
1A
100
AcDbEntity
  8
SUNPOU
100
AcDbMText
 10
74027.35402123588
 20
68370.58278833383
 30
0.0
 40
10.5
 41
0.0
 71
     9
 72
     5
  1

1001
ACAD
1000
MTEXTBEGIN
1070
    73
1070
     1
1070
    44
1040
1.0
1070
    74
1070
     0
1000
MTEXTEND
  0
MTEXT
  5
55FA
330
1A
100
AcDbEntity
  8
SUNPOU
100
AcDbMText
 10
75970.7612679453
 20
66569.53370845583
 30
0.0
 40
3.5
 41
0.0
 71
     9
 72
     5
  1

1001
ACAD
1000
MTEXTBEGIN
1070
    73
1070
     1
1070
    44
1040
1.0
1070
    74
1070
     0
1000
MTEXTEND
  0
MTEXT
  5
55FB
330
1A
100
AcDbEntity
  8
SUNPOU
100
AcDbMText
 10
107096.941100565
 20
109064.4793761132
 30
0.0
 40
10.5
 41
0.0
 71
     9
 72
     5
  1

1001
ACAD
1000
MTEXTBEGIN
1070
    73
1070
     1
1070
    44
1040
1.0
1070
    74
1070
     0
1000
MTEXTEND
  0
MTEXT
  5
55FC
330
1A
100
AcDbEntity
  8
SUNPOU
100
AcDbMText
 10
109040.3483472744
 20
107263.4302962351
 30
0.0
 40
3.5
 41
0.0
 71
     9
 72
     5
  1

1001
ACAD
1000
MTEXTBEGIN
1070
    73
1070
     1
1070
    44
1040
1.0
1070
    74
1070
     0
1000
MTEXTEND
  0
MTEXT
  5
55FD
330
1A
100
AcDbEntity
  8
SUNPOU
100
AcDbMText
 10
105709.1709283621
 20
108141.3777665285
 30
0.0
 40
10.5
 41
0.0
 71
     9
 72
     5
  1

1001
ACAD
1000
MTEXTBEGIN
1070
    73
1070
     1
1070
    44
1040
1.0
1070
    74
1070
     0
1000
MTEXTEND
  0
MTEXT
  5
55FE
330
1A
100
AcDbEntity
  8
SUNPOU
100
AcDbMText
 10
107652.5781750715
 20
106340.3286866505
 30
0.0
 40
3.5
 41
0.0
 71
     9
 72
     5
  1

1001
ACAD
1000
MTEXTBEGIN
1070
    73
1070
     1
1070
    44
1040
1.0
1070
    74
1070
     0
1000
MTEXTEND
  0
MTEXT
  5
55FF
330
1A
100
AcDbEntity
  8
SUNPOU
100
AcDbMText
 10
73193.09268743351
 20
66158.78082845056
 30
0.0
 40
10.5
 41
0.0
 71
     9
 72
     5
  1

1001
ACAD
1000
MTEXTBEGIN
1070
    73
1070
     1
1070
    44
1040
1.0
1070
    74
1070
     0
1000
MTEXTEND
  0
MTEXT
  5
5600
330
1A
100
AcDbEntity
  8
SUNPOU
100
AcDbMText
 10
75916.39889159806
 20
66563.46252003162
 30
0.0
 40
3.5
 41
0.0
 71
     9
 72
     5
  1

1001
ACAD
1000
MTEXTBEGIN
1070
    73
1070
     1
1070
    44
1040
1.0
1070
    74
1070
     0
1000
MTEXTEND
  0
MTEXT
  5
5601
330
1A
100
AcDbEntity
  8
SUNPOU
100
AcDbMText
 10
75124.04436649058
 20
63402.1566819768
 30
0.0
 40
10.5
 41
0.0
 71
     9
 72
     5
  1

1001
ACAD
1000
MTEXTBEGIN
1070
    73
1070
     1
1070
    44
1040
1.0
1070
    74
1070
     0
1000
MTEXTEND
  0
MTEXT
  5
5602
330
1A
100
AcDbEntity
  8
SUNPOU
100
AcDbMText
 10
77067.4516132
 20
61601.1076020988
 30
0.0
 40
3.5
 41
0.0
 71
     9
 72
     5
  1

1001
ACAD
1000
MTEXTBEGIN
1070
    73
1070
     1
1070
    44
1040
1.0
1070
    74
1070
     0
1000
MTEXTEND
  0
MTEXT
  5
5603
330
1A
100
AcDbEntity
  8
SUNPOU
100
AcDbMText
 10
77012.54710378659
 20
61488.33571981449
 30
0.0
 40
3.5
 41
0.0
 71
     9
 72
     5
  1

1001
ACAD
1000
MTEXTBEGIN
1070
    73
1070
     1
1070
    44
1040
1.0
1070
    74
1070
     0
1000
MTEXTEND
  0
MTEXT
  5
5604
330
1A
100
AcDbEntity
  8
SUNPOU
100
AcDbMText
 10
76376.61896736668
 20
60677.01447874797
 30
0.0
 40
3.5
 41
0.0
 71
     9
 72
     5
  1

1001
ACAD
1000
MTEXTBEGIN
1070
    73
1070
     1
1070
    44
1040
1.0
1070
    74
1070
     0
1000
MTEXTEND
  0
MTEXT
  5
5605
330
1A
100
AcDbEntity
  8
SUNPOU
100
AcDbMText
 10
76375.37854794595
 20
60676.76650181047
 30
0.0
 40
10.5
 41
0.0
 71
     9
 72
     5
  1

1001
ACAD
1000
MTEXTBEGIN
1070
    73
1070
     1
1070
    44
1040
1.0
1070
    74
1070
     0
1000
MTEXTEND
  0
MTEXT
  5
5606
330
1A
100
AcDbEntity
  8
SUNPOU
100
AcDbMText
 10
84709.93991079748
 20
78034.0328293557
 30
0.0
 40
10.5
 41
0.0
 71
     9
 72
     5
  1

1001
ACAD
1000
MTEXTBEGIN
1070
    73
1070
     1
1070
    44
1040
1.0
1070
    74
1070
     0
1000
MTEXTEND
  0
MTEXT
  5
5607
330
1A
100
AcDbEntity
  8
SUNPOU
100
AcDbMText
 10
93432.10747671548
 20
85449.86736089315
 30
0.0
 40
10.5
 41
0.0
 71
     9
 72
     5
  1

1001
ACAD
1000
MTEXTBEGIN
1070
    73
1070
     1
1070
    44
1040
1.0
1070
    74
1070
     0
1000
MTEXTEND
  0
MTEXT
  5
5608
330
1A
100
AcDbEntity
  8
SUNPOU
100
AcDbMText
 10
112385.8661940454
 20
102916.4434133851
 30
0.0
 40
10.5
 41
0.0
 71
     9
 72
     5
  1

1001
ACAD
1000
MTEXTBEGIN
1070
    73
1070
     1
1070
    44
1040
1.0
1070
    74
1070
     0
1000
MTEXTEND
  0
MTEXT
  5
5609
330
1A
100
AcDbEntity
  8
SUNPOU
100
AcDbMText
 10
114329.2734407548
 20
101115.3943335072
 30
0.0
 40
3.5
 41
0.0
 71
     9
 72
     5
  1

1001
ACAD
1000
MTEXTBEGIN
1070
    73
1070
     1
1070
    44
1040
1.0
1070
    74
1070
     0
1000
MTEXTEND
  0
MTEXT
  5
560A
330
1A
100
AcDbEntity
  8
SUNPOU
100
AcDbMText
 10
145455.4532733745
 20
143610.3400011645
 30
0.0
 40
10.5
 41
0.0
 71
     9
 72
     5
  1

1001
ACAD
1000
MTEXTBEGIN
1070
    73
1070
     1
1070
    44
1040
1.0
1070
    74
1070
     0
1000
MTEXTEND
  0
MTEXT
  5
560B
330
1A
100
AcDbEntity
  8
SUNPOU
100
AcDbMText
 10
147398.8605200839
 20
141809.2909212864
 30
0.0
 40
3.5
 41
0.0
 71
     9
 72
     5
  1

1001
ACAD
1000
MTEXTBEGIN
1070
    73
1070
     1
1070
    44
1040
1.0
1070
    74
1070
     0
1000
MTEXTEND
  0
MTEXT
  5
560C
330
1A
100
AcDbEntity
  8
SUNPOU
100
AcDbMText
 10
95895.72097917013
 20
89443.5051561396
 30
0.0
 40
10.5
 41
0.0
 71
     9
 72
     5
  1

1001
ACAD
1000
MTEXTBEGIN
1070
    73
1070
     1
1070
    44
1040
1.0
1070
    74
1070
     0
1000
MTEXTEND
  0
MTEXT
  5
560D
330
1A
100
AcDbEntity
  8
SUNPOU
100
AcDbMText
 10
81947.72087879414
 20
70271.1060170274
 30
0.0
 40
3.5
 41
0.0
 71
     7
 72
     5
  1

1001
ACAD
1000
MTEXTBEGIN
1070
    73
1070
     1
1070
    44
1040
1.0
1070
    74
1070
     0
1000
MTEXTEND
  0
MTEXT
  5
560E
330
1A
100
AcDbEntity
  8
SUNPOU
100
AcDbMText
 10
62932.89027578729
 20
58033.25474784561
 30
0.0
 40
10.5
 41
0.0
 71
     7
 72
     5
  1

1001
ACAD
1000
MTEXTBEGIN
1070
    73
1070
     1
1070
    44
1040
1.0
1070
    74
1070
     0
1000
MTEXTEND
  0
MTEXT
  5
560F
330
1A
100
AcDbEntity
  8
SUNPOU
100
AcDbMText
 10
50475.66201083918
 20
42188.32316974719
 30
0.0
 40
35.0
 41
0.0
 71
     9
 72
     5
  1

1001
ACAD
1000
MTEXTBEGIN
1070
    73
1070
     1
1070
    44
1040
1.0
1070
    74
1070
     0
1000
MTEXTEND
  0
MTEXT
  5
5610
330
1A
100
AcDbEntity
  8
SUNPOU
100
AcDbMText
 10
49384.14706841413
 20
42797.0985797959
 30
0.0
 40
350.0000004171781
 41
0.0
 71
     7
 72
     5
  1

1001
ACAD
1000
MTEXTBEGIN
1070
    73
1070
     1
1070
    44
1040
1.0
1070
    74
1070
     0
1000
MTEXTEND
  0
MTEXT
  5
5611
330
1A
100
AcDbEntity
  8
0
100
AcDbMText
 10
55428.09782635704
 20
40777.02094193211
 30
0.0
 40
8.0
 41
0.0
 71
     7
 72
     5
  1

1001
ACAD
1000
MTEXTBEGIN
1070
    73
1070
     1
1070
    44
1040
1.0
1070
    74
1070
     0
1000
MTEXTEND
  0
MTEXT
  5
5612
330
1A
100
AcDbEntity
  8
0
100
AcDbMText
 10
57713.45551625194
 20
41747.81123668317
 30
0.0
 40
8.0
 41
0.0
 71
     7
 72
     5
  1

1001
ACAD
1000
MTEXTBEGIN
1070
    73
1070
     1
1070
    44
1040
1.0
1070
    74
1070
     0
1000
MTEXTEND
  0
MTEXT
  5
5613
330
1A
100
AcDbEntity
  8
SUNPOU
100
AcDbMText
 10
60379.35253693408
 20
51259.9226290583
 30
0.0
 40
10.5
 41
0.0
 71
     1
 72
     5
  1

1001
ACAD
1000
MTEXTBEGIN
1070
    73
1070
     1
1070
    44
1040
1.0
1070
    74
1070
     0
1000
MTEXTEND
  0
MTEXT
  5
5614
330
1A
100
AcDbEntity
  8
SUNPOU
100
AcDbMText
 10
52448.42934099814
 20
50313.12949514535
 30
0.0
 40
10.5
 41
0.0
 71
     7
 72
     5
  1

1001
ACAD
1000
MTEXTBEGIN
1070
    73
1070
     1
1070
    44
1040
1.0
1070
    74
1070
     0
1000
MTEXTEND
  0
MTEXT
  5
5615
330
1A
100
AcDbEntity
  8
SUNPOU
100
AcDbMText
 10
55397.41300551091
 20
55213.80556698819
 30
0.0
 40
10.5
 41
0.0
 71
     7
 72
     5
  1

1001
ACAD
1000
MTEXTBEGIN
1070
    73
1070
     1
1070
    44
1040
1.0
1070
    74
1070
     0
1000
MTEXTEND
  0
MTEXT
  5
5616
330
1A
100
AcDbEntity
  8
SUNPOU
100
AcDbMText
 10
59906.49113346147
 20
57650.10631460826
 30
0.0
 40
10.5
 41
0.0
 71
     7
 72
     5
  1

1001
ACAD
1000
MTEXTBEGIN
1070
    73
1070
     1
1070
    44
1040
1.0
1070
    74
1070
     0
1000
MTEXTEND
  0
MTEXT
  5
5617
330
1A
100
AcDbEntity
  8
SUNPOU
100
AcDbMText
 10
43507.32902022979
 20
36647.70246499718
 30
0.0
 40
10.5
 41
0.0
 71
     7
 72
     5
  1

1001
ACAD
1000
MTEXTBEGIN
1070
    73
1070
     1
1070
    44
1040
1.0
1070
    74
1070
     0
1000
MTEXTEND
  0
MTEXT
  5
5618
330
1A
100
AcDbEntity
  8
SUNPOU
100
AcDbMText
 10
94698.84745413006
 20
82320.68302864542
 30
0.0
 40
10.5
 41
0.0
 71
     9
 72
     5
  1

1001
ACAD
1000
MTEXTBEGIN
1070
    73
1070
     1
1070
    44
1040
1.0
1070
    74
1070
     0
1000
MTEXTEND
  0
MTEXT
  5
5619
330
1A
100
AcDbEntity
  8
SUNPOU
100
AcDbMText
 10
103421.015020048
 20
89736.5175601829
 30
0.0
 40
10.5
 41
0.0
 71
     9
 72
     5
  1

1001
ACAD
1000
MTEXTBEGIN
1070
    73
1070
     1
1070
    44
1040
1.0
1070
    74
1070
     0
1000
MTEXTEND
  0
MTEXT
  5
561A
330
1A
100
AcDbEntity
  8
SUNPOU
100
AcDbMText
 10
122374.773737378
 20
107203.0936126749
 30
0.0
 40
10.5
 41
0.0
 71
     9
 72
     5
  1

1001
ACAD
1000
MTEXTBEGIN
1070
    73
1070
     1
1070
    44
1040
1.0
1070
    74
1070
     0
1000
MTEXTEND
  0
MTEXT
  5
561B
330
1A
100
AcDbEntity
  8
SUNPOU
100
AcDbMText
 10
124318.1809840874
 20
105402.0445327969
 30
0.0
 40
3.5
 41
0.0
 71
     9
 72
     5
  1

1001
ACAD
1000
MTEXTBEGIN
1070
    73
1070
     1
1070
    44
1040
1.0
1070
    74
1070
     0
1000
MTEXTEND
  0
MTEXT
  5
561C
330
1A
100
AcDbEntity
  8
SUNPOU
100
AcDbMText
 10
155444.3608167071
 20
147896.9902004542
 30
0.0
 40
10.5
 41
0.0
 71
     9
 72
     5
  1

1001
ACAD
1000
MTEXTBEGIN
1070
    73
1070
     1
1070
    44
1040
1.0
1070
    74
1070
     0
1000
MTEXTEND
  0
MTEXT
  5
561D
330
1A
100
AcDbEntity
  8
SUNPOU
100
AcDbMText
 10
157387.7680634165
 20
146095.9411205762
 30
0.0
 40
3.5
 41
0.0
 71
     9
 72
     5
  1

1001
ACAD
1000
MTEXTBEGIN
1070
    73
1070
     1
1070
    44
1040
1.0
1070
    74
1070
     0
1000
MTEXTEND
  0
MTEXT
  5
561E
330
1A
100
AcDbEntity
  8
SUNPOU
100
AcDbMText
 10
105884.6285225027
 20
93730.15535542933
 30
0.0
 40
10.5
 41
0.0
 71
     9
 72
     5
  1

1001
ACAD
1000
MTEXTBEGIN
1070
    73
1070
     1
1070
    44
1040
1.0
1070
    74
1070
     0
1000
MTEXTEND
  0
MTEXT
  5
561F
330
1A
100
AcDbEntity
  8
SUNPOU
100
AcDbMText
 10
91936.6284221267
 20
74557.75621631714
 30
0.0
 40
3.5
 41
0.0
 71
     7
 72
     5
  1

1001
ACAD
1000
MTEXTBEGIN
1070
    73
1070
     1
1070
    44
1040
1.0
1070
    74
1070
     0
1000
MTEXTEND
  0
MTEXT
  5
5620
330
1A
100
AcDbEntity
  8
SUNPOU
100
AcDbMText
 10
72921.79781911986
 20
62319.90494713533
 30
0.0
 40
10.5
 41
0.0
 71
     7
 72
     5
  1

1001
ACAD
1000
MTEXTBEGIN
1070
    73
1070
     1
1070
    44
1040
1.0
1070
    74
1070
     0
1000
MTEXTEND
  0
MTEXT
  5
5621
330
1A
100
AcDbEntity
  8
SUNPOU
100
AcDbMText
 10
60464.56955417175
 20
46474.97336903692
 30
0.0
 40
35.0
 41
0.0
 71
     9
 72
     5
  1

1001
ACAD
1000
MTEXTBEGIN
1070
    73
1070
     1
1070
    44
1040
1.0
1070
    74
1070
     0
1000
MTEXTEND
  0
MTEXT
  5
5622
330
1A
100
AcDbEntity
  8
SUNPOU
100
AcDbMText
 10
59373.05461174672
 20
47083.74877908562
 30
0.0
 40
350.0000004171781
 41
0.0
 71
     7
 72
     5
  1

1001
ACAD
1000
MTEXTBEGIN
1070
    73
1070
     1
1070
    44
1040
1.0
1070
    74
1070
     0
1000
MTEXTEND
  0
MTEXT
  5
5623
330
1A
100
AcDbEntity
  8
0
100
AcDbMText
 10
65417.00536968962
 20
45063.67114122186
 30
0.0
 40
8.0
 41
0.0
 71
     7
 72
     5
  1

1001
ACAD
1000
MTEXTBEGIN
1070
    73
1070
     1
1070
    44
1040
1.0
1070
    74
1070
     0
1000
MTEXTEND
  0
MTEXT
  5
5624
330
1A
100
AcDbEntity
  8
0
100
AcDbMText
 10
67702.36305958452
 20
46034.46143597292
 30
0.0
 40
8.0
 41
0.0
 71
     7
 72
     5
  1

1001
ACAD
1000
MTEXTBEGIN
1070
    73
1070
     1
1070
    44
1040
1.0
1070
    74
1070
     0
1000
MTEXTEND
  0
MTEXT
  5
5625
330
1A
100
AcDbEntity
  8
SUNPOU
100
AcDbMText
 10
70368.26008026666
 20
55546.57282834803
 30
0.0
 40
10.5
 41
0.0
 71
     1
 72
     5
  1

1001
ACAD
1000
MTEXTBEGIN
1070
    73
1070
     1
1070
    44
1040
1.0
1070
    74
1070
     0
1000
MTEXTEND
  0
MTEXT
  5
5626
330
1A
100
AcDbEntity
  8
SUNPOU
100
AcDbMText
 10
62437.33688433072
 20
54599.77969443508
 30
0.0
 40
10.5
 41
0.0
 71
     7
 72
     5
  1

1001
ACAD
1000
MTEXTBEGIN
1070
    73
1070
     1
1070
    44
1040
1.0
1070
    74
1070
     0
1000
MTEXTEND
  0
MTEXT
  5
5627
330
1A
100
AcDbEntity
  8
SUNPOU
100
AcDbMText
 10
65386.32054884349
 20
59500.45576627792
 30
0.0
 40
10.5
 41
0.0
 71
     7
 72
     5
  1

1001
ACAD
1000
MTEXTBEGIN
1070
    73
1070
     1
1070
    44
1040
1.0
1070
    74
1070
     0
1000
MTEXTEND
  0
MTEXT
  5
5628
330
1A
100
AcDbEntity
  8
SUNPOU
100
AcDbMText
 10
69895.39867679405
 20
61936.756513898
 30
0.0
 40
10.5
 41
0.0
 71
     7
 72
     5
  1

1001
ACAD
1000
MTEXTBEGIN
1070
    73
1070
     1
1070
    44
1040
1.0
1070
    74
1070
     0
1000
MTEXTEND
  0
MTEXT
  5
5629
330
1A
100
AcDbEntity
  8
SUNPOU
100
AcDbMText
 10
53496.23656356237
 20
40934.35266428691
 30
0.0
 40
10.5
 41
0.0
 71
     7
 72
     5
  1

1001
ACAD
1000
MTEXTBEGIN
1070
    73
1070
     1
1070
    44
1040
1.0
1070
    74
1070
     0
1000
MTEXTEND
  0
MTEXT
  5
562A
330
1A
100
AcDbEntity
  8
SUNPOU
100
AcDbMText
 10
55306.99947493731
 20
47261.76665176547
 30
0.0
 40
10.5
 41
0.0
 71
     9
 72
     5
  1

1001
ACAD
1000
MTEXTBEGIN
1070
    73
1070
     1
1070
    44
1040
1.0
1070
    74
1070
     0
1000
MTEXTEND
  0
MTEXT
  5
562B
330
1A
100
AcDbEntity
  8
SUNPOU
100
AcDbMText
 10
64029.16704085528
 20
54677.60118330295
 30
0.0
 40
10.5
 41
0.0
 71
     9
 72
     5
  1

1001
ACAD
1000
MTEXTBEGIN
1070
    73
1070
     1
1070
    44
1040
1.0
1070
    74
1070
     0
1000
MTEXTEND
  0
MTEXT
  5
562C
330
1A
100
AcDbEntity
  8
SUNPOU
100
AcDbMText
 10
82982.92575818527
 20
72144.17723579499
 30
0.0
 40
10.5
 41
0.0
 71
     9
 72
     5
  1

1001
ACAD
1000
MTEXTBEGIN
1070
    73
1070
     1
1070
    44
1040
1.0
1070
    74
1070
     0
1000
MTEXTEND
  0
MTEXT
  5
562D
330
1A
100
AcDbEntity
  8
SUNPOU
100
AcDbMText
 10
84926.33300489467
 20
70343.12815591698
 30
0.0
 40
3.5
 41
0.0
 71
     9
 72
     5
  1

1001
ACAD
1000
MTEXTBEGIN
1070
    73
1070
     1
1070
    44
1040
1.0
1070
    74
1070
     0
1000
MTEXTEND
  0
MTEXT
  5
562E
330
1A
100
AcDbEntity
  8
SUNPOU
100
AcDbMText
 10
116052.5128375143
 20
112838.0738235743
 30
0.0
 40
10.5
 41
0.0
 71
     9
 72
     5
  1

1001
ACAD
1000
MTEXTBEGIN
1070
    73
1070
     1
1070
    44
1040
1.0
1070
    74
1070
     0
1000
MTEXTEND
  0
MTEXT
  5
562F
330
1A
100
AcDbEntity
  8
SUNPOU
100
AcDbMText
 10
117995.9200842238
 20
111037.0247436963
 30
0.0
 40
3.5
 41
0.0
 71
     9
 72
     5
  1

1001
ACAD
1000
MTEXTBEGIN
1070
    73
1070
     1
1070
    44
1040
1.0
1070
    74
1070
     0
1000
MTEXTEND
  0
MTEXT
  5
5630
330
1A
100
AcDbEntity
  8
SUNPOU
100
AcDbMText
 10
66492.78054330994
 20
58671.23897854939
 30
0.0
 40
10.5
 41
0.0
 71
     9
 72
     5
  1

1001
ACAD
1000
MTEXTBEGIN
1070
    73
1070
     1
1070
    44
1040
1.0
1070
    74
1070
     0
1000
MTEXTEND
  0
MTEXT
  5
5631
330
1A
100
AcDbEntity
  8
SUNPOU
100
AcDbMText
 10
52544.78044293396
 20
39498.83983943717
 30
0.0
 40
3.5
 41
0.0
 71
     7
 72
     5
  1

1001
ACAD
1000
MTEXTBEGIN
1070
    73
1070
     1
1070
    44
1040
1.0
1070
    74
1070
     0
1000
MTEXTEND
  0
MTEXT
  5
5632
330
1A
100
AcDbEntity
  8
SUNPOU
100
AcDbMText
 10
66237.13112570454
 20
48857.90306045851
 30
0.0
 40
10.5
 41
0.0
 71
     9
 72
     5
  1

1001
ACAD
1000
MTEXTBEGIN
1070
    73
1070
     1
1070
    44
1040
1.0
1070
    74
1070
     0
1000
MTEXTEND
  0
MTEXT
  5
5633
330
1A
100
AcDbEntity
  8
SUNPOU
100
AcDbMText
 10
74959.29869162252
 20
56273.737591996
 30
0.0
 40
10.5
 41
0.0
 71
     9
 72
     5
  1

1001
ACAD
1000
MTEXTBEGIN
1070
    73
1070
     1
1070
    44
1040
1.0
1070
    74
1070
     0
1000
MTEXTEND
  0
MTEXT
  5
5634
330
1A
100
AcDbEntity
  8
SUNPOU
100
AcDbMText
 10
93913.0574089525
 20
73740.31364448805
 30
0.0
 40
10.5
 41
0.0
 71
     9
 72
     5
  1

1001
ACAD
1000
MTEXTBEGIN
1070
    73
1070
     1
1070
    44
1040
1.0
1070
    74
1070
     0
1000
MTEXTEND
  0
MTEXT
  5
5635
330
1A
100
AcDbEntity
  8
SUNPOU
100
AcDbMText
 10
95856.46465566192
 20
71939.26456461004
 30
0.0
 40
3.5
 41
0.0
 71
     9
 72
     5
  1

1001
ACAD
1000
MTEXTBEGIN
1070
    73
1070
     1
1070
    44
1040
1.0
1070
    74
1070
     0
1000
MTEXTEND
  0
MTEXT
  5
5636
330
1A
100
AcDbEntity
  8
SUNPOU
100
AcDbMText
 10
126982.6444882816
 20
114434.2102322673
 30
0.0
 40
10.5
 41
0.0
 71
     9
 72
     5
  1

1001
ACAD
1000
MTEXTBEGIN
1070
    73
1070
     1
1070
    44
1040
1.0
1070
    74
1070
     0
1000
MTEXTEND
  0
MTEXT
  5
5637
330
1A
100
AcDbEntity
  8
SUNPOU
100
AcDbMText
 10
128926.051734991
 20
112633.1611523893
 30
0.0
 40
3.5
 41
0.0
 71
     9
 72
     5
  1

1001
ACAD
1000
MTEXTBEGIN
1070
    73
1070
     1
1070
    44
1040
1.0
1070
    74
1070
     0
1000
MTEXTEND
  0
MTEXT
  5
5638
330
1A
100
AcDbEntity
  8
SUNPOU
100
AcDbMText
 10
77422.91219407717
 20
60267.37538724244
 30
0.0
 40
10.5
 41
0.0
 71
     9
 72
     5
  1

1001
ACAD
1000
MTEXTBEGIN
1070
    73
1070
     1
1070
    44
1040
1.0
1070
    74
1070
     0
1000
MTEXTEND
  0
MTEXT
  5
5639
330
1A
100
AcDbEntity
  8
SUNPOU
100
AcDbMText
 10
63474.91209370119
 20
41094.97624813023
 30
0.0
 40
3.5
 41
0.0
 71
     7
 72
     5
  1

1001
ACAD
1000
MTEXTBEGIN
1070
    73
1070
     1
1070
    44
1040
1.0
1070
    74
1070
     0
1000
MTEXTEND
  0
MTEXT
  5
563A
330
1A
100
AcDbEntity
  8
SUNPOU
100
AcDbMText
 10
48117.65086229006
 20
40806.11043916631
 30
0.0
 40
10.5
 41
0.0
 71
     9
 72
     5
  1

1001
ACAD
1000
MTEXTBEGIN
1070
    73
1070
     1
1070
    44
1040
1.0
1070
    74
1070
     0
1000
MTEXTEND
  0
MTEXT
  5
563B
330
1A
100
AcDbEntity
  8
SUNPOU
100
AcDbMText
 10
67071.40957962004
 20
58272.68649165837
 30
0.0
 40
10.5
 41
0.0
 71
     9
 72
     5
  1

1001
ACAD
1000
MTEXTBEGIN
1070
    73
1070
     1
1070
    44
1040
1.0
1070
    74
1070
     0
1000
MTEXTEND
  0
MTEXT
  5
563C
330
1A
100
AcDbEntity
  8
SUNPOU
100
AcDbMText
 10
69014.81682632945
 20
56471.63741178035
 30
0.0
 40
3.5
 41
0.0
 71
     9
 72
     5
  1

1001
ACAD
1000
MTEXTBEGIN
1070
    73
1070
     1
1070
    44
1040
1.0
1070
    74
1070
     0
1000
MTEXTEND
  0
MTEXT
  5
563D
330
1A
100
AcDbEntity
  8
SUNPOU
100
AcDbMText
 10
100140.9966589491
 20
98966.58307943772
 30
0.0
 40
10.5
 41
0.0
 71
     9
 72
     5
  1

1001
ACAD
1000
MTEXTBEGIN
1070
    73
1070
     1
1070
    44
1040
1.0
1070
    74
1070
     0
1000
MTEXTEND
  0
MTEXT
  5
563E
330
1A
100
AcDbEntity
  8
SUNPOU
100
AcDbMText
 10
102084.4039056586
 20
97165.53399955969
 30
0.0
 40
3.5
 41
0.0
 71
     9
 72
     5
  1

1001
ACAD
1000
MTEXTBEGIN
1070
    73
1070
     1
1070
    44
1040
1.0
1070
    74
1070
     0
1000
MTEXTEND
  0
MTEXT
  5
563F
330
1A
100
AcDbEntity
  8
SUNPOU
100
AcDbMText
 10
50581.26436474472
 20
44799.74823441275
 30
0.0
 40
10.5
 41
0.0
 71
     9
 72
     5
  1

1001
ACAD
1000
MTEXTBEGIN
1070
    73
1070
     1
1070
    44
1040
1.0
1070
    74
1070
     0
1000
MTEXTEND
  0
MTEXT
  5
5640
330
1A
100
AcDbEntity
  8
SUNPOU
100
AcDbMText
 10
36633.26426436873
 20
25627.34909530054
 30
0.0
 40
3.5
 41
0.0
 71
     7
 72
     5
  1

1001
ACAD
1000
MTEXTBEGIN
1070
    73
1070
     1
1070
    44
1040
1.0
1070
    74
1070
     0
1000
MTEXTEND
  0
MTEXT
  5
5641
330
1A
100
AcDbEntity
  8
SUNPOU
100
AcDbMText
 10
61069.42493315968
 20
52574.61207825771
 30
0.0
 40
10.5
 41
0.0
 71
     9
 72
     5
  1

1001
ACAD
1000
MTEXTBEGIN
1070
    73
1070
     1
1070
    44
1040
1.0
1070
    74
1070
     0
1000
MTEXTEND
  0
MTEXT
  5
5642
330
1A
100
AcDbEntity
  8
SUNPOU
100
AcDbMText
 10
80023.18365048967
 20
70041.18813074978
 30
0.0
 40
10.5
 41
0.0
 71
     9
 72
     5
  1

1001
ACAD
1000
MTEXTBEGIN
1070
    73
1070
     1
1070
    44
1040
1.0
1070
    74
1070
     0
1000
MTEXTEND
  0
MTEXT
  5
5643
330
1A
100
AcDbEntity
  8
SUNPOU
100
AcDbMText
 10
81966.59089719908
 20
68240.13905087176
 30
0.0
 40
3.5
 41
0.0
 71
     9
 72
     5
  1

1001
ACAD
1000
MTEXTBEGIN
1070
    73
1070
     1
1070
    44
1040
1.0
1070
    74
1070
     0
1000
MTEXTEND
  0
MTEXT
  5
5644
330
1A
100
AcDbEntity
  8
SUNPOU
100
AcDbMText
 10
113092.7707298187
 20
110735.0847185291
 30
0.0
 40
10.5
 41
0.0
 71
     9
 72
     5
  1

1001
ACAD
1000
MTEXTBEGIN
1070
    73
1070
     1
1070
    44
1040
1.0
1070
    74
1070
     0
1000
MTEXTEND
  0
MTEXT
  5
5645
330
1A
100
AcDbEntity
  8
SUNPOU
100
AcDbMText
 10
115036.1779765282
 20
108934.0356386511
 30
0.0
 40
3.5
 41
0.0
 71
     9
 72
     5
  1

1001
ACAD
1000
MTEXTBEGIN
1070
    73
1070
     1
1070
    44
1040
1.0
1070
    74
1070
     0
1000
MTEXTEND
  0
MTEXT
  5
5646
330
1A
100
AcDbEntity
  8
SUNPOU
100
AcDbMText
 10
63533.03843561433
 20
56568.24987350415
 30
0.0
 40
10.5
 41
0.0
 71
     9
 72
     5
  1

1001
ACAD
1000
MTEXTBEGIN
1070
    73
1070
     1
1070
    44
1040
1.0
1070
    74
1070
     0
1000
MTEXTEND
  0
MTEXT
  5
5647
330
1A
100
AcDbEntity
  8
SUNPOU
100
AcDbMText
 10
49585.03833523835
 20
37395.85073439196
 30
0.0
 40
3.5
 41
0.0
 71
     7
 72
     5
  1

1001
ACAD
1000
MTEXTBEGIN
1070
    73
1070
     1
1070
    44
1040
1.0
1070
    74
1070
     0
1000
MTEXTEND
  0
MTEXT
  5
5648
330
1A
100
AcDbEntity
  8
SUNPOU
100
AcDbMText
 10
77137.31641337052
 20
70907.11375048141
 30
0.0
 40
10.5
 41
0.0
 71
     9
 72
     5
  1

1001
ACAD
1000
MTEXTBEGIN
1070
    73
1070
     1
1070
    44
1040
1.0
1070
    74
1070
     0
1000
MTEXTEND
  0
MTEXT
  5
5649
330
1A
100
AcDbEntity
  8
SUNPOU
100
AcDbMText
 10
79080.72366007995
 20
69106.06467060339
 30
0.0
 40
3.5
 41
0.0
 71
     9
 72
     5
  1

1001
ACAD
1000
MTEXTBEGIN
1070
    73
1070
     1
1070
    44
1040
1.0
1070
    74
1070
     0
1000
MTEXTEND
  0
MTEXT
  5
564A
330
1A
100
AcDbEntity
  8
SUNPOU
100
AcDbMText
 10
110206.9034926996
 20
111601.0103382607
 30
0.0
 40
10.5
 41
0.0
 71
     9
 72
     5
  1

1001
ACAD
1000
MTEXTBEGIN
1070
    73
1070
     1
1070
    44
1040
1.0
1070
    74
1070
     0
1000
MTEXTEND
  0
MTEXT
  5
564B
330
1A
100
AcDbEntity
  8
SUNPOU
100
AcDbMText
 10
112150.310739409
 20
109799.9612583827
 30
0.0
 40
3.5
 41
0.0
 71
     9
 72
     5
  1

1001
ACAD
1000
MTEXTBEGIN
1070
    73
1070
     1
1070
    44
1040
1.0
1070
    74
1070
     0
1000
MTEXTEND
  0
MTEXT
  5
564C
330
1A
100
AcDbEntity
  8
SUNPOU
100
AcDbMText
 10
108819.1333204968
 20
110677.9087286761
 30
0.0
 40
10.5
 41
0.0
 71
     9
 72
     5
  1

1001
ACAD
1000
MTEXTBEGIN
1070
    73
1070
     1
1070
    44
1040
1.0
1070
    74
1070
     0
1000
MTEXTEND
  0
MTEXT
  5
564D
330
1A
100
AcDbEntity
  8
SUNPOU
100
AcDbMText
 10
110762.5405672062
 20
108876.8596487981
 30
0.0
 40
3.5
 41
0.0
 71
     9
 72
     5
  1

1001
ACAD
1000
MTEXTBEGIN
1070
    73
1070
     1
1070
    44
1040
1.0
1070
    74
1070
     0
1000
MTEXTEND
  0
MTEXT
  5
564E
330
1A
100
AcDbEntity
  8
SUNPOU
100
AcDbMText
 10
76303.05507956816
 20
68695.31179059812
 30
0.0
 40
10.5
 41
0.0
 71
     9
 72
     5
  1

1001
ACAD
1000
MTEXTBEGIN
1070
    73
1070
     1
1070
    44
1040
1.0
1070
    74
1070
     0
1000
MTEXTEND
  0
MTEXT
  5
564F
330
1A
100
AcDbEntity
  8
SUNPOU
100
AcDbMText
 10
79026.36128373271
 20
69099.99348217918
 30
0.0
 40
3.5
 41
0.0
 71
     9
 72
     5
  1

1001
ACAD
1000
MTEXTBEGIN
1070
    73
1070
     1
1070
    44
1040
1.0
1070
    74
1070
     0
1000
MTEXTEND
  0
MTEXT
  5
5650
330
1A
100
AcDbEntity
  8
SUNPOU
100
AcDbMText
 10
78234.00675862522
 20
65938.68764412436
 30
0.0
 40
10.5
 41
0.0
 71
     9
 72
     5
  1

1001
ACAD
1000
MTEXTBEGIN
1070
    73
1070
     1
1070
    44
1040
1.0
1070
    74
1070
     0
1000
MTEXTEND
  0
MTEXT
  5
5651
330
1A
100
AcDbEntity
  8
SUNPOU
100
AcDbMText
 10
80177.41400533465
 20
64137.63856424636
 30
0.0
 40
3.5
 41
0.0
 71
     9
 72
     5
  1

1001
ACAD
1000
MTEXTBEGIN
1070
    73
1070
     1
1070
    44
1040
1.0
1070
    74
1070
     0
1000
MTEXTEND
  0
MTEXT
  5
5652
330
1A
100
AcDbEntity
  8
SUNPOU
100
AcDbMText
 10
80122.50949592123
 20
64024.86668196205
 30
0.0
 40
3.5
 41
0.0
 71
     9
 72
     5
  1

1001
ACAD
1000
MTEXTBEGIN
1070
    73
1070
     1
1070
    44
1040
1.0
1070
    74
1070
     0
1000
MTEXTEND
  0
MTEXT
  5
5653
330
1A
100
AcDbEntity
  8
SUNPOU
100
AcDbMText
 10
79486.58135950133
 20
63213.54544089553
 30
0.0
 40
3.5
 41
0.0
 71
     9
 72
     5
  1

1001
ACAD
1000
MTEXTBEGIN
1070
    73
1070
     1
1070
    44
1040
1.0
1070
    74
1070
     0
1000
MTEXTEND
  0
MTEXT
  5
5654
330
1A
100
AcDbEntity
  8
SUNPOU
100
AcDbMText
 10
79485.3409400806
 20
63213.29746395804
 30
0.0
 40
10.5
 41
0.0
 71
     9
 72
     5
  1

1001
ACAD
1000
MTEXTBEGIN
1070
    73
1070
     1
1070
    44
1040
1.0
1070
    74
1070
     0
1000
MTEXTEND
  0
MTEXT
  5
5655
330
1A
100
AcDbEntity
  8
SUNPOU
100
AcDbMText
 10
85473.63363627567
 20
80747.76348077064
 30
0.0
 40
10.5
 41
0.0
 71
     9
 72
     5
  1

1001
ACAD
1000
MTEXTBEGIN
1070
    73
1070
     1
1070
    44
1040
1.0
1070
    74
1070
     0
1000
MTEXTEND
  0
MTEXT
  5
5656
330
1A
100
AcDbEntity
  8
SUNPOU
100
AcDbMText
 10
94195.80120219368
 20
88163.59801230809
 30
0.0
 40
10.5
 41
0.0
 71
     9
 72
     5
  1

1001
ACAD
1000
MTEXTBEGIN
1070
    73
1070
     1
1070
    44
1040
1.0
1070
    74
1070
     0
1000
MTEXTEND
  0
MTEXT
  5
5657
330
1A
100
AcDbEntity
  8
SUNPOU
100
AcDbMText
 10
113149.5599195236
 20
105630.1740648001
 30
0.0
 40
10.5
 41
0.0
 71
     9
 72
     5
  1

1001
ACAD
1000
MTEXTBEGIN
1070
    73
1070
     1
1070
    44
1040
1.0
1070
    74
1070
     0
1000
MTEXTEND
  0
MTEXT
  5
5658
330
1A
100
AcDbEntity
  8
SUNPOU
100
AcDbMText
 10
115092.967166233
 20
103829.1249849221
 30
0.0
 40
3.5
 41
0.0
 71
     9
 72
     5
  1

1001
ACAD
1000
MTEXTBEGIN
1070
    73
1070
     1
1070
    44
1040
1.0
1070
    74
1070
     0
1000
MTEXTEND
  0
MTEXT
  5
5659
330
1A
100
AcDbEntity
  8
SUNPOU
100
AcDbMText
 10
146219.1469988527
 20
146324.0706525794
 30
0.0
 40
10.5
 41
0.0
 71
     9
 72
     5
  1

1001
ACAD
1000
MTEXTBEGIN
1070
    73
1070
     1
1070
    44
1040
1.0
1070
    74
1070
     0
1000
MTEXTEND
  0
MTEXT
  5
565A
330
1A
100
AcDbEntity
  8
SUNPOU
100
AcDbMText
 10
148162.5542455621
 20
144523.0215727014
 30
0.0
 40
3.5
 41
0.0
 71
     9
 72
     5
  1

1001
ACAD
1000
MTEXTBEGIN
1070
    73
1070
     1
1070
    44
1040
1.0
1070
    74
1070
     0
1000
MTEXTEND
  0
MTEXT
  5
565B
330
1A
100
AcDbEntity
  8
SUNPOU
100
AcDbMText
 10
96659.41470464833
 20
92157.23580755453
 30
0.0
 40
10.5
 41
0.0
 71
     9
 72
     5
  1

1001
ACAD
1000
MTEXTBEGIN
1070
    73
1070
     1
1070
    44
1040
1.0
1070
    74
1070
     0
1000
MTEXTEND
  0
MTEXT
  5
565C
330
1A
100
AcDbEntity
  8
SUNPOU
100
AcDbMText
 10
82711.41460427234
 20
72984.83666844234
 30
0.0
 40
3.5
 41
0.0
 71
     7
 72
     5
  1

1001
ACAD
1000
MTEXTBEGIN
1070
    73
1070
     1
1070
    44
1040
1.0
1070
    74
1070
     0
1000
MTEXTEND
  0
MTEXT
  5
565D
330
1A
100
AcDbEntity
  8
SUNPOU
100
AcDbMText
 10
63696.58400126548
 20
60746.98539926055
 30
0.0
 40
10.5
 41
0.0
 71
     7
 72
     5
  1

1001
ACAD
1000
MTEXTBEGIN
1070
    73
1070
     1
1070
    44
1040
1.0
1070
    74
1070
     0
1000
MTEXTEND
  0
MTEXT
  5
565E
330
1A
100
AcDbEntity
  8
SUNPOU
100
AcDbMText
 10
51239.35573631738
 20
44902.05382116213
 30
0.0
 40
35.0
 41
0.0
 71
     9
 72
     5
  1

1001
ACAD
1000
MTEXTBEGIN
1070
    73
1070
     1
1070
    44
1040
1.0
1070
    74
1070
     0
1000
MTEXTEND
  0
MTEXT
  5
565F
330
1A
100
AcDbEntity
  8
SUNPOU
100
AcDbMText
 10
50147.84079389233
 20
45510.82923121084
 30
0.0
 40
350.0000004171781
 41
0.0
 71
     7
 72
     5
  1

1001
ACAD
1000
MTEXTBEGIN
1070
    73
1070
     1
1070
    44
1040
1.0
1070
    74
1070
     0
1000
MTEXTEND
  0
MTEXT
  5
5660
330
1A
100
AcDbEntity
  8
0
100
AcDbMText
 10
56191.79155183523
 20
43490.75159334705
 30
0.0
 40
8.0
 41
0.0
 71
     7
 72
     5
  1

1001
ACAD
1000
MTEXTBEGIN
1070
    73
1070
     1
1070
    44
1040
1.0
1070
    74
1070
     0
1000
MTEXTEND
  0
MTEXT
  5
5661
330
1A
100
AcDbEntity
  8
0
100
AcDbMText
 10
58477.14924173013
 20
44461.54188809812
 30
0.0
 40
8.0
 41
0.0
 71
     7
 72
     5
  1

1001
ACAD
1000
MTEXTBEGIN
1070
    73
1070
     1
1070
    44
1040
1.0
1070
    74
1070
     0
1000
MTEXTEND
  0
MTEXT
  5
5662
330
1A
100
AcDbEntity
  8
SUNPOU
100
AcDbMText
 10
61143.04626241227
 20
53973.65328047324
 30
0.0
 40
10.5
 41
0.0
 71
     1
 72
     5
  1

1001
ACAD
1000
MTEXTBEGIN
1070
    73
1070
     1
1070
    44
1040
1.0
1070
    74
1070
     0
1000
MTEXTEND
  0
MTEXT
  5
5663
330
1A
100
AcDbEntity
  8
SUNPOU
100
AcDbMText
 10
53212.12306647634
 20
53026.86014656028
 30
0.0
 40
10.5
 41
0.0
 71
     7
 72
     5
  1

1001
ACAD
1000
MTEXTBEGIN
1070
    73
1070
     1
1070
    44
1040
1.0
1070
    74
1070
     0
1000
MTEXTEND
  0
MTEXT
  5
5664
330
1A
100
AcDbEntity
  8
SUNPOU
100
AcDbMText
 10
56161.1067309891
 20
57927.53621840312
 30
0.0
 40
10.5
 41
0.0
 71
     7
 72
     5
  1

1001
ACAD
1000
MTEXTBEGIN
1070
    73
1070
     1
1070
    44
1040
1.0
1070
    74
1070
     0
1000
MTEXTEND
  0
MTEXT
  5
5665
330
1A
100
AcDbEntity
  8
SUNPOU
100
AcDbMText
 10
60670.18485893966
 20
60363.8369660232
 30
0.0
 40
10.5
 41
0.0
 71
     7
 72
     5
  1

1001
ACAD
1000
MTEXTBEGIN
1070
    73
1070
     1
1070
    44
1040
1.0
1070
    74
1070
     0
1000
MTEXTEND
  0
MTEXT
  5
5666
330
1A
100
AcDbEntity
  8
SUNPOU
100
AcDbMText
 10
44271.02274570799
 20
39361.43311641212
 30
0.0
 40
10.5
 41
0.0
 71
     7
 72
     5
  1

1001
ACAD
1000
MTEXTBEGIN
1070
    73
1070
     1
1070
    44
1040
1.0
1070
    74
1070
     0
1000
MTEXTEND
  0
MTEXT
  5
5667
330
1A
100
AcDbEntity
  8
SUNPOU
100
AcDbMText
 10
95462.54117960824
 20
85034.41368006038
 30
0.0
 40
10.5
 41
0.0
 71
     9
 72
     5
  1

1001
ACAD
1000
MTEXTBEGIN
1070
    73
1070
     1
1070
    44
1040
1.0
1070
    74
1070
     0
1000
MTEXTEND
  0
MTEXT
  5
5668
330
1A
100
AcDbEntity
  8
SUNPOU
100
AcDbMText
 10
104184.7087455262
 20
92450.24821159784
 30
0.0
 40
10.5
 41
0.0
 71
     9
 72
     5
  1

1001
ACAD
1000
MTEXTBEGIN
1070
    73
1070
     1
1070
    44
1040
1.0
1070
    74
1070
     0
1000
MTEXTEND
  0
MTEXT
  5
5669
330
1A
100
AcDbEntity
  8
SUNPOU
100
AcDbMText
 10
123138.4674628562
 20
109916.8242640898
 30
0.0
 40
10.5
 41
0.0
 71
     9
 72
     5
  1

1001
ACAD
1000
MTEXTBEGIN
1070
    73
1070
     1
1070
    44
1040
1.0
1070
    74
1070
     0
1000
MTEXTEND
  0
MTEXT
  5
566A
330
1A
100
AcDbEntity
  8
SUNPOU
100
AcDbMText
 10
125081.8747095656
 20
108115.7751842118
 30
0.0
 40
3.5
 41
0.0
 71
     9
 72
     5
  1

1001
ACAD
1000
MTEXTBEGIN
1070
    73
1070
     1
1070
    44
1040
1.0
1070
    74
1070
     0
1000
MTEXTEND
  0
MTEXT
  5
566B
330
1A
100
AcDbEntity
  8
SUNPOU
100
AcDbMText
 10
156208.0545421853
 20
150610.7208518691
 30
0.0
 40
10.5
 41
0.0
 71
     9
 72
     5
  1

1001
ACAD
1000
MTEXTBEGIN
1070
    73
1070
     1
1070
    44
1040
1.0
1070
    74
1070
     0
1000
MTEXTEND
  0
MTEXT
  5
566C
330
1A
100
AcDbEntity
  8
SUNPOU
100
AcDbMText
 10
158151.4617888947
 20
148809.6717719911
 30
0.0
 40
3.5
 41
0.0
 71
     9
 72
     5
  1

1001
ACAD
1000
MTEXTBEGIN
1070
    73
1070
     1
1070
    44
1040
1.0
1070
    74
1070
     0
1000
MTEXTEND
  0
MTEXT
  5
566D
330
1A
100
AcDbEntity
  8
SUNPOU
100
AcDbMText
 10
106648.3222479809
 20
96443.88600684427
 30
0.0
 40
10.5
 41
0.0
 71
     9
 72
     5
  1

1001
ACAD
1000
MTEXTBEGIN
1070
    73
1070
     1
1070
    44
1040
1.0
1070
    74
1070
     0
1000
MTEXTEND
  0
MTEXT
  5
566E
330
1A
100
AcDbEntity
  8
SUNPOU
100
AcDbMText
 10
92700.3221476049
 20
77271.48686773207
 30
0.0
 40
3.5
 41
0.0
 71
     7
 72
     5
  1

1001
ACAD
1000
MTEXTBEGIN
1070
    73
1070
     1
1070
    44
1040
1.0
1070
    74
1070
     0
1000
MTEXTEND
  0
MTEXT
  5
566F
330
1A
100
AcDbEntity
  8
SUNPOU
100
AcDbMText
 10
73685.49154459806
 20
65033.63559855027
 30
0.0
 40
10.5
 41
0.0
 71
     7
 72
     5
  1

1001
ACAD
1000
MTEXTBEGIN
1070
    73
1070
     1
1070
    44
1040
1.0
1070
    74
1070
     0
1000
MTEXTEND
  0
MTEXT
  5
5670
330
1A
100
AcDbEntity
  8
SUNPOU
100
AcDbMText
 10
61228.26327964995
 20
49188.70402045185
 30
0.0
 40
35.0
 41
0.0
 71
     9
 72
     5
  1

1001
ACAD
1000
MTEXTBEGIN
1070
    73
1070
     1
1070
    44
1040
1.0
1070
    74
1070
     0
1000
MTEXTEND
  0
MTEXT
  5
5671
330
1A
100
AcDbEntity
  8
SUNPOU
100
AcDbMText
 10
60136.74833722491
 20
49797.47943050056
 30
0.0
 40
350.0000004171781
 41
0.0
 71
     7
 72
     5
  1

1001
ACAD
1000
MTEXTBEGIN
1070
    73
1070
     1
1070
    44
1040
1.0
1070
    74
1070
     0
1000
MTEXTEND
  0
MTEXT
  5
5672
330
1A
100
AcDbEntity
  8
0
100
AcDbMText
 10
66180.69909516782
 20
47777.40179263678
 30
0.0
 40
8.0
 41
0.0
 71
     7
 72
     5
  1

1001
ACAD
1000
MTEXTBEGIN
1070
    73
1070
     1
1070
    44
1040
1.0
1070
    74
1070
     0
1000
MTEXTEND
  0
MTEXT
  5
5673
330
1A
100
AcDbEntity
  8
0
100
AcDbMText
 10
68466.05678506271
 20
48748.19208738784
 30
0.0
 40
8.0
 41
0.0
 71
     7
 72
     5
  1

1001
ACAD
1000
MTEXTBEGIN
1070
    73
1070
     1
1070
    44
1040
1.0
1070
    74
1070
     0
1000
MTEXTEND
  0
MTEXT
  5
5674
330
1A
100
AcDbEntity
  8
SUNPOU
100
AcDbMText
 10
71131.95380574485
 20
58260.30347976296
 30
0.0
 40
10.5
 41
0.0
 71
     1
 72
     5
  1

1001
ACAD
1000
MTEXTBEGIN
1070
    73
1070
     1
1070
    44
1040
1.0
1070
    74
1070
     0
1000
MTEXTEND
  0
MTEXT
  5
5675
330
1A
100
AcDbEntity
  8
SUNPOU
100
AcDbMText
 10
63201.03060980891
 20
57313.51034585002
 30
0.0
 40
10.5
 41
0.0
 71
     7
 72
     5
  1

1001
ACAD
1000
MTEXTBEGIN
1070
    73
1070
     1
1070
    44
1040
1.0
1070
    74
1070
     0
1000
MTEXTEND
  0
MTEXT
  5
5676
330
1A
100
AcDbEntity
  8
SUNPOU
100
AcDbMText
 10
66150.01427432169
 20
62214.18641769286
 30
0.0
 40
10.5
 41
0.0
 71
     7
 72
     5
  1

1001
ACAD
1000
MTEXTBEGIN
1070
    73
1070
     1
1070
    44
1040
1.0
1070
    74
1070
     0
1000
MTEXTEND
  0
MTEXT
  5
5677
330
1A
100
AcDbEntity
  8
SUNPOU
100
AcDbMText
 10
70659.09240227225
 20
64650.48716531294
 30
0.0
 40
10.5
 41
0.0
 71
     7
 72
     5
  1

1001
ACAD
1000
MTEXTBEGIN
1070
    73
1070
     1
1070
    44
1040
1.0
1070
    74
1070
     0
1000
MTEXTEND
  0
MTEXT
  5
5678
330
1A
100
AcDbEntity
  8
SUNPOU
100
AcDbMText
 10
54259.93028904056
 20
43648.08331570185
 30
0.0
 40
10.5
 41
0.0
 71
     7
 72
     5
  1

1001
ACAD
1000
MTEXTBEGIN
1070
    73
1070
     1
1070
    44
1040
1.0
1070
    74
1070
     0
1000
MTEXTEND
  0
MTEXT
  5
5679
330
1A
100
AcDbEntity
  8
SUNPOU
100
AcDbMText
 10
56070.69320041551
 20
49975.4973031804
 30
0.0
 40
10.5
 41
0.0
 71
     9
 72
     5
  1

1001
ACAD
1000
MTEXTBEGIN
1070
    73
1070
     1
1070
    44
1040
1.0
1070
    74
1070
     0
1000
MTEXTEND
  0
MTEXT
  5
567A
330
1A
100
AcDbEntity
  8
SUNPOU
100
AcDbMText
 10
64792.86076633348
 20
57391.33183471788
 30
0.0
 40
10.5
 41
0.0
 71
     9
 72
     5
  1

1001
ACAD
1000
MTEXTBEGIN
1070
    73
1070
     1
1070
    44
1040
1.0
1070
    74
1070
     0
1000
MTEXTEND
  0
MTEXT
  5
567B
330
1A
100
AcDbEntity
  8
SUNPOU
100
AcDbMText
 10
83746.61948366345
 20
74857.90788720994
 30
0.0
 40
10.5
 41
0.0
 71
     9
 72
     5
  1

1001
ACAD
1000
MTEXTBEGIN
1070
    73
1070
     1
1070
    44
1040
1.0
1070
    74
1070
     0
1000
MTEXTEND
  0
MTEXT
  5
567C
330
1A
100
AcDbEntity
  8
SUNPOU
100
AcDbMText
 10
85690.02673037287
 20
73056.85880733192
 30
0.0
 40
3.5
 41
0.0
 71
     9
 72
     5
  1

1001
ACAD
1000
MTEXTBEGIN
1070
    73
1070
     1
1070
    44
1040
1.0
1070
    74
1070
     0
1000
MTEXTEND
  0
MTEXT
  5
567D
330
1A
100
AcDbEntity
  8
SUNPOU
100
AcDbMText
 10
116816.2065629925
 20
115551.8044749892
 30
0.0
 40
10.5
 41
0.0
 71
     9
 72
     5
  1

1001
ACAD
1000
MTEXTBEGIN
1070
    73
1070
     1
1070
    44
1040
1.0
1070
    74
1070
     0
1000
MTEXTEND
  0
MTEXT
  5
567E
330
1A
100
AcDbEntity
  8
SUNPOU
100
AcDbMText
 10
118759.613809702
 20
113750.7553951112
 30
0.0
 40
3.5
 41
0.0
 71
     9
 72
     5
  1

1001
ACAD
1000
MTEXTBEGIN
1070
    73
1070
     1
1070
    44
1040
1.0
1070
    74
1070
     0
1000
MTEXTEND
  0
MTEXT
  5
567F
330
1A
100
AcDbEntity
  8
SUNPOU
100
AcDbMText
 10
67256.47426878814
 20
61384.96962996432
 30
0.0
 40
10.5
 41
0.0
 71
     9
 72
     5
  1

1001
ACAD
1000
MTEXTBEGIN
1070
    73
1070
     1
1070
    44
1040
1.0
1070
    74
1070
     0
1000
MTEXTEND
  0
MTEXT
  5
5680
330
1A
100
AcDbEntity
  8
SUNPOU
100
AcDbMText
 10
53308.47416841216
 20
42212.57049085211
 30
0.0
 40
3.5
 41
0.0
 71
     7
 72
     5
  1

1001
ACAD
1000
MTEXTBEGIN
1070
    73
1070
     1
1070
    44
1040
1.0
1070
    74
1070
     0
1000
MTEXTEND
  0
MTEXT
  5
5681
330
1A
100
AcDbEntity
  8
SUNPOU
100
AcDbMText
 10
67000.82485118274
 20
51571.63371187345
 30
0.0
 40
10.5
 41
0.0
 71
     9
 72
     5
  1

1001
ACAD
1000
MTEXTBEGIN
1070
    73
1070
     1
1070
    44
1040
1.0
1070
    74
1070
     0
1000
MTEXTEND
  0
MTEXT
  5
5682
330
1A
100
AcDbEntity
  8
SUNPOU
100
AcDbMText
 10
75722.99241710071
 20
58987.46824341094
 30
0.0
 40
10.5
 41
0.0
 71
     9
 72
     5
  1

1001
ACAD
1000
MTEXTBEGIN
1070
    73
1070
     1
1070
    44
1040
1.0
1070
    74
1070
     0
1000
MTEXTEND
  0
MTEXT
  5
5683
330
1A
100
AcDbEntity
  8
SUNPOU
100
AcDbMText
 10
94676.75113443068
 20
76454.04429590299
 30
0.0
 40
10.5
 41
0.0
 71
     9
 72
     5
  1

1001
ACAD
1000
MTEXTBEGIN
1070
    73
1070
     1
1070
    44
1040
1.0
1070
    74
1070
     0
1000
MTEXTEND
  0
MTEXT
  5
5684
330
1A
100
AcDbEntity
  8
SUNPOU
100
AcDbMText
 10
96620.1583811401
 20
74652.99521602498
 30
0.0
 40
3.5
 41
0.0
 71
     9
 72
     5
  1

1001
ACAD
1000
MTEXTBEGIN
1070
    73
1070
     1
1070
    44
1040
1.0
1070
    74
1070
     0
1000
MTEXTEND
  0
MTEXT
  5
5685
330
1A
100
AcDbEntity
  8
SUNPOU
100
AcDbMText
 10
127746.3382137598
 20
117147.9408836823
 30
0.0
 40
10.5
 41
0.0
 71
     9
 72
     5
  1

1001
ACAD
1000
MTEXTBEGIN
1070
    73
1070
     1
1070
    44
1040
1.0
1070
    74
1070
     0
1000
MTEXTEND
  0
MTEXT
  5
5686
330
1A
100
AcDbEntity
  8
SUNPOU
100
AcDbMText
 10
129689.7454604692
 20
115346.8918038043
 30
0.0
 40
3.5
 41
0.0
 71
     9
 72
     5
  1

1001
ACAD
1000
MTEXTBEGIN
1070
    73
1070
     1
1070
    44
1040
1.0
1070
    74
1070
     0
1000
MTEXTEND
  0
MTEXT
  5
5687
330
1A
100
AcDbEntity
  8
SUNPOU
100
AcDbMText
 10
78186.60591955537
 20
62981.10603865738
 30
0.0
 40
10.5
 41
0.0
 71
     9
 72
     5
  1

1001
ACAD
1000
MTEXTBEGIN
1070
    73
1070
     1
1070
    44
1040
1.0
1070
    74
1070
     0
1000
MTEXTEND
  0
MTEXT
  5
5688
330
1A
100
AcDbEntity
  8
SUNPOU
100
AcDbMText
 10
64238.60581917939
 20
43808.70689954517
 30
0.0
 40
3.5
 41
0.0
 71
     7
 72
     5
  1

1001
ACAD
1000
MTEXTBEGIN
1070
    73
1070
     1
1070
    44
1040
1.0
1070
    74
1070
     0
1000
MTEXTEND
  0
MTEXT
  5
5689
330
1A
100
AcDbEntity
  8
SUNPOU
100
AcDbMText
 10
33428.13481137435
 20
32770.04710035564
 30
0.0
 40
10.5
 41
0.0
 71
     9
 72
     5
  1

1001
ACAD
1000
MTEXTBEGIN
1070
    73
1070
     1
1070
    44
1040
1.0
1070
    74
1070
     0
1000
MTEXTEND
  0
MTEXT
  5
568A
330
1A
100
AcDbEntity
  8
SUNPOU
100
AcDbMText
 10
52381.89352870432
 20
50236.62315284769
 30
0.0
 40
10.5
 41
0.0
 71
     9
 72
     5
  1

1001
ACAD
1000
MTEXTBEGIN
1070
    73
1070
     1
1070
    44
1040
1.0
1070
    74
1070
     0
1000
MTEXTEND
  0
MTEXT
  5
568B
330
1A
100
AcDbEntity
  8
SUNPOU
100
AcDbMText
 10
54325.30077541374
 20
48435.57407296968
 30
0.0
 40
3.5
 41
0.0
 71
     9
 72
     5
  1

1001
ACAD
1000
MTEXTBEGIN
1070
    73
1070
     1
1070
    44
1040
1.0
1070
    74
1070
     0
1000
MTEXTEND
  0
MTEXT
  5
568C
330
1A
100
AcDbEntity
  8
SUNPOU
100
AcDbMText
 10
85451.48060803343
 20
90930.51974062703
 30
0.0
 40
10.5
 41
0.0
 71
     9
 72
     5
  1

1001
ACAD
1000
MTEXTBEGIN
1070
    73
1070
     1
1070
    44
1040
1.0
1070
    74
1070
     0
1000
MTEXTEND
  0
MTEXT
  5
568D
330
1A
100
AcDbEntity
  8
SUNPOU
100
AcDbMText
 10
87394.88785474286
 20
89129.47066074901
 30
0.0
 40
3.5
 41
0.0
 71
     9
 72
     5
  1

1001
ACAD
1000
MTEXTBEGIN
1070
    73
1070
     1
1070
    44
1040
1.0
1070
    74
1070
     0
1000
MTEXTEND
  0
MTEXT
  5
568E
330
1A
100
AcDbEntity
  8
SUNPOU
100
AcDbMText
 10
35891.74831382901
 20
36763.68489560208
 30
0.0
 40
10.5
 41
0.0
 71
     9
 72
     5
  1

1001
ACAD
1000
MTEXTBEGIN
1070
    73
1070
     1
1070
    44
1040
1.0
1070
    74
1070
     0
1000
MTEXTEND
  0
MTEXT
  5
568F
330
1A
100
AcDbEntity
  8
SUNPOU
100
AcDbMText
 10
21943.74821345303
 20
17591.28575648986
 30
0.0
 40
3.5
 41
0.0
 71
     7
 72
     5
  1

1001
ACAD
1000
MTEXTBEGIN
1070
    73
1070
     1
1070
    44
1040
1.0
1070
    74
1070
     0
1000
MTEXTEND
  0
MTEXT
  5
11D07
330
1A
100
AcDbEntity
  8
ZISSEN1
100
AcDbMText
 10
-1611.188889060103
 20
1745.095368753726
 30
0.0
 40
5.0
 41
142.1839999999999
 71
     1
 72
     5
  1
AL2-01v1/PCI　No.SS0001f86
1001
ACAD
1000
MTEXTBEGIN
1070
    73
1070
     1
1070
    44
1040
1.0
1070
    74
1070
     0
1000
MTEXTEND
  0
DIMENSION
  5
15F6C
330
1A
100
AcDbEntity
  8
ZISSEN1
100
AcDbDimension
  2
*D0
 10
-1345.798354965222
 20
1599.669999999999
 30
0.0
 11
-1348.548354965223
 21
1629.669999999999
 31
0.0
 70
    32
  3
標準スタイル
100
AcDbAlignedDimension
 13
-1359.219999999999
 23
1659.669999999999
 33
0.0
 14
-1378.691
 24
1599.669999999999
 34
0.0
 50
90.0
100
AcDbRotatedDimension
1001
ACAD
1000
DSTYLE
1002
{
1070
    40
1040
1.0
1070
   340
1005
10
1002
}
  0
DIMENSION
  5
15F6D
330
1A
100
AcDbEntity
  8
ZISSEN1
100
AcDbDimension
  2
*D1
 10
-1500.0
 20
1712.090045056303
 30
0.0
 11
-1429.109999999999
 21
1714.840045056303
 31
0.0
 70
    32
  3
標準スタイル
100
AcDbAlignedDimension
 13
-1358.219999999999
 23
1658.669999999999
 33
0.0
 14
-1500.0
 24
1700.0
 34
0.0
100
AcDbRotatedDimension
1001
ACAD
1000
DSTYLE
1002
{
1070
   340
1005
10
1070
    40
1040
1.0
1002
}
  0
LINE
  5
15FC1
330
1A
100
AcDbEntity
  8
ZISSEN1
100
AcDbLine
 10
-1358.219999999999
 20
1658.669999999999
 30
0.0
 11
-1358.219999999999
 21
1608.929999999998
 31
0.0
  0
LINE
  5
15FC2
330
1A
100
AcDbEntity
  8
ZISSEN1
100
AcDbLine
 10
-1498.719999999999
 20
1643.949999999998
 30
0.0
 11
-1491.719999999999
 21
1643.949999999998
 31
0.0
  0
LINE
  5
15FC3
330
1A
100
AcDbEntity
  8
ZISSEN1
100
AcDbLine
 10
-1499.0
 20
1600.5
 30
0.0
 11
-1497.662236609305
 21
1600.5
 31
0.0
  0
LINE
  5
15FC4
330
1A
100
AcDbEntity
  8
ZISSEN1
100
AcDbLine
 10
-1498.719999999999
 20
1634.149999999998
 30
0.0
 11
-1491.719999999999
 21
1634.149999999998
 31
0.0
  0
ARC
  5
15FC5
330
1A
100
AcDbEntity
  8
ZISSEN1
100
AcDbCircle
 10
-1498.219999999999
 20
1599.669999999999
 30
0.0
 40
1.0
100
AcDbArc
 50
0.0
 51
90.0
  0
LINE
  5
15FC6
330
1A
100
AcDbEntity
  8
ZISSEN1
100
AcDbLine
 10
-1499.0
 20
1611.949999999998
 30
0.0
 11
-1486.219999999999
 21
1611.949999999998
 31
0.0
  0
LINE
  5
15FC7
330
1A
100
AcDbEntity
  8
ZISSEN1
100
AcDbLine
 10
-1499.0
 20
1626.549999999999
 30
0.0
 11
-1486.219999999999
 21
1626.549999999999
 31
0.0
  0
LINE
  5
15FC8
330
1A
100
AcDbEntity
  8
ZISSEN1
100
AcDbLine
 10
-1499.0
 20
1546.45
 30
0.0
 11
-1486.22
 21
1546.45
 31
0.0
  0
LINE
  5
15FC9
330
1A
100
AcDbEntity
  8
ZISSEN1
100
AcDbLine
 10
-1499.0
 20
1532.85
 30
0.0
 11
-1487.54
 21
1532.85
 31
0.0
  0
LINE
  5
15FCA
330
1A
100
AcDbEntity
  8
ZISSEN1
100
AcDbLine
 10
-1499.0
 20
1534.449999999999
 30
0.0
 11
-1486.22
 21
1534.449999999999
 31
0.0
  0
LINE
  5
15FCB
330
1A
100
AcDbEntity
  8
ZISSEN1
100
AcDbLine
 10
-1498.22
 20
1534.449999999999
 30
0.0
 11
-1358.22
 21
1534.449999999999
 31
0.0
  0
LINE
  5
15FCC
330
1A
100
AcDbEntity
  8
ZISSEN1
100
AcDbLine
 10
-1498.22
 20
1532.85
 30
0.0
 11
-1358.22
 21
1532.85
 31
0.0
  0
LINE
  5
15FCD
330
1A
100
AcDbEntity
  8
ZISSEN1
100
AcDbLine
 10
-1498.219999999999
 20
1651.669999999999
 30
0.0
 11
-1498.219999999999
 21
1643.949999999998
 31
0.0
  0
LINE
  5
15FCE
330
1A
100
AcDbEntity
  8
ZISSEN1
100
AcDbLine
 10
-1548.01
 20
1645.549999999999
 30
0.0
 11
-1548.01
 21
1632.549999999998
 31
0.0
  0
LINE
  5
15FCF
330
1A
100
AcDbEntity
  8
ZISSEN1
100
AcDbLine
 10
-1499.0
 20
1700.499999999999
 30
0.0
 11
-1499.0
 21
1585.06
 31
0.0
  0
LINE
  5
15FD0
330
1A
100
AcDbEntity
  8
ZISSEN1
100
AcDbLine
 10
-1500.0
 20
1700.0
 30
0.0
 11
-1500.0
 21
1585.06
 31
0.0
  0
LINE
  5
15FD1
330
1A
100
AcDbEntity
  8
ZISSEN1
100
AcDbLine
 10
-1555.879999999999
 20
1610.5
 30
0.0
 11
-1555.879999999999
 21
1649.669999999999
 31
0.0
  0
LINE
  5
15FD2
330
1A
100
AcDbEntity
  8
ZISSEN1
100
AcDbLine
 10
-1553.209999999999
 20
1645.549999999999
 30
0.0
 11
-1553.209999999999
 21
1610.949999999999
 31
0.0
  0
LINE
  5
15FD3
330
1A
100
AcDbEntity
  8
ZISSEN1
100
AcDbLine
 10
-1537.459999999999
 20
1693.52
 30
0.0
 11
-1537.459999999999
 21
1591.37
 31
0.0
  0
LINE
  5
15FD4
330
1A
100
AcDbEntity
  8
ZISSEN1
100
AcDbLine
 10
-1553.009999999999
 20
1645.549999999999
 30
0.0
 11
-1553.009999999999
 21
1610.949999999999
 31
0.0
  0
LINE
  5
15FD5
330
1A
100
AcDbEntity
  8
ZISSEN1
100
AcDbLine
 10
-1503.82
 20
1534.449999999999
 30
0.0
 11
-1503.82
 21
1546.35
 31
0.0
  0
LINE
  5
15FD6
330
1A
100
AcDbEntity
  8
ZISSEN1
100
AcDbLine
 10
-1499.0
 20
1550.0
 30
0.0
 11
-1499.0
 21
1528.41
 31
0.0
  0
LINE
  5
15FD7
330
1A
100
AcDbEntity
  8
ZISSEN1
100
AcDbLine
 10
-1511.43
 20
1539.08
 30
0.0
 11
-1511.43
 21
1545.46
 31
0.0
  0
LINE
  5
15FD8
330
1A
100
AcDbEntity
  8
ZISSEN1
100
AcDbLine
 10
-1500.438945871251
 20
1545.88
 30
0.0
 11
-1500.438945871251
 21
1535.7
 31
0.0
  0
LINE
  5
15FD9
330
1A
100
AcDbEntity
  8
ZISSEN1
100
AcDbLine
 10
-1499.442751173158
 20
1545.88
 30
0.0
 11
-1499.442751173158
 21
1535.7
 31
0.0
  0
LINE
  5
15FDA
330
1A
100
AcDbEntity
  8
ZISSEN1
100
AcDbLine
 10
-1498.22
 20
1534.449999999999
 30
0.0
 11
-1498.22
 21
1532.849999999999
 31
0.0
  0
LINE
  5
15FDB
330
1A
100
AcDbEntity
  8
ZISSEN1
100
AcDbLine
 10
-1498.22
 20
1532.85
 30
0.0
 11
-1498.22
 21
1534.449999999999
 31
0.0
  0
ARC
  5
15FDC
330
1A
100
AcDbEntity
  8
ZISSEN1
100
AcDbCircle
 10
-1509.43
 20
1530.409999999999
 30
0.0
 40
2.0
100
AcDbArc
 50
180.0
 51
270.0
  0
LINE
  5
15FDD
330
1A
100
AcDbEntity
  8
ZISSEN1
100
AcDbLine
 10
-1507.24
 20
1539.08
 30
0.0
 11
-1511.43
 21
1539.08
 31
0.0
  0
LINE
  5
15FDE
330
1A
100
AcDbEntity
  8
ZISSEN1
100
AcDbLine
 10
-1507.24
 20
1536.08
 30
0.0
 11
-1507.24
 21
1539.08
 31
0.0
  0
LINE
  5
15FDF
330
1A
100
AcDbEntity
  8
ZISSEN1
100
AcDbLine
 10
-1511.43
 20
1536.08
 30
0.0
 11
-1507.24
 21
1536.08
 31
0.0
  0
LINE
  5
15FE0
330
1A
100
AcDbEntity
  8
ZISSEN1
100
AcDbLine
 10
-1511.43
 20
1530.409999999999
 30
0.0
 11
-1511.43
 21
1536.08
 31
0.0
  0
LINE
  5
15FE1
330
1A
100
AcDbEntity
  8
ZISSEN1
100
AcDbLine
 10
-1507.33
 20
1528.41
 30
0.0
 11
-1509.43
 21
1528.41
 31
0.0
  0
LINE
  5
15FE2
330
1A
100
AcDbEntity
  8
ZISSEN1
100
AcDbLine
 10
-1507.33
 20
1528.41
 30
0.0
 11
-1507.33
 21
1531.579999999999
 31
0.0
  0
ARC
  5
15FE3
330
1A
100
AcDbEntity
  8
ZISSEN1
100
AcDbCircle
 10
-1505.079999999999
 20
1531.579999999999
 30
0.0
 40
2.25
100
AcDbArc
 50
0.0
 51
180.0
  0
LINE
  5
15FE4
330
1A
100
AcDbEntity
  8
ZISSEN1
100
AcDbLine
 10
-1502.83
 20
1528.41
 30
0.0
 11
-1502.83
 21
1531.579999999999
 31
0.0
  0
LINE
  5
15FE5
330
1A
100
AcDbEntity
  8
ZISSEN1
100
AcDbLine
 10
-1499.0
 20
1528.41
 30
0.0
 11
-1502.83
 21
1528.41
 31
0.0
  0
LINE
  5
15FE6
330
1A
100
AcDbEntity
  8
ZISSEN1
100
AcDbLine
 10
-1503.82
 20
1534.449999999999
 30
0.0
 11
-1500.0
 21
1534.449999999999
 31
0.0
  0
LINE
  5
15FE8
330
1A
100
AcDbEntity
  8
ZISSEN1
100
AcDbLine
 10
-1500.438945871251
 20
1535.7
 30
0.0
 11
-1499.0
 21
1535.7
 31
0.0
  0
LINE
  5
15FE9
330
1A
100
AcDbEntity
  8
ZISSEN1
100
AcDbLine
 10
-1500.0
 20
1535.7
 30
0.0
 11
-1500.0
 21
1528.41
 31
0.0
  0
LINE
  5
15FEA
330
1A
100
AcDbEntity
  8
ZISSEN1
100
AcDbLine
 10
-1553.209999999999
 20
1627.55
 30
0.0
 11
-1540.109999999999
 21
1627.55
 31
0.0
  0
LINE
  5
15FEB
330
1A
100
AcDbEntity
  8
ZISSEN1
100
AcDbLine
 10
-1541.579999999999
 20
1587.25
 30
0.0
 11
-1537.459999999999
 21
1591.37
 31
0.0
  0
LINE
  5
15FEC
330
1A
100
AcDbEntity
  8
ZISSEN1
100
AcDbLine
 10
-1553.209999999999
 20
1610.949999999999
 30
0.0
 11
-1540.109999999999
 21
1610.949999999999
 31
0.0
  0
LINE
  5
15FF7
330
1A
100
AcDbEntity
  8
ZISSEN1
100
AcDbLine
 10
-1553.009999999999
 20
1642.899999999997
 30
0.0
 11
-1553.009999999999
 21
1642.399999999997
 31
0.0
  0
LINE
  5
15FFB
330
1A
100
AcDbEntity
  8
ZISSEN1
100
AcDbLine
 10
-1549.059999999999
 20
1642.899999999997
 30
0.0
 11
-1549.059999999999
 21
1642.399999999997
 31
0.0
  0
LINE
  5
15FFF
330
1A
100
AcDbEntity
  8
ZISSEN1
100
AcDbLine
 10
-1553.009999999999
 20
1642.899999999997
 30
0.0
 11
-1553.009999999999
 21
1642.399999999997
 31
0.0
  0
LINE
  5
16000
330
1A
100
AcDbEntity
  8
ZISSEN1
100
AcDbLine
 10
-1549.059999999999
 20
1643.949999999998
 30
0.0
 11
-1553.009999999999
 21
1643.949999999998
 31
0.0
  0
LINE
  5
16002
330
1A
100
AcDbEntity
  8
ZISSEN1
100
AcDbLine
 10
-1553.009999999999
 20
1643.949999999998
 30
0.0
 11
-1553.009999999999
 21
1642.899999999997
 31
0.0
  0
LINE
  5
1600F
330
1A
100
AcDbEntity
  8
ZISSEN1
100
AcDbLine
 10
-1553.009999999999
 20
1635.199999999997
 30
0.0
 11
-1553.009999999999
 21
1635.699999999998
 31
0.0
  0
LINE
  5
16012
330
1A
100
AcDbEntity
  8
ZISSEN1
100
AcDbLine
 10
-1549.059999999999
 20
1635.199999999997
 30
0.0
 11
-1549.059999999999
 21
1635.699999999998
 31
0.0
  0
LINE
  5
16016
330
1A
100
AcDbEntity
  8
ZISSEN1
100
AcDbLine
 10
-1553.009999999999
 20
1635.199999999997
 30
0.0
 11
-1553.009999999999
 21
1635.699999999998
 31
0.0
  0
LINE
  5
16018
330
1A
100
AcDbEntity
  8
ZISSEN1
100
AcDbLine
 10
-1549.059999999999
 20
1634.149999999998
 30
0.0
 11
-1553.009999999999
 21
1634.149999999998
 31
0.0
  0
LINE
  5
1601A
330
1A
100
AcDbEntity
  8
ZISSEN1
100
AcDbLine
 10
-1553.009999999999
 20
1634.149999999998
 30
0.0
 11
-1553.009999999999
 21
1635.199999999997
 31
0.0
  0
LINE
  5
16040
330
1A
100
AcDbEntity
  8
ZISSEN1
100
AcDbLine
 10
-1549.059999999999
 20
1643.949999999998
 30
0.0
 11
-1549.059999999999
 21
1634.149999999998
 31
0.0
  0
LINE
  5
16041
330
1A
100
AcDbEntity
  8
ZISSEN1
100
AcDbLine
 10
-1541.109999999998
 20
1626.549999999999
 30
0.0
 11
-1553.009999999999
 21
1626.549999999999
 31
0.0
  0
LINE
  5
1604C
330
1A
100
AcDbEntity
  8
ZISSEN1
100
AcDbLine
 10
-1541.579999999999
 20
1587.25
 30
0.0
 11
-1541.579999999999
 21
1581.98
 31
0.0
  0
LINE
  5
1604F
330
1A
100
AcDbEntity
  8
ZISSEN1
100
AcDbLine
 10
-1553.009999999999
 20
1623.299999999999
 30
0.0
 11
-1553.009999999999
 21
1615.199999999999
 31
0.0
  0
LINE
  5
1605C
330
1A
100
AcDbEntity
  8
ZISSEN1
100
AcDbLine
 10
-1554.609999999998
 20
1610.333955969978
 30
0.0
 11
-1556.509999999999
 21
1610.333955969978
 31
0.0
  0
LINE
  5
16070
330
1A
100
AcDbEntity
  8
ZISSEN1
100
AcDbLine
 10
-1556.509999999999
 20
1610.633955969978
 30
0.0
 11
-1556.509999999999
 21
1610.333955969978
 31
0.0
  0
LINE
  5
16071
330
1A
100
AcDbEntity
  8
ZISSEN1
100
AcDbLine
 10
-1543.58
 20
1579.98
 30
0.0
 11
-1549.759999999999
 21
1579.98
 31
0.0
  0
LINE
  5
16072
330
1A
100
AcDbEntity
  8
ZISSEN1
100
AcDbLine
 10
-1551.76
 20
1587.25
 30
0.0
 11
-1551.76
 21
1581.98
 31
0.0
  0
LINE
  5
16073
330
1A
100
AcDbEntity
  8
ZISSEN1
100
AcDbLine
 10
-1551.76
 20
1587.25
 30
0.0
 11
-1555.879999999999
 21
1591.37
 31
0.0
  0
ARC
  5
16074
330
1A
100
AcDbEntity
  8
ZISSEN1
100
AcDbCircle
 10
-1549.759999999999
 20
1581.98
 30
0.0
 40
2.0
100
AcDbArc
 50
180.0
 51
270.0
  0
LINE
  5
16075
330
1A
100
AcDbEntity
  8
ZISSEN1
100
AcDbLine
 10
-1554.609999999999
 20
1610.5
 30
0.0
 11
-1555.879999999999
 21
1610.5
 31
0.0
  0
LINE
  5
16076
330
1A
100
AcDbEntity
  8
ZISSEN1
100
AcDbLine
 10
-1555.879999999999
 20
1598.5
 30
0.0
 11
-1555.879999999999
 21
1591.37
 31
0.0
  0
LINE
  5
1607F
330
1A
100
AcDbEntity
  8
ZISSEN1
100
AcDbLine
 10
-1555.879999999999
 20
1610.633955969978
 30
0.0
 11
-1556.509999999999
 21
1610.633955969978
 31
0.0
  0
LINE
  5
16089
330
1A
100
AcDbEntity
  8
ZISSEN1
100
AcDbLine
 10
-1553.009999999999
 20
1611.949999999998
 30
0.0
 11
-1541.109999999998
 21
1611.949999999998
 31
0.0
  0
LINE
  5
16093
330
1A
100
AcDbEntity
  8
ZISSEN1
100
AcDbLine
 10
-1541.579999999999
 20
1585.06
 30
0.0
 11
-1551.76
 21
1585.06
 31
0.0
  0
ARC
  5
16094
330
1A
100
AcDbEntity
  8
ZISSEN1
100
AcDbCircle
 10
-1543.58
 20
1581.98
 30
0.0
 40
2.0
100
AcDbArc
 50
270.0
 51
0.0
  0
LINE
  5
16097
330
1A
100
AcDbEntity
  8
ZISSEN1
100
AcDbLine
 10
-1541.109999999998
 20
1611.949999999998
 30
0.0
 11
-1541.109999999998
 21
1626.549999999999
 31
0.0
  0
LINE
  5
16098
330
1A
100
AcDbEntity
  8
ZISSEN1
100
AcDbLine
 10
-1553.009999999999
 20
1626.549999999999
 30
0.0
 11
-1553.009999999999
 21
1611.949999999998
 31
0.0
  0
LINE
  5
1609A
330
1A
100
AcDbEntity
  8
ZISSEN1
100
AcDbLine
 10
-1553.009999999999
 20
1625.699999999999
 30
0.0
 11
-1553.009999999999
 21
1623.299999999999
 31
0.0
  0
LINE
  5
1609C
330
1A
100
AcDbEntity
  8
ZISSEN1
100
AcDbLine
 10
-1498.219999999999
 20
1634.149999999998
 30
0.0
 11
-1498.219999999999
 21
1626.549999999999
 31
0.0
  0
LINE
  5
1609D
330
1A
100
AcDbEntity
  8
ZISSEN1
100
AcDbLine
 10
-1503.819999999999
 20
1626.549999999999
 30
0.0
 11
-1500.0
 21
1626.549999999999
 31
0.0
  0
LINE
  5
1609F
330
1A
100
AcDbEntity
  8
ZISSEN1
100
AcDbLine
 10
-1498.719999999999
 20
1643.949999999998
 30
0.0
 11
-1498.719999999999
 21
1634.149999999998
 31
0.0
  0
LINE
  5
160A0
330
1A
100
AcDbEntity
  8
ZISSEN1
100
AcDbLine
 10
-1498.219999999999
 20
1608.5
 30
0.0
 11
-1498.219999999999
 21
1611.949999999998
 31
0.0
  0
LINE
  5
160A1
330
1A
100
AcDbEntity
  8
ZISSEN1
100
AcDbLine
 10
-1499.0
 20
1585.06
 30
0.0
 11
-1499.442751173157
 21
1579.999330933694
 31
0.0
  0
LINE
  5
160A2
330
1A
100
AcDbEntity
  8
ZISSEN1
100
AcDbLine
 10
-1499.442751173157
 20
1579.999330933694
 30
0.0
 11
-1500.43894587125
 21
1580.086486676441
 31
0.0
  0
LINE
  5
160A3
330
1A
100
AcDbEntity
  8
ZISSEN1
100
AcDbLine
 10
-1500.43894587125
 20
1580.086486676441
 30
0.0
 11
-1499.996194698091
 21
1585.147155742747
 31
0.0
  0
LINE
  5
160A4
330
1A
100
AcDbEntity
  8
ZISSEN1
100
AcDbLine
 10
-1500.0
 20
1591.37
 30
0.0
 11
-1499.0
 21
1591.37
 31
0.0
  0
LINE
  5
160A5
330
1A
100
AcDbEntity
  8
ZISSEN1
100
AcDbLine
 10
-1500.0
 20
1587.25
 30
0.0
 11
-1499.0
 21
1587.25
 31
0.0
  0
LINE
  5
160A6
330
1A
100
AcDbEntity
  8
ZISSEN1
100
AcDbLine
 10
-1503.819999999999
 20
1611.949999999998
 30
0.0
 11
-1500.0
 21
1611.949999999998
 31
0.0
  0
LINE
  5
160A8
330
1A
100
AcDbEntity
  8
ZISSEN1
100
AcDbLine
 10
-1509.43
 20
1547.46
 30
0.0
 11
-1500.0
 21
1547.46
 31
0.0
  0
LINE
  5
160A9
330
1A
100
AcDbEntity
  8
ZISSEN1
100
AcDbLine
 10
-1500.0
 20
1550.0
 30
0.0
 11
-1500.0
 21
1547.46
 31
0.0
  0
ARC
  5
160AA
330
1A
100
AcDbEntity
  8
ZISSEN1
100
AcDbCircle
 10
-1509.43
 20
1545.46
 30
0.0
 40
2.0
100
AcDbArc
 50
90.0
 51
180.0
  0
LINE
  5
160AB
330
1A
100
AcDbEntity
  8
ZISSEN1
100
AcDbLine
 10
-1500.0
 20
1550.0
 30
0.0
 11
-1499.0
 21
1550.0
 31
0.0
  0
LINE
  5
160AC
330
1A
100
AcDbEntity
  8
ZISSEN1
100
AcDbLine
 10
-1503.82
 20
1546.35
 30
0.0
 11
-1500.0
 21
1546.35
 31
0.0
  0
LINE
  5
160AE
330
1A
100
AcDbEntity
  8
ZISSEN1
100
AcDbLine
 10
-1500.438945871251
 20
1545.88
 30
0.0
 11
-1499.0
 21
1545.88
 31
0.0
  0
LINE
  5
160AF
330
1A
100
AcDbEntity
  8
ZISSEN1
100
AcDbLine
 10
-1500.0
 20
1550.0
 30
0.0
 11
-1500.0
 21
1545.88
 31
0.0
  0
LINE
  5
160B0
330
1A
100
AcDbEntity
  8
ZISSEN1
100
AcDbLine
 10
-1500.0
 20
1545.88
 30
0.0
 11
-1500.0
 21
1547.46
 31
0.0
  0
LINE
  5
160B1
330
1A
100
AcDbEntity
  8
ZISSEN1
100
AcDbLine
 10
-1499.0
 20
1608.5
 30
0.0
 11
-1498.219999999999
 21
1608.5
 31
0.0
  0
LINE
  5
160B2
330
1A
100
AcDbEntity
  8
ZISSEN1
100
AcDbLine
 10
-1503.819999999999
 20
1611.949999999998
 30
0.0
 11
-1503.819999999999
 21
1626.549999999999
 31
0.0
  0
LINE
  5
160B3
330
1A
100
AcDbEntity
  8
ZISSEN1
100
AcDbLine
 10
-1540.109999999999
 20
1627.55
 30
0.0
 11
-1540.109999999999
 21
1610.949999999999
 31
0.0
  0
LINE
  5
160B4
330
1A
100
AcDbEntity
  8
ZISSEN1
100
AcDbLine
 10
-1559.049999999999
 20
1701.0
 30
0.0
 11
-1540.0
 21
1701.0
 31
0.0
  0
LINE
  5
160B5
330
1A
100
AcDbEntity
  8
ZISSEN1
100
AcDbLine
 10
-1559.049999999999
 20
1700.0
 30
0.0
 11
-1540.0
 21
1700.0
 31
0.0
  0
LINE
  5
160B6
330
1A
100
AcDbEntity
  8
ZISSEN1
100
AcDbLine
 10
-1553.209999999999
 20
1645.549999999999
 30
0.0
 11
-1548.01
 21
1645.549999999999
 31
0.0
  0
LINE
  5
160B7
330
1A
100
AcDbEntity
  8
ZISSEN1
100
AcDbLine
 10
-1559.049999999999
 20
1701.0
 30
0.0
 11
-1559.049999999999
 21
1696.899999999999
 31
0.0
  0
LINE
  5
160B8
330
1A
100
AcDbEntity
  8
ZISSEN1
100
AcDbLine
 10
-1555.879999999999
 20
1695.899999999999
 30
0.0
 11
-1558.049999999999
 21
1695.899999999999
 31
0.0
  0
LINE
  5
160B9
330
1A
100
AcDbEntity
  8
ZISSEN1
100
AcDbLine
 10
-1559.049999999999
 20
1696.899999999999
 30
0.0
 11
-1558.049999999999
 21
1695.899999999999
 31
0.0
  0
LINE
  5
160BA
330
1A
100
AcDbEntity
  8
ZISSEN1
100
AcDbLine
 10
-1555.879999999999
 20
1695.899999999999
 30
0.0
 11
-1555.879999999999
 21
1661.669999999999
 31
0.0
  0
ARC
  5
160BB
330
1A
100
AcDbEntity
  8
ZISSEN1
100
AcDbCircle
 10
-1499.5
 20
1700.499999999999
 30
0.0
 40
0.5
100
AcDbArc
 50
0.0
 51
90.0
  0
LINE
  5
160BC
330
1A
100
AcDbEntity
  8
ZISSEN1
100
AcDbLine
 10
-1500.0
 20
1693.52
 30
0.0
 11
-1499.0
 21
1693.52
 31
0.0
  0
LINE
  5
160BD
330
1A
100
AcDbEntity
  8
ZISSEN1
100
AcDbLine
 10
-1500.0
 20
1696.06
 30
0.0
 11
-1499.0
 21
1696.06
 31
0.0
  0
LINE
  5
160BE
330
1A
100
AcDbEntity
  8
ZISSEN1
100
AcDbLine
 10
-1511.429999999999
 20
1700.0
 30
0.0
 11
-1511.429999999999
 21
1701.0
 31
0.0
  0
LINE
  5
160BF
330
1A
100
AcDbEntity
  8
ZISSEN1
100
AcDbLine
 10
-1509.429999999999
 20
1700.0
 30
0.0
 11
-1509.429999999999
 21
1701.0
 31
0.0
  0
LINE
  5
160C0
330
1A
100
AcDbEntity
  8
ZISSEN1
100
AcDbLine
 10
-1511.429999999999
 20
1701.0
 30
0.0
 11
-1499.5
 21
1701.0
 31
0.0
  0
LINE
  5
160C1
330
1A
100
AcDbEntity
  8
ZISSEN1
100
AcDbLine
 10
-1511.429999999999
 20
1700.0
 30
0.0
 11
-1500.0
 21
1700.0
 31
0.0
  0
LINE
  5
160C2
330
1A
100
AcDbEntity
  8
ZISSEN1
100
AcDbLine
 10
-1499.0
 20
1659.669999999999
 30
0.0
 11
-1497.219999999999
 21
1659.669999999999
 31
0.0
  0
LINE
  5
160C3
330
1A
100
AcDbEntity
  8
ZISSEN1
100
AcDbLine
 10
-1499.0
 20
1651.669999999999
 30
0.0
 11
-1498.219999999999
 21
1651.669999999999
 31
0.0
  0
LINE
  5
160C4
330
1A
100
AcDbEntity
  8
ZISSEN1
100
AcDbLine
 10
-1540.0
 20
1701.0
 30
0.0
 11
-1540.0
 21
1696.06
 31
0.0
  0
LINE
  5
160C5
330
1A
100
AcDbEntity
  8
ZISSEN1
100
AcDbLine
 10
-1537.459999999999
 20
1693.52
 30
0.0
 11
-1540.0
 21
1696.06
 31
0.0
  0
LINE
  5
160CA
330
1A
100
AcDbEntity
  8
ZISSEN1
100
AcDbLine
 10
-1440.701999999999
 20
1599.669999999999
 30
0.0
 11
-1395.057999999999
 21
1599.669999999999
 31
0.0
  0
LINE
  5
160CB
330
1A
100
AcDbEntity
  8
ZISSEN1
100
AcDbLine
 10
-1396.526140485403
 20
1611.723527483531
 30
0.0
 11
-1422.926140485404
 21
1611.723527483531
 31
0.0
  0
LINE
  5
160CC
330
1A
100
AcDbEntity
  8
ZISSEN1
100
AcDbLine
 10
-1422.926140485404
 20
1638.12352748353
 30
0.0
 11
-1396.526140485403
 21
1638.12352748353
 31
0.0
  0
LINE
  5
160CD
330
1A
100
AcDbEntity
  8
ZISSEN1
  6
DASHEDX2
100
AcDbLine
 10
-1457.949999999999
 20
1607.929999999999
 30
0.0
 11
-1378.31
 21
1607.929999999998
 31
0.0
  0
LINE
  5
160CE
330
1A
100
AcDbEntity
  8
ZISSEN1
100
AcDbLine
 10
-1486.22
 20
1534.449999999999
 30
0.0
 11
-1486.22
 21
1546.45
 31
0.0
  0
LINE
  5
160EB
330
1A
100
AcDbEntity
  8
ZISSEN1
100
AcDbLine
 10
-1483.601000000001
 20
1534.449999999999
 30
0.0
 11
-1483.601000000001
 21
1532.85
 31
0.0
  0
LINE
  5
160EC
330
1A
100
AcDbEntity
  8
ZISSEN1
100
AcDbLine
 10
-1483.220000000001
 20
1534.449999999999
 30
0.0
 11
-1483.220000000001
 21
1532.85
 31
0.0
  0
LINE
  5
160F3
330
1A
100
AcDbEntity
  8
ZISSEN1
100
AcDbLine
 10
-1494.82
 20
1531.849999999998
 30
0.0
 11
-1494.82
 21
1531.25
 31
0.0
  0
LINE
  5
160F6
330
1A
100
AcDbEntity
  8
ZISSEN1
100
AcDbLine
 10
-1497.22
 20
1532.85
 30
0.0
 11
-1497.22
 21
1534.45
 31
0.0
  0
LINE
  5
160F7
330
1A
100
AcDbEntity
  8
ZISSEN1
100
AcDbLine
 10
-1497.22
 20
1531.25
 30
0.0
 11
-1497.22
 21
1531.849999999998
 31
0.0
  0
LINE
  5
160F8
330
1A
100
AcDbEntity
  8
ZISSEN1
100
AcDbLine
 10
-1497.22
 20
1534.449999999999
 30
0.0
 11
-1494.82
 21
1534.449999999999
 31
0.0
  0
LINE
  5
160F9
330
1A
100
AcDbEntity
  8
ZISSEN1
100
AcDbLine
 10
-1494.82
 20
1531.25
 30
0.0
 11
-1497.22
 21
1531.25
 31
0.0
  0
LINE
  5
160FF
330
1A
100
AcDbEntity
  8
ZISSEN1
100
AcDbLine
 10
-1442.937
 20
1534.449999999999
 30
0.0
 11
-1442.937
 21
1532.85
 31
0.0
  0
LINE
  5
16100
330
1A
100
AcDbEntity
  8
ZISSEN1
100
AcDbLine
 10
-1443.318
 20
1534.449999999999
 30
0.0
 11
-1443.318
 21
1532.85
 31
0.0
  0
LINE
  5
16101
330
1A
100
AcDbEntity
  8
ZISSEN1
100
AcDbLine
 10
-1441.082999999999
 20
1534.449999999999
 30
0.0
 11
-1441.082999999999
 21
1532.85
 31
0.0
  0
LINE
  5
16102
330
1A
100
AcDbEntity
  8
ZISSEN1
100
AcDbLine
 10
-1440.702
 20
1534.449999999999
 30
0.0
 11
-1440.702
 21
1532.85
 31
0.0
  0
LINE
  5
16103
330
1A
100
AcDbEntity
  8
ZISSEN1
100
AcDbLine
 10
-1443.317999999999
 20
1599.669999999999
 30
0.0
 11
-1457.068999999999
 21
1599.669999999999
 31
0.0
  0
LINE
  5
16126
330
1A
100
AcDbEntity
  8
ZISSEN1
100
AcDbLine
 10
-1491.719999999999
 20
1643.949999999998
 30
0.0
 11
-1491.719999999999
 21
1634.149999999998
 31
0.0
  0
LINE
  5
16127
330
1A
100
AcDbEntity
  8
ZISSEN1
100
AcDbLine
 10
-1457.068999999999
 20
1599.669999999999
 30
0.0
 11
-1456.687999999999
 21
1599.669999999999
 31
0.0
  0
ARC
  5
16128
330
1A
100
AcDbEntity
  8
ZISSEN1
100
AcDbCircle
 10
-1457.949999999999
 20
1607.429999999999
 30
0.0
 40
0.5000000000001137
100
AcDbArc
 50
0.0
 51
90.0
  0
LINE
  5
16129
330
1A
100
AcDbEntity
  8
ZISSEN1
100
AcDbLine
 10
-1457.449999999999
 20
1607.429999999998
 30
0.0
 11
-1457.449999999999
 21
1600.050999999999
 31
0.0
  0
ARC
  5
1612B
330
1A
100
AcDbEntity
  8
ZISSEN1
100
AcDbCircle
 10
-1482.72
 20
1607.429999999999
 30
0.0
 40
0.5000000000000569
100
AcDbArc
 50
90.0
 51
180.0
  0
LINE
  5
1612C
330
1A
100
AcDbEntity
  8
ZISSEN1
100
AcDbLine
 10
-1483.601
 20
1599.669999999999
 30
0.0
 11
-1483.22
 21
1600.050999999999
 31
0.0
  0
LINE
  5
1612D
330
1A
100
AcDbEntity
  8
ZISSEN1
100
AcDbLine
 10
-1483.22
 20
1600.050999999999
 30
0.0
 11
-1483.22
 21
1607.429999999999
 31
0.0
  0
LINE
  5
1612E
330
1A
100
AcDbEntity
  8
ZISSEN1
100
AcDbLine
 10
-1482.72
 20
1607.929999999999
 30
0.0
 11
-1457.949999999999
 21
1607.929999999999
 31
0.0
  0
LINE
  5
1612F
330
1A
100
AcDbEntity
  8
ZISSEN1
100
AcDbLine
 10
-1497.219999999999
 20
1599.669999999999
 30
0.0
 11
-1483.601
 21
1599.669999999999
 31
0.0
  0
LINE
  5
16130
330
1A
100
AcDbEntity
  8
ZISSEN1
100
AcDbLine
 10
-1457.449999999999
 20
1600.050999999999
 30
0.0
 11
-1457.068999999999
 21
1599.669999999999
 31
0.0
  0
LINE
  5
16131
330
1A
100
AcDbEntity
  8
ZISSEN1
100
AcDbLine
 10
-1486.219999999999
 20
1611.949999999998
 30
0.0
 11
-1486.219999999999
 21
1626.549999999999
 31
0.0
  0
LINE
  5
16225
330
1A
100
AcDbEntity
  8
ZISSEN1
100
AcDbLine
 10
-1441.082999999999
 20
1607.002999999998
 30
0.0
 11
-1441.082999999999
 21
1600.050999999999
 31
0.0
  0
LINE
  5
16226
330
1A
100
AcDbEntity
  8
ZISSEN1
100
AcDbLine
 10
-1441.082999999999
 20
1600.050999999999
 30
0.0
 11
-1440.701999999999
 21
1599.669999999999
 31
0.0
  0
LINE
  5
16227
330
1A
100
AcDbEntity
  8
ZISSEN1
100
AcDbLine
 10
-1442.936999999999
 20
1607.002999999998
 30
0.0
 11
-1442.936999999999
 21
1600.050999999999
 31
0.0
  0
LINE
  5
16228
330
1A
100
AcDbEntity
  8
ZISSEN1
100
AcDbLine
 10
-1443.317999999999
 20
1599.669999999999
 30
0.0
 11
-1442.936999999999
 21
1600.050999999999
 31
0.0
  0
ARC
  5
16229
330
1A
100
AcDbEntity
  8
ZISSEN1
100
AcDbCircle
 10
-1442.009999999998
 20
1607.002999999998
 30
0.0
 40
0.9270000000005893
100
AcDbArc
 50
0.0
 51
180.0
  0
LINE
  5
1628F
330
1A
100
AcDbEntity
  8
ZISSEN1
100
AcDbLine
 10
-1422.926140485404
 20
1611.723527483531
 30
0.0
 11
-1422.926140485404
 21
1638.12352748353
 31
0.0
  0
LINE
  5
16290
330
1A
100
AcDbEntity
  8
ZISSEN1
100
AcDbLine
 10
-1378.691000000001
 20
1534.449999999999
 30
0.0
 11
-1378.691000000001
 21
1532.85
 31
0.0
  0
LINE
  5
16291
330
1A
100
AcDbEntity
  8
ZISSEN1
100
AcDbLine
 10
-1378.310000000001
 20
1534.449999999999
 30
0.0
 11
-1378.310000000001
 21
1532.85
 31
0.0
  0
LINE
  5
16292
330
1A
100
AcDbEntity
  8
ZISSEN1
100
AcDbLine
 10
-1392.441999999999
 20
1534.449999999999
 30
0.0
 11
-1392.441999999999
 21
1532.85
 31
0.0
  0
LINE
  5
16293
330
1A
100
AcDbEntity
  8
ZISSEN1
100
AcDbLine
 10
-1392.822999999999
 20
1534.449999999999
 30
0.0
 11
-1392.822999999999
 21
1532.85
 31
0.0
  0
LINE
  5
16294
330
1A
100
AcDbEntity
  8
ZISSEN1
100
AcDbLine
 10
-1395.058
 20
1534.449999999999
 30
0.0
 11
-1395.058
 21
1532.85
 31
0.0
  0
LINE
  5
16295
330
1A
100
AcDbEntity
  8
ZISSEN1
100
AcDbLine
 10
-1394.676999999999
 20
1534.449999999999
 30
0.0
 11
-1394.676999999999
 21
1532.85
 31
0.0
  0
LINE
  5
162A6
330
1A
100
AcDbEntity
  8
ZISSEN1
100
AcDbLine
 10
-1359.22
 20
1534.449999999999
 30
0.0
 11
-1359.22
 21
1532.849999999999
 31
0.0
  0
LINE
  5
162A7
330
1A
100
AcDbEntity
  8
ZISSEN1
100
AcDbLine
 10
-1358.22
 20
1532.85
 30
0.0
 11
-1358.22
 21
1534.45
 31
0.0
  0
LINE
  5
162B0
330
1A
100
AcDbEntity
  8
ZISSEN1
100
AcDbLine
 10
-1377.809999999999
 20
1607.929999999998
 30
0.0
 11
-1359.219999999999
 21
1607.929999999998
 31
0.0
  0
LINE
  5
162B6
330
1A
100
AcDbEntity
  8
ZISSEN1
100
AcDbLine
 10
-1370.569999999999
 20
1653.369999999999
 30
0.0
 11
-1369.37
 21
1653.369999999999
 31
0.0
  0
LINE
  5
162B7
330
1A
100
AcDbEntity
  8
ZISSEN1
100
AcDbLine
 10
-1369.37
 20
1653.369999999999
 30
0.0
 11
-1369.37
 21
1649.969999999999
 31
0.0
  0
LINE
  5
162B8
330
1A
100
AcDbEntity
  8
ZISSEN1
100
AcDbLine
 10
-1370.569999999999
 20
1649.969999999999
 30
0.0
 11
-1370.569999999999
 21
1653.369999999999
 31
0.0
  0
LINE
  5
162B9
330
1A
100
AcDbEntity
  8
ZISSEN1
100
AcDbLine
 10
-1372.319999999999
 20
1649.969999999999
 30
0.0
 11
-1372.319999999999
 21
1653.369999999999
 31
0.0
  0
LINE
  5
162BA
330
1A
100
AcDbEntity
  8
ZISSEN1
100
AcDbLine
 10
-1371.120000000001
 20
1653.369999999999
 30
0.0
 11
-1371.120000000001
 21
1649.969999999999
 31
0.0
  0
LINE
  5
162BB
330
1A
100
AcDbEntity
  8
ZISSEN1
100
AcDbLine
 10
-1372.319999999999
 20
1653.369999999999
 30
0.0
 11
-1371.120000000001
 21
1653.369999999999
 31
0.0
  0
LINE
  5
162C2
330
1A
100
AcDbEntity
  8
ZISSEN1
100
AcDbLine
 10
-1368.819999999999
 20
1653.369999999999
 30
0.0
 11
-1367.62
 21
1653.369999999999
 31
0.0
  0
LINE
  5
162C3
330
1A
100
AcDbEntity
  8
ZISSEN1
100
AcDbLine
 10
-1367.62
 20
1653.369999999999
 30
0.0
 11
-1367.62
 21
1649.969999999999
 31
0.0
  0
LINE
  5
162C4
330
1A
100
AcDbEntity
  8
ZISSEN1
100
AcDbLine
 10
-1368.819999999999
 20
1649.969999999999
 30
0.0
 11
-1368.819999999999
 21
1653.369999999999
 31
0.0
  0
LINE
  5
162C5
330
1A
100
AcDbEntity
  8
ZISSEN1
100
AcDbLine
 10
-1369.37
 20
1649.969999999999
 30
0.0
 11
-1370.569999999999
 21
1649.969999999999
 31
0.0
  0
LINE
  5
162D2
330
1A
100
AcDbEntity
  8
ZISSEN1
100
AcDbLine
 10
-1371.120000000001
 20
1649.969999999999
 30
0.0
 11
-1372.319999999999
 21
1649.969999999999
 31
0.0
  0
LINE
  5
162D3
330
1A
100
AcDbEntity
  8
ZISSEN1
100
AcDbLine
 10
-1367.62
 20
1649.969999999999
 30
0.0
 11
-1368.819999999999
 21
1649.969999999999
 31
0.0
  0
LINE
  5
1639E
330
1A
100
AcDbEntity
  8
ZISSEN1
100
AcDbLine
 10
-1378.31
 20
1600.050999999999
 30
0.0
 11
-1378.31
 21
1607.429999999998
 31
0.0
  0
LINE
  5
1639F
330
1A
100
AcDbEntity
  8
ZISSEN1
100
AcDbLine
 10
-1378.691
 20
1599.669999999999
 30
0.0
 11
-1378.31
 21
1600.050999999999
 31
0.0
  0
ARC
  5
163A0
330
1A
100
AcDbEntity
  8
ZISSEN1
100
AcDbCircle
 10
-1377.809999999999
 20
1607.429999999998
 30
0.0
 40
0.5
100
AcDbArc
 50
90.0
 51
179.9999999999479
  0
LINE
  5
163A1
330
1A
100
AcDbEntity
  8
ZISSEN1
100
AcDbLine
 10
-1392.822999999998
 20
1600.050999999999
 30
0.0
 11
-1392.441999999998
 21
1599.669999999999
 31
0.0
  0
LINE
  5
163A2
330
1A
100
AcDbEntity
  8
ZISSEN1
100
AcDbLine
 10
-1392.822999999997
 20
1607.002999999998
 30
0.0
 11
-1392.822999999998
 21
1600.050999999999
 31
0.0
  0
LINE
  5
1643A
330
1A
100
AcDbEntity
  8
ZISSEN1
100
AcDbLine
 10
-1395.057999999999
 20
1599.669999999999
 30
0.0
 11
-1394.676999999998
 21
1600.050999999999
 31
0.0
  0
LINE
  5
1643B
330
1A
100
AcDbEntity
  8
ZISSEN1
100
AcDbLine
 10
-1394.676999999998
 20
1607.002999999998
 30
0.0
 11
-1394.676999999998
 21
1600.050999999999
 31
0.0
  0
ARC
  5
1643C
330
1A
100
AcDbEntity
  8
ZISSEN1
100
AcDbCircle
 10
-1393.749999999998
 20
1607.002999999999
 30
0.0
 40
0.9270000000005893
100
AcDbArc
 50
0.0
 51
180.0
  0
LINE
  5
1643D
330
1A
100
AcDbEntity
  8
ZISSEN1
100
AcDbLine
 10
-1392.441999999998
 20
1599.669999999999
 30
0.0
 11
-1378.691
 21
1599.669999999999
 31
0.0
  0
LINE
  5
16441
330
1A
100
AcDbEntity
  8
ZISSEN1
100
AcDbLine
 10
-1396.526140485403
 20
1638.12352748353
 30
0.0
 11
-1396.526140485403
 21
1611.723527483531
 31
0.0
  0
LINE
  5
16475
330
1A
100
AcDbEntity
  8
ZISSEN1
100
AcDbLine
 10
-1358.219999999999
 20
1630.469999999999
 30
0.0
 11
-1358.219999999999
 21
1649.619999999999
 31
0.0
  0
LINE
  5
16476
330
1A
100
AcDbEntity
  8
ZISSEN1
100
AcDbLine
 10
-1367.069999999999
 20
1649.969999999999
 30
0.0
 11
-1367.069999999999
 21
1653.369999999999
 31
0.0
  0
LINE
  5
16477
330
1A
100
AcDbEntity
  8
ZISSEN1
100
AcDbLine
 10
-1365.870000000001
 20
1653.369999999999
 30
0.0
 11
-1365.870000000001
 21
1649.969999999999
 31
0.0
  0
LINE
  5
16478
330
1A
100
AcDbEntity
  8
ZISSEN1
100
AcDbLine
 10
-1367.069999999999
 20
1653.369999999999
 30
0.0
 11
-1365.870000000001
 21
1653.369999999999
 31
0.0
  0
LINE
  5
1647B
330
1A
100
AcDbEntity
  8
ZISSEN1
100
AcDbLine
 10
-1365.870000000001
 20
1649.969999999999
 30
0.0
 11
-1367.069999999999
 21
1649.969999999999
 31
0.0
  0
ARC
  5
16480
330
1A
100
AcDbEntity
  8
ZISSEN1
100
AcDbCircle
 10
-1358.219999999999
 20
1607.929999999998
 30
0.0
 40
1.0
100
AcDbArc
 50
90.0
 51
180.0
  0
LINE
  5
16482
330
1A
100
AcDbEntity
  8
ZISSEN1
100
AcDbLine
 10
-1497.219999999999
 20
1659.669999999999
 30
0.0
 11
-1359.219999999999
 21
1659.669999999999
 31
0.0
  0
ARC
  5
16483
330
1A
100
AcDbEntity
  8
ZISSEN1
100
AcDbCircle
 10
-1358.219999999999
 20
1659.669999999999
 30
0.0
 40
1.0
100
AcDbArc
 50
180.0
 51
270.0
  0
LINE
  5
16484
330
1A
100
AcDbEntity
  8
ZISSEN1
100
AcDbLine
 10
-1553.209999999999
 20
1632.549999999998
 30
0.0
 11
-1548.01
 21
1632.549999999998
 31
0.0
  0
ARC
  5
16487
330
1A
100
AcDbEntity
  8
ZISSEN1
100
AcDbCircle
 10
-1498.219999999999
 20
1659.669999999999
 30
0.0
 40
1.0
100
AcDbArc
 50
270.0
 51
0.0
  0
LINE
  5
16488
330
1A
100
AcDbEntity
  8
ZISSEN1
100
AcDbLine
 10
-1499.0
 20
1659.669999999999
 30
0.0
 11
-1497.219999999999
 21
1659.669999999999
 31
0.0
  0
LINE
  5
16489
330
1A
100
AcDbEntity
  8
ZISSEN1
100
AcDbLine
 10
-1499.0
 20
1651.669999999999
 30
0.0
 11
-1498.219999999999
 21
1651.669999999999
 31
0.0
  0
LINE
  5
1648A
330
1A
100
AcDbEntity
  8
ZISSEN1
100
AcDbLine
 10
-1498.219999999999
 20
1658.669999999999
 30
0.0
 11
-1498.219999999999
 21
1651.669999999999
 31
0.0
  0
LINE
  5
1648B
330
1A
100
AcDbEntity
  8
ZISSEN1
100
AcDbLine
 10
-1499.0
 20
1600.5
 30
0.0
 11
-1497.662236609305
 21
1600.5
 31
0.0
  0
LINE
  5
1648C
330
1A
100
AcDbEntity
  8
ZISSEN1
100
AcDbLine
 10
-1499.0
 20
1608.5
 30
0.0
 11
-1498.219999999999
 21
1608.5
 31
0.0
  0
LINE
  5
1648D
330
1A
100
AcDbEntity
  8
ZISSEN1
100
AcDbLine
 10
-1498.219999999999
 20
1600.669999999999
 30
0.0
 11
-1498.219999999999
 21
1608.5
 31
0.0
  0
LINE
  5
1648E
330
1A
100
AcDbEntity
  8
ZISSEN1
100
AcDbLine
 10
-1499.0
 20
1531.849999999998
 30
0.0
 11
-1487.54
 21
1531.849999999999
 31
0.0
  0
LINE
  5
1648F
330
1A
100
AcDbEntity
  8
ZISSEN1
100
AcDbLine
 10
-1487.54
 20
1531.849999999999
 30
0.0
 11
-1487.54
 21
1532.849999999999
 31
0.0
  0
LINE
  5
16490
330
1A
100
AcDbEntity
  8
ZISSEN1
100
AcDbLine
 10
-1492.52
 20
1530.849999999998
 30
0.0
 11
-1488.92
 21
1530.849999999999
 31
0.0
  0
LINE
  5
16491
330
1A
100
AcDbEntity
  8
ZISSEN1
100
AcDbLine
 10
-1492.52
 20
1530.849999999998
 30
0.0
 11
-1493.52
 21
1531.849999999998
 31
0.0
  0
LINE
  5
16492
330
1A
100
AcDbEntity
  8
ZISSEN1
100
AcDbLine
 10
-1488.92
 20
1530.849999999999
 30
0.0
 11
-1487.92
 21
1531.849999999999
 31
0.0
  0
LINE
  5
16493
330
1A
100
AcDbEntity
  8
ZISSEN1
 48
0.4
100
AcDbLine
 10
-1493.47
 20
1535.199999999999
 30
0.0
 11
-1493.47
 21
1534.449999999999
 31
0.0
  0
ELLIPSE
  5
16494
330
1A
100
AcDbEntity
  8
ZISSEN1
 48
0.4
100
AcDbEllipse
 10
-1490.72
 20
1535.199999999999
 30
0.0
 11
2.75
 21
-0.0000000000000012
 31
0.0
210
0.0
220
0.0
230
1.0
 40
0.3090909090909173
 41
6.283185307179586
 42
9.424777960769379
  0
LINE
  5
16495
330
1A
100
AcDbEntity
  8
ZISSEN1
 48
0.4
100
AcDbLine
 10
-1487.97
 20
1535.199999999999
 30
0.0
 11
-1487.97
 21
1534.449999999999
 31
0.0
  0
LINE
  5
16496
330
1A
100
AcDbEntity
  8
ZISSEN1
100
AcDbLine
 10
-1552.009999999999
 20
1661.669999999999
 30
0.0
 11
-1555.879999999999
 21
1661.669999999999
 31
0.0
  0
LINE
  5
16497
330
1A
100
AcDbEntity
  8
ZISSEN1
100
AcDbLine
 10
-1552.009999999999
 20
1659.669999999999
 30
0.0
 11
-1552.009999999999
 21
1661.669999999999
 31
0.0
  0
LINE
  5
16498
330
1A
100
AcDbEntity
  8
ZISSEN1
100
AcDbLine
 10
-1555.609999999999
 20
1651.669999999999
 30
0.0
 11
-1554.609999999999
 21
1651.669999999999
 31
0.0
  0
LINE
  5
16499
330
1A
100
AcDbEntity
  8
ZISSEN1
100
AcDbLine
 10
-1553.009999999999
 20
1659.669999999999
 30
0.0
 11
-1552.009999999999
 21
1659.669999999999
 31
0.0
  0
LINE
  5
1649A
330
1A
100
AcDbEntity
  8
ZISSEN1
100
AcDbLine
 10
-1554.609999999999
 20
1649.669999999999
 30
0.0
 11
-1555.879999999999
 21
1649.669999999999
 31
0.0
  0
LINE
  5
1649B
330
1A
100
AcDbEntity
  8
ZISSEN1
100
AcDbLine
 10
-1554.609999999999
 20
1649.669999999999
 30
0.0
 11
-1554.609999999999
 21
1651.669999999999
 31
0.0
  0
LINE
  5
1649C
330
1A
100
AcDbEntity
  8
ZISSEN1
100
AcDbLine
 10
-1553.009999999999
 20
1659.669999999999
 30
0.0
 11
-1555.609999999999
 21
1659.669999999999
 31
0.0
  0
LINE
  5
164A1
330
1A
100
AcDbEntity
  8
ZISSEN1
100
AcDbLine
 10
-1554.609999999999
 20
1608.5
 30
0.0
 11
-1554.609999999999
 21
1610.5
 31
0.0
  0
LINE
  5
164A2
330
1A
100
AcDbEntity
  8
ZISSEN1
100
AcDbLine
 10
-1554.609999999999
 20
1600.5
 30
0.0
 11
-1554.609999999999
 21
1598.5
 31
0.0
  0
LINE
  5
164A3
330
1A
100
AcDbEntity
  8
ZISSEN1
100
AcDbLine
 10
-1554.609999999999
 20
1598.5
 30
0.0
 11
-1555.879999999999
 21
1598.5
 31
0.0
  0
LINE
  5
164A4
330
1A
100
AcDbEntity
  8
ZISSEN1
100
AcDbLine
 10
-1554.609999999999
 20
1610.5
 30
0.0
 11
-1555.879999999999
 21
1610.5
 31
0.0
  0
LINE
  5
164A7
330
1A
100
AcDbEntity
  8
ZISSEN1
100
AcDbLine
 10
-1554.609999999999
 20
1600.5
 30
0.0
 11
-1555.609999999999
 21
1600.5
 31
0.0
  0
LINE
  5
164A8
330
1A
100
AcDbEntity
  8
ZISSEN1
100
AcDbLine
 10
-1554.609999999999
 20
1608.5
 30
0.0
 11
-1555.609999999999
 21
1608.5
 31
0.0
  0
LINE
  5
164A9
330
1A
100
AcDbEntity
  8
ZISSEN1
100
AcDbLine
 10
-1555.609999999999
 20
1608.5
 30
0.0
 11
-1555.609999999999
 21
1600.5
 31
0.0
  0
LINE
  5
164AA
330
1A
100
AcDbEntity
  8
ZISSEN1
100
AcDbLine
 10
-1556.609999999998
 20
1602.7
 30
0.0
 11
-1555.609999999998
 21
1601.7
 31
0.0
  0
LINE
  5
164AB
330
1A
100
AcDbEntity
  8
ZISSEN1
100
AcDbLine
 10
-1556.609999999999
 20
1606.3
 30
0.0
 11
-1555.609999999999
 21
1607.3
 31
0.0
  0
LINE
  5
164AC
330
1A
100
AcDbEntity
  8
ZISSEN1
100
AcDbLine
 10
-1556.609999999999
 20
1606.3
 30
0.0
 11
-1556.609999999998
 21
1602.7
 31
0.0
  0
LINE
  5
164AD
330
1A
100
AcDbEntity
  8
ZISSEN1
100
AcDbLine
 10
-1554.609999999999
 20
1599.669999999999
 30
0.0
 11
-1554.609999999999
 21
1600.5
 31
0.0
  0
LINE
  5
164B0
330
1A
100
AcDbEntity
  8
ZISSEN1
100
AcDbLine
 10
-1556.609999999998
 20
1653.869999999999
 30
0.0
 11
-1555.609999999998
 21
1652.869999999999
 31
0.0
  0
LINE
  5
164B1
330
1A
100
AcDbEntity
  8
ZISSEN1
100
AcDbLine
 10
-1556.609999999999
 20
1657.469999999999
 30
0.0
 11
-1555.609999999999
 21
1658.469999999999
 31
0.0
  0
LINE
  5
164B2
330
1A
100
AcDbEntity
  8
ZISSEN1
100
AcDbLine
 10
-1556.609999999999
 20
1657.469999999999
 30
0.0
 11
-1556.609999999998
 21
1653.869999999999
 31
0.0
  0
LINE
  5
164B3
330
1A
100
AcDbEntity
  8
ZISSEN1
100
AcDbLine
 10
-1555.609999999999
 20
1659.669999999999
 30
0.0
 11
-1555.609999999999
 21
1651.669999999999
 31
0.0
  0
CIRCLE
  5
164B9
330
1A
100
AcDbEntity
  8
ZISSEN1
100
AcDbCircle
 10
-1490.719999999999
 20
1655.669999999999
 30
0.0
 40
3.149999999999999
  0
CIRCLE
  5
164DA
330
1A
100
AcDbEntity
  8
ZISSEN1
100
AcDbCircle
 10
-1490.719999999999
 20
1604.5
 30
0.0
 40
3.149999999999999
  0
LINE
  5
1650D
330
1A
100
AcDbEntity
  8
ZISSEN1
100
AcDbLine
 10
-1381.019999999999
 20
1654.669999999999
 30
0.0
 11
-1374.419999999999
 21
1654.669999999999
 31
0.0
  0
LINE
  5
1650E
330
1A
100
AcDbEntity
  8
ZISSEN1
100
AcDbLine
 10
-1374.419999999999
 20
1654.669999999999
 30
0.0
 11
-1374.419999999999
 21
1647.829999999999
 31
0.0
  0
LINE
  5
1650F
330
1A
100
AcDbEntity
  8
ZISSEN1
100
AcDbLine
 10
-1374.419999999999
 20
1647.829999999999
 30
0.0
 11
-1381.019999999999
 21
1647.829999999999
 31
0.0
  0
LINE
  5
16510
330
1A
100
AcDbEntity
  8
ZISSEN1
100
AcDbLine
 10
-1381.019999999999
 20
1647.829999999999
 30
0.0
 11
-1381.019999999999
 21
1654.669999999999
 31
0.0
  0
DIMENSION
  5
16572
330
1A
100
AcDbEntity
  8
ZISSEN1
100
AcDbDimension
  2
*D2
 10
-1442.009999999998
 20
1575.81214551423
 30
0.0
 11
-1471.004999999999
 21
1578.56214551423
 31
0.0
 70
    32
  3
標準スタイル
100
AcDbAlignedDimension
 13
-1500.0
 23
1587.25
 33
0.0
 14
-1442.009999999998
 24
1607.002999999998
 34
0.0
100
AcDbRotatedDimension
1001
ACAD
1000
DSTYLE
1002
{
1070
    40
1040
1.0
1070
   340
1005
10
1002
}
  0
DIMENSION
  5
1657F
330
1A
100
AcDbEntity
  8
ZISSEN1
100
AcDbDimension
  2
*D3
 10
-1393.749999999998
 20
1575.81214551423
 30
0.0
 11
-1417.879999999998
 21
1578.56214551423
 31
0.0
 70
    32
  3
標準スタイル
100
AcDbAlignedDimension
 13
-1442.009999999998
 23
1607.002999999998
 33
0.0
 14
-1393.749999999998
 24
1607.002999999999
 34
0.0
100
AcDbRotatedDimension
1001
ACAD
1000
DSTYLE
1002
{
1070
    40
1040
1.0
1070
   340
1005
10
1002
}
  0
DIMENSION
  5
1658C
330
1A
100
AcDbEntity
  8
ZISSEN1
100
AcDbDimension
  2
*D4
 10
-1340.843115757581
 20
1534.45
 30
0.0
 11
-1343.593115757581
 21
1540.45
 31
0.0
 70
    32
  3
標準スタイル
100
AcDbAlignedDimension
 13
-1486.22
 23
1546.45
 33
0.0
 14
-1358.22
 24
1534.45
 34
0.0
 50
90.0
100
AcDbRotatedDimension
1001
ACAD
1000
DSTYLE
1002
{
1070
    40
1040
1.0
1070
   340
1005
10
1002
}
  0
DIMENSION
  5
16599
330
1A
100
AcDbEntity
  8
ZISSEN1
100
AcDbDimension
  2
*D5
 10
-1340.843115757581
 20
1532.85
 30
0.0
 11
-1331.144123777291
 21
1536.825
 31
0.0
 70
   160
  3
標準スタイル
100
AcDbAlignedDimension
 13
-1358.22
 23
1534.45
 33
0.0
 14
-1358.22
 24
1532.85
 34
0.0
 50
90.0
100
AcDbRotatedDimension
1001
ACAD
1000
DSTYLE
1002
{
1070
   287
1070
     4
1070
   340
1005
10
1070
    40
1040
1.0
1070
   279
1070
     1
1002
}
  0
DIMENSION
  5
165AB
330
1A
100
AcDbEntity
  8
ZISSEN1
100
AcDbDimension
  2
*D6
 10
-1340.843115757581
 20
1529.85
 30
0.0
 11
-1334.697070038522
 21
1528.982897748531
 31
0.0
 70
   160
  3
標準スタイル
100
AcDbAlignedDimension
 13
-1358.22
 23
1532.85
 33
0.0
 14
-1370.0
 24
1529.85
 34
0.0
 50
90.0
100
AcDbRotatedDimension
1001
ACAD
1000
DSTYLE
1002
{
1070
   287
1070
     4
1070
   340
1005
10
1070
    40
1040
1.0
1070
   279
1070
     1
1002
}
  0
LINE
  5
166EC
330
1A
100
AcDbEntity
  8
ZISSEN1
100
AcDbLine
 10
-1370.01
 20
1529.85
 30
0.0
 11
-1370.0
 21
1529.85
 31
0.0
  0
MTEXT
  5
16711
330
1A
100
AcDbEntity
  8
ZISSEN1
  6
BYBLOCK
100
AcDbMText
 10
-1440.808367970866
 20
1709.175912328793
 30
0.0
 40
3.0
 41
28.4107
 71
     1
 72
     5
  1
{\fＭＳ ゴシック|b0|i0|c128|p49;(取付金具含む)}
  7
ｽﾀｲﾙ2
1001
ACAD
1000
MTEXTBEGIN
1070
    73
1070
     1
1070
    44
1040
1.0
1070
    74
1070
     0
1000
MTEXTEND
  0
MTEXT
  5
16718
330
1A
100
AcDbEntity
  8
ZISSEN1
  6
BYBLOCK
100
AcDbMText
 10
-1483.415956403825
 20
1585.777213729663
 30
0.0
 40
3.0
 41
28.4107
 71
     1
 72
     5
  1
{\fＭＳ ゴシック|b0|i0|c128|p49;(取付金具含む)}
  7
ｽﾀｲﾙ2
1001
ACAD
1000
MTEXTBEGIN
1070
    73
1070
     1
1070
    44
1040
1.0
1070
    74
1070
     0
1000
MTEXTEND
  0
LINE
  5
16737
330
1A
100
AcDbEntity
  8
PL1
100
AcDbLine
 10
-1442.009999999999
 20
1600.050999999999
 30
0.0
 11
-1442.009999999999
 21
1609.050999999999
 31
0.0
  0
LINE
  5
16739
330
1A
100
AcDbEntity
  8
PL1
100
AcDbLine
 10
-1393.749999999998
 20
1600.050999999999
 30
0.0
 11
-1393.749999999998
 21
1609.050999999999
 31
0.0
  0
VIEWPORT
  5
5D8F
330
5D8E
100
AcDbEntity
 67
     1
  8
0
100
AcDbViewport
 10
242.3223002066785
 20
165.4131434703005
 30
0.0
 40
573.9825248868203
 41
329.6562736515749
 68
     1
 69
     1
1001
ACAD
1000
MVIEW
1002
{
1070
    16
1010
0.0
1020
0.0
1030
0.0
1010
0.0
1020
0.0
1030
1.0
1040
0.0
1040
329.6562736515749
1040
242.3223002066785
1040
165.4131434703005
1040
50.0
1040
0.0
1040
0.0
1070
     0
1070
   100
1070
     1
1070
     0
1070
     0
1070
     0
1070
     0
1070
     0
1040
0.0
1040
0.0
1040
0.0
1040
1.0
1040
1.0
1040
10.0
1040
10.0
1070
     0
1002
{
1002
}
1002
}
  0
VIEWPORT
  5
6001
330
5D8E
100
AcDbEntity
 67
     1
  8
ZISSEN1
100
AcDbViewport
 10
221.7861955525412
 20
157.6960273330388
 30
0.0
 40
385.4999999999997
 41
259.9999999999999
 68
     2
 69
     2
1001
ACAD
1000
MVIEW
1002
{
1070
    16
1010
0.0
1020
0.0
1030
0.0
1010
0.0
1020
0.0
1030
1.0
1040
0.0
1040
259.9999999999999
1040
-1456.648219009764
1040
1630.253443487997
1040
50.0
1040
0.0
1040
0.0
1070
     0
1070
   100
1070
     1
1070
     0
1070
     0
1070
     0
1070
     0
1070
     0
1040
0.0
1040
0.0
1040
0.0
1040
1.0
1040
1.0
1040
10.0
1040
10.0
1070
     0
1002
{
1002
}
1002
}
  0
TEXT
  5
716F
330
5D8E
100
AcDbEntity
 67
     1
  8
SUNPOU
 62
     0
100
AcDbText
 10
376.0419980791316
 20
44.3086978482595
 30
0.0
 40
3.5
  1
縮尺 1/1
  7
ゴシック体
100
AcDbText
  0
ENDSEC
  0
SECTION
  2
OBJECTS
  0
DICTIONARY
  5
C
330
0
100
AcDbDictionary
  3
ACAD_GROUP
350
D
  3
ACAD_LAYOUT
350
5C7D
  3
ACAD_MLINESTYLE
350
E
  3
ACAD_PLOTSETTINGS
350
5C7E
  3
ACAD_PLOTSTYLENAME
350
5C7B
  3
DWGPROPS
350
5E8E
  3
ACDBHEADERROUNDTRIPXREC
350
1684E
  0
DICTIONARY
  5
130FA
330
2
100
AcDbDictionary
280
     1
  3
ACAD_LAYERFILTERS
360
130FB
  0
DICTIONARY
  5
1686E
330
1A
100
AcDbDictionary
280
     1
  3
ACAD_LAYOUTSELFREF
360
1686F
  0
DICTIONARY
  5
16870
330
5D8E
100
AcDbDictionary
280
     1
  3
ACAD_LAYOUTSELFREF
360
16871
  0
DICTIONARY
  5
D
102
{ACAD_REACTORS
330
C
102
}
330
C
100
AcDbDictionary
  3
*A1
350
477D
  3
*A2
350
4C16
  3
*A3
350
4C17
  3
*A4
350
477E
  3
*A5
350
477F
  3
*A6
350
4780
  3
*A7
350
4781
  3
*A8
350
4C0E
  3
*A9
350
4C0F
  3
*A10
350
4C10
  3
*A11
350
4C11
  3
*A12
350
4C12
  3
*A13
350
4C13
  3
*A14
350
4C14
  3
*A15
350
4C15
  0
DICTIONARY
  5
5C7D
102
{ACAD_REACTORS
330
C
102
}
330
C
100
AcDbDictionary
  0
DICTIONARY
  5
E
102
{ACAD_REACTORS
330
C
102
}
330
C
100
AcDbDictionary
  3
STANDARD
350
13
  0
DICTIONARY
  5
5C7E
102
{ACAD_REACTORS
330
C
102
}
330
C
100
AcDbDictionary
  0
ACDBDICTIONARYWDFLT
  5
5C7B
102
{ACAD_REACTORS
330
C
102
}
330
C
100
AcDbDictionary
281
     1
  3
Normal
350
5C7C
100
AcDbDictionaryWithDefault
340
5C7C
  0
XRECORD
  5
5E8E
102
{ACAD_REACTORS
330
C
102
}
330
C
100
AcDbXrecord
  1
DWGPROPS COOKIE
  2

  3

  4

  6

  7

  8

  9

300
=
301
=
302
=
303
=
304
=
305
=
306
=
307
=
308
=
309
=
 40
0.586753587962963
 41
2450495.493631365
 42
2453208.662277431
  1

 90
        0
  0
DICTIONARY
  5
1684E
102
{ACAD_REACTORS
330
C
102
}
330
C
100
AcDbDictionary
  3
TSTACKALIGN
350
1684F
  3
TSTACKSIZE
350
16850
  3
HYPERLINKBASE
350
16851
  3
STYLESHEET
350
16852
  3
LAYOUTDICT
350
16853
  3
PLOTSETDICT
350
16854
  3
PLOTSTYLNAMDICT
350
16855
  3
LWETCUNION
350
16856
  3
INSUNITS
350
16857
  3
CEPSNTYPE
350
16858
  3
FINGERPRINTGUID
350
16859
  3
VERSIONGUID
350
1685A
  3
PSVPSCALE
350
1685B
  3
PUCSORTHOREF
350
1685C
  3
PUCSORTHOVIEW
350
1685D
  3
PUCSBASE
350
1685E
  3
PUCSORGTOP
350
1685F
  3
PUCSORGBOTTOM
350
16860
  3
PUCSORGLEFT
350
16861
  3
PUCSORGRIGHT
350
16862
  3
PUCSORGFRONT
350
16863
  3
PUCSORGBACK
350
16864
  3
UCSORTHOREF
350
16865
  3
UCSORTHOVIEW
350
16866
  3
UCSBASE
350
16867
  3
UCSORGTOP
350
16868
  3
UCSORGBOTTOM
350
16869
  3
UCSORGLEFT
350
1686A
  3
UCSORGRIGHT
350
1686B
  3
UCSORGFRONT
350
1686C
  3
UCSORGBACK
350
1686D
  0
DICTIONARY
  5
130FB
102
{ACAD_REACTORS
330
130FA
102
}
330
130FA
100
AcDbDictionary
280
     1
  3
BASE
360
130FC
  3
CASE
360
130FD
  3
KIKOU
360
130FE
  0
XRECORD
  5
1686F
102
{ACAD_REACTORS
330
1686E
102
}
330
1686E
100
AcDbXrecord
340
1A
  0
XRECORD
  5
16871
102
{ACAD_REACTORS
330
16870
102
}
330
16870
100
AcDbXrecord
340
5D8E
  0
GROUP
  5
477D
102
{ACAD_REACTORS
330
D
102
}
330
D
100
AcDbGroup
300

 70
     1
 71
     1
  0
GROUP
  5
4C16
102
{ACAD_REACTORS
330
D
102
}
330
D
100
AcDbGroup
300

 70
     1
 71
     1
  0
GROUP
  5
4C17
102
{ACAD_REACTORS
330
D
102
}
330
D
100
AcDbGroup
300

 70
     1
 71
     1
  0
GROUP
  5
477E
102
{ACAD_REACTORS
330
D
102
}
330
D
100
AcDbGroup
300

 70
     1
 71
     1
  0
GROUP
  5
477F
102
{ACAD_REACTORS
330
D
102
}
330
D
100
AcDbGroup
300

 70
     1
 71
     1
  0
GROUP
  5
4780
102
{ACAD_REACTORS
330
D
102
}
330
D
100
AcDbGroup
300

 70
     1
 71
     1
  0
GROUP
  5
4781
102
{ACAD_REACTORS
330
D
102
}
330
D
100
AcDbGroup
300

 70
     1
 71
     1
  0
GROUP
  5
4C0E
102
{ACAD_REACTORS
330
D
102
}
330
D
100
AcDbGroup
300

 70
     1
 71
     1
  0
GROUP
  5
4C0F
102
{ACAD_REACTORS
330
D
102
}
330
D
100
AcDbGroup
300

 70
     1
 71
     1
  0
GROUP
  5
4C10
102
{ACAD_REACTORS
330
D
102
}
330
D
100
AcDbGroup
300

 70
     1
 71
     1
  0
GROUP
  5
4C11
102
{ACAD_REACTORS
330
D
102
}
330
D
100
AcDbGroup
300

 70
     1
 71
     1
  0
GROUP
  5
4C12
102
{ACAD_REACTORS
330
D
102
}
330
D
100
AcDbGroup
300

 70
     1
 71
     1
  0
GROUP
  5
4C13
102
{ACAD_REACTORS
330
D
102
}
330
D
100
AcDbGroup
300

 70
     1
 71
     1
  0
GROUP
  5
4C14
102
{ACAD_REACTORS
330
D
102
}
330
D
100
AcDbGroup
300

 70
     1
 71
     1
  0
GROUP
  5
4C15
102
{ACAD_REACTORS
330
D
102
}
330
D
100
AcDbGroup
300

 70
     1
 71
     1
  0
MLINESTYLE
  5
13
102
{ACAD_REACTORS
330
E
102
}
330
E
100
AcDbMlineStyle
  2
STANDARD
 70
     0
  3

 62
     0
 51
90.0
 52
90.0
 71
     2
 49
0.5
 62
   256
  6
BYLAYER
 49
-0.5
 62
   256
  6
BYLAYER
  0
ACDBPLACEHOLDER
  5
5C7C
102
{ACAD_REACTORS
330
5C7B
102
}
330
5C7B
100
AcDbPlaceHolder
280
     0
  0
XRECORD
  5
1684F
102
{ACAD_REACTORS
330
1684E
102
}
330
1684E
100
AcDbXrecord
 90
        1
  0
XRECORD
  5
16850
102
{ACAD_REACTORS
330
1684E
102
}
330
1684E
100
AcDbXrecord
 90
       70
  0
XRECORD
  5
16851
102
{ACAD_REACTORS
330
1684E
102
}
330
1684E
100
AcDbXrecord
  1

  0
XRECORD
  5
16852
102
{ACAD_REACTORS
330
1684E
102
}
330
1684E
100
AcDbXrecord
  1

  0
XRECORD
  5
16853
102
{ACAD_REACTORS
330
1684E
102
}
330
1684E
100
AcDbXrecord
340
5C7D
  0
XRECORD
  5
16854
102
{ACAD_REACTORS
330
1684E
102
}
330
1684E
100
AcDbXrecord
340
5C7E
  0
XRECORD
  5
16855
102
{ACAD_REACTORS
330
1684E
102
}
330
1684E
100
AcDbXrecord
340
5C7B
  0
XRECORD
  5
16856
102
{ACAD_REACTORS
330
1684E
102
}
330
1684E
100
AcDbXrecord
 90
    10781
  0
XRECORD
  5
16857
102
{ACAD_REACTORS
330
1684E
102
}
330
1684E
100
AcDbXrecord
 90
        0
  0
XRECORD
  5
16858
102
{ACAD_REACTORS
330
1684E
102
}
330
1684E
100
AcDbXrecord
 90
        0
  0
XRECORD
  5
16859
102
{ACAD_REACTORS
330
1684E
102
}
330
1684E
100
AcDbXrecord
  1
{225A7F0D-DA29-11D8-946A-0000E2416295}
  0
XRECORD
  5
1685A
102
{ACAD_REACTORS
330
1684E
102
}
330
1684E
100
AcDbXrecord
  1
{5F275C18-95D2-4CC0-9992-9A59FC2BD8B5}
  0
XRECORD
  5
1685B
102
{ACAD_REACTORS
330
1684E
102
}
330
1684E
100
AcDbXrecord
 40
0.0
  0
XRECORD
  5
1685C
102
{ACAD_REACTORS
330
1684E
102
}
330
1684E
100
AcDbXrecord
340
0
  0
XRECORD
  5
1685D
102
{ACAD_REACTORS
330
1684E
102
}
330
1684E
100
AcDbXrecord
 70
     0
  0
XRECORD
  5
1685E
102
{ACAD_REACTORS
330
1684E
102
}
330
1684E
100
AcDbXrecord
340
0
  0
XRECORD
  5
1685F
102
{ACAD_REACTORS
330
1684E
102
}
330
1684E
100
AcDbXrecord
 10
0.0
 20
0.0
 30
0.0
  0
XRECORD
  5
16860
102
{ACAD_REACTORS
330
1684E
102
}
330
1684E
100
AcDbXrecord
 10
0.0
 20
0.0
 30
0.0
  0
XRECORD
  5
16861
102
{ACAD_REACTORS
330
1684E
102
}
330
1684E
100
AcDbXrecord
 10
0.0
 20
0.0
 30
0.0
  0
XRECORD
  5
16862
102
{ACAD_REACTORS
330
1684E
102
}
330
1684E
100
AcDbXrecord
 10
0.0
 20
0.0
 30
0.0
  0
XRECORD
  5
16863
102
{ACAD_REACTORS
330
1684E
102
}
330
1684E
100
AcDbXrecord
 10
0.0
 20
0.0
 30
0.0
  0
XRECORD
  5
16864
102
{ACAD_REACTORS
330
1684E
102
}
330
1684E
100
AcDbXrecord
 10
0.0
 20
0.0
 30
0.0
  0
XRECORD
  5
16865
102
{ACAD_REACTORS
330
1684E
102
}
330
1684E
100
AcDbXrecord
340
0
  0
XRECORD
  5
16866
102
{ACAD_REACTORS
330
1684E
102
}
330
1684E
100
AcDbXrecord
 70
     0
  0
XRECORD
  5
16867
102
{ACAD_REACTORS
330
1684E
102
}
330
1684E
100
AcDbXrecord
340
0
  0
XRECORD
  5
16868
102
{ACAD_REACTORS
330
1684E
102
}
330
1684E
100
AcDbXrecord
 10
0.0
 20
0.0
 30
0.0
  0
XRECORD
  5
16869
102
{ACAD_REACTORS
330
1684E
102
}
330
1684E
100
AcDbXrecord
 10
0.0
 20
0.0
 30
0.0
  0
XRECORD
  5
1686A
102
{ACAD_REACTORS
330
1684E
102
}
330
1684E
100
AcDbXrecord
 10
0.0
 20
0.0
 30
0.0
  0
XRECORD
  5
1686B
102
{ACAD_REACTORS
330
1684E
102
}
330
1684E
100
AcDbXrecord
 10
0.0
 20
0.0
 30
0.0
  0
XRECORD
  5
1686C
102
{ACAD_REACTORS
330
1684E
102
}
330
1684E
100
AcDbXrecord
 10
0.0
 20
0.0
 30
0.0
  0
XRECORD
  5
1686D
102
{ACAD_REACTORS
330
1684E
102
}
330
1684E
100
AcDbXrecord
 10
0.0
 20
0.0
 30
0.0
  0
XRECORD
  5
130FC
102
{ACAD_REACTORS
330
130FB
102
}
330
130FB
100
AcDbXrecord
  1
BASE
  1
BASE*
  1
*
  1
*
 70
     0
  1
*
  1
*
  0
XRECORD
  5
130FD
102
{ACAD_REACTORS
330
130FB
102
}
330
130FB
100
AcDbXrecord
  1
CASE
  1
CASE*
  1
*
  1
*
 70
     0
  1
*
  1
*
  0
XRECORD
  5
130FE
102
{ACAD_REACTORS
330
130FB
102
}
330
130FB
100
AcDbXrecord
  1
KIKOU
  1
KIKOU*
  1
*
  1
*
 70
     0
  1
*
  1
*
  0
ENDSEC
  0
EOF
