  0
SECTION
  2
HEADER
  9
$ACADVER
  1
AC1014
  9
$ACADMAINTVER
 70
     9
  9
$DWGCODEPAGE
  3
ANSI_932
  9
$INSBASE
 10
0.0
 20
0.0
 30
0.0
  9
$EXTMIN
 10
-1629.225368098439
 20
1537.043129016718
 30
-0.00000001
  9
$EXTMAX
 10
-1332.196980797258
 20
1745.095368753726
 30
0.00000001
  9
$LIMMIN
 10
0.0
 20
0.0
  9
$LIMMAX
 10
420.0
 20
297.0
  9
$ORTHOMODE
 70
     1
  9
$REGENMODE
 70
     1
  9
$FILLMODE
 70
     1
  9
$QTEXTMODE
 70
     0
  9
$MIRRTEXT
 70
     1
  9
$DRAGMODE
 70
     2
  9
$LTSCALE
 40
1.0
  9
$OSMODE
 70
    37
  9
$ATTMODE
 70
     1
  9
$TEXTSIZE
 40
2.5
  9
$TRACEWID
 40
1.0
  9
$TEXTSTYLE
  7
ゴシック体
  9
$CLAYER
  8
ZISSEN1
  9
$CELTYPE
  6
PHANTOMX2
  9
$CECOLOR
 62
   256
  9
$CELTSCALE
 40
1.0
  9
$DELOBJ
 70
     1
  9
$DISPSILH
 70
     0
  9
$DIMSCALE
 40
0.0
  9
$DIMASZ
 40
3.0
  9
$DIMEXO
 40
0.5
  9
$DIMDLI
 40
0.5
  9
$DIMRND
 40
0.0
  9
$DIMDLE
 40
0.0
  9
$DIMEXE
 40
0.5
  9
$DIMTP
 40
0.0
  9
$DIMTM
 40
0.0
  9
$DIMTXT
 40
3.5
  9
$DIMCEN
 40
0.0
  9
$DIMTSZ
 40
0.0
  9
$DIMTOL
 70
     0
  9
$DIMLIM
 70
     0
  9
$DIMTIH
 70
     0
  9
$DIMTOH
 70
     0
  9
$DIMSE1
 70
     0
  9
$DIMSE2
 70
     0
  9
$DIMTAD
 70
     1
  9
$DIMZIN
 70
     8
  9
$DIMBLK
  1

  9
$DIMASO
 70
     1
  9
$DIMSHO
 70
     1
  9
$DIMPOST
  1

  9
$DIMAPOST
  1

  9
$DIMALT
 70
     0
  9
$DIMALTD
 70
     2
  9
$DIMALTF
 40
25.4
  9
$DIMLFAC
 40
1.0
  9
$DIMTOFL
 70
     1
  9
$DIMTVP
 40
0.0
  9
$DIMTIX
 70
     0
  9
$DIMSOXD
 70
     0
  9
$DIMSAH
 70
     0
  9
$DIMBLK1
  1

  9
$DIMBLK2
  1

  9
$DIMSTYLE
  2
標準スタイル
  9
$DIMCLRD
 70
     1
  9
$DIMCLRE
 70
     1
  9
$DIMCLRT
 70
     1
  9
$DIMTFAC
 40
1.0
  9
$DIMGAP
 40
1.0
  9
$DIMJUST
 70
     0
  9
$DIMSD1
 70
     0
  9
$DIMSD2
 70
     0
  9
$DIMTOLJ
 70
     1
  9
$DIMTZIN
 70
     8
  9
$DIMALTZ
 70
     0
  9
$DIMALTTZ
 70
     0
  9
$DIMFIT
 70
     3
  9
$DIMUPT
 70
     0
  9
$DIMUNIT
 70
     2
  9
$DIMDEC
 70
     2
  9
$DIMTDEC
 70
     2
  9
$DIMALTU
 70
     2
  9
$DIMALTTD
 70
     2
  9
$DIMTXSTY
  7
ゴシック体
  9
$DIMAUNIT
 70
     0
  9
$LUNITS
 70
     2
  9
$LUPREC
 70
     4
  9
$SKETCHINC
 40
1.0
  9
$FILLETRAD
 40
0.0
  9
$AUNITS
 70
     0
  9
$AUPREC
 70
     0
  9
$MENU
  1
.
  9
$ELEVATION
 40
0.0
  9
$PELEVATION
 40
0.0
  9
$THICKNESS
 40
0.0
  9
$LIMCHECK
 70
     0
  9
$BLIPMODE
 70
     0
  9
$CHAMFERA
 40
10.0
  9
$CHAMFERB
 40
10.0
  9
$CHAMFERC
 40
2.0
  9
$CHAMFERD
 40
0.7853981633974483
  9
$SKPOLY
 70
     0
  9
$TDCREATE
 40
2450495.493631365
  9
$TDUPDATE
 40
2455482.778632812
  9
$TDINDWG
 40
1.9511803356
  9
$TDUSRTIMER
 40
1.9511803356
  9
$USRTIMER
 70
     1
  9
$ANGBASE
 50
0.0
  9
$ANGDIR
 70
     0
  9
$PDMODE
 70
    99
  9
$PDSIZE
 40
0.0
  9
$PLINEWID
 40
0.0
  9
$COORDS
 70
     1
  9
$SPLFRAME
 70
     0
  9
$SPLINETYPE
 70
     6
  9
$SPLINESEGS
 70
     8
  9
$ATTDIA
 70
     0
  9
$ATTREQ
 70
     1
  9
$HANDLING
 70
 10241
  9
$HANDSEED
  5
14C0C
  9
$SURFTAB1
 70
     6
  9
$SURFTAB2
 70
     6
  9
$SURFTYPE
 70
     6
  9
$SURFU
 70
     6
  9
$SURFV
 70
     6
  9
$UCSNAME
  2

  9
$UCSORG
 10
0.0
 20
0.0
 30
0.0
  9
$UCSXDIR
 10
1.0
 20
0.0
 30
0.0
  9
$UCSYDIR
 10
0.0
 20
1.0
 30
0.0
  9
$PUCSNAME
  2

  9
$PUCSORG
 10
0.0
 20
0.0
 30
0.0
  9
$PUCSXDIR
 10
1.0
 20
0.0
 30
0.0
  9
$PUCSYDIR
 10
0.0
 20
1.0
 30
0.0
  9
$USERI1
 70
     0
  9
$USERI2
 70
     0
  9
$USERI3
 70
     0
  9
$USERI4
 70
     0
  9
$USERI5
 70
     0
  9
$USERR1
 40
0.0
  9
$USERR2
 40
0.0
  9
$USERR3
 40
0.0
  9
$USERR4
 40
0.0
  9
$USERR5
 40
0.0
  9
$WORLDVIEW
 70
     1
  9
$SHADEDGE
 70
     3
  9
$SHADEDIF
 70
    70
  9
$TILEMODE
 70
     0
  9
$MAXACTVP
 70
    16
  9
$PINSBASE
 10
0.0
 20
0.0
 30
0.0
  9
$PLIMCHECK
 70
     0
  9
$PEXTMIN
 10
29.03619555254135
 20
27.69602733303884
 30
0.0
  9
$PEXTMAX
 10
414.5361955525411
 20
287.6960273330388
 30
0.0
  9
$PLIMMIN
 10
11.82433780389674
 20
9.18781516542163
  9
$PLIMMAX
 10
431.7709930773342
 20
306.1984658001872
  9
$UNITMODE
 70
     0
  9
$VISRETAIN
 70
     0
  9
$PLINEGEN
 70
     0
  9
$PSLTSCALE
 70
     1
  9
$TREEDEPTH
 70
  3020
  9
$PICKSTYLE
 70
     1
  9
$CMLSTYLE
  2
STANDARD
  9
$CMLJUST
 70
     0
  9
$CMLSCALE
 40
1.0
  9
$PROXYGRAPHICS
 70
     1
  9
$MEASUREMENT
 70
     1
  0
ENDSEC
  0
SECTION
  2
CLASSES
  0
CLASS
  1
LWPOLYLINE
  2
AcDbPolyline
  3
AutoCAD 2000
 90
        0
280
     0
281
     1
  0
CLASS
  1
HATCH
  2
AcDbHatch
  3
AutoCAD 2000
 90
        0
280
     0
281
     1
  0
CLASS
  1
ACDBDICTIONARYWDFLT
  2
AcDbDictionaryWithDefault
  3
AutoCAD 2000
 90
        0
280
     0
281
     0
  0
CLASS
  1
ACDBPLACEHOLDER
  2
AcDbPlaceHolder
  3
AutoCAD 2000
 90
        0
280
     0
281
     0
  0
CLASS
  1
LAYOUT
  2
AcDbLayout
  3
AutoCAD 2000
 90
        0
280
     0
281
     0
  0
CLASS
  1
LONG_TRANSACTION
  2
AcDbLongTransaction
  3
AutoCAD 2000
 90
        0
280
     0
281
     0
  0
CLASS
  1
LWPOLYLINE
  2
AcDbPolyline
  3
AutoCAD 2000
 90
        0
280
     0
281
     1
  0
CLASS
  1
HATCH
  2
AcDbHatch
  3
AutoCAD 2000
 90
        0
280
     0
281
     1
  0
CLASS
  1
XRECORD
  2
AcDbXrecord
  3
AutoCAD 2000
 90
        0
280
     0
281
     0
  0
ENDSEC
  0
SECTION
  2
TABLES
  0
TABLE
  2
VPORT
  5
8
330
0
100
AcDbSymbolTable
 70
     1
  0
VPORT
  5
14BD9
330
8
100
AcDbSymbolTableRecord
100
AcDbViewportTableRecord
  2
*ACTIVE
 70
     0
 10
0.0
 20
0.0
 11
1.0
 21
1.0
 12
-1480.683416239923
 22
1641.032985084013
 13
0.0
 23
0.0
 14
5.0
 24
5.0
 15
0.0
 25
0.0
 16
0.0
 26
0.0
 36
1.0
 17
0.0
 27
0.0
 37
0.0
 40
210.5535696525139
 41
1.741154562383612
 42
50.0
 43
0.0
 44
0.0
 50
0.0
 51
0.0
 71
     0
 72
   100
 73
     1
 74
     0
 75
     0
 76
     0
 77
     0
 78
     0
  0
ENDTAB
  0
TABLE
  2
LTYPE
  5
5
330
0
100
AcDbSymbolTable
 70
     4
  0
LTYPE
  5
14
330
5
100
AcDbSymbolTableRecord
100
AcDbLinetypeTableRecord
  2
BYBLOCK
 70
     0
  3

 72
    65
 73
     0
 40
0.0
  0
LTYPE
  5
15
330
5
100
AcDbSymbolTableRecord
100
AcDbLinetypeTableRecord
  2
BYLAYER
 70
     0
  3

 72
    65
 73
     0
 40
0.0
  0
LTYPE
  5
16
330
5
100
AcDbSymbolTableRecord
100
AcDbLinetypeTableRecord
  2
CONTINUOUS
 70
     0
  3
Solid line
 72
    65
 73
     0
 40
0.0
  0
LTYPE
  5
329
330
5
100
AcDbSymbolTableRecord
100
AcDbLinetypeTableRecord
  2
DASHEDX2
 70
     0
  3
____  ____  ____  ____  ____  ____  ____  ____ 
 72
    65
 73
     2
 40
1.5
 49
1.0
 74
     0
 49
-0.5
 74
     0
  0
LTYPE
  5
1956
330
5
100
AcDbSymbolTableRecord
100
AcDbLinetypeTableRecord
  2
CENTERX2
 70
     0
  3
________  __  ________  __  ________  __  _____
 72
    65
 73
     4
 40
4.0
 49
2.5
 74
     0
 49
-0.5
 74
     0
 49
0.5
 74
     0
 49
-0.5
 74
     0
  0
LTYPE
  5
1958
330
5
100
AcDbSymbolTableRecord
100
AcDbLinetypeTableRecord
  2
PHANTOMX2
 70
     0
  3
____________    ____    ____    ____________   
 72
    65
 73
     6
 40
5.0
 49
2.5
 74
     0
 49
-0.5
 74
     0
 49
0.5
 74
     0
 49
-0.5
 74
     0
 49
0.5
 74
     0
 49
-0.5
 74
     0
  0
ENDTAB
  0
TABLE
  2
LAYER
  5
2
102
{ACAD_XDICTIONARY
360
130FA
102
}
330
0
100
AcDbSymbolTable
 70
     7
  0
LAYER
  5
F
330
2
100
AcDbSymbolTableRecord
100
AcDbLayerTableRecord
  2
0
 70
     0
 62
     7
  6
CONTINUOUS
  0
LAYER
  5
18F
330
2
100
AcDbSymbolTableRecord
100
AcDbLayerTableRecord
  2
ZISSEN1
 70
     0
 62
     7
  6
CONTINUOUS
  0
LAYER
  5
529
330
2
100
AcDbSymbolTableRecord
100
AcDbLayerTableRecord
  2
SUNPOU
 70
     0
 62
     1
  6
CONTINUOUS
  0
LAYER
  5
195A
330
2
100
AcDbSymbolTableRecord
100
AcDbLayerTableRecord
  2
CL1
 70
     0
 62
   210
  6
CENTERX2
  0
LAYER
  5
195C
330
2
100
AcDbSymbolTableRecord
100
AcDbLayerTableRecord
  2
SOUZOUSEN
 70
     0
 62
     5
  6
PHANTOMX2
  0
LAYER
  5
3A9B
330
2
100
AcDbSymbolTableRecord
100
AcDbLayerTableRecord
  2
DEFPOINTS
 70
     0
 62
     7
  6
CONTINUOUS
  0
LAYER
  5
14B89
330
2
100
AcDbSymbolTableRecord
100
AcDbLayerTableRecord
  2
SAISEN
 70
     0
 62
     1
  6
CONTINUOUS
  0
ENDTAB
  0
TABLE
  2
STYLE
  5
3
330
0
100
AcDbSymbolTable
 70
     2
  0
STYLE
  5
10
330
3
100
AcDbSymbolTableRecord
100
AcDbTextStyleTableRecord
  2
STANDARD
 70
     0
 40
0.0
 41
1.0
 50
0.0
 71
     0
 42
3.0
  3
txt
  4
BigFont
  0
STYLE
  5
1960
330
3
100
AcDbSymbolTableRecord
100
AcDbTextStyleTableRecord
  2
ゴシック体
 70
     0
 40
0.0
 41
1.0
 50
0.0
 71
     0
 42
2.5
  3
MS Gothic.ttf
  4

1001
ACAD
1000
MS Gothic
1071
    32817
  0
ENDTAB
  0
TABLE
  2
VIEW
  5
6
330
0
100
AcDbSymbolTable
 70
     0
  0
ENDTAB
  0
TABLE
  2
UCS
  5
7
330
0
100
AcDbSymbolTable
 70
     0
  0
ENDTAB
  0
TABLE
  2
APPID
  5
9
330
0
100
AcDbSymbolTable
 70
     5
  0
APPID
  5
11
330
9
100
AcDbSymbolTableRecord
100
AcDbRegAppTableRecord
  2
ACAD
 70
     0
  0
APPID
  5
4005
330
9
100
AcDbSymbolTableRecord
100
AcDbRegAppTableRecord
  2
CONTENTTABDATA
 70
     0
  0
APPID
  5
4006
330
9
100
AcDbSymbolTableRecord
100
AcDbRegAppTableRecord
  2
CONTENTCURRENTTAB
 70
     0
  0
APPID
  5
477B
330
9
100
AcDbSymbolTableRecord
100
AcDbRegAppTableRecord
  2
CONTENTBLOCKDESCRIPTION
 70
     0
  0
APPID
  5
477C
330
9
100
AcDbSymbolTableRecord
100
AcDbRegAppTableRecord
  2
CONTENTBLOCKICON
 70
     0
  0
ENDTAB
  0
TABLE
  2
DIMSTYLE
  5
A
330
0
100
AcDbSymbolTable
 70
     3
  0
DIMSTYLE
105
1D
330
A
100
AcDbSymbolTableRecord
100
AcDbDimStyleTableRecord
  2
STANDARD
 70
     0
  3

  4

  5

  6

  7

 40
1.0
 41
0.18
 42
0.0625
 43
0.38
 44
0.18
 45
0.0
 46
0.0
 47
0.0
 48
0.0
140
0.18
141
0.09
142
0.0
143
25.4
144
1.0
145
0.0
146
1.0
147
0.09
 71
     0
 72
     0
 73
     1
 74
     1
 75
     0
 76
     0
 77
     0
 78
     0
170
     0
171
     2
172
     0
173
     0
174
     0
175
     0
176
     0
177
     0
178
     0
270
     2
271
     4
272
     4
273
     2
274
     2
340
10
275
     0
280
     0
281
     0
282
     0
283
     1
284
     0
285
     0
286
     0
287
     3
288
     0
  0
DIMSTYLE
105
52E
102
{ACAD_REACTORS
330
14549
330
145E6
330
147F6
330
148A8
102
}
330
A
100
AcDbSymbolTableRecord
100
AcDbDimStyleTableRecord
  2
標準スタイル
 70
     0
  3

  4

  5

  6

  7

 40
0.0
 41
3.0
 42
0.5
 43
0.5
 44
0.5
 45
0.0
 46
0.0
 47
0.0
 48
0.0
140
3.5
141
0.0
142
0.0
143
25.4
144
1.0
145
0.0
146
1.0
147
1.0
 71
     0
 72
     0
 73
     0
 74
     0
 75
     0
 76
     0
 77
     1
 78
     8
170
     0
171
     2
172
     1
173
     0
174
     0
175
     0
176
     1
177
     1
178
     1
270
     2
271
     2
272
     2
273
     2
274
     2
340
1960
275
     0
280
     0
281
     0
282
     0
283
     1
284
     8
285
     0
286
     0
287
     3
288
     0
  0
DIMSTYLE
105
131A7
102
{ACAD_REACTORS
330
14166
330
14316
330
14318
330
14319
330
1439F
330
14AD4
102
}
330
A
100
AcDbSymbolTableRecord
100
AcDbDimStyleTableRecord
  2
ISO-25
 70
     0
  3

  4

  5

  6

  7

 40
1.0
 41
2.5
 42
0.625
 43
3.75
 44
1.25
 45
0.0
 46
0.0
 47
0.0
 48
0.0
140
2.5
141
2.5
142
0.0
143
0.03937007874016
144
1.0
145
0.0
146
1.0
147
0.625
 71
     0
 72
     0
 73
     0
 74
     0
 75
     0
 76
     0
 77
     1
 78
     8
170
     0
171
     3
172
     1
173
     0
174
     0
175
     0
176
     1
177
     1
178
     1
270
     2
271
     2
272
     2
273
     2
274
     3
340
10
275
     0
280
     0
281
     0
282
     0
283
     0
284
     8
285
     0
286
     0
287
     3
288
     0
  0
ENDTAB
  0
TABLE
  2
BLOCK_RECORD
  5
1
330
0
100
AcDbSymbolTable
 70
    10
  0
BLOCK_RECORD
  5
1A
102
{ACAD_XDICTIONARY
360
14BFF
102
}
330
1
100
AcDbSymbolTableRecord
100
AcDbBlockTableRecord
  2
*MODEL_SPACE
  0
BLOCK_RECORD
  5
5D8E
102
{ACAD_XDICTIONARY
360
14C01
102
}
330
1
100
AcDbSymbolTableRecord
100
AcDbBlockTableRecord
  2
*PAPER_SPACE
  0
BLOCK_RECORD
  5
1448A
330
1
100
AcDbSymbolTableRecord
100
AcDbBlockTableRecord
  2
*D0
  0
BLOCK_RECORD
  5
14496
330
1
100
AcDbSymbolTableRecord
100
AcDbBlockTableRecord
  2
*D1
  0
BLOCK_RECORD
  5
144A2
330
1
100
AcDbSymbolTableRecord
100
AcDbBlockTableRecord
  2
*D2
  0
BLOCK_RECORD
  5
144AE
330
1
100
AcDbSymbolTableRecord
100
AcDbBlockTableRecord
  2
*D3
  0
BLOCK_RECORD
  5
144C6
330
1
100
AcDbSymbolTableRecord
100
AcDbBlockTableRecord
  2
*D4
  0
BLOCK_RECORD
  5
1454A
330
1
100
AcDbSymbolTableRecord
100
AcDbBlockTableRecord
  2
*D5
  0
BLOCK_RECORD
  5
145E7
330
1
100
AcDbSymbolTableRecord
100
AcDbBlockTableRecord
  2
*D6
  0
BLOCK_RECORD
  5
147F7
330
1
100
AcDbSymbolTableRecord
100
AcDbBlockTableRecord
  2
*D7
  0
BLOCK_RECORD
  5
148A9
330
1
100
AcDbSymbolTableRecord
100
AcDbBlockTableRecord
  2
*D8
  0
BLOCK_RECORD
  5
14AD5
330
1
100
AcDbSymbolTableRecord
100
AcDbBlockTableRecord
  2
*D9
  0
ENDTAB
  0
ENDSEC
  0
SECTION
  2
BLOCKS
  0
BLOCK
  5
1B
330
1A
100
AcDbEntity
  8
0
100
AcDbBlockBegin
  2
*MODEL_SPACE
 70
     0
 10
0.0
 20
0.0
 30
0.0
  3
*MODEL_SPACE
  1

  0
ENDBLK
  5
1C
330
1A
100
AcDbEntity
  8
0
100
AcDbBlockEnd
  0
BLOCK
  5
5E60
330
5D8E
100
AcDbEntity
 67
     1
  8
0
100
AcDbBlockBegin
  2
*PAPER_SPACE
 70
     0
 10
0.0
 20
0.0
 30
0.0
  3
*PAPER_SPACE
  1

  0
ENDBLK
  5
5E61
330
5D8E
100
AcDbEntity
 67
     1
  8
0
100
AcDbBlockEnd
  0
BLOCK
  5
14494
330
1448A
100
AcDbEntity
  8
0
100
AcDbBlockBegin
  2
*D0
 70
     1
 10
0.0
 20
0.0
 30
0.0
  3
*D0
  1

  0
LINE
  5
14B17
330
1448A
100
AcDbEntity
  8
SUNPOU
 62
     1
100
AcDbLine
 10
-1531.3
 20
1668.375809911104
 30
0.0
 11
-1531.3
 21
1656.534705179739
 31
0.0
  0
LINE
  5
14B18
330
1448A
100
AcDbEntity
  8
SUNPOU
 62
     1
100
AcDbLine
 10
-1421.696011914169
 20
1668.375000000001
 30
0.0
 11
-1421.696011914169
 21
1656.534705179739
 31
0.0
  0
LINE
  5
14B19
330
1448A
100
AcDbEntity
  8
SUNPOU
 62
     1
100
AcDbLine
 10
-1528.8
 20
1657.784705179738
 30
0.0
 11
-1424.196011914169
 21
1657.784705179738
 31
0.0
  0
SOLID
  5
14B1A
330
1448A
100
AcDbEntity
  8
SUNPOU
 62
     1
100
AcDbTrace
 10
-1528.8
 20
1658.201371846405
 30
0.0
 11
-1528.8
 21
1657.368038513072
 31
0.0
 12
-1531.3
 22
1657.784705179738
 32
0.0
 13
-1531.3
 23
1657.784705179738
 33
0.0
  0
SOLID
  5
14B1B
330
1448A
100
AcDbEntity
  8
SUNPOU
 62
     1
100
AcDbTrace
 10
-1424.196011914169
 20
1658.201371846405
 30
0.0
 11
-1424.196011914169
 21
1657.368038513072
 31
0.0
 12
-1421.696011914169
 22
1657.784705179738
 32
0.0
 13
-1421.696011914169
 23
1657.784705179738
 33
0.0
  0
MTEXT
  5
14B1C
330
1448A
100
AcDbEntity
  8
SUNPOU
 62
     1
100
AcDbMText
 10
-1473.791666666666
 20
1660.159705179739
 30
0.0
 40
3.5
 41
0.0
 71
     5
 72
     1
  1
109.6
1001
ACAD
1000
MTEXTBEGIN
1070
    73
1070
     1
1070
    44
1040
1.0
1070
    74
1070
     0
1000
MTEXTEND
  0
POINT
  5
14B1D
330
1448A
100
AcDbEntity
  8
DEFPOINTS
 62
     0
100
AcDbPoint
 10
-1531.3
 20
1669.000809911104
 30
0.0
  0
POINT
  5
14B1E
330
1448A
100
AcDbEntity
  8
DEFPOINTS
 62
     0
100
AcDbPoint
 10
-1421.696011914169
 20
1669.000000000001
 30
0.0
  0
POINT
  5
14B1F
330
1448A
100
AcDbEntity
  8
DEFPOINTS
 62
     0
100
AcDbPoint
 10
-1421.696011914169
 20
1657.784705179738
 30
0.0
  0
ENDBLK
  5
14495
330
1448A
100
AcDbEntity
  8
0
100
AcDbBlockEnd
  0
BLOCK
  5
144A0
330
14496
100
AcDbEntity
  8
0
100
AcDbBlockBegin
  2
*D1
 70
     1
 10
0.0
 20
0.0
 30
0.0
  3
*D1
  1

  0
LINE
  5
14B3D
330
14496
100
AcDbEntity
  8
SUNPOU
  6
BYBLOCK
 62
     1
100
AcDbLine
 10
-1470.575
 20
1667.200000000001
 30
0.0
 11
-1383.1765016793
 21
1667.200000000001
 31
0.0
  0
LINE
  5
14B3E
330
14496
100
AcDbEntity
  8
SUNPOU
  6
BYBLOCK
 62
     1
100
AcDbLine
 10
-1421.875
 20
1712.899999999999
 30
0.0
 11
-1383.1765016793
 21
1712.899999999999
 31
0.0
  0
LINE
  5
14B3F
330
14496
100
AcDbEntity
  8
SUNPOU
  6
BYBLOCK
 62
     1
100
AcDbLine
 10
-1384.4265016793
 20
1669.700000000001
 30
0.0
 11
-1384.4265016793
 21
1710.399999999999
 31
0.0
  0
SOLID
  5
14B40
330
14496
100
AcDbEntity
  8
SUNPOU
  6
BYBLOCK
 62
     1
100
AcDbTrace
 10
-1384.843168345966
 20
1669.700000000001
 30
0.0
 11
-1384.009835012633
 21
1669.700000000001
 31
0.0
 12
-1384.4265016793
 22
1667.200000000001
 32
0.0
 13
-1384.4265016793
 23
1667.200000000001
 33
0.0
  0
SOLID
  5
14B41
330
14496
100
AcDbEntity
  8
SUNPOU
  6
BYBLOCK
 62
     1
100
AcDbTrace
 10
-1384.843168345966
 20
1710.399999999999
 30
0.0
 11
-1384.009835012633
 21
1710.399999999999
 31
0.0
 12
-1384.4265016793
 22
1712.899999999999
 32
0.0
 13
-1384.4265016793
 23
1712.899999999999
 33
0.0
  0
MTEXT
  5
14B42
330
14496
100
AcDbEntity
  8
SUNPOU
  6
BYBLOCK
 62
     1
100
AcDbMText
 10
-1386.8015016793
 20
1690.05
 30
0.0
 40
3.5
 41
0.0
 71
     5
 72
     1
  1
45.7
 11
0.0000000000000001
 21
1.0
 31
0.0
1001
ACAD
1000
MTEXTBEGIN
1070
    73
1070
     1
1070
    44
1040
1.0
1070
    74
1070
     0
1000
MTEXTEND
  0
POINT
  5
14B43
330
14496
100
AcDbEntity
  8
DEFPOINTS
  6
BYBLOCK
 62
     0
100
AcDbPoint
 10
-1471.2
 20
1667.200000000001
 30
0.0
  0
POINT
  5
14B44
330
14496
100
AcDbEntity
  8
DEFPOINTS
  6
BYBLOCK
 62
     0
100
AcDbPoint
 10
-1422.5
 20
1712.899999999999
 30
0.0
  0
POINT
  5
14B45
330
14496
100
AcDbEntity
  8
DEFPOINTS
  6
BYBLOCK
 62
     0
100
AcDbPoint
 10
-1384.4265016793
 20
1712.899999999999
 30
0.0
  0
ENDBLK
  5
144A1
330
14496
100
AcDbEntity
  8
0
100
AcDbBlockEnd
  0
BLOCK
  5
144AC
330
144A2
100
AcDbEntity
  8
0
100
AcDbBlockBegin
  2
*D2
 70
     1
 10
0.0
 20
0.0
 30
0.0
  3
*D2
  1

  0
LINE
  5
14B29
330
144A2
100
AcDbEntity
  8
SUNPOU
  6
BYBLOCK
 62
     1
100
AcDbLine
 10
-1540.0
 20
1674.374999999999
 30
0.0
 11
-1540.0
 21
1640.135116576834
 31
0.0
  0
LINE
  5
14B2A
330
144A2
100
AcDbEntity
  8
SUNPOU
  6
BYBLOCK
 62
     1
100
AcDbLine
 10
-1413.0
 20
1681.274999999999
 30
0.0
 11
-1413.0
 21
1640.135116576834
 31
0.0
  0
LINE
  5
14B2B
330
144A2
100
AcDbEntity
  8
SUNPOU
  6
BYBLOCK
 62
     1
100
AcDbLine
 10
-1537.5
 20
1641.385116576834
 30
0.0
 11
-1415.5
 21
1641.385116576834
 31
0.0
  0
SOLID
  5
14B2C
330
144A2
100
AcDbEntity
  8
SUNPOU
  6
BYBLOCK
 62
     1
100
AcDbTrace
 10
-1537.5
 20
1641.8017832435
 30
0.0
 11
-1537.5
 21
1640.968449910166
 31
0.0
 12
-1540.0
 22
1641.385116576834
 32
0.0
 13
-1540.0
 23
1641.385116576834
 33
0.0
  0
SOLID
  5
14B2D
330
144A2
100
AcDbEntity
  8
SUNPOU
  6
BYBLOCK
 62
     1
100
AcDbTrace
 10
-1415.5
 20
1641.8017832435
 30
0.0
 11
-1415.5
 21
1640.968449910166
 31
0.0
 12
-1413.0
 22
1641.385116576834
 32
0.0
 13
-1413.0
 23
1641.385116576834
 33
0.0
  0
MTEXT
  5
14B2E
330
144A2
100
AcDbEntity
  8
SUNPOU
  6
BYBLOCK
 62
     1
100
AcDbMText
 10
-1476.5
 20
1643.760116576833
 30
0.0
 40
3.5
 41
0.0
 71
     5
 72
     1
  1
127
1001
ACAD
1000
MTEXTBEGIN
1070
    73
1070
     1
1070
    44
1040
1.0
1070
    74
1070
     0
1000
MTEXTEND
  0
POINT
  5
14B2F
330
144A2
100
AcDbEntity
  8
DEFPOINTS
  6
BYBLOCK
 62
     0
100
AcDbPoint
 10
-1540.0
 20
1675.0
 30
0.0
  0
POINT
  5
14B30
330
144A2
100
AcDbEntity
  8
DEFPOINTS
  6
BYBLOCK
 62
     0
100
AcDbPoint
 10
-1413.0
 20
1681.899999999999
 30
0.0
  0
POINT
  5
14B31
330
144A2
100
AcDbEntity
  8
DEFPOINTS
  6
BYBLOCK
 62
     0
100
AcDbPoint
 10
-1413.0
 20
1641.385116576834
 30
0.0
  0
ENDBLK
  5
144AD
330
144A2
100
AcDbEntity
  8
0
100
AcDbBlockEnd
  0
BLOCK
  5
144B8
330
144AE
100
AcDbEntity
  8
0
100
AcDbBlockBegin
  2
*D3
 70
     1
 10
0.0
 20
0.0
 30
0.0
  3
*D3
  1

  0
LINE
  5
14BC7
330
144AE
100
AcDbEntity
  8
SUNPOU
  6
BYBLOCK
 62
     1
100
AcDbLine
 10
-1536.499999999997
 20
1689.774999999999
 30
0.0
 11
-1536.499999999997
 21
1648.267986351784
 31
0.0
  0
LINE
  5
14BC8
330
144AE
100
AcDbEntity
  8
SUNPOU
  6
BYBLOCK
 62
     1
100
AcDbLine
 10
-1416.5
 20
1688.024999999999
 30
0.0
 11
-1416.5
 21
1648.267986351784
 31
0.0
  0
LINE
  5
14BC9
330
144AE
100
AcDbEntity
  8
SUNPOU
  6
BYBLOCK
 62
     1
100
AcDbLine
 10
-1533.999999999997
 20
1649.517986351784
 30
0.0
 11
-1419.0
 21
1649.517986351784
 31
0.0
  0
SOLID
  5
14BCA
330
144AE
100
AcDbEntity
  8
SUNPOU
  6
BYBLOCK
 62
     1
100
AcDbTrace
 10
-1533.999999999997
 20
1649.934653018451
 30
0.0
 11
-1533.999999999997
 21
1649.101319685117
 31
0.0
 12
-1536.499999999997
 22
1649.517986351784
 32
0.0
 13
-1536.499999999997
 23
1649.517986351784
 33
0.0
  0
SOLID
  5
14BCB
330
144AE
100
AcDbEntity
  8
SUNPOU
  6
BYBLOCK
 62
     1
100
AcDbTrace
 10
-1419.0
 20
1649.934653018451
 30
0.0
 11
-1419.0
 21
1649.101319685117
 31
0.0
 12
-1416.5
 22
1649.517986351784
 32
0.0
 13
-1416.5
 23
1649.517986351784
 33
0.0
  0
MTEXT
  5
14BCC
330
144AE
100
AcDbEntity
  8
SUNPOU
  6
BYBLOCK
 62
     1
100
AcDbMText
 10
-1476.5
 20
1651.892986351784
 30
0.0
 40
3.5
 41
0.0
 71
     5
 72
     1
  1
120
1001
ACAD
1000
MTEXTBEGIN
1070
    73
1070
     1
1070
    44
1040
1.0
1070
    74
1070
     0
1000
MTEXTEND
  0
POINT
  5
14BCD
330
144AE
100
AcDbEntity
  8
DEFPOINTS
  6
BYBLOCK
 62
     0
100
AcDbPoint
 10
-1536.499999999997
 20
1690.399999999999
 30
0.0
  0
POINT
  5
14BCE
330
144AE
100
AcDbEntity
  8
DEFPOINTS
  6
BYBLOCK
 62
     0
100
AcDbPoint
 10
-1416.5
 20
1688.649999999999
 30
0.0
  0
POINT
  5
14BCF
330
144AE
100
AcDbEntity
  8
DEFPOINTS
  6
BYBLOCK
 62
     0
100
AcDbPoint
 10
-1416.5
 20
1649.517986351784
 30
0.0
  0
ENDBLK
  5
144B9
330
144AE
100
AcDbEntity
  8
0
100
AcDbBlockEnd
  0
BLOCK
  5
144D0
330
144C6
100
AcDbEntity
  8
0
100
AcDbBlockBegin
  2
*D4
 70
     1
 10
0.0
 20
0.0
 30
0.0
  3
*D4
  1

  0
LINE
  5
14BD0
330
144C6
100
AcDbEntity
  8
SUNPOU
  6
BYBLOCK
 62
     1
100
AcDbLine
 10
-1419.874999999861
 20
1668.0
 30
0.0
 11
-1396.677734185446
 21
1668.0
 31
0.0
  0
LINE
  5
14BD1
330
144C6
100
AcDbEntity
  8
SUNPOU
  6
BYBLOCK
 62
     1
100
AcDbLine
 10
-1414.375
 20
1690.899999999999
 30
0.0
 11
-1396.677734185446
 21
1690.899999999999
 31
0.0
  0
LINE
  5
14BD2
330
144C6
100
AcDbEntity
  8
SUNPOU
  6
BYBLOCK
 62
     1
100
AcDbLine
 10
-1397.927734185446
 20
1670.5
 30
0.0
 11
-1397.927734185446
 21
1688.399999999999
 31
0.0
  0
SOLID
  5
14BD3
330
144C6
100
AcDbEntity
  8
SUNPOU
  6
BYBLOCK
 62
     1
100
AcDbTrace
 10
-1398.344400852113
 20
1670.5
 30
0.0
 11
-1397.51106751878
 21
1670.5
 31
0.0
 12
-1397.927734185446
 22
1668.0
 32
0.0
 13
-1397.927734185446
 23
1668.0
 33
0.0
  0
SOLID
  5
14BD4
330
144C6
100
AcDbEntity
  8
SUNPOU
  6
BYBLOCK
 62
     1
100
AcDbTrace
 10
-1398.344400852113
 20
1688.399999999999
 30
0.0
 11
-1397.51106751878
 21
1688.399999999999
 31
0.0
 12
-1397.927734185446
 22
1690.899999999999
 32
0.0
 13
-1397.927734185446
 23
1690.899999999999
 33
0.0
  0
MTEXT
  5
14BD5
330
144C6
100
AcDbEntity
  8
SUNPOU
  6
BYBLOCK
 62
     1
100
AcDbMText
 10
-1400.302734185447
 20
1680.450000000001
 30
0.0
 40
3.5
 41
0.0
 71
     5
 72
     1
  1
22.9
 11
0.0000000000000001
 21
1.0
 31
0.0
1001
ACAD
1000
MTEXTBEGIN
1070
    73
1070
     1
1070
    44
1040
1.0
1070
    74
1070
     0
1000
MTEXTEND
  0
POINT
  5
14BD6
330
144C6
100
AcDbEntity
  8
DEFPOINTS
  6
BYBLOCK
 62
     0
100
AcDbPoint
 10
-1420.499999999861
 20
1668.0
 30
0.0
  0
POINT
  5
14BD7
330
144C6
100
AcDbEntity
  8
DEFPOINTS
  6
BYBLOCK
 62
     0
100
AcDbPoint
 10
-1415.0
 20
1690.899999999999
 30
0.0
  0
POINT
  5
14BD8
330
144C6
100
AcDbEntity
  8
DEFPOINTS
  6
BYBLOCK
 62
     0
100
AcDbPoint
 10
-1397.927734185446
 20
1690.899999999999
 30
0.0
  0
ENDBLK
  5
144D1
330
144C6
100
AcDbEntity
  8
0
100
AcDbBlockEnd
  0
BLOCK
  5
14554
330
1454A
100
AcDbEntity
  8
0
100
AcDbBlockBegin
  2
*D5
 70
     1
 10
0.0
 20
0.0
 30
0.0
  3
*D5
  1

  0
LINE
  5
14B5A
330
1454A
100
AcDbEntity
  8
SUNPOU
 62
     1
100
AcDbLine
 10
-1602.399999999998
 20
1540.0
 30
0.0
 11
-1625.225368098439
 21
1540.0
 31
0.0
  0
LINE
  5
14B5B
330
1454A
100
AcDbEntity
  8
SUNPOU
 62
     1
100
AcDbLine
 10
-1603.899999999999
 20
1615.3
 30
0.0
 11
-1625.225368098439
 21
1615.3
 31
0.0
  0
LINE
  5
14B5C
330
1454A
100
AcDbEntity
  8
SUNPOU
 62
     1
100
AcDbLine
 10
-1624.725368098439
 20
1543.0
 30
0.0
 11
-1624.725368098439
 21
1612.3
 31
0.0
  0
SOLID
  5
14B5D
330
1454A
100
AcDbEntity
  8
SUNPOU
 62
     1
100
AcDbTrace
 10
-1625.225368098439
 20
1543.0
 30
0.0
 11
-1624.225368098439
 21
1543.0
 31
0.0
 12
-1624.725368098439
 22
1540.0
 32
0.0
 13
-1624.725368098439
 23
1540.0
 33
0.0
  0
SOLID
  5
14B5E
330
1454A
100
AcDbEntity
  8
SUNPOU
 62
     1
100
AcDbTrace
 10
-1625.225368098439
 20
1612.3
 30
0.0
 11
-1624.225368098439
 21
1612.3
 31
0.0
 12
-1624.725368098439
 22
1615.3
 32
0.0
 13
-1624.725368098439
 23
1615.3
 33
0.0
  0
MTEXT
  5
14B5F
330
1454A
100
AcDbEntity
  8
SUNPOU
 62
     1
100
AcDbMText
 10
-1627.475368098439
 20
1577.649999999999
 30
0.0
 40
3.5
 41
0.0
 71
     5
 72
     1
  1
\A1;75.3
 11
0.0000000000000001
 21
1.0
 31
0.0
1001
ACAD
1000
MTEXTBEGIN
1070
    73
1070
     1
1070
    44
1040
1.0
1070
    74
1070
     0
1000
MTEXTEND
  0
POINT
  5
14B60
330
1454A
100
AcDbEntity
  8
DEFPOINTS
 62
     0
100
AcDbPoint
 10
-1601.899999999997
 20
1540.0
 30
0.0
  0
POINT
  5
14B61
330
1454A
100
AcDbEntity
  8
DEFPOINTS
 62
     0
100
AcDbPoint
 10
-1603.399999999999
 20
1615.3
 30
0.0
  0
POINT
  5
14B62
330
1454A
100
AcDbEntity
  8
DEFPOINTS
 62
     0
100
AcDbPoint
 10
-1624.725368098439
 20
1615.3
 30
0.0
  0
ENDBLK
  5
14555
330
1454A
100
AcDbEntity
  8
0
100
AcDbBlockEnd
  0
BLOCK
  5
145F1
330
145E7
100
AcDbEntity
  8
0
100
AcDbBlockBegin
  2
*D6
 70
     1
 10
0.0
 20
0.0
 30
0.0
  3
*D6
  1

  0
LINE
  5
14C03
330
145E7
100
AcDbEntity
  8
SUNPOU
 62
     1
100
AcDbLine
 10
-1603.899999999999
 20
1615.3
 30
0.0
 11
-1625.225368098439
 21
1615.3
 31
0.0
  0
LINE
  5
14C04
330
145E7
100
AcDbEntity
  8
SUNPOU
 62
     1
100
AcDbLine
 10
-1577.954192808495
 20
1645.3
 30
0.0
 11
-1625.225368098439
 21
1645.3
 31
0.0
  0
LINE
  5
14C05
330
145E7
100
AcDbEntity
  8
SUNPOU
 62
     1
100
AcDbLine
 10
-1624.725368098439
 20
1618.3
 30
0.0
 11
-1624.725368098439
 21
1642.3
 31
0.0
  0
SOLID
  5
14C06
330
145E7
100
AcDbEntity
  8
SUNPOU
 62
     1
100
AcDbTrace
 10
-1625.225368098439
 20
1618.3
 30
0.0
 11
-1624.225368098439
 21
1618.3
 31
0.0
 12
-1624.725368098439
 22
1615.3
 32
0.0
 13
-1624.725368098439
 23
1615.3
 33
0.0
  0
SOLID
  5
14C07
330
145E7
100
AcDbEntity
  8
SUNPOU
 62
     1
100
AcDbTrace
 10
-1625.225368098439
 20
1642.3
 30
0.0
 11
-1624.225368098439
 21
1642.3
 31
0.0
 12
-1624.725368098439
 22
1645.3
 32
0.0
 13
-1624.725368098439
 23
1645.3
 33
0.0
  0
MTEXT
  5
14C08
330
145E7
100
AcDbEntity
  8
SUNPOU
 62
     1
100
AcDbMText
 10
-1627.475368098439
 20
1630.3
 30
0.0
 40
3.5
 41
0.0
 71
     5
 72
     1
  1
\A1;(30)
 11
0.0000000000000001
 21
1.0
 31
0.0
  0
POINT
  5
14C09
330
145E7
100
AcDbEntity
  8
DEFPOINTS
 62
     0
100
AcDbPoint
 10
-1603.399999999999
 20
1615.3
 30
0.0
  0
POINT
  5
14C0A
330
145E7
100
AcDbEntity
  8
DEFPOINTS
 62
     0
100
AcDbPoint
 10
-1577.454192808495
 20
1645.3
 30
0.0
  0
POINT
  5
14C0B
330
145E7
100
AcDbEntity
  8
DEFPOINTS
 62
     0
100
AcDbPoint
 10
-1624.725368098439
 20
1645.3
 30
0.0
  0
ENDBLK
  5
145F2
330
145E7
100
AcDbEntity
  8
0
100
AcDbBlockEnd
  0
BLOCK
  5
14803
330
147F7
100
AcDbEntity
  8
0
100
AcDbBlockBegin
  2
*D7
 70
     1
 10
0.0
 20
0.0
 30
0.0
  3
*D7
  1

  0
LINE
  5
14B32
330
147F7
100
AcDbEntity
  8
SUNPOU
 62
     1
100
AcDbLine
 10
-1412.5
 20
1693.149999999999
 30
0.0
 11
-1405.922733604516
 21
1693.149999999999
 31
0.0
  0
LINE
  5
14B33
330
147F7
100
AcDbEntity
  8
SUNPOU
 62
     1
100
AcDbLine
 10
-1412.5
 20
1688.649999999999
 30
0.0
 11
-1405.922733604516
 21
1688.649999999999
 31
0.0
  0
LINE
  5
14B34
330
147F7
100
AcDbEntity
  8
SUNPOU
 62
     1
100
AcDbLine
 10
-1406.422733604516
 20
1696.149999999999
 30
0.0
 11
-1406.422733604516
 21
1699.149999999999
 31
0.0
  0
LINE
  5
14B35
330
147F7
100
AcDbEntity
  8
SUNPOU
 62
     1
100
AcDbLine
 10
-1406.422733604516
 20
1685.649999999999
 30
0.0
 11
-1406.422733604516
 21
1673.649999999999
 31
0.0
  0
LINE
  5
14B36
330
147F7
100
AcDbEntity
  8
SUNPOU
 62
     1
100
AcDbLine
 10
-1406.422733604516
 20
1693.149999999999
 30
0.0
 11
-1406.422733604516
 21
1688.649999999999
 31
0.0
  0
SOLID
  5
14B37
330
147F7
100
AcDbEntity
  8
SUNPOU
 62
     1
100
AcDbTrace
 10
-1406.922733604516
 20
1696.149999999999
 30
0.0
 11
-1405.922733604516
 21
1696.149999999999
 31
0.0
 12
-1406.422733604516
 22
1693.149999999999
 32
0.0
 13
-1406.422733604516
 23
1693.149999999999
 33
0.0
  0
SOLID
  5
14B38
330
147F7
100
AcDbEntity
  8
SUNPOU
 62
     1
100
AcDbTrace
 10
-1406.922733604516
 20
1685.649999999999
 30
0.0
 11
-1405.922733604516
 21
1685.649999999999
 31
0.0
 12
-1406.422733604516
 22
1688.649999999999
 32
0.0
 13
-1406.422733604516
 23
1688.649999999999
 33
0.0
  0
MTEXT
  5
14B39
330
147F7
100
AcDbEntity
  8
SUNPOU
 62
     1
100
AcDbMText
 10
-1409.172733604516
 20
1678.149999999999
 30
0.0
 40
3.5
 41
0.0
 71
     5
 72
     1
  1
\A1;4.5
 11
0.0000000000000001
 21
1.0
 31
0.0
1001
ACAD
1000
MTEXTBEGIN
1070
    73
1070
     1
1070
    44
1040
1.0
1070
    74
1070
     0
1000
MTEXTEND
  0
POINT
  5
14B3A
330
147F7
100
AcDbEntity
  8
DEFPOINTS
 62
     0
100
AcDbPoint
 10
-1413.0
 20
1693.149999999999
 30
0.0
  0
POINT
  5
14B3B
330
147F7
100
AcDbEntity
  8
DEFPOINTS
 62
     0
100
AcDbPoint
 10
-1413.0
 20
1688.649999999999
 30
0.0
  0
POINT
  5
14B3C
330
147F7
100
AcDbEntity
  8
DEFPOINTS
 62
     0
100
AcDbPoint
 10
-1406.422733604516
 20
1688.649999999999
 30
0.0
  0
ENDBLK
  5
14804
330
147F7
100
AcDbEntity
  8
0
100
AcDbBlockEnd
  0
BLOCK
  5
148B3
330
148A9
100
AcDbEntity
  8
0
100
AcDbBlockBegin
  2
*D8
 70
     1
 10
0.0
 20
0.0
 30
0.0
  3
*D8
  1

  0
LINE
  5
14B4F
330
148A9
100
AcDbEntity
  8
SUNPOU
 62
     1
100
AcDbLine
 10
-1603.899999999999
 20
1615.3
 30
0.0
 11
-1614.785902884191
 21
1615.3
 31
0.0
  0
LINE
  5
14B50
330
148A9
100
AcDbEntity
  8
SUNPOU
 62
     1
100
AcDbLine
 10
-1605.641241461819
 20
1631.303751464604
 30
0.0
 11
-1614.785902884191
 21
1631.303751464604
 31
0.0
  0
LINE
  5
14B51
330
148A9
100
AcDbEntity
  8
SUNPOU
 62
     1
100
AcDbLine
 10
-1614.285902884191
 20
1612.3
 30
0.0
 11
-1614.285902884191
 21
1609.3
 31
0.0
  0
LINE
  5
14B52
330
148A9
100
AcDbEntity
  8
SUNPOU
 62
     1
100
AcDbLine
 10
-1614.285902884191
 20
1634.303751464604
 30
0.0
 11
-1614.285902884191
 21
1637.303751464604
 31
0.0
  0
LINE
  5
14B53
330
148A9
100
AcDbEntity
  8
SUNPOU
 62
     1
100
AcDbLine
 10
-1614.285902884191
 20
1615.3
 30
0.0
 11
-1614.285902884191
 21
1631.303751464604
 31
0.0
  0
SOLID
  5
14B54
330
148A9
100
AcDbEntity
  8
SUNPOU
 62
     1
100
AcDbTrace
 10
-1614.785902884191
 20
1612.3
 30
0.0
 11
-1613.785902884191
 21
1612.3
 31
0.0
 12
-1614.285902884191
 22
1615.3
 32
0.0
 13
-1614.285902884191
 23
1615.3
 33
0.0
  0
SOLID
  5
14B55
330
148A9
100
AcDbEntity
  8
SUNPOU
 62
     1
100
AcDbTrace
 10
-1614.785902884191
 20
1634.303751464604
 30
0.0
 11
-1613.785902884191
 21
1634.303751464604
 31
0.0
 12
-1614.285902884191
 22
1631.303751464604
 32
0.0
 13
-1614.285902884191
 23
1631.303751464604
 33
0.0
  0
MTEXT
  5
14B56
330
148A9
100
AcDbEntity
  8
SUNPOU
 62
     1
100
AcDbMText
 10
-1617.035902884191
 20
1623.261875732302
 30
0.0
 40
3.5
 41
0.0
 71
     5
 72
     1
  1
\A1;(16)
 11
0.0000000000000001
 21
1.0
 31
0.0
1001
ACAD
1000
MTEXTBEGIN
1070
    73
1070
     1
1070
    44
1040
1.0
1070
    74
1070
     0
1000
MTEXTEND
  0
POINT
  5
14B57
330
148A9
100
AcDbEntity
  8
DEFPOINTS
 62
     0
100
AcDbPoint
 10
-1603.399999999999
 20
1615.3
 30
0.0
  0
POINT
  5
14B58
330
148A9
100
AcDbEntity
  8
DEFPOINTS
 62
     0
100
AcDbPoint
 10
-1605.141241461819
 20
1631.303751464604
 30
0.0
  0
POINT
  5
14B59
330
148A9
100
AcDbEntity
  8
DEFPOINTS
 62
     0
100
AcDbPoint
 10
-1614.285902884191
 20
1631.303751464604
 30
0.0
  0
ENDBLK
  5
148B4
330
148A9
100
AcDbEntity
  8
0
100
AcDbBlockEnd
  0
BLOCK
  5
14ADF
330
14AD5
100
AcDbEntity
  8
0
100
AcDbBlockBegin
  2
*D9
 70
     1
 10
0.0
 20
0.0
 30
0.0
  3
*D9
  1

  0
LINE
  5
14B63
330
14AD5
100
AcDbEntity
  8
SUNPOU
  6
BYBLOCK
 62
     1
100
AcDbLine
 10
-1347.475000000002
 20
1540.0
 30
0.0
 11
-1332.196980797258
 21
1540.0
 31
0.0
  0
LINE
  5
14B64
330
14AD5
100
AcDbEntity
  8
SUNPOU
  6
BYBLOCK
 62
     1
100
AcDbLine
 10
-1344.075000000001
 20
1619.0
 30
0.0
 11
-1332.196980797258
 21
1619.0
 31
0.0
  0
LINE
  5
14B65
330
14AD5
100
AcDbEntity
  8
SUNPOU
  6
BYBLOCK
 62
     1
100
AcDbLine
 10
-1333.446980797257
 20
1542.5
 30
0.0
 11
-1333.446980797257
 21
1616.5
 31
0.0
  0
SOLID
  5
14B66
330
14AD5
100
AcDbEntity
  8
SUNPOU
  6
BYBLOCK
 62
     1
100
AcDbTrace
 10
-1333.863647463924
 20
1542.5
 30
0.0
 11
-1333.030314130591
 21
1542.5
 31
0.0
 12
-1333.446980797257
 22
1540.0
 32
0.0
 13
-1333.446980797257
 23
1540.0
 33
0.0
  0
SOLID
  5
14B67
330
14AD5
100
AcDbEntity
  8
SUNPOU
  6
BYBLOCK
 62
     1
100
AcDbTrace
 10
-1333.863647463924
 20
1616.5
 30
0.0
 11
-1333.030314130591
 21
1616.5
 31
0.0
 12
-1333.446980797257
 22
1619.0
 32
0.0
 13
-1333.446980797257
 23
1619.0
 33
0.0
  0
MTEXT
  5
14B68
330
14AD5
100
AcDbEntity
  8
SUNPOU
  6
BYBLOCK
 62
     1
100
AcDbMText
 10
-1335.821980797258
 20
1579.5
 30
0.0
 40
3.5
 41
0.0
 71
     5
 72
     1
  1
79
 11
0.0000000000000001
 21
1.0
 31
0.0
1001
ACAD
1000
MTEXTBEGIN
1070
    73
1070
     1
1070
    44
1040
1.0
1070
    74
1070
     0
1000
MTEXTEND
  0
POINT
  5
14B69
330
14AD5
100
AcDbEntity
  8
DEFPOINTS
  6
BYBLOCK
 62
     0
100
AcDbPoint
 10
-1348.100000000002
 20
1540.0
 30
0.0
  0
POINT
  5
14B6A
330
14AD5
100
AcDbEntity
  8
DEFPOINTS
  6
BYBLOCK
 62
     0
100
AcDbPoint
 10
-1344.7
 20
1619.0
 30
0.0
  0
POINT
  5
14B6B
330
14AD5
100
AcDbEntity
  8
DEFPOINTS
  6
BYBLOCK
 62
     0
100
AcDbPoint
 10
-1333.446980797257
 20
1619.0
 30
0.0
  0
ENDBLK
  5
14AE0
330
14AD5
100
AcDbEntity
  8
0
100
AcDbBlockEnd
  0
ENDSEC
  0
SECTION
  2
ENTITIES
  0
MTEXT
  5
5084
330
1A
100
AcDbEntity
  8
0
100
AcDbMText
 10
1985.239088685435
 20
-948.5420423450428
 30
0.0
 40
8.0
 41
0.0
 71
     7
 72
     5
  1

1001
ACAD
1000
MTEXTBEGIN
1070
    73
1070
     1
1070
    44
1040
1.0
1070
    74
1070
     0
1000
MTEXTEND
  0
MTEXT
  5
5085
330
1A
100
AcDbEntity
  8
0
100
AcDbMText
 10
4270.596778580329
 20
22.24825240601649
 30
0.0
 40
8.0
 41
0.0
 71
     7
 72
     5
  1

1001
ACAD
1000
MTEXTBEGIN
1070
    73
1070
     1
1070
    44
1040
1.0
1070
    74
1070
     0
1000
MTEXTEND
  0
MTEXT
  5
5343
330
1A
100
AcDbEntity
  8
SUNPOU
100
AcDbMText
 10
6936.493799262471
 20
9534.359644781135
 30
0.0
 40
10.5
 41
0.0
 71
     1
 72
     5
  1

1001
ACAD
1000
MTEXTBEGIN
1070
    73
1070
     1
1070
    44
1040
1.0
1070
    74
1070
     0
1000
MTEXTEND
  0
MTEXT
  5
544F
330
1A
100
AcDbEntity
  8
0
100
AcDbMText
 10
16317.2832773148
 20
12833.35428897674
 30
0.0
 40
8.0
 41
0.0
 71
     7
 72
     5
  1

1001
ACAD
1000
MTEXTBEGIN
1070
    73
1070
     1
1070
    44
1040
1.0
1070
    74
1070
     0
1000
MTEXTEND
  0
MTEXT
  5
5450
330
1A
100
AcDbEntity
  8
0
100
AcDbMText
 10
18602.64096720969
 20
13804.1445837278
 30
0.0
 40
8.0
 41
0.0
 71
     7
 72
     5
  1

1001
ACAD
1000
MTEXTBEGIN
1070
    73
1070
     1
1070
    44
1040
1.0
1070
    74
1070
     0
1000
MTEXTEND
  0
MTEXT
  5
5451
330
1A
100
AcDbEntity
  8
SUNPOU
100
AcDbMText
 10
21268.53798789184
 20
23316.25597610292
 30
0.0
 40
10.5
 41
0.0
 71
     1
 72
     5
  1

1001
ACAD
1000
MTEXTBEGIN
1070
    73
1070
     1
1070
    44
1040
1.0
1070
    74
1070
     0
1000
MTEXTEND
  0
MTEXT
  5
5452
330
1A
100
AcDbEntity
  8
SUNPOU
100
AcDbMText
 10
13337.6147919559
 20
22369.46284218996
 30
0.0
 40
10.5
 41
0.0
 71
     7
 72
     5
  1

1001
ACAD
1000
MTEXTBEGIN
1070
    73
1070
     1
1070
    44
1040
1.0
1070
    74
1070
     0
1000
MTEXTEND
  0
MTEXT
  5
5453
330
1A
100
AcDbEntity
  8
SUNPOU
100
AcDbMText
 10
16286.59845646867
 20
27270.13891403281
 30
0.0
 40
10.5
 41
0.0
 71
     7
 72
     5
  1

1001
ACAD
1000
MTEXTBEGIN
1070
    73
1070
     1
1070
    44
1040
1.0
1070
    74
1070
     0
1000
MTEXTEND
  0
MTEXT
  5
5454
330
1A
100
AcDbEntity
  8
SUNPOU
100
AcDbMText
 10
20795.67658441924
 20
29706.43966165288
 30
0.0
 40
10.5
 41
0.0
 71
     7
 72
     5
  1

1001
ACAD
1000
MTEXTBEGIN
1070
    73
1070
     1
1070
    44
1040
1.0
1070
    74
1070
     0
1000
MTEXTEND
  0
MTEXT
  5
5455
330
1A
100
AcDbEntity
  8
0
100
AcDbMText
 10
16611.93789220314
 20
14707.52144344448
 30
0.0
 40
8.0
 41
0.0
 71
     7
 72
     5
  1

1001
ACAD
1000
MTEXTBEGIN
1070
    73
1070
     1
1070
    44
1040
1.0
1070
    74
1070
     0
1000
MTEXTEND
  0
MTEXT
  5
5456
330
1A
100
AcDbEntity
  8
0
100
AcDbMText
 10
18897.29558209804
 20
15678.31173819554
 30
0.0
 40
8.0
 41
0.0
 71
     7
 72
     5
  1

1001
ACAD
1000
MTEXTBEGIN
1070
    73
1070
     1
1070
    44
1040
1.0
1070
    74
1070
     0
1000
MTEXTEND
  0
MTEXT
  5
5457
330
1A
100
AcDbEntity
  8
SUNPOU
100
AcDbMText
 10
21563.19260278019
 20
25190.42313057066
 30
0.0
 40
10.5
 41
0.0
 71
     1
 72
     5
  1

1001
ACAD
1000
MTEXTBEGIN
1070
    73
1070
     1
1070
    44
1040
1.0
1070
    74
1070
     0
1000
MTEXTEND
  0
MTEXT
  5
5458
330
1A
100
AcDbEntity
  8
SUNPOU
100
AcDbMText
 10
13632.26940684426
 20
24243.6299966577
 30
0.0
 40
10.5
 41
0.0
 71
     7
 72
     5
  1

1001
ACAD
1000
MTEXTBEGIN
1070
    73
1070
     1
1070
    44
1040
1.0
1070
    74
1070
     0
1000
MTEXTEND
  0
MTEXT
  5
5459
330
1A
100
AcDbEntity
  8
SUNPOU
100
AcDbMText
 10
16581.25307135702
 20
29144.30606850055
 30
0.0
 40
10.5
 41
0.0
 71
     7
 72
     5
  1

1001
ACAD
1000
MTEXTBEGIN
1070
    73
1070
     1
1070
    44
1040
1.0
1070
    74
1070
     0
1000
MTEXTEND
  0
MTEXT
  5
545A
330
1A
100
AcDbEntity
  8
SUNPOU
100
AcDbMText
 10
21090.33119930759
 20
31580.60681612062
 30
0.0
 40
10.5
 41
0.0
 71
     7
 72
     5
  1

1001
ACAD
1000
MTEXTBEGIN
1070
    73
1070
     1
1070
    44
1040
1.0
1070
    74
1070
     0
1000
MTEXTEND
  0
MTEXT
  5
545B
330
1A
100
AcDbEntity
  8
0
100
AcDbMText
 10
22871.60517627167
 20
23974.88367124799
 30
0.0
 40
8.0
 41
0.0
 71
     7
 72
     5
  1

1001
ACAD
1000
MTEXTBEGIN
1070
    73
1070
     1
1070
    44
1040
1.0
1070
    74
1070
     0
1000
MTEXTEND
  0
MTEXT
  5
545C
330
1A
100
AcDbEntity
  8
0
100
AcDbMText
 10
25156.96286616657
 20
24945.67396599906
 30
0.0
 40
8.0
 41
0.0
 71
     7
 72
     5
  1

1001
ACAD
1000
MTEXTBEGIN
1070
    73
1070
     1
1070
    44
1040
1.0
1070
    74
1070
     0
1000
MTEXTEND
  0
MTEXT
  5
545D
330
1A
100
AcDbEntity
  8
SUNPOU
100
AcDbMText
 10
27822.85988684871
 20
34457.78535837418
 30
0.0
 40
10.5
 41
0.0
 71
     1
 72
     5
  1

1001
ACAD
1000
MTEXTBEGIN
1070
    73
1070
     1
1070
    44
1040
1.0
1070
    74
1070
     0
1000
MTEXTEND
  0
MTEXT
  5
545E
330
1A
100
AcDbEntity
  8
SUNPOU
100
AcDbMText
 10
19891.93669091278
 20
33510.99222446122
 30
0.0
 40
10.5
 41
0.0
 71
     7
 72
     5
  1

1001
ACAD
1000
MTEXTBEGIN
1070
    73
1070
     1
1070
    44
1040
1.0
1070
    74
1070
     0
1000
MTEXTEND
  0
MTEXT
  5
545F
330
1A
100
AcDbEntity
  8
SUNPOU
100
AcDbMText
 10
22840.92035542555
 20
38411.66829630407
 30
0.0
 40
10.5
 41
0.0
 71
     7
 72
     5
  1

1001
ACAD
1000
MTEXTBEGIN
1070
    73
1070
     1
1070
    44
1040
1.0
1070
    74
1070
     0
1000
MTEXTEND
  0
MTEXT
  5
5460
330
1A
100
AcDbEntity
  8
SUNPOU
100
AcDbMText
 10
27349.99848337611
 20
40847.96904392415
 30
0.0
 40
10.5
 41
0.0
 71
     7
 72
     5
  1

1001
ACAD
1000
MTEXTBEGIN
1070
    73
1070
     1
1070
    44
1040
1.0
1070
    74
1070
     0
1000
MTEXTEND
  0
MTEXT
  5
55B7
330
1A
100
AcDbEntity
  8
SUNPOU
100
AcDbMText
 10
67424.23923338197
 20
64463.86602884816
 30
0.0
 40
10.5
 41
0.0
 71
     9
 72
     5
  1

1001
ACAD
1000
MTEXTBEGIN
1070
    73
1070
     1
1070
    44
1040
1.0
1070
    74
1070
     0
1000
MTEXTEND
  0
MTEXT
  5
55B8
330
1A
100
AcDbEntity
  8
SUNPOU
100
AcDbMText
 10
76146.40679929998
 20
71879.70056038563
 30
0.0
 40
10.5
 41
0.0
 71
     9
 72
     5
  1

1001
ACAD
1000
MTEXTBEGIN
1070
    73
1070
     1
1070
    44
1040
1.0
1070
    74
1070
     0
1000
MTEXTEND
  0
MTEXT
  5
55B9
330
1A
100
AcDbEntity
  8
SUNPOU
100
AcDbMText
 10
95100.16551662994
 20
89346.27661287766
 30
0.0
 40
10.5
 41
0.0
 71
     9
 72
     5
  1

1001
ACAD
1000
MTEXTBEGIN
1070
    73
1070
     1
1070
    44
1040
1.0
1070
    74
1070
     0
1000
MTEXTEND
  0
MTEXT
  5
55BA
330
1A
100
AcDbEntity
  8
SUNPOU
100
AcDbMText
 10
97043.57276333936
 20
87545.22753299966
 30
0.0
 40
3.5
 41
0.0
 71
     9
 72
     5
  1

1001
ACAD
1000
MTEXTBEGIN
1070
    73
1070
     1
1070
    44
1040
1.0
1070
    74
1070
     0
1000
MTEXTEND
  0
MTEXT
  5
55BB
330
1A
100
AcDbEntity
  8
SUNPOU
100
AcDbMText
 10
128169.752595959
 20
130040.1732006569
 30
0.0
 40
10.5
 41
0.0
 71
     9
 72
     5
  1

1001
ACAD
1000
MTEXTBEGIN
1070
    73
1070
     1
1070
    44
1040
1.0
1070
    74
1070
     0
1000
MTEXTEND
  0
MTEXT
  5
55BC
330
1A
100
AcDbEntity
  8
SUNPOU
100
AcDbMText
 10
130113.1598426684
 20
128239.1241207789
 30
0.0
 40
3.5
 41
0.0
 71
     9
 72
     5
  1

1001
ACAD
1000
MTEXTBEGIN
1070
    73
1070
     1
1070
    44
1040
1.0
1070
    74
1070
     0
1000
MTEXTEND
  0
MTEXT
  5
55BD
330
1A
100
AcDbEntity
  8
SUNPOU
100
AcDbMText
 10
78610.02030175463
 20
75873.33835563206
 30
0.0
 40
10.5
 41
0.0
 71
     9
 72
     5
  1

1001
ACAD
1000
MTEXTBEGIN
1070
    73
1070
     1
1070
    44
1040
1.0
1070
    74
1070
     0
1000
MTEXTEND
  0
MTEXT
  5
55BE
330
1A
100
AcDbEntity
  8
SUNPOU
100
AcDbMText
 10
64662.02020137863
 20
56700.93921651987
 30
0.0
 40
3.5
 41
0.0
 71
     7
 72
     5
  1

1001
ACAD
1000
MTEXTBEGIN
1070
    73
1070
     1
1070
    44
1040
1.0
1070
    74
1070
     0
1000
MTEXTEND
  0
MTEXT
  5
55BF
330
1A
100
AcDbEntity
  8
SUNPOU
100
AcDbMText
 10
45647.18959837178
 20
44463.08794733807
 30
0.0
 40
10.5
 41
0.0
 71
     7
 72
     5
  1

1001
ACAD
1000
MTEXTBEGIN
1070
    73
1070
     1
1070
    44
1040
1.0
1070
    74
1070
     0
1000
MTEXTEND
  0
MTEXT
  5
55C0
330
1A
100
AcDbEntity
  8
SUNPOU
100
AcDbMText
 10
33189.96133342368
 20
28618.15636923965
 30
0.0
 40
35.0
 41
0.0
 71
     9
 72
     5
  1

1001
ACAD
1000
MTEXTBEGIN
1070
    73
1070
     1
1070
    44
1040
1.0
1070
    74
1070
     0
1000
MTEXTEND
  0
MTEXT
  5
55C1
330
1A
100
AcDbEntity
  8
SUNPOU
100
AcDbMText
 10
32098.44639099864
 20
29226.93177928835
 30
0.0
 40
350.0000004171781
 41
0.0
 71
     7
 72
     5
  1

1001
ACAD
1000
MTEXTBEGIN
1070
    73
1070
     1
1070
    44
1040
1.0
1070
    74
1070
     0
1000
MTEXTEND
  0
MTEXT
  5
55C2
330
1A
100
AcDbEntity
  8
0
100
AcDbMText
 10
38142.39714894154
 20
27206.85414142458
 30
0.0
 40
8.0
 41
0.0
 71
     7
 72
     5
  1

1001
ACAD
1000
MTEXTBEGIN
1070
    73
1070
     1
1070
    44
1040
1.0
1070
    74
1070
     0
1000
MTEXTEND
  0
MTEXT
  5
55C3
330
1A
100
AcDbEntity
  8
0
100
AcDbMText
 10
40427.75483883644
 20
28177.64443617564
 30
0.0
 40
8.0
 41
0.0
 71
     7
 72
     5
  1

1001
ACAD
1000
MTEXTBEGIN
1070
    73
1070
     1
1070
    44
1040
1.0
1070
    74
1070
     0
1000
MTEXTEND
  0
MTEXT
  5
55C4
330
1A
100
AcDbEntity
  8
SUNPOU
100
AcDbMText
 10
43093.65185951858
 20
37689.75582855077
 30
0.0
 40
10.5
 41
0.0
 71
     1
 72
     5
  1

1001
ACAD
1000
MTEXTBEGIN
1070
    73
1070
     1
1070
    44
1040
1.0
1070
    74
1070
     0
1000
MTEXTEND
  0
MTEXT
  5
55C5
330
1A
100
AcDbEntity
  8
SUNPOU
100
AcDbMText
 10
35162.72866358265
 20
36742.96269463781
 30
0.0
 40
10.5
 41
0.0
 71
     7
 72
     5
  1

1001
ACAD
1000
MTEXTBEGIN
1070
    73
1070
     1
1070
    44
1040
1.0
1070
    74
1070
     0
1000
MTEXTEND
  0
MTEXT
  5
55C6
330
1A
100
AcDbEntity
  8
SUNPOU
100
AcDbMText
 10
38111.71232809542
 20
41643.63876648066
 30
0.0
 40
10.5
 41
0.0
 71
     7
 72
     5
  1

1001
ACAD
1000
MTEXTBEGIN
1070
    73
1070
     1
1070
    44
1040
1.0
1070
    74
1070
     0
1000
MTEXTEND
  0
MTEXT
  5
55C7
330
1A
100
AcDbEntity
  8
SUNPOU
100
AcDbMText
 10
42620.79045604597
 20
44079.93951410074
 30
0.0
 40
10.5
 41
0.0
 71
     7
 72
     5
  1

1001
ACAD
1000
MTEXTBEGIN
1070
    73
1070
     1
1070
    44
1040
1.0
1070
    74
1070
     0
1000
MTEXTEND
  0
MTEXT
  5
55C8
330
1A
100
AcDbEntity
  8
SUNPOU
100
AcDbMText
 10
26221.62834281429
 20
23077.53566448964
 30
0.0
 40
10.5
 41
0.0
 71
     7
 72
     5
  1

1001
ACAD
1000
MTEXTBEGIN
1070
    73
1070
     1
1070
    44
1040
1.0
1070
    74
1070
     0
1000
MTEXTEND
  0
MTEXT
  5
55C9
330
1A
100
AcDbEntity
  8
SUNPOU
100
AcDbMText
 10
77413.14677671455
 20
68750.51622813789
 30
0.0
 40
10.5
 41
0.0
 71
     9
 72
     5
  1

1001
ACAD
1000
MTEXTBEGIN
1070
    73
1070
     1
1070
    44
1040
1.0
1070
    74
1070
     0
1000
MTEXTEND
  0
MTEXT
  5
55CA
330
1A
100
AcDbEntity
  8
SUNPOU
100
AcDbMText
 10
86135.31434263256
 20
76166.35075967536
 30
0.0
 40
10.5
 41
0.0
 71
     9
 72
     5
  1

1001
ACAD
1000
MTEXTBEGIN
1070
    73
1070
     1
1070
    44
1040
1.0
1070
    74
1070
     0
1000
MTEXTEND
  0
MTEXT
  5
55CB
330
1A
100
AcDbEntity
  8
SUNPOU
100
AcDbMText
 10
105089.0730599625
 20
93632.92681216739
 30
0.0
 40
10.5
 41
0.0
 71
     9
 72
     5
  1

1001
ACAD
1000
MTEXTBEGIN
1070
    73
1070
     1
1070
    44
1040
1.0
1070
    74
1070
     0
1000
MTEXTEND
  0
MTEXT
  5
55CC
330
1A
100
AcDbEntity
  8
SUNPOU
100
AcDbMText
 10
107032.4803066719
 20
91831.8777322894
 30
0.0
 40
3.5
 41
0.0
 71
     9
 72
     5
  1

1001
ACAD
1000
MTEXTBEGIN
1070
    73
1070
     1
1070
    44
1040
1.0
1070
    74
1070
     0
1000
MTEXTEND
  0
MTEXT
  5
55CD
330
1A
100
AcDbEntity
  8
SUNPOU
100
AcDbMText
 10
138158.6601392916
 20
134326.8233999467
 30
0.0
 40
10.5
 41
0.0
 71
     9
 72
     5
  1

1001
ACAD
1000
MTEXTBEGIN
1070
    73
1070
     1
1070
    44
1040
1.0
1070
    74
1070
     0
1000
MTEXTEND
  0
MTEXT
  5
55CE
330
1A
100
AcDbEntity
  8
SUNPOU
100
AcDbMText
 10
140102.067386001
 20
132525.7743200686
 30
0.0
 40
3.5
 41
0.0
 71
     9
 72
     5
  1

1001
ACAD
1000
MTEXTBEGIN
1070
    73
1070
     1
1070
    44
1040
1.0
1070
    74
1070
     0
1000
MTEXTEND
  0
MTEXT
  5
55CF
330
1A
100
AcDbEntity
  8
SUNPOU
100
AcDbMText
 10
88598.92784508721
 20
80159.98855492179
 30
0.0
 40
10.5
 41
0.0
 71
     9
 72
     5
  1

1001
ACAD
1000
MTEXTBEGIN
1070
    73
1070
     1
1070
    44
1040
1.0
1070
    74
1070
     0
1000
MTEXTEND
  0
MTEXT
  5
55D0
330
1A
100
AcDbEntity
  8
SUNPOU
100
AcDbMText
 10
74650.92774471121
 20
60987.5894158096
 30
0.0
 40
3.5
 41
0.0
 71
     7
 72
     5
  1

1001
ACAD
1000
MTEXTBEGIN
1070
    73
1070
     1
1070
    44
1040
1.0
1070
    74
1070
     0
1000
MTEXTEND
  0
MTEXT
  5
55D1
330
1A
100
AcDbEntity
  8
SUNPOU
100
AcDbMText
 10
55636.09714170436
 20
48749.73814662781
 30
0.0
 40
10.5
 41
0.0
 71
     7
 72
     5
  1

1001
ACAD
1000
MTEXTBEGIN
1070
    73
1070
     1
1070
    44
1040
1.0
1070
    74
1070
     0
1000
MTEXTEND
  0
MTEXT
  5
55D2
330
1A
100
AcDbEntity
  8
SUNPOU
100
AcDbMText
 10
43178.86887675626
 20
32904.80656852938
 30
0.0
 40
35.0
 41
0.0
 71
     9
 72
     5
  1

1001
ACAD
1000
MTEXTBEGIN
1070
    73
1070
     1
1070
    44
1040
1.0
1070
    74
1070
     0
1000
MTEXTEND
  0
MTEXT
  5
55D3
330
1A
100
AcDbEntity
  8
SUNPOU
100
AcDbMText
 10
42087.35393433121
 20
33513.58197857809
 30
0.0
 40
350.0000004171781
 41
0.0
 71
     7
 72
     5
  1

1001
ACAD
1000
MTEXTBEGIN
1070
    73
1070
     1
1070
    44
1040
1.0
1070
    74
1070
     0
1000
MTEXTEND
  0
MTEXT
  5
55D4
330
1A
100
AcDbEntity
  8
0
100
AcDbMText
 10
48131.30469227412
 20
31493.50434071431
 30
0.0
 40
8.0
 41
0.0
 71
     7
 72
     5
  1

1001
ACAD
1000
MTEXTBEGIN
1070
    73
1070
     1
1070
    44
1040
1.0
1070
    74
1070
     0
1000
MTEXTEND
  0
MTEXT
  5
55D5
330
1A
100
AcDbEntity
  8
0
100
AcDbMText
 10
50416.66238216901
 20
32464.29463546537
 30
0.0
 40
8.0
 41
0.0
 71
     7
 72
     5
  1

1001
ACAD
1000
MTEXTBEGIN
1070
    73
1070
     1
1070
    44
1040
1.0
1070
    74
1070
     0
1000
MTEXTEND
  0
MTEXT
  5
55D6
330
1A
100
AcDbEntity
  8
SUNPOU
100
AcDbMText
 10
53082.55940285115
 20
41976.4060278405
 30
0.0
 40
10.5
 41
0.0
 71
     1
 72
     5
  1

1001
ACAD
1000
MTEXTBEGIN
1070
    73
1070
     1
1070
    44
1040
1.0
1070
    74
1070
     0
1000
MTEXTEND
  0
MTEXT
  5
55D7
330
1A
100
AcDbEntity
  8
SUNPOU
100
AcDbMText
 10
45151.63620691522
 20
41029.61289392755
 30
0.0
 40
10.5
 41
0.0
 71
     7
 72
     5
  1

1001
ACAD
1000
MTEXTBEGIN
1070
    73
1070
     1
1070
    44
1040
1.0
1070
    74
1070
     0
1000
MTEXTEND
  0
MTEXT
  5
55D8
330
1A
100
AcDbEntity
  8
SUNPOU
100
AcDbMText
 10
48100.61987142798
 20
45930.28896577039
 30
0.0
 40
10.5
 41
0.0
 71
     7
 72
     5
  1

1001
ACAD
1000
MTEXTBEGIN
1070
    73
1070
     1
1070
    44
1040
1.0
1070
    74
1070
     0
1000
MTEXTEND
  0
MTEXT
  5
55D9
330
1A
100
AcDbEntity
  8
SUNPOU
100
AcDbMText
 10
52609.69799937854
 20
48366.58971339046
 30
0.0
 40
10.5
 41
0.0
 71
     7
 72
     5
  1

1001
ACAD
1000
MTEXTBEGIN
1070
    73
1070
     1
1070
    44
1040
1.0
1070
    74
1070
     0
1000
MTEXTEND
  0
MTEXT
  5
55DA
330
1A
100
AcDbEntity
  8
SUNPOU
100
AcDbMText
 10
36210.53588614687
 20
27364.18586377937
 30
0.0
 40
10.5
 41
0.0
 71
     7
 72
     5
  1

1001
ACAD
1000
MTEXTBEGIN
1070
    73
1070
     1
1070
    44
1040
1.0
1070
    74
1070
     0
1000
MTEXTEND
  0
MTEXT
  5
55DB
330
1A
100
AcDbEntity
  8
SUNPOU
100
AcDbMText
 10
38021.29879752181
 20
33691.59985125794
 30
0.0
 40
10.5
 41
0.0
 71
     9
 72
     5
  1

1001
ACAD
1000
MTEXTBEGIN
1070
    73
1070
     1
1070
    44
1040
1.0
1070
    74
1070
     0
1000
MTEXTEND
  0
MTEXT
  5
55DC
330
1A
100
AcDbEntity
  8
SUNPOU
100
AcDbMText
 10
46743.46636343979
 20
41107.43438279541
 30
0.0
 40
10.5
 41
0.0
 71
     9
 72
     5
  1

1001
ACAD
1000
MTEXTBEGIN
1070
    73
1070
     1
1070
    44
1040
1.0
1070
    74
1070
     0
1000
MTEXTEND
  0
MTEXT
  5
55DD
330
1A
100
AcDbEntity
  8
SUNPOU
100
AcDbMText
 10
65697.22508076975
 20
58574.01043528746
 30
0.0
 40
10.5
 41
0.0
 71
     9
 72
     5
  1

1001
ACAD
1000
MTEXTBEGIN
1070
    73
1070
     1
1070
    44
1040
1.0
1070
    74
1070
     0
1000
MTEXTEND
  0
MTEXT
  5
55DE
330
1A
100
AcDbEntity
  8
SUNPOU
100
AcDbMText
 10
67640.63232747917
 20
56772.96135540945
 30
0.0
 40
3.5
 41
0.0
 71
     9
 72
     5
  1

1001
ACAD
1000
MTEXTBEGIN
1070
    73
1070
     1
1070
    44
1040
1.0
1070
    74
1070
     0
1000
MTEXTEND
  0
MTEXT
  5
55DF
330
1A
100
AcDbEntity
  8
SUNPOU
100
AcDbMText
 10
98766.81216009888
 20
99267.9070230668
 30
0.0
 40
10.5
 41
0.0
 71
     9
 72
     5
  1

1001
ACAD
1000
MTEXTBEGIN
1070
    73
1070
     1
1070
    44
1040
1.0
1070
    74
1070
     0
1000
MTEXTEND
  0
MTEXT
  5
55E0
330
1A
100
AcDbEntity
  8
SUNPOU
100
AcDbMText
 10
100710.2194068083
 20
97466.85794318878
 30
0.0
 40
3.5
 41
0.0
 71
     9
 72
     5
  1

1001
ACAD
1000
MTEXTBEGIN
1070
    73
1070
     1
1070
    44
1040
1.0
1070
    74
1070
     0
1000
MTEXTEND
  0
MTEXT
  5
55E1
330
1A
100
AcDbEntity
  8
SUNPOU
100
AcDbMText
 10
49207.07986589444
 20
45101.07217804185
 30
0.0
 40
10.5
 41
0.0
 71
     9
 72
     5
  1

1001
ACAD
1000
MTEXTBEGIN
1070
    73
1070
     1
1070
    44
1040
1.0
1070
    74
1070
     0
1000
MTEXTEND
  0
MTEXT
  5
55E2
330
1A
100
AcDbEntity
  8
SUNPOU
100
AcDbMText
 10
35259.07976551845
 20
25928.67303892964
 30
0.0
 40
3.5
 41
0.0
 71
     7
 72
     5
  1

1001
ACAD
1000
MTEXTBEGIN
1070
    73
1070
     1
1070
    44
1040
1.0
1070
    74
1070
     0
1000
MTEXTEND
  0
MTEXT
  5
55E3
330
1A
100
AcDbEntity
  8
SUNPOU
100
AcDbMText
 10
48951.43044828905
 20
35287.73625995099
 30
0.0
 40
10.5
 41
0.0
 71
     9
 72
     5
  1

1001
ACAD
1000
MTEXTBEGIN
1070
    73
1070
     1
1070
    44
1040
1.0
1070
    74
1070
     0
1000
MTEXTEND
  0
MTEXT
  5
55E4
330
1A
100
AcDbEntity
  8
SUNPOU
100
AcDbMText
 10
57673.59801420702
 20
42703.57079148847
 30
0.0
 40
10.5
 41
0.0
 71
     9
 72
     5
  1

1001
ACAD
1000
MTEXTBEGIN
1070
    73
1070
     1
1070
    44
1040
1.0
1070
    74
1070
     0
1000
MTEXTEND
  0
MTEXT
  5
55E5
330
1A
100
AcDbEntity
  8
SUNPOU
100
AcDbMText
 10
76627.35673153699
 20
60170.14684398051
 30
0.0
 40
10.5
 41
0.0
 71
     9
 72
     5
  1

1001
ACAD
1000
MTEXTBEGIN
1070
    73
1070
     1
1070
    44
1040
1.0
1070
    74
1070
     0
1000
MTEXTEND
  0
MTEXT
  5
55E6
330
1A
100
AcDbEntity
  8
SUNPOU
100
AcDbMText
 10
78570.76397824641
 20
58369.09776410251
 30
0.0
 40
3.5
 41
0.0
 71
     9
 72
     5
  1

1001
ACAD
1000
MTEXTBEGIN
1070
    73
1070
     1
1070
    44
1040
1.0
1070
    74
1070
     0
1000
MTEXTEND
  0
MTEXT
  5
55E7
330
1A
100
AcDbEntity
  8
SUNPOU
100
AcDbMText
 10
109696.9438108661
 20
100864.0434317598
 30
0.0
 40
10.5
 41
0.0
 71
     9
 72
     5
  1

1001
ACAD
1000
MTEXTBEGIN
1070
    73
1070
     1
1070
    44
1040
1.0
1070
    74
1070
     0
1000
MTEXTEND
  0
MTEXT
  5
55E8
330
1A
100
AcDbEntity
  8
SUNPOU
100
AcDbMText
 10
111640.3510575755
 20
99062.99435188183
 30
0.0
 40
3.5
 41
0.0
 71
     9
 72
     5
  1

1001
ACAD
1000
MTEXTBEGIN
1070
    73
1070
     1
1070
    44
1040
1.0
1070
    74
1070
     0
1000
MTEXTEND
  0
MTEXT
  5
55E9
330
1A
100
AcDbEntity
  8
SUNPOU
100
AcDbMText
 10
60137.21151666167
 20
46697.20858673491
 30
0.0
 40
10.5
 41
0.0
 71
     9
 72
     5
  1

1001
ACAD
1000
MTEXTBEGIN
1070
    73
1070
     1
1070
    44
1040
1.0
1070
    74
1070
     0
1000
MTEXTEND
  0
MTEXT
  5
55EA
330
1A
100
AcDbEntity
  8
SUNPOU
100
AcDbMText
 10
46189.21141628568
 20
27524.80944762269
 30
0.0
 40
3.5
 41
0.0
 71
     7
 72
     5
  1

1001
ACAD
1000
MTEXTBEGIN
1070
    73
1070
     1
1070
    44
1040
1.0
1070
    74
1070
     0
1000
MTEXTEND
  0
MTEXT
  5
55EB
330
1A
100
AcDbEntity
  8
SUNPOU
100
AcDbMText
 10
45007.68847015541
 20
38269.57947701874
 30
0.0
 40
10.5
 41
0.0
 71
     9
 72
     5
  1

1001
ACAD
1000
MTEXTBEGIN
1070
    73
1070
     1
1070
    44
1040
1.0
1070
    74
1070
     0
1000
MTEXTEND
  0
MTEXT
  5
55EC
330
1A
100
AcDbEntity
  8
SUNPOU
100
AcDbMText
 10
63961.44718748539
 20
55736.15552951081
 30
0.0
 40
10.5
 41
0.0
 71
     9
 72
     5
  1

1001
ACAD
1000
MTEXTBEGIN
1070
    73
1070
     1
1070
    44
1040
1.0
1070
    74
1070
     0
1000
MTEXTEND
  0
MTEXT
  5
55ED
330
1A
100
AcDbEntity
  8
SUNPOU
100
AcDbMText
 10
65904.85443419479
 20
53935.10644963279
 30
0.0
 40
3.5
 41
0.0
 71
     9
 72
     5
  1

1001
ACAD
1000
MTEXTBEGIN
1070
    73
1070
     1
1070
    44
1040
1.0
1070
    74
1070
     0
1000
MTEXTEND
  0
MTEXT
  5
55EE
330
1A
100
AcDbEntity
  8
SUNPOU
100
AcDbMText
 10
97031.03426681451
 20
96430.05211729015
 30
0.0
 40
10.5
 41
0.0
 71
     9
 72
     5
  1

1001
ACAD
1000
MTEXTBEGIN
1070
    73
1070
     1
1070
    44
1040
1.0
1070
    74
1070
     0
1000
MTEXTEND
  0
MTEXT
  5
55EF
330
1A
100
AcDbEntity
  8
SUNPOU
100
AcDbMText
 10
98974.44151352393
 20
94629.00303741212
 30
0.0
 40
3.5
 41
0.0
 71
     9
 72
     5
  1

1001
ACAD
1000
MTEXTBEGIN
1070
    73
1070
     1
1070
    44
1040
1.0
1070
    74
1070
     0
1000
MTEXTEND
  0
MTEXT
  5
55F0
330
1A
100
AcDbEntity
  8
SUNPOU
100
AcDbMText
 10
47471.30197261006
 20
42263.21727226519
 30
0.0
 40
10.5
 41
0.0
 71
     9
 72
     5
  1

1001
ACAD
1000
MTEXTBEGIN
1070
    73
1070
     1
1070
    44
1040
1.0
1070
    74
1070
     0
1000
MTEXTEND
  0
MTEXT
  5
55F1
330
1A
100
AcDbEntity
  8
SUNPOU
100
AcDbMText
 10
33523.30187223408
 20
23090.81813315298
 30
0.0
 40
3.5
 41
0.0
 71
     7
 72
     5
  1

1001
ACAD
1000
MTEXTBEGIN
1070
    73
1070
     1
1070
    44
1040
1.0
1070
    74
1070
     0
1000
MTEXTEND
  0
MTEXT
  5
55F2
330
1A
100
AcDbEntity
  8
SUNPOU
100
AcDbMText
 10
57959.46254102503
 20
50038.08111611015
 30
0.0
 40
10.5
 41
0.0
 71
     9
 72
     5
  1

1001
ACAD
1000
MTEXTBEGIN
1070
    73
1070
     1
1070
    44
1040
1.0
1070
    74
1070
     0
1000
MTEXTEND
  0
MTEXT
  5
55F3
330
1A
100
AcDbEntity
  8
SUNPOU
100
AcDbMText
 10
76913.22125835503
 20
67504.65716860222
 30
0.0
 40
10.5
 41
0.0
 71
     9
 72
     5
  1

1001
ACAD
1000
MTEXTBEGIN
1070
    73
1070
     1
1070
    44
1040
1.0
1070
    74
1070
     0
1000
MTEXTEND
  0
MTEXT
  5
55F4
330
1A
100
AcDbEntity
  8
SUNPOU
100
AcDbMText
 10
78856.62850506443
 20
65703.6080887242
 30
0.0
 40
3.5
 41
0.0
 71
     9
 72
     5
  1

1001
ACAD
1000
MTEXTBEGIN
1070
    73
1070
     1
1070
    44
1040
1.0
1070
    74
1070
     0
1000
MTEXTEND
  0
MTEXT
  5
55F5
330
1A
100
AcDbEntity
  8
SUNPOU
100
AcDbMText
 10
109982.8083376841
 20
108198.5537563815
 30
0.0
 40
10.5
 41
0.0
 71
     9
 72
     5
  1

1001
ACAD
1000
MTEXTBEGIN
1070
    73
1070
     1
1070
    44
1040
1.0
1070
    74
1070
     0
1000
MTEXTEND
  0
MTEXT
  5
55F6
330
1A
100
AcDbEntity
  8
SUNPOU
100
AcDbMText
 10
111926.2155843935
 20
106397.5046765035
 30
0.0
 40
3.5
 41
0.0
 71
     9
 72
     5
  1

1001
ACAD
1000
MTEXTBEGIN
1070
    73
1070
     1
1070
    44
1040
1.0
1070
    74
1070
     0
1000
MTEXTEND
  0
MTEXT
  5
55F7
330
1A
100
AcDbEntity
  8
SUNPOU
100
AcDbMText
 10
60423.07604347968
 20
54031.71891135659
 30
0.0
 40
10.5
 41
0.0
 71
     9
 72
     5
  1

1001
ACAD
1000
MTEXTBEGIN
1070
    73
1070
     1
1070
    44
1040
1.0
1070
    74
1070
     0
1000
MTEXTEND
  0
MTEXT
  5
55F8
330
1A
100
AcDbEntity
  8
SUNPOU
100
AcDbMText
 10
46475.07594310369
 20
34859.3197722444
 30
0.0
 40
3.5
 41
0.0
 71
     7
 72
     5
  1

1001
ACAD
1000
MTEXTBEGIN
1070
    73
1070
     1
1070
    44
1040
1.0
1070
    74
1070
     0
1000
MTEXTEND
  0
MTEXT
  5
55F9
330
1A
100
AcDbEntity
  8
SUNPOU
100
AcDbMText
 10
74027.35402123588
 20
68370.58278833383
 30
0.0
 40
10.5
 41
0.0
 71
     9
 72
     5
  1

1001
ACAD
1000
MTEXTBEGIN
1070
    73
1070
     1
1070
    44
1040
1.0
1070
    74
1070
     0
1000
MTEXTEND
  0
MTEXT
  5
55FA
330
1A
100
AcDbEntity
  8
SUNPOU
100
AcDbMText
 10
75970.7612679453
 20
66569.53370845583
 30
0.0
 40
3.5
 41
0.0
 71
     9
 72
     5
  1

1001
ACAD
1000
MTEXTBEGIN
1070
    73
1070
     1
1070
    44
1040
1.0
1070
    74
1070
     0
1000
MTEXTEND
  0
MTEXT
  5
55FB
330
1A
100
AcDbEntity
  8
SUNPOU
100
AcDbMText
 10
107096.941100565
 20
109064.4793761132
 30
0.0
 40
10.5
 41
0.0
 71
     9
 72
     5
  1

1001
ACAD
1000
MTEXTBEGIN
1070
    73
1070
     1
1070
    44
1040
1.0
1070
    74
1070
     0
1000
MTEXTEND
  0
MTEXT
  5
55FC
330
1A
100
AcDbEntity
  8
SUNPOU
100
AcDbMText
 10
109040.3483472744
 20
107263.4302962351
 30
0.0
 40
3.5
 41
0.0
 71
     9
 72
     5
  1

1001
ACAD
1000
MTEXTBEGIN
1070
    73
1070
     1
1070
    44
1040
1.0
1070
    74
1070
     0
1000
MTEXTEND
  0
MTEXT
  5
55FD
330
1A
100
AcDbEntity
  8
SUNPOU
100
AcDbMText
 10
105709.1709283621
 20
108141.3777665285
 30
0.0
 40
10.5
 41
0.0
 71
     9
 72
     5
  1

1001
ACAD
1000
MTEXTBEGIN
1070
    73
1070
     1
1070
    44
1040
1.0
1070
    74
1070
     0
1000
MTEXTEND
  0
MTEXT
  5
55FE
330
1A
100
AcDbEntity
  8
SUNPOU
100
AcDbMText
 10
107652.5781750715
 20
106340.3286866505
 30
0.0
 40
3.5
 41
0.0
 71
     9
 72
     5
  1

1001
ACAD
1000
MTEXTBEGIN
1070
    73
1070
     1
1070
    44
1040
1.0
1070
    74
1070
     0
1000
MTEXTEND
  0
MTEXT
  5
55FF
330
1A
100
AcDbEntity
  8
SUNPOU
100
AcDbMText
 10
73193.09268743351
 20
66158.78082845056
 30
0.0
 40
10.5
 41
0.0
 71
     9
 72
     5
  1

1001
ACAD
1000
MTEXTBEGIN
1070
    73
1070
     1
1070
    44
1040
1.0
1070
    74
1070
     0
1000
MTEXTEND
  0
MTEXT
  5
5600
330
1A
100
AcDbEntity
  8
SUNPOU
100
AcDbMText
 10
75916.39889159806
 20
66563.46252003162
 30
0.0
 40
3.5
 41
0.0
 71
     9
 72
     5
  1

1001
ACAD
1000
MTEXTBEGIN
1070
    73
1070
     1
1070
    44
1040
1.0
1070
    74
1070
     0
1000
MTEXTEND
  0
MTEXT
  5
5601
330
1A
100
AcDbEntity
  8
SUNPOU
100
AcDbMText
 10
75124.04436649058
 20
63402.1566819768
 30
0.0
 40
10.5
 41
0.0
 71
     9
 72
     5
  1

1001
ACAD
1000
MTEXTBEGIN
1070
    73
1070
     1
1070
    44
1040
1.0
1070
    74
1070
     0
1000
MTEXTEND
  0
MTEXT
  5
5602
330
1A
100
AcDbEntity
  8
SUNPOU
100
AcDbMText
 10
77067.4516132
 20
61601.1076020988
 30
0.0
 40
3.5
 41
0.0
 71
     9
 72
     5
  1

1001
ACAD
1000
MTEXTBEGIN
1070
    73
1070
     1
1070
    44
1040
1.0
1070
    74
1070
     0
1000
MTEXTEND
  0
MTEXT
  5
5603
330
1A
100
AcDbEntity
  8
SUNPOU
100
AcDbMText
 10
77012.54710378659
 20
61488.33571981449
 30
0.0
 40
3.5
 41
0.0
 71
     9
 72
     5
  1

1001
ACAD
1000
MTEXTBEGIN
1070
    73
1070
     1
1070
    44
1040
1.0
1070
    74
1070
     0
1000
MTEXTEND
  0
MTEXT
  5
5604
330
1A
100
AcDbEntity
  8
SUNPOU
100
AcDbMText
 10
76376.61896736668
 20
60677.01447874797
 30
0.0
 40
3.5
 41
0.0
 71
     9
 72
     5
  1

1001
ACAD
1000
MTEXTBEGIN
1070
    73
1070
     1
1070
    44
1040
1.0
1070
    74
1070
     0
1000
MTEXTEND
  0
MTEXT
  5
5605
330
1A
100
AcDbEntity
  8
SUNPOU
100
AcDbMText
 10
76375.37854794595
 20
60676.76650181047
 30
0.0
 40
10.5
 41
0.0
 71
     9
 72
     5
  1

1001
ACAD
1000
MTEXTBEGIN
1070
    73
1070
     1
1070
    44
1040
1.0
1070
    74
1070
     0
1000
MTEXTEND
  0
MTEXT
  5
5606
330
1A
100
AcDbEntity
  8
SUNPOU
100
AcDbMText
 10
84709.93991079748
 20
78034.0328293557
 30
0.0
 40
10.5
 41
0.0
 71
     9
 72
     5
  1

1001
ACAD
1000
MTEXTBEGIN
1070
    73
1070
     1
1070
    44
1040
1.0
1070
    74
1070
     0
1000
MTEXTEND
  0
MTEXT
  5
5607
330
1A
100
AcDbEntity
  8
SUNPOU
100
AcDbMText
 10
93432.10747671548
 20
85449.86736089315
 30
0.0
 40
10.5
 41
0.0
 71
     9
 72
     5
  1

1001
ACAD
1000
MTEXTBEGIN
1070
    73
1070
     1
1070
    44
1040
1.0
1070
    74
1070
     0
1000
MTEXTEND
  0
MTEXT
  5
5608
330
1A
100
AcDbEntity
  8
SUNPOU
100
AcDbMText
 10
112385.8661940454
 20
102916.4434133851
 30
0.0
 40
10.5
 41
0.0
 71
     9
 72
     5
  1

1001
ACAD
1000
MTEXTBEGIN
1070
    73
1070
     1
1070
    44
1040
1.0
1070
    74
1070
     0
1000
MTEXTEND
  0
MTEXT
  5
5609
330
1A
100
AcDbEntity
  8
SUNPOU
100
AcDbMText
 10
114329.2734407548
 20
101115.3943335072
 30
0.0
 40
3.5
 41
0.0
 71
     9
 72
     5
  1

1001
ACAD
1000
MTEXTBEGIN
1070
    73
1070
     1
1070
    44
1040
1.0
1070
    74
1070
     0
1000
MTEXTEND
  0
MTEXT
  5
560A
330
1A
100
AcDbEntity
  8
SUNPOU
100
AcDbMText
 10
145455.4532733745
 20
143610.3400011645
 30
0.0
 40
10.5
 41
0.0
 71
     9
 72
     5
  1

1001
ACAD
1000
MTEXTBEGIN
1070
    73
1070
     1
1070
    44
1040
1.0
1070
    74
1070
     0
1000
MTEXTEND
  0
MTEXT
  5
560B
330
1A
100
AcDbEntity
  8
SUNPOU
100
AcDbMText
 10
147398.8605200839
 20
141809.2909212864
 30
0.0
 40
3.5
 41
0.0
 71
     9
 72
     5
  1

1001
ACAD
1000
MTEXTBEGIN
1070
    73
1070
     1
1070
    44
1040
1.0
1070
    74
1070
     0
1000
MTEXTEND
  0
MTEXT
  5
560C
330
1A
100
AcDbEntity
  8
SUNPOU
100
AcDbMText
 10
95895.72097917013
 20
89443.5051561396
 30
0.0
 40
10.5
 41
0.0
 71
     9
 72
     5
  1

1001
ACAD
1000
MTEXTBEGIN
1070
    73
1070
     1
1070
    44
1040
1.0
1070
    74
1070
     0
1000
MTEXTEND
  0
MTEXT
  5
560D
330
1A
100
AcDbEntity
  8
SUNPOU
100
AcDbMText
 10
81947.72087879414
 20
70271.1060170274
 30
0.0
 40
3.5
 41
0.0
 71
     7
 72
     5
  1

1001
ACAD
1000
MTEXTBEGIN
1070
    73
1070
     1
1070
    44
1040
1.0
1070
    74
1070
     0
1000
MTEXTEND
  0
MTEXT
  5
560E
330
1A
100
AcDbEntity
  8
SUNPOU
100
AcDbMText
 10
62932.89027578729
 20
58033.25474784561
 30
0.0
 40
10.5
 41
0.0
 71
     7
 72
     5
  1

1001
ACAD
1000
MTEXTBEGIN
1070
    73
1070
     1
1070
    44
1040
1.0
1070
    74
1070
     0
1000
MTEXTEND
  0
MTEXT
  5
560F
330
1A
100
AcDbEntity
  8
SUNPOU
100
AcDbMText
 10
50475.66201083918
 20
42188.32316974719
 30
0.0
 40
35.0
 41
0.0
 71
     9
 72
     5
  1

1001
ACAD
1000
MTEXTBEGIN
1070
    73
1070
     1
1070
    44
1040
1.0
1070
    74
1070
     0
1000
MTEXTEND
  0
MTEXT
  5
5610
330
1A
100
AcDbEntity
  8
SUNPOU
100
AcDbMText
 10
49384.14706841413
 20
42797.0985797959
 30
0.0
 40
350.0000004171781
 41
0.0
 71
     7
 72
     5
  1

1001
ACAD
1000
MTEXTBEGIN
1070
    73
1070
     1
1070
    44
1040
1.0
1070
    74
1070
     0
1000
MTEXTEND
  0
MTEXT
  5
5611
330
1A
100
AcDbEntity
  8
0
100
AcDbMText
 10
55428.09782635704
 20
40777.02094193211
 30
0.0
 40
8.0
 41
0.0
 71
     7
 72
     5
  1

1001
ACAD
1000
MTEXTBEGIN
1070
    73
1070
     1
1070
    44
1040
1.0
1070
    74
1070
     0
1000
MTEXTEND
  0
MTEXT
  5
5612
330
1A
100
AcDbEntity
  8
0
100
AcDbMText
 10
57713.45551625194
 20
41747.81123668317
 30
0.0
 40
8.0
 41
0.0
 71
     7
 72
     5
  1

1001
ACAD
1000
MTEXTBEGIN
1070
    73
1070
     1
1070
    44
1040
1.0
1070
    74
1070
     0
1000
MTEXTEND
  0
MTEXT
  5
5613
330
1A
100
AcDbEntity
  8
SUNPOU
100
AcDbMText
 10
60379.35253693408
 20
51259.9226290583
 30
0.0
 40
10.5
 41
0.0
 71
     1
 72
     5
  1

1001
ACAD
1000
MTEXTBEGIN
1070
    73
1070
     1
1070
    44
1040
1.0
1070
    74
1070
     0
1000
MTEXTEND
  0
MTEXT
  5
5614
330
1A
100
AcDbEntity
  8
SUNPOU
100
AcDbMText
 10
52448.42934099814
 20
50313.12949514535
 30
0.0
 40
10.5
 41
0.0
 71
     7
 72
     5
  1

1001
ACAD
1000
MTEXTBEGIN
1070
    73
1070
     1
1070
    44
1040
1.0
1070
    74
1070
     0
1000
MTEXTEND
  0
MTEXT
  5
5615
330
1A
100
AcDbEntity
  8
SUNPOU
100
AcDbMText
 10
55397.41300551091
 20
55213.80556698819
 30
0.0
 40
10.5
 41
0.0
 71
     7
 72
     5
  1

1001
ACAD
1000
MTEXTBEGIN
1070
    73
1070
     1
1070
    44
1040
1.0
1070
    74
1070
     0
1000
MTEXTEND
  0
MTEXT
  5
5616
330
1A
100
AcDbEntity
  8
SUNPOU
100
AcDbMText
 10
59906.49113346147
 20
57650.10631460826
 30
0.0
 40
10.5
 41
0.0
 71
     7
 72
     5
  1

1001
ACAD
1000
MTEXTBEGIN
1070
    73
1070
     1
1070
    44
1040
1.0
1070
    74
1070
     0
1000
MTEXTEND
  0
MTEXT
  5
5617
330
1A
100
AcDbEntity
  8
SUNPOU
100
AcDbMText
 10
43507.32902022979
 20
36647.70246499718
 30
0.0
 40
10.5
 41
0.0
 71
     7
 72
     5
  1

1001
ACAD
1000
MTEXTBEGIN
1070
    73
1070
     1
1070
    44
1040
1.0
1070
    74
1070
     0
1000
MTEXTEND
  0
MTEXT
  5
5618
330
1A
100
AcDbEntity
  8
SUNPOU
100
AcDbMText
 10
94698.84745413006
 20
82320.68302864542
 30
0.0
 40
10.5
 41
0.0
 71
     9
 72
     5
  1

1001
ACAD
1000
MTEXTBEGIN
1070
    73
1070
     1
1070
    44
1040
1.0
1070
    74
1070
     0
1000
MTEXTEND
  0
MTEXT
  5
5619
330
1A
100
AcDbEntity
  8
SUNPOU
100
AcDbMText
 10
103421.015020048
 20
89736.5175601829
 30
0.0
 40
10.5
 41
0.0
 71
     9
 72
     5
  1

1001
ACAD
1000
MTEXTBEGIN
1070
    73
1070
     1
1070
    44
1040
1.0
1070
    74
1070
     0
1000
MTEXTEND
  0
MTEXT
  5
561A
330
1A
100
AcDbEntity
  8
SUNPOU
100
AcDbMText
 10
122374.773737378
 20
107203.0936126749
 30
0.0
 40
10.5
 41
0.0
 71
     9
 72
     5
  1

1001
ACAD
1000
MTEXTBEGIN
1070
    73
1070
     1
1070
    44
1040
1.0
1070
    74
1070
     0
1000
MTEXTEND
  0
MTEXT
  5
561B
330
1A
100
AcDbEntity
  8
SUNPOU
100
AcDbMText
 10
124318.1809840874
 20
105402.0445327969
 30
0.0
 40
3.5
 41
0.0
 71
     9
 72
     5
  1

1001
ACAD
1000
MTEXTBEGIN
1070
    73
1070
     1
1070
    44
1040
1.0
1070
    74
1070
     0
1000
MTEXTEND
  0
MTEXT
  5
561C
330
1A
100
AcDbEntity
  8
SUNPOU
100
AcDbMText
 10
155444.3608167071
 20
147896.9902004542
 30
0.0
 40
10.5
 41
0.0
 71
     9
 72
     5
  1

1001
ACAD
1000
MTEXTBEGIN
1070
    73
1070
     1
1070
    44
1040
1.0
1070
    74
1070
     0
1000
MTEXTEND
  0
MTEXT
  5
561D
330
1A
100
AcDbEntity
  8
SUNPOU
100
AcDbMText
 10
157387.7680634165
 20
146095.9411205762
 30
0.0
 40
3.5
 41
0.0
 71
     9
 72
     5
  1

1001
ACAD
1000
MTEXTBEGIN
1070
    73
1070
     1
1070
    44
1040
1.0
1070
    74
1070
     0
1000
MTEXTEND
  0
MTEXT
  5
561E
330
1A
100
AcDbEntity
  8
SUNPOU
100
AcDbMText
 10
105884.6285225027
 20
93730.15535542933
 30
0.0
 40
10.5
 41
0.0
 71
     9
 72
     5
  1

1001
ACAD
1000
MTEXTBEGIN
1070
    73
1070
     1
1070
    44
1040
1.0
1070
    74
1070
     0
1000
MTEXTEND
  0
MTEXT
  5
561F
330
1A
100
AcDbEntity
  8
SUNPOU
100
AcDbMText
 10
91936.6284221267
 20
74557.75621631714
 30
0.0
 40
3.5
 41
0.0
 71
     7
 72
     5
  1

1001
ACAD
1000
MTEXTBEGIN
1070
    73
1070
     1
1070
    44
1040
1.0
1070
    74
1070
     0
1000
MTEXTEND
  0
MTEXT
  5
5620
330
1A
100
AcDbEntity
  8
SUNPOU
100
AcDbMText
 10
72921.79781911986
 20
62319.90494713533
 30
0.0
 40
10.5
 41
0.0
 71
     7
 72
     5
  1

1001
ACAD
1000
MTEXTBEGIN
1070
    73
1070
     1
1070
    44
1040
1.0
1070
    74
1070
     0
1000
MTEXTEND
  0
MTEXT
  5
5621
330
1A
100
AcDbEntity
  8
SUNPOU
100
AcDbMText
 10
60464.56955417175
 20
46474.97336903692
 30
0.0
 40
35.0
 41
0.0
 71
     9
 72
     5
  1

1001
ACAD
1000
MTEXTBEGIN
1070
    73
1070
     1
1070
    44
1040
1.0
1070
    74
1070
     0
1000
MTEXTEND
  0
MTEXT
  5
5622
330
1A
100
AcDbEntity
  8
SUNPOU
100
AcDbMText
 10
59373.05461174672
 20
47083.74877908562
 30
0.0
 40
350.0000004171781
 41
0.0
 71
     7
 72
     5
  1

1001
ACAD
1000
MTEXTBEGIN
1070
    73
1070
     1
1070
    44
1040
1.0
1070
    74
1070
     0
1000
MTEXTEND
  0
MTEXT
  5
5623
330
1A
100
AcDbEntity
  8
0
100
AcDbMText
 10
65417.00536968962
 20
45063.67114122186
 30
0.0
 40
8.0
 41
0.0
 71
     7
 72
     5
  1

1001
ACAD
1000
MTEXTBEGIN
1070
    73
1070
     1
1070
    44
1040
1.0
1070
    74
1070
     0
1000
MTEXTEND
  0
MTEXT
  5
5624
330
1A
100
AcDbEntity
  8
0
100
AcDbMText
 10
67702.36305958452
 20
46034.46143597292
 30
0.0
 40
8.0
 41
0.0
 71
     7
 72
     5
  1

1001
ACAD
1000
MTEXTBEGIN
1070
    73
1070
     1
1070
    44
1040
1.0
1070
    74
1070
     0
1000
MTEXTEND
  0
MTEXT
  5
5625
330
1A
100
AcDbEntity
  8
SUNPOU
100
AcDbMText
 10
70368.26008026666
 20
55546.57282834803
 30
0.0
 40
10.5
 41
0.0
 71
     1
 72
     5
  1

1001
ACAD
1000
MTEXTBEGIN
1070
    73
1070
     1
1070
    44
1040
1.0
1070
    74
1070
     0
1000
MTEXTEND
  0
MTEXT
  5
5626
330
1A
100
AcDbEntity
  8
SUNPOU
100
AcDbMText
 10
62437.33688433072
 20
54599.77969443508
 30
0.0
 40
10.5
 41
0.0
 71
     7
 72
     5
  1

1001
ACAD
1000
MTEXTBEGIN
1070
    73
1070
     1
1070
    44
1040
1.0
1070
    74
1070
     0
1000
MTEXTEND
  0
MTEXT
  5
5627
330
1A
100
AcDbEntity
  8
SUNPOU
100
AcDbMText
 10
65386.32054884349
 20
59500.45576627792
 30
0.0
 40
10.5
 41
0.0
 71
     7
 72
     5
  1

1001
ACAD
1000
MTEXTBEGIN
1070
    73
1070
     1
1070
    44
1040
1.0
1070
    74
1070
     0
1000
MTEXTEND
  0
MTEXT
  5
5628
330
1A
100
AcDbEntity
  8
SUNPOU
100
AcDbMText
 10
69895.39867679405
 20
61936.756513898
 30
0.0
 40
10.5
 41
0.0
 71
     7
 72
     5
  1

1001
ACAD
1000
MTEXTBEGIN
1070
    73
1070
     1
1070
    44
1040
1.0
1070
    74
1070
     0
1000
MTEXTEND
  0
MTEXT
  5
5629
330
1A
100
AcDbEntity
  8
SUNPOU
100
AcDbMText
 10
53496.23656356237
 20
40934.35266428691
 30
0.0
 40
10.5
 41
0.0
 71
     7
 72
     5
  1

1001
ACAD
1000
MTEXTBEGIN
1070
    73
1070
     1
1070
    44
1040
1.0
1070
    74
1070
     0
1000
MTEXTEND
  0
MTEXT
  5
562A
330
1A
100
AcDbEntity
  8
SUNPOU
100
AcDbMText
 10
55306.99947493731
 20
47261.76665176547
 30
0.0
 40
10.5
 41
0.0
 71
     9
 72
     5
  1

1001
ACAD
1000
MTEXTBEGIN
1070
    73
1070
     1
1070
    44
1040
1.0
1070
    74
1070
     0
1000
MTEXTEND
  0
MTEXT
  5
562B
330
1A
100
AcDbEntity
  8
SUNPOU
100
AcDbMText
 10
64029.16704085528
 20
54677.60118330295
 30
0.0
 40
10.5
 41
0.0
 71
     9
 72
     5
  1

1001
ACAD
1000
MTEXTBEGIN
1070
    73
1070
     1
1070
    44
1040
1.0
1070
    74
1070
     0
1000
MTEXTEND
  0
MTEXT
  5
562C
330
1A
100
AcDbEntity
  8
SUNPOU
100
AcDbMText
 10
82982.92575818527
 20
72144.17723579499
 30
0.0
 40
10.5
 41
0.0
 71
     9
 72
     5
  1

1001
ACAD
1000
MTEXTBEGIN
1070
    73
1070
     1
1070
    44
1040
1.0
1070
    74
1070
     0
1000
MTEXTEND
  0
MTEXT
  5
562D
330
1A
100
AcDbEntity
  8
SUNPOU
100
AcDbMText
 10
84926.33300489467
 20
70343.12815591698
 30
0.0
 40
3.5
 41
0.0
 71
     9
 72
     5
  1

1001
ACAD
1000
MTEXTBEGIN
1070
    73
1070
     1
1070
    44
1040
1.0
1070
    74
1070
     0
1000
MTEXTEND
  0
MTEXT
  5
562E
330
1A
100
AcDbEntity
  8
SUNPOU
100
AcDbMText
 10
116052.5128375143
 20
112838.0738235743
 30
0.0
 40
10.5
 41
0.0
 71
     9
 72
     5
  1

1001
ACAD
1000
MTEXTBEGIN
1070
    73
1070
     1
1070
    44
1040
1.0
1070
    74
1070
     0
1000
MTEXTEND
  0
MTEXT
  5
562F
330
1A
100
AcDbEntity
  8
SUNPOU
100
AcDbMText
 10
117995.9200842238
 20
111037.0247436963
 30
0.0
 40
3.5
 41
0.0
 71
     9
 72
     5
  1

1001
ACAD
1000
MTEXTBEGIN
1070
    73
1070
     1
1070
    44
1040
1.0
1070
    74
1070
     0
1000
MTEXTEND
  0
MTEXT
  5
5630
330
1A
100
AcDbEntity
  8
SUNPOU
100
AcDbMText
 10
66492.78054330994
 20
58671.23897854939
 30
0.0
 40
10.5
 41
0.0
 71
     9
 72
     5
  1

1001
ACAD
1000
MTEXTBEGIN
1070
    73
1070
     1
1070
    44
1040
1.0
1070
    74
1070
     0
1000
MTEXTEND
  0
MTEXT
  5
5631
330
1A
100
AcDbEntity
  8
SUNPOU
100
AcDbMText
 10
52544.78044293396
 20
39498.83983943717
 30
0.0
 40
3.5
 41
0.0
 71
     7
 72
     5
  1

1001
ACAD
1000
MTEXTBEGIN
1070
    73
1070
     1
1070
    44
1040
1.0
1070
    74
1070
     0
1000
MTEXTEND
  0
MTEXT
  5
5632
330
1A
100
AcDbEntity
  8
SUNPOU
100
AcDbMText
 10
66237.13112570454
 20
48857.90306045851
 30
0.0
 40
10.5
 41
0.0
 71
     9
 72
     5
  1

1001
ACAD
1000
MTEXTBEGIN
1070
    73
1070
     1
1070
    44
1040
1.0
1070
    74
1070
     0
1000
MTEXTEND
  0
MTEXT
  5
5633
330
1A
100
AcDbEntity
  8
SUNPOU
100
AcDbMText
 10
74959.29869162252
 20
56273.737591996
 30
0.0
 40
10.5
 41
0.0
 71
     9
 72
     5
  1

1001
ACAD
1000
MTEXTBEGIN
1070
    73
1070
     1
1070
    44
1040
1.0
1070
    74
1070
     0
1000
MTEXTEND
  0
MTEXT
  5
5634
330
1A
100
AcDbEntity
  8
SUNPOU
100
AcDbMText
 10
93913.0574089525
 20
73740.31364448805
 30
0.0
 40
10.5
 41
0.0
 71
     9
 72
     5
  1

1001
ACAD
1000
MTEXTBEGIN
1070
    73
1070
     1
1070
    44
1040
1.0
1070
    74
1070
     0
1000
MTEXTEND
  0
MTEXT
  5
5635
330
1A
100
AcDbEntity
  8
SUNPOU
100
AcDbMText
 10
95856.46465566192
 20
71939.26456461004
 30
0.0
 40
3.5
 41
0.0
 71
     9
 72
     5
  1

1001
ACAD
1000
MTEXTBEGIN
1070
    73
1070
     1
1070
    44
1040
1.0
1070
    74
1070
     0
1000
MTEXTEND
  0
MTEXT
  5
5636
330
1A
100
AcDbEntity
  8
SUNPOU
100
AcDbMText
 10
126982.6444882816
 20
114434.2102322673
 30
0.0
 40
10.5
 41
0.0
 71
     9
 72
     5
  1

1001
ACAD
1000
MTEXTBEGIN
1070
    73
1070
     1
1070
    44
1040
1.0
1070
    74
1070
     0
1000
MTEXTEND
  0
MTEXT
  5
5637
330
1A
100
AcDbEntity
  8
SUNPOU
100
AcDbMText
 10
128926.051734991
 20
112633.1611523893
 30
0.0
 40
3.5
 41
0.0
 71
     9
 72
     5
  1

1001
ACAD
1000
MTEXTBEGIN
1070
    73
1070
     1
1070
    44
1040
1.0
1070
    74
1070
     0
1000
MTEXTEND
  0
MTEXT
  5
5638
330
1A
100
AcDbEntity
  8
SUNPOU
100
AcDbMText
 10
77422.91219407717
 20
60267.37538724244
 30
0.0
 40
10.5
 41
0.0
 71
     9
 72
     5
  1

1001
ACAD
1000
MTEXTBEGIN
1070
    73
1070
     1
1070
    44
1040
1.0
1070
    74
1070
     0
1000
MTEXTEND
  0
MTEXT
  5
5639
330
1A
100
AcDbEntity
  8
SUNPOU
100
AcDbMText
 10
63474.91209370119
 20
41094.97624813023
 30
0.0
 40
3.5
 41
0.0
 71
     7
 72
     5
  1

1001
ACAD
1000
MTEXTBEGIN
1070
    73
1070
     1
1070
    44
1040
1.0
1070
    74
1070
     0
1000
MTEXTEND
  0
MTEXT
  5
563A
330
1A
100
AcDbEntity
  8
SUNPOU
100
AcDbMText
 10
48117.65086229006
 20
40806.11043916631
 30
0.0
 40
10.5
 41
0.0
 71
     9
 72
     5
  1

1001
ACAD
1000
MTEXTBEGIN
1070
    73
1070
     1
1070
    44
1040
1.0
1070
    74
1070
     0
1000
MTEXTEND
  0
MTEXT
  5
563B
330
1A
100
AcDbEntity
  8
SUNPOU
100
AcDbMText
 10
67071.40957962004
 20
58272.68649165837
 30
0.0
 40
10.5
 41
0.0
 71
     9
 72
     5
  1

1001
ACAD
1000
MTEXTBEGIN
1070
    73
1070
     1
1070
    44
1040
1.0
1070
    74
1070
     0
1000
MTEXTEND
  0
MTEXT
  5
563C
330
1A
100
AcDbEntity
  8
SUNPOU
100
AcDbMText
 10
69014.81682632945
 20
56471.63741178035
 30
0.0
 40
3.5
 41
0.0
 71
     9
 72
     5
  1

1001
ACAD
1000
MTEXTBEGIN
1070
    73
1070
     1
1070
    44
1040
1.0
1070
    74
1070
     0
1000
MTEXTEND
  0
MTEXT
  5
563D
330
1A
100
AcDbEntity
  8
SUNPOU
100
AcDbMText
 10
100140.9966589491
 20
98966.58307943772
 30
0.0
 40
10.5
 41
0.0
 71
     9
 72
     5
  1

1001
ACAD
1000
MTEXTBEGIN
1070
    73
1070
     1
1070
    44
1040
1.0
1070
    74
1070
     0
1000
MTEXTEND
  0
MTEXT
  5
563E
330
1A
100
AcDbEntity
  8
SUNPOU
100
AcDbMText
 10
102084.4039056586
 20
97165.53399955969
 30
0.0
 40
3.5
 41
0.0
 71
     9
 72
     5
  1

1001
ACAD
1000
MTEXTBEGIN
1070
    73
1070
     1
1070
    44
1040
1.0
1070
    74
1070
     0
1000
MTEXTEND
  0
MTEXT
  5
563F
330
1A
100
AcDbEntity
  8
SUNPOU
100
AcDbMText
 10
50581.26436474472
 20
44799.74823441275
 30
0.0
 40
10.5
 41
0.0
 71
     9
 72
     5
  1

1001
ACAD
1000
MTEXTBEGIN
1070
    73
1070
     1
1070
    44
1040
1.0
1070
    74
1070
     0
1000
MTEXTEND
  0
MTEXT
  5
5640
330
1A
100
AcDbEntity
  8
SUNPOU
100
AcDbMText
 10
36633.26426436873
 20
25627.34909530054
 30
0.0
 40
3.5
 41
0.0
 71
     7
 72
     5
  1

1001
ACAD
1000
MTEXTBEGIN
1070
    73
1070
     1
1070
    44
1040
1.0
1070
    74
1070
     0
1000
MTEXTEND
  0
MTEXT
  5
5641
330
1A
100
AcDbEntity
  8
SUNPOU
100
AcDbMText
 10
61069.42493315968
 20
52574.61207825771
 30
0.0
 40
10.5
 41
0.0
 71
     9
 72
     5
  1

1001
ACAD
1000
MTEXTBEGIN
1070
    73
1070
     1
1070
    44
1040
1.0
1070
    74
1070
     0
1000
MTEXTEND
  0
MTEXT
  5
5642
330
1A
100
AcDbEntity
  8
SUNPOU
100
AcDbMText
 10
80023.18365048967
 20
70041.18813074978
 30
0.0
 40
10.5
 41
0.0
 71
     9
 72
     5
  1

1001
ACAD
1000
MTEXTBEGIN
1070
    73
1070
     1
1070
    44
1040
1.0
1070
    74
1070
     0
1000
MTEXTEND
  0
MTEXT
  5
5643
330
1A
100
AcDbEntity
  8
SUNPOU
100
AcDbMText
 10
81966.59089719908
 20
68240.13905087176
 30
0.0
 40
3.5
 41
0.0
 71
     9
 72
     5
  1

1001
ACAD
1000
MTEXTBEGIN
1070
    73
1070
     1
1070
    44
1040
1.0
1070
    74
1070
     0
1000
MTEXTEND
  0
MTEXT
  5
5644
330
1A
100
AcDbEntity
  8
SUNPOU
100
AcDbMText
 10
113092.7707298187
 20
110735.0847185291
 30
0.0
 40
10.5
 41
0.0
 71
     9
 72
     5
  1

1001
ACAD
1000
MTEXTBEGIN
1070
    73
1070
     1
1070
    44
1040
1.0
1070
    74
1070
     0
1000
MTEXTEND
  0
MTEXT
  5
5645
330
1A
100
AcDbEntity
  8
SUNPOU
100
AcDbMText
 10
115036.1779765282
 20
108934.0356386511
 30
0.0
 40
3.5
 41
0.0
 71
     9
 72
     5
  1

1001
ACAD
1000
MTEXTBEGIN
1070
    73
1070
     1
1070
    44
1040
1.0
1070
    74
1070
     0
1000
MTEXTEND
  0
MTEXT
  5
5646
330
1A
100
AcDbEntity
  8
SUNPOU
100
AcDbMText
 10
63533.03843561433
 20
56568.24987350415
 30
0.0
 40
10.5
 41
0.0
 71
     9
 72
     5
  1

1001
ACAD
1000
MTEXTBEGIN
1070
    73
1070
     1
1070
    44
1040
1.0
1070
    74
1070
     0
1000
MTEXTEND
  0
MTEXT
  5
5647
330
1A
100
AcDbEntity
  8
SUNPOU
100
AcDbMText
 10
49585.03833523835
 20
37395.85073439196
 30
0.0
 40
3.5
 41
0.0
 71
     7
 72
     5
  1

1001
ACAD
1000
MTEXTBEGIN
1070
    73
1070
     1
1070
    44
1040
1.0
1070
    74
1070
     0
1000
MTEXTEND
  0
MTEXT
  5
5648
330
1A
100
AcDbEntity
  8
SUNPOU
100
AcDbMText
 10
77137.31641337052
 20
70907.11375048141
 30
0.0
 40
10.5
 41
0.0
 71
     9
 72
     5
  1

1001
ACAD
1000
MTEXTBEGIN
1070
    73
1070
     1
1070
    44
1040
1.0
1070
    74
1070
     0
1000
MTEXTEND
  0
MTEXT
  5
5649
330
1A
100
AcDbEntity
  8
SUNPOU
100
AcDbMText
 10
79080.72366007995
 20
69106.06467060339
 30
0.0
 40
3.5
 41
0.0
 71
     9
 72
     5
  1

1001
ACAD
1000
MTEXTBEGIN
1070
    73
1070
     1
1070
    44
1040
1.0
1070
    74
1070
     0
1000
MTEXTEND
  0
MTEXT
  5
564A
330
1A
100
AcDbEntity
  8
SUNPOU
100
AcDbMText
 10
110206.9034926996
 20
111601.0103382607
 30
0.0
 40
10.5
 41
0.0
 71
     9
 72
     5
  1

1001
ACAD
1000
MTEXTBEGIN
1070
    73
1070
     1
1070
    44
1040
1.0
1070
    74
1070
     0
1000
MTEXTEND
  0
MTEXT
  5
564B
330
1A
100
AcDbEntity
  8
SUNPOU
100
AcDbMText
 10
112150.310739409
 20
109799.9612583827
 30
0.0
 40
3.5
 41
0.0
 71
     9
 72
     5
  1

1001
ACAD
1000
MTEXTBEGIN
1070
    73
1070
     1
1070
    44
1040
1.0
1070
    74
1070
     0
1000
MTEXTEND
  0
MTEXT
  5
564C
330
1A
100
AcDbEntity
  8
SUNPOU
100
AcDbMText
 10
108819.1333204968
 20
110677.9087286761
 30
0.0
 40
10.5
 41
0.0
 71
     9
 72
     5
  1

1001
ACAD
1000
MTEXTBEGIN
1070
    73
1070
     1
1070
    44
1040
1.0
1070
    74
1070
     0
1000
MTEXTEND
  0
MTEXT
  5
564D
330
1A
100
AcDbEntity
  8
SUNPOU
100
AcDbMText
 10
110762.5405672062
 20
108876.8596487981
 30
0.0
 40
3.5
 41
0.0
 71
     9
 72
     5
  1

1001
ACAD
1000
MTEXTBEGIN
1070
    73
1070
     1
1070
    44
1040
1.0
1070
    74
1070
     0
1000
MTEXTEND
  0
MTEXT
  5
564E
330
1A
100
AcDbEntity
  8
SUNPOU
100
AcDbMText
 10
76303.05507956816
 20
68695.31179059812
 30
0.0
 40
10.5
 41
0.0
 71
     9
 72
     5
  1

1001
ACAD
1000
MTEXTBEGIN
1070
    73
1070
     1
1070
    44
1040
1.0
1070
    74
1070
     0
1000
MTEXTEND
  0
MTEXT
  5
564F
330
1A
100
AcDbEntity
  8
SUNPOU
100
AcDbMText
 10
79026.36128373271
 20
69099.99348217918
 30
0.0
 40
3.5
 41
0.0
 71
     9
 72
     5
  1

1001
ACAD
1000
MTEXTBEGIN
1070
    73
1070
     1
1070
    44
1040
1.0
1070
    74
1070
     0
1000
MTEXTEND
  0
MTEXT
  5
5650
330
1A
100
AcDbEntity
  8
SUNPOU
100
AcDbMText
 10
78234.00675862522
 20
65938.68764412436
 30
0.0
 40
10.5
 41
0.0
 71
     9
 72
     5
  1

1001
ACAD
1000
MTEXTBEGIN
1070
    73
1070
     1
1070
    44
1040
1.0
1070
    74
1070
     0
1000
MTEXTEND
  0
MTEXT
  5
5651
330
1A
100
AcDbEntity
  8
SUNPOU
100
AcDbMText
 10
80177.41400533465
 20
64137.63856424636
 30
0.0
 40
3.5
 41
0.0
 71
     9
 72
     5
  1

1001
ACAD
1000
MTEXTBEGIN
1070
    73
1070
     1
1070
    44
1040
1.0
1070
    74
1070
     0
1000
MTEXTEND
  0
MTEXT
  5
5652
330
1A
100
AcDbEntity
  8
SUNPOU
100
AcDbMText
 10
80122.50949592123
 20
64024.86668196205
 30
0.0
 40
3.5
 41
0.0
 71
     9
 72
     5
  1

1001
ACAD
1000
MTEXTBEGIN
1070
    73
1070
     1
1070
    44
1040
1.0
1070
    74
1070
     0
1000
MTEXTEND
  0
MTEXT
  5
5653
330
1A
100
AcDbEntity
  8
SUNPOU
100
AcDbMText
 10
79486.58135950133
 20
63213.54544089553
 30
0.0
 40
3.5
 41
0.0
 71
     9
 72
     5
  1

1001
ACAD
1000
MTEXTBEGIN
1070
    73
1070
     1
1070
    44
1040
1.0
1070
    74
1070
     0
1000
MTEXTEND
  0
MTEXT
  5
5654
330
1A
100
AcDbEntity
  8
SUNPOU
100
AcDbMText
 10
79485.3409400806
 20
63213.29746395804
 30
0.0
 40
10.5
 41
0.0
 71
     9
 72
     5
  1

1001
ACAD
1000
MTEXTBEGIN
1070
    73
1070
     1
1070
    44
1040
1.0
1070
    74
1070
     0
1000
MTEXTEND
  0
MTEXT
  5
5655
330
1A
100
AcDbEntity
  8
SUNPOU
100
AcDbMText
 10
85473.63363627567
 20
80747.76348077064
 30
0.0
 40
10.5
 41
0.0
 71
     9
 72
     5
  1

1001
ACAD
1000
MTEXTBEGIN
1070
    73
1070
     1
1070
    44
1040
1.0
1070
    74
1070
     0
1000
MTEXTEND
  0
MTEXT
  5
5656
330
1A
100
AcDbEntity
  8
SUNPOU
100
AcDbMText
 10
94195.80120219368
 20
88163.59801230809
 30
0.0
 40
10.5
 41
0.0
 71
     9
 72
     5
  1

1001
ACAD
1000
MTEXTBEGIN
1070
    73
1070
     1
1070
    44
1040
1.0
1070
    74
1070
     0
1000
MTEXTEND
  0
MTEXT
  5
5657
330
1A
100
AcDbEntity
  8
SUNPOU
100
AcDbMText
 10
113149.5599195236
 20
105630.1740648001
 30
0.0
 40
10.5
 41
0.0
 71
     9
 72
     5
  1

1001
ACAD
1000
MTEXTBEGIN
1070
    73
1070
     1
1070
    44
1040
1.0
1070
    74
1070
     0
1000
MTEXTEND
  0
MTEXT
  5
5658
330
1A
100
AcDbEntity
  8
SUNPOU
100
AcDbMText
 10
115092.967166233
 20
103829.1249849221
 30
0.0
 40
3.5
 41
0.0
 71
     9
 72
     5
  1

1001
ACAD
1000
MTEXTBEGIN
1070
    73
1070
     1
1070
    44
1040
1.0
1070
    74
1070
     0
1000
MTEXTEND
  0
MTEXT
  5
5659
330
1A
100
AcDbEntity
  8
SUNPOU
100
AcDbMText
 10
146219.1469988527
 20
146324.0706525794
 30
0.0
 40
10.5
 41
0.0
 71
     9
 72
     5
  1

1001
ACAD
1000
MTEXTBEGIN
1070
    73
1070
     1
1070
    44
1040
1.0
1070
    74
1070
     0
1000
MTEXTEND
  0
MTEXT
  5
565A
330
1A
100
AcDbEntity
  8
SUNPOU
100
AcDbMText
 10
148162.5542455621
 20
144523.0215727014
 30
0.0
 40
3.5
 41
0.0
 71
     9
 72
     5
  1

1001
ACAD
1000
MTEXTBEGIN
1070
    73
1070
     1
1070
    44
1040
1.0
1070
    74
1070
     0
1000
MTEXTEND
  0
MTEXT
  5
565B
330
1A
100
AcDbEntity
  8
SUNPOU
100
AcDbMText
 10
96659.41470464833
 20
92157.23580755453
 30
0.0
 40
10.5
 41
0.0
 71
     9
 72
     5
  1

1001
ACAD
1000
MTEXTBEGIN
1070
    73
1070
     1
1070
    44
1040
1.0
1070
    74
1070
     0
1000
MTEXTEND
  0
MTEXT
  5
565C
330
1A
100
AcDbEntity
  8
SUNPOU
100
AcDbMText
 10
82711.41460427234
 20
72984.83666844234
 30
0.0
 40
3.5
 41
0.0
 71
     7
 72
     5
  1

1001
ACAD
1000
MTEXTBEGIN
1070
    73
1070
     1
1070
    44
1040
1.0
1070
    74
1070
     0
1000
MTEXTEND
  0
MTEXT
  5
565D
330
1A
100
AcDbEntity
  8
SUNPOU
100
AcDbMText
 10
63696.58400126548
 20
60746.98539926055
 30
0.0
 40
10.5
 41
0.0
 71
     7
 72
     5
  1

1001
ACAD
1000
MTEXTBEGIN
1070
    73
1070
     1
1070
    44
1040
1.0
1070
    74
1070
     0
1000
MTEXTEND
  0
MTEXT
  5
565E
330
1A
100
AcDbEntity
  8
SUNPOU
100
AcDbMText
 10
51239.35573631738
 20
44902.05382116213
 30
0.0
 40
35.0
 41
0.0
 71
     9
 72
     5
  1

1001
ACAD
1000
MTEXTBEGIN
1070
    73
1070
     1
1070
    44
1040
1.0
1070
    74
1070
     0
1000
MTEXTEND
  0
MTEXT
  5
565F
330
1A
100
AcDbEntity
  8
SUNPOU
100
AcDbMText
 10
50147.84079389233
 20
45510.82923121084
 30
0.0
 40
350.0000004171781
 41
0.0
 71
     7
 72
     5
  1

1001
ACAD
1000
MTEXTBEGIN
1070
    73
1070
     1
1070
    44
1040
1.0
1070
    74
1070
     0
1000
MTEXTEND
  0
MTEXT
  5
5660
330
1A
100
AcDbEntity
  8
0
100
AcDbMText
 10
56191.79155183523
 20
43490.75159334705
 30
0.0
 40
8.0
 41
0.0
 71
     7
 72
     5
  1

1001
ACAD
1000
MTEXTBEGIN
1070
    73
1070
     1
1070
    44
1040
1.0
1070
    74
1070
     0
1000
MTEXTEND
  0
MTEXT
  5
5661
330
1A
100
AcDbEntity
  8
0
100
AcDbMText
 10
58477.14924173013
 20
44461.54188809812
 30
0.0
 40
8.0
 41
0.0
 71
     7
 72
     5
  1

1001
ACAD
1000
MTEXTBEGIN
1070
    73
1070
     1
1070
    44
1040
1.0
1070
    74
1070
     0
1000
MTEXTEND
  0
MTEXT
  5
5662
330
1A
100
AcDbEntity
  8
SUNPOU
100
AcDbMText
 10
61143.04626241227
 20
53973.65328047324
 30
0.0
 40
10.5
 41
0.0
 71
     1
 72
     5
  1

1001
ACAD
1000
MTEXTBEGIN
1070
    73
1070
     1
1070
    44
1040
1.0
1070
    74
1070
     0
1000
MTEXTEND
  0
MTEXT
  5
5663
330
1A
100
AcDbEntity
  8
SUNPOU
100
AcDbMText
 10
53212.12306647634
 20
53026.86014656028
 30
0.0
 40
10.5
 41
0.0
 71
     7
 72
     5
  1

1001
ACAD
1000
MTEXTBEGIN
1070
    73
1070
     1
1070
    44
1040
1.0
1070
    74
1070
     0
1000
MTEXTEND
  0
MTEXT
  5
5664
330
1A
100
AcDbEntity
  8
SUNPOU
100
AcDbMText
 10
56161.1067309891
 20
57927.53621840312
 30
0.0
 40
10.5
 41
0.0
 71
     7
 72
     5
  1

1001
ACAD
1000
MTEXTBEGIN
1070
    73
1070
     1
1070
    44
1040
1.0
1070
    74
1070
     0
1000
MTEXTEND
  0
MTEXT
  5
5665
330
1A
100
AcDbEntity
  8
SUNPOU
100
AcDbMText
 10
60670.18485893966
 20
60363.8369660232
 30
0.0
 40
10.5
 41
0.0
 71
     7
 72
     5
  1

1001
ACAD
1000
MTEXTBEGIN
1070
    73
1070
     1
1070
    44
1040
1.0
1070
    74
1070
     0
1000
MTEXTEND
  0
MTEXT
  5
5666
330
1A
100
AcDbEntity
  8
SUNPOU
100
AcDbMText
 10
44271.02274570799
 20
39361.43311641212
 30
0.0
 40
10.5
 41
0.0
 71
     7
 72
     5
  1

1001
ACAD
1000
MTEXTBEGIN
1070
    73
1070
     1
1070
    44
1040
1.0
1070
    74
1070
     0
1000
MTEXTEND
  0
MTEXT
  5
5667
330
1A
100
AcDbEntity
  8
SUNPOU
100
AcDbMText
 10
95462.54117960824
 20
85034.41368006038
 30
0.0
 40
10.5
 41
0.0
 71
     9
 72
     5
  1

1001
ACAD
1000
MTEXTBEGIN
1070
    73
1070
     1
1070
    44
1040
1.0
1070
    74
1070
     0
1000
MTEXTEND
  0
MTEXT
  5
5668
330
1A
100
AcDbEntity
  8
SUNPOU
100
AcDbMText
 10
104184.7087455262
 20
92450.24821159784
 30
0.0
 40
10.5
 41
0.0
 71
     9
 72
     5
  1

1001
ACAD
1000
MTEXTBEGIN
1070
    73
1070
     1
1070
    44
1040
1.0
1070
    74
1070
     0
1000
MTEXTEND
  0
MTEXT
  5
5669
330
1A
100
AcDbEntity
  8
SUNPOU
100
AcDbMText
 10
123138.4674628562
 20
109916.8242640898
 30
0.0
 40
10.5
 41
0.0
 71
     9
 72
     5
  1

1001
ACAD
1000
MTEXTBEGIN
1070
    73
1070
     1
1070
    44
1040
1.0
1070
    74
1070
     0
1000
MTEXTEND
  0
MTEXT
  5
566A
330
1A
100
AcDbEntity
  8
SUNPOU
100
AcDbMText
 10
125081.8747095656
 20
108115.7751842118
 30
0.0
 40
3.5
 41
0.0
 71
     9
 72
     5
  1

1001
ACAD
1000
MTEXTBEGIN
1070
    73
1070
     1
1070
    44
1040
1.0
1070
    74
1070
     0
1000
MTEXTEND
  0
MTEXT
  5
566B
330
1A
100
AcDbEntity
  8
SUNPOU
100
AcDbMText
 10
156208.0545421853
 20
150610.7208518691
 30
0.0
 40
10.5
 41
0.0
 71
     9
 72
     5
  1

1001
ACAD
1000
MTEXTBEGIN
1070
    73
1070
     1
1070
    44
1040
1.0
1070
    74
1070
     0
1000
MTEXTEND
  0
MTEXT
  5
566C
330
1A
100
AcDbEntity
  8
SUNPOU
100
AcDbMText
 10
158151.4617888947
 20
148809.6717719911
 30
0.0
 40
3.5
 41
0.0
 71
     9
 72
     5
  1

1001
ACAD
1000
MTEXTBEGIN
1070
    73
1070
     1
1070
    44
1040
1.0
1070
    74
1070
     0
1000
MTEXTEND
  0
MTEXT
  5
566D
330
1A
100
AcDbEntity
  8
SUNPOU
100
AcDbMText
 10
106648.3222479809
 20
96443.88600684427
 30
0.0
 40
10.5
 41
0.0
 71
     9
 72
     5
  1

1001
ACAD
1000
MTEXTBEGIN
1070
    73
1070
     1
1070
    44
1040
1.0
1070
    74
1070
     0
1000
MTEXTEND
  0
MTEXT
  5
566E
330
1A
100
AcDbEntity
  8
SUNPOU
100
AcDbMText
 10
92700.3221476049
 20
77271.48686773207
 30
0.0
 40
3.5
 41
0.0
 71
     7
 72
     5
  1

1001
ACAD
1000
MTEXTBEGIN
1070
    73
1070
     1
1070
    44
1040
1.0
1070
    74
1070
     0
1000
MTEXTEND
  0
MTEXT
  5
566F
330
1A
100
AcDbEntity
  8
SUNPOU
100
AcDbMText
 10
73685.49154459806
 20
65033.63559855027
 30
0.0
 40
10.5
 41
0.0
 71
     7
 72
     5
  1

1001
ACAD
1000
MTEXTBEGIN
1070
    73
1070
     1
1070
    44
1040
1.0
1070
    74
1070
     0
1000
MTEXTEND
  0
MTEXT
  5
5670
330
1A
100
AcDbEntity
  8
SUNPOU
100
AcDbMText
 10
61228.26327964995
 20
49188.70402045185
 30
0.0
 40
35.0
 41
0.0
 71
     9
 72
     5
  1

1001
ACAD
1000
MTEXTBEGIN
1070
    73
1070
     1
1070
    44
1040
1.0
1070
    74
1070
     0
1000
MTEXTEND
  0
MTEXT
  5
5671
330
1A
100
AcDbEntity
  8
SUNPOU
100
AcDbMText
 10
60136.74833722491
 20
49797.47943050056
 30
0.0
 40
350.0000004171781
 41
0.0
 71
     7
 72
     5
  1

1001
ACAD
1000
MTEXTBEGIN
1070
    73
1070
     1
1070
    44
1040
1.0
1070
    74
1070
     0
1000
MTEXTEND
  0
MTEXT
  5
5672
330
1A
100
AcDbEntity
  8
0
100
AcDbMText
 10
66180.69909516782
 20
47777.40179263678
 30
0.0
 40
8.0
 41
0.0
 71
     7
 72
     5
  1

1001
ACAD
1000
MTEXTBEGIN
1070
    73
1070
     1
1070
    44
1040
1.0
1070
    74
1070
     0
1000
MTEXTEND
  0
MTEXT
  5
5673
330
1A
100
AcDbEntity
  8
0
100
AcDbMText
 10
68466.05678506271
 20
48748.19208738784
 30
0.0
 40
8.0
 41
0.0
 71
     7
 72
     5
  1

1001
ACAD
1000
MTEXTBEGIN
1070
    73
1070
     1
1070
    44
1040
1.0
1070
    74
1070
     0
1000
MTEXTEND
  0
MTEXT
  5
5674
330
1A
100
AcDbEntity
  8
SUNPOU
100
AcDbMText
 10
71131.95380574485
 20
58260.30347976296
 30
0.0
 40
10.5
 41
0.0
 71
     1
 72
     5
  1

1001
ACAD
1000
MTEXTBEGIN
1070
    73
1070
     1
1070
    44
1040
1.0
1070
    74
1070
     0
1000
MTEXTEND
  0
MTEXT
  5
5675
330
1A
100
AcDbEntity
  8
SUNPOU
100
AcDbMText
 10
63201.03060980891
 20
57313.51034585002
 30
0.0
 40
10.5
 41
0.0
 71
     7
 72
     5
  1

1001
ACAD
1000
MTEXTBEGIN
1070
    73
1070
     1
1070
    44
1040
1.0
1070
    74
1070
     0
1000
MTEXTEND
  0
MTEXT
  5
5676
330
1A
100
AcDbEntity
  8
SUNPOU
100
AcDbMText
 10
66150.01427432169
 20
62214.18641769286
 30
0.0
 40
10.5
 41
0.0
 71
     7
 72
     5
  1

1001
ACAD
1000
MTEXTBEGIN
1070
    73
1070
     1
1070
    44
1040
1.0
1070
    74
1070
     0
1000
MTEXTEND
  0
MTEXT
  5
5677
330
1A
100
AcDbEntity
  8
SUNPOU
100
AcDbMText
 10
70659.09240227225
 20
64650.48716531294
 30
0.0
 40
10.5
 41
0.0
 71
     7
 72
     5
  1

1001
ACAD
1000
MTEXTBEGIN
1070
    73
1070
     1
1070
    44
1040
1.0
1070
    74
1070
     0
1000
MTEXTEND
  0
MTEXT
  5
5678
330
1A
100
AcDbEntity
  8
SUNPOU
100
AcDbMText
 10
54259.93028904056
 20
43648.08331570185
 30
0.0
 40
10.5
 41
0.0
 71
     7
 72
     5
  1

1001
ACAD
1000
MTEXTBEGIN
1070
    73
1070
     1
1070
    44
1040
1.0
1070
    74
1070
     0
1000
MTEXTEND
  0
MTEXT
  5
5679
330
1A
100
AcDbEntity
  8
SUNPOU
100
AcDbMText
 10
56070.69320041551
 20
49975.4973031804
 30
0.0
 40
10.5
 41
0.0
 71
     9
 72
     5
  1

1001
ACAD
1000
MTEXTBEGIN
1070
    73
1070
     1
1070
    44
1040
1.0
1070
    74
1070
     0
1000
MTEXTEND
  0
MTEXT
  5
567A
330
1A
100
AcDbEntity
  8
SUNPOU
100
AcDbMText
 10
64792.86076633348
 20
57391.33183471788
 30
0.0
 40
10.5
 41
0.0
 71
     9
 72
     5
  1

1001
ACAD
1000
MTEXTBEGIN
1070
    73
1070
     1
1070
    44
1040
1.0
1070
    74
1070
     0
1000
MTEXTEND
  0
MTEXT
  5
567B
330
1A
100
AcDbEntity
  8
SUNPOU
100
AcDbMText
 10
83746.61948366345
 20
74857.90788720994
 30
0.0
 40
10.5
 41
0.0
 71
     9
 72
     5
  1

1001
ACAD
1000
MTEXTBEGIN
1070
    73
1070
     1
1070
    44
1040
1.0
1070
    74
1070
     0
1000
MTEXTEND
  0
MTEXT
  5
567C
330
1A
100
AcDbEntity
  8
SUNPOU
100
AcDbMText
 10
85690.02673037287
 20
73056.85880733192
 30
0.0
 40
3.5
 41
0.0
 71
     9
 72
     5
  1

1001
ACAD
1000
MTEXTBEGIN
1070
    73
1070
     1
1070
    44
1040
1.0
1070
    74
1070
     0
1000
MTEXTEND
  0
MTEXT
  5
567D
330
1A
100
AcDbEntity
  8
SUNPOU
100
AcDbMText
 10
116816.2065629925
 20
115551.8044749892
 30
0.0
 40
10.5
 41
0.0
 71
     9
 72
     5
  1

1001
ACAD
1000
MTEXTBEGIN
1070
    73
1070
     1
1070
    44
1040
1.0
1070
    74
1070
     0
1000
MTEXTEND
  0
MTEXT
  5
567E
330
1A
100
AcDbEntity
  8
SUNPOU
100
AcDbMText
 10
118759.613809702
 20
113750.7553951112
 30
0.0
 40
3.5
 41
0.0
 71
     9
 72
     5
  1

1001
ACAD
1000
MTEXTBEGIN
1070
    73
1070
     1
1070
    44
1040
1.0
1070
    74
1070
     0
1000
MTEXTEND
  0
MTEXT
  5
567F
330
1A
100
AcDbEntity
  8
SUNPOU
100
AcDbMText
 10
67256.47426878814
 20
61384.96962996432
 30
0.0
 40
10.5
 41
0.0
 71
     9
 72
     5
  1

1001
ACAD
1000
MTEXTBEGIN
1070
    73
1070
     1
1070
    44
1040
1.0
1070
    74
1070
     0
1000
MTEXTEND
  0
MTEXT
  5
5680
330
1A
100
AcDbEntity
  8
SUNPOU
100
AcDbMText
 10
53308.47416841216
 20
42212.57049085211
 30
0.0
 40
3.5
 41
0.0
 71
     7
 72
     5
  1

1001
ACAD
1000
MTEXTBEGIN
1070
    73
1070
     1
1070
    44
1040
1.0
1070
    74
1070
     0
1000
MTEXTEND
  0
MTEXT
  5
5681
330
1A
100
AcDbEntity
  8
SUNPOU
100
AcDbMText
 10
67000.82485118274
 20
51571.63371187345
 30
0.0
 40
10.5
 41
0.0
 71
     9
 72
     5
  1

1001
ACAD
1000
MTEXTBEGIN
1070
    73
1070
     1
1070
    44
1040
1.0
1070
    74
1070
     0
1000
MTEXTEND
  0
MTEXT
  5
5682
330
1A
100
AcDbEntity
  8
SUNPOU
100
AcDbMText
 10
75722.99241710071
 20
58987.46824341094
 30
0.0
 40
10.5
 41
0.0
 71
     9
 72
     5
  1

1001
ACAD
1000
MTEXTBEGIN
1070
    73
1070
     1
1070
    44
1040
1.0
1070
    74
1070
     0
1000
MTEXTEND
  0
MTEXT
  5
5683
330
1A
100
AcDbEntity
  8
SUNPOU
100
AcDbMText
 10
94676.75113443068
 20
76454.04429590299
 30
0.0
 40
10.5
 41
0.0
 71
     9
 72
     5
  1

1001
ACAD
1000
MTEXTBEGIN
1070
    73
1070
     1
1070
    44
1040
1.0
1070
    74
1070
     0
1000
MTEXTEND
  0
MTEXT
  5
5684
330
1A
100
AcDbEntity
  8
SUNPOU
100
AcDbMText
 10
96620.1583811401
 20
74652.99521602498
 30
0.0
 40
3.5
 41
0.0
 71
     9
 72
     5
  1

1001
ACAD
1000
MTEXTBEGIN
1070
    73
1070
     1
1070
    44
1040
1.0
1070
    74
1070
     0
1000
MTEXTEND
  0
MTEXT
  5
5685
330
1A
100
AcDbEntity
  8
SUNPOU
100
AcDbMText
 10
127746.3382137598
 20
117147.9408836823
 30
0.0
 40
10.5
 41
0.0
 71
     9
 72
     5
  1

1001
ACAD
1000
MTEXTBEGIN
1070
    73
1070
     1
1070
    44
1040
1.0
1070
    74
1070
     0
1000
MTEXTEND
  0
MTEXT
  5
5686
330
1A
100
AcDbEntity
  8
SUNPOU
100
AcDbMText
 10
129689.7454604692
 20
115346.8918038043
 30
0.0
 40
3.5
 41
0.0
 71
     9
 72
     5
  1

1001
ACAD
1000
MTEXTBEGIN
1070
    73
1070
     1
1070
    44
1040
1.0
1070
    74
1070
     0
1000
MTEXTEND
  0
MTEXT
  5
5687
330
1A
100
AcDbEntity
  8
SUNPOU
100
AcDbMText
 10
78186.60591955537
 20
62981.10603865738
 30
0.0
 40
10.5
 41
0.0
 71
     9
 72
     5
  1

1001
ACAD
1000
MTEXTBEGIN
1070
    73
1070
     1
1070
    44
1040
1.0
1070
    74
1070
     0
1000
MTEXTEND
  0
MTEXT
  5
5688
330
1A
100
AcDbEntity
  8
SUNPOU
100
AcDbMText
 10
64238.60581917939
 20
43808.70689954517
 30
0.0
 40
3.5
 41
0.0
 71
     7
 72
     5
  1

1001
ACAD
1000
MTEXTBEGIN
1070
    73
1070
     1
1070
    44
1040
1.0
1070
    74
1070
     0
1000
MTEXTEND
  0
MTEXT
  5
5689
330
1A
100
AcDbEntity
  8
SUNPOU
100
AcDbMText
 10
33428.13481137435
 20
32770.04710035564
 30
0.0
 40
10.5
 41
0.0
 71
     9
 72
     5
  1

1001
ACAD
1000
MTEXTBEGIN
1070
    73
1070
     1
1070
    44
1040
1.0
1070
    74
1070
     0
1000
MTEXTEND
  0
MTEXT
  5
568A
330
1A
100
AcDbEntity
  8
SUNPOU
100
AcDbMText
 10
52381.89352870432
 20
50236.62315284769
 30
0.0
 40
10.5
 41
0.0
 71
     9
 72
     5
  1

1001
ACAD
1000
MTEXTBEGIN
1070
    73
1070
     1
1070
    44
1040
1.0
1070
    74
1070
     0
1000
MTEXTEND
  0
MTEXT
  5
568B
330
1A
100
AcDbEntity
  8
SUNPOU
100
AcDbMText
 10
54325.30077541374
 20
48435.57407296968
 30
0.0
 40
3.5
 41
0.0
 71
     9
 72
     5
  1

1001
ACAD
1000
MTEXTBEGIN
1070
    73
1070
     1
1070
    44
1040
1.0
1070
    74
1070
     0
1000
MTEXTEND
  0
MTEXT
  5
568C
330
1A
100
AcDbEntity
  8
SUNPOU
100
AcDbMText
 10
85451.48060803343
 20
90930.51974062703
 30
0.0
 40
10.5
 41
0.0
 71
     9
 72
     5
  1

1001
ACAD
1000
MTEXTBEGIN
1070
    73
1070
     1
1070
    44
1040
1.0
1070
    74
1070
     0
1000
MTEXTEND
  0
MTEXT
  5
568D
330
1A
100
AcDbEntity
  8
SUNPOU
100
AcDbMText
 10
87394.88785474286
 20
89129.47066074901
 30
0.0
 40
3.5
 41
0.0
 71
     9
 72
     5
  1

1001
ACAD
1000
MTEXTBEGIN
1070
    73
1070
     1
1070
    44
1040
1.0
1070
    74
1070
     0
1000
MTEXTEND
  0
MTEXT
  5
568E
330
1A
100
AcDbEntity
  8
SUNPOU
100
AcDbMText
 10
35891.74831382901
 20
36763.68489560208
 30
0.0
 40
10.5
 41
0.0
 71
     9
 72
     5
  1

1001
ACAD
1000
MTEXTBEGIN
1070
    73
1070
     1
1070
    44
1040
1.0
1070
    74
1070
     0
1000
MTEXTEND
  0
MTEXT
  5
568F
330
1A
100
AcDbEntity
  8
SUNPOU
100
AcDbMText
 10
21943.74821345303
 20
17591.28575648986
 30
0.0
 40
3.5
 41
0.0
 71
     7
 72
     5
  1

1001
ACAD
1000
MTEXTBEGIN
1070
    73
1070
     1
1070
    44
1040
1.0
1070
    74
1070
     0
1000
MTEXTEND
  0
MTEXT
  5
11D07
330
1A
100
AcDbEntity
  8
ZISSEN1
100
AcDbMText
 10
-1611.188889060103
 20
1745.095368753726
 30
0.0
 40
6.0
 41
170.9356999999999
 71
     1
 72
     5
  1
UCD-7610v1/ADB5F30 No.SS0001f84
1001
ACAD
1000
MTEXTBEGIN
1070
    73
1070
     1
1070
    44
1040
1.0
1070
    74
1070
     0
1000
MTEXTEND
  0
LINE
  5
14145
330
1A
100
AcDbEntity
  8
ZISSEN1
100
AcDbLine
 10
-1519.414718201099
 20
1632.35051025722
 30
0.0
 11
-1519.414718201103
 21
1617.300000000047
 31
0.0
  0
LINE
  5
14146
330
1A
100
AcDbEntity
  8
ZISSEN1
100
AcDbLine
 10
-1520.414718201099
 20
1632.35051025722
 30
0.0
 11
-1520.414718201103
 21
1617.300000000047
 31
0.0
  0
CIRCLE
  5
14147
330
1A
100
AcDbEntity
  8
ZISSEN1
100
AcDbCircle
 10
-1519.9147182011
 20
1634.800000000003
 30
0.0
 40
2.5
  0
ARC
  5
14148
330
1A
100
AcDbEntity
  8
ZISSEN1
100
AcDbCircle
 10
-1522.971124302692
 20
1617.999772911772
 30
0.0
 40
1.0
100
AcDbArc
 50
315.5912124848958
 51
0.0
  0
LINE
  5
14149
330
1A
100
AcDbEntity
  8
ZISSEN1
100
AcDbLine
 10
-1516.914718201102
 20
1617.300000000047
 30
0.0
 11
-1516.914718201102
 21
1615.299772911772
 31
0.0
  0
LINE
  5
1414A
330
1A
100
AcDbEntity
  8
ZISSEN1
100
AcDbLine
 10
-1522.9147182011
 20
1617.300000000047
 30
0.0
 11
-1516.914718201102
 21
1617.300000000047
 31
0.0
  0
LINE
  5
1414B
330
1A
100
AcDbEntity
  8
ZISSEN1
100
AcDbLine
 10
-1522.9147182011
 20
1615.299772911772
 30
0.0
 11
-1522.9147182011
 21
1617.300000000047
 31
0.0
  0
LINE
  5
1414C
330
1A
100
AcDbEntity
  8
ZISSEN1
100
AcDbLine
 10
-1596.0
 20
1608.615
 30
0.0
 11
-1595.00010961298
 21
1608.615
 31
0.0
  0
LINE
  5
1414D
330
1A
100
AcDbEntity
  8
ZISSEN1
100
AcDbLine
 10
-1588.899999999997
 20
1614.825994246975
 30
0.0
 11
-1589.399999999997
 21
1614.825994246975
 31
0.0
  0
LINE
  5
1414E
330
1A
100
AcDbEntity
  8
ZISSEN1
100
AcDbLine
 10
-1515.100000000135
 20
1712.899999999999
 30
0.0
 11
-1530.499999999997
 21
1712.899999999999
 31
0.0
  0
LINE
  5
1414F
330
1A
100
AcDbEntity
  8
ZISSEN1
100
AcDbLine
 10
-1458.59999999986
 20
1712.899999999999
 30
0.0
 11
-1500.200000000135
 21
1712.899999999999
 31
0.0
  0
ARC
  5
14150
330
1A
100
AcDbEntity
  8
ZISSEN1
  6
BYBLOCK
100
AcDbCircle
 10
-1530.863508632902
 20
1668.43753452843
 30
0.0
 40
0.712603585647422
100
AcDbArc
 50
37.74206181213491
 51
127.8788794789728
  0
LINE
  5
14151
330
1A
100
AcDbEntity
  8
ZISSEN1
100
AcDbLine
 10
-1432.498045977201
 20
1704.999999999999
 30
0.0
 11
-1431.499999068193
 21
1704.999999999999
 31
0.0
  0
LINE
  5
14152
330
1A
100
AcDbEntity
  8
ZISSEN1
  6
BYBLOCK
100
AcDbLine
 10
-1422.496011914172
 20
1674.399999999999
 30
0.0
 11
-1422.699999999862
 21
1674.399999999999
 31
0.0
  0
LINE
  5
14153
330
1A
100
AcDbEntity
  8
ZISSEN1
  6
BYBLOCK
100
AcDbLine
 10
-1421.696011914169
 20
1681.099999999999
 30
0.0
 11
-1418.499999999862
 21
1681.099999999999
 31
0.0
  0
ARC
  5
14154
330
1A
100
AcDbEntity
  8
ZISSEN1
  6
BYBLOCK
100
AcDbCircle
 10
-1422.133546442601
 20
1668.43753452843
 30
0.0
 40
0.712603585647422
100
AcDbArc
 50
217.3535303633659
 51
217.8788794789545
  0
LINE
  5
1415A
330
1A
100
AcDbEntity
  8
ZISSEN1
100
AcDbLine
 10
-1422.499932086964
 20
1545.499772911772
 30
0.0
 11
-1422.499932086964
 21
1543.0
 31
0.0
  0
LINE
  5
1415B
330
1A
100
AcDbEntity
  8
ZISSEN1
  6
BYBLOCK
100
AcDbLine
 10
-1459.151124302421
 20
1613.999772911771
 30
0.0
 11
-1459.151124302421
 21
1612.999772911772
 31
0.0
  0
ARC
  5
1415C
330
1A
100
AcDbEntity
  8
ZISSEN1
  6
BYBLOCK
100
AcDbCircle
 10
-1459.651124302421
 20
1613.999772911771
 30
0.0
 40
0.5
100
AcDbArc
 50
0.0
 51
90.0
  0
LINE
  5
1415D
330
1A
100
AcDbEntity
  8
ZISSEN1
  6
BYBLOCK
100
AcDbLine
 10
-1459.151124302421
 20
1612.999772911772
 30
0.0
 11
-1454.95112430242
 21
1612.999772911772
 31
0.0
  0
LINE
  5
1415E
330
1A
100
AcDbEntity
  8
ZISSEN1
  6
BYBLOCK
100
AcDbLine
 10
-1454.95112430242
 20
1613.999772911771
 30
0.0
 11
-1454.95112430242
 21
1612.999772911772
 31
0.0
  0
ARC
  5
1415F
330
1A
100
AcDbEntity
  8
ZISSEN1
  6
BYBLOCK
100
AcDbCircle
 10
-1454.45112430242
 20
1613.999772911771
 30
0.0
 40
0.5
100
AcDbArc
 50
90.0
 51
180.0
  0
LINE
  5
14160
330
1A
100
AcDbEntity
  8
ZISSEN1
  6
BYBLOCK
100
AcDbLine
 10
-1452.051124360197
 20
1615.299772571167
 30
0.0
 11
-1452.051124360197
 21
1612.499772571167
 31
0.0
  0
LINE
  5
14161
330
1A
100
AcDbEntity
  8
ZISSEN1
  6
BYBLOCK
100
AcDbLine
 10
-1471.2
 20
1545.499772911772
 30
0.0
 11
-1421.699999999862
 21
1545.499772911772
 31
0.0
  0
LINE
  5
14162
330
1A
100
AcDbEntity
  8
ZISSEN1
100
AcDbLine
 10
-1489.751124302693
 20
1548.949772911771
 30
0.0
 11
-1489.751124302693
 21
1545.499772911772
 31
0.0
  0
LINE
  5
14163
330
1A
100
AcDbEntity
  8
ZISSEN1
100
AcDbLine
 10
-1503.651124302692
 20
1548.949772911771
 30
0.0
 11
-1503.651124302692
 21
1545.499772911772
 31
0.0
  0
LINE
  5
14164
330
1A
100
AcDbEntity
  8
ZISSEN1
100
AcDbLine
 10
-1505.651124302691
 20
1548.949772911772
 30
0.0
 11
-1505.651124302691
 21
1545.499772911772
 31
0.0
  0
LINE
  5
14165
330
1A
100
AcDbEntity
  8
ZISSEN1
100
AcDbLine
 10
-1519.551124302692
 20
1548.949772911772
 30
0.0
 11
-1519.551124302692
 21
1545.499772911772
 31
0.0
  0
DIMENSION
  5
14166
330
1A
100
AcDbEntity
  8
SUNPOU
100
AcDbDimension
  2
*D0
 10
-1421.696011914169
 20
1657.784705179738
 30
0.0
 11
-1473.791666666666
 21
1657.784705179738
 31
0.0
 70
   160
  3
ISO-25
100
AcDbAlignedDimension
 13
-1531.3
 23
1669.000809911104
 33
0.0
 14
-1421.696011914169
 24
1669.000000000001
 34
0.0
100
AcDbRotatedDimension
1001
ACAD
1000
DSTYLE
1002
{
1070
   140
1040
3.5
1002
}
  0
LINE
  5
14167
330
1A
100
AcDbEntity
  8
ZISSEN1
100
AcDbLine
 10
-1479.199999999997
 20
1667.199999999997
 30
0.0
 11
-1471.2
 21
1667.200000000001
 31
0.0
  0
LINE
  5
14168
330
1A
100
AcDbEntity
  8
ZISSEN1
100
AcDbLine
 10
-1479.2
 20
1667.999999999996
 30
0.0
 11
-1478.2
 21
1668.0
 31
0.0
  0
LINE
  5
14169
330
1A
100
AcDbEntity
  8
ZISSEN1
100
AcDbLine
 10
-1479.199999999997
 20
1667.199999999997
 30
0.0
 11
-1479.2
 21
1667.999999999996
 31
0.0
  0
LINE
  5
1416A
330
1A
100
AcDbEntity
  8
ZISSEN1
100
AcDbLine
 10
-1471.2
 20
1668.0
 30
0.0
 11
-1471.2
 21
1667.200000000001
 31
0.0
  0
LINE
  5
1416B
330
1A
100
AcDbEntity
  8
ZISSEN1
100
AcDbLine
 10
-1478.2
 20
1667.199999999997
 30
0.0
 11
-1478.2
 21
1668.0
 31
0.0
  0
LINE
  5
1416C
330
1A
100
AcDbEntity
  8
ZISSEN1
100
AcDbLine
 10
-1472.2
 20
1668.0
 30
0.0
 11
-1472.2
 21
1667.200000000001
 31
0.0
  0
LINE
  5
1416D
330
1A
100
AcDbEntity
  8
ZISSEN1
100
AcDbLine
 10
-1472.2
 20
1668.0
 30
0.0
 11
-1471.2
 21
1668.0
 31
0.0
  0
LINE
  5
1416E
330
1A
100
AcDbEntity
  8
ZISSEN1
100
AcDbLine
 10
-1478.2
 20
1668.0
 30
0.0
 11
-1472.2
 21
1668.0
 31
0.0
  0
LINE
  5
1416F
330
1A
100
AcDbEntity
  8
ZISSEN1
100
AcDbLine
 10
-1519.601124302691
 20
1540.0
 30
0.0
 11
-1519.601124302691
 21
1543.0
 31
0.0
  0
LINE
  5
14170
330
1A
100
AcDbEntity
  8
ZISSEN1
100
AcDbLine
 10
-1518.601124302691
 20
1540.0
 30
0.0
 11
-1518.601124302691
 21
1543.0
 31
0.0
  0
LINE
  5
14171
330
1A
100
AcDbEntity
  8
ZISSEN1
100
AcDbLine
 10
-1489.70112430269
 20
1540.0
 30
0.0
 11
-1489.70112430269
 21
1543.0
 31
0.0
  0
LINE
  5
14172
330
1A
100
AcDbEntity
  8
ZISSEN1
100
AcDbLine
 10
-1490.70112430269
 20
1540.0
 30
0.0
 11
-1490.70112430269
 21
1543.0
 31
0.0
  0
LINE
  5
14173
330
1A
100
AcDbEntity
  8
ZISSEN1
 48
0.4
100
AcDbLine
 10
-1558.45
 20
1545.75000000028
 30
0.0
 11
-1559.2
 21
1545.75000000028
 31
0.0
  0
LINE
  5
14174
330
1A
100
AcDbEntity
  8
ZISSEN1
 48
0.4
100
AcDbLine
 10
-1558.45
 20
1551.25000000028
 30
0.0
 11
-1559.2
 21
1551.25000000028
 31
0.0
  0
ELLIPSE
  5
14175
330
1A
100
AcDbEntity
  8
ZISSEN1
 48
0.4
100
AcDbEllipse
 10
-1558.45
 20
1548.50000000028
 30
0.0
 11
-0.000000000000001
 21
-2.75
 31
0.0
210
0.0
220
0.0
230
1.0
 40
0.3090909090909173
 41
6.283185307179586
 42
9.424777960769379
  0
LINE
  5
14176
330
1A
100
AcDbEntity
  8
ZISSEN1
100
AcDbLine
 10
-1569.899999999988
 20
1545.000000000005
 30
0.0
 11
-1572.199999999989
 21
1545.000000000005
 31
0.0
  0
LINE
  5
14177
330
1A
100
AcDbEntity
  8
ZISSEN1
100
AcDbLine
 10
-1576.2
 20
1543.800000000001
 30
0.0
 11
-1560.0
 21
1543.800000000001
 31
0.0
  0
LINE
  5
14178
330
1A
100
AcDbEntity
  8
ZISSEN1
100
AcDbLine
 10
-1559.999999999998
 20
1542.999999999998
 30
0.0
 11
-1576.199999999999
 21
1543.000000000001
 31
0.0
  0
ARC
  5
14179
330
1A
100
AcDbEntity
  8
ZISSEN1
100
AcDbCircle
 10
-1569.399999999988
 20
1544.300000000004
 30
0.0
 40
0.5
100
AcDbArc
 50
180.0
 51
270.0000000001042
  0
LINE
  5
1417A
330
1A
100
AcDbEntity
  8
ZISSEN1
100
AcDbLine
 10
-1569.899999999988
 20
1544.300000000004
 30
0.0
 11
-1569.899999999988
 21
1545.000000000005
 31
0.0
  0
ARC
  5
1417B
330
1A
100
AcDbEntity
  8
ZISSEN1
100
AcDbCircle
 10
-1574.999999999989
 20
1544.300000000001
 30
0.0
 40
0.5
100
AcDbArc
 50
270.0000000001042
 51
0.0
  0
LINE
  5
1417C
330
1A
100
AcDbEntity
  8
ZISSEN1
100
AcDbLine
 10
-1574.49999999999
 20
1545.000000000001
 30
0.0
 11
-1572.199999999989
 21
1545.000000000005
 31
0.0
  0
LINE
  5
1417D
330
1A
100
AcDbEntity
  8
ZISSEN1
100
AcDbLine
 10
-1574.499999999989
 20
1544.300000000004
 30
0.0
 11
-1574.49999999999
 21
1545.000000000001
 31
0.0
  0
LINE
  5
1417E
330
1A
100
AcDbEntity
  8
ZISSEN1
100
AcDbLine
 10
-1576.199999999999
 20
1543.000000000001
 30
0.0
 11
-1576.2
 21
1543.800000000001
 31
0.0
  0
ARC
  5
1417F
330
1A
100
AcDbEntity
  8
ZISSEN1
100
AcDbCircle
 10
-1559.700000000001
 20
1543.499999999998
 30
0.0
 40
0.5
100
AcDbArc
 50
270.0
 51
0.0
  0
LINE
  5
14180
330
1A
100
AcDbEntity
  8
ZISSEN1
100
AcDbLine
 10
-1559.199999999998
 20
1552.499999999998
 30
0.0
 11
-1559.999999999998
 21
1552.499999999998
 31
0.0
  0
LINE
  5
14181
330
1A
100
AcDbEntity
  8
ZISSEN1
100
AcDbLine
 10
-1559.699999999998
 20
1542.999999999998
 30
0.0
 11
-1559.999999999998
 21
1542.999999999998
 31
0.0
  0
LINE
  5
14182
330
1A
100
AcDbEntity
  8
ZISSEN1
100
AcDbLine
 10
-1559.999999999998
 20
1553.499999999987
 30
0.0
 11
-1560.0
 21
1543.800000000001
 31
0.0
  0
LINE
  5
14183
330
1A
100
AcDbEntity
  8
ZISSEN1
100
AcDbLine
 10
-1559.199999999997
 20
1553.499999999998
 30
0.0
 11
-1559.999999999998
 21
1553.499999999998
 31
0.0
  0
LINE
  5
14184
330
1A
100
AcDbEntity
  8
ZISSEN1
100
AcDbLine
 10
-1559.199999999997
 20
1553.499999999998
 30
0.0
 11
-1559.2
 21
1543.499999999998
 31
0.0
  0
LINE
  5
14185
330
1A
100
AcDbEntity
  8
ZISSEN1
100
AcDbLine
 10
-1373.799999999999
 20
1543.0
 30
0.0
 11
-1373.799999999995
 21
1543.799999999999
 31
0.0
  0
LINE
  5
14186
330
1A
100
AcDbEntity
  8
ZISSEN1
100
AcDbLine
 10
-1375.500000000007
 20
1544.300000000003
 30
0.0
 11
-1375.500000000007
 21
1545.0
 31
0.0
  0
LINE
  5
14187
330
1A
100
AcDbEntity
  8
ZISSEN1
100
AcDbLine
 10
-1375.500000000007
 20
1545.0
 30
0.0
 11
-1377.800000000006
 21
1545.000000000003
 31
0.0
  0
ARC
  5
14188
330
1A
100
AcDbEntity
  8
ZISSEN1
100
AcDbCircle
 10
-1375.000000000007
 20
1544.299999999999
 30
0.0
 40
0.5
100
AcDbArc
 50
180.0
 51
269.9999999998957
  0
LINE
  5
14189
330
1A
100
AcDbEntity
  8
ZISSEN1
100
AcDbLine
 10
-1390.799999999999
 20
1553.499999999996
 30
0.0
 11
-1390.799999999995
 21
1543.499999999996
 31
0.0
  0
LINE
  5
1418A
330
1A
100
AcDbEntity
  8
ZISSEN1
100
AcDbLine
 10
-1390.799999999999
 20
1553.499999999996
 30
0.0
 11
-1390.0
 21
1553.499999999996
 31
0.0
  0
LINE
  5
1418B
330
1A
100
AcDbEntity
  8
ZISSEN1
100
AcDbLine
 10
-1390.0
 20
1553.499999999985
 30
0.0
 11
-1389.999999999996
 21
1543.799999999999
 31
0.0
  0
LINE
  5
1418C
330
1A
100
AcDbEntity
  8
ZISSEN1
100
AcDbLine
 10
-1390.299999999999
 20
1542.999999999996
 30
0.0
 11
-1390.0
 21
1542.999999999996
 31
0.0
  0
ARC
  5
1418D
330
1A
100
AcDbEntity
  8
ZISSEN1
100
AcDbCircle
 10
-1390.299999999995
 20
1543.499999999996
 30
0.0
 40
0.5
100
AcDbArc
 50
180.0
 51
270.0
  0
LINE
  5
1418E
330
1A
100
AcDbEntity
  8
ZISSEN1
100
AcDbLine
 10
-1380.100000000009
 20
1544.300000000003
 30
0.0
 11
-1380.100000000009
 21
1545.000000000003
 31
0.0
  0
ARC
  5
1418F
330
1A
100
AcDbEntity
  8
ZISSEN1
100
AcDbCircle
 10
-1380.600000000009
 20
1544.300000000003
 30
0.0
 40
0.5
100
AcDbArc
 50
269.9999999998957
 51
0.0
  0
LINE
  5
14190
330
1A
100
AcDbEntity
  8
ZISSEN1
100
AcDbLine
 10
-1390.0
 20
1542.999999999996
 30
0.0
 11
-1373.799999999999
 21
1543.0
 31
0.0
  0
LINE
  5
14191
330
1A
100
AcDbEntity
  8
ZISSEN1
100
AcDbLine
 10
-1373.799999999995
 20
1543.799999999999
 30
0.0
 11
-1389.999999999996
 21
1543.799999999999
 31
0.0
  0
LINE
  5
14192
330
1A
100
AcDbEntity
  8
ZISSEN1
100
AcDbLine
 10
-1380.100000000009
 20
1545.000000000003
 30
0.0
 11
-1377.800000000006
 21
1545.000000000003
 31
0.0
  0
LINE
  5
14193
330
1A
100
AcDbEntity
  8
ZISSEN1
100
AcDbLine
 10
-1479.2
 20
1542.999772911775
 30
0.0
 11
-1479.199999999997
 21
1552.499772911771
 31
0.0
  0
LINE
  5
14194
330
1A
100
AcDbEntity
  8
ZISSEN1
100
AcDbLine
 10
-1478.199999999997
 20
1553.499772911772
 30
0.0
 11
-1472.2
 21
1553.499772911772
 31
0.0
  0
LINE
  5
14195
330
1A
100
AcDbEntity
  8
ZISSEN1
100
AcDbLine
 10
-1471.2
 20
1552.499772911771
 30
0.0
 11
-1471.2
 21
1542.999772911775
 31
0.0
  0
ARC
  5
14196
330
1A
100
AcDbEntity
  8
ZISSEN1
100
AcDbCircle
 10
-1478.199999999997
 20
1552.499772911771
 30
0.0
 40
1.0
100
AcDbArc
 50
90.0
 51
180.0
  0
ARC
  5
14197
330
1A
100
AcDbEntity
  8
ZISSEN1
100
AcDbCircle
 10
-1472.2
 20
1552.499772911771
 30
0.0
 40
1.0
100
AcDbArc
 50
0.0
 51
90.0
  0
LINE
  5
14198
330
1A
100
AcDbEntity
  8
ZISSEN1
  6
CONTINUOUS
100
AcDbLine
 10
-1489.751124302693
 20
1548.949772911771
 30
0.0
 11
-1503.651124302692
 21
1548.949772911771
 31
0.0
  0
LINE
  5
14199
330
1A
100
AcDbEntity
  8
ZISSEN1
100
AcDbLine
 10
-1520.596124302417
 20
1550.499772911772
 30
0.0
 11
-1488.696124302416
 21
1550.499772911772
 31
0.0
  0
LINE
  5
1419A
330
1A
100
AcDbEntity
  8
ZISSEN1
100
AcDbLine
 10
-1520.596124302417
 20
1550.499772911772
 30
0.0
 11
-1520.596124302418
 21
1546.499772911771
 31
0.0
  0
LINE
  5
1419B
330
1A
100
AcDbEntity
  8
ZISSEN1
  6
CONTINUOUS
 62
     7
100
AcDbLine
 10
-1505.651124302691
 20
1548.949772911772
 30
0.0
 11
-1519.551124302692
 21
1548.949772911772
 31
0.0
  0
LINE
  5
1419C
330
1A
100
AcDbEntity
  8
ZISSEN1
100
AcDbLine
 10
-1531.501043161332
 20
1702.699137813299
 30
0.0
 11
-1531.501043161332
 21
1696.899137813299
 31
0.0
  0
LINE
  5
1419D
330
1A
100
AcDbEntity
  8
ZISSEN1
100
AcDbLine
 10
-1530.301043161331
 20
1696.899137813299
 30
0.0
 11
-1530.301043161331
 21
1702.699137813299
 31
0.0
  0
ARC
  5
1419E
330
1A
100
AcDbEntity
  8
ZISSEN1
100
AcDbCircle
 10
-1530.901043161332
 20
1702.6991378133
 30
0.0
 40
0.6000000000003638
100
AcDbArc
 50
359.9999999998697
 51
180.0000000001172
  0
ARC
  5
1419F
330
1A
100
AcDbEntity
  8
ZISSEN1
100
AcDbCircle
 10
-1530.901043161332
 20
1696.899137813297
 30
0.0
 40
0.6000000000003638
100
AcDbArc
 50
179.9999999998697
 51
0.000000000117248
  0
ARC
  5
141A0
330
1A
100
AcDbEntity
  8
ZISSEN1
100
AcDbCircle
 10
-1422.091833400281
 20
1696.899137863441
 30
0.0
 40
0.6000000000003638
100
AcDbArc
 50
179.9999999998697
 51
0.000000000117248
  0
ARC
  5
141A1
330
1A
100
AcDbEntity
  8
ZISSEN1
100
AcDbCircle
 10
-1422.091833400281
 20
1702.699137863444
 30
0.0
 40
0.6000000000003638
100
AcDbArc
 50
359.9999999998697
 51
180.0000000001172
  0
LINE
  5
141A2
330
1A
100
AcDbEntity
  8
ZISSEN1
100
AcDbLine
 10
-1421.491833400283
 20
1696.899137863443
 30
0.0
 11
-1421.491833400283
 21
1702.699137863443
 31
0.0
  0
LINE
  5
141A3
330
1A
100
AcDbEntity
  8
ZISSEN1
100
AcDbLine
 10
-1422.691833400284
 20
1702.699137863443
 30
0.0
 11
-1422.691833400284
 21
1696.899137863443
 31
0.0
  0
LINE
  5
141A4
330
1A
100
AcDbEntity
  8
ZISSEN1
  6
BYBLOCK
100
AcDbLine
 10
-1421.696011914169
 20
1702.999999999999
 30
0.0
 11
-1421.696011914169
 21
1669.000000000001
 31
0.0
  0
LINE
  5
141A5
330
1A
100
AcDbEntity
  8
ZISSEN1
  6
BYBLOCK
100
AcDbLine
 10
-1443.199999999862
 20
1711.399999999999
 30
0.0
 11
-1442.199999999862
 21
1712.399999999999
 31
0.0
  0
LINE
  5
141A6
330
1A
100
AcDbEntity
  8
ZISSEN1
  6
BYBLOCK
100
AcDbLine
 10
-1422.699999999862
 20
1711.399999999999
 30
0.0
 11
-1423.699999999862
 21
1712.399999999999
 31
0.0
  0
LINE
  5
141A7
330
1A
100
AcDbEntity
  8
ZISSEN1
  6
BYBLOCK
100
AcDbLine
 10
-1442.199999999862
 20
1712.399999999999
 30
0.0
 11
-1423.699999999862
 21
1712.399999999999
 31
0.0
  0
LINE
  5
141A8
330
1A
100
AcDbEntity
  8
ZISSEN1
  6
BYBLOCK
100
AcDbLine
 10
-1443.199999999862
 20
1711.399999999999
 30
0.0
 11
-1443.199999999862
 21
1706.099999999999
 31
0.0
  0
LINE
  5
141A9
330
1A
100
AcDbEntity
  8
ZISSEN1
  6
BYBLOCK
100
AcDbLine
 10
-1440.899999068195
 20
1707.699999999999
 30
0.0
 11
-1431.499999068193
 21
1707.699999999999
 31
0.0
  0
LINE
  5
141AA
330
1A
100
AcDbEntity
  8
ZISSEN1
  6
BYBLOCK
100
AcDbLine
 10
-1460.09999999986
 20
1712.399999999999
 30
0.0
 11
-1459.09999999986
 21
1711.399999999999
 31
0.0
  0
LINE
  5
141AB
330
1A
100
AcDbEntity
  8
ZISSEN1
  6
BYBLOCK
100
AcDbLine
 10
-1459.09999999986
 20
1711.399999999999
 30
0.0
 11
-1459.09999999986
 21
1706.099999999999
 31
0.0
  0
LINE
  5
141AC
330
1A
100
AcDbEntity
  8
ZISSEN1
  6
BYBLOCK
100
AcDbLine
 10
-1459.09999999986
 20
1706.099999999999
 30
0.0
 11
-1443.199999999862
 21
1706.099999999999
 31
0.0
  0
LINE
  5
141AD
330
1A
100
AcDbEntity
  8
ZISSEN1
  6
BYBLOCK
100
AcDbLine
 10
-1423.699999999862
 20
1699.500001635904
 30
0.0
 11
-1422.699999999862
 21
1700.500001635904
 31
0.0
  0
LINE
  5
141AE
330
1A
100
AcDbEntity
  8
ZISSEN1
  6
BYBLOCK
100
AcDbLine
 10
-1422.699999999862
 20
1695.899999999999
 30
0.0
 11
-1423.699999999862
 21
1696.899999999999
 31
0.0
  0
LINE
  5
141AF
330
1A
100
AcDbEntity
  8
ZISSEN1
  6
BYBLOCK
100
AcDbLine
 10
-1426.499999999862
 20
1696.899999999999
 30
0.0
 11
-1423.699999999862
 21
1696.899999999999
 31
0.0
  0
LINE
  5
141B0
330
1A
100
AcDbEntity
  8
ZISSEN1
  6
BYBLOCK
100
AcDbLine
 10
-1426.499999999862
 20
1699.499999999999
 30
0.0
 11
-1423.699999999862
 21
1699.500001635904
 31
0.0
  0
LINE
  5
141B1
330
1A
100
AcDbEntity
  8
ZISSEN1
  6
BYBLOCK
100
AcDbLine
 10
-1426.499999999862
 20
1696.899999999999
 30
0.0
 11
-1426.499999999862
 21
1699.499999999999
 31
0.0
  0
LINE
  5
141B2
330
1A
100
AcDbEntity
  8
ZISSEN1
  6
BYBLOCK
100
AcDbLine
 10
-1440.899999068195
 20
1693.399999999999
 30
0.0
 11
-1431.499999068193
 21
1693.399999999999
 31
0.0
  0
LINE
  5
141B3
330
1A
100
AcDbEntity
  8
ZISSEN1
  6
BYBLOCK
100
AcDbLine
 10
-1422.699999999862
 20
1700.500001635904
 30
0.0
 11
-1422.699999999862
 21
1711.399999999999
 31
0.0
  0
LINE
  5
141B4
330
1A
100
AcDbEntity
  8
ZISSEN1
  6
BYBLOCK
100
AcDbLine
 10
-1441.899999068144
 20
1689.299999999999
 30
0.0
 11
-1441.899999068227
 21
1701.499999999999
 31
0.0
  0
LINE
  5
141B5
330
1A
100
AcDbEntity
  8
ZISSEN1
  6
BYBLOCK
100
AcDbLine
 10
-1440.899999068195
 20
1707.699999999999
 30
0.0
 11
-1440.899999068195
 21
1693.399999999999
 31
0.0
  0
LINE
  5
141B6
330
1A
100
AcDbEntity
  8
ZISSEN1
  6
BYBLOCK
100
AcDbLine
 10
-1431.499999068193
 20
1707.699999999999
 30
0.0
 11
-1431.499999068193
 21
1693.399999999999
 31
0.0
  0
LINE
  5
141B7
330
1A
100
AcDbEntity
  8
ZISSEN1
  6
BYBLOCK
100
AcDbLine
 10
-1499.700000000138
 20
1711.399999999999
 30
0.0
 11
-1498.700000000138
 21
1712.399999999999
 31
0.0
  0
LINE
  5
141B8
330
1A
100
AcDbEntity
  8
ZISSEN1
  6
BYBLOCK
100
AcDbLine
 10
-1499.700000000138
 20
1711.399999999999
 30
0.0
 11
-1499.700000000138
 21
1706.099999999999
 31
0.0
  0
LINE
  5
141B9
330
1A
100
AcDbEntity
  8
ZISSEN1
  6
BYBLOCK
100
AcDbLine
 10
-1497.399999068191
 20
1707.699999999999
 30
0.0
 11
-1487.999999068193
 21
1707.699999999999
 31
0.0
  0
LINE
  5
141BA
330
1A
100
AcDbEntity
  8
ZISSEN1
  6
BYBLOCK
100
AcDbLine
 10
-1497.399999068191
 20
1693.40070074354
 30
0.0
 11
-1487.999999068193
 21
1693.40070074354
 31
0.0
  0
LINE
  5
141BB
330
1A
100
AcDbEntity
  8
ZISSEN1
  6
BYBLOCK
100
AcDbLine
 10
-1498.399999068192
 20
1701.499999999999
 30
0.0
 11
-1498.399999068192
 21
1689.299999999999
 31
0.0
  0
LINE
  5
141BC
330
1A
100
AcDbEntity
  8
ZISSEN1
  6
BYBLOCK
100
AcDbLine
 10
-1497.399999068191
 20
1707.699999999999
 30
0.0
 11
-1497.399999068191
 21
1693.40070074354
 31
0.0
  0
LINE
  5
141BD
330
1A
100
AcDbEntity
  8
ZISSEN1
  6
BYBLOCK
100
AcDbLine
 10
-1487.999999068193
 20
1707.699999999999
 30
0.0
 11
-1487.999999068193
 21
1693.40070074354
 31
0.0
  0
LINE
  5
141BE
330
1A
100
AcDbEntity
  8
ZISSEN1
  6
BYBLOCK
100
AcDbLine
 10
-1468.499999068146
 20
1689.299999999999
 30
0.0
 11
-1468.499999068226
 21
1701.499999999999
 31
0.0
  0
LINE
  5
141BF
330
1A
100
AcDbEntity
  8
ZISSEN1
  6
BYBLOCK
100
AcDbLine
 10
-1498.700000000138
 20
1712.399999999999
 30
0.0
 11
-1460.09999999986
 21
1712.399999999999
 31
0.0
  0
LINE
  5
141C0
330
1A
100
AcDbEntity
  8
ZISSEN1
  6
BYBLOCK
100
AcDbLine
 10
-1468.499999068146
 20
1689.299999999999
 30
0.0
 11
-1441.899999068144
 21
1689.299999999999
 31
0.0
  0
LINE
  5
141C1
330
1A
100
AcDbEntity
  8
ZISSEN1
  6
BYBLOCK
100
AcDbLine
 10
-1468.499999068226
 20
1701.499999999999
 30
0.0
 11
-1441.899999068227
 21
1701.499999999999
 31
0.0
  0
LINE
  5
141C4
330
1A
100
AcDbEntity
  8
ZISSEN1
  6
BYBLOCK
100
AcDbLine
 10
-1428.50112430242
 20
1673.899999999999
 30
0.0
 11
-1428.50112430242
 21
1684.099999999999
 31
0.0
  0
LINE
  5
141C5
330
1A
100
AcDbEntity
  8
ZISSEN1
  6
BYBLOCK
100
AcDbLine
 10
-1503.397495954067
 20
1682.624999987649
 30
0.0
 11
-1476.699999999862
 21
1682.623033810739
 31
0.0
  0
LINE
  5
141C6
330
1A
100
AcDbEntity
  8
ZISSEN1
  6
BYBLOCK
100
AcDbLine
 10
-1490.397607084862
 20
1674.423327361935
 30
0.0
 11
-1485.696388586038
 21
1674.423327361935
 31
0.0
  0
LINE
  5
141C7
330
1A
100
AcDbEntity
  8
ZISSEN1
  6
BYBLOCK
100
AcDbLine
 10
-1485.666388586036
 20
1668.8
 30
0.0
 11
-1476.700024887279
 21
1668.8
 31
0.0
  0
LINE
  5
141C8
330
1A
100
AcDbEntity
  8
ZISSEN1
  6
BYBLOCK
100
AcDbLine
 10
-1503.397607084859
 20
1671.624999999999
 30
0.0
 11
-1490.397607084862
 21
1671.624999999999
 31
0.0
  0
LINE
  5
141C9
330
1A
100
AcDbEntity
  8
ZISSEN1
  6
BYBLOCK
100
AcDbLine
 10
-1490.397607084862
 20
1671.624999999999
 30
0.0
 11
-1490.397607084862
 21
1674.423327361935
 31
0.0
  0
LINE
  5
141CA
330
1A
100
AcDbEntity
  8
ZISSEN1
  6
BYBLOCK
100
AcDbLine
 10
-1503.397495954067
 20
1682.624999987649
 30
0.0
 11
-1503.397607084859
 21
1671.624999999999
 31
0.0
  0
LINE
  5
141CB
330
1A
100
AcDbEntity
  8
ZISSEN1
  6
BYBLOCK
100
AcDbLine
 10
-1485.696388586038
 20
1674.423327361935
 30
0.0
 11
-1485.696388586038
 21
1668.0
 31
0.0
  0
LINE
  5
141CC
330
1A
100
AcDbEntity
  8
ZISSEN1
  6
BYBLOCK
100
AcDbLine
 10
-1475.201124302421
 20
1673.899999999999
 30
0.0
 11
-1475.201124302421
 21
1684.099999999999
 31
0.0
  0
LINE
  5
141CD
330
1A
100
AcDbEntity
  8
ZISSEN1
  6
BYBLOCK
100
AcDbLine
 10
-1475.201124302421
 20
1673.899999999999
 30
0.0
 11
-1428.50112430242
 21
1673.899999999999
 31
0.0
  0
LINE
  5
141CE
330
1A
100
AcDbEntity
  8
ZISSEN1
  6
BYBLOCK
100
AcDbLine
 10
-1475.201124302421
 20
1684.099999999999
 30
0.0
 11
-1428.50112430242
 21
1684.099999999999
 31
0.0
  0
LINE
  5
141CF
330
1A
100
AcDbEntity
  8
ZISSEN1
  6
BYBLOCK
100
AcDbLine
 10
-1422.496011914172
 20
1702.999999999999
 30
0.0
 11
-1422.496011914172
 21
1669.051067455171
 31
0.0
  0
LINE
  5
141D0
330
1A
100
AcDbEntity
  8
ZISSEN1
  6
BYBLOCK
100
AcDbLine
 10
-1476.700454911751
 20
1682.623033844242
 30
0.0
 11
-1476.699999999862
 21
1668.0
 31
0.0
  0
LINE
  5
141D1
330
1A
100
AcDbEntity
  8
ZISSEN1
  6
BYBLOCK
100
AcDbLine
 10
-1422.699999999862
 20
1668.0
 30
0.0
 11
-1422.699999999862
 21
1695.899999999999
 31
0.0
  0
LINE
  5
141D2
330
1A
100
AcDbEntity
  8
ZISSEN1
  6
BYBLOCK
100
AcDbLine
 10
-1515.600000000137
 20
1711.399999999999
 30
0.0
 11
-1516.600000000137
 21
1712.399999999999
 31
0.0
  0
LINE
  5
141D3
330
1A
100
AcDbEntity
  8
ZISSEN1
  6
BYBLOCK
100
AcDbLine
 10
-1515.600000000137
 20
1706.099999999999
 30
0.0
 11
-1515.600000000137
 21
1711.399999999999
 31
0.0
  0
LINE
  5
141D4
330
1A
100
AcDbEntity
  8
ZISSEN1
  6
BYBLOCK
100
AcDbLine
 10
-1530.499999999997
 20
1702.999999999999
 30
0.0
 11
-1531.3
 21
1702.999999999999
 31
0.0
  0
LINE
  5
141D5
330
1A
100
AcDbEntity
  8
ZISSEN1
  6
BYBLOCK
100
AcDbLine
 10
-1530.501043161331
 20
1702.499999999999
 30
0.0
 11
-1531.301043161334
 21
1702.499999999999
 31
0.0
  0
LINE
  5
141D6
330
1A
100
AcDbEntity
  8
ZISSEN1
  6
BYBLOCK
100
AcDbLine
 10
-1530.300000000138
 20
1711.399999999999
 30
0.0
 11
-1529.300000000138
 21
1712.399999999999
 31
0.0
  0
LINE
  5
141D7
330
1A
100
AcDbEntity
  8
ZISSEN1
  6
BYBLOCK
100
AcDbLine
 10
-1516.600000000137
 20
1712.399999999999
 30
0.0
 11
-1529.300000000138
 21
1712.399999999999
 31
0.0
  0
LINE
  5
141D8
330
1A
100
AcDbEntity
  8
ZISSEN1
  6
BYBLOCK
100
AcDbLine
 10
-1526.500000000137
 20
1696.899999999999
 30
0.0
 11
-1526.500000000137
 21
1699.499999999999
 31
0.0
  0
LINE
  5
141D9
330
1A
100
AcDbEntity
  8
ZISSEN1
  6
BYBLOCK
100
AcDbLine
 10
-1530.29999900735
 20
1695.899999999999
 30
0.0
 11
-1529.29999900735
 21
1696.899999999999
 31
0.0
  0
LINE
  5
141DA
330
1A
100
AcDbEntity
  8
ZISSEN1
  6
BYBLOCK
100
AcDbLine
 10
-1529.299998488894
 20
1699.499999999999
 30
0.0
 11
-1530.299998488894
 21
1700.499999999999
 31
0.0
  0
LINE
  5
141DB
330
1A
100
AcDbEntity
  8
ZISSEN1
  6
BYBLOCK
100
AcDbLine
 10
-1526.500000000137
 20
1696.899999999999
 30
0.0
 11
-1529.29999900735
 21
1696.899999999999
 31
0.0
  0
LINE
  5
141DC
330
1A
100
AcDbEntity
  8
ZISSEN1
  6
BYBLOCK
100
AcDbLine
 10
-1526.500000000137
 20
1699.499999999999
 30
0.0
 11
-1529.299998488894
 21
1699.499999999999
 31
0.0
  0
LINE
  5
141DD
330
1A
100
AcDbEntity
  8
ZISSEN1
  6
BYBLOCK
100
AcDbLine
 10
-1530.300000000138
 20
1700.500001511242
 30
0.0
 11
-1530.300000000138
 21
1711.399999999999
 31
0.0
  0
LINE
  5
141DE
330
1A
100
AcDbEntity
  8
ZISSEN1
  6
BYBLOCK
100
AcDbLine
 10
-1524.999999068192
 20
1689.299999999999
 30
0.0
 11
-1524.999999068192
 21
1701.499999999999
 31
0.0
  0
ARC
  5
141DF
330
1A
100
AcDbEntity
  8
ZISSEN1
  6
BYBLOCK
100
AcDbCircle
 10
-1530.863508632902
 20
1668.43753452843
 30
0.0
 40
0.712603585647422
100
AcDbArc
 50
322.1211205210454
 51
322.2579341102509
  0
ARC
  5
141E0
330
1A
100
AcDbEntity
  8
ZISSEN1
  6
BYBLOCK
100
AcDbCircle
 10
-1530.463404664592
 20
1668.837638496738
 30
0.0
 40
0.8532288725551467
100
AcDbArc
 50
169.0302515054687
 51
280.9697484944648
  0
LINE
  5
141E1
330
1A
100
AcDbEntity
  8
ZISSEN1
  6
BYBLOCK
100
AcDbLine
 10
-1530.499999999997
 20
1702.999999999999
 30
0.0
 11
-1530.499999999997
 21
1669.050449974541
 31
0.0
  0
LINE
  5
141E2
330
1A
100
AcDbEntity
  8
ZISSEN1
  6
BYBLOCK
100
AcDbLine
 10
-1531.3
 20
1702.999999999999
 30
0.0
 11
-1531.3
 21
1669.000000000001
 31
0.0
  0
LINE
  5
141E3
330
1A
100
AcDbEntity
  8
ZISSEN1
  6
BYBLOCK
100
AcDbLine
 10
-1530.300000000138
 20
1668.0
 30
0.0
 11
-1530.29999900735
 21
1695.899999999999
 31
0.0
  0
LINE
  5
141E4
330
1A
100
AcDbEntity
  8
ZISSEN1
  6
BYBLOCK
100
AcDbLine
 10
-1422.7
 20
1668.0
 30
0.0
 11
-1530.300000000138
 21
1668.0
 31
0.0
  0
LINE
  5
141E5
330
1A
100
AcDbEntity
  8
ZISSEN1
  6
BYBLOCK
100
AcDbLine
 10
-1515.600000000137
 20
1706.099999999999
 30
0.0
 11
-1499.700000000138
 21
1706.099999999999
 31
0.0
  0
LINE
  5
141E6
330
1A
100
AcDbEntity
  8
ZISSEN1
  6
BYBLOCK
100
AcDbLine
 10
-1524.999999068192
 20
1689.299999999999
 30
0.0
 11
-1498.399999068192
 21
1689.299999999999
 31
0.0
  0
LINE
  5
141E7
330
1A
100
AcDbEntity
  8
ZISSEN1
  6
BYBLOCK
100
AcDbLine
 10
-1524.999999068192
 20
1701.499999999999
 30
0.0
 11
-1498.399999068192
 21
1701.499999999999
 31
0.0
  0
LINE
  5
141E8
330
1A
100
AcDbEntity
  8
ZISSEN1
  6
BYBLOCK
100
AcDbLine
 10
-1422.496011914172
 20
1702.999999999999
 30
0.0
 11
-1421.696011914169
 21
1702.999999999999
 31
0.0
  0
LINE
  5
141E9
330
1A
100
AcDbEntity
  8
ZISSEN1
  6
BYBLOCK
100
AcDbLine
 10
-1422.496011914172
 20
1702.499999999999
 30
0.0
 11
-1421.696011914169
 21
1702.499999999999
 31
0.0
  0
ARC
  5
141EA
330
1A
100
AcDbEntity
  8
ZISSEN1
  6
BYBLOCK
100
AcDbCircle
 10
-1422.53365041091
 20
1668.837638496738
 30
0.0
 40
0.8532288725551467
100
AcDbArc
 50
259.0302515055351
 51
10.96974849453129
  0
ARC
  5
141EB
330
1A
100
AcDbEntity
  8
ZISSEN1
  6
BYBLOCK
100
AcDbCircle
 10
-1422.133546442601
 20
1668.43753452843
 30
0.0
 40
0.712603585647422
100
AcDbArc
 50
52.12112052102717
 51
142.646469636634
  0
LINE
  5
141EC
330
1A
100
AcDbEntity
  8
ZISSEN1
  6
BYBLOCK
100
AcDbLine
 10
-1445.443298743099
 20
1696.899999999999
 30
0.0
 11
-1444.143298743099
 21
1696.899999999999
 31
0.0
  0
LINE
  5
141ED
330
1A
100
AcDbEntity
  8
ZISSEN1
  6
BYBLOCK
100
AcDbLine
 10
-1444.143298743099
 20
1696.899999999999
 30
0.0
 11
-1444.143298743099
 21
1697.399999999999
 31
0.0
  0
LINE
  5
141EE
330
1A
100
AcDbEntity
  8
ZISSEN1
  6
BYBLOCK
100
AcDbLine
 10
-1445.443298743099
 20
1696.899999999999
 30
0.0
 11
-1445.443298743099
 21
1697.399999999999
 31
0.0
  0
LINE
  5
141EF
330
1A
100
AcDbEntity
  8
ZISSEN1
  6
BYBLOCK
100
AcDbLine
 10
-1445.443298743099
 20
1697.399999999999
 30
0.0
 11
-1444.143298743099
 21
1697.399999999999
 31
0.0
  0
LINE
  5
141F0
330
1A
100
AcDbEntity
  8
ZISSEN1
  6
BYBLOCK
100
AcDbLine
 10
-1444.993298743098
 20
1696.899999999999
 30
0.0
 11
-1444.993298743098
 21
1695.899999999999
 31
0.0
  0
LINE
  5
141F1
330
1A
100
AcDbEntity
  8
ZISSEN1
  6
BYBLOCK
100
AcDbLine
 10
-1444.5932987431
 20
1695.899999999999
 30
0.0
 11
-1444.5932987431
 21
1696.899999999999
 31
0.0
  0
LINE
  5
141F2
330
1A
100
AcDbEntity
  8
ZISSEN1
  6
BYBLOCK
100
AcDbLine
 10
-1445.443298743099
 20
1695.899999999999
 30
0.0
 11
-1444.143298743099
 21
1695.899999999999
 31
0.0
  0
LINE
  5
141F3
330
1A
100
AcDbEntity
  8
ZISSEN1
  6
BYBLOCK
100
AcDbLine
 10
-1445.443298743099
 20
1695.399999999999
 30
0.0
 11
-1445.443298743099
 21
1695.899999999999
 31
0.0
  0
LINE
  5
141F4
330
1A
100
AcDbEntity
  8
ZISSEN1
  6
BYBLOCK
100
AcDbLine
 10
-1444.143298743099
 20
1695.399999999999
 30
0.0
 11
-1444.143298743099
 21
1695.899999999999
 31
0.0
  0
LINE
  5
141F5
330
1A
100
AcDbEntity
  8
ZISSEN1
  6
BYBLOCK
100
AcDbLine
 10
-1445.443298743099
 20
1695.399999999999
 30
0.0
 11
-1444.143298743099
 21
1695.399999999999
 31
0.0
  0
LINE
  5
141F6
330
1A
100
AcDbEntity
  8
ZISSEN1
  6
BYBLOCK
100
AcDbLine
 10
-1501.953298743377
 20
1696.899999999999
 30
0.0
 11
-1500.653298743376
 21
1696.899999999999
 31
0.0
  0
LINE
  5
141F7
330
1A
100
AcDbEntity
  8
ZISSEN1
  6
BYBLOCK
100
AcDbLine
 10
-1500.653298743376
 20
1696.899999999999
 30
0.0
 11
-1500.653298743376
 21
1697.399999999999
 31
0.0
  0
LINE
  5
141F8
330
1A
100
AcDbEntity
  8
ZISSEN1
  6
BYBLOCK
100
AcDbLine
 10
-1501.953298743377
 20
1696.899999999999
 30
0.0
 11
-1501.953298743377
 21
1697.399999999999
 31
0.0
  0
LINE
  5
141F9
330
1A
100
AcDbEntity
  8
ZISSEN1
  6
BYBLOCK
100
AcDbLine
 10
-1501.953298743377
 20
1697.399999999999
 30
0.0
 11
-1500.653298743376
 21
1697.399999999999
 31
0.0
  0
LINE
  5
141FA
330
1A
100
AcDbEntity
  8
ZISSEN1
  6
BYBLOCK
100
AcDbLine
 10
-1501.503298743376
 20
1696.899999999999
 30
0.0
 11
-1501.503298743376
 21
1695.899999999999
 31
0.0
  0
LINE
  5
141FB
330
1A
100
AcDbEntity
  8
ZISSEN1
  6
BYBLOCK
100
AcDbLine
 10
-1501.103298743376
 20
1695.899999999999
 30
0.0
 11
-1501.103298743376
 21
1696.899999999999
 31
0.0
  0
LINE
  5
141FC
330
1A
100
AcDbEntity
  8
ZISSEN1
  6
BYBLOCK
100
AcDbLine
 10
-1501.953298743377
 20
1695.899999999999
 30
0.0
 11
-1500.653298743376
 21
1695.899999999999
 31
0.0
  0
LINE
  5
141FD
330
1A
100
AcDbEntity
  8
ZISSEN1
  6
BYBLOCK
100
AcDbLine
 10
-1501.953298743377
 20
1695.399999999999
 30
0.0
 11
-1501.953298743377
 21
1695.899999999999
 31
0.0
  0
LINE
  5
141FE
330
1A
100
AcDbEntity
  8
ZISSEN1
  6
BYBLOCK
100
AcDbLine
 10
-1500.653298743376
 20
1695.399999999999
 30
0.0
 11
-1500.653298743376
 21
1695.899999999999
 31
0.0
  0
LINE
  5
141FF
330
1A
100
AcDbEntity
  8
ZISSEN1
  6
BYBLOCK
100
AcDbLine
 10
-1501.953298743377
 20
1695.399999999999
 30
0.0
 11
-1500.653298743376
 21
1695.399999999999
 31
0.0
  0
LINE
  5
14200
330
1A
100
AcDbEntity
  8
ZISSEN1
100
AcDbLine
 10
-1499.372283025609
 20
1616.999772911772
 30
0.0
 11
-1499.372283025609
 21
1615.299772911772
 31
0.0
  0
LINE
  5
14201
330
1A
100
AcDbEntity
  8
ZISSEN1
100
AcDbLine
 10
-1468.147884870573
 20
1712.899999999999
 30
0.0
 11
-1468.147884870573
 21
1714.078026981506
 31
0.0
  0
LINE
  5
14202
330
1A
100
AcDbEntity
  8
ZISSEN1
100
AcDbLine
 10
-1461.847884870574
 20
1712.899999999999
 30
0.0
 11
-1461.847884870574
 21
1714.069999999999
 31
0.0
  0
ELLIPSE
  5
14203
330
1A
100
AcDbEntity
  8
ZISSEN1
100
AcDbEllipse
 10
-1464.997884870576
 20
1714.069999999999
 30
0.0
 11
-3.150046866924351
 21
0.0042443339574968
 31
0.0
210
0.0
220
0.0
230
0.9999999999999998
 40
0.2331831804059615
 41
3.147370825759074
 42
6.288963479348868
  0
LINE
  5
14204
330
1A
100
AcDbEntity
  8
ZISSEN1
100
AcDbLine
 10
-1429.14979904914
 20
1712.899999999999
 30
0.0
 11
-1429.14979904914
 21
1714.078026981506
 31
0.0
  0
LINE
  5
14205
330
1A
100
AcDbEntity
  8
ZISSEN1
100
AcDbLine
 10
-1422.849799049141
 20
1712.899999999999
 30
0.0
 11
-1422.849799049141
 21
1714.069999999999
 31
0.0
  0
ELLIPSE
  5
14206
330
1A
100
AcDbEntity
  8
ZISSEN1
100
AcDbEllipse
 10
-1425.999799049139
 20
1714.069999999999
 30
0.0
 11
-3.150046866924351
 21
0.0042443339574968
 31
0.0
210
0.0
220
0.0
230
0.9999999999999998
 40
0.2331831804059615
 41
3.147370825759074
 42
6.288963479348868
  0
LINE
  5
14207
330
1A
100
AcDbEntity
  8
ZISSEN1
100
AcDbLine
 10
-1479.350000000136
 20
1712.899999999999
 30
0.0
 11
-1479.350000000136
 21
1714.069999999999
 31
0.0
  0
ELLIPSE
  5
14208
330
1A
100
AcDbEntity
  8
ZISSEN1
100
AcDbEllipse
 10
-1482.500000000134
 20
1714.069999999999
 30
0.0
 11
-3.150046866924351
 21
0.0042443339574968
 31
0.0
210
0.0
220
0.0
230
0.9999999999999998
 40
0.2331831804059615
 41
3.147370825759074
 42
6.288963479348868
  0
LINE
  5
14209
330
1A
100
AcDbEntity
  8
ZISSEN1
100
AcDbLine
 10
-1485.650000000136
 20
1712.899999999999
 30
0.0
 11
-1485.650000000136
 21
1714.078026981506
 31
0.0
  0
LINE
  5
1420A
330
1A
100
AcDbEntity
  8
ZISSEN1
100
AcDbLine
 10
-1530.299999999999
 20
1702.001071775273
 30
0.0
 11
-1530.299999999999
 21
1703.499137813299
 31
0.0
  0
LINE
  5
1424D
330
1A
100
AcDbEntity
  8
ZISSEN1
  6
BYBLOCK
100
AcDbLine
 10
-1530.500000000135
 20
1543.0
 30
0.0
 11
-1530.500000000135
 21
1545.499772911771
 31
0.0
  0
LINE
  5
1424E
330
1A
100
AcDbEntity
  8
ZISSEN1
  6
BYBLOCK
100
AcDbLine
 10
-1589.500010242187
 20
1545.499233558523
 30
0.0
 11
-1589.500010242187
 21
1543.000007054946
 31
0.0
  0
LINE
  5
14283
330
1A
100
AcDbEntity
  8
ZISSEN1
  6
BYBLOCK
100
AcDbLine
 10
-1360.500108130993
 20
1545.499226503576
 30
0.0
 11
-1360.500108130993
 21
1543.0
 31
0.0
  0
LINE
  5
14290
330
1A
100
AcDbEntity
  8
ZISSEN1
100
AcDbLine
 10
-1589.399999999997
 20
1617.999772911772
 30
0.0
 11
-1589.399999999997
 21
1612.499999999995
 31
0.0
  0
LINE
  5
14291
330
1A
100
AcDbEntity
  8
ZISSEN1
100
AcDbLine
 10
-1591.0
 20
1617.999772911772
 30
0.0
 11
-1590.999999999999
 21
1612.499999999995
 31
0.0
  0
LINE
  5
14292
330
1A
100
AcDbEntity
  8
ZISSEN1
 48
0.4
100
AcDbLine
 10
-1344.349999999998
 20
1552.752859564916
 30
0.0
 11
-1345.099999999998
 21
1552.752859564916
 31
0.0
  0
LINE
  5
14293
330
1A
100
AcDbEntity
  8
ZISSEN1
 48
0.4
100
AcDbLine
 10
-1344.349999999998
 20
1547.252859564916
 30
0.0
 11
-1345.099999999998
 21
1547.252859564916
 31
0.0
  0
ELLIPSE
  5
14294
330
1A
100
AcDbEntity
  8
ZISSEN1
 48
0.4
100
AcDbEllipse
 10
-1344.349999999998
 20
1550.002859564916
 30
0.0
 11
-0.0000000000000017
 21
-2.75
 31
0.0
210
0.0
220
0.0
230
1.0
 40
0.3090909090909173
 41
6.283185307179586
 42
9.424777960769379
  0
LINE
  5
14295
330
1A
100
AcDbEntity
  8
ZISSEN1
 48
0.4
100
AcDbLine
 10
-1344.349999999998
 20
1605.248341507301
 30
0.0
 11
-1345.099999999998
 21
1605.248341507301
 31
0.0
  0
LINE
  5
14296
330
1A
100
AcDbEntity
  8
ZISSEN1
 48
0.4
100
AcDbLine
 10
-1344.349999999998
 20
1610.748341507301
 30
0.0
 11
-1345.099999999998
 21
1610.748341507301
 31
0.0
  0
ELLIPSE
  5
14297
330
1A
100
AcDbEntity
  8
ZISSEN1
 48
0.4
100
AcDbEllipse
 10
-1344.349999999998
 20
1607.998341507301
 30
0.0
 11
-0.0000000000000017
 21
-2.75
 31
0.0
210
0.0
220
0.0
230
1.0
 40
0.3090909090909173
 41
6.283185307179586
 42
9.424777960769379
  0
LINE
  5
14298
330
1A
100
AcDbEntity
  8
ZISSEN1
 48
0.4
100
AcDbLine
 10
-1605.649999999998
 20
1605.251473731985
 30
0.0
 11
-1604.899999999998
 21
1605.251473731985
 31
0.0
  0
LINE
  5
14299
330
1A
100
AcDbEntity
  8
ZISSEN1
 48
0.4
100
AcDbLine
 10
-1605.649999999998
 20
1610.751473731984
 30
0.0
 11
-1604.899999999998
 21
1610.751473731984
 31
0.0
  0
ELLIPSE
  5
1429A
330
1A
100
AcDbEntity
  8
ZISSEN1
 48
0.4
100
AcDbEllipse
 10
-1605.649999999998
 20
1608.001473731984
 30
0.0
 11
0.0000000000000013
 21
2.75
 31
0.0
210
0.0
220
0.0
230
1.0
 40
0.3090909090909173
 41
6.283185307179586
 42
9.424777960769379
  0
LINE
  5
1429B
330
1A
100
AcDbEntity
  8
ZISSEN1
 48
0.4
100
AcDbLine
 10
-1605.649999999998
 20
1551.247140435083
 30
0.0
 11
-1604.899999999998
 21
1551.247140435083
 31
0.0
  0
LINE
  5
1429C
330
1A
100
AcDbEntity
  8
ZISSEN1
 48
0.4
100
AcDbLine
 10
-1605.649999999998
 20
1545.747140435082
 30
0.0
 11
-1604.899999999998
 21
1545.747140435082
 31
0.0
  0
ELLIPSE
  5
1429D
330
1A
100
AcDbEntity
  8
ZISSEN1
 48
0.4
100
AcDbEllipse
 10
-1605.649999999998
 20
1548.497140435083
 30
0.0
 11
0.0000000000000013
 21
2.75
 31
0.0
210
0.0
220
0.0
230
1.0
 40
0.3090909090909173
 41
6.283185307179586
 42
9.424777960769379
  0
LINE
  5
1429E
330
1A
100
AcDbEntity
  8
ZISSEN1
  6
BYBLOCK
100
AcDbLine
 10
-1421.699999999862
 20
1612.499772911771
 30
0.0
 11
-1421.699999999862
 21
1543.0
 31
0.0
  0
LINE
  5
1429F
330
1A
100
AcDbEntity
  8
ZISSEN1
  6
DASHEDX2
100
AcDbLine
 10
-1422.699999999862
 20
1612.499772911771
 30
0.0
 11
-1421.699999999862
 21
1612.499772911771
 31
0.0
  0
LINE
  5
142A0
330
1A
100
AcDbEntity
  8
ZISSEN1
  6
BYBLOCK
100
AcDbLine
 10
-1531.300000000136
 20
1612.499772911771
 30
0.0
 11
-1531.300000000136
 21
1543.0
 31
0.0
  0
LINE
  5
142A1
330
1A
100
AcDbEntity
  8
ZISSEN1
  6
BYBLOCK
100
AcDbLine
 10
-1530.300000000136
 20
1612.499772911771
 30
0.0
 11
-1531.300000000136
 21
1612.499772911771
 31
0.0
  0
LINE
  5
142A2
330
1A
100
AcDbEntity
  8
ZISSEN1
  6
BYBLOCK
100
AcDbLine
 10
-1589.500010242187
 20
1545.499999974026
 30
0.0
 11
-1559.999999999999
 21
1545.496809435639
 31
0.0
  0
LINE
  5
142A3
330
1A
100
AcDbEntity
  8
ZISSEN1
  6
BYBLOCK
100
AcDbLine
 10
-1595.000113949134
 20
1611.499999999995
 30
0.0
 11
-1595.000012496673
 21
1543.0
 31
0.0
  0
LINE
  5
142A4
330
1A
100
AcDbEntity
  8
ZISSEN1
  6
BYBLOCK
100
AcDbLine
 10
-1595.000113949134
 20
1611.499999999995
 30
0.0
 11
-1594.000113949134
 21
1612.499999999995
 31
0.0
  0
LINE
  5
142A5
330
1A
100
AcDbEntity
  8
ZISSEN1
  6
BYBLOCK
100
AcDbLine
 10
-1594.000113949134
 20
1612.499999999995
 30
0.0
 11
-1560.0
 21
1612.499999999995
 31
0.0
  0
LINE
  5
142A6
330
1A
100
AcDbEntity
  8
ZISSEN1
  6
BYBLOCK
100
AcDbLine
 10
-1592.5
 20
1615.3
 30
0.0
 11
-1592.5
 21
1614.5
 31
0.0
  0
LINE
  5
142A7
330
1A
100
AcDbEntity
  8
ZISSEN1
  6
BYBLOCK
100
AcDbLine
 10
-1587.899999999997
 20
1615.3
 30
0.0
 11
-1587.899999941329
 21
1614.500000073335
 31
0.0
  0
LINE
  5
142A8
330
1A
100
AcDbEntity
  8
ZISSEN1
  6
BYBLOCK
100
AcDbLine
 10
-1357.5
 20
1615.3
 30
0.0
 11
-1357.49999994133
 21
1614.500000073335
 31
0.0
  0
LINE
  5
142A9
330
1A
100
AcDbEntity
  8
ZISSEN1
  6
BYBLOCK
100
AcDbLine
 10
-1362.100000000002
 20
1615.3
 30
0.0
 11
-1362.100000000002
 21
1614.5
 31
0.0
  0
LINE
  5
142AA
330
1A
100
AcDbEntity
  8
ZISSEN1
  6
BYBLOCK
100
AcDbLine
 10
-1591.5
 20
1614.5
 30
0.0
 11
-1604.399999999999
 21
1614.5
 31
0.0
  0
LINE
  5
142AB
330
1A
100
AcDbEntity
  8
ZISSEN1
  6
BYBLOCK
100
AcDbLine
 10
-1591.5
 20
1615.3
 30
0.0
 11
-1604.399999999999
 21
1615.3
 31
0.0
  0
LINE
  5
142AC
330
1A
100
AcDbEntity
  8
ZISSEN1
  6
BYBLOCK
100
AcDbLine
 10
-1591.5
 20
1615.3
 30
0.0
 11
-1591.5
 21
1614.5
 31
0.0
  0
LINE
  5
142AD
330
1A
100
AcDbEntity
  8
ZISSEN1
  6
BYBLOCK
100
AcDbLine
 10
-1588.899999999997
 20
1615.3
 30
0.0
 11
-1588.899999999997
 21
1614.5
 31
0.0
  0
ARC
  5
142AE
330
1A
100
AcDbEntity
  8
ZISSEN1
  6
BYBLOCK
100
AcDbCircle
 10
-1571.213330145612
 20
1621.799999999899
 30
0.0
 40
4.499999999899344
100
AcDbArc
 50
269.9999999992704
 51
44.04818042888543
  0
LINE
  5
142AF
330
1A
100
AcDbEntity
  8
ZISSEN1
  6
BYBLOCK
100
AcDbLine
 10
-1568.213330145612
 20
1613.300000000001
 30
0.0
 11
-1568.373330145614
 21
1612.499999999995
 31
0.0
  0
LINE
  5
142B0
330
1A
100
AcDbEntity
  8
ZISSEN1
  6
BYBLOCK
100
AcDbLine
 10
-1568.213330145612
 20
1613.300000000001
 30
0.0
 11
-1569.213330145612
 21
1613.300000000001
 31
0.0
  0
LINE
  5
142B1
330
1A
100
AcDbEntity
  8
ZISSEN1
  6
BYBLOCK
100
AcDbLine
 10
-1569.479996812279
 20
1612.499999999995
 30
0.0
 11
-1569.213330145612
 21
1613.300000000001
 31
0.0
  0
LINE
  5
142B2
330
1A
100
AcDbEntity
  8
ZISSEN1
  6
BYBLOCK
100
AcDbLine
 10
-1572.946663478944
 20
1612.499999999995
 30
0.0
 11
-1573.213330145612
 21
1613.300000000001
 31
0.0
  0
LINE
  5
142B3
330
1A
100
AcDbEntity
  8
ZISSEN1
  6
BYBLOCK
100
AcDbLine
 10
-1574.213330145612
 20
1613.300000000001
 30
0.0
 11
-1574.05333014561
 21
1612.499999999995
 31
0.0
  0
LINE
  5
142B4
330
1A
100
AcDbEntity
  8
ZISSEN1
  6
BYBLOCK
100
AcDbLine
 10
-1574.213330145612
 20
1613.300000000001
 30
0.0
 11
-1573.213330145612
 21
1613.300000000001
 31
0.0
  0
LINE
  5
142B5
330
1A
100
AcDbEntity
  8
ZISSEN1
  6
BYBLOCK
100
AcDbLine
 10
-1572.213330145611
 20
1614.5
 30
0.0
 11
-1572.213330145611
 21
1612.499999999995
 31
0.0
  0
LINE
  5
142B6
330
1A
100
AcDbEntity
  8
ZISSEN1
  6
BYBLOCK
100
AcDbLine
 10
-1570.21333014561
 20
1614.5
 30
0.0
 11
-1570.213330145612
 21
1612.499999999995
 31
0.0
  0
CIRCLE
  5
142B7
330
1A
100
AcDbEntity
  8
ZISSEN1
  6
BYBLOCK
100
AcDbCircle
 10
-1574.713330145669
 20
1634.800000000003
 30
0.0
 40
2.5
  0
CIRCLE
  5
142B8
330
1A
100
AcDbEntity
  8
SOUZOUSEN
  6
DASHEDX2
100
AcDbCircle
 10
-1567.713330145668
 20
1634.800000000003
 30
0.0
 40
2.5
  0
ARC
  5
142B9
330
1A
100
AcDbEntity
  8
ZISSEN1
  6
BYBLOCK
100
AcDbCircle
 10
-1581.216122887024
 20
1630.860702685075
 30
0.0
 40
9.000000000005877
100
AcDbArc
 50
318.7677222001029
 51
16.80907674979346
  0
ARC
  5
142BA
330
1A
100
AcDbEntity
  8
ZISSEN1
  6
BYBLOCK
100
AcDbCircle
 10
-1581.216122887021
 20
1630.860702685074
 30
0.0
 40
10.00000000000281
100
AcDbArc
 50
318.6143716170803
 51
26.54061289283247
  0
ARC
  5
142BB
330
1A
100
AcDbEntity
  8
ZISSEN1
  6
BYBLOCK
100
AcDbCircle
 10
-1571.213330145743
 20
1621.799999999871
 30
0.0
 40
3.499999999866912
100
AcDbArc
 50
135.5852410691343
 51
270.0000000011985
  0
ARC
  5
142BC
330
1A
100
AcDbEntity
  8
ZISSEN1
  6
BYBLOCK
100
AcDbCircle
 10
-1571.213330145725
 20
1621.799999999899
 30
0.0
 40
4.499999999899344
100
AcDbArc
 50
135.9518195711145
 51
270.0000000007295
  0
ARC
  5
142BD
330
1A
100
AcDbEntity
  8
ZISSEN1
  6
BYBLOCK
100
AcDbCircle
 10
-1571.213330145594
 20
1621.799999999871
 30
0.0
 40
3.499999999866912
100
AcDbArc
 50
269.9999999988014
 51
44.4147589308656
  0
ARC
  5
142BE
330
1A
100
AcDbEntity
  8
ZISSEN1
  6
BYBLOCK
100
AcDbCircle
 10
-1561.210537404315
 20
1630.860702685074
 30
0.0
 40
10.00000000000281
100
AcDbArc
 50
153.4593871071675
 51
221.3856283829196
  0
ARC
  5
142BF
330
1A
100
AcDbEntity
  8
ZISSEN1
  6
BYBLOCK
100
AcDbCircle
 10
-1561.210537404313
 20
1630.860702685075
 30
0.0
 40
9.000000000005877
100
AcDbArc
 50
163.1909232502065
 51
221.232277799897
  0
CIRCLE
  5
142C0
330
1A
100
AcDbEntity
  8
ZISSEN1
  6
BYBLOCK
100
AcDbCircle
 10
-1567.713330145668
 20
1634.800000000003
 30
0.0
 40
2.5
  0
LINE
  5
142C1
330
1A
100
AcDbEntity
  8
ZISSEN1
  6
BYBLOCK
100
AcDbLine
 10
-1571.213330145612
 20
1617.300000000001
 30
0.0
 11
-1568.213330145612
 21
1617.300000000001
 31
0.0
  0
LINE
  5
142C2
330
1A
100
AcDbEntity
  8
ZISSEN1
  6
BYBLOCK
100
AcDbLine
 10
-1574.213330145612
 20
1617.300000000004
 30
0.0
 11
-1571.213330145729
 21
1617.300000000001
 31
0.0
  0
LINE
  5
142C3
330
1A
100
AcDbEntity
  8
ZISSEN1
  6
DASHEDX2
100
AcDbLine
 10
-1568.213330145612
 20
1617.300000000001
 30
0.0
 11
-1568.213330145612
 21
1616.800000000001
 31
0.0
  0
LINE
  5
142C4
330
1A
100
AcDbEntity
  8
ZISSEN1
  6
BYBLOCK
100
AcDbLine
 10
-1574.213330145847
 20
1617.300000000001
 30
0.0
 11
-1579.214441304984
 21
1616.3
 31
0.0
  0
LINE
  5
142C5
330
1A
100
AcDbEntity
  8
ZISSEN1
  6
BYBLOCK
100
AcDbLine
 10
-1574.213330145847
 20
1616.800000000001
 30
0.0
 11
-1578.724146777784
 21
1615.898037118473
 31
0.0
  0
LINE
  5
142C6
330
1A
100
AcDbEntity
  8
ZISSEN1
  6
BYBLOCK
100
AcDbLine
 10
-1568.213330145612
 20
1617.300000000001
 30
0.0
 11
-1568.213330145612
 21
1615.300000000001
 31
0.0
  0
LINE
  5
142C7
330
1A
100
AcDbEntity
  8
ZISSEN1
  6
BYBLOCK
100
AcDbLine
 10
-1574.213330145612
 20
1615.300000000001
 30
0.0
 11
-1574.213330145612
 21
1617.300000000004
 31
0.0
  0
LINE
  5
142C8
330
1A
100
AcDbEntity
  8
ZISSEN1
  6
BYBLOCK
100
AcDbLine
 10
-1568.213330145612
 20
1616.800000000001
 30
0.0
 11
-1563.702513513674
 21
1615.898037118473
 31
0.0
  0
CIRCLE
  5
142C9
330
1A
100
AcDbEntity
  8
ZISSEN1
  6
BYBLOCK
100
AcDbCircle
 10
-1563.212218986475
 20
1615.8
 30
0.0
 40
0.5
  0
CIRCLE
  5
142CA
330
1A
100
AcDbEntity
  8
ZISSEN1
  6
BYBLOCK
100
AcDbCircle
 10
-1579.214441304984
 20
1615.8
 30
0.0
 40
0.5
  0
LINE
  5
142CB
330
1A
100
AcDbEntity
  8
ZISSEN1
  6
BYBLOCK
100
AcDbLine
 10
-1568.213330145612
 20
1617.300000000001
 30
0.0
 11
-1563.212218986475
 21
1616.3
 31
0.0
  0
LINE
  5
142CC
330
1A
100
AcDbEntity
  8
ZISSEN1
  6
BYBLOCK
100
AcDbLine
 10
-1440.898045977199
 20
1697.399999999999
 30
0.0
 11
-1431.498045977197
 21
1697.399999999999
 31
0.0
  0
LINE
  5
142CD
330
1A
100
AcDbEntity
  8
ZISSEN1
  6
BYBLOCK
100
AcDbLine
 10
-1497.398045977472
 20
1697.399999999999
 30
0.0
 11
-1487.998045977474
 21
1697.399999999999
 31
0.0
  0
CIRCLE
  5
142CE
330
1A
100
AcDbEntity
  8
ZISSEN1
100
AcDbCircle
 10
-1519.9147182011
 20
1674.214356581827
 30
0.0
 40
2.5
  0
LINE
  5
142CF
330
1A
100
AcDbEntity
  8
ZISSEN1
100
AcDbLine
 10
-1522.9147182011
 20
1670.714356581828
 30
0.0
 11
-1516.9147182011
 21
1670.714356581827
 31
0.0
  0
LINE
  5
142D0
330
1A
100
AcDbEntity
  8
ZISSEN1
100
AcDbLine
 10
-1522.9147182011
 20
1687.714356581827
 30
0.0
 11
-1522.9147182011
 21
1670.714356581828
 31
0.0
  0
LINE
  5
142D1
330
1A
100
AcDbEntity
  8
ZISSEN1
100
AcDbLine
 10
-1516.914718201099
 20
1687.714356581827
 30
0.0
 11
-1522.9147182011
 21
1687.714356581827
 31
0.0
  0
LINE
  5
142D2
330
1A
100
AcDbEntity
  8
ZISSEN1
100
AcDbLine
 10
-1520.4147182011
 20
1679.214356581828
 30
0.0
 11
-1520.414718201101
 21
1676.663846324612
 31
0.0
  0
LINE
  5
142D3
330
1A
100
AcDbEntity
  8
ZISSEN1
100
AcDbLine
 10
-1519.414718201099
 20
1679.214356581828
 30
0.0
 11
-1519.4147182011
 21
1676.663846324612
 31
0.0
  0
LINE
  5
142D4
330
1A
100
AcDbEntity
  8
ZISSEN1
100
AcDbLine
 10
-1519.414718201099
 20
1679.214356581828
 30
0.0
 11
-1519.4147182011
 21
1681.764866839044
 31
0.0
  0
LINE
  5
142D5
330
1A
100
AcDbEntity
  8
ZISSEN1
100
AcDbLine
 10
-1520.4147182011
 20
1679.214356581828
 30
0.0
 11
-1520.4147182011
 21
1681.764866839045
 31
0.0
  0
CIRCLE
  5
142D6
330
1A
100
AcDbEntity
  8
ZISSEN1
100
AcDbCircle
 10
-1519.9147182011
 20
1684.214356581827
 30
0.0
 40
2.5
  0
LINE
  5
142D7
330
1A
100
AcDbEntity
  8
ZISSEN1
100
AcDbLine
 10
-1520.4147182011
 20
1679.214356581828
 30
0.0
 11
-1519.4147182011
 21
1679.214356581827
 31
0.0
  0
LINE
  5
142D8
330
1A
100
AcDbEntity
  8
ZISSEN1
100
AcDbLine
 10
-1516.9147182011
 20
1670.714356581827
 30
0.0
 11
-1516.914718201099
 21
1687.714356581827
 31
0.0
  0
LINE
  5
142D9
330
1A
100
AcDbEntity
  8
ZISSEN1
  6
BYBLOCK
100
AcDbLine
 10
-1383.600000000002
 20
1612.5
 30
0.0
 11
-1383.600000000002
 21
1614.5
 31
0.0
  0
LINE
  5
142DA
330
1A
100
AcDbEntity
  8
ZISSEN1
  6
BYBLOCK
100
AcDbLine
 10
-1385.2
 20
1612.5
 30
0.0
 11
-1385.2
 21
1614.5
 31
0.0
  0
LINE
  5
142DB
330
1A
100
AcDbEntity
  8
ZISSEN1
  6
BYBLOCK
100
AcDbLine
 10
-1354.942556961581
 20
1545.614999999999
 30
0.0
 11
-1354.0
 21
1545.614999999999
 31
0.0
  0
LINE
  5
142DC
330
1A
100
AcDbEntity
  8
ZISSEN1
  6
BYBLOCK
100
AcDbLine
 10
-1355.0
 20
1548.499999999999
 30
0.0
 11
-1354.0
 21
1548.499999999999
 31
0.0
  0
LINE
  5
142DD
330
1A
100
AcDbEntity
  8
ZISSEN1
  6
BYBLOCK
100
AcDbLine
 10
-1355.0
 20
1551.384999999999
 30
0.0
 11
-1354.0
 21
1551.384999999999
 31
0.0
  0
LINE
  5
142DE
330
1A
100
AcDbEntity
  8
ZISSEN1
  6
BYBLOCK
100
AcDbLine
 10
-1376.900000000001
 20
1613.52
 30
0.0
 11
-1376.900000000001
 21
1614.5
 31
0.0
  0
LINE
  5
142DF
330
1A
100
AcDbEntity
  8
ZISSEN1
  6
BYBLOCK
100
AcDbLine
 10
-1355.0
 20
1611.5
 30
0.0
 11
-1354.0
 21
1611.5
 31
0.0
  0
LINE
  5
142E0
330
1A
100
AcDbEntity
  8
ZISSEN1
  6
BYBLOCK
100
AcDbLine
 10
-1354.0
 20
1608.615
 30
0.0
 11
-1355.0
 21
1608.615
 31
0.0
  0
LINE
  5
142E1
330
1A
100
AcDbEntity
  8
ZISSEN1
  6
BYBLOCK
100
AcDbLine
 10
-1358.0
 20
1612.5
 30
0.0
 11
-1358.0
 21
1614.385
 31
0.0
  0
LINE
  5
142E2
330
1A
100
AcDbEntity
  8
ZISSEN1
  6
BYBLOCK
100
AcDbLine
 10
-1360.600000000002
 20
1613.52
 30
0.0
 11
-1383.600000000002
 21
1613.5
 31
0.0
  0
LINE
  5
142E3
330
1A
100
AcDbEntity
  8
ZISSEN1
  6
BYBLOCK
100
AcDbLine
 10
-1356.0
 20
1612.5
 30
0.0
 11
-1390.0
 21
1612.5
 31
0.0
  0
LINE
  5
142E4
330
1A
100
AcDbEntity
  8
ZISSEN1
  6
BYBLOCK
100
AcDbLine
 10
-1344.7
 20
1619.0
 30
0.0
 11
-1344.7
 21
1610.748341507301
 31
0.0
  0
LINE
  5
142E5
330
1A
100
AcDbEntity
  8
ZISSEN1
  6
BYBLOCK
100
AcDbLine
 10
-1351.400000000001
 20
1619.0
 30
0.0
 11
-1351.400000000001
 21
1615.299999574658
 31
0.0
  0
LINE
  5
142E6
330
1A
100
AcDbEntity
  8
ZISSEN1
  6
BYBLOCK
100
AcDbLine
 10
-1352.299999999999
 20
1618.7
 30
0.0
 11
-1352.299999750659
 21
1615.299999508656
 31
0.0
  0
LINE
  5
142E7
330
1A
100
AcDbEntity
  8
ZISSEN1
  6
BYBLOCK
100
AcDbLine
 10
-1359.0
 20
1618.7
 30
0.0
 11
-1359.0
 21
1612.5
 31
0.0
  0
LINE
  5
142E8
330
1A
100
AcDbEntity
  8
ZISSEN1
  6
BYBLOCK
100
AcDbLine
 10
-1348.099999999998
 20
1545.499999999999
 30
0.0
 11
-1348.799999999999
 21
1545.499999999999
 31
0.0
  0
LINE
  5
142EA
330
1A
100
AcDbEntity
  8
ZISSEN1
  6
BYBLOCK
100
AcDbLine
 10
-1389.999999999996
 20
1545.5
 30
0.0
 11
-1385.100000000002
 21
1545.5
 31
0.0
  0
LINE
  5
142EB
330
1A
100
AcDbEntity
  8
ZISSEN1
  6
BYBLOCK
100
AcDbLine
 10
-1384.100000000002
 20
1595.102665780546
 30
0.0
 11
-1384.100000000002
 21
1546.5
 31
0.0
  0
LINE
  5
142EC
330
1A
100
AcDbEntity
  8
ZISSEN1
  6
BYBLOCK
100
AcDbLine
 10
-1385.100000000002
 20
1545.5
 30
0.0
 11
-1384.100000000002
 21
1546.5
 31
0.0
  0
LINE
  5
142ED
330
1A
100
AcDbEntity
  8
ZISSEN1
  6
BYBLOCK
100
AcDbLine
 10
-1373.99821166143
 20
1595.099474667344
 30
0.0
 11
-1373.999949088534
 21
1546.976809435643
 31
0.0
  0
LINE
  5
142EE
330
1A
100
AcDbEntity
  8
ZISSEN1
  6
BYBLOCK
100
AcDbLine
 10
-1373.999949088534
 20
1546.976809435643
 30
0.0
 11
-1372.999949088534
 21
1545.496809435644
 31
0.0
  0
LINE
  5
142EF
330
1A
100
AcDbEntity
  8
ZISSEN1
  6
BYBLOCK
100
AcDbLine
 10
-1360.500108130993
 20
1545.499999974031
 30
0.0
 11
-1372.999949088534
 21
1545.496809435644
 31
0.0
  0
LINE
  5
142F0
330
1A
100
AcDbEntity
  8
ZISSEN1
  6
BYBLOCK
100
AcDbLine
 10
-1355.0
 20
1611.5
 30
0.0
 11
-1356.0
 21
1612.5
 31
0.0
  0
LINE
  5
142F1
330
1A
100
AcDbEntity
  8
ZISSEN1
  6
BYBLOCK
100
AcDbLine
 10
-1355.0
 20
1611.5
 30
0.0
 11
-1355.000105780316
 21
1543.0
 31
0.0
  0
LINE
  5
142F2
330
1A
100
AcDbEntity
  8
ZISSEN1
  6
BYBLOCK
100
AcDbLine
 10
-1490.397607084862
 20
1672.799999999999
 30
0.0
 11
-1503.397595214065
 21
1672.800000403293
 31
0.0
  0
LINE
  5
142F3
330
1A
100
AcDbEntity
  8
ZISSEN1
  6
BYBLOCK
100
AcDbLine
 10
-1490.397607084862
 20
1674.40000000031
 30
0.0
 11
-1503.397579049587
 21
1674.400000403827
 31
0.0
  0
LINE
  5
142F4
330
1A
100
AcDbEntity
  8
ZISSEN1
  6
BYBLOCK
100
AcDbLine
 10
-1485.696388586035
 20
1674.399999999999
 30
0.0
 11
-1476.699999999862
 21
1674.399999999999
 31
0.0
  0
LINE
  5
142F5
330
1A
100
AcDbEntity
  8
ZISSEN1
100
AcDbLine
 10
-1500.750267187993
 20
1678.349999999999
 30
0.0
 11
-1500.750267187993
 21
1674.899999999999
 31
0.0
  0
LINE
  5
142F6
330
1A
100
AcDbEntity
  8
ZISSEN1
100
AcDbLine
 10
-1493.050267187995
 20
1678.349999999999
 30
0.0
 11
-1493.050267187995
 21
1674.899999999999
 31
0.0
  0
LINE
  5
142F7
330
1A
100
AcDbEntity
  8
ZISSEN1
100
AcDbLine
 10
-1500.750267187993
 20
1674.899999999999
 30
0.0
 11
-1501.850267187993
 21
1674.899999999999
 31
0.0
  0
LINE
  5
142F8
330
1A
100
AcDbEntity
  8
ZISSEN1
100
AcDbLine
 10
-1501.850267187993
 20
1674.899999999999
 30
0.0
 11
-1501.850267187993
 21
1674.399999999999
 31
0.0
  0
LINE
  5
142F9
330
1A
100
AcDbEntity
  8
ZISSEN1
100
AcDbLine
 10
-1491.950267187992
 20
1674.899999999999
 30
0.0
 11
-1491.950267187992
 21
1674.399999999999
 31
0.0
  0
LINE
  5
142FA
330
1A
100
AcDbEntity
  8
ZISSEN1
100
AcDbLine
 10
-1493.050267187995
 20
1674.899999999999
 30
0.0
 11
-1491.950267187992
 21
1674.899999999999
 31
0.0
  0
LINE
  5
142FB
330
1A
100
AcDbEntity
  8
ZISSEN1
100
AcDbLine
 10
-1500.750267187993
 20
1678.349999999999
 30
0.0
 11
-1493.050267187995
 21
1678.349999999999
 31
0.0
  0
LINE
  5
142FC
330
1A
100
AcDbEntity
  8
ZISSEN1
  6
BYBLOCK
100
AcDbLine
 10
-1528.000000000136
 20
1698.999999999999
 30
0.0
 11
-1528.000000000136
 21
1697.399999999999
 31
0.0
  0
LINE
  5
142FD
330
1A
100
AcDbEntity
  8
ZISSEN1
  6
BYBLOCK
100
AcDbLine
 10
-1529.000000000136
 20
1698.999999999999
 30
0.0
 11
-1529.000000000136
 21
1697.399999999999
 31
0.0
  0
LINE
  5
142FE
330
1A
100
AcDbEntity
  8
ZISSEN1
  6
BYBLOCK
100
AcDbLine
 10
-1423.989999999863
 20
1698.999999999999
 30
0.0
 11
-1423.989999999863
 21
1697.399999999999
 31
0.0
  0
LINE
  5
142FF
330
1A
100
AcDbEntity
  8
ZISSEN1
  6
BYBLOCK
100
AcDbLine
 10
-1424.989999999863
 20
1697.399999999999
 30
0.0
 11
-1424.989999999863
 21
1698.999999999999
 31
0.0
  0
ARC
  5
14300
330
1A
100
AcDbEntity
  8
ZISSEN1
100
AcDbCircle
 10
-1485.166388586036
 20
1617.999772911772
 30
0.0
 40
1.0
100
AcDbArc
 50
270.0
 51
0.0
  0
ARC
  5
14301
330
1A
100
AcDbEntity
  8
ZISSEN1
100
AcDbCircle
 10
-1477.166387657463
 20
1617.999772911772
 30
0.0
 40
1.0
100
AcDbArc
 50
180.0
 51
270.0
  0
LINE
  5
14302
330
1A
100
AcDbEntity
  8
ZISSEN1
  6
BYBLOCK
100
AcDbLine
 10
-1485.166388586036
 20
1615.299772911772
 30
0.0
 11
-1530.300000000136
 21
1615.299772911772
 31
0.0
  0
LINE
  5
14303
330
1A
100
AcDbEntity
  8
ZISSEN1
  6
BYBLOCK
100
AcDbLine
 10
-1484.166388586036
 20
1617.999772911772
 30
0.0
 11
-1478.166387657464
 21
1617.999772911772
 31
0.0
  0
LINE
  5
14304
330
1A
100
AcDbEntity
  8
ZISSEN1
  6
BYBLOCK
100
AcDbLine
 10
-1477.166387657463
 20
1616.999772911772
 30
0.0
 11
-1477.166387657463
 21
1615.299772911772
 31
0.0
  0
LINE
  5
14305
330
1A
100
AcDbEntity
  8
ZISSEN1
  6
BYBLOCK
100
AcDbLine
 10
-1485.166388586036
 20
1616.999772911772
 30
0.0
 11
-1485.166388586036
 21
1615.299772911772
 31
0.0
  0
LINE
  5
14306
330
1A
100
AcDbEntity
  8
ZISSEN1
  6
BYBLOCK
100
AcDbLine
 10
-1478.196387657462
 20
1672.799999999999
 30
0.0
 11
-1478.196386943178
 21
1674.399999999999
 31
0.0
  0
LINE
  5
14307
330
1A
100
AcDbEntity
  8
ZISSEN1
  6
BYBLOCK
100
AcDbLine
 10
-1484.196388586035
 20
1674.399999999999
 30
0.0
 11
-1484.196388586035
 21
1672.799999999999
 31
0.0
  0
LINE
  5
14308
330
1A
100
AcDbEntity
  8
ZISSEN1
  6
BYBLOCK
100
AcDbLine
 10
-1477.196387657462
 20
1672.799999999999
 30
0.0
 11
-1477.196386943178
 21
1674.399999999999
 31
0.0
  0
LINE
  5
14309
330
1A
100
AcDbEntity
  8
ZISSEN1
  6
BYBLOCK
100
AcDbLine
 10
-1485.196388586035
 20
1674.399999999999
 30
0.0
 11
-1485.196388586035
 21
1672.799999999999
 31
0.0
  0
LINE
  5
1430A
330
1A
100
AcDbEntity
  8
ZISSEN1
  6
CONTINUOUS
 62
     7
100
AcDbLine
 10
-1509.987582978303
 20
1695.049999999999
 30
0.0
 11
-1503.387583236368
 21
1695.049999999999
 31
0.0
  0
LINE
  5
1430B
330
1A
100
AcDbEntity
  8
ZISSEN1
  6
CONTINUOUS
 62
     7
100
AcDbLine
 10
-1509.987582978303
 20
1697.399999999999
 30
0.0
 11
-1509.987582978303
 21
1695.049999999999
 31
0.0
  0
LINE
  5
1430C
330
1A
100
AcDbEntity
  8
ZISSEN1
  6
CONTINUOUS
 62
     7
100
AcDbLine
 10
-1503.387583236368
 20
1697.399999999999
 30
0.0
 11
-1503.387583236368
 21
1695.049999999999
 31
0.0
  0
LINE
  5
1430D
330
1A
100
AcDbEntity
  8
ZISSEN1
  6
BYBLOCK
100
AcDbLine
 10
-1475.201124302421
 20
1674.399999999999
 30
0.0
 11
-1428.50112430242
 21
1674.399999999999
 31
0.0
  0
LINE
  5
1430E
330
1A
100
AcDbEntity
  8
ZISSEN1
  6
BYBLOCK
100
AcDbLine
 10
-1474.671124302418
 20
1674.399999999999
 30
0.0
 11
-1457.301124302422
 21
1674.399999999999
 31
0.0
  0
LINE
  5
1430F
330
1A
100
AcDbEntity
  8
ZISSEN1
  6
BYBLOCK
100
AcDbLine
 10
-1438.901124302421
 20
1674.399999999999
 30
0.0
 11
-1429.00112430242
 21
1674.399999999999
 31
0.0
  0
LINE
  5
14310
330
1A
100
AcDbEntity
  8
ZISSEN1
  6
BYBLOCK
100
AcDbLine
 10
-1345.599999999998
 20
1614.50000094602
 30
0.0
 11
-1358.500003006789
 21
1614.5
 31
0.0
  0
LINE
  5
14311
330
1A
100
AcDbEntity
  8
ZISSEN1
  6
BYBLOCK
100
AcDbLine
 10
-1345.599999999998
 20
1615.3
 30
0.0
 11
-1358.500003006789
 21
1615.29999905398
 31
0.0
  0
LINE
  5
14312
330
1A
100
AcDbEntity
  8
ZISSEN1
  6
BYBLOCK
100
AcDbLine
 10
-1358.5
 20
1615.3
 30
0.0
 11
-1358.5
 21
1614.5
 31
0.0
  0
LINE
  5
14313
330
1A
100
AcDbEntity
  8
ZISSEN1
  6
BYBLOCK
100
AcDbLine
 10
-1361.100000000002
 20
1615.3
 30
0.0
 11
-1361.100000000002
 21
1614.5
 31
0.0
  0
LINE
  5
14314
330
1A
100
AcDbEntity
  8
ZISSEN1
  6
BYBLOCK
100
AcDbLine
 10
-1462.024565577114
 20
1615.299772911772
 30
0.0
 11
-1452.024565577114
 21
1615.299772911772
 31
0.0
  0
LINE
  5
14315
330
1A
100
AcDbEntity
  8
ZISSEN1
  6
BYBLOCK
100
AcDbLine
 10
-1477.166387657463
 20
1615.299772911772
 30
0.0
 11
-1422.699999999862
 21
1615.299772911772
 31
0.0
  0
DIMENSION
  5
14316
330
1A
100
AcDbEntity
  8
SUNPOU
  6
BYBLOCK
100
AcDbDimension
  2
*D1
 10
-1384.4265016793
 20
1712.899999999999
 30
0.0
 11
-1384.4265016793
 21
1690.05
 31
0.0
 70
   160
  3
ISO-25
100
AcDbAlignedDimension
 13
-1471.2
 23
1667.200000000001
 33
0.0
 14
-1422.5
 24
1712.899999999999
 34
0.0
 50
90.0
100
AcDbRotatedDimension
1001
ACAD
1000
DSTYLE
1002
{
1070
   140
1040
3.5
1002
}
  0
MTEXT
  5
14317
330
1A
100
AcDbEntity
  8
ZISSEN1
  6
BYBLOCK
100
AcDbMText
 10
-1395.830531842229
 20
1668.056156311697
 30
0.0
 40
3.0
 41
44.4205
 71
     1
 72
     5
  1
{\fＭＳ ゴシック|b0|i0|c128|p49;(USER取付寸法)}
 11
0.0000000000000001
 21
1.0
 31
0.0
1001
ACAD
1000
MTEXTBEGIN
1070
    73
1070
     1
1070
    44
1040
1.0
1070
    74
1070
     0
1000
MTEXTEND
  0
DIMENSION
  5
14318
330
1A
100
AcDbEntity
  8
SUNPOU
  6
BYBLOCK
100
AcDbDimension
  2
*D2
 10
-1413.0
 20
1641.385116576834
 30
0.0
 11
-1476.5
 21
1641.385116576834
 31
0.0
 70
   160
  3
ISO-25
100
AcDbAlignedDimension
 13
-1540.0
 23
1675.0
 33
0.0
 14
-1413.0
 24
1681.899999999999
 34
0.0
100
AcDbRotatedDimension
1001
ACAD
1000
DSTYLE
1002
{
1070
   140
1040
3.5
1002
}
  0
DIMENSION
  5
14319
330
1A
100
AcDbEntity
  8
SUNPOU
  6
BYBLOCK
100
AcDbDimension
  2
*D3
 10
-1416.5
 20
1649.517986351784
 30
0.0
 11
-1476.5
 21
1649.517986351784
 31
0.0
 70
   160
  3
ISO-25
100
AcDbAlignedDimension
 13
-1536.499999999997
 23
1690.399999999999
 33
0.0
 14
-1416.5
 24
1688.649999999999
 34
0.0
100
AcDbRotatedDimension
1001
ACAD
1000
DSTYLE
1002
{
1070
   140
1040
3.5
1002
}
  0
LINE
  5
1431A
330
1A
100
AcDbEntity
  8
ZISSEN1
  6
BYBLOCK
100
AcDbLine
 10
-1444.151124302421
 20
1614.499772911772
 30
0.0
 11
-1434.151124302421
 21
1614.499772911772
 31
0.0
  0
LINE
  5
1431B
330
1A
100
AcDbEntity
  8
ZISSEN1
  6
BYBLOCK
100
AcDbLine
 10
-1462.051124302419
 20
1614.499772911772
 30
0.0
 11
-1452.051124302419
 21
1614.499772911772
 31
0.0
  0
LINE
  5
1431C
330
1A
100
AcDbEntity
  8
ZISSEN1
  6
BYBLOCK
100
AcDbLine
 10
-1444.151124302421
 20
1612.499772911771
 30
0.0
 11
-1434.151124302421
 21
1612.499772911771
 31
0.0
  0
LINE
  5
1431D
330
1A
100
AcDbEntity
  8
ZISSEN1
  6
BYBLOCK
100
AcDbLine
 10
-1444.151124302421
 20
1612.499772911771
 30
0.0
 11
-1444.151124302421
 21
1615.299772911772
 31
0.0
  0
ARC
  5
1431E
330
1A
100
AcDbEntity
  8
ZISSEN1
  6
BYBLOCK
100
AcDbCircle
 10
-1436.551124302423
 20
1613.999772911771
 30
0.0
 40
0.5
100
AcDbArc
 50
90.0
 51
180.0
  0
LINE
  5
1431F
330
1A
100
AcDbEntity
  8
ZISSEN1
  6
BYBLOCK
100
AcDbLine
 10
-1462.051124302419
 20
1615.299772911772
 30
0.0
 11
-1462.051124302419
 21
1612.499772911771
 31
0.0
  0
LINE
  5
14320
330
1A
100
AcDbEntity
  8
ZISSEN1
  6
BYBLOCK
100
AcDbLine
 10
-1462.051124302419
 20
1612.499772911771
 30
0.0
 11
-1452.051124302419
 21
1612.499772911771
 31
0.0
  0
LINE
  5
14321
330
1A
100
AcDbEntity
  8
ZISSEN1
  6
BYBLOCK
100
AcDbLine
 10
-1434.151124302421
 20
1612.499772911771
 30
0.0
 11
-1434.151124302421
 21
1615.299772911772
 31
0.0
  0
LINE
  5
14322
330
1A
100
AcDbEntity
  8
ZISSEN1
  6
BYBLOCK
100
AcDbLine
 10
-1441.25112430242
 20
1612.999772911771
 30
0.0
 11
-1437.051124302423
 21
1612.999772911771
 31
0.0
  0
ARC
  5
14323
330
1A
100
AcDbEntity
  8
ZISSEN1
  6
BYBLOCK
100
AcDbCircle
 10
-1441.75112430242
 20
1613.999772911771
 30
0.0
 40
0.5
100
AcDbArc
 50
0.0
 51
90.0
  0
LINE
  5
14324
330
1A
100
AcDbEntity
  8
ZISSEN1
  6
BYBLOCK
100
AcDbLine
 10
-1441.25112430242
 20
1613.999772911771
 30
0.0
 11
-1441.25112430242
 21
1612.999772911771
 31
0.0
  0
LINE
  5
14325
330
1A
100
AcDbEntity
  8
ZISSEN1
  6
BYBLOCK
100
AcDbLine
 10
-1437.051124302423
 20
1613.999772911771
 30
0.0
 11
-1437.051124302423
 21
1612.999772911771
 31
0.0
  0
LINE
  5
14326
330
1A
100
AcDbEntity
  8
ZISSEN1
  6
BYBLOCK
100
AcDbLine
 10
-1484.511693441847
 20
1614.765994246974
 30
0.0
 11
-1477.911693441845
 21
1614.765994246974
 31
0.0
  0
LINE
  5
14327
330
1A
100
AcDbEntity
  8
ZISSEN1
  6
BYBLOCK
100
AcDbLine
 10
-1477.911693441845
 20
1614.765994246974
 30
0.0
 11
-1477.911693441845
 21
1610.795994246974
 31
0.0
  0
LINE
  5
14328
330
1A
100
AcDbEntity
  8
ZISSEN1
  6
BYBLOCK
100
AcDbLine
 10
-1484.511693441843
 20
1610.795994246974
 30
0.0
 11
-1484.511693441843
 21
1614.765994246974
 31
0.0
  0
LINE
  5
14329
330
1A
100
AcDbEntity
  8
ZISSEN1
  6
BYBLOCK
100
AcDbLine
 10
-1485.666388586036
 20
1610.795994246974
 30
0.0
 11
-1476.499999999862
 21
1610.795994246974
 31
0.0
  0
LINE
  5
1432A
330
1A
100
AcDbEntity
  8
ZISSEN1
  6
BYBLOCK
100
AcDbLine
 10
-1476.499999999862
 20
1615.299772911772
 30
0.0
 11
-1476.499999999862
 21
1610.795994246974
 31
0.0
  0
LINE
  5
1432B
330
1A
100
AcDbEntity
  8
ZISSEN1
  6
BYBLOCK
100
AcDbLine
 10
-1485.666388586036
 20
1615.299772911772
 30
0.0
 11
-1485.666388586036
 21
1610.795994246974
 31
0.0
  0
LINE
  5
1432C
330
1A
100
AcDbEntity
  8
ZISSEN1
  6
BYBLOCK
100
AcDbLine
 10
-1485.696388586035
 20
1672.799999999999
 30
0.0
 11
-1476.699999999862
 21
1672.799999999999
 31
0.0
  0
LINE
  5
1432D
330
1A
100
AcDbEntity
  8
ZISSEN1
100
AcDbLine
 10
-1429.00112430242
 20
1618.699772911772
 30
0.0
 11
-1429.00112430242
 21
1615.299772911772
 31
0.0
  0
LINE
  5
1432E
330
1A
100
AcDbEntity
  8
ZISSEN1
100
AcDbLine
 10
-1438.901124302417
 20
1618.699772911772
 30
0.0
 11
-1438.901124302417
 21
1615.299772911772
 31
0.0
  0
LINE
  5
1432F
330
1A
100
AcDbEntity
  8
ZISSEN1
100
AcDbLine
 10
-1438.901124302417
 20
1618.699772911772
 30
0.0
 11
-1429.00112430242
 21
1618.699772911772
 31
0.0
  0
LINE
  5
14330
330
1A
100
AcDbEntity
  8
ZISSEN1
100
AcDbLine
 10
-1418.801124302419
 20
1593.102438692317
 30
0.0
 11
-1418.801124302419
 21
1573.202438692318
 31
0.0
  0
LINE
  5
14331
330
1A
100
AcDbEntity
  8
ZISSEN1
100
AcDbLine
 10
-1418.801124302419
 20
1593.102438692317
 30
0.0
 11
-1421.699999999862
 21
1593.102438692317
 31
0.0
  0
LINE
  5
14332
330
1A
100
AcDbEntity
  8
ZISSEN1
100
AcDbLine
 10
-1418.801124302419
 20
1573.202438692318
 30
0.0
 11
-1421.699999999862
 21
1573.202438692318
 31
0.0
  0
LINE
  5
14333
330
1A
100
AcDbEntity
  8
ZISSEN1
100
AcDbLine
 10
-1439.401124302418
 20
1618.699772911772
 30
0.0
 11
-1439.401124302418
 21
1615.299772911772
 31
0.0
  0
LINE
  5
14334
330
1A
100
AcDbEntity
  8
ZISSEN1
100
AcDbLine
 10
-1456.801124302419
 20
1618.699772911772
 30
0.0
 11
-1456.801124302423
 21
1615.299772911772
 31
0.0
  0
LINE
  5
14335
330
1A
100
AcDbEntity
  8
ZISSEN1
100
AcDbLine
 10
-1456.801124302419
 20
1618.699772911772
 30
0.0
 11
-1439.401124302418
 21
1618.699772911772
 31
0.0
  0
LINE
  5
14336
330
1A
100
AcDbEntity
  8
ZISSEN1
100
AcDbLine
 10
-1474.701124302417
 20
1618.699772911772
 30
0.0
 11
-1457.301124302419
 21
1618.699772911772
 31
0.0
  0
LINE
  5
14337
330
1A
100
AcDbEntity
  8
ZISSEN1
100
AcDbLine
 10
-1474.701124302417
 20
1618.699772911772
 30
0.0
 11
-1474.701124302417
 21
1615.299772911772
 31
0.0
  0
LINE
  5
14338
330
1A
100
AcDbEntity
  8
ZISSEN1
100
AcDbLine
 10
-1457.301124302419
 20
1618.699772911772
 30
0.0
 11
-1457.301124302419
 21
1615.299772911772
 31
0.0
  0
LINE
  5
14339
330
1A
100
AcDbEntity
  8
SOUZOUSEN
  6
PHANTOMX2
100
AcDbLine
 10
-1421.699999999862
 20
1568.202438692317
 30
0.0
 11
-1414.901124302417
 21
1568.202438692317
 31
0.0
  0
LINE
  5
1433A
330
1A
100
AcDbEntity
  8
SOUZOUSEN
  6
PHANTOMX2
100
AcDbLine
 10
-1421.699999999862
 20
1552.402438692317
 30
0.0
 11
-1414.901124302417
 21
1552.402438692317
 31
0.0
  0
LINE
  5
1433B
330
1A
100
AcDbEntity
  8
SOUZOUSEN
  6
PHANTOMX2
100
AcDbLine
 10
-1414.901124302417
 20
1552.402438692317
 30
0.0
 11
-1414.901124302417
 21
1568.202438692317
 31
0.0
  0
LINE
  5
1433C
330
1A
100
AcDbEntity
  8
ZISSEN1
  6
BYBLOCK
100
AcDbLine
 10
-1587.059027600026
 20
1614.5
 30
0.0
 11
-1587.059027600026
 21
1612.499999999995
 31
0.0
  0
LINE
  5
1433D
330
1A
100
AcDbEntity
  8
ZISSEN1
  6
BYBLOCK
100
AcDbLine
 10
-1588.899999999998
 20
1614.825994246975
 30
0.0
 11
-1589.259027406229
 21
1614.825994246975
 31
0.0
  0
LINE
  5
1433E
330
1A
100
AcDbEntity
  8
ZISSEN1
  6
BYBLOCK
100
AcDbLine
 10
-1488.696124302416
 20
1546.499772911771
 30
0.0
 11
-1487.696124302416
 21
1545.499772911771
 31
0.0
  0
LINE
  5
1433F
330
1A
100
AcDbEntity
  8
ZISSEN1
  6
BYBLOCK
100
AcDbLine
 10
-1520.596124302418
 20
1546.499772911771
 30
0.0
 11
-1521.596124302418
 21
1545.499772911771
 31
0.0
  0
LINE
  5
14340
330
1A
100
AcDbEntity
  8
ZISSEN1
  6
BYBLOCK
100
AcDbLine
 10
-1487.696124302416
 20
1545.499772911771
 30
0.0
 11
-1531.300000000136
 21
1545.499772911772
 31
0.0
  0
LINE
  5
14341
330
1A
100
AcDbEntity
  8
ZISSEN1
  6
BYBLOCK
100
AcDbLine
 10
-1488.696124302416
 20
1550.499772911772
 30
0.0
 11
-1488.696124302416
 21
1546.499772911771
 31
0.0
  0
LINE
  5
14342
330
1A
100
AcDbEntity
  8
ZISSEN1
  6
BYBLOCK
100
AcDbLine
 10
-1604.899999999999
 20
1608.9
 30
0.0
 11
-1604.899999999999
 21
1614.5
 31
0.0
  0
CIRCLE
  5
14345
330
1A
100
AcDbEntity
  8
ZISSEN1
  6
BYBLOCK
100
AcDbCircle
 10
-1475.2
 20
1549.499772911772
 30
0.0
 40
2.75
  0
LINE
  5
14346
330
1A
100
AcDbEntity
  8
ZISSEN1
  6
BYBLOCK
100
AcDbLine
 10
-1487.696124302416
 20
1545.499772911772
 30
0.0
 11
-1479.2
 21
1545.499772911772
 31
0.0
  0
LINE
  5
14347
330
1A
100
AcDbEntity
  8
ZISSEN1
  6
BYBLOCK
100
AcDbLine
 10
-1422.699999999862
 20
1615.299772911772
 30
0.0
 11
-1422.699999999862
 21
1612.499772911771
 31
0.0
  0
LINE
  5
14348
330
1A
100
AcDbEntity
  8
ZISSEN1
  6
BYBLOCK
100
AcDbLine
 10
-1530.300000000136
 20
1615.299772911772
 30
0.0
 11
-1530.300000000136
 21
1612.499772911771
 31
0.0
  0
LINE
  5
14349
330
1A
100
AcDbEntity
  8
ZISSEN1
100
AcDbLine
 10
-1443.893298743099
 20
1697.399999999999
 30
0.0
 11
-1443.893298743099
 21
1698.999999999998
 31
0.0
  0
LINE
  5
1434A
330
1A
100
AcDbEntity
  8
ZISSEN1
 48
0.3
100
AcDbLine
 10
-1465.492140020185
 20
1698.999999999999
 30
0.0
 11
-1465.492140020185
 21
1697.399999999999
 31
0.0
  0
LINE
  5
1434B
330
1A
100
AcDbEntity
  8
ZISSEN1
  6
BYBLOCK
100
AcDbLine
 10
-1500.403298743376
 20
1698.999999999999
 30
0.0
 11
-1500.403298743376
 21
1697.399999999999
 31
0.0
  0
LINE
  5
1434C
330
1A
100
AcDbEntity
  8
ZISSEN1
  6
BYBLOCK
100
AcDbLine
 10
-1522.002140020459
 20
1698.999999999999
 30
0.0
 11
-1522.002140020459
 21
1697.399999999999
 31
0.0
  0
LINE
  5
1434D
330
1A
100
AcDbEntity
  8
ZISSEN1
  6
BYBLOCK
100
AcDbLine
 10
-1429.00112430242
 20
1618.699772911772
 30
0.0
 11
-1429.00112430242
 21
1615.299772911772
 31
0.0
  0
LINE
  5
1434E
330
1A
100
AcDbEntity
  8
ZISSEN1
  6
BYBLOCK
100
AcDbLine
 10
-1438.901124302421
 20
1618.699772911772
 30
0.0
 11
-1429.00112430242
 21
1618.699772911772
 31
0.0
  0
LINE
  5
1434F
330
1A
100
AcDbEntity
  8
ZISSEN1
  6
BYBLOCK
100
AcDbLine
 10
-1456.801124302419
 20
1618.699772911771
 30
0.0
 11
-1439.401124302421
 21
1618.699772911772
 31
0.0
  0
LINE
  5
14350
330
1A
100
AcDbEntity
  8
ZISSEN1
  6
BYBLOCK
100
AcDbLine
 10
-1474.70112430242
 20
1618.699772911772
 30
0.0
 11
-1457.301124302419
 21
1618.699772911771
 31
0.0
  0
LINE
  5
14351
330
1A
100
AcDbEntity
  8
ZISSEN1
  6
BYBLOCK
100
AcDbLine
 10
-1500.171124302692
 20
1618.699772911771
 30
0.0
 11
-1500.171695687138
 21
1617.398990591302
 31
0.0
  0
LINE
  5
14352
330
1A
100
AcDbEntity
  8
ZISSEN1
  6
BYBLOCK
100
AcDbLine
 10
-1515.071124302691
 20
1618.699772911771
 30
0.0
 11
-1500.171124302692
 21
1618.699772911771
 31
0.0
  0
LINE
  5
14353
330
1A
100
AcDbEntity
  8
ZISSEN1
  6
BYBLOCK
100
AcDbLine
 10
-1515.07112430269
 20
1617.999772911772
 30
0.0
 11
-1515.071124302691
 21
1618.699772911771
 31
0.0
  0
LINE
  5
14354
330
1A
100
AcDbEntity
  8
ZISSEN1
  6
BYBLOCK
100
AcDbLine
 10
-1488.997030259706
 20
1618.699772911772
 30
0.0
 11
-1488.997030259706
 21
1615.299772911772
 31
0.0
  0
LINE
  5
14355
330
1A
100
AcDbEntity
  8
ZISSEN1
  6
BYBLOCK
100
AcDbLine
 10
-1496.397030259708
 20
1618.699772911772
 30
0.0
 11
-1488.997030259706
 21
1618.699772911772
 31
0.0
  0
LINE
  5
14356
330
1A
100
AcDbEntity
  8
ZISSEN1
  6
BYBLOCK
100
AcDbLine
 10
-1496.397030259704
 20
1615.299772911772
 30
0.0
 11
-1496.397030259708
 21
1618.699772911772
 31
0.0
  0
LINE
  5
14357
330
1A
100
AcDbEntity
  8
ZISSEN1
100
AcDbLine
 10
-1520.871124302692
 20
1617.999772911772
 30
0.0
 11
-1500.372283025609
 21
1617.999772911772
 31
0.0
  0
LINE
  5
14358
330
1A
100
AcDbEntity
  8
ZISSEN1
100
AcDbLine
 10
-1522.971124302693
 20
1615.299772911772
 30
0.0
 11
-1522.971124302692
 21
1616.999772911772
 31
0.0
  0
LINE
  5
14359
330
1A
100
AcDbEntity
  8
ZISSEN1
  6
BYBLOCK
100
AcDbLine
 10
-1526.971124302692
 20
1615.999772911772
 30
0.0
 11
-1526.971124302692
 21
1615.299772911772
 31
0.0
  0
LINE
  5
1435A
330
1A
100
AcDbEntity
  8
ZISSEN1
100
AcDbLine
 10
-1528.971124302692
 20
1615.999772911772
 30
0.0
 11
-1526.971124302692
 21
1615.999772911772
 31
0.0
  0
LINE
  5
1435B
330
1A
100
AcDbEntity
  8
ZISSEN1
  6
BYBLOCK
100
AcDbLine
 10
-1560.799999999999
 20
1545.5
 30
0.0
 11
-1559.999999999998
 21
1545.5
 31
0.0
  0
LINE
  5
1435D
330
1A
100
AcDbEntity
  8
ZISSEN1
100
AcDbLine
 10
-1359.0
 20
1617.180453937977
 30
0.0
 11
-1360.600000000002
 21
1617.180453937977
 31
0.0
  0
LINE
  5
1435E
330
1A
100
AcDbEntity
  8
ZISSEN1
  6
BYBLOCK
100
AcDbLine
 10
-1589.399999999997
 20
1616.999772911772
 30
0.0
 11
-1591.0
 21
1616.999772911772
 31
0.0
  0
LINE
  5
1435F
330
1A
100
AcDbEntity
  8
ZISSEN1
  6
BYBLOCK
100
AcDbLine
 10
-1589.399999999997
 20
1617.999772911772
 30
0.0
 11
-1591.0
 21
1617.999772911772
 31
0.0
  0
LINE
  5
14360
330
1A
100
AcDbEntity
  8
ZISSEN1
  6
BYBLOCK
100
AcDbLine
 10
-1605.299999999998
 20
1619.0
 30
0.0
 11
-1605.299999999997
 21
1610.751473731984
 31
0.0
  0
LINE
  5
14362
330
1A
100
AcDbEntity
  8
ZISSEN1
  6
BYBLOCK
100
AcDbLine
 10
-1598.599999999998
 20
1615.3
 30
0.0
 11
-1598.599999999998
 21
1619.0
 31
0.0
  0
LINE
  5
14363
330
1A
100
AcDbEntity
  8
ZISSEN1
  6
BYBLOCK
100
AcDbLine
 10
-1597.699999999999
 20
1618.7
 30
0.0
 11
-1591.0
 21
1618.7
 31
0.0
  0
LINE
  5
14364
330
1A
100
AcDbEntity
  8
ZISSEN1
  6
BYBLOCK
100
AcDbLine
 10
-1597.699999999999
 20
1615.3
 30
0.0
 11
-1597.699999999999
 21
1618.7
 31
0.0
  0
LINE
  5
14365
330
1A
100
AcDbEntity
  8
ZISSEN1
  6
BYBLOCK
100
AcDbLine
 10
-1376.900000000001
 20
1615.3
 30
0.0
 11
-1376.900000000001
 21
1618.7
 31
0.0
  0
LINE
  5
14366
330
1A
100
AcDbEntity
  8
ZISSEN1
100
AcDbLine
 10
-1383.600000000002
 20
1618.7
 30
0.0
 11
-1383.600000000002
 21
1615.3
 31
0.0
  0
LINE
  5
14367
330
1A
100
AcDbEntity
  8
ZISSEN1
100
AcDbLine
 10
-1383.600000000002
 20
1618.7
 30
0.0
 11
-1376.900000000001
 21
1618.7
 31
0.0
  0
LINE
  5
14368
330
1A
100
AcDbEntity
  8
ZISSEN1
100
AcDbLine
 10
-1429.00112430242
 20
1674.399999999999
 30
0.0
 11
-1429.00112430242
 21
1681.099999999999
 31
0.0
  0
LINE
  5
14369
330
1A
100
AcDbEntity
  8
ZISSEN1
100
AcDbLine
 10
-1438.901124302421
 20
1681.099999999999
 30
0.0
 11
-1438.901124302421
 21
1674.399999999999
 31
0.0
  0
LINE
  5
1436A
330
1A
100
AcDbEntity
  8
ZISSEN1
100
AcDbLine
 10
-1438.901124302421
 20
1681.099999999999
 30
0.0
 11
-1429.00112430242
 21
1681.099999999999
 31
0.0
  0
LINE
  5
1436B
330
1A
100
AcDbEntity
  8
ZISSEN1
100
AcDbLine
 10
-1485.696388586038
 20
1674.399999999999
 30
0.0
 11
-1485.541386586035
 21
1674.399999999999
 31
0.0
  0
LINE
  5
1436C
330
1A
100
AcDbEntity
  8
ZISSEN1
  6
BYBLOCK
100
AcDbLine
 10
-1420.499999999861
 20
1540.0
 30
0.0
 11
-1420.499999999861
 21
1543.0
 31
0.0
  0
LINE
  5
1436D
330
1A
100
AcDbEntity
  8
ZISSEN1
  6
BYBLOCK
100
AcDbLine
 10
-1418.499999999862
 20
1540.0
 30
0.0
 11
-1418.499999999862
 21
1543.0
 31
0.0
  0
LINE
  5
1436F
330
1A
100
AcDbEntity
  8
ZISSEN1
100
AcDbLine
 10
-1531.499999999998
 20
1543.0
 30
0.0
 11
-1531.499999999998
 21
1540.0
 31
0.0
  0
LINE
  5
14370
330
1A
100
AcDbEntity
  8
ZISSEN1
100
AcDbLine
 10
-1538.0
 20
1543.0
 30
0.0
 11
-1538.0
 21
1540.0
 31
0.0
  0
LINE
  5
14371
330
1A
100
AcDbEntity
  8
ZISSEN1
100
AcDbLine
 10
-1415.0
 20
1540.0
 30
0.0
 11
-1415.0
 21
1543.0
 31
0.0
  0
LINE
  5
14372
330
1A
100
AcDbEntity
  8
ZISSEN1
100
AcDbLine
 10
-1540.0
 20
1543.0
 30
0.0
 11
-1413.0
 21
1543.0
 31
0.0
  0
LINE
  5
14373
330
1A
100
AcDbEntity
  8
ZISSEN1
100
AcDbLine
 10
-1413.0
 20
1540.0
 30
0.0
 11
-1413.0
 21
1543.0
 31
0.0
  0
LINE
  5
14374
330
1A
100
AcDbEntity
  8
ZISSEN1
100
AcDbLine
 10
-1540.0
 20
1543.0
 30
0.0
 11
-1540.0
 21
1540.0
 31
0.0
  0
LINE
  5
14375
330
1A
100
AcDbEntity
  8
ZISSEN1
100
AcDbLine
 10
-1422.499932086964
 20
1613.499772911771
 30
0.0
 11
-1422.699999999862
 21
1613.69984082467
 31
0.0
  0
LINE
  5
14376
330
1A
100
AcDbEntity
  8
ZISSEN1
100
AcDbLine
 10
-1422.499932086964
 20
1613.499772911771
 30
0.0
 11
-1422.499932086964
 21
1612.499772911771
 31
0.0
  0
LINE
  5
14377
330
1A
100
AcDbEntity
  8
ZISSEN1
100
AcDbLine
 10
-1438.901124302421
 20
1618.699772911772
 30
0.0
 11
-1457.301124302419
 21
1618.699772911771
 31
0.0
  0
LINE
  5
14378
330
1A
100
AcDbEntity
  8
ZISSEN1
 62
     0
100
AcDbLine
 10
-1503.396567260537
 20
1615.455994246974
 30
0.0
 11
-1509.996567260536
 21
1615.455994246974
 31
0.0
  0
LINE
  5
14379
330
1A
100
AcDbEntity
  8
ZISSEN1
100
AcDbLine
 10
-1509.996567260535
 20
1615.455994246974
 30
0.0
 11
-1509.996567260535
 21
1615.299772911772
 31
0.0
  0
LINE
  5
1437A
330
1A
100
AcDbEntity
  8
ZISSEN1
100
AcDbLine
 10
-1503.396567260538
 20
1615.299772911772
 30
0.0
 11
-1503.396567260538
 21
1615.455994246974
 31
0.0
  0
LINE
  5
1437B
330
1A
100
AcDbEntity
  8
ZISSEN1
100
AcDbLine
 10
-1510.996567260535
 20
1615.299772911772
 30
0.0
 11
-1510.996567260534
 21
1615.455994246974
 31
0.0
  0
LINE
  5
1437C
330
1A
100
AcDbEntity
  8
ZISSEN1
 62
     0
100
AcDbLine
 10
-1510.996567260536
 20
1615.455994246974
 30
0.0
 11
-1516.914718201102
 21
1615.455994246974
 31
0.0
  0
LINE
  5
1437D
330
1A
100
AcDbEntity
  8
ZISSEN1
100
AcDbLine
 10
-1425.971124302421
 20
1615.999772911772
 30
0.0
 11
-1425.971124302421
 21
1615.299772911772
 31
0.0
  0
LINE
  5
1437E
330
1A
100
AcDbEntity
  8
ZISSEN1
100
AcDbLine
 10
-1522.971124302692
 20
1616.999772911772
 30
0.0
 11
-1522.971124302692
 21
1615.299772911772
 31
0.0
  0
LINE
  5
1437F
330
1A
100
AcDbEntity
  8
ZISSEN1
100
AcDbLine
 10
-1521.971124302692
 20
1617.999772911772
 30
0.0
 11
-1515.071124302691
 21
1617.999772911772
 31
0.0
  0
LINE
  5
14380
330
1A
100
AcDbEntity
  8
ZISSEN1
100
AcDbLine
 10
-1528.971124302692
 20
1615.999772911772
 30
0.0
 11
-1527.971124302692
 21
1615.999772911772
 31
0.0
  0
ARC
  5
14381
330
1A
100
AcDbEntity
  8
ZISSEN1
100
AcDbCircle
 10
-1529.971124302692
 20
1615.999772911772
 30
0.0
 40
1.0
100
AcDbArc
 50
315.5729959991723
 51
0.0
  0
ARC
  5
14382
330
1A
100
AcDbEntity
  8
ZISSEN1
100
AcDbCircle
 10
-1522.971124302692
 20
1617.999772911772
 30
0.0
 40
1.0
100
AcDbArc
 50
270.0
 51
273.2335477768917
  0
ARC
  5
14383
330
1A
100
AcDbEntity
  8
ZISSEN1
100
AcDbCircle
 10
-1499.372283025609
 20
1617.999772911772
 30
0.0
 40
1.0
100
AcDbArc
 50
180.0
 51
270.0
  0
ARC
  5
14384
330
1A
100
AcDbEntity
  8
ZISSEN1
100
AcDbCircle
 10
-1422.971124302421
 20
1615.999772911772
 30
0.0
 40
1.0
100
AcDbArc
 50
180.0
 51
224.4270040008922
  0
LINE
  5
14385
330
1A
100
AcDbEntity
  8
ZISSEN1
100
AcDbLine
 10
-1425.971124302421
 20
1615.999772911772
 30
0.0
 11
-1423.971124302421
 21
1615.999772911772
 31
0.0
  0
LINE
  5
14386
330
1A
100
AcDbEntity
  8
ZISSEN1
  6
BYBLOCK
100
AcDbLine
 10
-1497.398045977472
 20
1706.599999999999
 30
0.0
 11
-1487.998045977474
 21
1706.599999999999
 31
0.0
  0
LINE
  5
14387
330
1A
100
AcDbEntity
  8
ZISSEN1
  6
BYBLOCK
100
AcDbLine
 10
-1440.898045977199
 20
1706.599999999999
 30
0.0
 11
-1431.498045977197
 21
1706.599999999999
 31
0.0
  0
LINE
  5
14388
330
1A
100
AcDbEntity
  8
ZISSEN1
  6
BYBLOCK
100
AcDbLine
 10
-1440.652140020185
 20
1704.999999999999
 30
0.0
 11
-1440.652140020185
 21
1706.599999999999
 31
0.0
  0
LINE
  5
14389
330
1A
100
AcDbEntity
  8
ZISSEN1
  6
BYBLOCK
100
AcDbLine
 10
-1591.0
 20
1614.75
 30
0.0
 11
-1591.0
 21
1618.7
 31
0.0
  0
LINE
  5
1438A
330
1A
100
AcDbEntity
  8
ZISSEN1
100
AcDbLine
 10
-1596.999999999998
 20
1610.6
 30
0.0
 11
-1596.999999999998
 21
1610.0
 31
0.0
  0
ARC
  5
1438B
330
1A
100
AcDbEntity
  8
ZISSEN1
  6
BYBLOCK
100
AcDbCircle
 10
-1560.999999999997
 20
1614.300000000002
 30
0.0
 40
0.999999999998181
100
AcDbArc
 50
359.9999999998958
 51
90.00000000005213
  0
ARC
  5
1438C
330
1A
100
AcDbEntity
  8
ZISSEN1
  6
BYBLOCK
100
AcDbCircle
 10
-1389.000000000003
 20
1614.300000000001
 30
0.0
 40
0.999999999998181
100
AcDbArc
 50
89.99999999989578
 51
180.000000000039
  0
LINE
  5
1438D
330
1A
100
AcDbEntity
  8
ZISSEN1
  6
BYBLOCK
100
AcDbLine
 10
-1603.399999999999
 20
1614.5
 30
0.0
 11
-1603.399999999999
 21
1615.3
 31
0.0
  0
LINE
  5
1438E
330
1A
100
AcDbEntity
  8
ZISSEN1
100
AcDbLine
 10
-1346.599999999998
 20
1614.5
 30
0.0
 11
-1346.599999999998
 21
1615.3
 31
0.0
  0
LINE
  5
1438F
330
1A
100
AcDbEntity
  8
ZISSEN1
  6
BYBLOCK
100
AcDbLine
 10
-1418.499999999862
 20
1674.399999999999
 30
0.0
 11
-1421.696011914169
 21
1674.399999999999
 31
0.0
  0
LINE
  5
14390
330
1A
100
AcDbEntity
  8
ZISSEN1
  6
BYBLOCK
100
AcDbLine
 10
-1418.499999999862
 20
1681.099999999999
 30
0.0
 11
-1418.499999999862
 21
1674.399999999999
 31
0.0
  0
LINE
  5
14391
330
1A
100
AcDbEntity
  8
ZISSEN1
  6
BYBLOCK
100
AcDbLine
 10
-1422.699999999862
 20
1681.099999999999
 30
0.0
 11
-1422.496011914172
 21
1681.099999999999
 31
0.0
  0
LINE
  5
14392
330
1A
100
AcDbEntity
  8
ZISSEN1
  6
BYBLOCK
100
AcDbLine
 10
-1422.989999999863
 20
1697.399999999999
 30
0.0
 11
-1425.989999999863
 21
1697.399999999999
 31
0.0
  0
LINE
  5
14393
330
1A
100
AcDbEntity
  8
ZISSEN1
  6
BYBLOCK
100
AcDbLine
 10
-1422.989999999863
 20
1698.999999999999
 30
0.0
 11
-1422.989999999863
 21
1697.399999999999
 31
0.0
  0
LINE
  5
14394
330
1A
100
AcDbEntity
  8
ZISSEN1
  6
BYBLOCK
100
AcDbLine
 10
-1425.989999999863
 20
1698.999999999999
 30
0.0
 11
-1422.989999999863
 21
1698.999999999999
 31
0.0
  0
LINE
  5
14395
330
1A
100
AcDbEntity
  8
ZISSEN1
  6
BYBLOCK
100
AcDbLine
 10
-1425.989999999863
 20
1697.399999999999
 30
0.0
 11
-1425.989999999863
 21
1698.999999999999
 31
0.0
  0
LINE
  5
14396
330
1A
100
AcDbEntity
  8
ZISSEN1
  6
BYBLOCK
100
AcDbLine
 10
-1524.980000000137
 20
1697.399999999999
 30
0.0
 11
-1498.399999068192
 21
1697.399999999999
 31
0.0
  0
LINE
  5
14397
330
1A
100
AcDbEntity
  8
ZISSEN1
  6
BYBLOCK
100
AcDbLine
 10
-1524.980000000137
 20
1698.999999999999
 30
0.0
 11
-1498.399999068192
 21
1698.999999999999
 31
0.0
  0
LINE
  5
14398
330
1A
100
AcDbEntity
  8
ZISSEN1
  6
BYBLOCK
100
AcDbLine
 10
-1499.403298743376
 20
1698.999999999999
 30
0.0
 11
-1499.403298743376
 21
1697.399999999999
 31
0.0
  0
LINE
  5
14399
330
1A
100
AcDbEntity
  8
ZISSEN1
  6
BYBLOCK
100
AcDbLine
 10
-1527.000000000136
 20
1698.999999999999
 30
0.0
 11
-1527.000000000136
 21
1697.399999999999
 31
0.0
  0
LINE
  5
1439A
330
1A
100
AcDbEntity
  8
ZISSEN1
  6
BYBLOCK
100
AcDbLine
 10
-1530.000000000136
 20
1698.999999999999
 30
0.0
 11
-1530.000000000136
 21
1697.399999999999
 31
0.0
  0
LINE
  5
1439B
330
1A
100
AcDbEntity
  8
ZISSEN1
  6
BYBLOCK
100
AcDbLine
 10
-1345.099999999998
 20
1608.9
 30
0.0
 11
-1345.099999999998
 21
1614.4
 31
0.0
  0
LINE
  5
1439C
330
1A
100
AcDbEntity
  8
ZISSEN1
  6
BYBLOCK
100
AcDbLine
 10
-1351.400000000001
 20
1619.0
 30
0.0
 11
-1344.7
 21
1619.0
 31
0.0
  0
LINE
  5
1439D
330
1A
100
AcDbEntity
  8
ZISSEN1
  6
BYBLOCK
100
AcDbLine
 10
-1359.0
 20
1618.7
 30
0.0
 11
-1352.299999999999
 21
1618.7
 31
0.0
  0
LINE
  5
1439E
330
1A
100
AcDbEntity
  8
ZISSEN1
100
AcDbLine
 10
-1351.400000000001
 20
1614.500000520678
 30
0.0
 11
-1351.400000000001
 21
1610.05
 31
0.0
  0
DIMENSION
  5
1439F
330
1A
100
AcDbEntity
  8
SUNPOU
  6
BYBLOCK
100
AcDbDimension
  2
*D4
 10
-1397.927734185446
 20
1690.899999999999
 30
0.0
 11
-1397.927734185447
 21
1680.450000000001
 31
0.0
 70
   160
  3
ISO-25
100
AcDbAlignedDimension
 13
-1420.499999999861
 23
1668.0
 33
0.0
 14
-1415.0
 24
1690.899999999999
 34
0.0
 50
90.0
100
AcDbRotatedDimension
1001
ACAD
1000
DSTYLE
1002
{
1070
   140
1040
3.5
1002
}
  0
MTEXT
  5
143A0
330
1A
100
AcDbEntity
  8
ZISSEN1
  6
BYBLOCK
100
AcDbMText
 10
-1470.069914703103
 20
1654.456941721602
 30
0.0
 40
3.0
 41
44.4205
 71
     1
 72
     5
  1
{\fＭＳ ゴシック|b0|i0|c128|p49;(USER取付寸法)}
1001
ACAD
1000
MTEXTBEGIN
1070
    73
1070
     1
1070
    44
1040
1.0
1070
    74
1070
     0
1000
MTEXTEND
  0
LINE
  5
143A1
330
1A
100
AcDbEntity
  8
CL1
  6
BYBLOCK
100
AcDbLine
 10
-1416.5
 20
1689.4
 30
0.0
 11
-1416.5
 21
1692.399999999999
 31
0.0
  0
LINE
  5
143A2
330
1A
100
AcDbEntity
  8
CL1
  6
BYBLOCK
100
AcDbLine
 10
-1418.0
 20
1690.899999999999
 30
0.0
 11
-1415.0
 21
1690.899999999999
 31
0.0
  0
LINE
  5
143A3
330
1A
100
AcDbEntity
  8
CL1
  6
BYBLOCK
100
AcDbLine
 10
-1538.499999999997
 20
1690.899999999999
 30
0.0
 11
-1534.499999999997
 21
1690.899999999999
 31
0.0
  0
LINE
  5
143A4
330
1A
100
AcDbEntity
  8
ZISSEN1
  6
BYBLOCK
100
AcDbLine
 10
-1383.600000000002
 20
1545.499999999999
 30
0.0
 11
-1383.600000000002
 21
1589.602507832611
 31
0.0
  0
LINE
  5
143A5
330
1A
100
AcDbEntity
  8
ZISSEN1
  6
BYBLOCK
100
AcDbLine
 10
-1390.0
 20
1545.5
 30
0.0
 11
-1389.2
 21
1545.5
 31
0.0
  0
LINE
  5
143A6
330
1A
100
AcDbEntity
  8
ZISSEN1
  6
BYBLOCK
100
AcDbLine
 10
-1527.000000000136
 20
1697.399999999999
 30
0.0
 11
-1530.000000000136
 21
1697.399999999999
 31
0.0
  0
LINE
  5
143A7
330
1A
100
AcDbEntity
  8
ZISSEN1
  6
BYBLOCK
100
AcDbLine
 10
-1530.000000000136
 20
1698.999999999999
 30
0.0
 11
-1527.000000000136
 21
1698.999999999999
 31
0.0
  0
LINE
  5
143A8
330
1A
100
AcDbEntity
  8
ZISSEN1
100
AcDbLine
 10
-1566.399999999998
 20
1614.500000000001
 30
0.0
 11
-1564.799999999999
 21
1614.500000000001
 31
0.0
  0
LINE
  5
143A9
330
1A
100
AcDbEntity
  8
ZISSEN1
  6
DASHEDX2
100
AcDbLine
 10
-1591.0
 20
1614.5
 30
0.0
 11
-1591.0
 21
1614.5
 31
0.0
  0
LINE
  5
143AA
330
1A
100
AcDbEntity
  8
ZISSEN1
  6
DASHEDX2
100
AcDbLine
 10
-1591.0
 20
1614.5
 30
0.0
 11
-1591.0
 21
1614.5
 31
0.0
  0
LINE
  5
143AB
330
1A
100
AcDbEntity
  8
ZISSEN1
100
AcDbLine
 10
-1560.0
 20
1540.0
 30
0.0
 11
-1601.899999999997
 21
1540.0
 31
0.0
  0
LINE
  5
143AC
330
1A
100
AcDbEntity
  8
ZISSEN1
100
AcDbLine
 10
-1560.5
 20
1543.0
 30
0.0
 11
-1601.7
 21
1543.0
 31
0.0
  0
LINE
  5
143AD
330
1A
100
AcDbEntity
  8
ZISSEN1
100
AcDbLine
 10
-1560.0
 20
1540.0
 30
0.0
 11
-1560.0
 21
1543.0
 31
0.0
  0
LINE
  5
143AE
330
1A
100
AcDbEntity
  8
ZISSEN1
100
AcDbLine
 10
-1604.899999999999
 20
1543.000000000002
 30
0.0
 11
-1604.899999999999
 21
1613.5
 31
0.0
  0
LINE
  5
143AF
330
1A
100
AcDbEntity
  8
ZISSEN1
100
AcDbLine
 10
-1601.899999999999
 20
1614.5
 30
0.0
 11
-1601.899999999999
 21
1543.2
 31
0.0
  0
LINE
  5
143B0
330
1A
100
AcDbEntity
  8
ZISSEN1
100
AcDbLine
 10
-1598.899999999999
 20
1614.5
 30
0.0
 11
-1598.899999999999
 21
1545.499999999999
 31
0.0
  0
LINE
  5
143B1
330
1A
100
AcDbEntity
  8
ZISSEN1
100
AcDbLine
 10
-1598.599999999998
 20
1614.5
 30
0.0
 11
-1598.599999999997
 21
1545.999999999999
 31
0.0
  0
LINE
  5
143B2
330
1A
100
AcDbEntity
  8
ZISSEN1
100
AcDbLine
 10
-1598.899999999999
 20
1545.499999999999
 30
0.0
 11
-1601.899999999999
 21
1545.499999999999
 31
0.0
  0
LINE
  5
143B3
330
1A
100
AcDbEntity
  8
ZISSEN1
100
AcDbLine
 10
-1598.899999999999
 20
1545.999999999999
 30
0.0
 11
-1598.599999999998
 21
1545.999999999999
 31
0.0
  0
LINE
  5
143B4
330
1A
100
AcDbEntity
  8
ZISSEN1
100
AcDbLine
 10
-1598.599999999998
 20
1545.999999999999
 30
0.0
 11
-1597.0
 21
1545.999999999999
 31
0.0
  0
LINE
  5
143B5
330
1A
100
AcDbEntity
  8
ZISSEN1
100
AcDbLine
 10
-1597.0
 20
1549.499999999999
 30
0.0
 11
-1597.0
 21
1614.5
 31
0.0
  0
LINE
  5
143B6
330
1A
100
AcDbEntity
  8
ZISSEN1
100
AcDbLine
 10
-1596.0
 20
1609.0
 30
0.0
 11
-1597.0
 21
1609.0
 31
0.0
  0
LINE
  5
143B7
330
1A
100
AcDbEntity
  8
ZISSEN1
100
AcDbLine
 10
-1596.0
 20
1614.0
 30
0.0
 11
-1597.0
 21
1614.0
 31
0.0
  0
LINE
  5
143B8
330
1A
100
AcDbEntity
  8
ZISSEN1
100
AcDbLine
 10
-1596.0
 20
1608.615
 30
0.0
 11
-1596.0
 21
1614.385
 31
0.0
  0
LINE
  5
143B9
330
1A
100
AcDbEntity
  8
ZISSEN1
100
AcDbLine
 10
-1592.0
 20
1614.385
 30
0.0
 11
-1596.0
 21
1614.385
 31
0.0
  0
LINE
  5
143BA
330
1A
100
AcDbEntity
  8
ZISSEN1
100
AcDbLine
 10
-1592.0
 20
1614.385
 30
0.0
 11
-1592.0
 21
1612.499999999995
 31
0.0
  0
LINE
  5
143BB
330
1A
100
AcDbEntity
  8
ZISSEN1
100
AcDbLine
 10
-1591.0
 20
1614.0
 30
0.0
 11
-1592.0
 21
1614.0
 31
0.0
  0
LINE
  5
143BC
330
1A
100
AcDbEntity
  8
ZISSEN1
100
AcDbLine
 10
-1595.000016427017
 20
1545.614999999999
 30
0.0
 11
-1596.0
 21
1545.614999999999
 31
0.0
  0
LINE
  5
143BD
330
1A
100
AcDbEntity
  8
ZISSEN1
100
AcDbLine
 10
-1595.000025099324
 20
1551.384999999999
 30
0.0
 11
-1596.0
 21
1551.384999999999
 31
0.0
  0
LINE
  5
143BE
330
1A
100
AcDbEntity
  8
ZISSEN1
100
AcDbLine
 10
-1596.0
 20
1545.614999999999
 30
0.0
 11
-1596.0
 21
1551.384999999999
 31
0.0
  0
LINE
  5
143BF
330
1A
100
AcDbEntity
  8
ZISSEN1
100
AcDbLine
 10
-1596.0
 20
1550.999999999999
 30
0.0
 11
-1597.0
 21
1550.999999999999
 31
0.0
  0
LINE
  5
143C0
330
1A
100
AcDbEntity
  8
ZISSEN1
100
AcDbLine
 10
-1596.0
 20
1545.999999999999
 30
0.0
 11
-1597.0
 21
1545.999999999999
 31
0.0
  0
LINE
  5
143C1
330
1A
100
AcDbEntity
  8
ZISSEN1
100
AcDbLine
 10
-1596.0
 20
1550.999999999999
 30
0.0
 11
-1596.0
 21
1545.999999999999
 31
0.0
  0
LINE
  5
143C2
330
1A
100
AcDbEntity
  8
ZISSEN1
100
AcDbLine
 10
-1597.0
 20
1545.999999999999
 30
0.0
 11
-1597.0
 21
1550.999999999999
 31
0.0
  0
LINE
  5
143C3
330
1A
100
AcDbEntity
  8
ZISSEN1
100
AcDbLine
 10
-1596.0
 20
1548.499999999999
 30
0.0
 11
-1595.000020763172
 21
1548.499999999999
 31
0.0
  0
LINE
  5
143C4
330
1A
100
AcDbEntity
  8
ZISSEN1
100
AcDbLine
 10
-1597.0
 20
1548.499999999999
 30
0.0
 11
-1597.0
 21
1549.799999999999
 31
0.0
  0
LINE
  5
143C5
330
1A
100
AcDbEntity
  8
ZISSEN1
100
AcDbLine
 10
-1562.0
 20
1540.0
 30
0.0
 11
-1562.0
 21
1543.0
 31
0.0
  0
LINE
  5
143C6
330
1A
100
AcDbEntity
  8
CL1
100
AcDbLine
 10
-1582.899999999999
 20
1539.5
 30
0.0
 11
-1582.899999999999
 21
1544.0
 31
0.0
  0
LINE
  5
143C7
330
1A
100
AcDbEntity
  8
ZISSEN1
100
AcDbLine
 10
-1585.149999999999
 20
1540.0
 30
0.0
 11
-1585.149999999999
 21
1543.0
 31
0.0
  0
LINE
  5
143C8
330
1A
100
AcDbEntity
  8
ZISSEN1
100
AcDbLine
 10
-1580.649999999999
 20
1540.0
 30
0.0
 11
-1580.649999999999
 21
1543.0
 31
0.0
  0
LINE
  5
143C9
330
1A
100
AcDbEntity
  8
ZISSEN1
100
AcDbLine
 10
-1597.899999999999
 20
1540.0
 30
0.0
 11
-1597.899999999999
 21
1543.0
 31
0.0
  0
LINE
  5
143CA
330
1A
100
AcDbEntity
  8
ZISSEN1
100
AcDbLine
 10
-1595.899999999999
 20
1540.0
 30
0.0
 11
-1595.899999999999
 21
1543.0
 31
0.0
  0
LINE
  5
143CB
330
1A
100
AcDbEntity
  8
ZISSEN1
  6
BYBLOCK
100
AcDbLine
 10
-1598.899999999999
 20
1614.5
 30
0.0
 11
-1601.899999999999
 21
1614.5
 31
0.0
  0
LINE
  5
143CC
330
1A
100
AcDbEntity
  8
ZISSEN1
  6
BYBLOCK
100
AcDbLine
 10
-1601.899999999999
 20
1614.5
 30
0.0
 11
-1604.899999999999
 21
1614.5
 31
0.0
  0
LINE
  5
143CD
330
1A
100
AcDbEntity
  8
ZISSEN1
  6
BYBLOCK
100
AcDbLine
 10
-1601.899999999999
 20
1613.5
 30
0.0
 11
-1604.899999999999
 21
1613.5
 31
0.0
  0
LINE
  5
143CE
330
1A
100
AcDbEntity
  8
ZISSEN1
  6
BYBLOCK
100
AcDbLine
 10
-1604.399999999999
 20
1614.5
 30
0.0
 11
-1604.399999999999
 21
1615.3
 31
0.0
  0
LINE
  5
143CF
330
1A
100
AcDbEntity
  8
ZISSEN1
  6
BYBLOCK
100
AcDbLine
 10
-1588.899999999997
 20
1615.3
 30
0.0
 11
-1560.999999999996
 21
1615.3
 31
0.0
  0
LINE
  5
143D0
330
1A
100
AcDbEntity
  8
ZISSEN1
  6
BYBLOCK
100
AcDbLine
 10
-1560.799999999998
 20
1612.499999999995
 30
0.0
 11
-1560.799999999999
 21
1614.5
 31
0.0
  0
LINE
  5
143D1
330
1A
100
AcDbEntity
  8
ZISSEN1
  6
BYBLOCK
100
AcDbLine
 10
-1559.999999999998
 20
1545.5
 30
0.0
 11
-1559.999999999999
 21
1614.3
 31
0.0
  0
LINE
  5
143D2
330
1A
100
AcDbEntity
  8
ZISSEN1
  6
BYBLOCK
100
AcDbLine
 10
-1560.799999999999
 20
1614.5
 30
0.0
 11
-1588.899999999997
 21
1614.5
 31
0.0
  0
ARC
  5
143D3
330
1A
100
AcDbEntity
  8
ZISSEN1
  6
BYBLOCK
100
AcDbCircle
 10
-1601.899999999997
 20
1543.000000000002
 30
0.0
 40
3.000000000002046
100
AcDbArc
 50
180.000000000039
 51
269.9999999999478
  0
LINE
  5
143D4
330
1A
100
AcDbEntity
  8
ZISSEN1
  6
BYBLOCK
100
AcDbLine
 10
-1601.7
 20
1543.0
 30
0.0
 11
-1601.841421356237
 21
1543.058578643762
 31
0.0
  0
LINE
  5
143D5
330
1A
100
AcDbEntity
  8
ZISSEN1
  6
BYBLOCK
100
AcDbLine
 10
-1601.841421356237
 20
1543.058578643762
 30
0.0
 11
-1601.899999999999
 21
1543.2
 31
0.0
  0
LINE
  5
143D6
330
1A
100
AcDbEntity
  8
ZISSEN1
  6
BYBLOCK
100
AcDbLine
 10
-1497.398045977472
 20
1698.999999999999
 30
0.0
 11
-1488.205905957151
 21
1698.999999999999
 31
0.0
  0
LINE
  5
143D7
330
1A
100
AcDbEntity
  8
ZISSEN1
  6
BYBLOCK
100
AcDbLine
 10
-1459.09999999986
 20
1706.599999999999
 30
0.0
 11
-1443.199999999862
 21
1706.599999999999
 31
0.0
  0
LINE
  5
143D8
330
1A
100
AcDbEntity
  8
ZISSEN1
  6
BYBLOCK
100
AcDbLine
 10
-1440.898045977199
 20
1698.999999999999
 30
0.0
 11
-1431.705905956874
 21
1698.999999999999
 31
0.0
  0
LINE
  5
143D9
330
1A
100
AcDbEntity
  8
ZISSEN1
  6
BYBLOCK
100
AcDbLine
 10
-1468.479999999846
 20
1697.399999999999
 30
0.0
 11
-1441.893298743103
 21
1697.399999999999
 31
0.0
  0
LINE
  5
143DA
330
1A
100
AcDbEntity
  8
ZISSEN1
  6
BYBLOCK
100
AcDbLine
 10
-1468.479999999861
 20
1698.999999999999
 30
0.0
 11
-1441.893298743103
 21
1698.999999999999
 31
0.0
  0
LINE
  5
143DB
330
1A
100
AcDbEntity
  8
ZISSEN1
  6
BYBLOCK
100
AcDbLine
 10
-1523.002140020459
 20
1698.999999999999
 30
0.0
 11
-1523.002140020459
 21
1697.399999999999
 31
0.0
  0
LINE
  5
143DC
330
1A
100
AcDbEntity
  8
ZISSEN1
  6
BYBLOCK
100
AcDbLine
 10
-1524.980000000136
 20
1697.399999999999
 30
0.0
 11
-1499.633298743376
 21
1697.399999999999
 31
0.0
  0
LINE
  5
143DD
330
1A
100
AcDbEntity
  8
ZISSEN1
  6
BYBLOCK
100
AcDbLine
 10
-1524.980000000137
 20
1698.999999999999
 30
0.0
 11
-1499.633298743376
 21
1698.999999999999
 31
0.0
  0
LINE
  5
143DE
330
1A
100
AcDbEntity
  8
ZISSEN1
  6
BYBLOCK
100
AcDbLine
 10
-1515.600000000135
 20
1706.599999999999
 30
0.0
 11
-1499.700000000136
 21
1706.599999999999
 31
0.0
  0
LINE
  5
143DF
330
1A
100
AcDbEntity
  8
ZISSEN1
100
AcDbLine
 10
-1471.529999999726
 20
1667.999999999999
 30
0.0
 11
-1469.529999999726
 21
1667.999999999999
 31
0.0
  0
LINE
  5
143E0
330
1A
100
AcDbEntity
  8
ZISSEN1
100
AcDbLine
 10
-1468.499999999727
 20
1668.0
 30
0.0
 11
-1470.499999999727
 21
1668.0
 31
0.0
  0
LINE
  5
143E1
330
1A
100
AcDbEntity
  8
ZISSEN1
 48
0.4
100
AcDbLine
 10
-1472.45
 20
1666.45
 30
0.0
 11
-1472.45
 21
1667.2
 31
0.0
  0
LINE
  5
143E2
330
1A
100
AcDbEntity
  8
ZISSEN1
100
AcDbLine
 10
-1467.899999999728
 20
1668.0
 30
0.0
 11
-1473.399999999728
 21
1668.0
 31
0.0
  0
LINE
  5
143E3
330
1A
100
AcDbEntity
  8
ZISSEN1
100
AcDbLine
 10
-1473.399999999728
 20
1668.0
 30
0.0
 11
-1467.899999999728
 21
1668.0
 31
0.0
  0
LINE
  5
143E4
330
1A
100
AcDbEntity
  8
ZISSEN1
 48
0.4
100
AcDbLine
 10
-1477.95
 20
1666.45
 30
0.0
 11
-1477.95
 21
1667.2
 31
0.0
  0
LINE
  5
143E5
330
1A
100
AcDbEntity
  8
ZISSEN1
100
AcDbLine
 10
-1472.524999999728
 20
1668.0
 30
0.0
 11
-1469.024999999728
 21
1668.0
 31
0.0
  0
LINE
  5
143E6
330
1A
100
AcDbEntity
  8
ZISSEN1
100
AcDbLine
 10
-1468.624999999727
 20
1668.0
 30
0.0
 11
-1469.024999999728
 21
1668.0
 31
0.0
  0
ELLIPSE
  5
143E7
330
1A
100
AcDbEntity
  8
ZISSEN1
 48
0.4
100
AcDbEllipse
 10
-1475.2
 20
1666.45
 30
0.0
 11
-2.75
 21
0.0000000000000015
 31
0.0
210
0.0
220
0.0
230
1.0
 40
0.3090909090909173
 41
6.283185307179586
 42
9.424777960769379
  0
LINE
  5
143E8
330
1A
100
AcDbEntity
  8
ZISSEN1
100
AcDbLine
 10
-1485.500000000134
 20
1712.899999999999
 30
0.0
 11
-1479.500000000134
 21
1712.899999999999
 31
0.0
  0
LINE
  5
143E9
330
1A
100
AcDbEntity
  8
ZISSEN1
  6
BYBLOCK
100
AcDbLine
 10
-1360.600000000002
 20
1612.5
 30
0.0
 11
-1360.600000000002
 21
1618.180453937977
 31
0.0
  0
LINE
  5
143EA
330
1A
100
AcDbEntity
  8
ZISSEN1
100
AcDbLine
 10
-1359.0
 20
1618.180453937977
 30
0.0
 11
-1360.600000000002
 21
1618.180453937977
 31
0.0
  0
LINE
  5
143EB
330
1A
100
AcDbEntity
  8
ZISSEN1
100
AcDbLine
 10
-1358.613314690039
 20
1614.5
 30
0.0
 11
-1358.613314690039
 21
1614.5
 31
0.0
  0
LINE
  5
143EC
330
1A
100
AcDbEntity
  8
ZISSEN1
100
AcDbLine
 10
-1358.613314690039
 20
1614.5
 30
0.0
 11
-1358.613314690039
 21
1614.5
 31
0.0
  0
LINE
  5
143ED
330
1A
100
AcDbEntity
  8
ZISSEN1
100
AcDbLine
 10
-1390.0
 20
1540.0
 30
0.0
 11
-1348.100000000002
 21
1540.0
 31
0.0
  0
LINE
  5
143EE
330
1A
100
AcDbEntity
  8
ZISSEN1
100
AcDbLine
 10
-1390.0
 20
1543.0
 30
0.0
 11
-1348.299999999999
 21
1543.0
 31
0.0
  0
LINE
  5
143EF
330
1A
100
AcDbEntity
  8
ZISSEN1
100
AcDbLine
 10
-1390.0
 20
1540.0
 30
0.0
 11
-1390.0
 21
1543.0
 31
0.0
  0
LINE
  5
143F0
330
1A
100
AcDbEntity
  8
ZISSEN1
100
AcDbLine
 10
-1345.099999999998
 20
1543.0
 30
0.0
 11
-1345.099999999998
 21
1613.5
 31
0.0
  0
LINE
  5
143F1
330
1A
100
AcDbEntity
  8
ZISSEN1
100
AcDbLine
 10
-1348.099999999998
 20
1613.5
 30
0.0
 11
-1348.099999999998
 21
1543.2
 31
0.0
  0
LINE
  5
143F2
330
1A
100
AcDbEntity
  8
ZISSEN1
100
AcDbLine
 10
-1351.099999999998
 20
1613.5
 30
0.0
 11
-1351.099999999998
 21
1545.499999999999
 31
0.0
  0
LINE
  5
143F3
330
1A
100
AcDbEntity
  8
ZISSEN1
100
AcDbLine
 10
-1351.400000000001
 20
1611.5
 30
0.0
 11
-1351.400000000001
 21
1545.999999999999
 31
0.0
  0
LINE
  5
143F4
330
1A
100
AcDbEntity
  8
ZISSEN1
100
AcDbLine
 10
-1351.099999999998
 20
1545.499999999999
 30
0.0
 11
-1348.799999999999
 21
1545.499999999999
 31
0.0
  0
LINE
  5
143F5
330
1A
100
AcDbEntity
  8
ZISSEN1
100
AcDbLine
 10
-1351.099999999998
 20
1545.999999999999
 30
0.0
 11
-1351.400000000001
 21
1545.999999999999
 31
0.0
  0
LINE
  5
143F6
330
1A
100
AcDbEntity
  8
ZISSEN1
100
AcDbLine
 10
-1351.400000000001
 20
1545.999999999999
 30
0.0
 11
-1353.0
 21
1545.999999999999
 31
0.0
  0
LINE
  5
143F7
330
1A
100
AcDbEntity
  8
ZISSEN1
100
AcDbLine
 10
-1353.0
 20
1549.499999999999
 30
0.0
 11
-1353.000000220003
 21
1613.500000403342
 31
0.0
  0
LINE
  5
143F8
330
1A
100
AcDbEntity
  8
ZISSEN1
100
AcDbLine
 10
-1353.0
 20
1609.0
 30
0.0
 11
-1353.0
 21
1614.0
 31
0.0
  0
LINE
  5
143F9
330
1A
100
AcDbEntity
  8
ZISSEN1
100
AcDbLine
 10
-1354.0
 20
1609.0
 30
0.0
 11
-1353.0
 21
1609.0
 31
0.0
  0
LINE
  5
143FA
330
1A
100
AcDbEntity
  8
ZISSEN1
100
AcDbLine
 10
-1354.0
 20
1614.0
 30
0.0
 11
-1353.0
 21
1614.0
 31
0.0
  0
LINE
  5
143FB
330
1A
100
AcDbEntity
  8
ZISSEN1
100
AcDbLine
 10
-1354.0
 20
1608.615
 30
0.0
 11
-1354.0
 21
1614.385
 31
0.0
  0
LINE
  5
143FC
330
1A
100
AcDbEntity
  8
ZISSEN1
100
AcDbLine
 10
-1358.0
 20
1614.385
 30
0.0
 11
-1354.0
 21
1614.385
 31
0.0
  0
LINE
  5
143FD
330
1A
100
AcDbEntity
  8
ZISSEN1
100
AcDbLine
 10
-1359.0
 20
1614.0
 30
0.0
 11
-1358.0
 21
1614.0
 31
0.0
  0
LINE
  5
143FE
330
1A
100
AcDbEntity
  8
ZISSEN1
100
AcDbLine
 10
-1354.0
 20
1545.614999999999
 30
0.0
 11
-1354.0
 21
1551.384999999999
 31
0.0
  0
LINE
  5
143FF
330
1A
100
AcDbEntity
  8
ZISSEN1
100
AcDbLine
 10
-1354.0
 20
1550.999999999999
 30
0.0
 11
-1353.0
 21
1550.999999999999
 31
0.0
  0
LINE
  5
14400
330
1A
100
AcDbEntity
  8
ZISSEN1
100
AcDbLine
 10
-1354.0
 20
1545.999999999999
 30
0.0
 11
-1353.0
 21
1545.999999999999
 31
0.0
  0
LINE
  5
14401
330
1A
100
AcDbEntity
  8
ZISSEN1
100
AcDbLine
 10
-1354.0
 20
1550.999999999999
 30
0.0
 11
-1354.0
 21
1545.999999999999
 31
0.0
  0
LINE
  5
14402
330
1A
100
AcDbEntity
  8
ZISSEN1
100
AcDbLine
 10
-1353.0
 20
1545.999999999999
 30
0.0
 11
-1353.0
 21
1550.999999999999
 31
0.0
  0
LINE
  5
14403
330
1A
100
AcDbEntity
  8
ZISSEN1
100
AcDbLine
 10
-1353.0
 20
1548.499999999999
 30
0.0
 11
-1353.0
 21
1549.799999999999
 31
0.0
  0
LINE
  5
14404
330
1A
100
AcDbEntity
  8
ZISSEN1
100
AcDbLine
 10
-1383.600000000002
 20
1546.479999999999
 30
0.0
 11
-1373.664267037423
 21
1546.479999999999
 31
0.0
  0
LINE
  5
14405
330
1A
100
AcDbEntity
  8
ZISSEN1
100
AcDbLine
 10
-1383.600000000002
 20
1550.519999999999
 30
0.0
 11
-1373.99982116471
 21
1550.519999999999
 31
0.0
  0
LINE
  5
14406
330
1A
100
AcDbEntity
  8
ZISSEN1
100
AcDbLine
 10
-1383.600000000002
 20
1548.5
 30
0.0
 11
-1373.999894095061
 21
1548.5
 31
0.0
  0
LINE
  5
14407
330
1A
100
AcDbEntity
  8
ZISSEN1
100
AcDbLine
 10
-1385.2
 20
1545.499999999999
 30
0.0
 11
-1383.600000000002
 21
1545.499999999999
 31
0.0
  0
LINE
  5
14408
330
1A
100
AcDbEntity
  8
ZISSEN1
100
AcDbLine
 10
-1383.600000000002
 20
1573.202665780546
 30
0.0
 11
-1376.900000000001
 21
1573.202665780546
 31
0.0
  0
LINE
  5
14409
330
1A
100
AcDbEntity
  8
ZISSEN1
100
AcDbLine
 10
-1383.600000000002
 20
1588.102665780546
 30
0.0
 11
-1383.600000000002
 21
1573.202665780546
 31
0.0
  0
LINE
  5
1440A
330
1A
100
AcDbEntity
  8
ZISSEN1
100
AcDbLine
 10
-1383.600000000002
 20
1588.452665780546
 30
0.0
 11
-1383.600000000002
 21
1593.102665780546
 31
0.0
  0
LINE
  5
1440B
330
1A
100
AcDbEntity
  8
ZISSEN1
100
AcDbLine
 10
-1376.900000000001
 20
1573.202665780546
 30
0.0
 11
-1376.900000000001
 21
1593.102665780546
 31
0.0
  0
LINE
  5
1440C
330
1A
100
AcDbEntity
  8
ZISSEN1
100
AcDbLine
 10
-1383.600000000002
 20
1593.102665780546
 30
0.0
 11
-1376.900000000001
 21
1593.102665780546
 31
0.0
  0
ELLIPSE
  5
1440D
330
1A
100
AcDbEntity
  8
ZISSEN1
 48
0.4
100
AcDbEllipse
 10
-1391.549999999995
 20
1548.500000000278
 30
0.0
 11
0.000000000000001
 21
-2.75
 31
0.0
210
0.0
220
0.0
230
-1.0
 40
0.3090909090909173
 41
6.283185307179586
 42
9.424777960769379
  0
LINE
  5
1440E
330
1A
100
AcDbEntity
  8
ZISSEN1
 48
0.4
100
AcDbLine
 10
-1391.549999999995
 20
1551.250000000278
 30
0.0
 11
-1390.799999999995
 21
1551.250000000278
 31
0.0
  0
LINE
  5
1440F
330
1A
100
AcDbEntity
  8
ZISSEN1
 48
0.4
100
AcDbLine
 10
-1391.549999999995
 20
1545.750000000278
 30
0.0
 11
-1390.799999999995
 21
1545.750000000278
 31
0.0
  0
LINE
  5
14410
330
1A
100
AcDbEntity
  8
ZISSEN1
100
AcDbLine
 10
-1388.0
 20
1540.0
 30
0.0
 11
-1388.0
 21
1543.0
 31
0.0
  0
LINE
  5
14411
330
1A
100
AcDbEntity
  8
ZISSEN1
100
AcDbLine
 10
-1376.0
 20
1540.0
 30
0.0
 11
-1376.0
 21
1543.0
 31
0.0
  0
LINE
  5
14412
330
1A
100
AcDbEntity
  8
ZISSEN1
100
AcDbLine
 10
-1378.0
 20
1540.0
 30
0.0
 11
-1378.0
 21
1543.0
 31
0.0
  0
LINE
  5
14413
330
1A
100
AcDbEntity
  8
CL1
100
AcDbLine
 10
-1367.1
 20
1539.5
 30
0.0
 11
-1367.1
 21
1544.0
 31
0.0
  0
LINE
  5
14414
330
1A
100
AcDbEntity
  8
ZISSEN1
100
AcDbLine
 10
-1364.849999999998
 20
1540.0
 30
0.0
 11
-1364.849999999998
 21
1543.0
 31
0.0
  0
LINE
  5
14415
330
1A
100
AcDbEntity
  8
ZISSEN1
100
AcDbLine
 10
-1369.349999999998
 20
1540.0
 30
0.0
 11
-1369.349999999998
 21
1543.0
 31
0.0
  0
LINE
  5
14416
330
1A
100
AcDbEntity
  8
ZISSEN1
100
AcDbLine
 10
-1352.099999999998
 20
1540.0
 30
0.0
 11
-1352.099999999998
 21
1543.0
 31
0.0
  0
LINE
  5
14417
330
1A
100
AcDbEntity
  8
ZISSEN1
100
AcDbLine
 10
-1354.099999999998
 20
1540.0
 30
0.0
 11
-1354.099999999998
 21
1543.0
 31
0.0
  0
LINE
  5
14418
330
1A
100
AcDbEntity
  8
ZISSEN1
100
AcDbLine
 10
-1383.600000000002
 20
1568.202665780546
 30
0.0
 11
-1375.900000000001
 21
1568.202665780546
 31
0.0
  0
LINE
  5
14419
330
1A
100
AcDbEntity
  8
ZISSEN1
100
AcDbLine
 10
-1383.600000000002
 20
1552.402665780546
 30
0.0
 11
-1375.900000000001
 21
1552.402665780546
 31
0.0
  0
LINE
  5
1441A
330
1A
100
AcDbEntity
  8
ZISSEN1
100
AcDbLine
 10
-1375.900000000001
 20
1568.202665780546
 30
0.0
 11
-1375.900000000001
 21
1552.402665780546
 31
0.0
  0
LINE
  5
1441B
330
1A
100
AcDbEntity
  8
ZISSEN1
  6
BYBLOCK
100
AcDbLine
 10
-1351.099999999998
 20
1614.5
 30
0.0
 11
-1348.099999999998
 21
1614.5
 31
0.0
  0
LINE
  5
1441C
330
1A
100
AcDbEntity
  8
ZISSEN1
  6
BYBLOCK
100
AcDbLine
 10
-1348.099999999998
 20
1614.5
 30
0.0
 11
-1345.099999999998
 21
1614.5
 31
0.0
  0
LINE
  5
1441D
330
1A
100
AcDbEntity
  8
ZISSEN1
  6
BYBLOCK
100
AcDbLine
 10
-1351.099999999998
 20
1613.5
 30
0.0
 11
-1348.099999999998
 21
1613.5
 31
0.0
  0
LINE
  5
1441E
330
1A
100
AcDbEntity
  8
ZISSEN1
100
AcDbLine
 10
-1348.099999999998
 20
1613.5
 30
0.0
 11
-1345.099999999998
 21
1613.5
 31
0.0
  0
LINE
  5
1441F
330
1A
100
AcDbEntity
  8
ZISSEN1
100
AcDbLine
 10
-1345.599999999998
 20
1614.5
 30
0.0
 11
-1345.599999999998
 21
1615.3
 31
0.0
  0
LINE
  5
14420
330
1A
100
AcDbEntity
  8
ZISSEN1
  6
BYBLOCK
100
AcDbLine
 10
-1361.100000000002
 20
1615.3
 30
0.0
 11
-1389.0
 21
1615.3
 31
0.0
  0
LINE
  5
14421
330
1A
100
AcDbEntity
  8
ZISSEN1
  6
BYBLOCK
100
AcDbLine
 10
-1389.2
 20
1612.5
 30
0.0
 11
-1389.2
 21
1614.5
 31
0.0
  0
LINE
  5
14422
330
1A
100
AcDbEntity
  8
ZISSEN1
  6
BYBLOCK
100
AcDbLine
 10
-1390.0
 20
1545.5
 30
0.0
 11
-1390.000000000001
 21
1614.3
 31
0.0
  0
LINE
  5
14423
330
1A
100
AcDbEntity
  8
ZISSEN1
  6
BYBLOCK
100
AcDbLine
 10
-1389.2
 20
1614.5
 30
0.0
 11
-1361.100000000002
 21
1614.5
 31
0.0
  0
ARC
  5
14424
330
1A
100
AcDbEntity
  8
ZISSEN1
  6
BYBLOCK
100
AcDbCircle
 10
-1348.100000000002
 20
1543.000000000002
 30
0.0
 40
3.000000000002046
100
AcDbArc
 50
270.0000000000521
 51
359.9999999999608
  0
LINE
  5
14425
330
1A
100
AcDbEntity
  8
ZISSEN1
  6
BYBLOCK
100
AcDbLine
 10
-1348.299999999999
 20
1543.0
 30
0.0
 11
-1348.158578643761
 21
1543.058578643762
 31
0.0
  0
LINE
  5
14426
330
1A
100
AcDbEntity
  8
ZISSEN1
  6
BYBLOCK
100
AcDbLine
 10
-1348.158578643761
 20
1543.058578643762
 30
0.0
 11
-1348.099999999998
 21
1543.2
 31
0.0
  0
LINE
  5
14427
330
1A
100
AcDbEntity
  8
ZISSEN1
100
AcDbLine
 10
-1487.541386586035
 20
1674.423327361935
 30
0.0
 11
-1487.541386586035
 21
1675.499999999999
 31
0.0
  0
LINE
  5
14428
330
1A
100
AcDbEntity
  8
ZISSEN1
100
AcDbLine
 10
-1487.541386586035
 20
1675.499999999999
 30
0.0
 11
-1488.791386586035
 21
1675.499999999999
 31
0.0
  0
LINE
  5
14429
330
1A
100
AcDbEntity
  8
ZISSEN1
100
AcDbLine
 10
-1488.791386586035
 20
1675.499999999999
 30
0.0
 11
-1488.791386586035
 21
1674.423327361935
 31
0.0
  0
LINE
  5
1442A
330
1A
100
AcDbEntity
  8
ZISSEN1
100
AcDbLine
 10
-1487.541386586035
 20
1674.899999999999
 30
0.0
 11
-1488.791386586035
 21
1674.899999999999
 31
0.0
  0
LINE
  5
1442B
330
1A
100
AcDbEntity
  8
ZISSEN1
100
AcDbLine
 10
-1485.541386586035
 20
1674.899999999999
 30
0.0
 11
-1486.791386586035
 21
1674.899999999999
 31
0.0
  0
LINE
  5
1442C
330
1A
100
AcDbEntity
  8
ZISSEN1
100
AcDbLine
 10
-1486.791386586035
 20
1675.499999999999
 30
0.0
 11
-1486.791386586035
 21
1674.423327361935
 31
0.0
  0
LINE
  5
1442D
330
1A
100
AcDbEntity
  8
ZISSEN1
100
AcDbLine
 10
-1485.541386586035
 20
1675.499999999999
 30
0.0
 11
-1486.791386586035
 21
1675.499999999999
 31
0.0
  0
LINE
  5
1442E
330
1A
100
AcDbEntity
  8
ZISSEN1
100
AcDbLine
 10
-1485.541386586035
 20
1674.399999999999
 30
0.0
 11
-1485.541386586035
 21
1675.499999999999
 31
0.0
  0
LINE
  5
1442F
330
1A
100
AcDbEntity
  8
ZISSEN1
100
AcDbLine
 10
-1457.301124302422
 20
1674.399999999999
 30
0.0
 11
-1457.301124302422
 21
1681.099999999999
 31
0.0
  0
LINE
  5
14430
330
1A
100
AcDbEntity
  8
ZISSEN1
100
AcDbLine
 10
-1474.671124302418
 20
1681.099999999999
 30
0.0
 11
-1474.671124302418
 21
1674.399999999999
 31
0.0
  0
LINE
  5
14431
330
1A
100
AcDbEntity
  8
ZISSEN1
100
AcDbLine
 10
-1474.671124302418
 20
1681.099999999999
 30
0.0
 11
-1457.301124302422
 21
1681.099999999999
 31
0.0
  0
LINE
  5
14432
330
1A
100
AcDbEntity
  8
ZISSEN1
100
AcDbLine
 10
-1456.801124302423
 20
1681.099999999999
 30
0.0
 11
-1439.401124302421
 21
1681.099999999999
 31
0.0
  0
LINE
  5
14433
330
1A
100
AcDbEntity
  8
ZISSEN1
100
AcDbLine
 10
-1456.801124302423
 20
1681.099999999999
 30
0.0
 11
-1456.801124302423
 21
1674.399999999999
 31
0.0
  0
LINE
  5
14434
330
1A
100
AcDbEntity
  8
ZISSEN1
100
AcDbLine
 10
-1439.401124302421
 20
1674.399999999999
 30
0.0
 11
-1439.401124302421
 21
1681.099999999999
 31
0.0
  0
LINE
  5
14435
330
1A
100
AcDbEntity
  8
ZISSEN1
100
AcDbLine
 10
-1523.920665637094
 20
1712.899999999999
 30
0.0
 11
-1520.920665637094
 21
1712.899999999999
 31
0.0
  0
LINE
  5
14436
330
1A
100
AcDbEntity
  8
ZISSEN1
100
AcDbLine
 10
-1415.0
 20
1679.899999999999
 30
0.0
 11
-1413.0
 21
1681.899999999999
 31
0.0
  0
LINE
  5
14437
330
1A
100
AcDbEntity
  8
ZISSEN1
100
AcDbLine
 10
-1413.0
 20
1681.899999999999
 30
0.0
 11
-1413.0
 21
1688.649999999999
 31
0.0
  0
LINE
  5
14438
330
1A
100
AcDbEntity
  8
ZISSEN1
100
AcDbLine
 10
-1539.987119154829
 20
1688.65
 30
0.0
 11
-1540.0
 21
1675.0
 31
0.0
  0
LINE
  5
14439
330
1A
100
AcDbEntity
  8
ZISSEN1
100
AcDbLine
 10
-1540.0
 20
1675.0
 30
0.0
 11
-1538.0
 21
1673.0
 31
0.0
  0
ARC
  5
1443A
330
1A
100
AcDbEntity
  8
ZISSEN1
100
AcDbCircle
 10
-1535.999999999997
 20
1690.9
 30
0.0
 40
2.25
100
AcDbArc
 50
270.0
 51
90.0
  0
LINE
  5
1443B
330
1A
100
AcDbEntity
  8
ZISSEN1
100
AcDbLine
 10
-1540.0
 20
1688.65
 30
0.0
 11
-1535.999999999997
 21
1688.65
 31
0.0
  0
LINE
  5
1443C
330
1A
100
AcDbEntity
  8
ZISSEN1
100
AcDbLine
 10
-1422.5
 20
1712.899999999999
 30
0.0
 11
-1443.699999999862
 21
1712.899999999999
 31
0.0
  0
LINE
  5
1443D
330
1A
100
AcDbEntity
  8
ZISSEN1
100
AcDbLine
 10
-1415.0
 20
1707.899999999999
 30
0.0
 11
-1413.0
 21
1705.899999999999
 31
0.0
  0
LINE
  5
1443E
330
1A
100
AcDbEntity
  8
ZISSEN1
100
AcDbLine
 10
-1413.0
 20
1693.149999999999
 30
0.0
 11
-1413.0
 21
1705.899999999999
 31
0.0
  0
LINE
  5
1443F
330
1A
100
AcDbEntity
  8
ZISSEN1
100
AcDbLine
 10
-1540.0
 20
1693.15
 30
0.0
 11
-1540.0
 21
1705.899999999999
 31
0.0
  0
LINE
  5
14440
330
1A
100
AcDbEntity
  8
ZISSEN1
100
AcDbLine
 10
-1540.0
 20
1705.899999999999
 30
0.0
 11
-1538.0
 21
1707.899999999999
 31
0.0
  0
LINE
  5
14441
330
1A
100
AcDbEntity
  8
ZISSEN1
100
AcDbLine
 10
-1422.5
 20
1707.899999999999
 30
0.0
 11
-1415.0
 21
1707.899999999999
 31
0.0
  0
LINE
  5
14442
330
1A
100
AcDbEntity
  8
ZISSEN1
100
AcDbLine
 10
-1530.499999999997
 20
1707.899999999999
 30
0.0
 11
-1538.0
 21
1707.899999999999
 31
0.0
  0
LINE
  5
14443
330
1A
100
AcDbEntity
  8
ZISSEN1
100
AcDbLine
 10
-1422.5
 20
1712.899999999999
 30
0.0
 11
-1422.5
 21
1707.899999999999
 31
0.0
  0
LINE
  5
14444
330
1A
100
AcDbEntity
  8
ZISSEN1
100
AcDbLine
 10
-1530.499999999997
 20
1712.899999999999
 30
0.0
 11
-1530.499999999997
 21
1707.899999999999
 31
0.0
  0
LINE
  5
14445
330
1A
100
AcDbEntity
  8
ZISSEN1
100
AcDbLine
 10
-1538.0
 20
1673.0
 30
0.0
 11
-1531.499999999997
 21
1673.0
 31
0.0
  0
LINE
  5
14446
330
1A
100
AcDbEntity
  8
ZISSEN1
100
AcDbLine
 10
-1418.499999999862
 20
1679.899999999999
 30
0.0
 11
-1415.0
 21
1679.899999999999
 31
0.0
  0
LINE
  5
14447
330
1A
100
AcDbEntity
  8
ZISSEN1
100
AcDbLine
 10
-1531.499999999997
 20
1673.0
 30
0.0
 11
-1531.499999999997
 21
1670.0
 31
0.0
  0
LINE
  5
14448
330
1A
100
AcDbEntity
  8
ZISSEN1
100
AcDbLine
 10
-1531.499999999997
 20
1670.0
 30
0.0
 11
-1531.3
 21
1669.800000000003
 31
0.0
  0
LINE
  5
14449
330
1A
100
AcDbEntity
  8
CL1
100
AcDbLine
 10
-1536.499999999997
 20
1692.899999999999
 30
0.0
 11
-1536.499999999997
 21
1688.899999999999
 31
0.0
  0
LINE
  5
1444A
330
1A
100
AcDbEntity
  8
ZISSEN1
100
AcDbLine
 10
-1540.0
 20
1693.15
 30
0.0
 11
-1535.999999999997
 21
1693.15
 31
0.0
  0
LINE
  5
1444B
330
1A
100
AcDbEntity
  8
ZISSEN1
100
AcDbLine
 10
-1413.0
 20
1693.149999999999
 30
0.0
 11
-1417.000000000003
 21
1693.149999999999
 31
0.0
  0
ARC
  5
1444C
330
1A
100
AcDbEntity
  8
ZISSEN1
100
AcDbCircle
 10
-1417.000000000003
 20
1690.899999999999
 30
0.0
 40
2.25
100
AcDbArc
 50
90.0
 51
270.0
  0
LINE
  5
1444D
330
1A
100
AcDbEntity
  8
ZISSEN1
100
AcDbLine
 10
-1413.0
 20
1688.649999999999
 30
0.0
 11
-1417.000000000003
 21
1688.649999999999
 31
0.0
  0
LINE
  5
1444E
330
1A
100
AcDbEntity
  8
ZISSEN1
 48
0.3
100
AcDbLine
 10
-1466.492140020185
 20
1698.999999999999
 30
0.0
 11
-1466.492140020185
 21
1697.399999999999
 31
0.0
  0
LINE
  5
1444F
330
1A
100
AcDbEntity
  8
ZISSEN1
 48
0.3
100
AcDbLine
 10
-1466.492140020185
 20
1697.399999999999
 30
0.0
 11
-1466.492140020185
 21
1698.999999999999
 31
0.0
  0
LINE
  5
14450
330
1A
100
AcDbEntity
  8
ZISSEN1
100
AcDbLine
 10
-1458.59999999986
 20
1709.949999999999
 30
0.0
 11
-1458.59999999986
 21
1709.949999999999
 31
0.0
  0
LINE
  5
14451
330
1A
100
AcDbEntity
  8
ZISSEN1
100
AcDbLine
 10
-1431.752140020184
 20
1704.999999999999
 30
0.0
 11
-1431.752140020184
 21
1706.599999999999
 31
0.0
  0
LINE
  5
14452
330
1A
100
AcDbEntity
  8
ZISSEN1
100
AcDbLine
 10
-1458.59999999986
 20
1713.299999999999
 30
0.0
 11
-1443.699999999862
 21
1713.299999999999
 31
0.0
  0
LINE
  5
14453
330
1A
100
AcDbEntity
  8
ZISSEN1
100
AcDbLine
 10
-1456.149999999859
 20
1706.599999999999
 30
0.0
 11
-1458.59999999986
 21
1706.599999999999
 31
0.0
  0
LINE
  5
14454
330
1A
100
AcDbEntity
  8
ZISSEN1
100
AcDbLine
 10
-1458.59999999986
 20
1706.599999999999
 30
0.0
 11
-1443.699999999862
 21
1706.599999999999
 31
0.0
  0
LINE
  5
14455
330
1A
100
AcDbEntity
  8
ZISSEN1
100
AcDbLine
 10
-1458.59999999986
 20
1713.299999999999
 30
0.0
 11
-1458.59999999986
 21
1706.599999999999
 31
0.0
  0
LINE
  5
14456
330
1A
100
AcDbEntity
  8
ZISSEN1
100
AcDbLine
 10
-1443.699999999862
 20
1706.599999999999
 30
0.0
 11
-1443.699999999862
 21
1713.299999999999
 31
0.0
  0
LINE
  5
14457
330
1A
100
AcDbEntity
  8
ZISSEN1
100
AcDbLine
 10
-1432.498045977197
 20
1698.999999999999
 30
0.0
 11
-1432.498045977197
 21
1705.699999999999
 31
0.0
  0
LINE
  5
14458
330
1A
100
AcDbEntity
  8
ZISSEN1
100
AcDbLine
 10
-1439.898045977199
 20
1705.699999999999
 30
0.0
 11
-1439.898045977199
 21
1698.999999999999
 31
0.0
  0
LINE
  5
14459
330
1A
100
AcDbEntity
  8
ZISSEN1
100
AcDbLine
 10
-1431.405905956875
 20
1698.999999999999
 30
0.0
 11
-1432.005905956877
 21
1698.999999999999
 31
0.0
  0
LINE
  5
1445A
330
1A
100
AcDbEntity
  8
ZISSEN1
100
AcDbLine
 10
-1439.898045977199
 20
1705.699999999999
 30
0.0
 11
-1432.498045977197
 21
1705.699999999999
 31
0.0
  0
LINE
  5
1445B
330
1A
100
AcDbEntity
  8
ZISSEN1
  6
CONTINUOUS
 62
     7
100
AcDbLine
 10
-1446.88758323609
 20
1697.399999999999
 30
0.0
 11
-1446.88758323609
 21
1695.049999999999
 31
0.0
  0
LINE
  5
1445C
330
1A
100
AcDbEntity
  8
ZISSEN1
  6
CONTINUOUS
 62
     7
100
AcDbLine
 10
-1453.487582978028
 20
1697.399999999999
 30
0.0
 11
-1453.487582978028
 21
1695.049999999999
 31
0.0
  0
LINE
  5
1445D
330
1A
100
AcDbEntity
  8
ZISSEN1
  6
CONTINUOUS
 62
     7
100
AcDbLine
 10
-1453.487582978028
 20
1695.049999999999
 30
0.0
 11
-1446.88758323609
 21
1695.049999999999
 31
0.0
  0
LINE
  5
1445E
330
1A
100
AcDbEntity
  8
ZISSEN1
100
AcDbLine
 10
-1468.499999999862
 20
1697.150000193795
 30
0.0
 11
-1468.499999999862
 21
1695.050000193796
 31
0.0
  0
LINE
  5
1445F
330
1A
100
AcDbEntity
  8
ZISSEN1
100
AcDbLine
 10
-1468.499999999862
 20
1693.750000193796
 30
0.0
 11
-1468.499999999862
 21
1692.100000193796
 31
0.0
  0
LINE
  5
14460
330
1A
100
AcDbEntity
  8
ZISSEN1
  6
CONTINUOUS
100
AcDbLine
 10
-1468.499999068201
 20
1697.350000193795
 30
0.0
 11
-1463.59999999986
 21
1697.350000193795
 31
0.0
  0
LINE
  5
14461
330
1A
100
AcDbEntity
  8
ZISSEN1
100
AcDbLine
 10
-1463.59999999986
 20
1697.150000193795
 30
0.0
 11
-1463.59999999986
 21
1695.050000193796
 31
0.0
  0
LINE
  5
14462
330
1A
100
AcDbEntity
  8
ZISSEN1
100
AcDbLine
 10
-1463.59999999986
 20
1697.350000193795
 30
0.0
 11
-1463.59999999986
 21
1691.900000193796
 31
0.0
  0
LINE
  5
14463
330
1A
100
AcDbEntity
  8
ZISSEN1
  6
CONTINUOUS
100
AcDbLine
 10
-1463.59999999986
 20
1691.900000193796
 30
0.0
 11
-1468.499999068161
 21
1691.900000193796
 31
0.0
  0
LINE
  5
14464
330
1A
100
AcDbEntity
  8
ZISSEN1
  6
CONTINUOUS
 62
     7
100
AcDbLine
 10
-1461.087582978027
 20
1695.049999999999
 30
0.0
 11
-1454.487582978028
 21
1695.049999999999
 31
0.0
  0
LINE
  5
14465
330
1A
100
AcDbEntity
  8
ZISSEN1
  6
CONTINUOUS
 62
     7
100
AcDbLine
 10
-1461.087582978027
 20
1697.399999999999
 30
0.0
 11
-1461.087582978027
 21
1695.049999999999
 31
0.0
  0
LINE
  5
14466
330
1A
100
AcDbEntity
  8
ZISSEN1
  6
CONTINUOUS
 62
     7
100
AcDbLine
 10
-1454.487582978028
 20
1697.399999999999
 30
0.0
 11
-1454.487582978028
 21
1695.049999999999
 31
0.0
  0
LINE
  5
14467
330
1A
100
AcDbEntity
  8
ZISSEN1
100
AcDbLine
 10
-1442.8932987431
 20
1697.399999999999
 30
0.0
 11
-1442.8932987431
 21
1698.999999999998
 31
0.0
  0
LINE
  5
14468
330
1A
100
AcDbEntity
  8
ZISSEN1
100
AcDbLine
 10
-1440.899999068195
 20
1704.999999999999
 30
0.0
 11
-1439.898045977199
 21
1704.999999999999
 31
0.0
  0
LINE
  5
14469
330
1A
100
AcDbEntity
  8
ZISSEN1
  6
CONTINUOUS
 62
     7
100
AcDbLine
 10
-1510.987582978304
 20
1697.399999999999
 30
0.0
 11
-1510.987582978304
 21
1695.049999999999
 31
0.0
  0
LINE
  5
1446A
330
1A
100
AcDbEntity
  8
ZISSEN1
  6
CONTINUOUS
 62
     7
100
AcDbLine
 10
-1517.587582978303
 20
1697.399999999999
 30
0.0
 11
-1517.587582978303
 21
1695.049999999999
 31
0.0
  0
LINE
  5
1446B
330
1A
100
AcDbEntity
  8
ZISSEN1
  6
CONTINUOUS
 62
     7
100
AcDbLine
 10
-1517.587582978303
 20
1695.049999999999
 30
0.0
 11
-1510.987582978304
 21
1695.049999999999
 31
0.0
  0
LINE
  5
1446C
330
1A
100
AcDbEntity
  8
ZISSEN1
  6
CONTINUOUS
100
AcDbLine
 10
-1520.100000000137
 20
1691.900000193796
 30
0.0
 11
-1522.55000003039
 21
1691.900000193796
 31
0.0
  0
LINE
  5
1446D
330
1A
100
AcDbEntity
  8
ZISSEN1
100
AcDbLine
 10
-1520.100000000137
 20
1697.350000193795
 30
0.0
 11
-1520.100000000137
 21
1691.900000193796
 31
0.0
  0
LINE
  5
1446E
330
1A
100
AcDbEntity
  8
ZISSEN1
100
AcDbLine
 10
-1520.100000000137
 20
1697.150000193795
 30
0.0
 11
-1520.100000000137
 21
1695.050000193796
 31
0.0
  0
LINE
  5
1446F
330
1A
100
AcDbEntity
  8
ZISSEN1
  6
CONTINUOUS
100
AcDbLine
 10
-1524.999999068191
 20
1697.350000193795
 30
0.0
 11
-1520.100000000137
 21
1697.350000193795
 31
0.0
  0
LINE
  5
14470
330
1A
100
AcDbEntity
  8
ZISSEN1
  6
CONTINUOUS
100
AcDbLine
 10
-1524.999999068192
 20
1691.900000193796
 30
0.0
 11
-1522.55000003039
 21
1691.900000193796
 31
0.0
  0
LINE
  5
14471
330
1A
100
AcDbEntity
  8
ZISSEN1
100
AcDbLine
 10
-1525.000000000136
 20
1693.750000193797
 30
0.0
 11
-1525.000000000136
 21
1692.100000193796
 31
0.0
  0
LINE
  5
14472
330
1A
100
AcDbEntity
  8
ZISSEN1
  6
CONTINUOUS
100
AcDbLine
 10
-1524.999999068192
 20
1691.900000193796
 30
0.0
 11
-1524.999999068192
 21
1697.350000193796
 31
0.0
  0
LINE
  5
14473
330
1A
100
AcDbEntity
  8
ZISSEN1
100
AcDbLine
 10
-1525.000000000136
 20
1697.150000193795
 30
0.0
 11
-1525.000000000136
 21
1695.050000193796
 31
0.0
  0
LINE
  5
14474
330
1A
100
AcDbEntity
  8
ZISSEN1
  6
CONTINUOUS
 62
     7
100
AcDbLine
 10
-1484.546388586037
 20
1670.449999999999
 30
0.0
 11
-1477.946388586035
 21
1670.449999999999
 31
0.0
  0
LINE
  5
14475
330
1A
100
AcDbEntity
  8
ZISSEN1
  6
CONTINUOUS
 62
     7
100
AcDbLine
 10
-1484.546388586037
 20
1672.799999999999
 30
0.0
 11
-1484.546388586037
 21
1670.449999999999
 31
0.0
  0
LINE
  5
14476
330
1A
100
AcDbEntity
  8
ZISSEN1
  6
CONTINUOUS
 62
     7
100
AcDbLine
 10
-1477.946388586035
 20
1672.799999999999
 30
0.0
 11
-1477.946388586035
 21
1670.449999999999
 31
0.0
  0
LINE
  5
14477
330
1A
100
AcDbEntity
  8
ZISSEN1
100
AcDbLine
 10
-1490.271811914164
 20
1698.999999999999
 30
0.0
 11
-1492.271811914164
 21
1698.999999999999
 31
0.0
  0
LINE
  5
14478
330
1A
100
AcDbEntity
  8
ZISSEN1
100
AcDbLine
 10
-1493.301811914167
 20
1698.999999999999
 30
0.0
 11
-1491.301811914166
 21
1698.999999999999
 31
0.0
  0
LINE
  5
14479
330
1A
100
AcDbEntity
  8
ZISSEN1
100
AcDbLine
 10
-1491.082265852139
 20
1698.999999999999
 30
0.0
 11
-1489.182265852141
 21
1698.999999999999
 31
0.0
  0
LINE
  5
1447A
330
1A
100
AcDbEntity
  8
ZISSEN1
100
AcDbLine
 10
-1489.276811914165
 20
1698.999999999999
 30
0.0
 11
-1492.776811914165
 21
1698.999999999999
 31
0.0
  0
LINE
  5
1447B
330
1A
100
AcDbEntity
  8
ZISSEN1
100
AcDbLine
 10
-1493.176811914163
 20
1698.999999999999
 30
0.0
 11
-1492.776811914165
 21
1698.999999999999
 31
0.0
  0
LINE
  5
1447C
330
1A
100
AcDbEntity
  8
ZISSEN1
100
AcDbLine
 10
-1496.398045977472
 20
1705.699999999999
 30
0.0
 11
-1488.998045977474
 21
1705.699999999999
 31
0.0
  0
LINE
  5
1447D
330
1A
100
AcDbEntity
  8
ZISSEN1
100
AcDbLine
 10
-1490.655905957152
 20
1698.999999999999
 30
0.0
 11
-1491.25590595715
 21
1698.999999999999
 31
0.0
  0
LINE
  5
1447E
330
1A
100
AcDbEntity
  8
ZISSEN1
100
AcDbLine
 10
-1487.999999068193
 20
1698.999999999999
 30
0.0
 11
-1488.50590595715
 21
1698.999999999999
 31
0.0
  0
LINE
  5
1447F
330
1A
100
AcDbEntity
  8
ZISSEN1
100
AcDbLine
 10
-1496.398045977472
 20
1698.999999999999
 30
0.0
 11
-1488.998045977474
 21
1698.999999999999
 31
0.0
  0
LINE
  5
14480
330
1A
100
AcDbEntity
  8
ZISSEN1
100
AcDbLine
 10
-1496.398045977472
 20
1705.699999999999
 30
0.0
 11
-1496.398045977472
 21
1698.999999999999
 31
0.0
  0
LINE
  5
14481
330
1A
100
AcDbEntity
  8
ZISSEN1
100
AcDbLine
 10
-1488.998045977474
 20
1698.999999999999
 30
0.0
 11
-1488.998045977474
 21
1705.699999999999
 31
0.0
  0
LINE
  5
14482
330
1A
100
AcDbEntity
  8
ZISSEN1
100
AcDbLine
 10
-1500.200000000136
 20
1706.599999999999
 30
0.0
 11
-1500.200000000136
 21
1713.299999999999
 31
0.0
  0
LINE
  5
14483
330
1A
100
AcDbEntity
  8
ZISSEN1
100
AcDbLine
 10
-1515.100000000136
 20
1713.299999999999
 30
0.0
 11
-1515.100000000136
 21
1706.599999999999
 31
0.0
  0
LINE
  5
14484
330
1A
100
AcDbEntity
  8
ZISSEN1
100
AcDbLine
 10
-1515.100000000136
 20
1706.599999999999
 30
0.0
 11
-1500.200000000136
 21
1706.599999999999
 31
0.0
  0
LINE
  5
14485
330
1A
100
AcDbEntity
  8
ZISSEN1
100
AcDbLine
 10
-1512.650000000136
 20
1706.599999999999
 30
0.0
 11
-1515.100000000136
 21
1706.599999999999
 31
0.0
  0
LINE
  5
14486
330
1A
100
AcDbEntity
  8
ZISSEN1
100
AcDbLine
 10
-1515.100000000136
 20
1713.299999999999
 30
0.0
 11
-1500.200000000136
 21
1713.299999999999
 31
0.0
  0
LINE
  5
14487
330
1A
100
AcDbEntity
  8
ZISSEN1
100
AcDbLine
 10
-1515.100000000136
 20
1709.949999999999
 30
0.0
 11
-1515.100000000136
 21
1709.949999999999
 31
0.0
  0
LINE
  5
14488
330
1A
100
AcDbEntity
  8
ZISSEN1
 48
0.3
100
AcDbLine
 10
-1523.002140020459
 20
1697.399999999999
 30
0.0
 11
-1523.002140020459
 21
1698.999999999999
 31
0.0
  0
LINE
  5
14489
330
1A
100
AcDbEntity
  8
ZISSEN1
 48
0.3
100
AcDbLine
 10
-1523.002140020459
 20
1698.999999999999
 30
0.0
 11
-1523.002140020459
 21
1697.399999999999
 31
0.0
  0
DIMENSION
  5
14549
330
1A
100
AcDbEntity
  8
SUNPOU
100
AcDbDimension
  2
*D5
 10
-1624.725368098439
 20
1615.3
 30
0.0
 11
-1627.475368098439
 21
1577.649999999999
 31
0.0
 70
    32
  3
標準スタイル
100
AcDbAlignedDimension
 13
-1601.899999999997
 23
1540.0
 33
0.0
 14
-1603.399999999999
 24
1615.3
 34
0.0
 50
90.0
100
AcDbRotatedDimension
1001
ACAD
1000
DSTYLE
1002
{
1070
   340
1005
10
1070
   140
1040
3.5
1070
    40
1040
1.0
1002
}
  0
LINE
  5
1459F
330
1A
100
AcDbEntity
  8
SOUZOUSEN
  6
PHANTOMX2
100
AcDbLine
 10
-1577.454192808495
 20
1645.3
 30
0.0
 11
-1567.45
 21
1645.3
 31
0.0
  0
ARC
  5
145AF
330
1A
100
AcDbEntity
  8
SOUZOUSEN
  6
PHANTOMX2
100
AcDbCircle
 10
-1567.450000000002
 20
1644.299999999998
 30
0.0
 40
1.000000000001818
100
AcDbArc
 50
0.0000000000130276
 51
89.99999999989578
  0
ARC
  5
145B0
330
1A
100
AcDbEntity
  8
SOUZOUSEN
  6
PHANTOMX2
100
AcDbCircle
 10
-1571.350000000001
 20
1640.4
 30
0.0
 40
1.000000000001818
100
AcDbArc
 50
0.0000000000130276
 51
89.99999999989578
  0
LINE
  5
145B1
330
1A
100
AcDbEntity
  8
SOUZOUSEN
  6
PHANTOMX2
100
AcDbLine
 10
-1571.350000000001
 20
1641.4
 30
0.0
 11
-1577.593174504941
 21
1641.4
 31
0.0
  0
LINE
  5
145B2
330
1A
100
AcDbEntity
  8
SOUZOUSEN
  6
PHANTOMX2
100
AcDbLine
 10
-1570.349999999999
 20
1635.7
 30
0.0
 11
-1570.349999999999
 21
1640.4
 31
0.0
  0
LINE
  5
145B4
330
1A
100
AcDbEntity
  8
SOUZOUSEN
  6
PHANTOMX2
100
AcDbLine
 10
-1566.449999999999
 20
1635.7
 30
0.0
 11
-1566.45
 21
1644.299999999998
 31
0.0
  0
LINE
  5
145B6
330
1A
100
AcDbEntity
  8
SOUZOUSEN
  6
PHANTOMX2
100
AcDbLine
 10
-1565.399999999999
 20
1631.769812807356
 30
0.0
 11
-1568.399999999999
 21
1631.769812807356
 31
0.0
  0
LINE
  5
145B7
330
1A
100
AcDbEntity
  8
SOUZOUSEN
  6
BYBLOCK
100
AcDbLine
 10
-1565.399999999999
 20
1631.169812807356
 30
0.0
 11
-1565.399999999999
 21
1631.769812807356
 31
0.0
  0
LINE
  5
145B8
330
1A
100
AcDbEntity
  8
SOUZOUSEN
  6
PHANTOMX2
100
AcDbLine
 10
-1571.399999999999
 20
1631.169812807356
 30
0.0
 11
-1565.399999999999
 21
1631.169812807356
 31
0.0
  0
LINE
  5
145B9
330
1A
100
AcDbEntity
  8
SOUZOUSEN
  6
PHANTOMX2
100
AcDbLine
 10
-1571.399999999999
 20
1631.769812807356
 30
0.0
 11
-1571.399999999999
 21
1631.169812807356
 31
0.0
  0
LINE
  5
145BA
330
1A
100
AcDbEntity
  8
SOUZOUSEN
  6
PHANTOMX2
100
AcDbLine
 10
-1568.399999999999
 20
1631.769812807356
 30
0.0
 11
-1571.399999999999
 21
1631.769812807356
 31
0.0
  0
LINE
  5
145BB
330
1A
100
AcDbEntity
  8
SOUZOUSEN
  6
PHANTOMX2
100
AcDbLine
 10
-1565.149999999999
 20
1633.1
 30
0.0
 11
-1565.149999999999
 21
1629.806082777386
 31
0.0
  0
LINE
  5
145BC
330
1A
100
AcDbEntity
  8
SOUZOUSEN
  6
PHANTOMX2
100
AcDbLine
 10
-1571.649999999999
 20
1629.839625614712
 30
0.0
 11
-1569.899999999999
 21
1629.839625614712
 31
0.0
  0
LINE
  5
145BD
330
1A
100
AcDbEntity
  8
ZISSEN1
  6
PHANTOMX2
100
AcDbLine
 10
-1569.899999999999
 20
1629.839625614712
 30
0.0
 11
-1569.899999999999
 21
1629.239625614712
 31
0.0
  0
LINE
  5
145BE
330
1A
100
AcDbEntity
  8
SOUZOUSEN
  6
PHANTOMX2
100
AcDbLine
 10
-1569.899999999999
 20
1629.239625614712
 30
0.0
 11
-1571.649999999999
 21
1629.239625614712
 31
0.0
  0
LINE
  5
145BF
330
1A
100
AcDbEntity
  8
SOUZOUSEN
  6
PHANTOMX2
100
AcDbLine
 10
-1566.899999999999
 20
1629.239625614712
 30
0.0
 11
-1565.149999999999
 21
1629.239625614712
 31
0.0
  0
LINE
  5
145C0
330
1A
100
AcDbEntity
  8
ZISSEN1
  6
PHANTOMX2
100
AcDbLine
 10
-1566.899999999999
 20
1629.839625614712
 30
0.0
 11
-1566.899999999999
 21
1629.239625614712
 31
0.0
  0
LINE
  5
145C1
330
1A
100
AcDbEntity
  8
SOUZOUSEN
  6
PHANTOMX2
100
AcDbLine
 10
-1565.149999999999
 20
1629.839625614712
 30
0.0
 11
-1566.899999999999
 21
1629.839625614712
 31
0.0
  0
LINE
  5
145C2
330
1A
100
AcDbEntity
  8
SOUZOUSEN
  6
PHANTOMX2
100
AcDbLine
 10
-1571.649999999999
 20
1633.1
 30
0.0
 11
-1571.649999999999
 21
1629.839625614712
 31
0.0
  0
LINE
  5
145C3
330
1A
100
AcDbEntity
  8
SOUZOUSEN
  6
PHANTOMX2
100
AcDbLine
 10
-1565.149999999999
 20
1629.239625614712
 30
0.0
 11
-1565.149999999999
 21
1625.7
 31
0.0
  0
LINE
  5
145C4
330
1A
100
AcDbEntity
  8
SOUZOUSEN
  6
PHANTOMX2
100
AcDbLine
 10
-1565.149999999999
 20
1633.7
 30
0.0
 11
-1566.899999999999
 21
1633.7
 31
0.0
  0
LINE
  5
145C5
330
1A
100
AcDbEntity
  8
ZISSEN1
  6
PHANTOMX2
100
AcDbLine
 10
-1566.899999999999
 20
1633.7
 30
0.0
 11
-1566.899999999999
 21
1633.1
 31
0.0
  0
LINE
  5
145C6
330
1A
100
AcDbEntity
  8
SOUZOUSEN
  6
PHANTOMX2
100
AcDbLine
 10
-1566.899999999999
 20
1633.1
 30
0.0
 11
-1565.149999999999
 21
1633.1
 31
0.0
  0
LINE
  5
145C7
330
1A
100
AcDbEntity
  8
SOUZOUSEN
  6
PHANTOMX2
100
AcDbLine
 10
-1569.899999999999
 20
1633.1
 30
0.0
 11
-1571.649999999999
 21
1633.1
 31
0.0
  0
LINE
  5
145C8
330
1A
100
AcDbEntity
  8
ZISSEN1
  6
PHANTOMX2
100
AcDbLine
 10
-1569.899999999999
 20
1633.7
 30
0.0
 11
-1569.899999999999
 21
1633.1
 31
0.0
  0
LINE
  5
145C9
330
1A
100
AcDbEntity
  8
SOUZOUSEN
  6
PHANTOMX2
100
AcDbLine
 10
-1571.649999999999
 20
1633.7
 30
0.0
 11
-1569.899999999999
 21
1633.7
 31
0.0
  0
LINE
  5
145CA
330
1A
100
AcDbEntity
  8
SOUZOUSEN
  6
PHANTOMX2
100
AcDbLine
 10
-1571.649999999999
 20
1635.7
 30
0.0
 11
-1571.649999999999
 21
1633.7
 31
0.0
  0
LINE
  5
145CB
330
1A
100
AcDbEntity
  8
SOUZOUSEN
  6
PHANTOMX2
100
AcDbLine
 10
-1570.899999999999
 20
1626.786503765257
 30
0.0
 11
-1565.899999999999
 21
1626.786503765257
 31
0.0
  0
LINE
  5
145CC
330
1A
100
AcDbEntity
  8
SOUZOUSEN
  6
PHANTOMX2
100
AcDbLine
 10
-1570.9
 20
1622.699999999999
 30
0.0
 11
-1571.649999999999
 21
1625.699999999999
 31
0.0
  0
LINE
  5
145CD
330
1A
100
AcDbEntity
  8
SOUZOUSEN
  6
PHANTOMX2
100
AcDbLine
 10
-1565.899999999999
 20
1622.7
 30
0.0
 11
-1565.149999999999
 21
1625.7
 31
0.0
  0
LINE
  5
145CE
330
1A
100
AcDbEntity
  8
ZISSEN1
  6
PHANTOMX2
100
AcDbLine
 10
-1565.149999999999
 20
1635.7
 30
0.0
 11
-1565.149999999999
 21
1633.7
 31
0.0
  0
LINE
  5
145CF
330
1A
100
AcDbEntity
  8
SOUZOUSEN
  6
PHANTOMX2
100
AcDbLine
 10
-1571.649999999999
 20
1635.7
 30
0.0
 11
-1565.149999999999
 21
1635.7
 31
0.0
  0
LINE
  5
145D0
330
1A
100
AcDbEntity
  8
SOUZOUSEN
  6
PHANTOMX2
100
AcDbLine
 10
-1571.649999999999
 20
1625.699999999999
 30
0.0
 11
-1571.649999999999
 21
1629.239625614712
 31
0.0
  0
LINE
  5
145E1
330
1A
100
AcDbEntity
  8
SOUZOUSEN
  6
PHANTOMX2
100
AcDbLine
 10
-1565.899999999999
 20
1615.3
 30
0.0
 11
-1565.899999999999
 21
1626.786503765257
 31
0.0
  0
LINE
  5
145E2
330
1A
100
AcDbEntity
  8
SOUZOUSEN
  6
PHANTOMX2
100
AcDbLine
 10
-1570.899999999999
 20
1615.3
 30
0.0
 11
-1570.899999999999
 21
1626.786503765257
 31
0.0
  0
DIMENSION
  5
145E6
330
1A
100
AcDbEntity
  8
SUNPOU
100
AcDbDimension
  2
*D6
 10
-1624.725368098439
 20
1645.3
 30
0.0
 11
-1627.475368098439
 21
1630.3
 31
0.0
 70
    32
  1
(30)
  3
標準スタイル
100
AcDbAlignedDimension
 13
-1603.399999999999
 23
1615.3
 33
0.0
 14
-1577.454192808495
 24
1645.3
 34
0.0
 50
90.0
100
AcDbRotatedDimension
1001
ACAD
1000
DSTYLE
1002
{
1070
   287
1070
     4
1070
   340
1005
10
1070
   140
1040
3.5
1070
    40
1040
1.0
1070
   279
1070
     1
1002
}
  0
MTEXT
  5
1469B
330
1A
100
AcDbEntity
  8
ZISSEN1
  6
BYBLOCK
100
AcDbMText
 10
-1410.518839403524
 20
1693.935636838385
 30
0.0
 40
3.0
 41
27.66158549637799
 71
     1
 72
     5
  1
{\fＭＳ ゴシック|b0|i0|c128|p49;2-M3(M4可)}
 11
0.0000000000000001
 21
1.0
 31
0.0
1001
ACAD
1000
MTEXTBEGIN
1070
    73
1070
     1
1070
    44
1040
1.0
1070
    74
1070
     0
1000
MTEXTEND
  0
LINE
  5
14768
330
1A
100
AcDbEntity
  8
ZISSEN1
100
AcDbLine
 10
-1540.000000018514
 20
1539.999999757992
 30
0.0
 11
-1413.000000018514
 21
1539.999999757992
 31
0.0
  0
DIMENSION
  5
147F6
330
1A
100
AcDbEntity
  8
SUNPOU
100
AcDbDimension
  2
*D7
 10
-1406.422733604516
 20
1688.649999999999
 30
0.0
 11
-1406.422733604516
 21
1678.149999999999
 31
0.0
 70
   160
  3
標準スタイル
100
AcDbAlignedDimension
 13
-1413.0
 23
1693.149999999999
 33
0.0
 14
-1413.0
 24
1688.649999999999
 34
0.0
 50
90.0
100
AcDbRotatedDimension
1001
ACAD
1000
DSTYLE
1002
{
1070
   340
1005
10
1070
    40
1040
1.0
1002
}
  0
LINE
  5
1487C
330
1A
100
AcDbEntity
  8
SOUZOUSEN
  6
PHANTOMX2
100
AcDbLine
 10
-1605.189269915325
 20
1624.703759452057
 30
0.0
 11
-1598.359475024479
 21
1624.702600617981
 31
0.0
  0
LINE
  5
1487D
330
1A
100
AcDbEntity
  8
SOUZOUSEN
  6
PHANTOMX2
100
AcDbLine
 10
-1601.239337831166
 20
1631.303751464604
 30
0.0
 11
-1605.141241461819
 21
1631.303751464604
 31
0.0
  0
LINE
  5
1487E
330
1A
100
AcDbEntity
  8
SOUZOUSEN
  6
PHANTOMX2
100
AcDbLine
 10
-1602.039337831166
 20
1629.703751464604
 30
0.0
 11
-1604.604847151271
 21
1629.703751464604
 31
0.0
  0
LINE
  5
1487F
330
1A
100
AcDbEntity
  8
ZISSEN1
100
AcDbLine
 10
-1605.299999999997
 20
1619.0
 30
0.0
 11
-1598.599999999998
 21
1619.0
 31
0.0
  0
LINE
  5
14880
330
1A
100
AcDbEntity
  8
SOUZOUSEN
  6
PHANTOMX2
100
AcDbLine
 10
-1605.679269915325
 20
1624.202600617981
 30
0.0
 11
-1607.639269915324
 21
1624.202600617981
 31
0.0
  0
LINE
  5
14881
330
1A
100
AcDbEntity
  8
SOUZOUSEN
  6
PHANTOMX2
100
AcDbLine
 10
-1607.639269915324
 20
1624.202600617981
 30
0.0
 11
-1607.639269915324
 21
1622.70260061798
 31
0.0
  0
LINE
  5
14882
330
1A
100
AcDbEntity
  8
SOUZOUSEN
  6
PHANTOMX2
100
AcDbLine
 10
-1605.189269915325
 20
1624.702600617981
 30
0.0
 11
-1607.139269915324
 21
1620.723008781246
 31
0.0
  0
LINE
  5
14883
330
1A
100
AcDbEntity
  8
SOUZOUSEN
  6
PHANTOMX2
100
AcDbLine
 10
-1605.189269915325
 20
1619.0
 30
0.0
 11
-1605.189269915325
 21
1624.62261078397
 31
0.0
  0
ARC
  5
14884
330
1A
100
AcDbEntity
  8
SOUZOUSEN
  6
PHANTOMX2
100
AcDbCircle
 10
-1601.239337831168
 20
1630.303751464602
 30
0.0
 40
1.000000000000909
100
AcDbArc
 50
0.0000000001042204
 51
89.99999999989578
  0
LINE
  5
14885
330
1A
100
AcDbEntity
  8
SOUZOUSEN
  6
PHANTOMX2
100
AcDbLine
 10
-1600.239337831166
 20
1624.703751464604
 30
0.0
 11
-1600.239337831166
 21
1630.303751464604
 31
0.0
  0
LINE
  5
14886
330
1A
100
AcDbEntity
  8
SOUZOUSEN
  6
PHANTOMX2
100
AcDbLine
 10
-1601.839337831167
 20
1624.703751464604
 30
0.0
 11
-1601.839337831165
 21
1629.503751464603
 31
0.0
  0
LINE
  5
14887
330
1A
100
AcDbEntity
  8
SOUZOUSEN
  6
PHANTOMX2
100
AcDbLine
 10
-1598.889269915324
 20
1622.82260061798
 30
0.0
 11
-1598.889269915324
 21
1619.0
 31
0.0
  0
LINE
  5
14888
330
1A
100
AcDbEntity
  8
SOUZOUSEN
  6
PHANTOMX2
100
AcDbLine
 10
-1598.359475024479
 20
1624.703749286067
 30
0.0
 11
-1598.359475024479
 21
1622.903749286066
 31
0.0
  0
LINE
  5
14889
330
1A
100
AcDbEntity
  8
SOUZOUSEN
  6
PHANTOMX2
100
AcDbLine
 10
-1607.139269915324
 20
1622.62260061798
 30
0.0
 11
-1607.139269915324
 21
1611.322600617979
 31
0.0
  0
LINE
  5
1488A
330
1A
100
AcDbEntity
  8
ZISSEN1
  6
PHANTOMX2
100
AcDbLine
 10
-1607.139269915324
 20
1611.322600617979
 30
0.0
 11
-1606.135785661396
 21
1611.322600617979
 31
0.0
  0
DIMENSION
  5
148A8
330
1A
100
AcDbEntity
  8
SUNPOU
100
AcDbDimension
  2
*D8
 10
-1614.285902884191
 20
1631.303751464604
 30
0.0
 11
-1614.285902884192
 21
1623.261875732302
 31
0.0
 70
   160
  1
(16)
  3
標準スタイル
100
AcDbAlignedDimension
 13
-1603.399999999999
 23
1615.3
 33
0.0
 14
-1605.141241461819
 24
1631.303751464604
 34
0.0
 50
90.0
100
AcDbRotatedDimension
1001
ACAD
1000
DSTYLE
1002
{
1070
   340
1005
10
1070
    40
1040
1.0
1002
}
  0
LINE
  5
1494C
330
1A
100
AcDbEntity
  8
ZISSEN1
100
AcDbLine
 10
-1540.0
 20
1543.0
 30
0.0
 11
-1536.5
 21
1543.0
 31
0.0
  0
LINE
  5
1494E
330
1A
100
AcDbEntity
  8
CL1
100
AcDbLine
 10
-1536.496422874571
 20
1537.043129016718
 30
0.0
 11
-1536.496422874571
 21
1545.424659725241
 31
0.0
  0
LINE
  5
1496D
330
1A
100
AcDbEntity
  8
ZISSEN1
100
AcDbLine
 10
-1413.0
 20
1543.0
 30
0.0
 11
-1416.5
 21
1543.0
 31
0.0
  0
LINE
  5
1496F
330
1A
100
AcDbEntity
  8
CL1
100
AcDbLine
 10
-1416.497864568552
 20
1537.958411273171
 30
0.0
 11
-1416.497864568552
 21
1544.678714471224
 31
0.0
  0
LINE
  5
149B0
330
1A
100
AcDbEntity
  8
ZISSEN1
100
AcDbLine
 10
-1383.600000000002
 20
1545.499999999999
 30
0.0
 11
-1383.600000000002
 21
1596.102665780546
 31
0.0
  0
LINE
  5
149E0
330
1A
100
AcDbEntity
  8
ZISSEN1
100
AcDbLine
 10
-1418.499999999862
 20
1679.899999999999
 30
0.0
 11
-1418.499999999862
 21
1669.999999999998
 31
0.0
  0
LINE
  5
149E1
330
1A
100
AcDbEntity
  8
ZISSEN1
100
AcDbLine
 10
-1420.499999999861
 20
1667.999999999998
 30
0.0
 11
-1422.7
 21
1668.0
 31
0.0
  0
LINE
  5
14A9B
330
1A
100
AcDbEntity
  8
ZISSEN1
  6
PHANTOMX2
100
AcDbLine
 10
-1384.100000000002
 20
1595.102665780546
 30
0.0
 11
-1384.100000000002
 21
1596.102665780546
 31
0.0
  0
LINE
  5
14A9C
330
1A
100
AcDbEntity
  8
ZISSEN1
  6
BYBLOCK
100
AcDbLine
 10
-1384.100000000002
 20
1596.102665780546
 30
0.0
 11
-1374.000000000002
 21
1596.102665780546
 31
0.0
  0
LINE
  5
14A9D
330
1A
100
AcDbEntity
  8
ZISSEN1
  6
PHANTOMX2
100
AcDbLine
 10
-1374.000000000002
 20
1596.102665780546
 30
0.0
 11
-1374.000000000002
 21
1595.102665780546
 31
0.0
  0
DIMENSION
  5
14AD4
330
1A
100
AcDbEntity
  8
SUNPOU
  6
BYBLOCK
100
AcDbDimension
  2
*D9
 10
-1333.446980797257
 20
1619.0
 30
0.0
 11
-1335.821980797258
 21
1579.5
 31
0.0
 70
    32
  3
ISO-25
100
AcDbAlignedDimension
 13
-1348.100000000002
 23
1540.0
 33
0.0
 14
-1344.7
 24
1619.0
 34
0.0
 50
90.0
100
AcDbRotatedDimension
1001
ACAD
1000
DSTYLE
1002
{
1070
   140
1040
3.5
1002
}
  0
LINE
  5
14AF8
330
1A
100
AcDbEntity
  8
ZISSEN1
100
AcDbLine
 10
-1420.499999999861
 20
1667.999999999998
 30
0.0
 11
-1418.499999999862
 21
1669.999999999998
 31
0.0
  0
LINE
  5
14B98
330
1A
100
AcDbEntity
  8
CL1
100
AcDbLine
 10
-1439.18112430242
 20
1673.95
 30
0.0
 11
-1439.18112430242
 21
1667.949999999999
 31
0.0
  0
LINE
  5
14B99
330
1A
100
AcDbEntity
  8
CL1
100
AcDbLine
 10
-1439.18112430242
 20
1673.95
 30
0.0
 11
-1439.18112430242
 21
1667.949999999999
 31
0.0
  0
LINE
  5
14B9A
330
1A
100
AcDbEntity
  8
CL1
100
AcDbLine
 10
-1442.18112430242
 20
1670.949999999999
 30
0.0
 11
-1436.18112430242
 21
1670.949999999999
 31
0.0
  0
LINE
  5
14B9B
330
1A
100
AcDbEntity
  8
CL1
100
AcDbLine
 10
-1442.18112430242
 20
1670.949999999999
 30
0.0
 11
-1436.18112430242
 21
1670.949999999999
 31
0.0
  0
CIRCLE
  5
14B9C
330
1A
100
AcDbEntity
  8
ZISSEN1
100
AcDbCircle
 10
-1439.18112430242
 20
1670.949999999999
 30
0.0
 40
0.8
  0
CIRCLE
  5
14B9D
330
1A
100
AcDbEntity
  8
SAISEN
100
AcDbCircle
 10
-1439.18112430242
 20
1670.949999999999
 30
0.0
 40
1.3
  0
LINE
  5
14B9E
330
1A
100
AcDbEntity
  8
CL1
100
AcDbLine
 10
-1457.051124302419
 20
1673.95
 30
0.0
 11
-1457.051124302419
 21
1667.949999999999
 31
0.0
  0
LINE
  5
14B9F
330
1A
100
AcDbEntity
  8
CL1
100
AcDbLine
 10
-1457.051124302419
 20
1673.95
 30
0.0
 11
-1457.051124302419
 21
1667.949999999999
 31
0.0
  0
LINE
  5
14BA0
330
1A
100
AcDbEntity
  8
CL1
100
AcDbLine
 10
-1460.051124302419
 20
1670.949999999999
 30
0.0
 11
-1454.051124302419
 21
1670.949999999999
 31
0.0
  0
LINE
  5
14BA1
330
1A
100
AcDbEntity
  8
CL1
100
AcDbLine
 10
-1460.051124302419
 20
1670.949999999999
 30
0.0
 11
-1454.051124302419
 21
1670.949999999999
 31
0.0
  0
CIRCLE
  5
14BA2
330
1A
100
AcDbEntity
  8
ZISSEN1
100
AcDbCircle
 10
-1457.051124302419
 20
1670.949999999999
 30
0.0
 40
0.8
  0
CIRCLE
  5
14BA3
330
1A
100
AcDbEntity
  8
SAISEN
100
AcDbCircle
 10
-1457.051124302419
 20
1670.949999999999
 30
0.0
 40
1.3
  0
VIEWPORT
  5
5D8F
330
5D8E
100
AcDbEntity
 67
     1
  8
0
100
AcDbViewport
 10
242.3337128426484
 20
165.4026431228008
 30
0.0
 40
573.9825248868203
 41
329.6562736515749
 68
     1
 69
     1
1001
ACAD
1000
MVIEW
1002
{
1070
    16
1010
0.0
1020
0.0
1030
0.0
1010
0.0
1020
0.0
1030
1.0
1040
0.0
1040
329.6562736515749
1040
242.3337128426484
1040
165.4026431228008
1040
50.0
1040
0.0
1040
0.0
1070
     0
1070
   100
1070
     1
1070
     0
1070
     0
1070
     0
1070
     0
1070
     0
1040
0.0
1040
0.0
1040
0.0
1040
1.0
1040
1.0
1040
10.0
1040
10.0
1070
     0
1002
{
1002
}
1002
}
  0
VIEWPORT
  5
6001
330
5D8E
100
AcDbEntity
 67
     1
  8
ZISSEN1
100
AcDbViewport
 10
221.7861955525412
 20
157.6960273330388
 30
0.0
 40
385.4999999999997
 41
259.9999999999999
 68
     2
 69
     2
1001
ACAD
1000
MVIEW
1002
{
1070
    16
1010
0.0
1020
0.0
1030
0.0
1010
0.0
1020
0.0
1030
1.0
1040
0.0
1040
259.9999999999999
1040
-1480.683416239923
1040
1641.032985084013
1040
50.0
1040
0.0
1040
0.0
1070
     0
1070
   100
1070
     1
1070
     0
1070
     0
1070
     0
1070
     0
1070
     0
1040
0.0
1040
0.0
1040
0.0
1040
1.0
1040
1.0
1040
10.0
1040
10.0
1070
     0
1002
{
1002
}
1002
}
  0
TEXT
  5
716F
330
5D8E
100
AcDbEntity
 67
     1
  8
SUNPOU
 62
     0
100
AcDbText
 10
349.4314292487722
 20
41.36108685377144
 30
0.0
 40
3.5
  1
縮尺 1/1
  7
ゴシック体
100
AcDbText
  0
ENDSEC
  0
SECTION
  2
OBJECTS
  0
DICTIONARY
  5
C
330
0
100
AcDbDictionary
  3
ACAD_GROUP
350
D
  3
ACAD_LAYOUT
350
5C7D
  3
ACAD_MLINESTYLE
350
E
  3
ACAD_PLOTSETTINGS
350
5C7E
  3
ACAD_PLOTSTYLENAME
350
5C7B
  3
DWGPROPS
350
5E8E
  3
ACDBHEADERROUNDTRIPXREC
350
14BDF
  0
DICTIONARY
  5
130FA
330
2
100
AcDbDictionary
280
     1
  3
ACAD_LAYERFILTERS
360
130FB
  0
DICTIONARY
  5
14BFF
330
1A
100
AcDbDictionary
280
     1
  3
ACAD_LAYOUTSELFREF
360
14C00
  0
DICTIONARY
  5
14C01
330
5D8E
100
AcDbDictionary
280
     1
  3
ACAD_LAYOUTSELFREF
360
14C02
  0
DICTIONARY
  5
D
102
{ACAD_REACTORS
330
C
102
}
330
C
100
AcDbDictionary
  3
*A1
350
477D
  3
*A2
350
4C14
  3
*A3
350
4C15
  3
*A4
350
4C16
  3
*A5
350
4C17
  3
*A6
350
477E
  3
*A7
350
477F
  3
*A8
350
4780
  3
*A9
350
4781
  3
*A10
350
4C0E
  3
*A11
350
4C0F
  3
*A12
350
4C10
  3
*A13
350
4C11
  3
*A14
350
4C12
  3
*A15
350
4C13
  0
DICTIONARY
  5
5C7D
102
{ACAD_REACTORS
330
C
102
}
330
C
100
AcDbDictionary
  0
DICTIONARY
  5
E
102
{ACAD_REACTORS
330
C
102
}
330
C
100
AcDbDictionary
  3
STANDARD
350
13
  0
DICTIONARY
  5
5C7E
102
{ACAD_REACTORS
330
C
102
}
330
C
100
AcDbDictionary
  0
ACDBDICTIONARYWDFLT
  5
5C7B
102
{ACAD_REACTORS
330
C
102
}
330
C
100
AcDbDictionary
281
     1
  3
Normal
350
5C7C
100
AcDbDictionaryWithDefault
340
5C7C
  0
XRECORD
  5
5E8E
102
{ACAD_REACTORS
330
C
102
}
330
C
100
AcDbXrecord
  1
DWGPROPS COOKIE
  2

  3

  4

  6

  7

  8

  9

300
=
301
=
302
=
303
=
304
=
305
=
306
=
307
=
308
=
309
=
 40
0.586753587962963
 41
2450495.493631365
 42
2453208.662277431
  1

 90
        0
  0
DICTIONARY
  5
14BDF
102
{ACAD_REACTORS
330
C
102
}
330
C
100
AcDbDictionary
  3
TSTACKALIGN
350
14BE0
  3
TSTACKSIZE
350
14BE1
  3
HYPERLINKBASE
350
14BE2
  3
STYLESHEET
350
14BE3
  3
LAYOUTDICT
350
14BE4
  3
PLOTSETDICT
350
14BE5
  3
PLOTSTYLNAMDICT
350
14BE6
  3
LWETCUNION
350
14BE7
  3
INSUNITS
350
14BE8
  3
CEPSNTYPE
350
14BE9
  3
FINGERPRINTGUID
350
14BEA
  3
VERSIONGUID
350
14BEB
  3
PSVPSCALE
350
14BEC
  3
PUCSORTHOREF
350
14BED
  3
PUCSORTHOVIEW
350
14BEE
  3
PUCSBASE
350
14BEF
  3
PUCSORGTOP
350
14BF0
  3
PUCSORGBOTTOM
350
14BF1
  3
PUCSORGLEFT
350
14BF2
  3
PUCSORGRIGHT
350
14BF3
  3
PUCSORGFRONT
350
14BF4
  3
PUCSORGBACK
350
14BF5
  3
UCSORTHOREF
350
14BF6
  3
UCSORTHOVIEW
350
14BF7
  3
UCSBASE
350
14BF8
  3
UCSORGTOP
350
14BF9
  3
UCSORGBOTTOM
350
14BFA
  3
UCSORGLEFT
350
14BFB
  3
UCSORGRIGHT
350
14BFC
  3
UCSORGFRONT
350
14BFD
  3
UCSORGBACK
350
14BFE
  0
DICTIONARY
  5
130FB
102
{ACAD_REACTORS
330
130FA
102
}
330
130FA
100
AcDbDictionary
280
     1
  3
BASE
360
130FC
  3
CASE
360
130FD
  3
KIKOU
360
130FE
  0
XRECORD
  5
14C00
102
{ACAD_REACTORS
330
14BFF
102
}
330
14BFF
100
AcDbXrecord
340
1A
  0
XRECORD
  5
14C02
102
{ACAD_REACTORS
330
14C01
102
}
330
14C01
100
AcDbXrecord
340
5D8E
  0
GROUP
  5
477D
102
{ACAD_REACTORS
330
D
102
}
330
D
100
AcDbGroup
300

 70
     1
 71
     1
  0
GROUP
  5
4C14
102
{ACAD_REACTORS
330
D
102
}
330
D
100
AcDbGroup
300

 70
     1
 71
     1
  0
GROUP
  5
4C15
102
{ACAD_REACTORS
330
D
102
}
330
D
100
AcDbGroup
300

 70
     1
 71
     1
  0
GROUP
  5
4C16
102
{ACAD_REACTORS
330
D
102
}
330
D
100
AcDbGroup
300

 70
     1
 71
     1
  0
GROUP
  5
4C17
102
{ACAD_REACTORS
330
D
102
}
330
D
100
AcDbGroup
300

 70
     1
 71
     1
  0
GROUP
  5
477E
102
{ACAD_REACTORS
330
D
102
}
330
D
100
AcDbGroup
300

 70
     1
 71
     1
  0
GROUP
  5
477F
102
{ACAD_REACTORS
330
D
102
}
330
D
100
AcDbGroup
300

 70
     1
 71
     1
  0
GROUP
  5
4780
102
{ACAD_REACTORS
330
D
102
}
330
D
100
AcDbGroup
300

 70
     1
 71
     1
  0
GROUP
  5
4781
102
{ACAD_REACTORS
330
D
102
}
330
D
100
AcDbGroup
300

 70
     1
 71
     1
  0
GROUP
  5
4C0E
102
{ACAD_REACTORS
330
D
102
}
330
D
100
AcDbGroup
300

 70
     1
 71
     1
  0
GROUP
  5
4C0F
102
{ACAD_REACTORS
330
D
102
}
330
D
100
AcDbGroup
300

 70
     1
 71
     1
  0
GROUP
  5
4C10
102
{ACAD_REACTORS
330
D
102
}
330
D
100
AcDbGroup
300

 70
     1
 71
     1
  0
GROUP
  5
4C11
102
{ACAD_REACTORS
330
D
102
}
330
D
100
AcDbGroup
300

 70
     1
 71
     1
  0
GROUP
  5
4C12
102
{ACAD_REACTORS
330
D
102
}
330
D
100
AcDbGroup
300

 70
     1
 71
     1
  0
GROUP
  5
4C13
102
{ACAD_REACTORS
330
D
102
}
330
D
100
AcDbGroup
300

 70
     1
 71
     1
  0
MLINESTYLE
  5
13
102
{ACAD_REACTORS
330
E
102
}
330
E
100
AcDbMlineStyle
  2
STANDARD
 70
     0
  3

 62
     0
 51
90.0
 52
90.0
 71
     2
 49
0.5
 62
   256
  6
BYLAYER
 49
-0.5
 62
   256
  6
BYLAYER
  0
ACDBPLACEHOLDER
  5
5C7C
102
{ACAD_REACTORS
330
5C7B
102
}
330
5C7B
100
AcDbPlaceHolder
280
     0
  0
XRECORD
  5
14BE0
102
{ACAD_REACTORS
330
14BDF
102
}
330
14BDF
100
AcDbXrecord
 90
        1
  0
XRECORD
  5
14BE1
102
{ACAD_REACTORS
330
14BDF
102
}
330
14BDF
100
AcDbXrecord
 90
       70
  0
XRECORD
  5
14BE2
102
{ACAD_REACTORS
330
14BDF
102
}
330
14BDF
100
AcDbXrecord
  1

  0
XRECORD
  5
14BE3
102
{ACAD_REACTORS
330
14BDF
102
}
330
14BDF
100
AcDbXrecord
  1

  0
XRECORD
  5
14BE4
102
{ACAD_REACTORS
330
14BDF
102
}
330
14BDF
100
AcDbXrecord
340
5C7D
  0
XRECORD
  5
14BE5
102
{ACAD_REACTORS
330
14BDF
102
}
330
14BDF
100
AcDbXrecord
340
5C7E
  0
XRECORD
  5
14BE6
102
{ACAD_REACTORS
330
14BDF
102
}
330
14BDF
100
AcDbXrecord
340
5C7B
  0
XRECORD
  5
14BE7
102
{ACAD_REACTORS
330
14BDF
102
}
330
14BDF
100
AcDbXrecord
 90
    10781
  0
XRECORD
  5
14BE8
102
{ACAD_REACTORS
330
14BDF
102
}
330
14BDF
100
AcDbXrecord
 90
        0
  0
XRECORD
  5
14BE9
102
{ACAD_REACTORS
330
14BDF
102
}
330
14BDF
100
AcDbXrecord
 90
        0
  0
XRECORD
  5
14BEA
102
{ACAD_REACTORS
330
14BDF
102
}
330
14BDF
100
AcDbXrecord
  1
{225A7F0D-DA29-11D8-946A-0000E2416295}
  0
XRECORD
  5
14BEB
102
{ACAD_REACTORS
330
14BDF
102
}
330
14BDF
100
AcDbXrecord
  1
{6A767B2D-5FD2-4A55-83A0-FCF5825AB143}
  0
XRECORD
  5
14BEC
102
{ACAD_REACTORS
330
14BDF
102
}
330
14BDF
100
AcDbXrecord
 40
0.0
  0
XRECORD
  5
14BED
102
{ACAD_REACTORS
330
14BDF
102
}
330
14BDF
100
AcDbXrecord
340
0
  0
XRECORD
  5
14BEE
102
{ACAD_REACTORS
330
14BDF
102
}
330
14BDF
100
AcDbXrecord
 70
     0
  0
XRECORD
  5
14BEF
102
{ACAD_REACTORS
330
14BDF
102
}
330
14BDF
100
AcDbXrecord
340
0
  0
XRECORD
  5
14BF0
102
{ACAD_REACTORS
330
14BDF
102
}
330
14BDF
100
AcDbXrecord
 10
0.0
 20
0.0
 30
0.0
  0
XRECORD
  5
14BF1
102
{ACAD_REACTORS
330
14BDF
102
}
330
14BDF
100
AcDbXrecord
 10
0.0
 20
0.0
 30
0.0
  0
XRECORD
  5
14BF2
102
{ACAD_REACTORS
330
14BDF
102
}
330
14BDF
100
AcDbXrecord
 10
0.0
 20
0.0
 30
0.0
  0
XRECORD
  5
14BF3
102
{ACAD_REACTORS
330
14BDF
102
}
330
14BDF
100
AcDbXrecord
 10
0.0
 20
0.0
 30
0.0
  0
XRECORD
  5
14BF4
102
{ACAD_REACTORS
330
14BDF
102
}
330
14BDF
100
AcDbXrecord
 10
0.0
 20
0.0
 30
0.0
  0
XRECORD
  5
14BF5
102
{ACAD_REACTORS
330
14BDF
102
}
330
14BDF
100
AcDbXrecord
 10
0.0
 20
0.0
 30
0.0
  0
XRECORD
  5
14BF6
102
{ACAD_REACTORS
330
14BDF
102
}
330
14BDF
100
AcDbXrecord
340
0
  0
XRECORD
  5
14BF7
102
{ACAD_REACTORS
330
14BDF
102
}
330
14BDF
100
AcDbXrecord
 70
     0
  0
XRECORD
  5
14BF8
102
{ACAD_REACTORS
330
14BDF
102
}
330
14BDF
100
AcDbXrecord
340
0
  0
XRECORD
  5
14BF9
102
{ACAD_REACTORS
330
14BDF
102
}
330
14BDF
100
AcDbXrecord
 10
0.0
 20
0.0
 30
0.0
  0
XRECORD
  5
14BFA
102
{ACAD_REACTORS
330
14BDF
102
}
330
14BDF
100
AcDbXrecord
 10
0.0
 20
0.0
 30
0.0
  0
XRECORD
  5
14BFB
102
{ACAD_REACTORS
330
14BDF
102
}
330
14BDF
100
AcDbXrecord
 10
0.0
 20
0.0
 30
0.0
  0
XRECORD
  5
14BFC
102
{ACAD_REACTORS
330
14BDF
102
}
330
14BDF
100
AcDbXrecord
 10
0.0
 20
0.0
 30
0.0
  0
XRECORD
  5
14BFD
102
{ACAD_REACTORS
330
14BDF
102
}
330
14BDF
100
AcDbXrecord
 10
0.0
 20
0.0
 30
0.0
  0
XRECORD
  5
14BFE
102
{ACAD_REACTORS
330
14BDF
102
}
330
14BDF
100
AcDbXrecord
 10
0.0
 20
0.0
 30
0.0
  0
XRECORD
  5
130FC
102
{ACAD_REACTORS
330
130FB
102
}
330
130FB
100
AcDbXrecord
  1
BASE
  1
BASE*
  1
*
  1
*
 70
     0
  1
*
  1
*
  0
XRECORD
  5
130FD
102
{ACAD_REACTORS
330
130FB
102
}
330
130FB
100
AcDbXrecord
  1
CASE
  1
CASE*
  1
*
  1
*
 70
     0
  1
*
  1
*
  0
XRECORD
  5
130FE
102
{ACAD_REACTORS
330
130FB
102
}
330
130FB
100
AcDbXrecord
  1
KIKOU
  1
KIKOU*
  1
*
  1
*
 70
     0
  1
*
  1
*
  0
ENDSEC
  0
EOF
