  0
SECTION
  2
HEADER
  9
$ACADVER
  1
AC1014
  9
$ACADMAINTVER
 70
     9
  9
$DWGCODEPAGE
  3
ANSI_932
  9
$INSBASE
 10
0.0
 20
0.0
 30
0.0
  9
$EXTMIN
 10
-1391.798000924646
 20
1513.97375944433
 30
0.0
  9
$EXTMAX
 10
-1232.262406677535
 20
1690.182402445169
 30
0.0
  9
$LIMMIN
 10
0.0
 20
0.0
  9
$LIMMAX
 10
420.0
 20
297.0
  9
$ORTHOMODE
 70
     1
  9
$REGENMODE
 70
     1
  9
$FILLMODE
 70
     1
  9
$QTEXTMODE
 70
     0
  9
$MIRRTEXT
 70
     1
  9
$DRAGMODE
 70
     2
  9
$LTSCALE
 40
1.0
  9
$OSMODE
 70
    37
  9
$ATTMODE
 70
     1
  9
$TEXTSIZE
 40
2.5
  9
$TRACEWID
 40
1.0
  9
$TEXTSTYLE
  7
ゴシック体
  9
$CLAYER
  8
SUNPOU
  9
$CELTYPE
  6
BYLAYER
  9
$CECOLOR
 62
   256
  9
$CELTSCALE
 40
1.0
  9
$DELOBJ
 70
     1
  9
$DISPSILH
 70
     0
  9
$DIMSCALE
 40
0.0
  9
$DIMASZ
 40
3.0
  9
$DIMEXO
 40
0.5
  9
$DIMDLI
 40
0.5
  9
$DIMRND
 40
0.0
  9
$DIMDLE
 40
0.0
  9
$DIMEXE
 40
0.5
  9
$DIMTP
 40
0.0
  9
$DIMTM
 40
0.0
  9
$DIMTXT
 40
3.5
  9
$DIMCEN
 40
0.0
  9
$DIMTSZ
 40
0.0
  9
$DIMTOL
 70
     0
  9
$DIMLIM
 70
     0
  9
$DIMTIH
 70
     0
  9
$DIMTOH
 70
     0
  9
$DIMSE1
 70
     0
  9
$DIMSE2
 70
     0
  9
$DIMTAD
 70
     1
  9
$DIMZIN
 70
     8
  9
$DIMBLK
  1

  9
$DIMASO
 70
     1
  9
$DIMSHO
 70
     1
  9
$DIMPOST
  1

  9
$DIMAPOST
  1

  9
$DIMALT
 70
     0
  9
$DIMALTD
 70
     2
  9
$DIMALTF
 40
25.4
  9
$DIMLFAC
 40
1.0
  9
$DIMTOFL
 70
     1
  9
$DIMTVP
 40
0.0
  9
$DIMTIX
 70
     0
  9
$DIMSOXD
 70
     0
  9
$DIMSAH
 70
     0
  9
$DIMBLK1
  1

  9
$DIMBLK2
  1

  9
$DIMSTYLE
  2
標準スタイル
  9
$DIMCLRD
 70
     1
  9
$DIMCLRE
 70
     1
  9
$DIMCLRT
 70
     1
  9
$DIMTFAC
 40
1.0
  9
$DIMGAP
 40
1.0
  9
$DIMJUST
 70
     0
  9
$DIMSD1
 70
     0
  9
$DIMSD2
 70
     0
  9
$DIMTOLJ
 70
     1
  9
$DIMTZIN
 70
     8
  9
$DIMALTZ
 70
     0
  9
$DIMALTTZ
 70
     0
  9
$DIMFIT
 70
     3
  9
$DIMUPT
 70
     0
  9
$DIMUNIT
 70
     2
  9
$DIMDEC
 70
     2
  9
$DIMTDEC
 70
     2
  9
$DIMALTU
 70
     2
  9
$DIMALTTD
 70
     2
  9
$DIMTXSTY
  7
ゴシック体
  9
$DIMAUNIT
 70
     0
  9
$LUNITS
 70
     2
  9
$LUPREC
 70
     4
  9
$SKETCHINC
 40
1.0
  9
$FILLETRAD
 40
0.0
  9
$AUNITS
 70
     0
  9
$AUPREC
 70
     0
  9
$MENU
  1
.
  9
$ELEVATION
 40
0.0
  9
$PELEVATION
 40
0.0
  9
$THICKNESS
 40
0.0
  9
$LIMCHECK
 70
     0
  9
$BLIPMODE
 70
     0
  9
$CHAMFERA
 40
10.0
  9
$CHAMFERB
 40
10.0
  9
$CHAMFERC
 40
2.0
  9
$CHAMFERD
 40
0.7853981633974483
  9
$SKPOLY
 70
     0
  9
$TDCREATE
 40
2450495.493631365
  9
$TDUPDATE
 40
2455482.408311446
  9
$TDINDWG
 40
1.7742935764
  9
$TDUSRTIMER
 40
1.7742935764
  9
$USRTIMER
 70
     1
  9
$ANGBASE
 50
0.0
  9
$ANGDIR
 70
     0
  9
$PDMODE
 70
    99
  9
$PDSIZE
 40
0.0
  9
$PLINEWID
 40
0.0
  9
$COORDS
 70
     1
  9
$SPLFRAME
 70
     0
  9
$SPLINETYPE
 70
     6
  9
$SPLINESEGS
 70
     8
  9
$ATTDIA
 70
     0
  9
$ATTREQ
 70
     1
  9
$HANDLING
 70
 10241
  9
$HANDSEED
  5
145CF
  9
$SURFTAB1
 70
     6
  9
$SURFTAB2
 70
     6
  9
$SURFTYPE
 70
     6
  9
$SURFU
 70
     6
  9
$SURFV
 70
     6
  9
$UCSNAME
  2

  9
$UCSORG
 10
0.0
 20
0.0
 30
0.0
  9
$UCSXDIR
 10
1.0
 20
0.0
 30
0.0
  9
$UCSYDIR
 10
0.0
 20
1.0
 30
0.0
  9
$PUCSNAME
  2

  9
$PUCSORG
 10
0.0
 20
0.0
 30
0.0
  9
$PUCSXDIR
 10
1.0
 20
0.0
 30
0.0
  9
$PUCSYDIR
 10
0.0
 20
1.0
 30
0.0
  9
$USERI1
 70
     0
  9
$USERI2
 70
     0
  9
$USERI3
 70
     0
  9
$USERI4
 70
     0
  9
$USERI5
 70
     0
  9
$USERR1
 40
0.0
  9
$USERR2
 40
0.0
  9
$USERR3
 40
0.0
  9
$USERR4
 40
0.0
  9
$USERR5
 40
0.0
  9
$WORLDVIEW
 70
     1
  9
$SHADEDGE
 70
     3
  9
$SHADEDIF
 70
    70
  9
$TILEMODE
 70
     0
  9
$MAXACTVP
 70
    16
  9
$PINSBASE
 10
0.0
 20
0.0
 30
0.0
  9
$PLIMCHECK
 70
     0
  9
$PEXTMIN
 10
29.03619555254135
 20
27.69602733303884
 30
0.0
  9
$PEXTMAX
 10
414.5361955525411
 20
287.6960273330388
 30
0.0
  9
$PLIMMIN
 10
15.15433780389673
 20
13.80781516542163
  9
$PLIMMAX
 10
435.1009930773342
 20
310.8184658001872
  9
$UNITMODE
 70
     0
  9
$VISRETAIN
 70
     0
  9
$PLINEGEN
 70
     0
  9
$PSLTSCALE
 70
     1
  9
$TREEDEPTH
 70
  3020
  9
$PICKSTYLE
 70
     1
  9
$CMLSTYLE
  2
STANDARD
  9
$CMLJUST
 70
     0
  9
$CMLSCALE
 40
1.0
  9
$PROXYGRAPHICS
 70
     1
  9
$MEASUREMENT
 70
     1
  0
ENDSEC
  0
SECTION
  2
CLASSES
  0
CLASS
  1
LWPOLYLINE
  2
AcDbPolyline
  3
AutoCAD 2000
 90
        0
280
     0
281
     1
  0
CLASS
  1
HATCH
  2
AcDbHatch
  3
AutoCAD 2000
 90
        0
280
     0
281
     1
  0
CLASS
  1
ACDBDICTIONARYWDFLT
  2
AcDbDictionaryWithDefault
  3
AutoCAD 2000
 90
        0
280
     0
281
     0
  0
CLASS
  1
ACDBPLACEHOLDER
  2
AcDbPlaceHolder
  3
AutoCAD 2000
 90
        0
280
     0
281
     0
  0
CLASS
  1
LAYOUT
  2
AcDbLayout
  3
AutoCAD 2000
 90
        0
280
     0
281
     0
  0
CLASS
  1
DICTIONARYVAR
  2
AcDbDictionaryVar
  3
AutoCAD 2000
 90
        0
280
     0
281
     0
  0
CLASS
  1
LONG_TRANSACTION
  2
AcDbLongTransaction
  3
AutoCAD 2000
 90
        0
280
     0
281
     0
  0
CLASS
  1
LWPOLYLINE
  2
AcDbPolyline
  3
AutoCAD 2000
 90
        0
280
     0
281
     1
  0
CLASS
  1
HATCH
  2
AcDbHatch
  3
AutoCAD 2000
 90
        0
280
     0
281
     1
  0
CLASS
  1
XRECORD
  2
AcDbXrecord
  3
AutoCAD 2000
 90
        0
280
     0
281
     0
  0
ENDSEC
  0
SECTION
  2
TABLES
  0
TABLE
  2
VPORT
  5
8
330
0
100
AcDbSymbolTable
 70
     1
  0
VPORT
  5
14598
330
8
100
AcDbSymbolTableRecord
100
AcDbViewportTableRecord
  2
*ACTIVE
 70
     0
 10
0.0
 20
0.0
 11
1.0
 21
1.0
 12
-1312.025916191095
 22
1602.096195171378
 13
0.0
 23
0.0
 14
5.0
 24
5.0
 15
0.0
 25
0.0
 16
0.0
 26
0.0
 36
1.0
 17
0.0
 27
0.0
 37
0.0
 40
178.2414816600321
 41
1.741154562383612
 42
50.0
 43
0.0
 44
0.0
 50
0.0
 51
0.0
 71
     0
 72
   100
 73
     1
 74
     0
 75
     0
 76
     0
 77
     0
 78
     0
  0
ENDTAB
  0
TABLE
  2
LTYPE
  5
5
330
0
100
AcDbSymbolTable
 70
     4
  0
LTYPE
  5
14
330
5
100
AcDbSymbolTableRecord
100
AcDbLinetypeTableRecord
  2
BYBLOCK
 70
     0
  3

 72
    65
 73
     0
 40
0.0
  0
LTYPE
  5
15
330
5
100
AcDbSymbolTableRecord
100
AcDbLinetypeTableRecord
  2
BYLAYER
 70
     0
  3

 72
    65
 73
     0
 40
0.0
  0
LTYPE
  5
16
330
5
100
AcDbSymbolTableRecord
100
AcDbLinetypeTableRecord
  2
CONTINUOUS
 70
     0
  3
Solid line
 72
    65
 73
     0
 40
0.0
  0
LTYPE
  5
329
330
5
100
AcDbSymbolTableRecord
100
AcDbLinetypeTableRecord
  2
DASHEDX2
 70
     0
  3
____  ____  ____  ____  ____  ____  ____  ____ 
 72
    65
 73
     2
 40
1.5
 49
1.0
 74
     0
 49
-0.5
 74
     0
  0
LTYPE
  5
1956
330
5
100
AcDbSymbolTableRecord
100
AcDbLinetypeTableRecord
  2
CENTERX2
 70
     0
  3
________  __  ________  __  ________  __  _____
 72
    65
 73
     4
 40
4.0
 49
2.5
 74
     0
 49
-0.5
 74
     0
 49
0.5
 74
     0
 49
-0.5
 74
     0
  0
LTYPE
  5
1958
330
5
100
AcDbSymbolTableRecord
100
AcDbLinetypeTableRecord
  2
PHANTOMX2
 70
     0
  3
____________    ____    ____    ____________   
 72
    65
 73
     6
 40
5.0
 49
2.5
 74
     0
 49
-0.5
 74
     0
 49
0.5
 74
     0
 49
-0.5
 74
     0
 49
0.5
 74
     0
 49
-0.5
 74
     0
  0
ENDTAB
  0
TABLE
  2
LAYER
  5
2
102
{ACAD_XDICTIONARY
360
12874
102
}
330
0
100
AcDbSymbolTable
 70
     7
  0
LAYER
  5
F
330
2
100
AcDbSymbolTableRecord
100
AcDbLayerTableRecord
  2
0
 70
     0
 62
     7
  6
CONTINUOUS
  0
LAYER
  5
18F
330
2
100
AcDbSymbolTableRecord
100
AcDbLayerTableRecord
  2
ZISSEN1
 70
     0
 62
     7
  6
CONTINUOUS
  0
LAYER
  5
529
330
2
100
AcDbSymbolTableRecord
100
AcDbLayerTableRecord
  2
SUNPOU
 70
     0
 62
     1
  6
CONTINUOUS
  0
LAYER
  5
1959
330
2
100
AcDbSymbolTableRecord
100
AcDbLayerTableRecord
  2
KAKURESEN1
 70
     0
 62
     3
  6
DASHEDX2
  0
LAYER
  5
195A
330
2
100
AcDbSymbolTableRecord
100
AcDbLayerTableRecord
  2
CL1
 70
     0
 62
   210
  6
CENTERX2
  0
LAYER
  5
195C
330
2
100
AcDbSymbolTableRecord
100
AcDbLayerTableRecord
  2
SOUZOUSEN
 70
     0
 62
     5
  6
PHANTOMX2
  0
LAYER
  5
3A9B
330
2
100
AcDbSymbolTableRecord
100
AcDbLayerTableRecord
  2
DEFPOINTS
 70
     0
 62
     7
  6
CONTINUOUS
  0
ENDTAB
  0
TABLE
  2
STYLE
  5
3
330
0
100
AcDbSymbolTable
 70
     2
  0
STYLE
  5
10
330
3
100
AcDbSymbolTableRecord
100
AcDbTextStyleTableRecord
  2
STANDARD
 70
     0
 40
0.0
 41
1.0
 50
0.0
 71
     0
 42
3.0
  3
txt
  4
BigFont
  0
STYLE
  5
1960
330
3
100
AcDbSymbolTableRecord
100
AcDbTextStyleTableRecord
  2
ゴシック体
 70
     0
 40
0.0
 41
1.0
 50
0.0
 71
     0
 42
2.5
  3
MS Gothic.ttf
  4

1001
ACAD
1000
MS Gothic
1071
    32817
  0
ENDTAB
  0
TABLE
  2
VIEW
  5
6
330
0
100
AcDbSymbolTable
 70
     0
  0
ENDTAB
  0
TABLE
  2
UCS
  5
7
330
0
100
AcDbSymbolTable
 70
     0
  0
ENDTAB
  0
TABLE
  2
APPID
  5
9
330
0
100
AcDbSymbolTable
 70
     5
  0
APPID
  5
11
330
9
100
AcDbSymbolTableRecord
100
AcDbRegAppTableRecord
  2
ACAD
 70
     0
  0
APPID
  5
4005
330
9
100
AcDbSymbolTableRecord
100
AcDbRegAppTableRecord
  2
CONTENTTABDATA
 70
     0
  0
APPID
  5
4006
330
9
100
AcDbSymbolTableRecord
100
AcDbRegAppTableRecord
  2
CONTENTCURRENTTAB
 70
     0
  0
APPID
  5
477B
330
9
100
AcDbSymbolTableRecord
100
AcDbRegAppTableRecord
  2
CONTENTBLOCKDESCRIPTION
 70
     0
  0
APPID
  5
477C
330
9
100
AcDbSymbolTableRecord
100
AcDbRegAppTableRecord
  2
CONTENTBLOCKICON
 70
     0
  0
ENDTAB
  0
TABLE
  2
DIMSTYLE
  5
A
330
0
100
AcDbSymbolTable
 70
     2
  0
DIMSTYLE
105
1D
330
A
100
AcDbSymbolTableRecord
100
AcDbDimStyleTableRecord
  2
STANDARD
 70
     0
  3

  4

  5

  6

  7

 40
1.0
 41
0.18
 42
0.0625
 43
0.38
 44
0.18
 45
0.0
 46
0.0
 47
0.0
 48
0.0
140
0.18
141
0.09
142
0.0
143
25.4
144
1.0
145
0.0
146
1.0
147
0.09
 71
     0
 72
     0
 73
     1
 74
     1
 75
     0
 76
     0
 77
     0
 78
     0
170
     0
171
     2
172
     0
173
     0
174
     0
175
     0
176
     0
177
     0
178
     0
270
     2
271
     4
272
     4
273
     2
274
     2
340
10
275
     0
280
     0
281
     0
282
     0
283
     1
284
     0
285
     0
286
     0
287
     3
288
     0
  0
DIMSTYLE
105
52E
102
{ACAD_REACTORS
330
13303
330
1333C
330
13545
330
13546
330
13556
330
13598
330
13599
330
142E8
330
14307
330
143AB
330
143F3
330
14409
330
14451
330
1445F
330
1451E
102
}
330
A
100
AcDbSymbolTableRecord
100
AcDbDimStyleTableRecord
  2
標準スタイル
 70
     0
  3

  4

  5

  6

  7

 40
0.0
 41
3.0
 42
0.5
 43
0.5
 44
0.5
 45
0.0
 46
0.0
 47
0.0
 48
0.0
140
3.5
141
0.0
142
0.0
143
25.4
144
1.0
145
0.0
146
1.0
147
1.0
 71
     0
 72
     0
 73
     0
 74
     0
 75
     0
 76
     0
 77
     1
 78
     8
170
     0
171
     2
172
     1
173
     0
174
     0
175
     0
176
     1
177
     1
178
     1
270
     2
271
     2
272
     2
273
     2
274
     2
340
1960
275
     0
280
     0
281
     0
282
     0
283
     1
284
     8
285
     0
286
     0
287
     3
288
     0
  0
ENDTAB
  0
TABLE
  2
BLOCK_RECORD
  5
1
330
0
100
AcDbSymbolTable
 70
    15
  0
BLOCK_RECORD
  5
1A
102
{ACAD_XDICTIONARY
360
145C2
102
}
330
1
100
AcDbSymbolTableRecord
100
AcDbBlockTableRecord
  2
*MODEL_SPACE
  0
BLOCK_RECORD
  5
5D8E
102
{ACAD_XDICTIONARY
360
145C4
102
}
330
1
100
AcDbSymbolTableRecord
100
AcDbBlockTableRecord
  2
*PAPER_SPACE
  0
BLOCK_RECORD
  5
136B0
330
1
100
AcDbSymbolTableRecord
100
AcDbBlockTableRecord
  2
*D0
  0
BLOCK_RECORD
  5
136D8
330
1
100
AcDbSymbolTableRecord
100
AcDbBlockTableRecord
  2
*D1
  0
BLOCK_RECORD
  5
13718
330
1
100
AcDbSymbolTableRecord
100
AcDbBlockTableRecord
  2
*D2
  0
BLOCK_RECORD
  5
13726
330
1
100
AcDbSymbolTableRecord
100
AcDbBlockTableRecord
  2
*D3
  0
BLOCK_RECORD
  5
13732
330
1
100
AcDbSymbolTableRecord
100
AcDbBlockTableRecord
  2
*D4
  0
BLOCK_RECORD
  5
1374A
330
1
100
AcDbSymbolTableRecord
100
AcDbBlockTableRecord
  2
*D5
  0
BLOCK_RECORD
  5
13756
330
1
100
AcDbSymbolTableRecord
100
AcDbBlockTableRecord
  2
*D6
  0
BLOCK_RECORD
  5
142E9
330
1
100
AcDbSymbolTableRecord
100
AcDbBlockTableRecord
  2
*D7
  0
BLOCK_RECORD
  5
14308
330
1
100
AcDbSymbolTableRecord
100
AcDbBlockTableRecord
  2
*D8
  0
BLOCK_RECORD
  5
143AC
330
1
100
AcDbSymbolTableRecord
100
AcDbBlockTableRecord
  2
*D9
  0
BLOCK_RECORD
  5
143F4
330
1
100
AcDbSymbolTableRecord
100
AcDbBlockTableRecord
  2
*D10
  0
BLOCK_RECORD
  5
1440A
330
1
100
AcDbSymbolTableRecord
100
AcDbBlockTableRecord
  2
*D11
  0
BLOCK_RECORD
  5
14452
330
1
100
AcDbSymbolTableRecord
100
AcDbBlockTableRecord
  2
*D12
  0
BLOCK_RECORD
  5
14460
330
1
100
AcDbSymbolTableRecord
100
AcDbBlockTableRecord
  2
*D13
  0
BLOCK_RECORD
  5
1451F
330
1
100
AcDbSymbolTableRecord
100
AcDbBlockTableRecord
  2
*D14
  0
ENDTAB
  0
ENDSEC
  0
SECTION
  2
BLOCKS
  0
BLOCK
  5
1B
330
1A
100
AcDbEntity
  8
0
100
AcDbBlockBegin
  2
*MODEL_SPACE
 70
     0
 10
0.0
 20
0.0
 30
0.0
  3
*MODEL_SPACE
  1

  0
ENDBLK
  5
1C
330
1A
100
AcDbEntity
  8
0
100
AcDbBlockEnd
  0
BLOCK
  5
5E60
330
5D8E
100
AcDbEntity
 67
     1
  8
0
100
AcDbBlockBegin
  2
*PAPER_SPACE
 70
     0
 10
0.0
 20
0.0
 30
0.0
  3
*PAPER_SPACE
  1

  0
ENDBLK
  5
5E61
330
5D8E
100
AcDbEntity
 67
     1
  8
0
100
AcDbBlockEnd
  0
BLOCK
  5
136BC
330
136B0
100
AcDbEntity
  8
0
100
AcDbBlockBegin
  2
*D0
 70
     1
 10
0.0
 20
0.0
 30
0.0
  3
*D0
  1

  0
LINE
  5
14586
330
136B0
100
AcDbEntity
  8
SUNPOU
 62
     1
100
AcDbLine
 10
-1379.034619372084
 20
1556.003911302943
 30
0.0
 11
-1379.034619372084
 21
1565.508857141779
 31
0.0
  0
LINE
  5
14587
330
136B0
100
AcDbEntity
  8
SUNPOU
 62
     1
100
AcDbLine
 10
-1377.034619372084
 20
1556.003911302943
 30
0.0
 11
-1377.034619372084
 21
1565.508857141779
 31
0.0
  0
LINE
  5
14588
330
136B0
100
AcDbEntity
  8
SUNPOU
 62
     1
100
AcDbLine
 10
-1381.534619372084
 20
1565.008857141779
 30
0.0
 11
-1384.034619372084
 21
1565.008857141779
 31
0.0
  0
LINE
  5
14589
330
136B0
100
AcDbEntity
  8
SUNPOU
 62
     1
100
AcDbLine
 10
-1374.534619372084
 20
1565.008857141779
 30
0.0
 11
-1368.034619372084
 21
1565.008857141779
 31
0.0
  0
LINE
  5
1458A
330
136B0
100
AcDbEntity
  8
SUNPOU
 62
     1
100
AcDbLine
 10
-1379.034619372084
 20
1565.008857141779
 30
0.0
 11
-1377.034619372084
 21
1565.008857141779
 31
0.0
  0
SOLID
  5
1458B
330
136B0
100
AcDbEntity
  8
SUNPOU
 62
     1
100
AcDbTrace
 10
-1381.534619372084
 20
1565.425523808446
 30
0.0
 11
-1381.534619372084
 21
1564.592190475113
 31
0.0
 12
-1379.034619372084
 22
1565.008857141779
 32
0.0
 13
-1379.034619372084
 23
1565.008857141779
 33
0.0
  0
SOLID
  5
1458C
330
136B0
100
AcDbEntity
  8
SUNPOU
 62
     1
100
AcDbTrace
 10
-1374.534619372084
 20
1565.425523808446
 30
0.0
 11
-1374.534619372084
 21
1564.592190475113
 31
0.0
 12
-1377.034619372084
 22
1565.008857141779
 32
0.0
 13
-1377.034619372084
 23
1565.008857141779
 33
0.0
  0
MTEXT
  5
1458D
330
136B0
100
AcDbEntity
  8
SUNPOU
 62
     1
100
AcDbMText
 10
-1370.034619372084
 20
1567.508857141779
 30
0.0
 40
3.0
 41
0.0
 71
     5
 72
     1
  1
\A1;2
1001
ACAD
1000
MTEXTBEGIN
1070
    73
1070
     1
1070
    44
1040
1.0
1070
    74
1070
     0
1000
MTEXTEND
  0
POINT
  5
1458E
330
136B0
100
AcDbEntity
  8
DEFPOINTS
 62
     0
100
AcDbPoint
 10
-1379.034619372084
 20
1555.503911302943
 30
0.0
  0
POINT
  5
1458F
330
136B0
100
AcDbEntity
  8
DEFPOINTS
 62
     0
100
AcDbPoint
 10
-1377.034619372084
 20
1555.503911302943
 30
0.0
  0
POINT
  5
14590
330
136B0
100
AcDbEntity
  8
DEFPOINTS
 62
     0
100
AcDbPoint
 10
-1377.034619372084
 20
1565.008857141779
 30
0.0
  0
ENDBLK
  5
136BD
330
136B0
100
AcDbEntity
  8
0
100
AcDbBlockEnd
  0
BLOCK
  5
136E4
330
136D8
100
AcDbEntity
  8
0
100
AcDbBlockBegin
  2
*D1
 70
     1
 10
0.0
 20
0.0
 30
0.0
  3
*D1
  1

  0
LINE
  5
1449B
330
136D8
100
AcDbEntity
  8
SUNPOU
 62
     1
100
AcDbLine
 10
-1264.080148747961
 20
1646.560228108691
 30
0.0
 11
-1276.272833631259
 21
1646.560228108691
 31
0.0
  0
LINE
  5
1449C
330
136D8
100
AcDbEntity
  8
SUNPOU
 62
     1
100
AcDbLine
 10
-1253.830148780594
 20
1644.06022810869
 30
0.0
 11
-1276.272833631259
 21
1644.06022810869
 31
0.0
  0
LINE
  5
1449D
330
136D8
100
AcDbEntity
  8
SUNPOU
 62
     1
100
AcDbLine
 10
-1275.772833631259
 20
1641.56022810869
 30
0.0
 11
-1275.772833631259
 21
1639.06022810869
 31
0.0
  0
LINE
  5
1449E
330
136D8
100
AcDbEntity
  8
SUNPOU
 62
     1
100
AcDbLine
 10
-1275.772833631259
 20
1649.060228108691
 30
0.0
 11
-1275.772833631259
 21
1661.003121509706
 31
0.0
  0
LINE
  5
1449F
330
136D8
100
AcDbEntity
  8
SUNPOU
 62
     1
100
AcDbLine
 10
-1275.772833631259
 20
1644.06022810869
 30
0.0
 11
-1275.772833631259
 21
1646.560228108691
 31
0.0
  0
SOLID
  5
144A0
330
136D8
100
AcDbEntity
  8
SUNPOU
 62
     1
100
AcDbTrace
 10
-1276.189500297925
 20
1641.56022810869
 30
0.0
 11
-1275.356166964592
 21
1641.56022810869
 31
0.0
 12
-1275.772833631259
 22
1644.06022810869
 32
0.0
 13
-1275.772833631259
 23
1644.06022810869
 33
0.0
  0
SOLID
  5
144A1
330
136D8
100
AcDbEntity
  8
SUNPOU
 62
     1
100
AcDbTrace
 10
-1276.189500297925
 20
1649.060228108691
 30
0.0
 11
-1275.356166964592
 21
1649.060228108691
 31
0.0
 12
-1275.772833631259
 22
1646.560228108691
 32
0.0
 13
-1275.772833631259
 23
1646.560228108691
 33
0.0
  0
MTEXT
  5
144A2
330
136D8
100
AcDbEntity
  8
SUNPOU
 62
     1
100
AcDbMText
 10
-1278.272833631259
 20
1657.003121509706
 30
0.0
 40
3.0
 41
0.0
 71
     5
 72
     1
  1
\A1;2.5
 11
0.0000000000000001
 21
1.0
 31
0.0
1001
ACAD
1000
MTEXTBEGIN
1070
    73
1070
     1
1070
    44
1040
1.0
1070
    74
1070
     0
1000
MTEXTEND
  0
POINT
  5
144A3
330
136D8
100
AcDbEntity
  8
DEFPOINTS
 62
     0
100
AcDbPoint
 10
-1263.580148747961
 20
1646.560228108691
 30
0.0
  0
POINT
  5
144A4
330
136D8
100
AcDbEntity
  8
DEFPOINTS
 62
     0
100
AcDbPoint
 10
-1253.330148780594
 20
1644.06022810869
 30
0.0
  0
POINT
  5
144A5
330
136D8
100
AcDbEntity
  8
DEFPOINTS
 62
     0
100
AcDbPoint
 10
-1275.772833631259
 20
1644.06022810869
 30
0.0
  0
ENDBLK
  5
136E5
330
136D8
100
AcDbEntity
  8
0
100
AcDbBlockEnd
  0
BLOCK
  5
13724
330
13718
100
AcDbEntity
  8
0
100
AcDbBlockBegin
  2
*D2
 70
     1
 10
0.0
 20
0.0
 30
0.0
  3
*D2
  1

  0
LINE
  5
1457B
330
13718
100
AcDbEntity
  8
SUNPOU
 62
     1
100
AcDbLine
 10
-1252.330148780592
 20
1647.06022810869
 30
0.0
 11
-1252.330148780592
 21
1656.569863691429
 31
0.0
  0
LINE
  5
1457C
330
13718
100
AcDbEntity
  8
SUNPOU
 62
     1
100
AcDbLine
 10
-1248.830148780592
 20
1647.060228108691
 30
0.0
 11
-1248.830148780592
 21
1656.569863691429
 31
0.0
  0
LINE
  5
1457D
330
13718
100
AcDbEntity
  8
SUNPOU
 62
     1
100
AcDbLine
 10
-1254.830148780592
 20
1656.069863691429
 30
0.0
 11
-1257.330148780592
 21
1656.069863691429
 31
0.0
  0
LINE
  5
1457E
330
13718
100
AcDbEntity
  8
SUNPOU
 62
     1
100
AcDbLine
 10
-1246.330148780592
 20
1656.069863691429
 30
0.0
 11
-1235.830148780592
 21
1656.069863691429
 31
0.0
  0
LINE
  5
1457F
330
13718
100
AcDbEntity
  8
SUNPOU
 62
     1
100
AcDbLine
 10
-1252.330148780592
 20
1656.069863691429
 30
0.0
 11
-1248.830148780592
 21
1656.069863691429
 31
0.0
  0
SOLID
  5
14580
330
13718
100
AcDbEntity
  8
SUNPOU
 62
     1
100
AcDbTrace
 10
-1254.830148780592
 20
1656.486530358096
 30
0.0
 11
-1254.830148780592
 21
1655.653197024762
 31
0.0
 12
-1252.330148780592
 22
1656.069863691429
 32
0.0
 13
-1252.330148780592
 23
1656.069863691429
 33
0.0
  0
SOLID
  5
14581
330
13718
100
AcDbEntity
  8
SUNPOU
 62
     1
100
AcDbTrace
 10
-1246.330148780592
 20
1656.486530358096
 30
0.0
 11
-1246.330148780592
 21
1655.653197024762
 31
0.0
 12
-1248.830148780592
 22
1656.069863691429
 32
0.0
 13
-1248.830148780592
 23
1656.069863691429
 33
0.0
  0
MTEXT
  5
14582
330
13718
100
AcDbEntity
  8
SUNPOU
 62
     1
100
AcDbMText
 10
-1239.830148780592
 20
1658.569863691429
 30
0.0
 40
3.0
 41
0.0
 71
     5
 72
     1
  1
\A1;3.5
1001
ACAD
1000
MTEXTBEGIN
1070
    73
1070
     1
1070
    44
1040
1.0
1070
    74
1070
     0
1000
MTEXTEND
  0
POINT
  5
14583
330
13718
100
AcDbEntity
  8
DEFPOINTS
 62
     0
100
AcDbPoint
 10
-1252.330148780592
 20
1646.56022810869
 30
0.0
  0
POINT
  5
14584
330
13718
100
AcDbEntity
  8
DEFPOINTS
 62
     0
100
AcDbPoint
 10
-1248.830148780592
 20
1646.560228108691
 30
0.0
  0
POINT
  5
14585
330
13718
100
AcDbEntity
  8
DEFPOINTS
 62
     0
100
AcDbPoint
 10
-1248.830148780592
 20
1656.069863691429
 30
0.0
  0
ENDBLK
  5
13725
330
13718
100
AcDbEntity
  8
0
100
AcDbBlockEnd
  0
BLOCK
  5
13730
330
13726
100
AcDbEntity
  8
0
100
AcDbBlockBegin
  2
*D3
 70
     1
 10
0.0
 20
0.0
 30
0.0
  3
*D3
  1

  0
LINE
  5
14572
330
13726
100
AcDbEntity
  8
SUNPOU
 62
     1
100
AcDbLine
 10
-1304.632108497338
 20
1550.203911302944
 30
0.0
 11
-1294.534619372084
 21
1550.203911302944
 31
0.0
  0
LINE
  5
14573
330
13726
100
AcDbEntity
  8
SUNPOU
 62
     1
100
AcDbLine
 10
-1303.532108497339
 20
1523.503911302944
 30
0.0
 11
-1294.534619372084
 21
1523.503911302944
 31
0.0
  0
LINE
  5
14574
330
13726
100
AcDbEntity
  8
SUNPOU
 62
     1
100
AcDbLine
 10
-1295.034619372084
 20
1547.703911302944
 30
0.0
 11
-1295.034619372084
 21
1526.003911302944
 31
0.0
  0
SOLID
  5
14575
330
13726
100
AcDbEntity
  8
SUNPOU
 62
     1
100
AcDbTrace
 10
-1295.451286038751
 20
1547.703911302944
 30
0.0
 11
-1294.617952705418
 21
1547.703911302944
 31
0.0
 12
-1295.034619372084
 22
1550.203911302944
 32
0.0
 13
-1295.034619372084
 23
1550.203911302944
 33
0.0
  0
SOLID
  5
14576
330
13726
100
AcDbEntity
  8
SUNPOU
 62
     1
100
AcDbTrace
 10
-1295.451286038751
 20
1526.003911302944
 30
0.0
 11
-1294.617952705418
 21
1526.003911302944
 31
0.0
 12
-1295.034619372084
 22
1523.503911302944
 32
0.0
 13
-1295.034619372084
 23
1523.503911302944
 33
0.0
  0
MTEXT
  5
14577
330
13726
100
AcDbEntity
  8
SUNPOU
 62
     1
100
AcDbMText
 10
-1297.534619372085
 20
1536.853911302944
 30
0.0
 40
3.0
 41
0.0
 71
     5
 72
     1
  1
\A1;(27)
 11
0.0000000000000001
 21
1.0
 31
0.0
1001
ACAD
1000
MTEXTBEGIN
1070
    73
1070
     1
1070
    44
1040
1.0
1070
    74
1070
     0
1000
MTEXTEND
  0
POINT
  5
14578
330
13726
100
AcDbEntity
  8
DEFPOINTS
 62
     0
100
AcDbPoint
 10
-1305.132108497338
 20
1550.203911302944
 30
0.0
  0
POINT
  5
14579
330
13726
100
AcDbEntity
  8
DEFPOINTS
 62
     0
100
AcDbPoint
 10
-1304.032108497339
 20
1523.503911302944
 30
0.0
  0
POINT
  5
1457A
330
13726
100
AcDbEntity
  8
DEFPOINTS
 62
     0
100
AcDbPoint
 10
-1295.034619372084
 20
1523.503911302944
 30
0.0
  0
ENDBLK
  5
13731
330
13726
100
AcDbEntity
  8
0
100
AcDbBlockEnd
  0
BLOCK
  5
1373C
330
13732
100
AcDbEntity
  8
0
100
AcDbBlockBegin
  2
*D4
 70
     1
 10
0.0
 20
0.0
 30
0.0
  3
*D4
  1

  0
LINE
  5
145C6
330
13732
100
AcDbEntity
  8
SUNPOU
 62
     1
100
AcDbLine
 10
-1309.034996288332
 20
1588.060229775829
 30
0.0
 11
-1309.034996288332
 21
1577.810228431734
 31
0.0
  0
LINE
  5
145C7
330
13732
100
AcDbEntity
  8
SUNPOU
 62
     1
100
AcDbLine
 10
-1371.034619080268
 20
1640.810229692317
 30
0.0
 11
-1371.034619080268
 21
1577.810228431734
 31
0.0
  0
LINE
  5
145C8
330
13732
100
AcDbEntity
  8
SUNPOU
 62
     1
100
AcDbLine
 10
-1311.534996288332
 20
1578.310228431734
 30
0.0
 11
-1368.534619080268
 21
1578.310228431734
 31
0.0
  0
MTEXT
  5
145C9
330
13732
100
AcDbEntity
  8
SUNPOU
 62
     1
100
AcDbMText
 10
-1346.096835062931
 20
1580.906437637425
 30
0.0
 40
3.0
 41
0.0
 71
     5
 72
     1
  1
\A1;62
  0
SOLID
  5
145CA
330
13732
100
AcDbEntity
  8
SUNPOU
 62
     1
100
AcDbTrace
 10
-1311.534996288332
 20
1578.726895098401
 30
0.0
 11
-1311.534996288332
 21
1577.893561765067
 31
0.0
 12
-1309.034996288332
 22
1578.310228431734
 32
0.0
 13
-1309.034996288332
 23
1578.310228431734
 33
0.0
  0
SOLID
  5
145CB
330
13732
100
AcDbEntity
  8
SUNPOU
 62
     1
100
AcDbTrace
 10
-1368.534619080268
 20
1578.726895098401
 30
0.0
 11
-1368.534619080268
 21
1577.893561765067
 31
0.0
 12
-1371.034619080268
 22
1578.310228431734
 32
0.0
 13
-1371.034619080268
 23
1578.310228431734
 33
0.0
  0
POINT
  5
145CC
330
13732
100
AcDbEntity
  8
DEFPOINTS
 62
     0
100
AcDbPoint
 10
-1309.034996288332
 20
1588.560229775828
 30
0.0
  0
POINT
  5
145CD
330
13732
100
AcDbEntity
  8
DEFPOINTS
 62
     0
100
AcDbPoint
 10
-1371.034619080268
 20
1641.310229692317
 30
0.0
  0
POINT
  5
145CE
330
13732
100
AcDbEntity
  8
DEFPOINTS
 62
     0
100
AcDbPoint
 10
-1371.034619080268
 20
1578.310228431734
 30
0.0
  0
ENDBLK
  5
1373D
330
13732
100
AcDbEntity
  8
0
100
AcDbBlockEnd
  0
BLOCK
  5
13754
330
1374A
100
AcDbEntity
  8
0
100
AcDbBlockBegin
  2
*D5
 70
     1
 10
0.0
 20
0.0
 30
0.0
  3
*D5
  1

  0
LINE
  5
1455E
330
1374A
100
AcDbEntity
  8
SUNPOU
 62
     1
100
AcDbLine
 10
-1371.034619080268
 20
1640.810229692317
 30
0.0
 11
-1371.034619080268
 21
1577.810228431734
 31
0.0
  0
LINE
  5
1455F
330
1374A
100
AcDbEntity
  8
SUNPOU
 62
     1
100
AcDbLine
 10
-1379.034619080268
 20
1588.060228431734
 30
0.0
 11
-1379.034619080268
 21
1577.810228431734
 31
0.0
  0
LINE
  5
14560
330
1374A
100
AcDbEntity
  8
SUNPOU
 62
     1
100
AcDbLine
 10
-1373.534619080268
 20
1578.310228431734
 30
0.0
 11
-1376.534619080268
 21
1578.310228431734
 31
0.0
  0
SOLID
  5
14561
330
1374A
100
AcDbEntity
  8
SUNPOU
 62
     1
100
AcDbTrace
 10
-1373.534619080268
 20
1578.726895098401
 30
0.0
 11
-1373.534619080268
 21
1577.893561765067
 31
0.0
 12
-1371.034619080268
 22
1578.310228431734
 32
0.0
 13
-1371.034619080268
 23
1578.310228431734
 33
0.0
  0
SOLID
  5
14562
330
1374A
100
AcDbEntity
  8
SUNPOU
 62
     1
100
AcDbTrace
 10
-1376.534619080268
 20
1578.726895098401
 30
0.0
 11
-1376.534619080268
 21
1577.893561765067
 31
0.0
 12
-1379.034619080268
 22
1578.310228431734
 32
0.0
 13
-1379.034619080268
 23
1578.310228431734
 33
0.0
  0
MTEXT
  5
14563
330
1374A
100
AcDbEntity
  8
SUNPOU
 62
     1
100
AcDbMText
 10
-1375.034619080268
 20
1580.810228431734
 30
0.0
 40
3.0
 41
0.0
 71
     5
 72
     1
  1
\A1;8
1001
ACAD
1000
MTEXTBEGIN
1070
    73
1070
     1
1070
    44
1040
1.0
1070
    74
1070
     0
1000
MTEXTEND
  0
POINT
  5
14564
330
1374A
100
AcDbEntity
  8
DEFPOINTS
 62
     0
100
AcDbPoint
 10
-1371.034619080268
 20
1641.310229692317
 30
0.0
  0
POINT
  5
14565
330
1374A
100
AcDbEntity
  8
DEFPOINTS
 62
     0
100
AcDbPoint
 10
-1379.034619080268
 20
1588.560228431734
 30
0.0
  0
POINT
  5
14566
330
1374A
100
AcDbEntity
  8
DEFPOINTS
 62
     0
100
AcDbPoint
 10
-1379.034619080268
 20
1578.310228431734
 30
0.0
  0
ENDBLK
  5
13755
330
1374A
100
AcDbEntity
  8
0
100
AcDbBlockEnd
  0
BLOCK
  5
13762
330
13756
100
AcDbEntity
  8
0
100
AcDbBlockBegin
  2
*D6
 70
     1
 10
0.0
 20
0.0
 30
0.0
  3
*D6
  1

  0
LINE
  5
14567
330
13756
100
AcDbEntity
  8
SUNPOU
 62
     1
100
AcDbLine
 10
-1304.032108205523
 20
1589.060229775829
 30
0.0
 11
-1304.032108205523
 21
1577.810228431735
 31
0.0
  0
LINE
  5
14568
330
13756
100
AcDbEntity
  8
SUNPOU
 62
     1
100
AcDbLine
 10
-1309.034996288332
 20
1588.060229775829
 30
0.0
 11
-1309.034996288332
 21
1577.810228431735
 31
0.0
  0
LINE
  5
14569
330
13756
100
AcDbEntity
  8
SUNPOU
 62
     1
100
AcDbLine
 10
-1301.532108205524
 20
1578.310228431734
 30
0.0
 11
-1299.032108205524
 21
1578.310228431734
 31
0.0
  0
LINE
  5
1456A
330
13756
100
AcDbEntity
  8
SUNPOU
 62
     1
100
AcDbLine
 10
-1311.534996288332
 20
1578.310228431734
 30
0.0
 11
-1314.034996288333
 21
1578.310228431734
 31
0.0
  0
LINE
  5
1456B
330
13756
100
AcDbEntity
  8
SUNPOU
 62
     1
100
AcDbLine
 10
-1304.032108205523
 20
1578.310228431734
 30
0.0
 11
-1309.034996288332
 21
1578.310228431734
 31
0.0
  0
SOLID
  5
1456C
330
13756
100
AcDbEntity
  8
SUNPOU
 62
     1
100
AcDbTrace
 10
-1301.532108205524
 20
1578.726895098401
 30
0.0
 11
-1301.532108205524
 21
1577.893561765068
 31
0.0
 12
-1304.032108205523
 22
1578.310228431734
 32
0.0
 13
-1304.032108205523
 23
1578.310228431734
 33
0.0
  0
SOLID
  5
1456D
330
13756
100
AcDbEntity
  8
SUNPOU
 62
     1
100
AcDbTrace
 10
-1311.534996288332
 20
1578.726895098401
 30
0.0
 11
-1311.534996288332
 21
1577.893561765068
 31
0.0
 12
-1309.034996288332
 22
1578.310228431734
 32
0.0
 13
-1309.034996288332
 23
1578.310228431734
 33
0.0
  0
MTEXT
  5
1456E
330
13756
100
AcDbEntity
  8
SUNPOU
 62
     1
100
AcDbMText
 10
-1306.533552246928
 20
1580.810228431735
 30
0.0
 40
3.0
 41
0.0
 71
     5
 72
     1
  1
\A1;5
1001
ACAD
1000
MTEXTBEGIN
1070
    73
1070
     1
1070
    44
1040
1.0
1070
    74
1070
     0
1000
MTEXTEND
  0
POINT
  5
1456F
330
13756
100
AcDbEntity
  8
DEFPOINTS
 62
     0
100
AcDbPoint
 10
-1304.032108205523
 20
1589.560229775829
 30
0.0
  0
POINT
  5
14570
330
13756
100
AcDbEntity
  8
DEFPOINTS
 62
     0
100
AcDbPoint
 10
-1309.034996288332
 20
1588.560229775828
 30
0.0
  0
POINT
  5
14571
330
13756
100
AcDbEntity
  8
DEFPOINTS
 62
     0
100
AcDbPoint
 10
-1309.034996288332
 20
1578.310228431734
 30
0.0
  0
ENDBLK
  5
13763
330
13756
100
AcDbEntity
  8
0
100
AcDbBlockEnd
  0
BLOCK
  5
142F3
330
142E9
100
AcDbEntity
  8
0
100
AcDbBlockBegin
  2
*D7
 70
     1
 10
0.0
 20
0.0
 30
0.0
  3
*D7
  1

  0
LINE
  5
14511
330
142E9
100
AcDbEntity
  8
SUNPOU
 62
     1
100
AcDbLine
 10
-1233.580148747961
 20
1588.060228108691
 30
0.0
 11
-1233.580148747961
 21
1576.45761355904
 31
0.0
  0
LINE
  5
14512
330
142E9
100
AcDbEntity
  8
SUNPOU
 62
     1
100
AcDbLine
 10
-1250.580148780592
 20
1590.560228108691
 30
0.0
 11
-1250.580148780592
 21
1576.45761355904
 31
0.0
  0
LINE
  5
14513
330
142E9
100
AcDbEntity
  8
SUNPOU
 62
     1
100
AcDbLine
 10
-1236.580148747961
 20
1576.95761355904
 30
0.0
 11
-1247.580148780593
 21
1576.95761355904
 31
0.0
  0
SOLID
  5
14514
330
142E9
100
AcDbEntity
  8
SUNPOU
 62
     1
100
AcDbTrace
 10
-1236.580148747961
 20
1577.45761355904
 30
0.0
 11
-1236.580148747961
 21
1576.45761355904
 31
0.0
 12
-1233.580148747961
 22
1576.95761355904
 32
0.0
 13
-1233.580148747961
 23
1576.95761355904
 33
0.0
  0
SOLID
  5
14515
330
142E9
100
AcDbEntity
  8
SUNPOU
 62
     1
100
AcDbTrace
 10
-1247.580148780593
 20
1577.45761355904
 30
0.0
 11
-1247.580148780593
 21
1576.45761355904
 31
0.0
 12
-1250.580148780592
 22
1576.95761355904
 32
0.0
 13
-1250.580148780592
 23
1576.95761355904
 33
0.0
  0
MTEXT
  5
14516
330
142E9
100
AcDbEntity
  8
SUNPOU
 62
     1
100
AcDbMText
 10
-1242.080148764277
 20
1579.70761355904
 30
0.0
 40
3.5
 41
0.0
 71
     5
 72
     1
  1
\A1;17
1001
ACAD
1000
MTEXTBEGIN
1070
    73
1070
     1
1070
    44
1040
1.0
1070
    74
1070
     0
1000
MTEXTEND
  0
POINT
  5
14517
330
142E9
100
AcDbEntity
  8
DEFPOINTS
 62
     0
100
AcDbPoint
 10
-1233.580148747961
 20
1588.560228108691
 30
0.0
  0
POINT
  5
14518
330
142E9
100
AcDbEntity
  8
DEFPOINTS
 62
     0
100
AcDbPoint
 10
-1250.580148780592
 20
1591.060228108691
 30
0.0
  0
POINT
  5
14519
330
142E9
100
AcDbEntity
  8
DEFPOINTS
 62
     0
100
AcDbPoint
 10
-1250.580148780592
 20
1576.95761355904
 30
0.0
  0
ENDBLK
  5
142F4
330
142E9
100
AcDbEntity
  8
0
100
AcDbBlockEnd
  0
BLOCK
  5
14312
330
14308
100
AcDbEntity
  8
0
100
AcDbBlockBegin
  2
*D8
 70
     1
 10
0.0
 20
0.0
 30
0.0
  3
*D8
  1

  0
LINE
  5
144B1
330
14308
100
AcDbEntity
  8
SUNPOU
 62
     1
100
AcDbLine
 10
-1233.580148747961
 20
1588.060228108691
 30
0.0
 11
-1233.580148747961
 21
1565.794196628496
 31
0.0
  0
LINE
  5
144B2
330
14308
100
AcDbEntity
  8
SUNPOU
 62
     1
100
AcDbLine
 10
-1265.580148747961
 20
1590.060228108691
 30
0.0
 11
-1265.580148747961
 21
1565.794196628496
 31
0.0
  0
LINE
  5
144B3
330
14308
100
AcDbEntity
  8
SUNPOU
 62
     1
100
AcDbLine
 10
-1236.580148747961
 20
1566.294196628496
 30
0.0
 11
-1262.580148747961
 21
1566.294196628496
 31
0.0
  0
SOLID
  5
144B4
330
14308
100
AcDbEntity
  8
SUNPOU
 62
     1
100
AcDbTrace
 10
-1236.580148747961
 20
1566.794196628497
 30
0.0
 11
-1236.580148747961
 21
1565.794196628496
 31
0.0
 12
-1233.580148747961
 22
1566.294196628496
 32
0.0
 13
-1233.580148747961
 23
1566.294196628496
 33
0.0
  0
SOLID
  5
144B5
330
14308
100
AcDbEntity
  8
SUNPOU
 62
     1
100
AcDbTrace
 10
-1262.580148747961
 20
1566.794196628497
 30
0.0
 11
-1262.580148747961
 21
1565.794196628496
 31
0.0
 12
-1265.580148747961
 22
1566.294196628496
 32
0.0
 13
-1265.580148747961
 23
1566.294196628496
 33
0.0
  0
MTEXT
  5
144B6
330
14308
100
AcDbEntity
  8
SUNPOU
 62
     1
100
AcDbMText
 10
-1249.580148747961
 20
1569.044196628496
 30
0.0
 40
3.5
 41
0.0
 71
     5
 72
     1
  1
\A1;32
1001
ACAD
1000
MTEXTBEGIN
1070
    73
1070
     1
1070
    44
1040
1.0
1070
    74
1070
     0
1000
MTEXTEND
  0
POINT
  5
144B7
330
14308
100
AcDbEntity
  8
DEFPOINTS
 62
     0
100
AcDbPoint
 10
-1233.580148747961
 20
1588.560228108691
 30
0.0
  0
POINT
  5
144B8
330
14308
100
AcDbEntity
  8
DEFPOINTS
 62
     0
100
AcDbPoint
 10
-1265.580148747961
 20
1590.560228108691
 30
0.0
  0
POINT
  5
144B9
330
14308
100
AcDbEntity
  8
DEFPOINTS
 62
     0
100
AcDbPoint
 10
-1265.580148747961
 20
1566.294196628496
 30
0.0
  0
ENDBLK
  5
14313
330
14308
100
AcDbEntity
  8
0
100
AcDbBlockEnd
  0
BLOCK
  5
143B6
330
143AC
100
AcDbEntity
  8
0
100
AcDbBlockBegin
  2
*D9
 70
     1
 10
0.0
 20
0.0
 30
0.0
  3
*D9
  1

  0
LINE
  5
144E0
330
143AC
100
AcDbEntity
  8
SUNPOU
 62
     1
100
AcDbLine
 10
-1379.534619080268
 20
1646.560228431734
 30
0.0
 11
-1387.798000924646
 21
1646.560228431734
 31
0.0
  0
LINE
  5
144E1
330
143AC
100
AcDbEntity
  8
SUNPOU
 62
     1
100
AcDbLine
 10
-1379.534619080268
 20
1588.560228431734
 30
0.0
 11
-1387.798000924646
 21
1588.560228431734
 31
0.0
  0
LINE
  5
144E2
330
143AC
100
AcDbEntity
  8
SUNPOU
 62
     1
100
AcDbLine
 10
-1387.298000924646
 20
1643.560228431734
 30
0.0
 11
-1387.298000924646
 21
1591.560228431734
 31
0.0
  0
SOLID
  5
144E3
330
143AC
100
AcDbEntity
  8
SUNPOU
 62
     1
100
AcDbTrace
 10
-1387.798000924646
 20
1643.560228431734
 30
0.0
 11
-1386.798000924646
 21
1643.560228431734
 31
0.0
 12
-1387.298000924646
 22
1646.560228431734
 32
0.0
 13
-1387.298000924646
 23
1646.560228431734
 33
0.0
  0
SOLID
  5
144E4
330
143AC
100
AcDbEntity
  8
SUNPOU
 62
     1
100
AcDbTrace
 10
-1387.798000924646
 20
1591.560228431734
 30
0.0
 11
-1386.798000924646
 21
1591.560228431734
 31
0.0
 12
-1387.298000924646
 22
1588.560228431734
 32
0.0
 13
-1387.298000924646
 23
1588.560228431734
 33
0.0
  0
MTEXT
  5
144E5
330
143AC
100
AcDbEntity
  8
SUNPOU
 62
     1
100
AcDbMText
 10
-1390.048000924646
 20
1617.560228431734
 30
0.0
 40
3.5
 41
0.0
 71
     5
 72
     1
  1
\A1;58
 11
0.0000000000000001
 21
1.0
 31
0.0
1001
ACAD
1000
MTEXTBEGIN
1070
    73
1070
     1
1070
    44
1040
1.0
1070
    74
1070
     0
1000
MTEXTEND
  0
POINT
  5
144E6
330
143AC
100
AcDbEntity
  8
DEFPOINTS
 62
     0
100
AcDbPoint
 10
-1379.034619080268
 20
1646.560228431734
 30
0.0
  0
POINT
  5
144E7
330
143AC
100
AcDbEntity
  8
DEFPOINTS
 62
     0
100
AcDbPoint
 10
-1379.034619080268
 20
1588.560228431734
 30
0.0
  0
POINT
  5
144E8
330
143AC
100
AcDbEntity
  8
DEFPOINTS
 62
     0
100
AcDbPoint
 10
-1387.298000924646
 20
1588.560228431734
 30
0.0
  0
ENDBLK
  5
143B7
330
143AC
100
AcDbEntity
  8
0
100
AcDbBlockEnd
  0
BLOCK
  5
143FE
330
143F4
100
AcDbEntity
  8
0
100
AcDbBlockBegin
  2
*D10
 70
     1
 10
0.0
 20
0.0
 30
0.0
  3
*D10
  1

  0
LINE
  5
14492
330
143F4
100
AcDbEntity
  8
SUNPOU
 62
     1
100
AcDbLine
 10
-1252.830148780592
 20
1644.06022810757
 30
0.0
 11
-1276.187630772037
 21
1644.06022810757
 31
0.0
  0
LINE
  5
14493
330
143F4
100
AcDbEntity
  8
SUNPOU
 62
     1
100
AcDbLine
 10
-1252.830148780592
 20
1591.060228108691
 30
0.0
 11
-1276.187630772037
 21
1591.060228108691
 31
0.0
  0
LINE
  5
14494
330
143F4
100
AcDbEntity
  8
SUNPOU
 62
     1
100
AcDbLine
 10
-1275.687630772037
 20
1641.06022810757
 30
0.0
 11
-1275.687630772037
 21
1594.060228108691
 31
0.0
  0
SOLID
  5
14495
330
143F4
100
AcDbEntity
  8
SUNPOU
 62
     1
100
AcDbTrace
 10
-1276.187630772037
 20
1641.06022810757
 30
0.0
 11
-1275.187630772037
 21
1641.06022810757
 31
0.0
 12
-1275.687630772037
 22
1644.06022810757
 32
0.0
 13
-1275.687630772037
 23
1644.06022810757
 33
0.0
  0
SOLID
  5
14496
330
143F4
100
AcDbEntity
  8
SUNPOU
 62
     1
100
AcDbTrace
 10
-1276.187630772037
 20
1594.060228108691
 30
0.0
 11
-1275.187630772037
 21
1594.060228108691
 31
0.0
 12
-1275.687630772037
 22
1591.060228108691
 32
0.0
 13
-1275.687630772037
 23
1591.060228108691
 33
0.0
  0
MTEXT
  5
14497
330
143F4
100
AcDbEntity
  8
SUNPOU
 62
     1
100
AcDbMText
 10
-1278.437630772038
 20
1617.56022810813
 30
0.0
 40
3.5
 41
0.0
 71
     5
 72
     1
  1
\A1;53
 11
0.0000000000000001
 21
1.0
 31
0.0
1001
ACAD
1000
MTEXTBEGIN
1070
    73
1070
     1
1070
    44
1040
1.0
1070
    74
1070
     0
1000
MTEXTEND
  0
POINT
  5
14498
330
143F4
100
AcDbEntity
  8
DEFPOINTS
 62
     0
100
AcDbPoint
 10
-1252.330148780592
 20
1644.06022810757
 30
0.0
  0
POINT
  5
14499
330
143F4
100
AcDbEntity
  8
DEFPOINTS
 62
     0
100
AcDbPoint
 10
-1252.330148780592
 20
1591.060228108691
 30
0.0
  0
POINT
  5
1449A
330
143F4
100
AcDbEntity
  8
DEFPOINTS
 62
     0
100
AcDbPoint
 10
-1275.687630772037
 20
1591.060228108691
 30
0.0
  0
ENDBLK
  5
143FF
330
143F4
100
AcDbEntity
  8
0
100
AcDbBlockEnd
  0
BLOCK
  5
14416
330
1440A
100
AcDbEntity
  8
0
100
AcDbBlockBegin
  2
*D11
 70
     1
 10
0.0
 20
0.0
 30
0.0
  3
*D11
  1

  0
LINE
  5
14487
330
1440A
100
AcDbEntity
  8
SUNPOU
 62
     1
100
AcDbLine
 10
-1252.830148780592
 20
1591.060228108691
 30
0.0
 11
-1276.187630772038
 21
1591.060228108691
 31
0.0
  0
LINE
  5
14488
330
1440A
100
AcDbEntity
  8
SUNPOU
 62
     1
100
AcDbLine
 10
-1264.080148747961
 20
1588.560228108691
 30
0.0
 11
-1276.187630772038
 21
1588.560228108691
 31
0.0
  0
LINE
  5
14489
330
1440A
100
AcDbEntity
  8
SUNPOU
 62
     1
100
AcDbLine
 10
-1275.687630772037
 20
1594.060228108691
 30
0.0
 11
-1275.687630772037
 21
1597.060228108691
 31
0.0
  0
LINE
  5
1448A
330
1440A
100
AcDbEntity
  8
SUNPOU
 62
     1
100
AcDbLine
 10
-1275.687630772037
 20
1585.560228108691
 30
0.0
 11
-1275.687630772037
 21
1573.560228108691
 31
0.0
  0
LINE
  5
1448B
330
1440A
100
AcDbEntity
  8
SUNPOU
 62
     1
100
AcDbLine
 10
-1275.687630772037
 20
1591.060228108691
 30
0.0
 11
-1275.687630772037
 21
1588.560228108691
 31
0.0
  0
SOLID
  5
1448C
330
1440A
100
AcDbEntity
  8
SUNPOU
 62
     1
100
AcDbTrace
 10
-1276.187630772038
 20
1594.060228108691
 30
0.0
 11
-1275.187630772038
 21
1594.060228108691
 31
0.0
 12
-1275.687630772037
 22
1591.060228108691
 32
0.0
 13
-1275.687630772037
 23
1591.060228108691
 33
0.0
  0
SOLID
  5
1448D
330
1440A
100
AcDbEntity
  8
SUNPOU
 62
     1
100
AcDbTrace
 10
-1276.187630772038
 20
1585.560228108691
 30
0.0
 11
-1275.187630772038
 21
1585.560228108691
 31
0.0
 12
-1275.687630772037
 22
1588.560228108691
 32
0.0
 13
-1275.687630772037
 23
1588.560228108691
 33
0.0
  0
MTEXT
  5
1448E
330
1440A
100
AcDbEntity
  8
SUNPOU
 62
     1
100
AcDbMText
 10
-1278.437630772038
 20
1578.06022810869
 30
0.0
 40
3.5
 41
0.0
 71
     5
 72
     1
  1
\A1;2.5
 11
0.0000000000000001
 21
1.0
 31
0.0
1001
ACAD
1000
MTEXTBEGIN
1070
    73
1070
     1
1070
    44
1040
1.0
1070
    74
1070
     0
1000
MTEXTEND
  0
POINT
  5
1448F
330
1440A
100
AcDbEntity
  8
DEFPOINTS
 62
     0
100
AcDbPoint
 10
-1252.330148780592
 20
1591.060228108691
 30
0.0
  0
POINT
  5
14490
330
1440A
100
AcDbEntity
  8
DEFPOINTS
 62
     0
100
AcDbPoint
 10
-1263.580148747961
 20
1588.560228108691
 30
0.0
  0
POINT
  5
14491
330
1440A
100
AcDbEntity
  8
DEFPOINTS
 62
     0
100
AcDbPoint
 10
-1275.687630772037
 20
1588.560228108691
 30
0.0
  0
ENDBLK
  5
14417
330
1440A
100
AcDbEntity
  8
0
100
AcDbBlockEnd
  0
BLOCK
  5
1445C
330
14452
100
AcDbEntity
  8
0
100
AcDbBlockBegin
  2
*D12
 70
     1
 10
0.0
 20
0.0
 30
0.0
  3
*D12
  1

  0
LINE
  5
144BA
330
14452
100
AcDbEntity
  8
SUNPOU
 62
     1
100
AcDbLine
 10
-1368.782518594822
 20
1644.06022810869
 30
0.0
 11
-1294.117264674363
 21
1644.06022810869
 31
0.0
  0
LINE
  5
144BB
330
14452
100
AcDbEntity
  8
SUNPOU
 62
     1
100
AcDbLine
 10
-1306.546920863773
 20
1591.060229775829
 30
0.0
 11
-1294.117264674363
 21
1591.060229775829
 31
0.0
  0
LINE
  5
144BC
330
14452
100
AcDbEntity
  8
SUNPOU
 62
     1
100
AcDbLine
 10
-1294.617264674363
 20
1641.06022810869
 30
0.0
 11
-1294.617264674363
 21
1594.060229775829
 31
0.0
  0
SOLID
  5
144BD
330
14452
100
AcDbEntity
  8
SUNPOU
 62
     1
100
AcDbTrace
 10
-1295.117264674363
 20
1641.06022810869
 30
0.0
 11
-1294.117264674363
 21
1641.06022810869
 31
0.0
 12
-1294.617264674363
 22
1644.06022810869
 32
0.0
 13
-1294.617264674363
 23
1644.06022810869
 33
0.0
  0
SOLID
  5
144BE
330
14452
100
AcDbEntity
  8
SUNPOU
 62
     1
100
AcDbTrace
 10
-1295.117264674363
 20
1594.060229775829
 30
0.0
 11
-1294.117264674363
 21
1594.060229775829
 31
0.0
 12
-1294.617264674363
 22
1591.060229775829
 32
0.0
 13
-1294.617264674363
 23
1591.060229775829
 33
0.0
  0
MTEXT
  5
144BF
330
14452
100
AcDbEntity
  8
SUNPOU
 62
     1
100
AcDbMText
 10
-1297.367264674363
 20
1617.560228942259
 30
0.0
 40
3.5
 41
0.0
 71
     5
 72
     1
  1
\A1;53
 11
0.0000000000000001
 21
1.0
 31
0.0
1001
ACAD
1000
MTEXTBEGIN
1070
    73
1070
     1
1070
    44
1040
1.0
1070
    74
1070
     0
1000
MTEXTEND
  0
POINT
  5
144C0
330
14452
100
AcDbEntity
  8
DEFPOINTS
 62
     0
100
AcDbPoint
 10
-1369.282518594822
 20
1644.06022810869
 30
0.0
  0
POINT
  5
144C1
330
14452
100
AcDbEntity
  8
DEFPOINTS
 62
     0
100
AcDbPoint
 10
-1307.046920863773
 20
1591.060229775829
 30
0.0
  0
POINT
  5
144C2
330
14452
100
AcDbEntity
  8
DEFPOINTS
 62
     0
100
AcDbPoint
 10
-1294.617264674363
 20
1591.060229775829
 30
0.0
  0
ENDBLK
  5
1445D
330
14452
100
AcDbEntity
  8
0
100
AcDbBlockEnd
  0
BLOCK
  5
1446C
330
14460
100
AcDbEntity
  8
0
100
AcDbBlockBegin
  2
*D13
 70
     1
 10
0.0
 20
0.0
 30
0.0
  3
*D13
  1

  0
LINE
  5
144C3
330
14460
100
AcDbEntity
  8
SUNPOU
 62
     1
100
AcDbLine
 10
-1306.546920863773
 20
1591.060229775829
 30
0.0
 11
-1294.101533999527
 21
1591.060229775829
 31
0.0
  0
LINE
  5
144C4
330
14460
100
AcDbEntity
  8
SUNPOU
 62
     1
100
AcDbLine
 10
-1306.786788026133
 20
1588.560229775828
 30
0.0
 11
-1294.101533999527
 21
1588.560229775828
 31
0.0
  0
LINE
  5
144C5
330
14460
100
AcDbEntity
  8
SUNPOU
 62
     1
100
AcDbLine
 10
-1294.601533999527
 20
1594.060229775829
 30
0.0
 11
-1294.601533999527
 21
1597.060229775829
 31
0.0
  0
LINE
  5
144C6
330
14460
100
AcDbEntity
  8
SUNPOU
 62
     1
100
AcDbLine
 10
-1294.601533999527
 20
1585.560229775829
 30
0.0
 11
-1294.601533999527
 21
1573.560229775829
 31
0.0
  0
LINE
  5
144C7
330
14460
100
AcDbEntity
  8
SUNPOU
 62
     1
100
AcDbLine
 10
-1294.601533999527
 20
1591.060229775829
 30
0.0
 11
-1294.601533999527
 21
1588.560229775828
 31
0.0
  0
SOLID
  5
144C8
330
14460
100
AcDbEntity
  8
SUNPOU
 62
     1
100
AcDbTrace
 10
-1295.101533999527
 20
1594.060229775829
 30
0.0
 11
-1294.101533999527
 21
1594.060229775829
 31
0.0
 12
-1294.601533999527
 22
1591.060229775829
 32
0.0
 13
-1294.601533999527
 23
1591.060229775829
 33
0.0
  0
SOLID
  5
144C9
330
14460
100
AcDbEntity
  8
SUNPOU
 62
     1
100
AcDbTrace
 10
-1295.101533999527
 20
1585.560229775829
 30
0.0
 11
-1294.101533999527
 21
1585.560229775829
 31
0.0
 12
-1294.601533999527
 22
1588.560229775828
 32
0.0
 13
-1294.601533999527
 23
1588.560229775828
 33
0.0
  0
MTEXT
  5
144CA
330
14460
100
AcDbEntity
  8
SUNPOU
 62
     1
100
AcDbMText
 10
-1297.351533999528
 20
1578.060229775828
 30
0.0
 40
3.5
 41
0.0
 71
     5
 72
     1
  1
\A1;2.5
 11
0.0000000000000001
 21
1.0
 31
0.0
1001
ACAD
1000
MTEXTBEGIN
1070
    73
1070
     1
1070
    44
1040
1.0
1070
    74
1070
     0
1000
MTEXTEND
  0
POINT
  5
144CB
330
14460
100
AcDbEntity
  8
DEFPOINTS
 62
     0
100
AcDbPoint
 10
-1307.046920863773
 20
1591.060229775829
 30
0.0
  0
POINT
  5
144CC
330
14460
100
AcDbEntity
  8
DEFPOINTS
 62
     0
100
AcDbPoint
 10
-1307.286788026133
 20
1588.560229775828
 30
0.0
  0
POINT
  5
144CD
330
14460
100
AcDbEntity
  8
DEFPOINTS
 62
     0
100
AcDbPoint
 10
-1294.601533999527
 20
1588.560229775828
 30
0.0
  0
ENDBLK
  5
1446D
330
14460
100
AcDbEntity
  8
0
100
AcDbBlockEnd
  0
BLOCK
  5
14529
330
1451F
100
AcDbEntity
  8
0
100
AcDbBlockBegin
  2
*D14
 70
     1
 10
0.0
 20
0.0
 30
0.0
  3
*D14
  1

  0
LINE
  5
1452B
330
1451F
100
AcDbEntity
  8
SUNPOU
 62
     1
100
AcDbLine
 10
-1379.034619372084
 20
1525.503911302946
 30
0.0
 11
-1379.034619372084
 21
1513.97375944433
 31
0.0
  0
LINE
  5
1452C
330
1451F
100
AcDbEntity
  8
SUNPOU
 62
     1
100
AcDbLine
 10
-1304.032108497339
 20
1523.003911302944
 30
0.0
 11
-1304.032108497339
 21
1513.97375944433
 31
0.0
  0
LINE
  5
1452D
330
1451F
100
AcDbEntity
  8
SUNPOU
 62
     1
100
AcDbLine
 10
-1376.034619372084
 20
1514.47375944433
 30
0.0
 11
-1307.032108497339
 21
1514.47375944433
 31
0.0
  0
SOLID
  5
1452E
330
1451F
100
AcDbEntity
  8
SUNPOU
 62
     1
100
AcDbTrace
 10
-1376.034619372084
 20
1514.97375944433
 30
0.0
 11
-1376.034619372084
 21
1513.97375944433
 31
0.0
 12
-1379.034619372084
 22
1514.47375944433
 32
0.0
 13
-1379.034619372084
 23
1514.47375944433
 33
0.0
  0
SOLID
  5
1452F
330
1451F
100
AcDbEntity
  8
SUNPOU
 62
     1
100
AcDbTrace
 10
-1307.032108497339
 20
1514.97375944433
 30
0.0
 11
-1307.032108497339
 21
1513.97375944433
 31
0.0
 12
-1304.032108497339
 22
1514.47375944433
 32
0.0
 13
-1304.032108497339
 23
1514.47375944433
 33
0.0
  0
MTEXT
  5
14530
330
1451F
100
AcDbEntity
  8
SUNPOU
 62
     1
100
AcDbMText
 10
-1341.533363934711
 20
1517.22375944433
 30
0.0
 40
3.5
 41
0.0
 71
     5
 72
     1
  1
\A1;75
1001
ACAD
1000
MTEXTBEGIN
1070
    73
1070
     1
1070
    44
1040
1.0
1070
    74
1070
     0
1000
MTEXTEND
  0
POINT
  5
14531
330
1451F
100
AcDbEntity
  8
DEFPOINTS
 62
     0
100
AcDbPoint
 10
-1379.034619372084
 20
1526.003911302946
 30
0.0
  0
POINT
  5
14532
330
1451F
100
AcDbEntity
  8
DEFPOINTS
 62
     0
100
AcDbPoint
 10
-1304.032108497339
 20
1523.503911302944
 30
0.0
  0
POINT
  5
14533
330
1451F
100
AcDbEntity
  8
DEFPOINTS
 62
     0
100
AcDbPoint
 10
-1304.032108497339
 20
1514.47375944433
 30
0.0
  0
ENDBLK
  5
1452A
330
1451F
100
AcDbEntity
  8
0
100
AcDbBlockEnd
  0
ENDSEC
  0
SECTION
  2
ENTITIES
  0
MTEXT
  5
5084
330
1A
100
AcDbEntity
  8
0
100
AcDbMText
 10
1985.239088685435
 20
-948.5420423450428
 30
0.0
 40
8.0
 41
0.0
 71
     7
 72
     5
  1

1001
ACAD
1000
MTEXTBEGIN
1070
    73
1070
     1
1070
    44
1040
1.0
1070
    74
1070
     0
1000
MTEXTEND
  0
MTEXT
  5
5085
330
1A
100
AcDbEntity
  8
0
100
AcDbMText
 10
4270.596778580329
 20
22.24825240601649
 30
0.0
 40
8.0
 41
0.0
 71
     7
 72
     5
  1

1001
ACAD
1000
MTEXTBEGIN
1070
    73
1070
     1
1070
    44
1040
1.0
1070
    74
1070
     0
1000
MTEXTEND
  0
MTEXT
  5
5343
330
1A
100
AcDbEntity
  8
SUNPOU
100
AcDbMText
 10
6936.493799262471
 20
9534.359644781135
 30
0.0
 40
10.5
 41
0.0
 71
     1
 72
     5
  1

1001
ACAD
1000
MTEXTBEGIN
1070
    73
1070
     1
1070
    44
1040
1.0
1070
    74
1070
     0
1000
MTEXTEND
  0
MTEXT
  5
544F
330
1A
100
AcDbEntity
  8
0
100
AcDbMText
 10
16317.2832773148
 20
12833.35428897674
 30
0.0
 40
8.0
 41
0.0
 71
     7
 72
     5
  1

1001
ACAD
1000
MTEXTBEGIN
1070
    73
1070
     1
1070
    44
1040
1.0
1070
    74
1070
     0
1000
MTEXTEND
  0
MTEXT
  5
5450
330
1A
100
AcDbEntity
  8
0
100
AcDbMText
 10
18602.64096720969
 20
13804.1445837278
 30
0.0
 40
8.0
 41
0.0
 71
     7
 72
     5
  1

1001
ACAD
1000
MTEXTBEGIN
1070
    73
1070
     1
1070
    44
1040
1.0
1070
    74
1070
     0
1000
MTEXTEND
  0
MTEXT
  5
5451
330
1A
100
AcDbEntity
  8
SUNPOU
100
AcDbMText
 10
21268.53798789184
 20
23316.25597610292
 30
0.0
 40
10.5
 41
0.0
 71
     1
 72
     5
  1

1001
ACAD
1000
MTEXTBEGIN
1070
    73
1070
     1
1070
    44
1040
1.0
1070
    74
1070
     0
1000
MTEXTEND
  0
MTEXT
  5
5452
330
1A
100
AcDbEntity
  8
SUNPOU
100
AcDbMText
 10
13337.6147919559
 20
22369.46284218996
 30
0.0
 40
10.5
 41
0.0
 71
     7
 72
     5
  1

1001
ACAD
1000
MTEXTBEGIN
1070
    73
1070
     1
1070
    44
1040
1.0
1070
    74
1070
     0
1000
MTEXTEND
  0
MTEXT
  5
5453
330
1A
100
AcDbEntity
  8
SUNPOU
100
AcDbMText
 10
16286.59845646867
 20
27270.13891403281
 30
0.0
 40
10.5
 41
0.0
 71
     7
 72
     5
  1

1001
ACAD
1000
MTEXTBEGIN
1070
    73
1070
     1
1070
    44
1040
1.0
1070
    74
1070
     0
1000
MTEXTEND
  0
MTEXT
  5
5454
330
1A
100
AcDbEntity
  8
SUNPOU
100
AcDbMText
 10
20795.67658441924
 20
29706.43966165288
 30
0.0
 40
10.5
 41
0.0
 71
     7
 72
     5
  1

1001
ACAD
1000
MTEXTBEGIN
1070
    73
1070
     1
1070
    44
1040
1.0
1070
    74
1070
     0
1000
MTEXTEND
  0
MTEXT
  5
5455
330
1A
100
AcDbEntity
  8
0
100
AcDbMText
 10
16611.93789220314
 20
14707.52144344448
 30
0.0
 40
8.0
 41
0.0
 71
     7
 72
     5
  1

1001
ACAD
1000
MTEXTBEGIN
1070
    73
1070
     1
1070
    44
1040
1.0
1070
    74
1070
     0
1000
MTEXTEND
  0
MTEXT
  5
5456
330
1A
100
AcDbEntity
  8
0
100
AcDbMText
 10
18897.29558209804
 20
15678.31173819554
 30
0.0
 40
8.0
 41
0.0
 71
     7
 72
     5
  1

1001
ACAD
1000
MTEXTBEGIN
1070
    73
1070
     1
1070
    44
1040
1.0
1070
    74
1070
     0
1000
MTEXTEND
  0
MTEXT
  5
5457
330
1A
100
AcDbEntity
  8
SUNPOU
100
AcDbMText
 10
21563.19260278019
 20
25190.42313057066
 30
0.0
 40
10.5
 41
0.0
 71
     1
 72
     5
  1

1001
ACAD
1000
MTEXTBEGIN
1070
    73
1070
     1
1070
    44
1040
1.0
1070
    74
1070
     0
1000
MTEXTEND
  0
MTEXT
  5
5458
330
1A
100
AcDbEntity
  8
SUNPOU
100
AcDbMText
 10
13632.26940684426
 20
24243.6299966577
 30
0.0
 40
10.5
 41
0.0
 71
     7
 72
     5
  1

1001
ACAD
1000
MTEXTBEGIN
1070
    73
1070
     1
1070
    44
1040
1.0
1070
    74
1070
     0
1000
MTEXTEND
  0
MTEXT
  5
5459
330
1A
100
AcDbEntity
  8
SUNPOU
100
AcDbMText
 10
16581.25307135702
 20
29144.30606850055
 30
0.0
 40
10.5
 41
0.0
 71
     7
 72
     5
  1

1001
ACAD
1000
MTEXTBEGIN
1070
    73
1070
     1
1070
    44
1040
1.0
1070
    74
1070
     0
1000
MTEXTEND
  0
MTEXT
  5
545A
330
1A
100
AcDbEntity
  8
SUNPOU
100
AcDbMText
 10
21090.33119930759
 20
31580.60681612062
 30
0.0
 40
10.5
 41
0.0
 71
     7
 72
     5
  1

1001
ACAD
1000
MTEXTBEGIN
1070
    73
1070
     1
1070
    44
1040
1.0
1070
    74
1070
     0
1000
MTEXTEND
  0
MTEXT
  5
545B
330
1A
100
AcDbEntity
  8
0
100
AcDbMText
 10
22871.60517627167
 20
23974.88367124799
 30
0.0
 40
8.0
 41
0.0
 71
     7
 72
     5
  1

1001
ACAD
1000
MTEXTBEGIN
1070
    73
1070
     1
1070
    44
1040
1.0
1070
    74
1070
     0
1000
MTEXTEND
  0
MTEXT
  5
545C
330
1A
100
AcDbEntity
  8
0
100
AcDbMText
 10
25156.96286616657
 20
24945.67396599906
 30
0.0
 40
8.0
 41
0.0
 71
     7
 72
     5
  1

1001
ACAD
1000
MTEXTBEGIN
1070
    73
1070
     1
1070
    44
1040
1.0
1070
    74
1070
     0
1000
MTEXTEND
  0
MTEXT
  5
545D
330
1A
100
AcDbEntity
  8
SUNPOU
100
AcDbMText
 10
27822.85988684871
 20
34457.78535837418
 30
0.0
 40
10.5
 41
0.0
 71
     1
 72
     5
  1

1001
ACAD
1000
MTEXTBEGIN
1070
    73
1070
     1
1070
    44
1040
1.0
1070
    74
1070
     0
1000
MTEXTEND
  0
MTEXT
  5
545E
330
1A
100
AcDbEntity
  8
SUNPOU
100
AcDbMText
 10
19891.93669091278
 20
33510.99222446122
 30
0.0
 40
10.5
 41
0.0
 71
     7
 72
     5
  1

1001
ACAD
1000
MTEXTBEGIN
1070
    73
1070
     1
1070
    44
1040
1.0
1070
    74
1070
     0
1000
MTEXTEND
  0
MTEXT
  5
545F
330
1A
100
AcDbEntity
  8
SUNPOU
100
AcDbMText
 10
22840.92035542555
 20
38411.66829630407
 30
0.0
 40
10.5
 41
0.0
 71
     7
 72
     5
  1

1001
ACAD
1000
MTEXTBEGIN
1070
    73
1070
     1
1070
    44
1040
1.0
1070
    74
1070
     0
1000
MTEXTEND
  0
MTEXT
  5
5460
330
1A
100
AcDbEntity
  8
SUNPOU
100
AcDbMText
 10
27349.99848337611
 20
40847.96904392415
 30
0.0
 40
10.5
 41
0.0
 71
     7
 72
     5
  1

1001
ACAD
1000
MTEXTBEGIN
1070
    73
1070
     1
1070
    44
1040
1.0
1070
    74
1070
     0
1000
MTEXTEND
  0
MTEXT
  5
55B7
330
1A
100
AcDbEntity
  8
SUNPOU
100
AcDbMText
 10
67424.23923338197
 20
64463.86602884816
 30
0.0
 40
10.5
 41
0.0
 71
     9
 72
     5
  1

1001
ACAD
1000
MTEXTBEGIN
1070
    73
1070
     1
1070
    44
1040
1.0
1070
    74
1070
     0
1000
MTEXTEND
  0
MTEXT
  5
55B8
330
1A
100
AcDbEntity
  8
SUNPOU
100
AcDbMText
 10
76146.40679929998
 20
71879.70056038563
 30
0.0
 40
10.5
 41
0.0
 71
     9
 72
     5
  1

1001
ACAD
1000
MTEXTBEGIN
1070
    73
1070
     1
1070
    44
1040
1.0
1070
    74
1070
     0
1000
MTEXTEND
  0
MTEXT
  5
55B9
330
1A
100
AcDbEntity
  8
SUNPOU
100
AcDbMText
 10
95100.16551662994
 20
89346.27661287766
 30
0.0
 40
10.5
 41
0.0
 71
     9
 72
     5
  1

1001
ACAD
1000
MTEXTBEGIN
1070
    73
1070
     1
1070
    44
1040
1.0
1070
    74
1070
     0
1000
MTEXTEND
  0
MTEXT
  5
55BA
330
1A
100
AcDbEntity
  8
SUNPOU
100
AcDbMText
 10
97043.57276333936
 20
87545.22753299966
 30
0.0
 40
3.5
 41
0.0
 71
     9
 72
     5
  1

1001
ACAD
1000
MTEXTBEGIN
1070
    73
1070
     1
1070
    44
1040
1.0
1070
    74
1070
     0
1000
MTEXTEND
  0
MTEXT
  5
55BB
330
1A
100
AcDbEntity
  8
SUNPOU
100
AcDbMText
 10
128169.752595959
 20
130040.1732006569
 30
0.0
 40
10.5
 41
0.0
 71
     9
 72
     5
  1

1001
ACAD
1000
MTEXTBEGIN
1070
    73
1070
     1
1070
    44
1040
1.0
1070
    74
1070
     0
1000
MTEXTEND
  0
MTEXT
  5
55BC
330
1A
100
AcDbEntity
  8
SUNPOU
100
AcDbMText
 10
130113.1598426684
 20
128239.1241207789
 30
0.0
 40
3.5
 41
0.0
 71
     9
 72
     5
  1

1001
ACAD
1000
MTEXTBEGIN
1070
    73
1070
     1
1070
    44
1040
1.0
1070
    74
1070
     0
1000
MTEXTEND
  0
MTEXT
  5
55BD
330
1A
100
AcDbEntity
  8
SUNPOU
100
AcDbMText
 10
78610.02030175463
 20
75873.33835563206
 30
0.0
 40
10.5
 41
0.0
 71
     9
 72
     5
  1

1001
ACAD
1000
MTEXTBEGIN
1070
    73
1070
     1
1070
    44
1040
1.0
1070
    74
1070
     0
1000
MTEXTEND
  0
MTEXT
  5
55BE
330
1A
100
AcDbEntity
  8
SUNPOU
100
AcDbMText
 10
64662.02020137863
 20
56700.93921651987
 30
0.0
 40
3.5
 41
0.0
 71
     7
 72
     5
  1

1001
ACAD
1000
MTEXTBEGIN
1070
    73
1070
     1
1070
    44
1040
1.0
1070
    74
1070
     0
1000
MTEXTEND
  0
MTEXT
  5
55BF
330
1A
100
AcDbEntity
  8
SUNPOU
100
AcDbMText
 10
45647.18959837178
 20
44463.08794733807
 30
0.0
 40
10.5
 41
0.0
 71
     7
 72
     5
  1

1001
ACAD
1000
MTEXTBEGIN
1070
    73
1070
     1
1070
    44
1040
1.0
1070
    74
1070
     0
1000
MTEXTEND
  0
MTEXT
  5
55C0
330
1A
100
AcDbEntity
  8
SUNPOU
100
AcDbMText
 10
33189.96133342368
 20
28618.15636923965
 30
0.0
 40
35.0
 41
0.0
 71
     9
 72
     5
  1

1001
ACAD
1000
MTEXTBEGIN
1070
    73
1070
     1
1070
    44
1040
1.0
1070
    74
1070
     0
1000
MTEXTEND
  0
MTEXT
  5
55C1
330
1A
100
AcDbEntity
  8
SUNPOU
100
AcDbMText
 10
32098.44639099864
 20
29226.93177928835
 30
0.0
 40
350.0000004171781
 41
0.0
 71
     7
 72
     5
  1

1001
ACAD
1000
MTEXTBEGIN
1070
    73
1070
     1
1070
    44
1040
1.0
1070
    74
1070
     0
1000
MTEXTEND
  0
MTEXT
  5
55C2
330
1A
100
AcDbEntity
  8
0
100
AcDbMText
 10
38142.39714894154
 20
27206.85414142458
 30
0.0
 40
8.0
 41
0.0
 71
     7
 72
     5
  1

1001
ACAD
1000
MTEXTBEGIN
1070
    73
1070
     1
1070
    44
1040
1.0
1070
    74
1070
     0
1000
MTEXTEND
  0
MTEXT
  5
55C3
330
1A
100
AcDbEntity
  8
0
100
AcDbMText
 10
40427.75483883644
 20
28177.64443617564
 30
0.0
 40
8.0
 41
0.0
 71
     7
 72
     5
  1

1001
ACAD
1000
MTEXTBEGIN
1070
    73
1070
     1
1070
    44
1040
1.0
1070
    74
1070
     0
1000
MTEXTEND
  0
MTEXT
  5
55C4
330
1A
100
AcDbEntity
  8
SUNPOU
100
AcDbMText
 10
43093.65185951858
 20
37689.75582855077
 30
0.0
 40
10.5
 41
0.0
 71
     1
 72
     5
  1

1001
ACAD
1000
MTEXTBEGIN
1070
    73
1070
     1
1070
    44
1040
1.0
1070
    74
1070
     0
1000
MTEXTEND
  0
MTEXT
  5
55C5
330
1A
100
AcDbEntity
  8
SUNPOU
100
AcDbMText
 10
35162.72866358265
 20
36742.96269463781
 30
0.0
 40
10.5
 41
0.0
 71
     7
 72
     5
  1

1001
ACAD
1000
MTEXTBEGIN
1070
    73
1070
     1
1070
    44
1040
1.0
1070
    74
1070
     0
1000
MTEXTEND
  0
MTEXT
  5
55C6
330
1A
100
AcDbEntity
  8
SUNPOU
100
AcDbMText
 10
38111.71232809542
 20
41643.63876648066
 30
0.0
 40
10.5
 41
0.0
 71
     7
 72
     5
  1

1001
ACAD
1000
MTEXTBEGIN
1070
    73
1070
     1
1070
    44
1040
1.0
1070
    74
1070
     0
1000
MTEXTEND
  0
MTEXT
  5
55C7
330
1A
100
AcDbEntity
  8
SUNPOU
100
AcDbMText
 10
42620.79045604597
 20
44079.93951410074
 30
0.0
 40
10.5
 41
0.0
 71
     7
 72
     5
  1

1001
ACAD
1000
MTEXTBEGIN
1070
    73
1070
     1
1070
    44
1040
1.0
1070
    74
1070
     0
1000
MTEXTEND
  0
MTEXT
  5
55C8
330
1A
100
AcDbEntity
  8
SUNPOU
100
AcDbMText
 10
26221.62834281429
 20
23077.53566448964
 30
0.0
 40
10.5
 41
0.0
 71
     7
 72
     5
  1

1001
ACAD
1000
MTEXTBEGIN
1070
    73
1070
     1
1070
    44
1040
1.0
1070
    74
1070
     0
1000
MTEXTEND
  0
MTEXT
  5
55C9
330
1A
100
AcDbEntity
  8
SUNPOU
100
AcDbMText
 10
77413.14677671455
 20
68750.51622813789
 30
0.0
 40
10.5
 41
0.0
 71
     9
 72
     5
  1

1001
ACAD
1000
MTEXTBEGIN
1070
    73
1070
     1
1070
    44
1040
1.0
1070
    74
1070
     0
1000
MTEXTEND
  0
MTEXT
  5
55CA
330
1A
100
AcDbEntity
  8
SUNPOU
100
AcDbMText
 10
86135.31434263256
 20
76166.35075967536
 30
0.0
 40
10.5
 41
0.0
 71
     9
 72
     5
  1

1001
ACAD
1000
MTEXTBEGIN
1070
    73
1070
     1
1070
    44
1040
1.0
1070
    74
1070
     0
1000
MTEXTEND
  0
MTEXT
  5
55CB
330
1A
100
AcDbEntity
  8
SUNPOU
100
AcDbMText
 10
105089.0730599625
 20
93632.92681216739
 30
0.0
 40
10.5
 41
0.0
 71
     9
 72
     5
  1

1001
ACAD
1000
MTEXTBEGIN
1070
    73
1070
     1
1070
    44
1040
1.0
1070
    74
1070
     0
1000
MTEXTEND
  0
MTEXT
  5
55CC
330
1A
100
AcDbEntity
  8
SUNPOU
100
AcDbMText
 10
107032.4803066719
 20
91831.8777322894
 30
0.0
 40
3.5
 41
0.0
 71
     9
 72
     5
  1

1001
ACAD
1000
MTEXTBEGIN
1070
    73
1070
     1
1070
    44
1040
1.0
1070
    74
1070
     0
1000
MTEXTEND
  0
MTEXT
  5
55CD
330
1A
100
AcDbEntity
  8
SUNPOU
100
AcDbMText
 10
138158.6601392916
 20
134326.8233999467
 30
0.0
 40
10.5
 41
0.0
 71
     9
 72
     5
  1

1001
ACAD
1000
MTEXTBEGIN
1070
    73
1070
     1
1070
    44
1040
1.0
1070
    74
1070
     0
1000
MTEXTEND
  0
MTEXT
  5
55CE
330
1A
100
AcDbEntity
  8
SUNPOU
100
AcDbMText
 10
140102.067386001
 20
132525.7743200686
 30
0.0
 40
3.5
 41
0.0
 71
     9
 72
     5
  1

1001
ACAD
1000
MTEXTBEGIN
1070
    73
1070
     1
1070
    44
1040
1.0
1070
    74
1070
     0
1000
MTEXTEND
  0
MTEXT
  5
55CF
330
1A
100
AcDbEntity
  8
SUNPOU
100
AcDbMText
 10
88598.92784508721
 20
80159.98855492179
 30
0.0
 40
10.5
 41
0.0
 71
     9
 72
     5
  1

1001
ACAD
1000
MTEXTBEGIN
1070
    73
1070
     1
1070
    44
1040
1.0
1070
    74
1070
     0
1000
MTEXTEND
  0
MTEXT
  5
55D0
330
1A
100
AcDbEntity
  8
SUNPOU
100
AcDbMText
 10
74650.92774471121
 20
60987.5894158096
 30
0.0
 40
3.5
 41
0.0
 71
     7
 72
     5
  1

1001
ACAD
1000
MTEXTBEGIN
1070
    73
1070
     1
1070
    44
1040
1.0
1070
    74
1070
     0
1000
MTEXTEND
  0
MTEXT
  5
55D1
330
1A
100
AcDbEntity
  8
SUNPOU
100
AcDbMText
 10
55636.09714170436
 20
48749.73814662781
 30
0.0
 40
10.5
 41
0.0
 71
     7
 72
     5
  1

1001
ACAD
1000
MTEXTBEGIN
1070
    73
1070
     1
1070
    44
1040
1.0
1070
    74
1070
     0
1000
MTEXTEND
  0
MTEXT
  5
55D2
330
1A
100
AcDbEntity
  8
SUNPOU
100
AcDbMText
 10
43178.86887675626
 20
32904.80656852938
 30
0.0
 40
35.0
 41
0.0
 71
     9
 72
     5
  1

1001
ACAD
1000
MTEXTBEGIN
1070
    73
1070
     1
1070
    44
1040
1.0
1070
    74
1070
     0
1000
MTEXTEND
  0
MTEXT
  5
55D3
330
1A
100
AcDbEntity
  8
SUNPOU
100
AcDbMText
 10
42087.35393433121
 20
33513.58197857809
 30
0.0
 40
350.0000004171781
 41
0.0
 71
     7
 72
     5
  1

1001
ACAD
1000
MTEXTBEGIN
1070
    73
1070
     1
1070
    44
1040
1.0
1070
    74
1070
     0
1000
MTEXTEND
  0
MTEXT
  5
55D4
330
1A
100
AcDbEntity
  8
0
100
AcDbMText
 10
48131.30469227412
 20
31493.50434071431
 30
0.0
 40
8.0
 41
0.0
 71
     7
 72
     5
  1

1001
ACAD
1000
MTEXTBEGIN
1070
    73
1070
     1
1070
    44
1040
1.0
1070
    74
1070
     0
1000
MTEXTEND
  0
MTEXT
  5
55D5
330
1A
100
AcDbEntity
  8
0
100
AcDbMText
 10
50416.66238216901
 20
32464.29463546537
 30
0.0
 40
8.0
 41
0.0
 71
     7
 72
     5
  1

1001
ACAD
1000
MTEXTBEGIN
1070
    73
1070
     1
1070
    44
1040
1.0
1070
    74
1070
     0
1000
MTEXTEND
  0
MTEXT
  5
55D6
330
1A
100
AcDbEntity
  8
SUNPOU
100
AcDbMText
 10
53082.55940285115
 20
41976.4060278405
 30
0.0
 40
10.5
 41
0.0
 71
     1
 72
     5
  1

1001
ACAD
1000
MTEXTBEGIN
1070
    73
1070
     1
1070
    44
1040
1.0
1070
    74
1070
     0
1000
MTEXTEND
  0
MTEXT
  5
55D7
330
1A
100
AcDbEntity
  8
SUNPOU
100
AcDbMText
 10
45151.63620691522
 20
41029.61289392755
 30
0.0
 40
10.5
 41
0.0
 71
     7
 72
     5
  1

1001
ACAD
1000
MTEXTBEGIN
1070
    73
1070
     1
1070
    44
1040
1.0
1070
    74
1070
     0
1000
MTEXTEND
  0
MTEXT
  5
55D8
330
1A
100
AcDbEntity
  8
SUNPOU
100
AcDbMText
 10
48100.61987142798
 20
45930.28896577039
 30
0.0
 40
10.5
 41
0.0
 71
     7
 72
     5
  1

1001
ACAD
1000
MTEXTBEGIN
1070
    73
1070
     1
1070
    44
1040
1.0
1070
    74
1070
     0
1000
MTEXTEND
  0
MTEXT
  5
55D9
330
1A
100
AcDbEntity
  8
SUNPOU
100
AcDbMText
 10
52609.69799937854
 20
48366.58971339046
 30
0.0
 40
10.5
 41
0.0
 71
     7
 72
     5
  1

1001
ACAD
1000
MTEXTBEGIN
1070
    73
1070
     1
1070
    44
1040
1.0
1070
    74
1070
     0
1000
MTEXTEND
  0
MTEXT
  5
55DA
330
1A
100
AcDbEntity
  8
SUNPOU
100
AcDbMText
 10
36210.53588614687
 20
27364.18586377937
 30
0.0
 40
10.5
 41
0.0
 71
     7
 72
     5
  1

1001
ACAD
1000
MTEXTBEGIN
1070
    73
1070
     1
1070
    44
1040
1.0
1070
    74
1070
     0
1000
MTEXTEND
  0
MTEXT
  5
55DB
330
1A
100
AcDbEntity
  8
SUNPOU
100
AcDbMText
 10
38021.29879752181
 20
33691.59985125794
 30
0.0
 40
10.5
 41
0.0
 71
     9
 72
     5
  1

1001
ACAD
1000
MTEXTBEGIN
1070
    73
1070
     1
1070
    44
1040
1.0
1070
    74
1070
     0
1000
MTEXTEND
  0
MTEXT
  5
55DC
330
1A
100
AcDbEntity
  8
SUNPOU
100
AcDbMText
 10
46743.46636343979
 20
41107.43438279541
 30
0.0
 40
10.5
 41
0.0
 71
     9
 72
     5
  1

1001
ACAD
1000
MTEXTBEGIN
1070
    73
1070
     1
1070
    44
1040
1.0
1070
    74
1070
     0
1000
MTEXTEND
  0
MTEXT
  5
55DD
330
1A
100
AcDbEntity
  8
SUNPOU
100
AcDbMText
 10
65697.22508076975
 20
58574.01043528746
 30
0.0
 40
10.5
 41
0.0
 71
     9
 72
     5
  1

1001
ACAD
1000
MTEXTBEGIN
1070
    73
1070
     1
1070
    44
1040
1.0
1070
    74
1070
     0
1000
MTEXTEND
  0
MTEXT
  5
55DE
330
1A
100
AcDbEntity
  8
SUNPOU
100
AcDbMText
 10
67640.63232747917
 20
56772.96135540945
 30
0.0
 40
3.5
 41
0.0
 71
     9
 72
     5
  1

1001
ACAD
1000
MTEXTBEGIN
1070
    73
1070
     1
1070
    44
1040
1.0
1070
    74
1070
     0
1000
MTEXTEND
  0
MTEXT
  5
55DF
330
1A
100
AcDbEntity
  8
SUNPOU
100
AcDbMText
 10
98766.81216009888
 20
99267.9070230668
 30
0.0
 40
10.5
 41
0.0
 71
     9
 72
     5
  1

1001
ACAD
1000
MTEXTBEGIN
1070
    73
1070
     1
1070
    44
1040
1.0
1070
    74
1070
     0
1000
MTEXTEND
  0
MTEXT
  5
55E0
330
1A
100
AcDbEntity
  8
SUNPOU
100
AcDbMText
 10
100710.2194068083
 20
97466.85794318878
 30
0.0
 40
3.5
 41
0.0
 71
     9
 72
     5
  1

1001
ACAD
1000
MTEXTBEGIN
1070
    73
1070
     1
1070
    44
1040
1.0
1070
    74
1070
     0
1000
MTEXTEND
  0
MTEXT
  5
55E1
330
1A
100
AcDbEntity
  8
SUNPOU
100
AcDbMText
 10
49207.07986589444
 20
45101.07217804185
 30
0.0
 40
10.5
 41
0.0
 71
     9
 72
     5
  1

1001
ACAD
1000
MTEXTBEGIN
1070
    73
1070
     1
1070
    44
1040
1.0
1070
    74
1070
     0
1000
MTEXTEND
  0
MTEXT
  5
55E2
330
1A
100
AcDbEntity
  8
SUNPOU
100
AcDbMText
 10
35259.07976551845
 20
25928.67303892964
 30
0.0
 40
3.5
 41
0.0
 71
     7
 72
     5
  1

1001
ACAD
1000
MTEXTBEGIN
1070
    73
1070
     1
1070
    44
1040
1.0
1070
    74
1070
     0
1000
MTEXTEND
  0
MTEXT
  5
55E3
330
1A
100
AcDbEntity
  8
SUNPOU
100
AcDbMText
 10
48951.43044828905
 20
35287.73625995099
 30
0.0
 40
10.5
 41
0.0
 71
     9
 72
     5
  1

1001
ACAD
1000
MTEXTBEGIN
1070
    73
1070
     1
1070
    44
1040
1.0
1070
    74
1070
     0
1000
MTEXTEND
  0
MTEXT
  5
55E4
330
1A
100
AcDbEntity
  8
SUNPOU
100
AcDbMText
 10
57673.59801420702
 20
42703.57079148847
 30
0.0
 40
10.5
 41
0.0
 71
     9
 72
     5
  1

1001
ACAD
1000
MTEXTBEGIN
1070
    73
1070
     1
1070
    44
1040
1.0
1070
    74
1070
     0
1000
MTEXTEND
  0
MTEXT
  5
55E5
330
1A
100
AcDbEntity
  8
SUNPOU
100
AcDbMText
 10
76627.35673153699
 20
60170.14684398051
 30
0.0
 40
10.5
 41
0.0
 71
     9
 72
     5
  1

1001
ACAD
1000
MTEXTBEGIN
1070
    73
1070
     1
1070
    44
1040
1.0
1070
    74
1070
     0
1000
MTEXTEND
  0
MTEXT
  5
55E6
330
1A
100
AcDbEntity
  8
SUNPOU
100
AcDbMText
 10
78570.76397824641
 20
58369.09776410251
 30
0.0
 40
3.5
 41
0.0
 71
     9
 72
     5
  1

1001
ACAD
1000
MTEXTBEGIN
1070
    73
1070
     1
1070
    44
1040
1.0
1070
    74
1070
     0
1000
MTEXTEND
  0
MTEXT
  5
55E7
330
1A
100
AcDbEntity
  8
SUNPOU
100
AcDbMText
 10
109696.9438108661
 20
100864.0434317598
 30
0.0
 40
10.5
 41
0.0
 71
     9
 72
     5
  1

1001
ACAD
1000
MTEXTBEGIN
1070
    73
1070
     1
1070
    44
1040
1.0
1070
    74
1070
     0
1000
MTEXTEND
  0
MTEXT
  5
55E8
330
1A
100
AcDbEntity
  8
SUNPOU
100
AcDbMText
 10
111640.3510575755
 20
99062.99435188183
 30
0.0
 40
3.5
 41
0.0
 71
     9
 72
     5
  1

1001
ACAD
1000
MTEXTBEGIN
1070
    73
1070
     1
1070
    44
1040
1.0
1070
    74
1070
     0
1000
MTEXTEND
  0
MTEXT
  5
55E9
330
1A
100
AcDbEntity
  8
SUNPOU
100
AcDbMText
 10
60137.21151666167
 20
46697.20858673491
 30
0.0
 40
10.5
 41
0.0
 71
     9
 72
     5
  1

1001
ACAD
1000
MTEXTBEGIN
1070
    73
1070
     1
1070
    44
1040
1.0
1070
    74
1070
     0
1000
MTEXTEND
  0
MTEXT
  5
55EA
330
1A
100
AcDbEntity
  8
SUNPOU
100
AcDbMText
 10
46189.21141628568
 20
27524.80944762269
 30
0.0
 40
3.5
 41
0.0
 71
     7
 72
     5
  1

1001
ACAD
1000
MTEXTBEGIN
1070
    73
1070
     1
1070
    44
1040
1.0
1070
    74
1070
     0
1000
MTEXTEND
  0
MTEXT
  5
55EB
330
1A
100
AcDbEntity
  8
SUNPOU
100
AcDbMText
 10
45007.68847015541
 20
38269.57947701874
 30
0.0
 40
10.5
 41
0.0
 71
     9
 72
     5
  1

1001
ACAD
1000
MTEXTBEGIN
1070
    73
1070
     1
1070
    44
1040
1.0
1070
    74
1070
     0
1000
MTEXTEND
  0
MTEXT
  5
55EC
330
1A
100
AcDbEntity
  8
SUNPOU
100
AcDbMText
 10
63961.44718748539
 20
55736.15552951081
 30
0.0
 40
10.5
 41
0.0
 71
     9
 72
     5
  1

1001
ACAD
1000
MTEXTBEGIN
1070
    73
1070
     1
1070
    44
1040
1.0
1070
    74
1070
     0
1000
MTEXTEND
  0
MTEXT
  5
55ED
330
1A
100
AcDbEntity
  8
SUNPOU
100
AcDbMText
 10
65904.85443419479
 20
53935.10644963279
 30
0.0
 40
3.5
 41
0.0
 71
     9
 72
     5
  1

1001
ACAD
1000
MTEXTBEGIN
1070
    73
1070
     1
1070
    44
1040
1.0
1070
    74
1070
     0
1000
MTEXTEND
  0
MTEXT
  5
55EE
330
1A
100
AcDbEntity
  8
SUNPOU
100
AcDbMText
 10
97031.03426681451
 20
96430.05211729015
 30
0.0
 40
10.5
 41
0.0
 71
     9
 72
     5
  1

1001
ACAD
1000
MTEXTBEGIN
1070
    73
1070
     1
1070
    44
1040
1.0
1070
    74
1070
     0
1000
MTEXTEND
  0
MTEXT
  5
55EF
330
1A
100
AcDbEntity
  8
SUNPOU
100
AcDbMText
 10
98974.44151352393
 20
94629.00303741212
 30
0.0
 40
3.5
 41
0.0
 71
     9
 72
     5
  1

1001
ACAD
1000
MTEXTBEGIN
1070
    73
1070
     1
1070
    44
1040
1.0
1070
    74
1070
     0
1000
MTEXTEND
  0
MTEXT
  5
55F0
330
1A
100
AcDbEntity
  8
SUNPOU
100
AcDbMText
 10
47471.30197261006
 20
42263.21727226519
 30
0.0
 40
10.5
 41
0.0
 71
     9
 72
     5
  1

1001
ACAD
1000
MTEXTBEGIN
1070
    73
1070
     1
1070
    44
1040
1.0
1070
    74
1070
     0
1000
MTEXTEND
  0
MTEXT
  5
55F1
330
1A
100
AcDbEntity
  8
SUNPOU
100
AcDbMText
 10
33523.30187223408
 20
23090.81813315298
 30
0.0
 40
3.5
 41
0.0
 71
     7
 72
     5
  1

1001
ACAD
1000
MTEXTBEGIN
1070
    73
1070
     1
1070
    44
1040
1.0
1070
    74
1070
     0
1000
MTEXTEND
  0
MTEXT
  5
55F2
330
1A
100
AcDbEntity
  8
SUNPOU
100
AcDbMText
 10
57959.46254102503
 20
50038.08111611015
 30
0.0
 40
10.5
 41
0.0
 71
     9
 72
     5
  1

1001
ACAD
1000
MTEXTBEGIN
1070
    73
1070
     1
1070
    44
1040
1.0
1070
    74
1070
     0
1000
MTEXTEND
  0
MTEXT
  5
55F3
330
1A
100
AcDbEntity
  8
SUNPOU
100
AcDbMText
 10
76913.22125835503
 20
67504.65716860222
 30
0.0
 40
10.5
 41
0.0
 71
     9
 72
     5
  1

1001
ACAD
1000
MTEXTBEGIN
1070
    73
1070
     1
1070
    44
1040
1.0
1070
    74
1070
     0
1000
MTEXTEND
  0
MTEXT
  5
55F4
330
1A
100
AcDbEntity
  8
SUNPOU
100
AcDbMText
 10
78856.62850506443
 20
65703.6080887242
 30
0.0
 40
3.5
 41
0.0
 71
     9
 72
     5
  1

1001
ACAD
1000
MTEXTBEGIN
1070
    73
1070
     1
1070
    44
1040
1.0
1070
    74
1070
     0
1000
MTEXTEND
  0
MTEXT
  5
55F5
330
1A
100
AcDbEntity
  8
SUNPOU
100
AcDbMText
 10
109982.8083376841
 20
108198.5537563815
 30
0.0
 40
10.5
 41
0.0
 71
     9
 72
     5
  1

1001
ACAD
1000
MTEXTBEGIN
1070
    73
1070
     1
1070
    44
1040
1.0
1070
    74
1070
     0
1000
MTEXTEND
  0
MTEXT
  5
55F6
330
1A
100
AcDbEntity
  8
SUNPOU
100
AcDbMText
 10
111926.2155843935
 20
106397.5046765035
 30
0.0
 40
3.5
 41
0.0
 71
     9
 72
     5
  1

1001
ACAD
1000
MTEXTBEGIN
1070
    73
1070
     1
1070
    44
1040
1.0
1070
    74
1070
     0
1000
MTEXTEND
  0
MTEXT
  5
55F7
330
1A
100
AcDbEntity
  8
SUNPOU
100
AcDbMText
 10
60423.07604347968
 20
54031.71891135659
 30
0.0
 40
10.5
 41
0.0
 71
     9
 72
     5
  1

1001
ACAD
1000
MTEXTBEGIN
1070
    73
1070
     1
1070
    44
1040
1.0
1070
    74
1070
     0
1000
MTEXTEND
  0
MTEXT
  5
55F8
330
1A
100
AcDbEntity
  8
SUNPOU
100
AcDbMText
 10
46475.07594310369
 20
34859.3197722444
 30
0.0
 40
3.5
 41
0.0
 71
     7
 72
     5
  1

1001
ACAD
1000
MTEXTBEGIN
1070
    73
1070
     1
1070
    44
1040
1.0
1070
    74
1070
     0
1000
MTEXTEND
  0
MTEXT
  5
55F9
330
1A
100
AcDbEntity
  8
SUNPOU
100
AcDbMText
 10
74027.35402123588
 20
68370.58278833383
 30
0.0
 40
10.5
 41
0.0
 71
     9
 72
     5
  1

1001
ACAD
1000
MTEXTBEGIN
1070
    73
1070
     1
1070
    44
1040
1.0
1070
    74
1070
     0
1000
MTEXTEND
  0
MTEXT
  5
55FA
330
1A
100
AcDbEntity
  8
SUNPOU
100
AcDbMText
 10
75970.7612679453
 20
66569.53370845583
 30
0.0
 40
3.5
 41
0.0
 71
     9
 72
     5
  1

1001
ACAD
1000
MTEXTBEGIN
1070
    73
1070
     1
1070
    44
1040
1.0
1070
    74
1070
     0
1000
MTEXTEND
  0
MTEXT
  5
55FB
330
1A
100
AcDbEntity
  8
SUNPOU
100
AcDbMText
 10
107096.941100565
 20
109064.4793761132
 30
0.0
 40
10.5
 41
0.0
 71
     9
 72
     5
  1

1001
ACAD
1000
MTEXTBEGIN
1070
    73
1070
     1
1070
    44
1040
1.0
1070
    74
1070
     0
1000
MTEXTEND
  0
MTEXT
  5
55FC
330
1A
100
AcDbEntity
  8
SUNPOU
100
AcDbMText
 10
109040.3483472744
 20
107263.4302962351
 30
0.0
 40
3.5
 41
0.0
 71
     9
 72
     5
  1

1001
ACAD
1000
MTEXTBEGIN
1070
    73
1070
     1
1070
    44
1040
1.0
1070
    74
1070
     0
1000
MTEXTEND
  0
MTEXT
  5
55FD
330
1A
100
AcDbEntity
  8
SUNPOU
100
AcDbMText
 10
105709.1709283621
 20
108141.3777665285
 30
0.0
 40
10.5
 41
0.0
 71
     9
 72
     5
  1

1001
ACAD
1000
MTEXTBEGIN
1070
    73
1070
     1
1070
    44
1040
1.0
1070
    74
1070
     0
1000
MTEXTEND
  0
MTEXT
  5
55FE
330
1A
100
AcDbEntity
  8
SUNPOU
100
AcDbMText
 10
107652.5781750715
 20
106340.3286866505
 30
0.0
 40
3.5
 41
0.0
 71
     9
 72
     5
  1

1001
ACAD
1000
MTEXTBEGIN
1070
    73
1070
     1
1070
    44
1040
1.0
1070
    74
1070
     0
1000
MTEXTEND
  0
MTEXT
  5
55FF
330
1A
100
AcDbEntity
  8
SUNPOU
100
AcDbMText
 10
73193.09268743351
 20
66158.78082845056
 30
0.0
 40
10.5
 41
0.0
 71
     9
 72
     5
  1

1001
ACAD
1000
MTEXTBEGIN
1070
    73
1070
     1
1070
    44
1040
1.0
1070
    74
1070
     0
1000
MTEXTEND
  0
MTEXT
  5
5600
330
1A
100
AcDbEntity
  8
SUNPOU
100
AcDbMText
 10
75916.39889159806
 20
66563.46252003162
 30
0.0
 40
3.5
 41
0.0
 71
     9
 72
     5
  1

1001
ACAD
1000
MTEXTBEGIN
1070
    73
1070
     1
1070
    44
1040
1.0
1070
    74
1070
     0
1000
MTEXTEND
  0
MTEXT
  5
5601
330
1A
100
AcDbEntity
  8
SUNPOU
100
AcDbMText
 10
75124.04436649058
 20
63402.1566819768
 30
0.0
 40
10.5
 41
0.0
 71
     9
 72
     5
  1

1001
ACAD
1000
MTEXTBEGIN
1070
    73
1070
     1
1070
    44
1040
1.0
1070
    74
1070
     0
1000
MTEXTEND
  0
MTEXT
  5
5602
330
1A
100
AcDbEntity
  8
SUNPOU
100
AcDbMText
 10
77067.4516132
 20
61601.1076020988
 30
0.0
 40
3.5
 41
0.0
 71
     9
 72
     5
  1

1001
ACAD
1000
MTEXTBEGIN
1070
    73
1070
     1
1070
    44
1040
1.0
1070
    74
1070
     0
1000
MTEXTEND
  0
MTEXT
  5
5603
330
1A
100
AcDbEntity
  8
SUNPOU
100
AcDbMText
 10
77012.54710378659
 20
61488.33571981449
 30
0.0
 40
3.5
 41
0.0
 71
     9
 72
     5
  1

1001
ACAD
1000
MTEXTBEGIN
1070
    73
1070
     1
1070
    44
1040
1.0
1070
    74
1070
     0
1000
MTEXTEND
  0
MTEXT
  5
5604
330
1A
100
AcDbEntity
  8
SUNPOU
100
AcDbMText
 10
76376.61896736668
 20
60677.01447874797
 30
0.0
 40
3.5
 41
0.0
 71
     9
 72
     5
  1

1001
ACAD
1000
MTEXTBEGIN
1070
    73
1070
     1
1070
    44
1040
1.0
1070
    74
1070
     0
1000
MTEXTEND
  0
MTEXT
  5
5605
330
1A
100
AcDbEntity
  8
SUNPOU
100
AcDbMText
 10
76375.37854794595
 20
60676.76650181047
 30
0.0
 40
10.5
 41
0.0
 71
     9
 72
     5
  1

1001
ACAD
1000
MTEXTBEGIN
1070
    73
1070
     1
1070
    44
1040
1.0
1070
    74
1070
     0
1000
MTEXTEND
  0
MTEXT
  5
5606
330
1A
100
AcDbEntity
  8
SUNPOU
100
AcDbMText
 10
84709.93991079748
 20
78034.0328293557
 30
0.0
 40
10.5
 41
0.0
 71
     9
 72
     5
  1

1001
ACAD
1000
MTEXTBEGIN
1070
    73
1070
     1
1070
    44
1040
1.0
1070
    74
1070
     0
1000
MTEXTEND
  0
MTEXT
  5
5607
330
1A
100
AcDbEntity
  8
SUNPOU
100
AcDbMText
 10
93432.10747671548
 20
85449.86736089315
 30
0.0
 40
10.5
 41
0.0
 71
     9
 72
     5
  1

1001
ACAD
1000
MTEXTBEGIN
1070
    73
1070
     1
1070
    44
1040
1.0
1070
    74
1070
     0
1000
MTEXTEND
  0
MTEXT
  5
5608
330
1A
100
AcDbEntity
  8
SUNPOU
100
AcDbMText
 10
112385.8661940454
 20
102916.4434133851
 30
0.0
 40
10.5
 41
0.0
 71
     9
 72
     5
  1

1001
ACAD
1000
MTEXTBEGIN
1070
    73
1070
     1
1070
    44
1040
1.0
1070
    74
1070
     0
1000
MTEXTEND
  0
MTEXT
  5
5609
330
1A
100
AcDbEntity
  8
SUNPOU
100
AcDbMText
 10
114329.2734407548
 20
101115.3943335072
 30
0.0
 40
3.5
 41
0.0
 71
     9
 72
     5
  1

1001
ACAD
1000
MTEXTBEGIN
1070
    73
1070
     1
1070
    44
1040
1.0
1070
    74
1070
     0
1000
MTEXTEND
  0
MTEXT
  5
560A
330
1A
100
AcDbEntity
  8
SUNPOU
100
AcDbMText
 10
145455.4532733745
 20
143610.3400011645
 30
0.0
 40
10.5
 41
0.0
 71
     9
 72
     5
  1

1001
ACAD
1000
MTEXTBEGIN
1070
    73
1070
     1
1070
    44
1040
1.0
1070
    74
1070
     0
1000
MTEXTEND
  0
MTEXT
  5
560B
330
1A
100
AcDbEntity
  8
SUNPOU
100
AcDbMText
 10
147398.8605200839
 20
141809.2909212864
 30
0.0
 40
3.5
 41
0.0
 71
     9
 72
     5
  1

1001
ACAD
1000
MTEXTBEGIN
1070
    73
1070
     1
1070
    44
1040
1.0
1070
    74
1070
     0
1000
MTEXTEND
  0
MTEXT
  5
560C
330
1A
100
AcDbEntity
  8
SUNPOU
100
AcDbMText
 10
95895.72097917013
 20
89443.5051561396
 30
0.0
 40
10.5
 41
0.0
 71
     9
 72
     5
  1

1001
ACAD
1000
MTEXTBEGIN
1070
    73
1070
     1
1070
    44
1040
1.0
1070
    74
1070
     0
1000
MTEXTEND
  0
MTEXT
  5
560D
330
1A
100
AcDbEntity
  8
SUNPOU
100
AcDbMText
 10
81947.72087879414
 20
70271.1060170274
 30
0.0
 40
3.5
 41
0.0
 71
     7
 72
     5
  1

1001
ACAD
1000
MTEXTBEGIN
1070
    73
1070
     1
1070
    44
1040
1.0
1070
    74
1070
     0
1000
MTEXTEND
  0
MTEXT
  5
560E
330
1A
100
AcDbEntity
  8
SUNPOU
100
AcDbMText
 10
62932.89027578729
 20
58033.25474784561
 30
0.0
 40
10.5
 41
0.0
 71
     7
 72
     5
  1

1001
ACAD
1000
MTEXTBEGIN
1070
    73
1070
     1
1070
    44
1040
1.0
1070
    74
1070
     0
1000
MTEXTEND
  0
MTEXT
  5
560F
330
1A
100
AcDbEntity
  8
SUNPOU
100
AcDbMText
 10
50475.66201083918
 20
42188.32316974719
 30
0.0
 40
35.0
 41
0.0
 71
     9
 72
     5
  1

1001
ACAD
1000
MTEXTBEGIN
1070
    73
1070
     1
1070
    44
1040
1.0
1070
    74
1070
     0
1000
MTEXTEND
  0
MTEXT
  5
5610
330
1A
100
AcDbEntity
  8
SUNPOU
100
AcDbMText
 10
49384.14706841413
 20
42797.0985797959
 30
0.0
 40
350.0000004171781
 41
0.0
 71
     7
 72
     5
  1

1001
ACAD
1000
MTEXTBEGIN
1070
    73
1070
     1
1070
    44
1040
1.0
1070
    74
1070
     0
1000
MTEXTEND
  0
MTEXT
  5
5611
330
1A
100
AcDbEntity
  8
0
100
AcDbMText
 10
55428.09782635704
 20
40777.02094193211
 30
0.0
 40
8.0
 41
0.0
 71
     7
 72
     5
  1

1001
ACAD
1000
MTEXTBEGIN
1070
    73
1070
     1
1070
    44
1040
1.0
1070
    74
1070
     0
1000
MTEXTEND
  0
MTEXT
  5
5612
330
1A
100
AcDbEntity
  8
0
100
AcDbMText
 10
57713.45551625194
 20
41747.81123668317
 30
0.0
 40
8.0
 41
0.0
 71
     7
 72
     5
  1

1001
ACAD
1000
MTEXTBEGIN
1070
    73
1070
     1
1070
    44
1040
1.0
1070
    74
1070
     0
1000
MTEXTEND
  0
MTEXT
  5
5613
330
1A
100
AcDbEntity
  8
SUNPOU
100
AcDbMText
 10
60379.35253693408
 20
51259.9226290583
 30
0.0
 40
10.5
 41
0.0
 71
     1
 72
     5
  1

1001
ACAD
1000
MTEXTBEGIN
1070
    73
1070
     1
1070
    44
1040
1.0
1070
    74
1070
     0
1000
MTEXTEND
  0
MTEXT
  5
5614
330
1A
100
AcDbEntity
  8
SUNPOU
100
AcDbMText
 10
52448.42934099814
 20
50313.12949514535
 30
0.0
 40
10.5
 41
0.0
 71
     7
 72
     5
  1

1001
ACAD
1000
MTEXTBEGIN
1070
    73
1070
     1
1070
    44
1040
1.0
1070
    74
1070
     0
1000
MTEXTEND
  0
MTEXT
  5
5615
330
1A
100
AcDbEntity
  8
SUNPOU
100
AcDbMText
 10
55397.41300551091
 20
55213.80556698819
 30
0.0
 40
10.5
 41
0.0
 71
     7
 72
     5
  1

1001
ACAD
1000
MTEXTBEGIN
1070
    73
1070
     1
1070
    44
1040
1.0
1070
    74
1070
     0
1000
MTEXTEND
  0
MTEXT
  5
5616
330
1A
100
AcDbEntity
  8
SUNPOU
100
AcDbMText
 10
59906.49113346147
 20
57650.10631460826
 30
0.0
 40
10.5
 41
0.0
 71
     7
 72
     5
  1

1001
ACAD
1000
MTEXTBEGIN
1070
    73
1070
     1
1070
    44
1040
1.0
1070
    74
1070
     0
1000
MTEXTEND
  0
MTEXT
  5
5617
330
1A
100
AcDbEntity
  8
SUNPOU
100
AcDbMText
 10
43507.32902022979
 20
36647.70246499718
 30
0.0
 40
10.5
 41
0.0
 71
     7
 72
     5
  1

1001
ACAD
1000
MTEXTBEGIN
1070
    73
1070
     1
1070
    44
1040
1.0
1070
    74
1070
     0
1000
MTEXTEND
  0
MTEXT
  5
5618
330
1A
100
AcDbEntity
  8
SUNPOU
100
AcDbMText
 10
94698.84745413006
 20
82320.68302864542
 30
0.0
 40
10.5
 41
0.0
 71
     9
 72
     5
  1

1001
ACAD
1000
MTEXTBEGIN
1070
    73
1070
     1
1070
    44
1040
1.0
1070
    74
1070
     0
1000
MTEXTEND
  0
MTEXT
  5
5619
330
1A
100
AcDbEntity
  8
SUNPOU
100
AcDbMText
 10
103421.015020048
 20
89736.5175601829
 30
0.0
 40
10.5
 41
0.0
 71
     9
 72
     5
  1

1001
ACAD
1000
MTEXTBEGIN
1070
    73
1070
     1
1070
    44
1040
1.0
1070
    74
1070
     0
1000
MTEXTEND
  0
MTEXT
  5
561A
330
1A
100
AcDbEntity
  8
SUNPOU
100
AcDbMText
 10
122374.773737378
 20
107203.0936126749
 30
0.0
 40
10.5
 41
0.0
 71
     9
 72
     5
  1

1001
ACAD
1000
MTEXTBEGIN
1070
    73
1070
     1
1070
    44
1040
1.0
1070
    74
1070
     0
1000
MTEXTEND
  0
MTEXT
  5
561B
330
1A
100
AcDbEntity
  8
SUNPOU
100
AcDbMText
 10
124318.1809840874
 20
105402.0445327969
 30
0.0
 40
3.5
 41
0.0
 71
     9
 72
     5
  1

1001
ACAD
1000
MTEXTBEGIN
1070
    73
1070
     1
1070
    44
1040
1.0
1070
    74
1070
     0
1000
MTEXTEND
  0
MTEXT
  5
561C
330
1A
100
AcDbEntity
  8
SUNPOU
100
AcDbMText
 10
155444.3608167071
 20
147896.9902004542
 30
0.0
 40
10.5
 41
0.0
 71
     9
 72
     5
  1

1001
ACAD
1000
MTEXTBEGIN
1070
    73
1070
     1
1070
    44
1040
1.0
1070
    74
1070
     0
1000
MTEXTEND
  0
MTEXT
  5
561D
330
1A
100
AcDbEntity
  8
SUNPOU
100
AcDbMText
 10
157387.7680634165
 20
146095.9411205762
 30
0.0
 40
3.5
 41
0.0
 71
     9
 72
     5
  1

1001
ACAD
1000
MTEXTBEGIN
1070
    73
1070
     1
1070
    44
1040
1.0
1070
    74
1070
     0
1000
MTEXTEND
  0
MTEXT
  5
561E
330
1A
100
AcDbEntity
  8
SUNPOU
100
AcDbMText
 10
105884.6285225027
 20
93730.15535542933
 30
0.0
 40
10.5
 41
0.0
 71
     9
 72
     5
  1

1001
ACAD
1000
MTEXTBEGIN
1070
    73
1070
     1
1070
    44
1040
1.0
1070
    74
1070
     0
1000
MTEXTEND
  0
MTEXT
  5
561F
330
1A
100
AcDbEntity
  8
SUNPOU
100
AcDbMText
 10
91936.6284221267
 20
74557.75621631714
 30
0.0
 40
3.5
 41
0.0
 71
     7
 72
     5
  1

1001
ACAD
1000
MTEXTBEGIN
1070
    73
1070
     1
1070
    44
1040
1.0
1070
    74
1070
     0
1000
MTEXTEND
  0
MTEXT
  5
5620
330
1A
100
AcDbEntity
  8
SUNPOU
100
AcDbMText
 10
72921.79781911986
 20
62319.90494713533
 30
0.0
 40
10.5
 41
0.0
 71
     7
 72
     5
  1

1001
ACAD
1000
MTEXTBEGIN
1070
    73
1070
     1
1070
    44
1040
1.0
1070
    74
1070
     0
1000
MTEXTEND
  0
MTEXT
  5
5621
330
1A
100
AcDbEntity
  8
SUNPOU
100
AcDbMText
 10
60464.56955417175
 20
46474.97336903692
 30
0.0
 40
35.0
 41
0.0
 71
     9
 72
     5
  1

1001
ACAD
1000
MTEXTBEGIN
1070
    73
1070
     1
1070
    44
1040
1.0
1070
    74
1070
     0
1000
MTEXTEND
  0
MTEXT
  5
5622
330
1A
100
AcDbEntity
  8
SUNPOU
100
AcDbMText
 10
59373.05461174672
 20
47083.74877908562
 30
0.0
 40
350.0000004171781
 41
0.0
 71
     7
 72
     5
  1

1001
ACAD
1000
MTEXTBEGIN
1070
    73
1070
     1
1070
    44
1040
1.0
1070
    74
1070
     0
1000
MTEXTEND
  0
MTEXT
  5
5623
330
1A
100
AcDbEntity
  8
0
100
AcDbMText
 10
65417.00536968962
 20
45063.67114122186
 30
0.0
 40
8.0
 41
0.0
 71
     7
 72
     5
  1

1001
ACAD
1000
MTEXTBEGIN
1070
    73
1070
     1
1070
    44
1040
1.0
1070
    74
1070
     0
1000
MTEXTEND
  0
MTEXT
  5
5624
330
1A
100
AcDbEntity
  8
0
100
AcDbMText
 10
67702.36305958452
 20
46034.46143597292
 30
0.0
 40
8.0
 41
0.0
 71
     7
 72
     5
  1

1001
ACAD
1000
MTEXTBEGIN
1070
    73
1070
     1
1070
    44
1040
1.0
1070
    74
1070
     0
1000
MTEXTEND
  0
MTEXT
  5
5625
330
1A
100
AcDbEntity
  8
SUNPOU
100
AcDbMText
 10
70368.26008026666
 20
55546.57282834803
 30
0.0
 40
10.5
 41
0.0
 71
     1
 72
     5
  1

1001
ACAD
1000
MTEXTBEGIN
1070
    73
1070
     1
1070
    44
1040
1.0
1070
    74
1070
     0
1000
MTEXTEND
  0
MTEXT
  5
5626
330
1A
100
AcDbEntity
  8
SUNPOU
100
AcDbMText
 10
62437.33688433072
 20
54599.77969443508
 30
0.0
 40
10.5
 41
0.0
 71
     7
 72
     5
  1

1001
ACAD
1000
MTEXTBEGIN
1070
    73
1070
     1
1070
    44
1040
1.0
1070
    74
1070
     0
1000
MTEXTEND
  0
MTEXT
  5
5627
330
1A
100
AcDbEntity
  8
SUNPOU
100
AcDbMText
 10
65386.32054884349
 20
59500.45576627792
 30
0.0
 40
10.5
 41
0.0
 71
     7
 72
     5
  1

1001
ACAD
1000
MTEXTBEGIN
1070
    73
1070
     1
1070
    44
1040
1.0
1070
    74
1070
     0
1000
MTEXTEND
  0
MTEXT
  5
5628
330
1A
100
AcDbEntity
  8
SUNPOU
100
AcDbMText
 10
69895.39867679405
 20
61936.756513898
 30
0.0
 40
10.5
 41
0.0
 71
     7
 72
     5
  1

1001
ACAD
1000
MTEXTBEGIN
1070
    73
1070
     1
1070
    44
1040
1.0
1070
    74
1070
     0
1000
MTEXTEND
  0
MTEXT
  5
5629
330
1A
100
AcDbEntity
  8
SUNPOU
100
AcDbMText
 10
53496.23656356237
 20
40934.35266428691
 30
0.0
 40
10.5
 41
0.0
 71
     7
 72
     5
  1

1001
ACAD
1000
MTEXTBEGIN
1070
    73
1070
     1
1070
    44
1040
1.0
1070
    74
1070
     0
1000
MTEXTEND
  0
MTEXT
  5
562A
330
1A
100
AcDbEntity
  8
SUNPOU
100
AcDbMText
 10
55306.99947493731
 20
47261.76665176547
 30
0.0
 40
10.5
 41
0.0
 71
     9
 72
     5
  1

1001
ACAD
1000
MTEXTBEGIN
1070
    73
1070
     1
1070
    44
1040
1.0
1070
    74
1070
     0
1000
MTEXTEND
  0
MTEXT
  5
562B
330
1A
100
AcDbEntity
  8
SUNPOU
100
AcDbMText
 10
64029.16704085528
 20
54677.60118330295
 30
0.0
 40
10.5
 41
0.0
 71
     9
 72
     5
  1

1001
ACAD
1000
MTEXTBEGIN
1070
    73
1070
     1
1070
    44
1040
1.0
1070
    74
1070
     0
1000
MTEXTEND
  0
MTEXT
  5
562C
330
1A
100
AcDbEntity
  8
SUNPOU
100
AcDbMText
 10
82982.92575818527
 20
72144.17723579499
 30
0.0
 40
10.5
 41
0.0
 71
     9
 72
     5
  1

1001
ACAD
1000
MTEXTBEGIN
1070
    73
1070
     1
1070
    44
1040
1.0
1070
    74
1070
     0
1000
MTEXTEND
  0
MTEXT
  5
562D
330
1A
100
AcDbEntity
  8
SUNPOU
100
AcDbMText
 10
84926.33300489467
 20
70343.12815591698
 30
0.0
 40
3.5
 41
0.0
 71
     9
 72
     5
  1

1001
ACAD
1000
MTEXTBEGIN
1070
    73
1070
     1
1070
    44
1040
1.0
1070
    74
1070
     0
1000
MTEXTEND
  0
MTEXT
  5
562E
330
1A
100
AcDbEntity
  8
SUNPOU
100
AcDbMText
 10
116052.5128375143
 20
112838.0738235743
 30
0.0
 40
10.5
 41
0.0
 71
     9
 72
     5
  1

1001
ACAD
1000
MTEXTBEGIN
1070
    73
1070
     1
1070
    44
1040
1.0
1070
    74
1070
     0
1000
MTEXTEND
  0
MTEXT
  5
562F
330
1A
100
AcDbEntity
  8
SUNPOU
100
AcDbMText
 10
117995.9200842238
 20
111037.0247436963
 30
0.0
 40
3.5
 41
0.0
 71
     9
 72
     5
  1

1001
ACAD
1000
MTEXTBEGIN
1070
    73
1070
     1
1070
    44
1040
1.0
1070
    74
1070
     0
1000
MTEXTEND
  0
MTEXT
  5
5630
330
1A
100
AcDbEntity
  8
SUNPOU
100
AcDbMText
 10
66492.78054330994
 20
58671.23897854939
 30
0.0
 40
10.5
 41
0.0
 71
     9
 72
     5
  1

1001
ACAD
1000
MTEXTBEGIN
1070
    73
1070
     1
1070
    44
1040
1.0
1070
    74
1070
     0
1000
MTEXTEND
  0
MTEXT
  5
5631
330
1A
100
AcDbEntity
  8
SUNPOU
100
AcDbMText
 10
52544.78044293396
 20
39498.83983943717
 30
0.0
 40
3.5
 41
0.0
 71
     7
 72
     5
  1

1001
ACAD
1000
MTEXTBEGIN
1070
    73
1070
     1
1070
    44
1040
1.0
1070
    74
1070
     0
1000
MTEXTEND
  0
MTEXT
  5
5632
330
1A
100
AcDbEntity
  8
SUNPOU
100
AcDbMText
 10
66237.13112570454
 20
48857.90306045851
 30
0.0
 40
10.5
 41
0.0
 71
     9
 72
     5
  1

1001
ACAD
1000
MTEXTBEGIN
1070
    73
1070
     1
1070
    44
1040
1.0
1070
    74
1070
     0
1000
MTEXTEND
  0
MTEXT
  5
5633
330
1A
100
AcDbEntity
  8
SUNPOU
100
AcDbMText
 10
74959.29869162252
 20
56273.737591996
 30
0.0
 40
10.5
 41
0.0
 71
     9
 72
     5
  1

1001
ACAD
1000
MTEXTBEGIN
1070
    73
1070
     1
1070
    44
1040
1.0
1070
    74
1070
     0
1000
MTEXTEND
  0
MTEXT
  5
5634
330
1A
100
AcDbEntity
  8
SUNPOU
100
AcDbMText
 10
93913.0574089525
 20
73740.31364448805
 30
0.0
 40
10.5
 41
0.0
 71
     9
 72
     5
  1

1001
ACAD
1000
MTEXTBEGIN
1070
    73
1070
     1
1070
    44
1040
1.0
1070
    74
1070
     0
1000
MTEXTEND
  0
MTEXT
  5
5635
330
1A
100
AcDbEntity
  8
SUNPOU
100
AcDbMText
 10
95856.46465566192
 20
71939.26456461004
 30
0.0
 40
3.5
 41
0.0
 71
     9
 72
     5
  1

1001
ACAD
1000
MTEXTBEGIN
1070
    73
1070
     1
1070
    44
1040
1.0
1070
    74
1070
     0
1000
MTEXTEND
  0
MTEXT
  5
5636
330
1A
100
AcDbEntity
  8
SUNPOU
100
AcDbMText
 10
126982.6444882816
 20
114434.2102322673
 30
0.0
 40
10.5
 41
0.0
 71
     9
 72
     5
  1

1001
ACAD
1000
MTEXTBEGIN
1070
    73
1070
     1
1070
    44
1040
1.0
1070
    74
1070
     0
1000
MTEXTEND
  0
MTEXT
  5
5637
330
1A
100
AcDbEntity
  8
SUNPOU
100
AcDbMText
 10
128926.051734991
 20
112633.1611523893
 30
0.0
 40
3.5
 41
0.0
 71
     9
 72
     5
  1

1001
ACAD
1000
MTEXTBEGIN
1070
    73
1070
     1
1070
    44
1040
1.0
1070
    74
1070
     0
1000
MTEXTEND
  0
MTEXT
  5
5638
330
1A
100
AcDbEntity
  8
SUNPOU
100
AcDbMText
 10
77422.91219407717
 20
60267.37538724244
 30
0.0
 40
10.5
 41
0.0
 71
     9
 72
     5
  1

1001
ACAD
1000
MTEXTBEGIN
1070
    73
1070
     1
1070
    44
1040
1.0
1070
    74
1070
     0
1000
MTEXTEND
  0
MTEXT
  5
5639
330
1A
100
AcDbEntity
  8
SUNPOU
100
AcDbMText
 10
63474.91209370119
 20
41094.97624813023
 30
0.0
 40
3.5
 41
0.0
 71
     7
 72
     5
  1

1001
ACAD
1000
MTEXTBEGIN
1070
    73
1070
     1
1070
    44
1040
1.0
1070
    74
1070
     0
1000
MTEXTEND
  0
MTEXT
  5
563A
330
1A
100
AcDbEntity
  8
SUNPOU
100
AcDbMText
 10
48117.65086229006
 20
40806.11043916631
 30
0.0
 40
10.5
 41
0.0
 71
     9
 72
     5
  1

1001
ACAD
1000
MTEXTBEGIN
1070
    73
1070
     1
1070
    44
1040
1.0
1070
    74
1070
     0
1000
MTEXTEND
  0
MTEXT
  5
563B
330
1A
100
AcDbEntity
  8
SUNPOU
100
AcDbMText
 10
67071.40957962004
 20
58272.68649165837
 30
0.0
 40
10.5
 41
0.0
 71
     9
 72
     5
  1

1001
ACAD
1000
MTEXTBEGIN
1070
    73
1070
     1
1070
    44
1040
1.0
1070
    74
1070
     0
1000
MTEXTEND
  0
MTEXT
  5
563C
330
1A
100
AcDbEntity
  8
SUNPOU
100
AcDbMText
 10
69014.81682632945
 20
56471.63741178035
 30
0.0
 40
3.5
 41
0.0
 71
     9
 72
     5
  1

1001
ACAD
1000
MTEXTBEGIN
1070
    73
1070
     1
1070
    44
1040
1.0
1070
    74
1070
     0
1000
MTEXTEND
  0
MTEXT
  5
563D
330
1A
100
AcDbEntity
  8
SUNPOU
100
AcDbMText
 10
100140.9966589491
 20
98966.58307943772
 30
0.0
 40
10.5
 41
0.0
 71
     9
 72
     5
  1

1001
ACAD
1000
MTEXTBEGIN
1070
    73
1070
     1
1070
    44
1040
1.0
1070
    74
1070
     0
1000
MTEXTEND
  0
MTEXT
  5
563E
330
1A
100
AcDbEntity
  8
SUNPOU
100
AcDbMText
 10
102084.4039056586
 20
97165.53399955969
 30
0.0
 40
3.5
 41
0.0
 71
     9
 72
     5
  1

1001
ACAD
1000
MTEXTBEGIN
1070
    73
1070
     1
1070
    44
1040
1.0
1070
    74
1070
     0
1000
MTEXTEND
  0
MTEXT
  5
563F
330
1A
100
AcDbEntity
  8
SUNPOU
100
AcDbMText
 10
50581.26436474472
 20
44799.74823441275
 30
0.0
 40
10.5
 41
0.0
 71
     9
 72
     5
  1

1001
ACAD
1000
MTEXTBEGIN
1070
    73
1070
     1
1070
    44
1040
1.0
1070
    74
1070
     0
1000
MTEXTEND
  0
MTEXT
  5
5640
330
1A
100
AcDbEntity
  8
SUNPOU
100
AcDbMText
 10
36633.26426436873
 20
25627.34909530054
 30
0.0
 40
3.5
 41
0.0
 71
     7
 72
     5
  1

1001
ACAD
1000
MTEXTBEGIN
1070
    73
1070
     1
1070
    44
1040
1.0
1070
    74
1070
     0
1000
MTEXTEND
  0
MTEXT
  5
5641
330
1A
100
AcDbEntity
  8
SUNPOU
100
AcDbMText
 10
61069.42493315968
 20
52574.61207825771
 30
0.0
 40
10.5
 41
0.0
 71
     9
 72
     5
  1

1001
ACAD
1000
MTEXTBEGIN
1070
    73
1070
     1
1070
    44
1040
1.0
1070
    74
1070
     0
1000
MTEXTEND
  0
MTEXT
  5
5642
330
1A
100
AcDbEntity
  8
SUNPOU
100
AcDbMText
 10
80023.18365048967
 20
70041.18813074978
 30
0.0
 40
10.5
 41
0.0
 71
     9
 72
     5
  1

1001
ACAD
1000
MTEXTBEGIN
1070
    73
1070
     1
1070
    44
1040
1.0
1070
    74
1070
     0
1000
MTEXTEND
  0
MTEXT
  5
5643
330
1A
100
AcDbEntity
  8
SUNPOU
100
AcDbMText
 10
81966.59089719908
 20
68240.13905087176
 30
0.0
 40
3.5
 41
0.0
 71
     9
 72
     5
  1

1001
ACAD
1000
MTEXTBEGIN
1070
    73
1070
     1
1070
    44
1040
1.0
1070
    74
1070
     0
1000
MTEXTEND
  0
MTEXT
  5
5644
330
1A
100
AcDbEntity
  8
SUNPOU
100
AcDbMText
 10
113092.7707298187
 20
110735.0847185291
 30
0.0
 40
10.5
 41
0.0
 71
     9
 72
     5
  1

1001
ACAD
1000
MTEXTBEGIN
1070
    73
1070
     1
1070
    44
1040
1.0
1070
    74
1070
     0
1000
MTEXTEND
  0
MTEXT
  5
5645
330
1A
100
AcDbEntity
  8
SUNPOU
100
AcDbMText
 10
115036.1779765282
 20
108934.0356386511
 30
0.0
 40
3.5
 41
0.0
 71
     9
 72
     5
  1

1001
ACAD
1000
MTEXTBEGIN
1070
    73
1070
     1
1070
    44
1040
1.0
1070
    74
1070
     0
1000
MTEXTEND
  0
MTEXT
  5
5646
330
1A
100
AcDbEntity
  8
SUNPOU
100
AcDbMText
 10
63533.03843561433
 20
56568.24987350415
 30
0.0
 40
10.5
 41
0.0
 71
     9
 72
     5
  1

1001
ACAD
1000
MTEXTBEGIN
1070
    73
1070
     1
1070
    44
1040
1.0
1070
    74
1070
     0
1000
MTEXTEND
  0
MTEXT
  5
5647
330
1A
100
AcDbEntity
  8
SUNPOU
100
AcDbMText
 10
49585.03833523835
 20
37395.85073439196
 30
0.0
 40
3.5
 41
0.0
 71
     7
 72
     5
  1

1001
ACAD
1000
MTEXTBEGIN
1070
    73
1070
     1
1070
    44
1040
1.0
1070
    74
1070
     0
1000
MTEXTEND
  0
MTEXT
  5
5648
330
1A
100
AcDbEntity
  8
SUNPOU
100
AcDbMText
 10
77137.31641337052
 20
70907.11375048141
 30
0.0
 40
10.5
 41
0.0
 71
     9
 72
     5
  1

1001
ACAD
1000
MTEXTBEGIN
1070
    73
1070
     1
1070
    44
1040
1.0
1070
    74
1070
     0
1000
MTEXTEND
  0
MTEXT
  5
5649
330
1A
100
AcDbEntity
  8
SUNPOU
100
AcDbMText
 10
79080.72366007995
 20
69106.06467060339
 30
0.0
 40
3.5
 41
0.0
 71
     9
 72
     5
  1

1001
ACAD
1000
MTEXTBEGIN
1070
    73
1070
     1
1070
    44
1040
1.0
1070
    74
1070
     0
1000
MTEXTEND
  0
MTEXT
  5
564A
330
1A
100
AcDbEntity
  8
SUNPOU
100
AcDbMText
 10
110206.9034926996
 20
111601.0103382607
 30
0.0
 40
10.5
 41
0.0
 71
     9
 72
     5
  1

1001
ACAD
1000
MTEXTBEGIN
1070
    73
1070
     1
1070
    44
1040
1.0
1070
    74
1070
     0
1000
MTEXTEND
  0
MTEXT
  5
564B
330
1A
100
AcDbEntity
  8
SUNPOU
100
AcDbMText
 10
112150.310739409
 20
109799.9612583827
 30
0.0
 40
3.5
 41
0.0
 71
     9
 72
     5
  1

1001
ACAD
1000
MTEXTBEGIN
1070
    73
1070
     1
1070
    44
1040
1.0
1070
    74
1070
     0
1000
MTEXTEND
  0
MTEXT
  5
564C
330
1A
100
AcDbEntity
  8
SUNPOU
100
AcDbMText
 10
108819.1333204968
 20
110677.9087286761
 30
0.0
 40
10.5
 41
0.0
 71
     9
 72
     5
  1

1001
ACAD
1000
MTEXTBEGIN
1070
    73
1070
     1
1070
    44
1040
1.0
1070
    74
1070
     0
1000
MTEXTEND
  0
MTEXT
  5
564D
330
1A
100
AcDbEntity
  8
SUNPOU
100
AcDbMText
 10
110762.5405672062
 20
108876.8596487981
 30
0.0
 40
3.5
 41
0.0
 71
     9
 72
     5
  1

1001
ACAD
1000
MTEXTBEGIN
1070
    73
1070
     1
1070
    44
1040
1.0
1070
    74
1070
     0
1000
MTEXTEND
  0
MTEXT
  5
564E
330
1A
100
AcDbEntity
  8
SUNPOU
100
AcDbMText
 10
76303.05507956816
 20
68695.31179059812
 30
0.0
 40
10.5
 41
0.0
 71
     9
 72
     5
  1

1001
ACAD
1000
MTEXTBEGIN
1070
    73
1070
     1
1070
    44
1040
1.0
1070
    74
1070
     0
1000
MTEXTEND
  0
MTEXT
  5
564F
330
1A
100
AcDbEntity
  8
SUNPOU
100
AcDbMText
 10
79026.36128373271
 20
69099.99348217918
 30
0.0
 40
3.5
 41
0.0
 71
     9
 72
     5
  1

1001
ACAD
1000
MTEXTBEGIN
1070
    73
1070
     1
1070
    44
1040
1.0
1070
    74
1070
     0
1000
MTEXTEND
  0
MTEXT
  5
5650
330
1A
100
AcDbEntity
  8
SUNPOU
100
AcDbMText
 10
78234.00675862522
 20
65938.68764412436
 30
0.0
 40
10.5
 41
0.0
 71
     9
 72
     5
  1

1001
ACAD
1000
MTEXTBEGIN
1070
    73
1070
     1
1070
    44
1040
1.0
1070
    74
1070
     0
1000
MTEXTEND
  0
MTEXT
  5
5651
330
1A
100
AcDbEntity
  8
SUNPOU
100
AcDbMText
 10
80177.41400533465
 20
64137.63856424636
 30
0.0
 40
3.5
 41
0.0
 71
     9
 72
     5
  1

1001
ACAD
1000
MTEXTBEGIN
1070
    73
1070
     1
1070
    44
1040
1.0
1070
    74
1070
     0
1000
MTEXTEND
  0
MTEXT
  5
5652
330
1A
100
AcDbEntity
  8
SUNPOU
100
AcDbMText
 10
80122.50949592123
 20
64024.86668196205
 30
0.0
 40
3.5
 41
0.0
 71
     9
 72
     5
  1

1001
ACAD
1000
MTEXTBEGIN
1070
    73
1070
     1
1070
    44
1040
1.0
1070
    74
1070
     0
1000
MTEXTEND
  0
MTEXT
  5
5653
330
1A
100
AcDbEntity
  8
SUNPOU
100
AcDbMText
 10
79486.58135950133
 20
63213.54544089553
 30
0.0
 40
3.5
 41
0.0
 71
     9
 72
     5
  1

1001
ACAD
1000
MTEXTBEGIN
1070
    73
1070
     1
1070
    44
1040
1.0
1070
    74
1070
     0
1000
MTEXTEND
  0
MTEXT
  5
5654
330
1A
100
AcDbEntity
  8
SUNPOU
100
AcDbMText
 10
79485.3409400806
 20
63213.29746395804
 30
0.0
 40
10.5
 41
0.0
 71
     9
 72
     5
  1

1001
ACAD
1000
MTEXTBEGIN
1070
    73
1070
     1
1070
    44
1040
1.0
1070
    74
1070
     0
1000
MTEXTEND
  0
MTEXT
  5
5655
330
1A
100
AcDbEntity
  8
SUNPOU
100
AcDbMText
 10
85473.63363627567
 20
80747.76348077064
 30
0.0
 40
10.5
 41
0.0
 71
     9
 72
     5
  1

1001
ACAD
1000
MTEXTBEGIN
1070
    73
1070
     1
1070
    44
1040
1.0
1070
    74
1070
     0
1000
MTEXTEND
  0
MTEXT
  5
5656
330
1A
100
AcDbEntity
  8
SUNPOU
100
AcDbMText
 10
94195.80120219368
 20
88163.59801230809
 30
0.0
 40
10.5
 41
0.0
 71
     9
 72
     5
  1

1001
ACAD
1000
MTEXTBEGIN
1070
    73
1070
     1
1070
    44
1040
1.0
1070
    74
1070
     0
1000
MTEXTEND
  0
MTEXT
  5
5657
330
1A
100
AcDbEntity
  8
SUNPOU
100
AcDbMText
 10
113149.5599195236
 20
105630.1740648001
 30
0.0
 40
10.5
 41
0.0
 71
     9
 72
     5
  1

1001
ACAD
1000
MTEXTBEGIN
1070
    73
1070
     1
1070
    44
1040
1.0
1070
    74
1070
     0
1000
MTEXTEND
  0
MTEXT
  5
5658
330
1A
100
AcDbEntity
  8
SUNPOU
100
AcDbMText
 10
115092.967166233
 20
103829.1249849221
 30
0.0
 40
3.5
 41
0.0
 71
     9
 72
     5
  1

1001
ACAD
1000
MTEXTBEGIN
1070
    73
1070
     1
1070
    44
1040
1.0
1070
    74
1070
     0
1000
MTEXTEND
  0
MTEXT
  5
5659
330
1A
100
AcDbEntity
  8
SUNPOU
100
AcDbMText
 10
146219.1469988527
 20
146324.0706525794
 30
0.0
 40
10.5
 41
0.0
 71
     9
 72
     5
  1

1001
ACAD
1000
MTEXTBEGIN
1070
    73
1070
     1
1070
    44
1040
1.0
1070
    74
1070
     0
1000
MTEXTEND
  0
MTEXT
  5
565A
330
1A
100
AcDbEntity
  8
SUNPOU
100
AcDbMText
 10
148162.5542455621
 20
144523.0215727014
 30
0.0
 40
3.5
 41
0.0
 71
     9
 72
     5
  1

1001
ACAD
1000
MTEXTBEGIN
1070
    73
1070
     1
1070
    44
1040
1.0
1070
    74
1070
     0
1000
MTEXTEND
  0
MTEXT
  5
565B
330
1A
100
AcDbEntity
  8
SUNPOU
100
AcDbMText
 10
96659.41470464833
 20
92157.23580755453
 30
0.0
 40
10.5
 41
0.0
 71
     9
 72
     5
  1

1001
ACAD
1000
MTEXTBEGIN
1070
    73
1070
     1
1070
    44
1040
1.0
1070
    74
1070
     0
1000
MTEXTEND
  0
MTEXT
  5
565C
330
1A
100
AcDbEntity
  8
SUNPOU
100
AcDbMText
 10
82711.41460427234
 20
72984.83666844234
 30
0.0
 40
3.5
 41
0.0
 71
     7
 72
     5
  1

1001
ACAD
1000
MTEXTBEGIN
1070
    73
1070
     1
1070
    44
1040
1.0
1070
    74
1070
     0
1000
MTEXTEND
  0
MTEXT
  5
565D
330
1A
100
AcDbEntity
  8
SUNPOU
100
AcDbMText
 10
63696.58400126548
 20
60746.98539926055
 30
0.0
 40
10.5
 41
0.0
 71
     7
 72
     5
  1

1001
ACAD
1000
MTEXTBEGIN
1070
    73
1070
     1
1070
    44
1040
1.0
1070
    74
1070
     0
1000
MTEXTEND
  0
MTEXT
  5
565E
330
1A
100
AcDbEntity
  8
SUNPOU
100
AcDbMText
 10
51239.35573631738
 20
44902.05382116213
 30
0.0
 40
35.0
 41
0.0
 71
     9
 72
     5
  1

1001
ACAD
1000
MTEXTBEGIN
1070
    73
1070
     1
1070
    44
1040
1.0
1070
    74
1070
     0
1000
MTEXTEND
  0
MTEXT
  5
565F
330
1A
100
AcDbEntity
  8
SUNPOU
100
AcDbMText
 10
50147.84079389233
 20
45510.82923121084
 30
0.0
 40
350.0000004171781
 41
0.0
 71
     7
 72
     5
  1

1001
ACAD
1000
MTEXTBEGIN
1070
    73
1070
     1
1070
    44
1040
1.0
1070
    74
1070
     0
1000
MTEXTEND
  0
MTEXT
  5
5660
330
1A
100
AcDbEntity
  8
0
100
AcDbMText
 10
56191.79155183523
 20
43490.75159334705
 30
0.0
 40
8.0
 41
0.0
 71
     7
 72
     5
  1

1001
ACAD
1000
MTEXTBEGIN
1070
    73
1070
     1
1070
    44
1040
1.0
1070
    74
1070
     0
1000
MTEXTEND
  0
MTEXT
  5
5661
330
1A
100
AcDbEntity
  8
0
100
AcDbMText
 10
58477.14924173013
 20
44461.54188809812
 30
0.0
 40
8.0
 41
0.0
 71
     7
 72
     5
  1

1001
ACAD
1000
MTEXTBEGIN
1070
    73
1070
     1
1070
    44
1040
1.0
1070
    74
1070
     0
1000
MTEXTEND
  0
MTEXT
  5
5662
330
1A
100
AcDbEntity
  8
SUNPOU
100
AcDbMText
 10
61143.04626241227
 20
53973.65328047324
 30
0.0
 40
10.5
 41
0.0
 71
     1
 72
     5
  1

1001
ACAD
1000
MTEXTBEGIN
1070
    73
1070
     1
1070
    44
1040
1.0
1070
    74
1070
     0
1000
MTEXTEND
  0
MTEXT
  5
5663
330
1A
100
AcDbEntity
  8
SUNPOU
100
AcDbMText
 10
53212.12306647634
 20
53026.86014656028
 30
0.0
 40
10.5
 41
0.0
 71
     7
 72
     5
  1

1001
ACAD
1000
MTEXTBEGIN
1070
    73
1070
     1
1070
    44
1040
1.0
1070
    74
1070
     0
1000
MTEXTEND
  0
MTEXT
  5
5664
330
1A
100
AcDbEntity
  8
SUNPOU
100
AcDbMText
 10
56161.1067309891
 20
57927.53621840312
 30
0.0
 40
10.5
 41
0.0
 71
     7
 72
     5
  1

1001
ACAD
1000
MTEXTBEGIN
1070
    73
1070
     1
1070
    44
1040
1.0
1070
    74
1070
     0
1000
MTEXTEND
  0
MTEXT
  5
5665
330
1A
100
AcDbEntity
  8
SUNPOU
100
AcDbMText
 10
60670.18485893966
 20
60363.8369660232
 30
0.0
 40
10.5
 41
0.0
 71
     7
 72
     5
  1

1001
ACAD
1000
MTEXTBEGIN
1070
    73
1070
     1
1070
    44
1040
1.0
1070
    74
1070
     0
1000
MTEXTEND
  0
MTEXT
  5
5666
330
1A
100
AcDbEntity
  8
SUNPOU
100
AcDbMText
 10
44271.02274570799
 20
39361.43311641212
 30
0.0
 40
10.5
 41
0.0
 71
     7
 72
     5
  1

1001
ACAD
1000
MTEXTBEGIN
1070
    73
1070
     1
1070
    44
1040
1.0
1070
    74
1070
     0
1000
MTEXTEND
  0
MTEXT
  5
5667
330
1A
100
AcDbEntity
  8
SUNPOU
100
AcDbMText
 10
95462.54117960824
 20
85034.41368006038
 30
0.0
 40
10.5
 41
0.0
 71
     9
 72
     5
  1

1001
ACAD
1000
MTEXTBEGIN
1070
    73
1070
     1
1070
    44
1040
1.0
1070
    74
1070
     0
1000
MTEXTEND
  0
MTEXT
  5
5668
330
1A
100
AcDbEntity
  8
SUNPOU
100
AcDbMText
 10
104184.7087455262
 20
92450.24821159784
 30
0.0
 40
10.5
 41
0.0
 71
     9
 72
     5
  1

1001
ACAD
1000
MTEXTBEGIN
1070
    73
1070
     1
1070
    44
1040
1.0
1070
    74
1070
     0
1000
MTEXTEND
  0
MTEXT
  5
5669
330
1A
100
AcDbEntity
  8
SUNPOU
100
AcDbMText
 10
123138.4674628562
 20
109916.8242640898
 30
0.0
 40
10.5
 41
0.0
 71
     9
 72
     5
  1

1001
ACAD
1000
MTEXTBEGIN
1070
    73
1070
     1
1070
    44
1040
1.0
1070
    74
1070
     0
1000
MTEXTEND
  0
MTEXT
  5
566A
330
1A
100
AcDbEntity
  8
SUNPOU
100
AcDbMText
 10
125081.8747095656
 20
108115.7751842118
 30
0.0
 40
3.5
 41
0.0
 71
     9
 72
     5
  1

1001
ACAD
1000
MTEXTBEGIN
1070
    73
1070
     1
1070
    44
1040
1.0
1070
    74
1070
     0
1000
MTEXTEND
  0
MTEXT
  5
566B
330
1A
100
AcDbEntity
  8
SUNPOU
100
AcDbMText
 10
156208.0545421853
 20
150610.7208518691
 30
0.0
 40
10.5
 41
0.0
 71
     9
 72
     5
  1

1001
ACAD
1000
MTEXTBEGIN
1070
    73
1070
     1
1070
    44
1040
1.0
1070
    74
1070
     0
1000
MTEXTEND
  0
MTEXT
  5
566C
330
1A
100
AcDbEntity
  8
SUNPOU
100
AcDbMText
 10
158151.4617888947
 20
148809.6717719911
 30
0.0
 40
3.5
 41
0.0
 71
     9
 72
     5
  1

1001
ACAD
1000
MTEXTBEGIN
1070
    73
1070
     1
1070
    44
1040
1.0
1070
    74
1070
     0
1000
MTEXTEND
  0
MTEXT
  5
566D
330
1A
100
AcDbEntity
  8
SUNPOU
100
AcDbMText
 10
106648.3222479809
 20
96443.88600684427
 30
0.0
 40
10.5
 41
0.0
 71
     9
 72
     5
  1

1001
ACAD
1000
MTEXTBEGIN
1070
    73
1070
     1
1070
    44
1040
1.0
1070
    74
1070
     0
1000
MTEXTEND
  0
MTEXT
  5
566E
330
1A
100
AcDbEntity
  8
SUNPOU
100
AcDbMText
 10
92700.3221476049
 20
77271.48686773207
 30
0.0
 40
3.5
 41
0.0
 71
     7
 72
     5
  1

1001
ACAD
1000
MTEXTBEGIN
1070
    73
1070
     1
1070
    44
1040
1.0
1070
    74
1070
     0
1000
MTEXTEND
  0
MTEXT
  5
566F
330
1A
100
AcDbEntity
  8
SUNPOU
100
AcDbMText
 10
73685.49154459806
 20
65033.63559855027
 30
0.0
 40
10.5
 41
0.0
 71
     7
 72
     5
  1

1001
ACAD
1000
MTEXTBEGIN
1070
    73
1070
     1
1070
    44
1040
1.0
1070
    74
1070
     0
1000
MTEXTEND
  0
MTEXT
  5
5670
330
1A
100
AcDbEntity
  8
SUNPOU
100
AcDbMText
 10
61228.26327964995
 20
49188.70402045185
 30
0.0
 40
35.0
 41
0.0
 71
     9
 72
     5
  1

1001
ACAD
1000
MTEXTBEGIN
1070
    73
1070
     1
1070
    44
1040
1.0
1070
    74
1070
     0
1000
MTEXTEND
  0
MTEXT
  5
5671
330
1A
100
AcDbEntity
  8
SUNPOU
100
AcDbMText
 10
60136.74833722491
 20
49797.47943050056
 30
0.0
 40
350.0000004171781
 41
0.0
 71
     7
 72
     5
  1

1001
ACAD
1000
MTEXTBEGIN
1070
    73
1070
     1
1070
    44
1040
1.0
1070
    74
1070
     0
1000
MTEXTEND
  0
MTEXT
  5
5672
330
1A
100
AcDbEntity
  8
0
100
AcDbMText
 10
66180.69909516782
 20
47777.40179263678
 30
0.0
 40
8.0
 41
0.0
 71
     7
 72
     5
  1

1001
ACAD
1000
MTEXTBEGIN
1070
    73
1070
     1
1070
    44
1040
1.0
1070
    74
1070
     0
1000
MTEXTEND
  0
MTEXT
  5
5673
330
1A
100
AcDbEntity
  8
0
100
AcDbMText
 10
68466.05678506271
 20
48748.19208738784
 30
0.0
 40
8.0
 41
0.0
 71
     7
 72
     5
  1

1001
ACAD
1000
MTEXTBEGIN
1070
    73
1070
     1
1070
    44
1040
1.0
1070
    74
1070
     0
1000
MTEXTEND
  0
MTEXT
  5
5674
330
1A
100
AcDbEntity
  8
SUNPOU
100
AcDbMText
 10
71131.95380574485
 20
58260.30347976296
 30
0.0
 40
10.5
 41
0.0
 71
     1
 72
     5
  1

1001
ACAD
1000
MTEXTBEGIN
1070
    73
1070
     1
1070
    44
1040
1.0
1070
    74
1070
     0
1000
MTEXTEND
  0
MTEXT
  5
5675
330
1A
100
AcDbEntity
  8
SUNPOU
100
AcDbMText
 10
63201.03060980891
 20
57313.51034585002
 30
0.0
 40
10.5
 41
0.0
 71
     7
 72
     5
  1

1001
ACAD
1000
MTEXTBEGIN
1070
    73
1070
     1
1070
    44
1040
1.0
1070
    74
1070
     0
1000
MTEXTEND
  0
MTEXT
  5
5676
330
1A
100
AcDbEntity
  8
SUNPOU
100
AcDbMText
 10
66150.01427432169
 20
62214.18641769286
 30
0.0
 40
10.5
 41
0.0
 71
     7
 72
     5
  1

1001
ACAD
1000
MTEXTBEGIN
1070
    73
1070
     1
1070
    44
1040
1.0
1070
    74
1070
     0
1000
MTEXTEND
  0
MTEXT
  5
5677
330
1A
100
AcDbEntity
  8
SUNPOU
100
AcDbMText
 10
70659.09240227225
 20
64650.48716531294
 30
0.0
 40
10.5
 41
0.0
 71
     7
 72
     5
  1

1001
ACAD
1000
MTEXTBEGIN
1070
    73
1070
     1
1070
    44
1040
1.0
1070
    74
1070
     0
1000
MTEXTEND
  0
MTEXT
  5
5678
330
1A
100
AcDbEntity
  8
SUNPOU
100
AcDbMText
 10
54259.93028904056
 20
43648.08331570185
 30
0.0
 40
10.5
 41
0.0
 71
     7
 72
     5
  1

1001
ACAD
1000
MTEXTBEGIN
1070
    73
1070
     1
1070
    44
1040
1.0
1070
    74
1070
     0
1000
MTEXTEND
  0
MTEXT
  5
5679
330
1A
100
AcDbEntity
  8
SUNPOU
100
AcDbMText
 10
56070.69320041551
 20
49975.4973031804
 30
0.0
 40
10.5
 41
0.0
 71
     9
 72
     5
  1

1001
ACAD
1000
MTEXTBEGIN
1070
    73
1070
     1
1070
    44
1040
1.0
1070
    74
1070
     0
1000
MTEXTEND
  0
MTEXT
  5
567A
330
1A
100
AcDbEntity
  8
SUNPOU
100
AcDbMText
 10
64792.86076633348
 20
57391.33183471788
 30
0.0
 40
10.5
 41
0.0
 71
     9
 72
     5
  1

1001
ACAD
1000
MTEXTBEGIN
1070
    73
1070
     1
1070
    44
1040
1.0
1070
    74
1070
     0
1000
MTEXTEND
  0
MTEXT
  5
567B
330
1A
100
AcDbEntity
  8
SUNPOU
100
AcDbMText
 10
83746.61948366345
 20
74857.90788720994
 30
0.0
 40
10.5
 41
0.0
 71
     9
 72
     5
  1

1001
ACAD
1000
MTEXTBEGIN
1070
    73
1070
     1
1070
    44
1040
1.0
1070
    74
1070
     0
1000
MTEXTEND
  0
MTEXT
  5
567C
330
1A
100
AcDbEntity
  8
SUNPOU
100
AcDbMText
 10
85690.02673037287
 20
73056.85880733192
 30
0.0
 40
3.5
 41
0.0
 71
     9
 72
     5
  1

1001
ACAD
1000
MTEXTBEGIN
1070
    73
1070
     1
1070
    44
1040
1.0
1070
    74
1070
     0
1000
MTEXTEND
  0
MTEXT
  5
567D
330
1A
100
AcDbEntity
  8
SUNPOU
100
AcDbMText
 10
116816.2065629925
 20
115551.8044749892
 30
0.0
 40
10.5
 41
0.0
 71
     9
 72
     5
  1

1001
ACAD
1000
MTEXTBEGIN
1070
    73
1070
     1
1070
    44
1040
1.0
1070
    74
1070
     0
1000
MTEXTEND
  0
MTEXT
  5
567E
330
1A
100
AcDbEntity
  8
SUNPOU
100
AcDbMText
 10
118759.613809702
 20
113750.7553951112
 30
0.0
 40
3.5
 41
0.0
 71
     9
 72
     5
  1

1001
ACAD
1000
MTEXTBEGIN
1070
    73
1070
     1
1070
    44
1040
1.0
1070
    74
1070
     0
1000
MTEXTEND
  0
MTEXT
  5
567F
330
1A
100
AcDbEntity
  8
SUNPOU
100
AcDbMText
 10
67256.47426878814
 20
61384.96962996432
 30
0.0
 40
10.5
 41
0.0
 71
     9
 72
     5
  1

1001
ACAD
1000
MTEXTBEGIN
1070
    73
1070
     1
1070
    44
1040
1.0
1070
    74
1070
     0
1000
MTEXTEND
  0
MTEXT
  5
5680
330
1A
100
AcDbEntity
  8
SUNPOU
100
AcDbMText
 10
53308.47416841216
 20
42212.57049085211
 30
0.0
 40
3.5
 41
0.0
 71
     7
 72
     5
  1

1001
ACAD
1000
MTEXTBEGIN
1070
    73
1070
     1
1070
    44
1040
1.0
1070
    74
1070
     0
1000
MTEXTEND
  0
MTEXT
  5
5681
330
1A
100
AcDbEntity
  8
SUNPOU
100
AcDbMText
 10
67000.82485118274
 20
51571.63371187345
 30
0.0
 40
10.5
 41
0.0
 71
     9
 72
     5
  1

1001
ACAD
1000
MTEXTBEGIN
1070
    73
1070
     1
1070
    44
1040
1.0
1070
    74
1070
     0
1000
MTEXTEND
  0
MTEXT
  5
5682
330
1A
100
AcDbEntity
  8
SUNPOU
100
AcDbMText
 10
75722.99241710071
 20
58987.46824341094
 30
0.0
 40
10.5
 41
0.0
 71
     9
 72
     5
  1

1001
ACAD
1000
MTEXTBEGIN
1070
    73
1070
     1
1070
    44
1040
1.0
1070
    74
1070
     0
1000
MTEXTEND
  0
MTEXT
  5
5683
330
1A
100
AcDbEntity
  8
SUNPOU
100
AcDbMText
 10
94676.75113443068
 20
76454.04429590299
 30
0.0
 40
10.5
 41
0.0
 71
     9
 72
     5
  1

1001
ACAD
1000
MTEXTBEGIN
1070
    73
1070
     1
1070
    44
1040
1.0
1070
    74
1070
     0
1000
MTEXTEND
  0
MTEXT
  5
5684
330
1A
100
AcDbEntity
  8
SUNPOU
100
AcDbMText
 10
96620.1583811401
 20
74652.99521602498
 30
0.0
 40
3.5
 41
0.0
 71
     9
 72
     5
  1

1001
ACAD
1000
MTEXTBEGIN
1070
    73
1070
     1
1070
    44
1040
1.0
1070
    74
1070
     0
1000
MTEXTEND
  0
MTEXT
  5
5685
330
1A
100
AcDbEntity
  8
SUNPOU
100
AcDbMText
 10
127746.3382137598
 20
117147.9408836823
 30
0.0
 40
10.5
 41
0.0
 71
     9
 72
     5
  1

1001
ACAD
1000
MTEXTBEGIN
1070
    73
1070
     1
1070
    44
1040
1.0
1070
    74
1070
     0
1000
MTEXTEND
  0
MTEXT
  5
5686
330
1A
100
AcDbEntity
  8
SUNPOU
100
AcDbMText
 10
129689.7454604692
 20
115346.8918038043
 30
0.0
 40
3.5
 41
0.0
 71
     9
 72
     5
  1

1001
ACAD
1000
MTEXTBEGIN
1070
    73
1070
     1
1070
    44
1040
1.0
1070
    74
1070
     0
1000
MTEXTEND
  0
MTEXT
  5
5687
330
1A
100
AcDbEntity
  8
SUNPOU
100
AcDbMText
 10
78186.60591955537
 20
62981.10603865738
 30
0.0
 40
10.5
 41
0.0
 71
     9
 72
     5
  1

1001
ACAD
1000
MTEXTBEGIN
1070
    73
1070
     1
1070
    44
1040
1.0
1070
    74
1070
     0
1000
MTEXTEND
  0
MTEXT
  5
5688
330
1A
100
AcDbEntity
  8
SUNPOU
100
AcDbMText
 10
64238.60581917939
 20
43808.70689954517
 30
0.0
 40
3.5
 41
0.0
 71
     7
 72
     5
  1

1001
ACAD
1000
MTEXTBEGIN
1070
    73
1070
     1
1070
    44
1040
1.0
1070
    74
1070
     0
1000
MTEXTEND
  0
MTEXT
  5
5689
330
1A
100
AcDbEntity
  8
SUNPOU
100
AcDbMText
 10
33428.13481137435
 20
32770.04710035564
 30
0.0
 40
10.5
 41
0.0
 71
     9
 72
     5
  1

1001
ACAD
1000
MTEXTBEGIN
1070
    73
1070
     1
1070
    44
1040
1.0
1070
    74
1070
     0
1000
MTEXTEND
  0
MTEXT
  5
568A
330
1A
100
AcDbEntity
  8
SUNPOU
100
AcDbMText
 10
52381.89352870432
 20
50236.62315284769
 30
0.0
 40
10.5
 41
0.0
 71
     9
 72
     5
  1

1001
ACAD
1000
MTEXTBEGIN
1070
    73
1070
     1
1070
    44
1040
1.0
1070
    74
1070
     0
1000
MTEXTEND
  0
MTEXT
  5
568B
330
1A
100
AcDbEntity
  8
SUNPOU
100
AcDbMText
 10
54325.30077541374
 20
48435.57407296968
 30
0.0
 40
3.5
 41
0.0
 71
     9
 72
     5
  1

1001
ACAD
1000
MTEXTBEGIN
1070
    73
1070
     1
1070
    44
1040
1.0
1070
    74
1070
     0
1000
MTEXTEND
  0
MTEXT
  5
568C
330
1A
100
AcDbEntity
  8
SUNPOU
100
AcDbMText
 10
85451.48060803343
 20
90930.51974062703
 30
0.0
 40
10.5
 41
0.0
 71
     9
 72
     5
  1

1001
ACAD
1000
MTEXTBEGIN
1070
    73
1070
     1
1070
    44
1040
1.0
1070
    74
1070
     0
1000
MTEXTEND
  0
MTEXT
  5
568D
330
1A
100
AcDbEntity
  8
SUNPOU
100
AcDbMText
 10
87394.88785474286
 20
89129.47066074901
 30
0.0
 40
3.5
 41
0.0
 71
     9
 72
     5
  1

1001
ACAD
1000
MTEXTBEGIN
1070
    73
1070
     1
1070
    44
1040
1.0
1070
    74
1070
     0
1000
MTEXTEND
  0
MTEXT
  5
568E
330
1A
100
AcDbEntity
  8
SUNPOU
100
AcDbMText
 10
35891.74831382901
 20
36763.68489560208
 30
0.0
 40
10.5
 41
0.0
 71
     9
 72
     5
  1

1001
ACAD
1000
MTEXTBEGIN
1070
    73
1070
     1
1070
    44
1040
1.0
1070
    74
1070
     0
1000
MTEXTEND
  0
MTEXT
  5
568F
330
1A
100
AcDbEntity
  8
SUNPOU
100
AcDbMText
 10
21943.74821345303
 20
17591.28575648986
 30
0.0
 40
3.5
 41
0.0
 71
     7
 72
     5
  1

1001
ACAD
1000
MTEXTBEGIN
1070
    73
1070
     1
1070
    44
1040
1.0
1070
    74
1070
     0
1000
MTEXTEND
  0
MTEXT
  5
11084
330
1A
100
AcDbEntity
  8
ZISSEN1
100
AcDbMText
 10
-1364.057287572924
 20
1690.182402445169
 30
0.0
 40
5.0
 41
108.3598999999999
 71
     1
 72
     5
  1
ADB-2F12DB  No.SS0001f82
1001
ACAD
1000
MTEXTBEGIN
1070
    73
1070
     1
1070
    44
1040
1.0
1070
    74
1070
     0
1000
MTEXTEND
1000
MTEXTBEGIN
1070
    73
1070
     1
1070
    44
1040
1.0
1070
    74
1070
     0
1000
MTEXTEND
1000
MTEXTBEGIN
1070
    73
1070
     1
1070
    44
1040
1.0
1070
    74
1070
     0
1000
MTEXTEND
  0
XLINE
  5
126D7
330
1A
100
AcDbEntity
  8
SOUZOUSEN
100
AcDbXline
 10
-2343.442450720007
 20
3248.111410528631
 30
0.0
 11
0.0
 21
1.0
 31
0.0
  0
XLINE
  5
126D8
330
1A
100
AcDbEntity
  8
SOUZOUSEN
100
AcDbXline
 10
-2343.419932224668
 20
3244.179140051123
 30
0.0
 11
0.0
 21
-1.0
 31
0.0
  0
LINE
  5
1303C
330
1A
100
AcDbEntity
  8
ZISSEN1
100
AcDbLine
 10
-1368.034619080269
 20
1618.062997212529
 30
0.0
 11
-1368.034619080268
 21
1633.058141240965
 31
0.0
  0
LINE
  5
1303D
330
1A
100
AcDbEntity
  8
ZISSEN1
100
AcDbLine
 10
-1333.032750367515
 20
1605.060228431734
 30
0.0
 11
-1360.530203051095
 21
1605.060228431734
 31
0.0
  0
LINE
  5
1303E
330
1A
100
AcDbEntity
  8
ZISSEN1
100
AcDbLine
 10
-1376.534619080268
 20
1616.06299721253
 30
0.0
 11
-1370.034619080269
 21
1616.062997212529
 31
0.0
  0
LINE
  5
1303F
330
1A
100
AcDbEntity
  8
ZISSEN1
100
AcDbLine
 10
-1305.534619080268
 20
1595.060228431734
 30
0.0
 11
-1313.532750367514
 21
1595.060228431735
 31
0.0
  0
LINE
  5
13040
330
1A
100
AcDbEntity
  8
ZISSEN1
100
AcDbLine
 10
-1312.032750367515
 20
1595.060228431735
 30
0.0
 11
-1312.032750367515
 21
1605.060228431735
 31
0.0
  0
LINE
  5
13041
330
1A
100
AcDbEntity
  8
ZISSEN1
100
AcDbLine
 10
-1360.530203051095
 20
1605.060228431734
 30
0.0
 11
-1360.530203051095
 21
1595.060228431734
 31
0.0
  0
LINE
  5
13042
330
1A
100
AcDbEntity
  8
ZISSEN1
100
AcDbLine
 10
-1360.530203051095
 20
1595.060228431734
 30
0.0
 11
-1375.534619080268
 21
1595.060228431734
 31
0.0
  0
LINE
  5
13043
330
1A
100
AcDbEntity
  8
ZISSEN1
100
AcDbLine
 10
-1376.534619080268
 20
1600.060228431734
 30
0.0
 11
-1376.534619080268
 21
1615.557586870396
 31
0.0
  0
LINE
  5
13044
330
1A
100
AcDbEntity
  8
ZISSEN1
100
AcDbLine
 10
-1368.034619080268
 20
1633.058141240965
 30
0.0
 11
-1376.534619080268
 21
1633.058141240965
 31
0.0
  0
LINE
  5
13045
330
1A
100
AcDbEntity
  8
ZISSEN1
100
AcDbLine
 10
-1376.534619080268
 20
1631.558141240965
 30
0.0
 11
-1376.534619080268
 21
1639.060228431734
 31
0.0
  0
LINE
  5
13046
330
1A
100
AcDbEntity
  8
ZISSEN1
100
AcDbLine
 10
-1375.534619080268
 20
1640.060228431734
 30
0.0
 11
-1305.534619080268
 21
1640.060228431735
 31
0.0
  0
ARC
  5
13047
330
1A
100
AcDbEntity
  8
ZISSEN1
100
AcDbCircle
 10
-1304.534619080267
 20
1595.060228431733
 30
0.0
 40
1.000000000000909
100
AcDbArc
 50
90.00000000002605
 51
179.9999999999479
  0
ARC
  5
13048
330
1A
100
AcDbEntity
  8
ZISSEN1
100
AcDbCircle
 10
-1376.534619080268
 20
1595.060228431733
 30
0.0
 40
1.000000000000454
100
AcDbArc
 50
0.0000000000260424
 51
89.99999999997394
  0
ARC
  5
13049
330
1A
100
AcDbEntity
  8
ZISSEN1
100
AcDbCircle
 10
-1376.534619080268
 20
1640.060228431734
 30
0.0
 40
0.9999999999995452
100
AcDbArc
 50
269.9999999999739
 51
0.0000000000260424
  0
ARC
  5
1304A
330
1A
100
AcDbEntity
  8
ZISSEN1
100
AcDbCircle
 10
-1304.534619080268
 20
1640.060228431735
 30
0.0
 40
1.0
100
AcDbArc
 50
180.0
 51
269.9999999999739
  0
LINE
  5
1304B
330
1A
100
AcDbEntity
  8
ZISSEN1
100
AcDbLine
 10
-1304.534619080268
 20
1596.060228431735
 30
0.0
 11
-1304.534619080268
 21
1639.060228431735
 31
0.0
  0
LINE
  5
1304C
330
1A
100
AcDbEntity
  8
ZISSEN1
100
AcDbLine
 10
-1305.534619080268
 20
1640.060228431735
 30
0.0
 11
-1375.534619080268
 21
1640.060228431734
 31
0.0
  0
LINE
  5
1304D
330
1A
100
AcDbEntity
  8
ZISSEN1
100
AcDbLine
 10
-1376.534619080268
 20
1639.060228431734
 30
0.0
 11
-1376.534619080268
 21
1596.060228431734
 31
0.0
  0
LINE
  5
1304E
330
1A
100
AcDbEntity
  8
ZISSEN1
100
AcDbLine
 10
-1375.534619080268
 20
1595.060228431734
 30
0.0
 11
-1308.534619080268
 21
1595.060228431734
 31
0.0
  0
LINE
  5
1304F
330
1A
100
AcDbEntity
  8
ZISSEN1
100
AcDbLine
 10
-1305.134619080268
 20
1610.710228431734
 30
0.0
 11
-1311.934619080268
 21
1610.710228431734
 31
0.0
  0
LINE
  5
13050
330
1A
100
AcDbEntity
  8
ZISSEN1
100
AcDbLine
 10
-1311.934619080268
 20
1633.110228431734
 30
0.0
 11
-1305.134619080268
 21
1633.110228431734
 31
0.0
  0
LINE
  5
13051
330
1A
100
AcDbEntity
  8
ZISSEN1
100
AcDbLine
 10
-1305.834619080268
 20
1611.560228431735
 30
0.0
 11
-1311.234619080268
 21
1611.560228431735
 31
0.0
  0
LINE
  5
13052
330
1A
100
AcDbEntity
  8
ZISSEN1
100
AcDbLine
 10
-1311.234619080268
 20
1632.260228431734
 30
0.0
 11
-1305.834619080268
 21
1632.260228431734
 31
0.0
  0
LINE
  5
13053
330
1A
100
AcDbEntity
  8
ZISSEN1
100
AcDbLine
 10
-1305.834619080268
 20
1611.560228431735
 30
0.0
 11
-1311.234619080268
 21
1611.560228431735
 31
0.0
  0
LINE
  5
13054
330
1A
100
AcDbEntity
  8
ZISSEN1
100
AcDbLine
 10
-1311.234619080268
 20
1611.560228431735
 30
0.0
 11
-1305.834619080268
 21
1611.560228431735
 31
0.0
  0
LWPOLYLINE
  5
1305C
330
1A
100
AcDbEntity
  8
ZISSEN1
100
AcDbPolyline
 90
        4
 70
     1
 43
0.0
 10
-1311.634619080268
 20
1619.160228431734
 10
-1311.634619080268
 20
1617.910228431735
 10
-1311.034619080269
 20
1617.910228431735
 10
-1311.034619080269
 20
1619.160228431734
  0
LWPOLYLINE
  5
1305D
330
1A
100
AcDbEntity
  8
ZISSEN1
100
AcDbPolyline
 90
        4
 70
     1
 43
0.0
 10
-1311.634619080268
 20
1625.910228431734
 10
-1311.634619080268
 20
1624.660228431734
 10
-1311.034619080268
 20
1624.660228431734
 10
-1311.034619080268
 20
1625.910228431734
  0
LINE
  5
1305E
330
1A
100
AcDbEntity
  8
ZISSEN1
100
AcDbLine
 10
-1311.934619080268
 20
1624.460228431734
 30
0.0
 11
-1311.934619080268
 21
1619.360228431734
 31
0.0
  0
LINE
  5
1305F
330
1A
100
AcDbEntity
  8
ZISSEN1
100
AcDbLine
 10
-1311.934619080268
 20
1610.710228431734
 30
0.0
 11
-1311.934619080268
 21
1617.710228431735
 31
0.0
  0
LINE
  5
13060
330
1A
100
AcDbEntity
  8
ZISSEN1
100
AcDbLine
 10
-1311.934619080268
 20
1626.110228431734
 30
0.0
 11
-1311.934619080268
 21
1633.110228431734
 31
0.0
  0
LINE
  5
13061
330
1A
100
AcDbEntity
  8
ZISSEN1
100
AcDbLine
 10
-1311.034619080268
 20
1624.460228431734
 30
0.0
 11
-1311.934619080268
 21
1624.460228431734
 31
0.0
  0
LINE
  5
13062
330
1A
100
AcDbEntity
  8
ZISSEN1
100
AcDbLine
 10
-1311.034619080268
 20
1626.110228431734
 30
0.0
 11
-1311.934619080268
 21
1626.110228431734
 31
0.0
  0
LINE
  5
13063
330
1A
100
AcDbEntity
  8
ZISSEN1
100
AcDbLine
 10
-1311.034619080269
 20
1617.710228431735
 30
0.0
 11
-1311.934619080268
 21
1617.710228431735
 31
0.0
  0
LINE
  5
13064
330
1A
100
AcDbEntity
  8
ZISSEN1
100
AcDbLine
 10
-1311.034619080269
 20
1619.360228431734
 30
0.0
 11
-1311.934619080268
 21
1619.360228431734
 31
0.0
  0
LINE
  5
13065
330
1A
100
AcDbEntity
  8
ZISSEN1
100
AcDbLine
 10
-1311.034619080269
 20
1613.160228431735
 30
0.0
 11
-1311.934619080268
 21
1613.160228431735
 31
0.0
  0
LINE
  5
13066
330
1A
100
AcDbEntity
  8
ZISSEN1
100
AcDbLine
 10
-1311.034619080268
 20
1630.660228431735
 30
0.0
 11
-1311.034619080269
 21
1613.160228431735
 31
0.0
  0
LINE
  5
13067
330
1A
100
AcDbEntity
  8
ZISSEN1
100
AcDbLine
 10
-1311.934619080268
 20
1630.660228431735
 30
0.0
 11
-1311.034619080268
 21
1630.660228431735
 31
0.0
  0
LINE
  5
13068
330
1A
100
AcDbEntity
  8
ZISSEN1
100
AcDbLine
 10
-1311.234619080268
 20
1631.260228431734
 30
0.0
 11
-1311.234619080268
 21
1632.260228431734
 31
0.0
  0
LINE
  5
13069
330
1A
100
AcDbEntity
  8
ZISSEN1
100
AcDbLine
 10
-1310.434619080268
 20
1631.260228431734
 30
0.0
 11
-1311.234619080268
 21
1631.260228431734
 31
0.0
  0
LINE
  5
1306A
330
1A
100
AcDbEntity
  8
ZISSEN1
100
AcDbLine
 10
-1310.434619080268
 20
1612.560228431734
 30
0.0
 11
-1310.434619080268
 21
1631.260228431734
 31
0.0
  0
LINE
  5
1306B
330
1A
100
AcDbEntity
  8
ZISSEN1
100
AcDbLine
 10
-1311.234619080268
 20
1612.560228431734
 30
0.0
 11
-1310.434619080268
 21
1612.560228431734
 31
0.0
  0
LINE
  5
1306C
330
1A
100
AcDbEntity
  8
ZISSEN1
100
AcDbLine
 10
-1311.234619080268
 20
1611.560228431735
 30
0.0
 11
-1311.234619080268
 21
1612.560228431734
 31
0.0
  0
LINE
  5
1306D
330
1A
100
AcDbEntity
  8
ZISSEN1
100
AcDbLine
 10
-1305.134619080268
 20
1633.110228431734
 30
0.0
 11
-1305.134619080268
 21
1610.710228431734
 31
0.0
  0
LINE
  5
1306E
330
1A
100
AcDbEntity
  8
ZISSEN1
100
AcDbLine
 10
-1305.834619080268
 20
1632.260228431734
 30
0.0
 11
-1305.834619080268
 21
1611.560228431735
 31
0.0
  0
LINE
  5
13077
330
1A
100
AcDbEntity
  8
ZISSEN1
100
AcDbLine
 10
-1366.280203051095
 20
1597.060228431735
 30
0.0
 11
-1363.780203051095
 21
1597.060228431735
 31
0.0
  0
LINE
  5
13078
330
1A
100
AcDbEntity
  8
ZISSEN1
100
AcDbLine
 10
-1363.180203051094
 20
1597.660228431734
 30
0.0
 11
-1366.880203051094
 21
1597.660228431734
 31
0.0
  0
LINE
  5
13079
330
1A
100
AcDbEntity
  8
ZISSEN1
100
AcDbLine
 10
-1367.880203051094
 20
1602.260228431735
 30
0.0
 11
-1362.180203051094
 21
1602.260228431735
 31
0.0
  0
LINE
  5
1307A
330
1A
100
AcDbEntity
  8
ZISSEN1
100
AcDbLine
 10
-1368.730203051095
 20
1602.960228431735
 30
0.0
 11
-1361.330203051095
 21
1602.960228431735
 31
0.0
  0
LINE
  5
1307C
330
1A
100
AcDbEntity
  8
ZISSEN1
100
AcDbLine
 10
-1367.880203051094
 20
1596.860228431735
 30
0.0
 11
-1367.880203051094
 21
1602.260228431735
 31
0.0
  0
LINE
  5
1307D
330
1A
100
AcDbEntity
  8
ZISSEN1
100
AcDbLine
 10
-1368.730203051095
 20
1596.160228431735
 30
0.0
 11
-1368.730203051095
 21
1602.960228431735
 31
0.0
  0
LINE
  5
1307E
330
1A
100
AcDbEntity
  8
ZISSEN1
100
AcDbLine
 10
-1366.880203051094
 20
1597.660228431734
 30
0.0
 11
-1366.880203051094
 21
1596.860228431735
 31
0.0
  0
LINE
  5
1307F
330
1A
100
AcDbEntity
  8
ZISSEN1
100
AcDbLine
 10
-1366.880203051094
 20
1596.860228431735
 30
0.0
 11
-1367.880203051094
 21
1596.860228431735
 31
0.0
  0
LINE
  5
13080
330
1A
100
AcDbEntity
  8
ZISSEN1
100
AcDbLine
 10
-1366.280203051095
 20
1596.160228431735
 30
0.0
 11
-1366.280203051095
 21
1597.060228431735
 31
0.0
  0
LINE
  5
13082
330
1A
100
AcDbEntity
  8
ZISSEN1
100
AcDbLine
 10
-1366.280203051095
 20
1596.160228431735
 30
0.0
 11
-1368.730203051095
 21
1596.160228431735
 31
0.0
  0
LINE
  5
13084
330
1A
100
AcDbEntity
  8
ZISSEN1
100
AcDbLine
 10
-1362.180203051094
 20
1596.860228431735
 30
0.0
 11
-1362.180203051094
 21
1602.260228431735
 31
0.0
  0
LINE
  5
13085
330
1A
100
AcDbEntity
  8
ZISSEN1
100
AcDbLine
 10
-1362.180203051094
 20
1602.260228431735
 30
0.0
 11
-1362.180203051094
 21
1596.860228431735
 31
0.0
  0
LINE
  5
13086
330
1A
100
AcDbEntity
  8
ZISSEN1
100
AcDbLine
 10
-1362.180203051094
 20
1602.260228431735
 30
0.0
 11
-1362.180203051094
 21
1596.860228431735
 31
0.0
  0
LINE
  5
13087
330
1A
100
AcDbEntity
  8
ZISSEN1
100
AcDbLine
 10
-1361.330203051095
 20
1602.960228431735
 30
0.0
 11
-1361.330203051095
 21
1596.160228431735
 31
0.0
  0
LINE
  5
13088
330
1A
100
AcDbEntity
  8
ZISSEN1
100
AcDbLine
 10
-1362.180203051094
 20
1596.860228431735
 30
0.0
 11
-1363.180203051094
 21
1596.860228431735
 31
0.0
  0
LINE
  5
13089
330
1A
100
AcDbEntity
  8
ZISSEN1
100
AcDbLine
 10
-1363.180203051094
 20
1596.860228431735
 30
0.0
 11
-1363.180203051094
 21
1597.660228431734
 31
0.0
  0
LINE
  5
1308A
330
1A
100
AcDbEntity
  8
ZISSEN1
100
AcDbLine
 10
-1363.780203051095
 20
1597.060228431735
 30
0.0
 11
-1363.780203051095
 21
1596.160228431735
 31
0.0
  0
LINE
  5
1308C
330
1A
100
AcDbEntity
  8
ZISSEN1
100
AcDbLine
 10
-1361.330203051095
 20
1596.160228431735
 30
0.0
 11
-1363.780203051095
 21
1596.160228431735
 31
0.0
  0
LWPOLYLINE
  5
1308D
330
1A
100
AcDbEntity
  8
ZISSEN1
100
AcDbPolyline
 90
        4
 70
     1
 43
0.0
 10
-1365.655203051095
 20
1596.460228431735
 10
-1364.405203051095
 20
1596.460228431735
 10
-1364.405203051095
 20
1597.060228431735
 10
-1365.655203051095
 20
1597.060228431735
  0
LINE
  5
13095
330
1A
100
AcDbEntity
  8
ZISSEN1
100
AcDbLine
 10
-1318.504619080268
 20
1608.360228431733
 30
0.0
 11
-1317.744619080268
 21
1608.360228431733
 31
0.0
  0
LINE
  5
13096
330
1A
100
AcDbEntity
  8
ZISSEN1
100
AcDbLine
 10
-1319.774619080268
 20
1608.360228431733
 30
0.0
 11
-1319.014619080268
 21
1608.360228431733
 31
0.0
  0
LINE
  5
13097
330
1A
100
AcDbEntity
  8
ZISSEN1
100
AcDbLine
 10
-1321.044619080268
 20
1608.360228431733
 30
0.0
 11
-1320.284619080268
 21
1608.360228431733
 31
0.0
  0
LINE
  5
13098
330
1A
100
AcDbEntity
  8
ZISSEN1
100
AcDbLine
 10
-1322.314619080268
 20
1608.360228431734
 30
0.0
 11
-1321.554619080268
 21
1608.360228431733
 31
0.0
  0
LINE
  5
13099
330
1A
100
AcDbEntity
  8
ZISSEN1
100
AcDbLine
 10
-1318.504619080268
 20
1613.600228431733
 30
0.0
 11
-1317.744619080268
 21
1613.600228431733
 31
0.0
  0
LINE
  5
1309A
330
1A
100
AcDbEntity
  8
ZISSEN1
100
AcDbLine
 10
-1319.774619080268
 20
1613.600228431733
 30
0.0
 11
-1319.014619080268
 21
1613.600228431733
 31
0.0
  0
LINE
  5
1309B
330
1A
100
AcDbEntity
  8
ZISSEN1
100
AcDbLine
 10
-1321.044619080268
 20
1613.600228431733
 30
0.0
 11
-1320.284619080267
 21
1613.600228431733
 31
0.0
  0
LINE
  5
1309C
330
1A
100
AcDbEntity
  8
ZISSEN1
100
AcDbLine
 10
-1322.314619080268
 20
1613.600228431733
 30
0.0
 11
-1321.554619080268
 21
1613.600228431733
 31
0.0
  0
LWPOLYLINE
  5
1309D
330
1A
100
AcDbEntity
  8
ZISSEN1
100
AcDbPolyline
 90
        4
 70
     1
 43
0.0
 10
-1323.334314224456
 20
1608.520228431734
 10
-1316.734314224456
 20
1608.520228431734
 10
-1316.734314224456
 20
1613.600228431733
 10
-1323.334314224456
 20
1613.600228431733
  0
LWPOLYLINE
  5
1309E
330
1A
100
AcDbEntity
  8
ZISSEN1
100
AcDbPolyline
 90
        4
 70
     1
 43
0.0
 10
-1319.694619080268
 20
1612.560228431734
 10
-1319.094619080268
 20
1612.560228431734
 10
-1319.094619080268
 20
1609.560228431734
 10
-1319.694619080268
 20
1609.560228431734
  0
LWPOLYLINE
  5
1309F
330
1A
100
AcDbEntity
  8
ZISSEN1
100
AcDbPolyline
 90
        4
 70
     1
 43
0.0
 10
-1318.422542998325
 20
1612.560228431734
 10
-1317.822542998325
 20
1612.560228431734
 10
-1317.822542998325
 20
1609.560228431734
 10
-1318.422542998325
 20
1609.560228431734
  0
LWPOLYLINE
  5
130A0
330
1A
100
AcDbEntity
  8
ZISSEN1
100
AcDbPolyline
 90
        4
 70
     1
 43
0.0
 10
-1320.962542998325
 20
1612.560228431734
 10
-1320.362542998325
 20
1612.560228431734
 10
-1320.362542998325
 20
1609.560228431734
 10
-1320.962542998325
 20
1609.560228431734
  0
LWPOLYLINE
  5
130A1
330
1A
100
AcDbEntity
  8
ZISSEN1
100
AcDbPolyline
 90
        4
 70
     1
 43
0.0
 10
-1322.234619080268
 20
1612.560228431734
 10
-1321.634619080268
 20
1612.560228431734
 10
-1321.634619080268
 20
1609.560228431734
 10
-1322.234619080268
 20
1609.560228431734
  0
LWPOLYLINE
  5
130A2
330
1A
100
AcDbEntity
  8
ZISSEN1
100
AcDbPolyline
 90
        4
 70
     1
 43
0.0
 10
-1318.324619080268
 20
1608.260228431734
 10
-1317.924619080268
 20
1608.260228431733
 10
-1317.924619080268
 20
1608.360228431733
 10
-1318.324619080268
 20
1608.360228431733
  0
LWPOLYLINE
  5
130A3
330
1A
100
AcDbEntity
  8
ZISSEN1
100
AcDbPolyline
 90
        4
 70
     1
 43
0.0
 10
-1319.594619080268
 20
1608.260228431734
 10
-1319.194619080268
 20
1608.260228431734
 10
-1319.194619080268
 20
1608.360228431733
 10
-1319.594619080268
 20
1608.360228431733
  0
LWPOLYLINE
  5
130A4
330
1A
100
AcDbEntity
  8
ZISSEN1
100
AcDbPolyline
 90
        4
 70
     1
 43
0.0
 10
-1320.864619080268
 20
1608.260228431734
 10
-1320.464619080268
 20
1608.260228431734
 10
-1320.464619080268
 20
1608.360228431733
 10
-1320.864619080268
 20
1608.360228431733
  0
LWPOLYLINE
  5
130A5
330
1A
100
AcDbEntity
  8
ZISSEN1
100
AcDbPolyline
 90
        4
 70
     1
 43
0.0
 10
-1322.134619080268
 20
1608.260228431734
 10
-1321.734619080268
 20
1608.260228431734
 10
-1321.734619080268
 20
1608.360228431733
 10
-1322.134619080268
 20
1608.360228431734
  0
LWPOLYLINE
  5
130A6
330
1A
100
AcDbEntity
  8
ZISSEN1
100
AcDbPolyline
 90
        4
 70
     1
 43
0.0
 10
-1323.334314224456
 20
1608.360228431734
 10
-1316.734314224456
 20
1608.360228431733
 10
-1316.734314224456
 20
1613.760228431734
 10
-1323.334314224456
 20
1613.760228431734
  0
LWPOLYLINE
  5
130A7
330
1A
100
AcDbEntity
  8
ZISSEN1
100
AcDbPolyline
 90
        4
 70
     1
 43
0.0
 10
-1318.324619080267
 20
1613.760228431734
 10
-1317.924619080268
 20
1613.760228431734
 10
-1317.924619080268
 20
1613.860228431733
 10
-1318.324619080267
 20
1613.860228431733
  0
LWPOLYLINE
  5
130A8
330
1A
100
AcDbEntity
  8
ZISSEN1
100
AcDbPolyline
 90
        4
 70
     1
 43
0.0
 10
-1319.594619080268
 20
1613.760228431734
 10
-1319.194619080268
 20
1613.760228431734
 10
-1319.194619080268
 20
1613.860228431733
 10
-1319.594619080268
 20
1613.860228431733
  0
LWPOLYLINE
  5
130A9
330
1A
100
AcDbEntity
  8
ZISSEN1
100
AcDbPolyline
 90
        4
 70
     1
 43
0.0
 10
-1320.864619080267
 20
1613.760228431734
 10
-1320.464619080268
 20
1613.760228431734
 10
-1320.464619080268
 20
1613.860228431733
 10
-1320.864619080267
 20
1613.860228431733
  0
LWPOLYLINE
  5
130AA
330
1A
100
AcDbEntity
  8
ZISSEN1
100
AcDbPolyline
 90
        4
 70
     1
 43
0.0
 10
-1322.134619080268
 20
1613.760228431734
 10
-1321.734619080268
 20
1613.760228431734
 10
-1321.734619080268
 20
1613.860228431733
 10
-1322.134619080268
 20
1613.860228431734
  0
LINE
  5
130AB
330
1A
100
AcDbEntity
  8
ZISSEN1
100
AcDbLine
 10
-1357.284619080267
 20
1597.060228431734
 30
0.0
 11
-1349.784619080268
 21
1597.060228431734
 31
0.0
  0
LINE
  5
130AC
330
1A
100
AcDbEntity
  8
ZISSEN1
100
AcDbLine
 10
-1359.734619080268
 20
1602.960228431735
 30
0.0
 11
-1347.334619080268
 21
1602.960228431734
 31
0.0
  0
LINE
  5
130AD
330
1A
100
AcDbEntity
  8
ZISSEN1
100
AcDbLine
 10
-1358.884619080267
 20
1602.260228431734
 30
0.0
 11
-1348.184619080268
 21
1602.260228431734
 31
0.0
  0
LINE
  5
130AE
330
1A
100
AcDbEntity
  8
ZISSEN1
100
AcDbLine
 10
-1349.184619080268
 20
1597.660228431734
 30
0.0
 11
-1357.884619080268
 21
1597.660228431734
 31
0.0
  0
LWPOLYLINE
  5
130AF
330
1A
100
AcDbEntity
  8
ZISSEN1
100
AcDbPolyline
 90
        4
 70
     1
 43
0.0
 10
-1356.284619080267
 20
1596.460228431735
 10
-1355.034619080268
 20
1596.460228431735
 10
-1355.034619080268
 20
1597.060228431734
 10
-1356.284619080267
 20
1597.060228431734
  0
LINE
  5
130B2
330
1A
100
AcDbEntity
  8
ZISSEN1
100
AcDbLine
 10
-1347.334619080268
 20
1602.960228431734
 30
0.0
 11
-1347.334619080268
 21
1596.160228431734
 31
0.0
  0
LINE
  5
130B3
330
1A
100
AcDbEntity
  8
ZISSEN1
100
AcDbLine
 10
-1348.184619080268
 20
1602.260228431734
 30
0.0
 11
-1348.184619080268
 21
1596.860228431734
 31
0.0
  0
LINE
  5
130B4
330
1A
100
AcDbEntity
  8
ZISSEN1
100
AcDbLine
 10
-1348.184619080268
 20
1602.260228431734
 30
0.0
 11
-1348.184619080268
 21
1596.860228431734
 31
0.0
  0
LINE
  5
130B5
330
1A
100
AcDbEntity
  8
ZISSEN1
100
AcDbLine
 10
-1348.184619080268
 20
1596.860228431734
 30
0.0
 11
-1348.184619080268
 21
1602.260228431734
 31
0.0
  0
LINE
  5
130B8
330
1A
100
AcDbEntity
  8
ZISSEN1
100
AcDbLine
 10
-1347.334619080268
 20
1596.160228431734
 30
0.0
 11
-1350.584619080268
 21
1596.160228431734
 31
0.0
  0
LINE
  5
130B9
330
1A
100
AcDbEntity
  8
ZISSEN1
100
AcDbLine
 10
-1349.784619080268
 20
1597.060228431734
 30
0.0
 11
-1349.784619080268
 21
1596.160228431734
 31
0.0
  0
LINE
  5
130BA
330
1A
100
AcDbEntity
  8
ZISSEN1
100
AcDbLine
 10
-1349.184619080268
 20
1596.860228431734
 30
0.0
 11
-1349.184619080268
 21
1597.660228431734
 31
0.0
  0
LINE
  5
130BB
330
1A
100
AcDbEntity
  8
ZISSEN1
100
AcDbLine
 10
-1348.184619080268
 20
1596.860228431734
 30
0.0
 11
-1349.184619080268
 21
1596.860228431734
 31
0.0
  0
LINE
  5
130BC
330
1A
100
AcDbEntity
  8
ZISSEN1
100
AcDbLine
 10
-1352.234619080267
 20
1597.060228431734
 30
0.0
 11
-1352.234619080267
 21
1596.160228431734
 31
0.0
  0
LINE
  5
130BD
330
1A
100
AcDbEntity
  8
ZISSEN1
100
AcDbLine
 10
-1350.584619080268
 20
1597.060228431734
 30
0.0
 11
-1350.584619080268
 21
1596.160228431734
 31
0.0
  0
LWPOLYLINE
  5
130BE
330
1A
100
AcDbEntity
  8
ZISSEN1
100
AcDbPolyline
 90
        4
 70
     1
 43
0.0
 10
-1352.034619080268
 20
1596.460228431734
 10
-1350.784619080267
 20
1596.460228431734
 10
-1350.784619080267
 20
1597.060228431734
 10
-1352.034619080268
 20
1597.060228431734
  0
LINE
  5
130C2
330
1A
100
AcDbEntity
  8
ZISSEN1
100
AcDbLine
 10
-1354.834619080268
 20
1596.160228431735
 30
0.0
 11
-1352.234619080267
 21
1596.160228431734
 31
0.0
  0
LINE
  5
130C4
330
1A
100
AcDbEntity
  8
ZISSEN1
100
AcDbLine
 10
-1354.834619080268
 20
1597.060228431734
 30
0.0
 11
-1354.834619080268
 21
1596.160228431735
 31
0.0
  0
LINE
  5
130C8
330
1A
100
AcDbEntity
  8
ZISSEN1
100
AcDbLine
 10
-1356.484619080267
 20
1597.060228431734
 30
0.0
 11
-1356.484619080267
 21
1596.160228431735
 31
0.0
  0
LINE
  5
130C9
330
1A
100
AcDbEntity
  8
ZISSEN1
100
AcDbLine
 10
-1357.884619080268
 20
1597.660228431734
 30
0.0
 11
-1357.884619080268
 21
1596.860228431734
 31
0.0
  0
LINE
  5
130CA
330
1A
100
AcDbEntity
  8
ZISSEN1
100
AcDbLine
 10
-1357.884619080268
 20
1596.860228431734
 30
0.0
 11
-1358.884619080268
 21
1596.860228431734
 31
0.0
  0
LINE
  5
130CB
330
1A
100
AcDbEntity
  8
ZISSEN1
100
AcDbLine
 10
-1357.284619080267
 20
1596.160228431734
 30
0.0
 11
-1357.284619080267
 21
1597.060228431734
 31
0.0
  0
LINE
  5
130CC
330
1A
100
AcDbEntity
  8
ZISSEN1
100
AcDbLine
 10
-1356.484619080267
 20
1596.160228431735
 30
0.0
 11
-1359.734619080268
 21
1596.160228431734
 31
0.0
  0
LINE
  5
130CD
330
1A
100
AcDbEntity
  8
ZISSEN1
100
AcDbLine
 10
-1358.884619080268
 20
1596.860228431734
 30
0.0
 11
-1358.884619080267
 21
1602.260228431734
 31
0.0
  0
LINE
  5
130CE
330
1A
100
AcDbEntity
  8
ZISSEN1
100
AcDbLine
 10
-1359.734619080268
 20
1596.160228431734
 30
0.0
 11
-1359.734619080268
 21
1602.960228431734
 31
0.0
  0
LINE
  5
130CF
330
1A
100
AcDbEntity
  8
ZISSEN1
100
AcDbLine
 10
-1343.784619080268
 20
1597.060228431735
 30
0.0
 11
-1336.284619080267
 21
1597.060228431734
 31
0.0
  0
LINE
  5
130D0
330
1A
100
AcDbEntity
  8
ZISSEN1
100
AcDbLine
 10
-1346.234619080268
 20
1602.960228431735
 30
0.0
 11
-1333.834619080268
 21
1602.960228431734
 31
0.0
  0
LINE
  5
130D1
330
1A
100
AcDbEntity
  8
ZISSEN1
100
AcDbLine
 10
-1345.384619080268
 20
1602.260228431735
 30
0.0
 11
-1334.684619080268
 21
1602.260228431734
 31
0.0
  0
LINE
  5
130D2
330
1A
100
AcDbEntity
  8
ZISSEN1
100
AcDbLine
 10
-1335.684619080268
 20
1597.660228431734
 30
0.0
 11
-1344.384619080267
 21
1597.660228431734
 31
0.0
  0
LWPOLYLINE
  5
130D3
330
1A
100
AcDbEntity
  8
ZISSEN1
100
AcDbPolyline
 90
        4
 70
     1
 43
0.0
 10
-1342.784619080267
 20
1596.460228431735
 10
-1341.534619080268
 20
1596.460228431735
 10
-1341.534619080268
 20
1597.060228431735
 10
-1342.784619080267
 20
1597.060228431735
  0
LINE
  5
130D6
330
1A
100
AcDbEntity
  8
ZISSEN1
100
AcDbLine
 10
-1333.834619080268
 20
1602.960228431734
 30
0.0
 11
-1333.834619080268
 21
1596.160228431735
 31
0.0
  0
LINE
  5
130D7
330
1A
100
AcDbEntity
  8
ZISSEN1
100
AcDbLine
 10
-1334.684619080268
 20
1602.260228431734
 30
0.0
 11
-1334.684619080268
 21
1596.860228431734
 31
0.0
  0
LINE
  5
130D8
330
1A
100
AcDbEntity
  8
ZISSEN1
100
AcDbLine
 10
-1334.684619080268
 20
1602.260228431734
 30
0.0
 11
-1334.684619080268
 21
1596.860228431734
 31
0.0
  0
LINE
  5
130D9
330
1A
100
AcDbEntity
  8
ZISSEN1
100
AcDbLine
 10
-1334.684619080268
 20
1596.860228431734
 30
0.0
 11
-1334.684619080268
 21
1602.260228431734
 31
0.0
  0
LINE
  5
130DC
330
1A
100
AcDbEntity
  8
ZISSEN1
100
AcDbLine
 10
-1333.834619080268
 20
1596.160228431735
 30
0.0
 11
-1337.084619080268
 21
1596.160228431735
 31
0.0
  0
LINE
  5
130DD
330
1A
100
AcDbEntity
  8
ZISSEN1
100
AcDbLine
 10
-1336.284619080267
 20
1597.060228431734
 30
0.0
 11
-1336.284619080267
 21
1596.160228431735
 31
0.0
  0
LINE
  5
130DE
330
1A
100
AcDbEntity
  8
ZISSEN1
100
AcDbLine
 10
-1335.684619080268
 20
1596.860228431734
 30
0.0
 11
-1335.684619080268
 21
1597.660228431734
 31
0.0
  0
LINE
  5
130DF
330
1A
100
AcDbEntity
  8
ZISSEN1
100
AcDbLine
 10
-1334.684619080268
 20
1596.860228431734
 30
0.0
 11
-1335.684619080268
 21
1596.860228431734
 31
0.0
  0
LINE
  5
130E0
330
1A
100
AcDbEntity
  8
ZISSEN1
100
AcDbLine
 10
-1338.734619080267
 20
1597.060228431734
 30
0.0
 11
-1338.734619080267
 21
1596.160228431735
 31
0.0
  0
LINE
  5
130E1
330
1A
100
AcDbEntity
  8
ZISSEN1
100
AcDbLine
 10
-1337.084619080268
 20
1597.060228431734
 30
0.0
 11
-1337.084619080268
 21
1596.160228431735
 31
0.0
  0
LWPOLYLINE
  5
130E2
330
1A
100
AcDbEntity
  8
ZISSEN1
100
AcDbPolyline
 90
        4
 70
     1
 43
0.0
 10
-1338.534619080268
 20
1596.460228431735
 10
-1337.284619080268
 20
1596.460228431735
 10
-1337.284619080268
 20
1597.060228431734
 10
-1338.534619080268
 20
1597.060228431734
  0
LINE
  5
130E6
330
1A
100
AcDbEntity
  8
ZISSEN1
100
AcDbLine
 10
-1341.334619080268
 20
1596.160228431735
 30
0.0
 11
-1338.734619080267
 21
1596.160228431735
 31
0.0
  0
LINE
  5
130E8
330
1A
100
AcDbEntity
  8
ZISSEN1
100
AcDbLine
 10
-1341.334619080268
 20
1597.060228431735
 30
0.0
 11
-1341.334619080268
 21
1596.160228431735
 31
0.0
  0
LINE
  5
130EC
330
1A
100
AcDbEntity
  8
ZISSEN1
100
AcDbLine
 10
-1342.984619080267
 20
1597.060228431735
 30
0.0
 11
-1342.984619080267
 21
1596.160228431735
 31
0.0
  0
LINE
  5
130ED
330
1A
100
AcDbEntity
  8
ZISSEN1
100
AcDbLine
 10
-1344.384619080267
 20
1597.660228431734
 30
0.0
 11
-1344.384619080267
 21
1596.860228431735
 31
0.0
  0
LINE
  5
130EE
330
1A
100
AcDbEntity
  8
ZISSEN1
100
AcDbLine
 10
-1344.384619080267
 20
1596.860228431735
 30
0.0
 11
-1345.384619080268
 21
1596.860228431735
 31
0.0
  0
LINE
  5
130EF
330
1A
100
AcDbEntity
  8
ZISSEN1
100
AcDbLine
 10
-1343.784619080268
 20
1596.160228431735
 30
0.0
 11
-1343.784619080268
 21
1597.060228431734
 31
0.0
  0
LINE
  5
130F0
330
1A
100
AcDbEntity
  8
ZISSEN1
100
AcDbLine
 10
-1342.984619080267
 20
1596.160228431735
 30
0.0
 11
-1346.234619080268
 21
1596.160228431735
 31
0.0
  0
LINE
  5
130F1
330
1A
100
AcDbEntity
  8
ZISSEN1
100
AcDbLine
 10
-1345.384619080268
 20
1596.860228431735
 30
0.0
 11
-1345.384619080268
 21
1602.260228431735
 31
0.0
  0
LINE
  5
130F2
330
1A
100
AcDbEntity
  8
ZISSEN1
100
AcDbLine
 10
-1346.234619080268
 20
1596.160228431735
 30
0.0
 11
-1346.234619080268
 21
1602.960228431735
 31
0.0
  0
LINE
  5
130F7
330
1A
100
AcDbEntity
  8
ZISSEN1
100
AcDbLine
 10
-1326.104619080267
 20
1608.360228431734
 30
0.0
 11
-1325.344619080268
 21
1608.360228431734
 31
0.0
  0
LINE
  5
130F8
330
1A
100
AcDbEntity
  8
ZISSEN1
100
AcDbLine
 10
-1327.374619080268
 20
1608.360228431734
 30
0.0
 11
-1326.614619080268
 21
1608.360228431734
 31
0.0
  0
LINE
  5
130F9
330
1A
100
AcDbEntity
  8
ZISSEN1
100
AcDbLine
 10
-1328.644619080267
 20
1608.360228431734
 30
0.0
 11
-1327.884619080268
 21
1608.360228431734
 31
0.0
  0
LINE
  5
130FA
330
1A
100
AcDbEntity
  8
ZISSEN1
100
AcDbLine
 10
-1329.914619080268
 20
1608.360228431734
 30
0.0
 11
-1329.154619080267
 21
1608.360228431734
 31
0.0
  0
LINE
  5
130FB
330
1A
100
AcDbEntity
  8
ZISSEN1
100
AcDbLine
 10
-1326.104619080267
 20
1613.600228431734
 30
0.0
 11
-1325.344619080267
 21
1613.600228431734
 31
0.0
  0
LINE
  5
130FC
330
1A
100
AcDbEntity
  8
ZISSEN1
100
AcDbLine
 10
-1327.374619080267
 20
1613.600228431734
 30
0.0
 11
-1326.614619080268
 21
1613.600228431734
 31
0.0
  0
LINE
  5
130FD
330
1A
100
AcDbEntity
  8
ZISSEN1
100
AcDbLine
 10
-1328.644619080267
 20
1613.600228431734
 30
0.0
 11
-1327.884619080267
 21
1613.600228431734
 31
0.0
  0
LINE
  5
130FE
330
1A
100
AcDbEntity
  8
ZISSEN1
100
AcDbLine
 10
-1329.914619080267
 20
1613.600228431734
 30
0.0
 11
-1329.154619080267
 21
1613.600228431734
 31
0.0
  0
LWPOLYLINE
  5
130FF
330
1A
100
AcDbEntity
  8
ZISSEN1
100
AcDbPolyline
 90
        4
 70
     1
 43
0.0
 10
-1330.934314224456
 20
1608.520228431734
 10
-1324.334314224456
 20
1608.520228431734
 10
-1324.334314224456
 20
1613.600228431734
 10
-1330.934314224455
 20
1613.600228431734
  0
LWPOLYLINE
  5
13100
330
1A
100
AcDbEntity
  8
ZISSEN1
100
AcDbPolyline
 90
        4
 70
     1
 43
0.0
 10
-1327.294619080267
 20
1612.560228431734
 10
-1326.694619080267
 20
1612.560228431734
 10
-1326.694619080267
 20
1609.560228431734
 10
-1327.294619080268
 20
1609.560228431734
  0
LWPOLYLINE
  5
13101
330
1A
100
AcDbEntity
  8
ZISSEN1
100
AcDbPolyline
 90
        4
 70
     1
 43
0.0
 10
-1326.022542998324
 20
1612.560228431734
 10
-1325.422542998325
 20
1612.560228431734
 10
-1325.422542998325
 20
1609.560228431734
 10
-1326.022542998325
 20
1609.560228431734
  0
LWPOLYLINE
  5
13102
330
1A
100
AcDbEntity
  8
ZISSEN1
100
AcDbPolyline
 90
        4
 70
     1
 43
0.0
 10
-1328.562542998324
 20
1612.560228431734
 10
-1327.962542998324
 20
1612.560228431734
 10
-1327.962542998324
 20
1609.560228431734
 10
-1328.562542998325
 20
1609.560228431734
  0
LWPOLYLINE
  5
13103
330
1A
100
AcDbEntity
  8
ZISSEN1
100
AcDbPolyline
 90
        4
 70
     1
 43
0.0
 10
-1329.834619080268
 20
1612.560228431734
 10
-1329.234619080267
 20
1612.560228431734
 10
-1329.234619080267
 20
1609.560228431734
 10
-1329.834619080268
 20
1609.560228431734
  0
LWPOLYLINE
  5
13104
330
1A
100
AcDbEntity
  8
ZISSEN1
100
AcDbPolyline
 90
        4
 70
     1
 43
0.0
 10
-1325.924619080267
 20
1608.260228431734
 10
-1325.524619080267
 20
1608.260228431734
 10
-1325.524619080267
 20
1608.360228431734
 10
-1325.924619080267
 20
1608.360228431734
  0
LWPOLYLINE
  5
13105
330
1A
100
AcDbEntity
  8
ZISSEN1
100
AcDbPolyline
 90
        4
 70
     1
 43
0.0
 10
-1327.194619080267
 20
1608.260228431734
 10
-1326.794619080267
 20
1608.260228431734
 10
-1326.794619080267
 20
1608.360228431734
 10
-1327.194619080267
 20
1608.360228431734
  0
LWPOLYLINE
  5
13106
330
1A
100
AcDbEntity
  8
ZISSEN1
100
AcDbPolyline
 90
        4
 70
     1
 43
0.0
 10
-1328.464619080267
 20
1608.260228431734
 10
-1328.064619080267
 20
1608.260228431734
 10
-1328.064619080267
 20
1608.360228431734
 10
-1328.464619080267
 20
1608.360228431734
  0
LWPOLYLINE
  5
13107
330
1A
100
AcDbEntity
  8
ZISSEN1
100
AcDbPolyline
 90
        4
 70
     1
 43
0.0
 10
-1329.734619080267
 20
1608.260228431734
 10
-1329.334619080267
 20
1608.260228431734
 10
-1329.334619080267
 20
1608.360228431734
 10
-1329.734619080267
 20
1608.360228431734
  0
LWPOLYLINE
  5
13108
330
1A
100
AcDbEntity
  8
ZISSEN1
100
AcDbPolyline
 90
        4
 70
     1
 43
0.0
 10
-1330.934314224456
 20
1608.360228431734
 10
-1324.334314224456
 20
1608.360228431734
 10
-1324.334314224456
 20
1613.760228431734
 10
-1330.934314224455
 20
1613.760228431734
  0
LWPOLYLINE
  5
13109
330
1A
100
AcDbEntity
  8
ZISSEN1
100
AcDbPolyline
 90
        4
 70
     1
 43
0.0
 10
-1325.924619080267
 20
1613.760228431734
 10
-1325.524619080267
 20
1613.760228431734
 10
-1325.524619080267
 20
1613.860228431734
 10
-1325.924619080267
 20
1613.860228431734
  0
LWPOLYLINE
  5
1310A
330
1A
100
AcDbEntity
  8
ZISSEN1
100
AcDbPolyline
 90
        4
 70
     1
 43
0.0
 10
-1327.194619080267
 20
1613.760228431734
 10
-1326.794619080267
 20
1613.760228431734
 10
-1326.794619080267
 20
1613.860228431734
 10
-1327.194619080267
 20
1613.860228431734
  0
LWPOLYLINE
  5
1310B
330
1A
100
AcDbEntity
  8
ZISSEN1
100
AcDbPolyline
 90
        4
 70
     1
 43
0.0
 10
-1328.464619080267
 20
1613.760228431734
 10
-1328.064619080267
 20
1613.760228431734
 10
-1328.064619080267
 20
1613.860228431734
 10
-1328.464619080267
 20
1613.860228431734
  0
LWPOLYLINE
  5
1310C
330
1A
100
AcDbEntity
  8
ZISSEN1
100
AcDbPolyline
 90
        4
 70
     1
 43
0.0
 10
-1329.734619080267
 20
1613.760228431734
 10
-1329.334619080267
 20
1613.760228431734
 10
-1329.334619080267
 20
1613.860228431734
 10
-1329.734619080267
 20
1613.860228431734
  0
CIRCLE
  5
1310D
330
1A
100
AcDbEntity
  8
ZISSEN1
100
AcDbCircle
 10
-1373.034619080268
 20
1598.060228431734
 30
0.0
 40
2.75
  0
LINE
  5
1310E
330
1A
100
AcDbEntity
  8
ZISSEN1
100
AcDbLine
 10
-1372.634619080268
 20
1596.810228431734
 30
0.0
 11
-1373.434619080268
 21
1596.810228431734
 31
0.0
  0
LINE
  5
1310F
330
1A
100
AcDbEntity
  8
ZISSEN1
100
AcDbLine
 10
-1373.434619080268
 20
1596.810228431734
 30
0.0
 11
-1373.434619080268
 21
1597.660228431734
 31
0.0
  0
LINE
  5
13110
330
1A
100
AcDbEntity
  8
ZISSEN1
100
AcDbLine
 10
-1373.434619080268
 20
1597.660228431734
 30
0.0
 11
-1374.284619080268
 21
1597.660228431734
 31
0.0
  0
LINE
  5
13111
330
1A
100
AcDbEntity
  8
ZISSEN1
100
AcDbLine
 10
-1374.284619080268
 20
1597.660228431734
 30
0.0
 11
-1374.284619080268
 21
1598.460228431734
 31
0.0
  0
LINE
  5
13112
330
1A
100
AcDbEntity
  8
ZISSEN1
100
AcDbLine
 10
-1374.284619080268
 20
1598.460228431734
 30
0.0
 11
-1373.434619080268
 21
1598.460228431734
 31
0.0
  0
LINE
  5
13113
330
1A
100
AcDbEntity
  8
ZISSEN1
100
AcDbLine
 10
-1373.434619080268
 20
1598.460228431734
 30
0.0
 11
-1373.434619080268
 21
1599.310228431734
 31
0.0
  0
LINE
  5
13114
330
1A
100
AcDbEntity
  8
ZISSEN1
100
AcDbLine
 10
-1373.434619080268
 20
1599.310228431734
 30
0.0
 11
-1372.634619080268
 21
1599.310228431734
 31
0.0
  0
LINE
  5
13115
330
1A
100
AcDbEntity
  8
ZISSEN1
100
AcDbLine
 10
-1372.634619080268
 20
1599.310228431734
 30
0.0
 11
-1372.634619080268
 21
1598.460228431734
 31
0.0
  0
LINE
  5
13116
330
1A
100
AcDbEntity
  8
ZISSEN1
100
AcDbLine
 10
-1372.634619080268
 20
1598.460228431734
 30
0.0
 11
-1371.784619080268
 21
1598.460228431734
 31
0.0
  0
LINE
  5
13117
330
1A
100
AcDbEntity
  8
ZISSEN1
100
AcDbLine
 10
-1371.784619080268
 20
1598.460228431734
 30
0.0
 11
-1371.784619080268
 21
1597.660228431734
 31
0.0
  0
LINE
  5
13118
330
1A
100
AcDbEntity
  8
ZISSEN1
100
AcDbLine
 10
-1371.784619080268
 20
1597.660228431734
 30
0.0
 11
-1372.634619080268
 21
1597.660228431734
 31
0.0
  0
LINE
  5
13119
330
1A
100
AcDbEntity
  8
ZISSEN1
100
AcDbLine
 10
-1372.634619080268
 20
1596.810228431734
 30
0.0
 11
-1372.634619080268
 21
1597.660228431734
 31
0.0
  0
CIRCLE
  5
1311A
330
1A
100
AcDbEntity
  8
ZISSEN1
100
AcDbCircle
 10
-1373.034619080268
 20
1637.060228431734
 30
0.0
 40
2.75
  0
LINE
  5
1311B
330
1A
100
AcDbEntity
  8
ZISSEN1
100
AcDbLine
 10
-1372.634619080268
 20
1635.810228431734
 30
0.0
 11
-1373.434619080268
 21
1635.810228431734
 31
0.0
  0
LINE
  5
1311C
330
1A
100
AcDbEntity
  8
ZISSEN1
100
AcDbLine
 10
-1373.434619080268
 20
1635.810228431734
 30
0.0
 11
-1373.434619080268
 21
1636.660228431734
 31
0.0
  0
LINE
  5
1311D
330
1A
100
AcDbEntity
  8
ZISSEN1
100
AcDbLine
 10
-1373.434619080268
 20
1636.660228431734
 30
0.0
 11
-1374.284619080268
 21
1636.660228431734
 31
0.0
  0
LINE
  5
1311E
330
1A
100
AcDbEntity
  8
ZISSEN1
100
AcDbLine
 10
-1374.284619080268
 20
1636.660228431734
 30
0.0
 11
-1374.284619080268
 21
1637.460228431734
 31
0.0
  0
LINE
  5
1311F
330
1A
100
AcDbEntity
  8
ZISSEN1
100
AcDbLine
 10
-1374.284619080268
 20
1637.460228431734
 30
0.0
 11
-1373.434619080268
 21
1637.460228431734
 31
0.0
  0
LINE
  5
13120
330
1A
100
AcDbEntity
  8
ZISSEN1
100
AcDbLine
 10
-1373.434619080268
 20
1637.460228431734
 30
0.0
 11
-1373.434619080268
 21
1638.310228431734
 31
0.0
  0
LINE
  5
13121
330
1A
100
AcDbEntity
  8
ZISSEN1
100
AcDbLine
 10
-1373.434619080268
 20
1638.310228431734
 30
0.0
 11
-1372.634619080268
 21
1638.310228431734
 31
0.0
  0
LINE
  5
13122
330
1A
100
AcDbEntity
  8
ZISSEN1
100
AcDbLine
 10
-1372.634619080268
 20
1638.310228431734
 30
0.0
 11
-1372.634619080268
 21
1637.460228431734
 31
0.0
  0
LINE
  5
13123
330
1A
100
AcDbEntity
  8
ZISSEN1
100
AcDbLine
 10
-1372.634619080268
 20
1637.460228431734
 30
0.0
 11
-1371.784619080268
 21
1637.460228431734
 31
0.0
  0
LINE
  5
13124
330
1A
100
AcDbEntity
  8
ZISSEN1
100
AcDbLine
 10
-1371.784619080268
 20
1637.460228431734
 30
0.0
 11
-1371.784619080268
 21
1636.660228431734
 31
0.0
  0
LINE
  5
13125
330
1A
100
AcDbEntity
  8
ZISSEN1
100
AcDbLine
 10
-1371.784619080268
 20
1636.660228431734
 30
0.0
 11
-1372.634619080268
 21
1636.660228431734
 31
0.0
  0
LINE
  5
13126
330
1A
100
AcDbEntity
  8
ZISSEN1
100
AcDbLine
 10
-1372.634619080268
 20
1635.810228431734
 30
0.0
 11
-1372.634619080268
 21
1636.660228431734
 31
0.0
  0
LINE
  5
13127
330
1A
100
AcDbEntity
  8
ZISSEN1
100
AcDbLine
 10
-1307.134619080268
 20
1635.810228431735
 30
0.0
 11
-1307.934619080268
 21
1635.810228431735
 31
0.0
  0
LINE
  5
13128
330
1A
100
AcDbEntity
  8
ZISSEN1
100
AcDbLine
 10
-1307.934619080268
 20
1635.810228431735
 30
0.0
 11
-1307.934619080268
 21
1636.660228431734
 31
0.0
  0
LINE
  5
13129
330
1A
100
AcDbEntity
  8
ZISSEN1
100
AcDbLine
 10
-1307.934619080268
 20
1636.660228431734
 30
0.0
 11
-1308.784619080268
 21
1636.660228431734
 31
0.0
  0
LINE
  5
1312A
330
1A
100
AcDbEntity
  8
ZISSEN1
100
AcDbLine
 10
-1308.784619080268
 20
1636.660228431734
 30
0.0
 11
-1308.784619080268
 21
1637.460228431735
 31
0.0
  0
LINE
  5
1312B
330
1A
100
AcDbEntity
  8
ZISSEN1
100
AcDbLine
 10
-1308.784619080268
 20
1637.460228431735
 30
0.0
 11
-1307.934619080268
 21
1637.460228431735
 31
0.0
  0
LINE
  5
1312C
330
1A
100
AcDbEntity
  8
ZISSEN1
100
AcDbLine
 10
-1307.934619080268
 20
1637.460228431735
 30
0.0
 11
-1307.934619080268
 21
1638.310228431735
 31
0.0
  0
LINE
  5
1312D
330
1A
100
AcDbEntity
  8
ZISSEN1
100
AcDbLine
 10
-1307.934619080268
 20
1638.310228431735
 30
0.0
 11
-1307.134619080268
 21
1638.310228431735
 31
0.0
  0
LINE
  5
1312E
330
1A
100
AcDbEntity
  8
ZISSEN1
100
AcDbLine
 10
-1307.134619080268
 20
1638.310228431735
 30
0.0
 11
-1307.134619080268
 21
1637.460228431735
 31
0.0
  0
LINE
  5
1312F
330
1A
100
AcDbEntity
  8
ZISSEN1
100
AcDbLine
 10
-1307.134619080268
 20
1637.460228431735
 30
0.0
 11
-1306.284619080268
 21
1637.460228431735
 31
0.0
  0
LINE
  5
13130
330
1A
100
AcDbEntity
  8
ZISSEN1
100
AcDbLine
 10
-1306.284619080268
 20
1637.460228431735
 30
0.0
 11
-1306.284619080268
 21
1636.660228431734
 31
0.0
  0
LINE
  5
13131
330
1A
100
AcDbEntity
  8
ZISSEN1
100
AcDbLine
 10
-1306.284619080268
 20
1636.660228431734
 30
0.0
 11
-1307.134619080268
 21
1636.660228431734
 31
0.0
  0
LINE
  5
13132
330
1A
100
AcDbEntity
  8
ZISSEN1
100
AcDbLine
 10
-1307.134619080268
 20
1635.810228431735
 30
0.0
 11
-1307.134619080268
 21
1636.660228431734
 31
0.0
  0
CIRCLE
  5
13133
330
1A
100
AcDbEntity
  8
ZISSEN1
100
AcDbCircle
 10
-1307.534619080268
 20
1598.060228431735
 30
0.0
 40
2.75
  0
LINE
  5
13134
330
1A
100
AcDbEntity
  8
ZISSEN1
100
AcDbLine
 10
-1307.134619080268
 20
1596.810228431735
 30
0.0
 11
-1307.934619080268
 21
1596.810228431735
 31
0.0
  0
LINE
  5
13135
330
1A
100
AcDbEntity
  8
ZISSEN1
100
AcDbLine
 10
-1307.934619080268
 20
1596.810228431735
 30
0.0
 11
-1307.934619080268
 21
1597.660228431734
 31
0.0
  0
LINE
  5
13136
330
1A
100
AcDbEntity
  8
ZISSEN1
100
AcDbLine
 10
-1307.934619080268
 20
1597.660228431734
 30
0.0
 11
-1308.784619080268
 21
1597.660228431734
 31
0.0
  0
LINE
  5
13137
330
1A
100
AcDbEntity
  8
ZISSEN1
100
AcDbLine
 10
-1308.784619080268
 20
1597.660228431734
 30
0.0
 11
-1308.784619080268
 21
1598.460228431735
 31
0.0
  0
LINE
  5
13138
330
1A
100
AcDbEntity
  8
ZISSEN1
100
AcDbLine
 10
-1308.784619080268
 20
1598.460228431735
 30
0.0
 11
-1307.934619080268
 21
1598.460228431735
 31
0.0
  0
LINE
  5
13139
330
1A
100
AcDbEntity
  8
ZISSEN1
100
AcDbLine
 10
-1307.934619080268
 20
1598.460228431735
 30
0.0
 11
-1307.934619080268
 21
1599.310228431734
 31
0.0
  0
LINE
  5
1313A
330
1A
100
AcDbEntity
  8
ZISSEN1
100
AcDbLine
 10
-1307.934619080268
 20
1599.310228431734
 30
0.0
 11
-1307.134619080268
 21
1599.310228431734
 31
0.0
  0
LINE
  5
1313B
330
1A
100
AcDbEntity
  8
ZISSEN1
100
AcDbLine
 10
-1307.134619080268
 20
1599.310228431734
 30
0.0
 11
-1307.134619080268
 21
1598.460228431735
 31
0.0
  0
LINE
  5
1313C
330
1A
100
AcDbEntity
  8
ZISSEN1
100
AcDbLine
 10
-1307.134619080268
 20
1598.460228431735
 30
0.0
 11
-1306.284619080268
 21
1598.460228431735
 31
0.0
  0
LINE
  5
1313D
330
1A
100
AcDbEntity
  8
ZISSEN1
100
AcDbLine
 10
-1306.284619080268
 20
1598.460228431735
 30
0.0
 11
-1306.284619080268
 21
1597.660228431734
 31
0.0
  0
LINE
  5
1313E
330
1A
100
AcDbEntity
  8
ZISSEN1
100
AcDbLine
 10
-1306.284619080268
 20
1597.660228431734
 30
0.0
 11
-1307.134619080268
 21
1597.660228431734
 31
0.0
  0
LINE
  5
1313F
330
1A
100
AcDbEntity
  8
ZISSEN1
100
AcDbLine
 10
-1307.134619080268
 20
1596.810228431735
 30
0.0
 11
-1307.134619080268
 21
1597.660228431734
 31
0.0
  0
LINE
  5
13140
330
1A
100
AcDbEntity
  8
ZISSEN1
100
AcDbLine
 10
-1329.234619080267
 20
1610.060228431734
 30
0.0
 11
-1329.834619080268
 21
1610.060228431734
 31
0.0
  0
LINE
  5
13141
330
1A
100
AcDbEntity
  8
ZISSEN1
100
AcDbLine
 10
-1327.962542998324
 20
1610.060228431734
 30
0.0
 11
-1328.562542998325
 21
1610.060228431734
 31
0.0
  0
LINE
  5
13142
330
1A
100
AcDbEntity
  8
ZISSEN1
100
AcDbLine
 10
-1326.694619080267
 20
1610.060228431734
 30
0.0
 11
-1327.294619080268
 21
1610.060228431734
 31
0.0
  0
LINE
  5
13143
330
1A
100
AcDbEntity
  8
ZISSEN1
100
AcDbLine
 10
-1325.422542998325
 20
1610.060228431734
 30
0.0
 11
-1326.022542998325
 21
1610.060228431734
 31
0.0
  0
LINE
  5
13144
330
1A
100
AcDbEntity
  8
ZISSEN1
100
AcDbLine
 10
-1321.634619080268
 20
1610.060228431733
 30
0.0
 11
-1322.234619080268
 21
1610.060228431733
 31
0.0
  0
LINE
  5
13145
330
1A
100
AcDbEntity
  8
ZISSEN1
100
AcDbLine
 10
-1320.362542998325
 20
1610.060228431733
 30
0.0
 11
-1320.962542998325
 21
1610.060228431733
 31
0.0
  0
LINE
  5
13146
330
1A
100
AcDbEntity
  8
ZISSEN1
100
AcDbLine
 10
-1319.094619080268
 20
1610.060228431733
 30
0.0
 11
-1319.694619080268
 21
1610.060228431733
 31
0.0
  0
LINE
  5
13147
330
1A
100
AcDbEntity
  8
ZISSEN1
100
AcDbLine
 10
-1317.822542998325
 20
1610.060228431733
 30
0.0
 11
-1318.422542998325
 21
1610.060228431733
 31
0.0
  0
LINE
  5
1314A
330
1A
100
AcDbEntity
  8
ZISSEN1
100
AcDbLine
 10
-1370.034619080269
 20
1616.062997212529
 30
0.0
 11
-1368.034619080269
 21
1618.062997212529
 31
0.0
  0
LINE
  5
1314B
330
1A
100
AcDbEntity
  8
ZISSEN1
100
AcDbLine
 10
-1312.032750367515
 20
1605.060228431735
 30
0.0
 11
-1333.032750367515
 21
1605.060228431734
 31
0.0
  0
LINE
  5
132C9
330
1A
100
AcDbEntity
  8
ZISSEN1
100
AcDbLine
 10
-1305.034619080269
 20
1640.560228431733
 30
0.0
 11
-1321.034619080269
 21
1640.560228431733
 31
0.0
  0
LINE
  5
132CA
330
1A
100
AcDbEntity
  8
ZISSEN1
100
AcDbLine
 10
-1377.034619080268
 20
1646.560228431734
 30
0.0
 11
-1377.034619080268
 21
1588.560228431734
 31
0.0
  0
LINE
  5
132CB
330
1A
100
AcDbEntity
  8
ZISSEN1
100
AcDbLine
 10
-1376.534619080268
 20
1594.560228439397
 30
0.0
 11
-1315.038956972
 21
1594.560228431735
 31
0.0
  0
LINE
  5
132CC
330
1A
100
AcDbEntity
  8
ZISSEN1
100
AcDbLine
 10
-1305.034619080269
 20
1640.560228431733
 30
0.0
 11
-1304.034619080269
 21
1639.560228431733
 31
0.0
  0
LINE
  5
132CD
330
1A
100
AcDbEntity
  8
ZISSEN1
100
AcDbLine
 10
-1377.034619080268
 20
1646.560228431734
 30
0.0
 11
-1379.034619080268
 21
1646.560228431734
 31
0.0
  0
LINE
  5
132CE
330
1A
100
AcDbEntity
  8
ZISSEN1
100
AcDbLine
 10
-1379.034619080268
 20
1646.560228431734
 30
0.0
 11
-1379.034619080268
 21
1588.560228431734
 31
0.0
  0
LINE
  5
132CF
330
1A
100
AcDbEntity
  8
ZISSEN1
100
AcDbLine
 10
-1377.034619080268
 20
1588.560228431734
 30
0.0
 11
-1379.034619080268
 21
1588.560228431734
 31
0.0
  0
LWPOLYLINE
  5
132D0
330
1A
100
AcDbEntity
  8
ZISSEN1
100
AcDbPolyline
 90
        4
 70
     1
 43
0.0
 10
-1323.284619080269
 20
1597.410228431734
 10
-1315.784619080269
 20
1597.410228431734
 10
-1315.784619080269
 20
1604.910228431734
 10
-1323.284619080269
 20
1604.910228431734
  0
CIRCLE
  5
132D1
330
1A
100
AcDbEntity
  8
ZISSEN1
100
AcDbCircle
 10
-1319.534619080268
 20
1601.160228431734
 30
0.0
 40
1.5
  0
LINE
  5
132E2
330
1A
100
AcDbEntity
  8
ZISSEN1
100
AcDbLine
 10
-1319.184619080269
 20
1601.360228431734
 30
0.0
 11
-1318.684619080269
 21
1601.360228431734
 31
0.0
  0
LINE
  5
132E3
330
1A
100
AcDbEntity
  8
ZISSEN1
100
AcDbLine
 10
-1318.684619080269
 20
1601.360228431734
 30
0.0
 11
-1319.184619080269
 21
1602.618823646316
 31
0.0
  0
LINE
  5
132E4
330
1A
100
AcDbEntity
  8
ZISSEN1
100
AcDbLine
 10
-1319.884619080269
 20
1601.360228431734
 30
0.0
 11
-1320.384619080269
 21
1601.360228431734
 31
0.0
  0
LINE
  5
132E5
330
1A
100
AcDbEntity
  8
ZISSEN1
100
AcDbLine
 10
-1320.384619080269
 20
1601.360228431734
 30
0.0
 11
-1319.884619080269
 21
1602.618823646316
 31
0.0
  0
LINE
  5
132E6
330
1A
100
AcDbEntity
  8
ZISSEN1
100
AcDbLine
 10
-1319.184619080269
 20
1601.360228431734
 30
0.0
 11
-1319.184619080269
 21
1599.701633217152
 31
0.0
  0
LINE
  5
132E7
330
1A
100
AcDbEntity
  8
ZISSEN1
100
AcDbLine
 10
-1319.884619080269
 20
1601.360228431734
 30
0.0
 11
-1319.884619080269
 21
1599.701633217153
 31
0.0
  0
LWPOLYLINE
  5
132E8
330
1A
100
AcDbEntity
  8
ZISSEN1
100
AcDbPolyline
 90
        4
 70
     1
 43
0.0
 10
-1331.784619080268
 20
1597.410228431734
 10
-1324.284619080269
 20
1597.410228431734
 10
-1324.284619080269
 20
1604.910228431734
 10
-1331.784619080268
 20
1604.910228431734
  0
CIRCLE
  5
132E9
330
1A
100
AcDbEntity
  8
ZISSEN1
100
AcDbCircle
 10
-1328.034619080268
 20
1601.160228431734
 30
0.0
 40
1.5
  0
LINE
  5
132FA
330
1A
100
AcDbEntity
  8
ZISSEN1
100
AcDbLine
 10
-1327.684619080269
 20
1601.360228431734
 30
0.0
 11
-1327.184619080268
 21
1601.360228431734
 31
0.0
  0
LINE
  5
132FB
330
1A
100
AcDbEntity
  8
ZISSEN1
100
AcDbLine
 10
-1327.184619080268
 20
1601.360228431734
 30
0.0
 11
-1327.684619080269
 21
1602.618823646316
 31
0.0
  0
LINE
  5
132FC
330
1A
100
AcDbEntity
  8
ZISSEN1
100
AcDbLine
 10
-1328.384619080268
 20
1601.360228431734
 30
0.0
 11
-1328.884619080268
 21
1601.360228431734
 31
0.0
  0
LINE
  5
132FD
330
1A
100
AcDbEntity
  8
ZISSEN1
100
AcDbLine
 10
-1328.884619080268
 20
1601.360228431734
 30
0.0
 11
-1328.384619080268
 21
1602.618823646316
 31
0.0
  0
LINE
  5
132FE
330
1A
100
AcDbEntity
  8
ZISSEN1
100
AcDbLine
 10
-1327.684619080269
 20
1601.360228431734
 30
0.0
 11
-1327.684619080269
 21
1599.701633217152
 31
0.0
  0
LINE
  5
132FF
330
1A
100
AcDbEntity
  8
ZISSEN1
100
AcDbLine
 10
-1328.384619080268
 20
1601.360228431734
 30
0.0
 11
-1328.384619080269
 21
1599.701633217153
 31
0.0
  0
DIMENSION
  5
13303
330
1A
100
AcDbEntity
  8
SUNPOU
100
AcDbDimension
  2
*D0
 10
-1377.034619372084
 20
1565.008857141779
 30
0.0
 11
-1370.034619372084
 21
1567.508857141779
 31
0.0
 70
    32
  3
標準スタイル
100
AcDbAlignedDimension
 13
-1379.034619372084
 23
1555.503911302943
 33
0.0
 14
-1377.034619372084
 24
1555.503911302943
 34
0.0
100
AcDbRotatedDimension
1001
ACAD
1000
DSTYLE
1002
{
1070
   340
1005
10
1070
    41
1040
2.5
1070
   140
1040
3.0
1070
    40
1040
1.0
1002
}
  0
LWPOLYLINE
  5
13304
330
1A
100
AcDbEntity
  8
ZISSEN1
100
AcDbPolyline
 90
        2
 70
     0
 43
0.0
 10
-1238.080148747961
 20
1588.560228108691
 10
-1248.830148780593
 20
1588.560228108691
  0
LINE
  5
13305
330
1A
100
AcDbEntity
  8
ZISSEN1
100
AcDbLine
 10
-1233.580148747961
 20
1588.560228108691
 30
0.0
 11
-1235.580148747961
 21
1588.560228108691
 31
0.0
  0
LWPOLYLINE
  5
13306
330
1A
100
AcDbEntity
  8
ZISSEN1
100
AcDbPolyline
 90
        4
 70
     1
 43
0.0
 10
-1235.580148747961
 20
1602.310228108691
 10
-1233.580148747961
 20
1602.310228108691
 10
-1233.580148747961
 20
1588.560228108691
 10
-1235.580148747961
 20
1588.560228108691
  0
LWPOLYLINE
  5
13307
330
1A
100
AcDbEntity
  8
ZISSEN1
100
AcDbPolyline
 90
        4
 70
     1
 43
0.0
 10
-1235.580148747961
 20
1646.560228108691
 10
-1233.580148747961
 20
1646.560228108691
 10
-1233.580148747961
 20
1632.810228108691
 10
-1235.580148747961
 20
1632.810228108691
  0
LWPOLYLINE
  5
13308
330
1A
100
AcDbEntity
  8
ZISSEN1
100
AcDbPolyline
 90
        3
 70
     0
 43
0.0
 10
-1235.580148747961
 20
1646.560228108691
 10
-1233.580148747961
 20
1646.560228108691
 10
-1233.580148747961
 20
1588.560228108691
  0
LWPOLYLINE
  5
13309
330
1A
100
AcDbEntity
  8
ZISSEN1
100
AcDbPolyline
 90
        2
 70
     0
 43
0.0
 10
-1248.830148780592
 20
1646.56022810613
 10
-1238.080148747961
 20
1646.560228108594
  0
LWPOLYLINE
  5
1330A
330
1A
100
AcDbEntity
  8
ZISSEN1
100
AcDbPolyline
 90
        2
 70
     0
 43
0.0
 10
-1265.580148747961
 20
1590.560228108691
 10
-1265.580148747961
 20
1644.560228108691
  0
ARC
  5
1330B
330
1A
100
AcDbEntity
  8
ZISSEN1
100
AcDbCircle
 10
-1250.580148780592
 20
1643.06022810869
 30
0.0
 40
1.749999999999772
100
AcDbArc
 50
180.0
 51
0.0
  0
LINE
  5
1330D
330
1A
100
AcDbEntity
  8
ZISSEN1
100
AcDbLine
 10
-1252.330148780592
 20
1646.56022810869
 30
0.0
 11
-1252.330148780592
 21
1643.06022810869
 31
0.0
  0
LINE
  5
1330E
330
1A
100
AcDbEntity
  8
ZISSEN1
100
AcDbLine
 10
-1248.830148780592
 20
1646.56022810869
 30
0.0
 11
-1248.830148780593
 21
1643.06022810869
 31
0.0
  0
ARC
  5
13310
330
1A
100
AcDbEntity
  8
ZISSEN1
100
AcDbCircle
 10
-1250.580148780592
 20
1592.060228108691
 30
0.0
 40
1.749999999999772
100
AcDbArc
 50
0.0
 51
180.0
  0
LINE
  5
13312
330
1A
100
AcDbEntity
  8
ZISSEN1
100
AcDbLine
 10
-1248.830148780593
 20
1588.560228108691
 30
0.0
 11
-1248.830148780593
 21
1592.060228108691
 31
0.0
  0
LINE
  5
13313
330
1A
100
AcDbEntity
  8
ZISSEN1
100
AcDbLine
 10
-1252.330148780593
 20
1588.560228108691
 30
0.0
 11
-1252.330148780592
 21
1592.060228108691
 31
0.0
  0
LINE
  5
13314
330
1A
100
AcDbEntity
  8
ZISSEN1
100
AcDbLine
 10
-1252.330148780592
 20
1646.56022810613
 30
0.0
 11
-1263.580148747961
 21
1646.560228108691
 31
0.0
  0
LINE
  5
13315
330
1A
100
AcDbEntity
  8
ZISSEN1
100
AcDbLine
 10
-1252.330148780593
 20
1588.560228108691
 30
0.0
 11
-1263.580148747961
 21
1588.560228108691
 31
0.0
  0
LWPOLYLINE
  5
13316
330
1A
100
AcDbEntity
  8
ZISSEN1
100
AcDbPolyline
 90
        4
 70
     1
 43
0.0
 10
-1239.580148747961
 20
1596.060228108691
 10
-1235.580148747961
 20
1596.060228108691
 10
-1235.580148747961
 20
1601.060228108691
 10
-1239.580148747961
 20
1601.060228108691
  0
LWPOLYLINE
  5
13317
330
1A
100
AcDbEntity
  8
ZISSEN1
100
AcDbPolyline
 90
        4
 70
     1
 43
0.0
 10
-1247.180148747961
 20
1595.810228108691
 10
-1241.180148747961
 20
1595.810228108691
 10
-1241.180148747961
 20
1601.310228108691
 10
-1247.180148747961
 20
1601.310228108691
  0
LWPOLYLINE
  5
13318
330
1A
100
AcDbEntity
  8
ZISSEN1
100
AcDbPolyline
 90
        4
 70
     1
 43
0.0
 10
-1248.780148747961
 20
1595.060228108691
 10
-1247.180148747961
 20
1595.060228108691
 10
-1247.180148747961
 20
1640.060228108691
 10
-1248.780148747961
 20
1640.060228108691
  0
LINE
  5
1331C
330
1A
100
AcDbEntity
  8
ZISSEN1
100
AcDbLine
 10
-1260.280148747961
 20
1631.660228108691
 30
0.0
 11
-1260.280148747961
 21
1630.160228108691
 31
0.0
  0
LINE
  5
1331E
330
1A
100
AcDbEntity
  8
ZISSEN1
100
AcDbLine
 10
-1248.780148747961
 20
1632.160228108691
 30
0.0
 11
-1248.780148747961
 21
1638.960228108691
 31
0.0
  0
LINE
  5
13338
330
1A
100
AcDbEntity
  8
ZISSEN1
100
AcDbLine
 10
-1248.780148747961
 20
1640.060228108691
 30
0.0
 11
-1247.180148747961
 21
1640.060228108691
 31
0.0
  0
DIMENSION
  5
1333C
330
1A
100
AcDbEntity
  8
SUNPOU
100
AcDbDimension
  2
*D1
 10
-1275.772833631259
 20
1644.06022810869
 30
0.0
 11
-1275.772833631259
 21
1657.003121509706
 31
0.0
 70
   160
  3
標準スタイル
100
AcDbAlignedDimension
 13
-1263.580148747961
 23
1646.560228108691
 33
0.0
 14
-1253.330148780594
 24
1644.06022810869
 34
0.0
 50
90.0
100
AcDbRotatedDimension
1001
ACAD
1000
DSTYLE
1002
{
1070
   340
1005
10
1070
    41
1040
2.5
1070
   140
1040
3.0
1070
    40
1040
1.0
1002
}
  0
LINE
  5
1333F
330
1A
100
AcDbEntity
  8
ZISSEN1
100
AcDbLine
 10
-1248.780148747961
 20
1601.312156654142
 30
0.0
 11
-1249.472552624466
 21
1601.225332565309
 31
0.0
  0
LINE
  5
13340
330
1A
100
AcDbEntity
  8
ZISSEN1
100
AcDbLine
 10
-1248.780148747961
 20
1595.812156654142
 30
0.0
 11
-1249.476343446052
 21
1595.899312396891
 31
0.0
  0
ARC
  5
13341
330
1A
100
AcDbEntity
  8
ZISSEN1
100
AcDbCircle
 10
-1246.531901297273
 20
1598.560228108691
 30
0.0
 40
3.968653675091007
100
AcDbArc
 50
137.8140676583605
 51
222.1043712381475
  0
LWPOLYLINE
  5
13342
330
1A
100
AcDbEntity
  8
ZISSEN1
100
AcDbPolyline
 90
        4
 70
     1
 43
0.0
 10
-1304.532108497339
 20
1531.103911302944
 10
-1376.534619372084
 20
1531.103911302943
 10
-1376.534619372084
 20
1529.503911302943
 10
-1304.532108497339
 20
1529.503911302944
  0
LINE
  5
13346
330
1A
100
AcDbEntity
  8
ZISSEN1
100
AcDbLine
 10
-1306.632108497338
 20
1550.203911302944
 30
0.0
 11
-1305.132108497338
 21
1550.203911302944
 31
0.0
  0
LINE
  5
13347
330
1A
100
AcDbEntity
  8
ZISSEN1
100
AcDbLine
 10
-1305.132108497338
 20
1550.203911302944
 30
0.0
 11
-1305.132108497339
 21
1539.616393513712
 31
0.0
  0
LINE
  5
13348
330
1A
100
AcDbEntity
  8
ZISSEN1
100
AcDbLine
 10
-1308.134619372084
 20
1538.703911302943
 30
0.0
 11
-1314.934619372084
 21
1538.703911302943
 31
0.0
  0
LINE
  5
1334A
330
1A
100
AcDbEntity
  8
ZISSEN1
100
AcDbLine
 10
-1311.432108497339
 20
1550.203911302944
 30
0.0
 11
-1305.132108497338
 21
1550.203911302944
 31
0.0
  0
LINE
  5
133C0
330
1A
100
AcDbEntity
  8
ZISSEN1
100
AcDbLine
 10
-1320.469314516272
 20
1539.503911302943
 30
0.0
 11
-1319.599314516272
 21
1539.503911302943
 31
0.0
  0
LINE
  5
133C1
330
1A
100
AcDbEntity
  8
ZISSEN1
100
AcDbLine
 10
-1323.046388516271
 20
1541.053911302943
 30
0.0
 11
-1317.022240516272
 21
1541.053911302943
 31
0.0
  0
LINE
  5
133C2
330
1A
100
AcDbEntity
  8
ZISSEN1
100
AcDbLine
 10
-1323.334314516272
 20
1539.503911302943
 30
0.0
 11
-1323.145566516272
 21
1540.966709302943
 31
0.0
  0
LINE
  5
133C3
330
1A
100
AcDbEntity
  8
ZISSEN1
100
AcDbLine
 10
-1322.139314516272
 20
1539.653911302943
 30
0.0
 11
-1321.739314516272
 21
1539.653911302943
 31
0.0
  0
LINE
  5
133C4
330
1A
100
AcDbEntity
  8
ZISSEN1
100
AcDbLine
 10
-1323.108485640287
 20
1538.703911302943
 30
0.0
 11
-1323.334314516272
 21
1539.503911302943
 31
0.0
  0
LINE
  5
133C5
330
1A
100
AcDbEntity
  8
ZISSEN1
100
AcDbLine
 10
-1323.334314516272
 20
1539.503911302943
 30
0.0
 11
-1322.139316516272
 21
1539.503911302943
 31
0.0
  0
LINE
  5
133C6
330
1A
100
AcDbEntity
  8
ZISSEN1
100
AcDbLine
 10
-1322.139312516272
 20
1538.703911302943
 30
0.0
 11
-1322.139312516272
 21
1539.653911302943
 31
0.0
  0
LINE
  5
133C7
330
1A
100
AcDbEntity
  8
ZISSEN1
100
AcDbLine
 10
-1321.739314516272
 20
1539.503911302943
 30
0.0
 11
-1320.869314516272
 21
1539.503911302943
 31
0.0
  0
LINE
  5
133C8
330
1A
100
AcDbEntity
  8
ZISSEN1
100
AcDbLine
 10
-1321.739314516272
 20
1538.703911302943
 30
0.0
 11
-1321.739314516272
 21
1539.653911302943
 31
0.0
  0
LINE
  5
133C9
330
1A
100
AcDbEntity
  8
ZISSEN1
100
AcDbLine
 10
-1320.869314516272
 20
1539.653911302943
 30
0.0
 11
-1320.469314516272
 21
1539.653911302943
 31
0.0
  0
LINE
  5
133CA
330
1A
100
AcDbEntity
  8
ZISSEN1
100
AcDbLine
 10
-1320.869314516272
 20
1538.703911302943
 30
0.0
 11
-1320.869314516272
 21
1539.653911302943
 31
0.0
  0
LINE
  5
133CB
330
1A
100
AcDbEntity
  8
ZISSEN1
100
AcDbLine
 10
-1320.469314516272
 20
1538.703911302943
 30
0.0
 11
-1320.469314516272
 21
1539.653911302943
 31
0.0
  0
ARC
  5
133CC
330
1A
100
AcDbEntity
  8
ZISSEN1
100
AcDbCircle
 10
-1323.046388516272
 20
1540.953911302943
 30
0.0
 40
0.1
100
AcDbArc
 50
89.99998200988869
 51
172.6476068959019
  0
LINE
  5
133CD
330
1A
100
AcDbEntity
  8
ZISSEN1
100
AcDbLine
 10
-1322.634314516272
 20
1540.753911302943
 30
0.0
 11
-1322.634314516272
 21
1541.053911302943
 31
0.0
  0
LINE
  5
133CE
330
1A
100
AcDbEntity
  8
ZISSEN1
100
AcDbLine
 10
-1322.634314516272
 20
1540.753911302943
 30
0.0
 11
-1323.173024516271
 21
1540.753911302943
 31
0.0
  0
LINE
  5
133CF
330
1A
100
AcDbEntity
  8
ZISSEN1
100
AcDbLine
 10
-1316.734314516272
 20
1539.503911302943
 30
0.0
 11
-1316.923062516272
 21
1540.966709302943
 31
0.0
  0
LINE
  5
133D0
330
1A
100
AcDbEntity
  8
ZISSEN1
100
AcDbLine
 10
-1316.734314516272
 20
1539.503911302943
 30
0.0
 11
-1317.929312516272
 21
1539.503911302943
 31
0.0
  0
LINE
  5
133D1
330
1A
100
AcDbEntity
  8
ZISSEN1
100
AcDbLine
 10
-1319.199314516272
 20
1539.503911302943
 30
0.0
 11
-1318.329314516271
 21
1539.503911302943
 31
0.0
  0
LINE
  5
133D2
330
1A
100
AcDbEntity
  8
ZISSEN1
100
AcDbLine
 10
-1319.599314516272
 20
1538.703911302943
 30
0.0
 11
-1319.599314516272
 21
1539.653911302943
 31
0.0
  0
LINE
  5
133D3
330
1A
100
AcDbEntity
  8
ZISSEN1
100
AcDbLine
 10
-1319.599314516272
 20
1539.653911302943
 30
0.0
 11
-1319.199314516272
 21
1539.653911302943
 31
0.0
  0
LINE
  5
133D4
330
1A
100
AcDbEntity
  8
ZISSEN1
100
AcDbLine
 10
-1319.199314516272
 20
1538.703911302943
 30
0.0
 11
-1319.199314516272
 21
1539.653911302943
 31
0.0
  0
LINE
  5
133D5
330
1A
100
AcDbEntity
  8
ZISSEN1
100
AcDbLine
 10
-1318.329314516271
 20
1538.703911302943
 30
0.0
 11
-1318.329314516271
 21
1539.653911302943
 31
0.0
  0
LINE
  5
133D6
330
1A
100
AcDbEntity
  8
ZISSEN1
100
AcDbLine
 10
-1318.329314516271
 20
1539.653911302943
 30
0.0
 11
-1317.929314516272
 21
1539.653911302943
 31
0.0
  0
LINE
  5
133D7
330
1A
100
AcDbEntity
  8
ZISSEN1
100
AcDbLine
 10
-1317.929314516272
 20
1538.703911302943
 30
0.0
 11
-1317.929314516272
 21
1539.653911302943
 31
0.0
  0
LINE
  5
133D8
330
1A
100
AcDbEntity
  8
ZISSEN1
100
AcDbLine
 10
-1316.962568316103
 20
1538.703911302943
 30
0.0
 11
-1316.734314516272
 21
1539.503911302943
 31
0.0
  0
ARC
  5
133D9
330
1A
100
AcDbEntity
  8
ZISSEN1
100
AcDbCircle
 10
-1317.022240516271
 20
1540.953911302943
 30
0.0
 40
0.1
100
AcDbArc
 50
7.352398113394196
 51
90.00002297268089
  0
LINE
  5
133DB
102
{ACAD_REACTORS
330
14228
102
}
330
1A
100
AcDbEntity
  8
ZISSEN1
100
AcDbLine
 10
-1347.334619372083
 20
1542.603911302943
 30
0.0
 11
-1347.334619372083
 21
1531.103911302943
 31
0.0
  0
LINE
  5
133DD
102
{ACAD_REACTORS
330
14228
102
}
330
1A
100
AcDbEntity
  8
ZISSEN1
100
AcDbLine
 10
-1359.734619372083
 20
1542.603911302943
 30
0.0
 11
-1359.734619372083
 21
1531.103911302943
 31
0.0
  0
LINE
  5
13403
102
{ACAD_REACTORS
330
14228
102
}
330
1A
100
AcDbEntity
  8
ZISSEN1
100
AcDbLine
 10
-1359.734619372083
 20
1531.103911302943
 30
0.0
 11
-1358.234619372083
 21
1531.103911302943
 31
0.0
  0
LINE
  5
13404
102
{ACAD_REACTORS
330
14228
102
}
330
1A
100
AcDbEntity
  8
ZISSEN1
100
AcDbLine
 10
-1348.834619372083
 20
1531.103911302943
 30
0.0
 11
-1347.334619372083
 21
1531.103911302943
 31
0.0
  0
LINE
  5
1346A
330
1A
100
AcDbEntity
  8
ZISSEN1
100
AcDbLine
 10
-1333.834619372083
 20
1542.603911302943
 30
0.0
 11
-1333.834619372083
 21
1531.103911302943
 31
0.0
  0
LINE
  5
1346C
330
1A
100
AcDbEntity
  8
ZISSEN1
100
AcDbLine
 10
-1346.234619372083
 20
1542.603911302943
 30
0.0
 11
-1346.234619372083
 21
1531.103911302943
 31
0.0
  0
LINE
  5
13492
330
1A
100
AcDbEntity
  8
ZISSEN1
100
AcDbLine
 10
-1346.234619372083
 20
1531.103911302943
 30
0.0
 11
-1344.734619372083
 21
1531.103911302943
 31
0.0
  0
LINE
  5
13493
330
1A
100
AcDbEntity
  8
ZISSEN1
100
AcDbLine
 10
-1335.334619372083
 20
1531.103911302943
 30
0.0
 11
-1333.834619372083
 21
1531.103911302943
 31
0.0
  0
LINE
  5
134FD
330
1A
100
AcDbEntity
  8
ZISSEN1
100
AcDbLine
 10
-1360.534619372084
 20
1537.103911302943
 30
0.0
 11
-1360.534619372084
 21
1538.703911302943
 31
0.0
  0
LINE
  5
13500
330
1A
100
AcDbEntity
  8
ZISSEN1
100
AcDbLine
 10
-1376.534619372084
 20
1537.103911302943
 30
0.0
 11
-1376.534619372084
 21
1538.703911302943
 31
0.0
  0
LINE
  5
13501
330
1A
100
AcDbEntity
  8
ZISSEN1
100
AcDbLine
 10
-1376.534619372084
 20
1538.703911302943
 30
0.0
 11
-1359.734619372083
 21
1538.703911302943
 31
0.0
  0
LINE
  5
13502
330
1A
100
AcDbEntity
  8
ZISSEN1
100
AcDbLine
 10
-1347.334619372083
 20
1538.703911302943
 30
0.0
 11
-1346.234619372083
 21
1538.703911302943
 31
0.0
  0
LINE
  5
13503
330
1A
100
AcDbEntity
  8
ZISSEN1
100
AcDbLine
 10
-1333.834619372083
 20
1538.703911302943
 30
0.0
 11
-1331.784619372084
 21
1538.703911302943
 31
0.0
  0
LINE
  5
13504
330
1A
100
AcDbEntity
  8
ZISSEN1
100
AcDbLine
 10
-1331.784619372084
 20
1538.703911302943
 30
0.0
 11
-1304.532108497339
 21
1538.703911302944
 31
0.0
  0
LINE
  5
13505
330
1A
100
AcDbEntity
  8
ZISSEN1
100
AcDbLine
 10
-1304.532108497339
 20
1538.703911302944
 30
0.0
 11
-1304.532108497339
 21
1537.103911302944
 31
0.0
  0
LINE
  5
13506
330
1A
100
AcDbEntity
  8
ZISSEN1
100
AcDbLine
 10
-1304.532108497339
 20
1537.103911302944
 30
0.0
 11
-1315.784619372084
 21
1537.103911302943
 31
0.0
  0
LINE
  5
13507
330
1A
100
AcDbEntity
  8
ZISSEN1
100
AcDbLine
 10
-1315.784619372084
 20
1537.103911302943
 30
0.0
 11
-1333.834619372083
 21
1537.103911302943
 31
0.0
  0
LINE
  5
13508
330
1A
100
AcDbEntity
  8
ZISSEN1
100
AcDbLine
 10
-1346.234619372083
 20
1537.103911302943
 30
0.0
 11
-1347.334619372083
 21
1537.103911302943
 31
0.0
  0
LINE
  5
13509
330
1A
100
AcDbEntity
  8
ZISSEN1
100
AcDbLine
 10
-1359.734619372083
 20
1537.103911302943
 30
0.0
 11
-1376.534619372084
 21
1537.103911302943
 31
0.0
  0
LINE
  5
1350A
330
1A
100
AcDbEntity
  8
ZISSEN1
100
AcDbLine
 10
-1376.534619372084
 20
1529.503911302943
 30
0.0
 11
-1376.534619372084
 21
1531.103911302943
 31
0.0
  0
LINE
  5
1350B
330
1A
100
AcDbEntity
  8
ZISSEN1
100
AcDbLine
 10
-1375.534619372084
 20
1529.503911302943
 30
0.0
 11
-1375.534619372084
 21
1531.103911302943
 31
0.0
  0
LINE
  5
1350C
330
1A
100
AcDbEntity
  8
ZISSEN1
100
AcDbLine
 10
-1375.534619372084
 20
1537.103911302943
 30
0.0
 11
-1375.534619372084
 21
1538.703911302943
 31
0.0
  0
LINE
  5
1350D
330
1A
100
AcDbEntity
  8
ZISSEN1
100
AcDbLine
 10
-1305.532108497339
 20
1529.503911302944
 30
0.0
 11
-1305.532108497339
 21
1531.103911302944
 31
0.0
  0
LINE
  5
1350E
330
1A
100
AcDbEntity
  8
ZISSEN1
100
AcDbLine
 10
-1305.532108497339
 20
1537.103911302944
 30
0.0
 11
-1305.532108497339
 21
1538.703911302944
 31
0.0
  0
LINE
  5
13513
330
1A
100
AcDbEntity
  8
ZISSEN1
100
AcDbLine
 10
-1330.934314516272
 20
1539.503911302943
 30
0.0
 11
-1329.739316516272
 21
1539.503911302943
 31
0.0
  0
LINE
  5
13514
330
1A
100
AcDbEntity
  8
ZISSEN1
100
AcDbLine
 10
-1379.034619372084
 20
1526.003911302946
 30
0.0
 11
-1376.900644775869
 21
1526.003911302946
 31
0.0
  0
LINE
  5
13515
330
1A
100
AcDbEntity
  8
ZISSEN1
100
AcDbLine
 10
-1304.032108497339
 20
1523.503911302944
 30
0.0
 11
-1376.534619372084
 21
1523.503911302944
 31
0.0
  0
LINE
  5
13516
330
1A
100
AcDbEntity
  8
ZISSEN1
100
AcDbLine
 10
-1372.187085423336
 20
1531.103911302943
 30
0.0
 11
-1375.337085423336
 21
1531.103911302943
 31
0.0
  0
LINE
  5
1351D
330
1A
100
AcDbEntity
  8
ZISSEN1
100
AcDbLine
 10
-1304.032108497339
 20
1525.503911302944
 30
0.0
 11
-1304.032108497339
 21
1523.503911302944
 31
0.0
  0
LINE
  5
1351E
330
1A
100
AcDbEntity
  8
ZISSEN1
100
AcDbLine
 10
-1328.069314516271
 20
1539.503911302943
 30
0.0
 11
-1327.199314516271
 21
1539.503911302943
 31
0.0
  0
LINE
  5
1351F
330
1A
100
AcDbEntity
  8
ZISSEN1
100
AcDbLine
 10
-1330.646388516271
 20
1541.053911302943
 30
0.0
 11
-1324.622240516272
 21
1541.053911302943
 31
0.0
  0
LINE
  5
13520
330
1A
100
AcDbEntity
  8
ZISSEN1
100
AcDbLine
 10
-1330.934314516272
 20
1539.503911302943
 30
0.0
 11
-1330.745566516272
 21
1540.966709302943
 31
0.0
  0
LINE
  5
13521
330
1A
100
AcDbEntity
  8
ZISSEN1
100
AcDbLine
 10
-1329.739314516271
 20
1539.653911302943
 30
0.0
 11
-1329.339314516272
 21
1539.653911302943
 31
0.0
  0
LINE
  5
13522
330
1A
100
AcDbEntity
  8
ZISSEN1
100
AcDbLine
 10
-1330.708485640287
 20
1538.703911302943
 30
0.0
 11
-1330.934314516272
 21
1539.503911302943
 31
0.0
  0
LINE
  5
13523
330
1A
100
AcDbEntity
  8
ZISSEN1
100
AcDbLine
 10
-1330.934314516272
 20
1539.503911302943
 30
0.0
 11
-1329.739316516272
 21
1539.503911302943
 31
0.0
  0
LINE
  5
13524
330
1A
100
AcDbEntity
  8
ZISSEN1
100
AcDbLine
 10
-1329.739312516272
 20
1538.703911302943
 30
0.0
 11
-1329.739312516272
 21
1539.653911302943
 31
0.0
  0
LINE
  5
13525
330
1A
100
AcDbEntity
  8
ZISSEN1
100
AcDbLine
 10
-1329.339314516272
 20
1539.503911302943
 30
0.0
 11
-1328.469314516272
 21
1539.503911302943
 31
0.0
  0
LINE
  5
13526
330
1A
100
AcDbEntity
  8
ZISSEN1
100
AcDbLine
 10
-1329.339314516272
 20
1538.703911302943
 30
0.0
 11
-1329.339314516272
 21
1539.653911302943
 31
0.0
  0
LINE
  5
13527
330
1A
100
AcDbEntity
  8
ZISSEN1
100
AcDbLine
 10
-1328.469314516272
 20
1539.653911302943
 30
0.0
 11
-1328.069314516271
 21
1539.653911302943
 31
0.0
  0
LINE
  5
13528
330
1A
100
AcDbEntity
  8
ZISSEN1
100
AcDbLine
 10
-1328.469314516272
 20
1538.703911302943
 30
0.0
 11
-1328.469314516272
 21
1539.653911302943
 31
0.0
  0
LINE
  5
13529
330
1A
100
AcDbEntity
  8
ZISSEN1
100
AcDbLine
 10
-1328.069314516271
 20
1538.703911302943
 30
0.0
 11
-1328.069314516271
 21
1539.653911302943
 31
0.0
  0
ARC
  5
1352A
330
1A
100
AcDbEntity
  8
ZISSEN1
100
AcDbCircle
 10
-1330.646388516272
 20
1540.953911302943
 30
0.0
 40
0.1
100
AcDbArc
 50
89.99998200988869
 51
172.6476068959019
  0
LINE
  5
1352B
330
1A
100
AcDbEntity
  8
ZISSEN1
100
AcDbLine
 10
-1330.234314516271
 20
1540.753911302943
 30
0.0
 11
-1330.234314516271
 21
1541.053911302943
 31
0.0
  0
LINE
  5
1352C
330
1A
100
AcDbEntity
  8
ZISSEN1
100
AcDbLine
 10
-1330.234314516271
 20
1540.753911302943
 30
0.0
 11
-1330.773024516271
 21
1540.753911302943
 31
0.0
  0
LINE
  5
1352D
330
1A
100
AcDbEntity
  8
ZISSEN1
100
AcDbLine
 10
-1324.334314516272
 20
1539.503911302943
 30
0.0
 11
-1324.523062516271
 21
1540.966709302943
 31
0.0
  0
LINE
  5
1352E
330
1A
100
AcDbEntity
  8
ZISSEN1
100
AcDbLine
 10
-1324.334314516272
 20
1539.503911302943
 30
0.0
 11
-1325.529312516272
 21
1539.503911302943
 31
0.0
  0
LINE
  5
1352F
330
1A
100
AcDbEntity
  8
ZISSEN1
100
AcDbLine
 10
-1326.799314516272
 20
1539.503911302943
 30
0.0
 11
-1325.929314516272
 21
1539.503911302943
 31
0.0
  0
LINE
  5
13530
330
1A
100
AcDbEntity
  8
ZISSEN1
100
AcDbLine
 10
-1327.199314516271
 20
1538.703911302943
 30
0.0
 11
-1327.199314516271
 21
1539.653911302943
 31
0.0
  0
LINE
  5
13531
330
1A
100
AcDbEntity
  8
ZISSEN1
100
AcDbLine
 10
-1327.199314516271
 20
1539.653911302943
 30
0.0
 11
-1326.799314516272
 21
1539.653911302943
 31
0.0
  0
LINE
  5
13532
330
1A
100
AcDbEntity
  8
ZISSEN1
100
AcDbLine
 10
-1326.799314516272
 20
1538.703911302943
 30
0.0
 11
-1326.799314516272
 21
1539.653911302943
 31
0.0
  0
LINE
  5
13533
330
1A
100
AcDbEntity
  8
ZISSEN1
100
AcDbLine
 10
-1325.929314516272
 20
1538.703911302943
 30
0.0
 11
-1325.929314516272
 21
1539.653911302943
 31
0.0
  0
LINE
  5
13534
330
1A
100
AcDbEntity
  8
ZISSEN1
100
AcDbLine
 10
-1325.929314516272
 20
1539.653911302943
 30
0.0
 11
-1325.529314516272
 21
1539.653911302943
 31
0.0
  0
LINE
  5
13535
330
1A
100
AcDbEntity
  8
ZISSEN1
100
AcDbLine
 10
-1325.529314516272
 20
1538.703911302943
 30
0.0
 11
-1325.529314516272
 21
1539.653911302943
 31
0.0
  0
LINE
  5
13536
330
1A
100
AcDbEntity
  8
ZISSEN1
100
AcDbLine
 10
-1324.562568316103
 20
1538.703911302943
 30
0.0
 11
-1324.334314516272
 21
1539.503911302943
 31
0.0
  0
ARC
  5
13537
330
1A
100
AcDbEntity
  8
ZISSEN1
100
AcDbCircle
 10
-1324.622240516271
 20
1540.953911302943
 30
0.0
 40
0.1
100
AcDbArc
 50
7.352398113394196
 51
90.00002297268089
  0
LWPOLYLINE
  5
13538
330
1A
100
AcDbEntity
  8
ZISSEN1
100
AcDbPolyline
 90
        4
 70
     1
 43
0.0
 10
-1323.284619372084
 20
1531.103911302943
 10
-1315.784619372084
 20
1531.103911302943
 10
-1315.784619372084
 20
1535.203911302943
 10
-1323.284619372084
 20
1535.203911302943
  0
LINE
  5
13539
330
1A
100
AcDbEntity
  8
ZISSEN1
100
AcDbLine
 10
-1315.784619372084
 20
1533.703911302943
 30
0.0
 11
-1323.284619372084
 21
1533.703911302943
 31
0.0
  0
LWPOLYLINE
  5
1353A
330
1A
100
AcDbEntity
  8
ZISSEN1
100
AcDbPolyline
 90
        4
 70
     1
 43
0.0
 10
-1331.784619372084
 20
1531.103911302943
 10
-1324.284619372084
 20
1531.103911302943
 10
-1324.284619372084
 20
1535.203911302943
 10
-1331.784619372084
 20
1535.203911302943
  0
LINE
  5
1353B
330
1A
100
AcDbEntity
  8
ZISSEN1
100
AcDbLine
 10
-1324.284619372084
 20
1533.703911302943
 30
0.0
 11
-1331.784619372084
 21
1533.703911302943
 31
0.0
  0
LINE
  5
1353C
330
1A
100
AcDbEntity
  8
ZISSEN1
100
AcDbLine
 10
-1376.534619372084
 20
1523.503911302944
 30
0.0
 11
-1376.534619372084
 21
1525.637885899159
 31
0.0
  0
LINE
  5
1353D
330
1A
100
AcDbEntity
  8
ZISSEN1
100
AcDbLine
 10
-1379.034619372084
 20
1526.003911302946
 30
0.0
 11
-1379.034619372084
 21
1555.503907486008
 31
0.0
  0
ARC
  5
1353E
330
1A
100
AcDbEntity
  8
ZISSEN1
100
AcDbCircle
 10
-1375.869913348719
 20
1526.668617326309
 30
0.0
 40
3.233759161072285
100
AcDbArc
 50
191.8618210282265
 51
258.1381789717325
  0
LINE
  5
1353F
330
1A
100
AcDbEntity
  8
ZISSEN1
100
AcDbLine
 10
-1379.034619789893
 20
1555.503907486007
 30
0.0
 11
-1377.034619372084
 21
1555.503911302943
 31
0.0
  0
DIMENSION
  5
13545
330
1A
100
AcDbEntity
  8
SUNPOU
100
AcDbDimension
  2
*D2
 10
-1248.830148780592
 20
1656.069863691429
 30
0.0
 11
-1239.830148780592
 21
1658.569863691429
 31
0.0
 70
    32
  3
標準スタイル
100
AcDbAlignedDimension
 13
-1252.330148780592
 23
1646.56022810869
 33
0.0
 14
-1248.830148780592
 24
1646.560228108691
 34
0.0
 50
180.0
100
AcDbRotatedDimension
1001
ACAD
1000
DSTYLE
1002
{
1070
   340
1005
10
1070
    41
1040
2.5
1070
   140
1040
3.0
1070
    40
1040
1.0
1002
}
  0
DIMENSION
  5
13546
330
1A
100
AcDbEntity
  8
SUNPOU
100
AcDbDimension
  2
*D3
 10
-1295.034619372084
 20
1523.503911302944
 30
0.0
 11
-1297.534619372085
 21
1536.853911302944
 31
0.0
 70
    32
  1
(27)
  3
標準スタイル
100
AcDbAlignedDimension
 13
-1305.132108497338
 23
1550.203911302944
 33
0.0
 14
-1304.032108497339
 24
1523.503911302944
 34
0.0
 50
90.0
100
AcDbRotatedDimension
1001
ACAD
1000
DSTYLE
1002
{
1070
   340
1005
10
1070
    41
1040
2.5
1070
   140
1040
3.0
1070
    40
1040
1.0
1002
}
  0
LINE
  5
13547
330
1A
100
AcDbEntity
  8
ZISSEN1
100
AcDbLine
 10
-1379.034619789893
 20
1538.753907486007
 30
0.0
 11
-1377.034619372084
 21
1538.753911302943
 31
0.0
  0
LINE
  5
13548
330
1A
100
AcDbEntity
  8
ZISSEN1
100
AcDbLine
 10
-1379.034619789893
 20
1542.253907486007
 30
0.0
 11
-1377.034619372084
 21
1542.253911302943
 31
0.0
  0
CIRCLE
  5
13549
330
1A
100
AcDbEntity
  8
ZISSEN1
100
AcDbCircle
 10
-1307.534619080268
 20
1637.060228431734
 30
0.0
 40
2.75
  0
LINE
  5
1354B
330
1A
100
AcDbEntity
  8
ZISSEN1
100
AcDbLine
 10
-1307.286788026133
 20
1588.560229775828
 30
0.0
 11
-1307.286788026133
 21
1592.060229775829
 31
0.0
  0
ARC
  5
1354C
330
1A
100
AcDbEntity
  8
ZISSEN1
100
AcDbCircle
 10
-1309.036788026133
 20
1592.060229775829
 30
0.0
 40
1.749999999999772
100
AcDbArc
 50
0.0
 51
180.0
  0
LINE
  5
1354D
330
1A
100
AcDbEntity
  8
ZISSEN1
100
AcDbLine
 10
-1310.786788026133
 20
1588.560229775828
 30
0.0
 11
-1310.786788026133
 21
1592.060229775829
 31
0.0
  0
LINE
  5
1354F
330
1A
100
AcDbEntity
  8
ZISSEN1
100
AcDbLine
 10
-1369.282518594822
 20
1646.560228431734
 30
0.0
 11
-1369.282518594822
 21
1643.060228431734
 31
0.0
  0
LINE
  5
13550
330
1A
100
AcDbEntity
  8
ZISSEN1
100
AcDbLine
 10
-1372.782518594822
 20
1646.560228431734
 30
0.0
 11
-1372.782518594822
 21
1643.060228431734
 31
0.0
  0
ARC
  5
13552
330
1A
100
AcDbEntity
  8
ZISSEN1
100
AcDbCircle
 10
-1371.032518594822
 20
1643.060228431735
 30
0.0
 40
1.749999999999772
100
AcDbArc
 50
180.0
 51
0.0
  0
LINE
  5
13554
330
1A
100
AcDbEntity
  8
ZISSEN1
100
AcDbLine
 10
-1310.786788026133
 20
1588.560229775828
 30
0.0
 11
-1313.038956972
 21
1588.560229775828
 31
0.0
  0
LINE
  5
13555
330
1A
100
AcDbEntity
  8
ZISSEN1
100
AcDbLine
 10
-1314.038956972
 20
1589.560229775829
 30
0.0
 11
-1314.038956972
 21
1593.560228431734
 31
0.0
  0
DIMENSION
  5
13556
330
1A
100
AcDbEntity
  8
SUNPOU
100
AcDbDimension
  2
*D4
 10
-1371.034619080268
 20
1578.310228431734
 30
0.0
 11
-1346.096835062931
 21
1580.906437637425
 31
0.0
 70
   160
  3
標準スタイル
100
AcDbAlignedDimension
 13
-1309.034996288332
 23
1588.560229775828
 33
0.0
 14
-1371.034619080268
 24
1641.310229692317
 34
0.0
 50
180.0
100
AcDbRotatedDimension
1001
ACAD
1000
DSTYLE
1002
{
1070
   287
1070
     5
1070
   340
1005
10
1070
    41
1040
2.5
1070
    40
1040
1.0
1070
   140
1040
3.0
1070
   279
1070
     2
1002
}
  0
LINE
  5
13557
330
1A
100
AcDbEntity
  8
ZISSEN1
100
AcDbLine
 10
-1247.180148747961
 20
1598.560228108691
 30
0.0
 11
-1241.180148747962
 21
1598.560228108691
 31
0.0
  0
LINE
  5
13558
330
1A
100
AcDbEntity
  8
ZISSEN1
100
AcDbLine
 10
-1247.180148747961
 20
1636.560228108691
 30
0.0
 11
-1241.180148747962
 21
1636.560228108691
 31
0.0
  0
LWPOLYLINE
  5
13559
330
1A
100
AcDbEntity
  8
ZISSEN1
100
AcDbPolyline
 90
        4
 70
     1
 43
0.0
 10
-1247.180148747962
 20
1633.810228108691
 10
-1241.180148747962
 20
1633.810228108691
 10
-1241.180148747962
 20
1639.310228108691
 10
-1247.180148747962
 20
1639.310228108691
  0
LWPOLYLINE
  5
1355A
330
1A
100
AcDbEntity
  8
ZISSEN1
100
AcDbPolyline
 90
        4
 70
     1
 43
0.0
 10
-1241.180148747961
 20
1595.060228108691
 10
-1239.580148747961
 20
1595.060228108691
 10
-1239.580148747961
 20
1640.060228108691
 10
-1241.180148747961
 20
1640.060228108691
  0
LINE
  5
1355B
330
1A
100
AcDbEntity
  8
ZISSEN1
100
AcDbLine
 10
-1241.180148747961
 20
1632.160228108691
 30
0.0
 11
-1241.180148747961
 21
1638.960228108691
 31
0.0
  0
LINE
  5
1355C
330
1A
100
AcDbEntity
  8
ZISSEN1
100
AcDbLine
 10
-1241.180148747961
 20
1596.060228108691
 30
0.0
 11
-1239.580148747961
 21
1596.060228108691
 31
0.0
  0
LINE
  5
1355D
330
1A
100
AcDbEntity
  8
ZISSEN1
100
AcDbLine
 10
-1241.180148747961
 20
1640.060228108691
 30
0.0
 11
-1239.580148747961
 21
1640.060228108691
 31
0.0
  0
LINE
  5
1355E
330
1A
100
AcDbEntity
  8
ZISSEN1
100
AcDbLine
 10
-1241.180148747961
 20
1639.06022810869
 30
0.0
 11
-1239.580148747961
 21
1639.06022810869
 31
0.0
  0
LINE
  5
1356F
330
1A
100
AcDbEntity
  8
ZISSEN1
100
AcDbLine
 10
-1248.780148747961
 20
1595.812156654142
 30
0.0
 11
-1248.780148747961
 21
1601.312156654142
 31
0.0
  0
LINE
  5
13570
330
1A
100
AcDbEntity
  8
ZISSEN1
100
AcDbLine
 10
-1248.780148747961
 20
1639.312156654142
 30
0.0
 11
-1249.472552624466
 21
1639.225332565309
 31
0.0
  0
LINE
  5
13571
330
1A
100
AcDbEntity
  8
ZISSEN1
100
AcDbLine
 10
-1248.780148747961
 20
1633.812156654142
 30
0.0
 11
-1249.476343446052
 21
1633.899312396891
 31
0.0
  0
ARC
  5
13572
330
1A
100
AcDbEntity
  8
ZISSEN1
100
AcDbCircle
 10
-1246.531901297273
 20
1636.56022810869
 30
0.0
 40
3.968653675091007
100
AcDbArc
 50
137.8140676583605
 51
222.1043712381475
  0
LWPOLYLINE
  5
13577
330
1A
100
AcDbEntity
  8
ZISSEN1
100
AcDbPolyline
 90
        4
 70
     1
 43
0.0
 10
-1375.534619372084
 20
1529.503911302943
 10
-1375.534619372084
 20
1525.503911302943
 10
-1370.534619372084
 20
1525.503911302943
 10
-1370.534619372084
 20
1529.503911302943
  0
LWPOLYLINE
  5
13578
330
1A
100
AcDbEntity
  8
ZISSEN1
100
AcDbPolyline
 90
        4
 70
     1
 43
0.0
 10
-1375.784619372084
 20
1537.103911302943
 10
-1375.784619372084
 20
1531.103911302943
 10
-1370.284619372084
 20
1531.103911302943
 10
-1370.284619372084
 20
1537.103911302943
  0
LINE
  5
13579
330
1A
100
AcDbEntity
  8
ZISSEN1
100
AcDbLine
 10
-1370.282690826633
 20
1538.703911302943
 30
0.0
 11
-1370.369514915465
 21
1539.396315179449
 31
0.0
  0
LINE
  5
1357A
330
1A
100
AcDbEntity
  8
ZISSEN1
100
AcDbLine
 10
-1375.782690826633
 20
1538.703911302943
 30
0.0
 11
-1375.695535083884
 21
1539.400106001034
 31
0.0
  0
ARC
  5
1357B
330
1A
100
AcDbEntity
  8
ZISSEN1
100
AcDbCircle
 10
-1373.034619372084
 20
1536.455663852255
 30
0.0
 40
3.968653675091007
100
AcDbArc
 50
47.81406765837893
 51
132.1043712381291
  0
LINE
  5
1357C
330
1A
100
AcDbEntity
  8
ZISSEN1
100
AcDbLine
 10
-1373.034619372084
 20
1537.103911302944
 30
0.0
 11
-1373.034619372084
 21
1531.103911302944
 31
0.0
  0
LINE
  5
13585
330
1A
100
AcDbEntity
  8
ZISSEN1
100
AcDbLine
 10
-1375.782690826633
 20
1538.703911302943
 30
0.0
 11
-1370.282690826633
 21
1538.703911302943
 31
0.0
  0
LINE
  5
13586
330
1A
100
AcDbEntity
  8
ZISSEN1
100
AcDbLine
 10
-1312.030239784585
 20
1537.103911302944
 30
0.0
 11
-1312.030239784585
 21
1538.703911302944
 31
0.0
  0
LINE
  5
13587
330
1A
100
AcDbEntity
  8
ZISSEN1
100
AcDbLine
 10
-1307.184574548591
 20
1531.103911302944
 30
0.0
 11
-1310.334574548591
 21
1531.103911302944
 31
0.0
  0
LWPOLYLINE
  5
13588
330
1A
100
AcDbEntity
  8
ZISSEN1
100
AcDbPolyline
 90
        4
 70
     1
 43
0.0
 10
-1310.282108497339
 20
1537.103911302944
 10
-1310.282108497339
 20
1531.103911302944
 10
-1304.782108497339
 20
1531.103911302944
 10
-1304.782108497339
 20
1537.103911302944
  0
LINE
  5
13589
330
1A
100
AcDbEntity
  8
ZISSEN1
100
AcDbLine
 10
-1304.780179951888
 20
1538.703911302944
 30
0.0
 11
-1304.867004040721
 21
1539.396315179449
 31
0.0
  0
LINE
  5
1358A
330
1A
100
AcDbEntity
  8
ZISSEN1
100
AcDbLine
 10
-1310.280179951887
 20
1538.703911302944
 30
0.0
 11
-1310.193024209139
 21
1539.400106001035
 31
0.0
  0
ARC
  5
1358B
330
1A
100
AcDbEntity
  8
ZISSEN1
100
AcDbCircle
 10
-1307.532108497339
 20
1536.455663852255
 30
0.0
 40
3.968653675091007
100
AcDbArc
 50
47.81406765837893
 51
132.1043712381291
  0
LINE
  5
1358C
330
1A
100
AcDbEntity
  8
ZISSEN1
100
AcDbLine
 10
-1307.532108497339
 20
1537.103911302944
 30
0.0
 11
-1307.532108497339
 21
1531.103911302944
 31
0.0
  0
LINE
  5
13595
330
1A
100
AcDbEntity
  8
ZISSEN1
100
AcDbLine
 10
-1310.280179951887
 20
1538.703911302944
 30
0.0
 11
-1304.780179951888
 21
1538.703911302944
 31
0.0
  0
DIMENSION
  5
13598
330
1A
100
AcDbEntity
  8
SUNPOU
100
AcDbDimension
  2
*D5
 10
-1379.034619080268
 20
1578.310228431734
 30
0.0
 11
-1375.034619080268
 21
1580.810228431734
 31
0.0
 70
    32
  3
標準スタイル
100
AcDbAlignedDimension
 13
-1371.034619080268
 23
1641.310229692317
 33
0.0
 14
-1379.034619080268
 24
1588.560228431734
 34
0.0
100
AcDbRotatedDimension
1001
ACAD
1000
DSTYLE
1002
{
1070
   340
1005
10
1070
    41
1040
2.5
1070
   140
1040
3.0
1070
    40
1040
1.0
1002
}
  0
DIMENSION
  5
13599
330
1A
100
AcDbEntity
  8
SUNPOU
100
AcDbDimension
  2
*D6
 10
-1309.034996288332
 20
1578.310228431734
 30
0.0
 11
-1306.533552246928
 21
1580.810228431735
 31
0.0
 70
    32
  3
標準スタイル
100
AcDbAlignedDimension
 13
-1304.032108205523
 23
1589.560229775829
 33
0.0
 14
-1309.034996288332
 24
1588.560229775828
 34
0.0
100
AcDbRotatedDimension
1001
ACAD
1000
DSTYLE
1002
{
1070
   340
1005
10
1070
    41
1040
2.5
1070
   140
1040
3.0
1070
    40
1040
1.0
1002
}
  0
LWPOLYLINE
  5
135C1
330
1A
100
AcDbEntity
  8
ZISSEN1
100
AcDbPolyline
 90
        4
 70
     1
 43
0.0
 10
-1239.580148747961
 20
1634.06022810869
 10
-1235.580148747961
 20
1634.06022810869
 10
-1235.580148747961
 20
1639.06022810869
 10
-1239.580148747961
 20
1639.06022810869
  0
LWPOLYLINE
  5
135C2
330
1A
100
AcDbEntity
  8
ZISSEN1
100
AcDbPolyline
 90
        4
 70
     1
 43
0.0
 10
-1310.032108497339
 20
1529.503911302944
 10
-1310.032108497339
 20
1525.503911302944
 10
-1305.032108497339
 20
1525.503911302944
 10
-1305.032108497339
 20
1529.503911302944
  0
LINE
  5
135C6
330
1A
100
AcDbEntity
  8
ZISSEN1
100
AcDbLine
 10
-1315.784619080269
 20
1604.910228431734
 30
0.0
 11
-1315.784619080269
 21
1604.410228431734
 31
0.0
  0
LWPOLYLINE
  5
135C9
330
1A
100
AcDbEntity
  8
ZISSEN1
100
AcDbPolyline
 90
        4
 70
     1
 43
0.0
 10
-1309.499897865214
 20
1607.010228431733
 10
-1307.499897865214
 20
1607.010228431733
 10
-1307.499897865214
 20
1608.260228431733
 10
-1309.499897865214
 20
1608.260228431733
  0
LINE
  5
135DD
330
1A
100
AcDbEntity
  8
KAKURESEN1
100
AcDbLine
 10
-1323.034615859261
 20
1635.560229825533
 30
0.0
 11
-1365.034619080268
 21
1635.560228431733
 31
0.0
  0
LINE
  5
135DE
330
1A
100
AcDbEntity
  8
KAKURESEN1
100
AcDbLine
 10
-1366.034619080268
 20
1640.060228431734
 30
0.0
 11
-1366.034619080268
 21
1636.560228431734
 31
0.0
  0
LINE
  5
135DF
330
1A
100
AcDbEntity
  8
KAKURESEN1
100
AcDbLine
 10
-1322.034615859261
 20
1636.560229825533
 30
0.0
 11
-1322.034619080269
 21
1639.560228431733
 31
0.0
  0
LINE
  5
135E0
330
1A
100
AcDbEntity
  8
ZISSEN1
100
AcDbLine
 10
-1321.034619080269
 20
1640.560228431733
 30
0.0
 11
-1322.034619080269
 21
1639.560228431733
 31
0.0
  0
LINE
  5
135E1
330
1A
100
AcDbEntity
  8
ZISSEN1
100
AcDbLine
 10
-1263.580148747961
 20
1646.560228108691
 30
0.0
 11
-1265.580148747961
 21
1644.560228108691
 31
0.0
  0
ARC
  5
135E2
330
1A
100
AcDbEntity
  8
ZISSEN1
100
AcDbCircle
 10
-1376.034619372082
 20
1526.503911302945
 30
0.0
 40
1.000000000002046
100
AcDbArc
 50
180.0000000001042
 51
269.9999999998827
  0
LINE
  5
135E3
330
1A
100
AcDbEntity
  8
ZISSEN1
100
AcDbLine
 10
-1377.034619372084
 20
1526.503911302945
 30
0.0
 11
-1377.034619372084
 21
1555.503911302943
 31
0.0
  0
LINE
  5
135E4
330
1A
100
AcDbEntity
  8
ZISSEN1
100
AcDbLine
 10
-1376.034619372084
 20
1525.503911302944
 30
0.0
 11
-1304.032108497339
 21
1525.503911302944
 31
0.0
  0
LINE
  5
135E5
330
1A
100
AcDbEntity
  8
ZISSEN1
100
AcDbLine
 10
-1314.038956972
 20
1589.560229775829
 30
0.0
 11
-1313.038956972
 21
1588.560229775828
 31
0.0
  0
LINE
  5
135E6
330
1A
100
AcDbEntity
  8
ZISSEN1
100
AcDbLine
 10
-1376.534619080268
 20
1645.560228431734
 30
0.0
 11
-1375.534619080268
 21
1646.560228431734
 31
0.0
  0
LINE
  5
135E7
330
1A
100
AcDbEntity
  8
ZISSEN1
100
AcDbLine
 10
-1366.034619080268
 20
1645.560228431734
 30
0.0
 11
-1367.034619080268
 21
1646.560228431734
 31
0.0
  0
LINE
  5
135E8
330
1A
100
AcDbEntity
  8
ZISSEN1
100
AcDbLine
 10
-1304.032108205523
 20
1589.560229775829
 30
0.0
 11
-1304.034619080269
 21
1639.560228431733
 31
0.0
  0
LINE
  5
135E9
330
1A
100
AcDbEntity
  8
ZISSEN1
100
AcDbLine
 10
-1304.032108205523
 20
1589.560229775829
 30
0.0
 11
-1305.032108205524
 21
1588.560229775828
 31
0.0
  0
LINE
  5
135EA
330
1A
100
AcDbEntity
  8
ZISSEN1
100
AcDbLine
 10
-1307.286788026133
 20
1588.560229775828
 30
0.0
 11
-1305.032108205524
 21
1588.560229775828
 31
0.0
  0
LINE
  5
135EB
330
1A
100
AcDbEntity
  8
ZISSEN1
100
AcDbLine
 10
-1369.282518594822
 20
1646.560228431734
 30
0.0
 11
-1367.034619080268
 21
1646.560228431734
 31
0.0
  0
LINE
  5
135EC
330
1A
100
AcDbEntity
  8
ZISSEN1
100
AcDbLine
 10
-1366.034619080268
 20
1640.060228431734
 30
0.0
 11
-1366.034619080268
 21
1645.560228431734
 31
0.0
  0
LINE
  5
135ED
330
1A
100
AcDbEntity
  8
ZISSEN1
100
AcDbLine
 10
-1372.782518594822
 20
1646.560228431734
 30
0.0
 11
-1375.534619080268
 21
1646.560228431734
 31
0.0
  0
LINE
  5
135EE
330
1A
100
AcDbEntity
  8
ZISSEN1
100
AcDbLine
 10
-1314.038957263815
 20
1525.503911302944
 30
0.0
 11
-1314.038957263815
 21
1523.503911302944
 31
0.0
  0
LINE
  5
135EF
330
1A
100
AcDbEntity
  8
ZISSEN1
100
AcDbLine
 10
-1310.786788317949
 20
1525.503911302944
 30
0.0
 11
-1310.786788317949
 21
1523.503911302944
 31
0.0
  0
LINE
  5
135F0
330
1A
100
AcDbEntity
  8
ZISSEN1
100
AcDbLine
 10
-1307.286788317949
 20
1525.503911302944
 30
0.0
 11
-1307.286788317949
 21
1523.503911302944
 31
0.0
  0
LINE
  5
135F3
330
1A
100
AcDbEntity
  8
ZISSEN1
100
AcDbLine
 10
-1238.080148747961
 20
1588.560228108691
 30
0.0
 11
-1236.080148747961
 21
1590.560228108691
 31
0.0
  0
ARC
  5
135F4
330
1A
100
AcDbEntity
  8
ZISSEN1
100
AcDbCircle
 10
-1315.038956972
 20
1593.560228431735
 30
0.0
 40
1.000000000000227
100
AcDbArc
 50
0.0
 51
89.99999999998696
  0
LINE
  5
1360D
330
1A
100
AcDbEntity
  8
ZISSEN1
100
AcDbLine
 10
-1235.580148747961
 20
1632.810228108691
 30
0.0
 11
-1236.080148747961
 21
1632.810228108691
 31
0.0
  0
LINE
  5
1360E
330
1A
100
AcDbEntity
  8
ZISSEN1
100
AcDbLine
 10
-1236.080148747961
 20
1596.060228108691
 30
0.0
 11
-1236.080148747961
 21
1590.560228108691
 31
0.0
  0
LINE
  5
1360F
330
1A
100
AcDbEntity
  8
ZISSEN1
100
AcDbLine
 10
-1238.080148747961
 20
1646.560228108594
 30
0.0
 11
-1236.080148747961
 21
1644.560228108594
 31
0.0
  0
LINE
  5
13610
330
1A
100
AcDbEntity
  8
ZISSEN1
100
AcDbLine
 10
-1236.080148747961
 20
1632.810228108691
 30
0.0
 11
-1236.080148747961
 21
1634.06022810869
 31
0.0
  0
LINE
  5
13611
330
1A
100
AcDbEntity
  8
ZISSEN1
100
AcDbLine
 10
-1235.580148747961
 20
1602.310228108691
 30
0.0
 11
-1236.080148747961
 21
1602.310228108691
 31
0.0
  0
LINE
  5
13612
330
1A
100
AcDbEntity
  8
ZISSEN1
100
AcDbLine
 10
-1377.034619080268
 20
1632.810228431734
 30
0.0
 11
-1376.534619080268
 21
1632.810228431734
 31
0.0
  0
LINE
  5
13613
330
1A
100
AcDbEntity
  8
ZISSEN1
100
AcDbLine
 10
-1376.534619080268
 20
1639.060228431734
 30
0.0
 11
-1376.534619080268
 21
1645.560228431734
 31
0.0
  0
LINE
  5
13614
330
1A
100
AcDbEntity
  8
ZISSEN1
100
AcDbLine
 10
-1377.034619080268
 20
1602.310228431734
 30
0.0
 11
-1376.534619080268
 21
1602.310228431734
 31
0.0
  0
LINE
  5
13615
330
1A
100
AcDbEntity
  8
ZISSEN1
100
AcDbLine
 10
-1376.534619080268
 20
1595.926253843181
 30
0.0
 11
-1376.534619080268
 21
1594.560228439397
 31
0.0
  0
LINE
  5
13616
330
1A
100
AcDbEntity
  8
ZISSEN1
100
AcDbLine
 10
-1379.034619789893
 20
1528.003907486007
 30
0.0
 11
-1377.034619372084
 21
1528.003911302943
 31
0.0
  0
LINE
  5
13619
330
1A
100
AcDbEntity
  8
ZISSEN1
100
AcDbLine
 10
-1235.580148747961
 20
1640.560228108691
 30
0.0
 11
-1233.580148747961
 21
1640.560228108691
 31
0.0
  0
LINE
  5
1361A
330
1A
100
AcDbEntity
  8
ZISSEN1
100
AcDbLine
 10
-1235.580148747961
 20
1645.560228108691
 30
0.0
 11
-1233.580148747961
 21
1645.560228108691
 31
0.0
  0
LINE
  5
13622
330
1A
100
AcDbEntity
  8
ZISSEN1
100
AcDbLine
 10
-1263.580148747961
 20
1588.560228108691
 30
0.0
 11
-1265.580148747961
 21
1590.560228108691
 31
0.0
  0
LINE
  5
13623
330
1A
100
AcDbEntity
  8
ZISSEN1
100
AcDbLine
 10
-1235.580148747961
 20
1589.560228108691
 30
0.0
 11
-1233.580148747961
 21
1589.560228108691
 31
0.0
  0
LINE
  5
13624
330
1A
100
AcDbEntity
  8
ZISSEN1
100
AcDbLine
 10
-1377.034619080268
 20
1644.560228431734
 30
0.0
 11
-1379.034619080268
 21
1644.560228431734
 31
0.0
  0
LINE
  5
13625
330
1A
100
AcDbEntity
  8
ZISSEN1
100
AcDbLine
 10
-1377.034619080268
 20
1590.560228431734
 30
0.0
 11
-1379.034619080268
 21
1590.560228431734
 31
0.0
  0
LINE
  5
13626
330
1A
100
AcDbEntity
  8
ZISSEN1
100
AcDbLine
 10
-1305.032108497339
 20
1525.503911302944
 30
0.0
 11
-1305.032108497339
 21
1523.503911302944
 31
0.0
  0
LINE
  5
13627
330
1A
100
AcDbEntity
  8
ZISSEN1
100
AcDbLine
 10
-1313.038957263815
 20
1525.503911302944
 30
0.0
 11
-1313.038957263815
 21
1523.503911302944
 31
0.0
  0
LINE
  5
13628
330
1A
100
AcDbEntity
  8
ZISSEN1
100
AcDbLine
 10
-1379.034619789893
 20
1553.503907486007
 30
0.0
 11
-1377.034619372084
 21
1553.503911302943
 31
0.0
  0
LINE
  5
14188
102
{ACAD_REACTORS
330
1418B
102
}
330
1A
100
AcDbEntity
  8
ZISSEN1
100
AcDbLine
 10
-1251.280148811441
 20
1608.260228092238
 30
0.0
 11
-1251.280148811441
 21
1613.860228431733
 31
0.0
  0
LINE
  5
14189
102
{ACAD_REACTORS
330
1418B
102
}
330
1A
100
AcDbEntity
  8
ZISSEN1
100
AcDbLine
 10
-1251.280148811441
 20
1608.260228431733
 30
0.0
 11
-1248.780148747961
 21
1608.260228431733
 31
0.0
  0
LINE
  5
1418A
102
{ACAD_REACTORS
330
1418B
102
}
330
1A
100
AcDbEntity
  8
ZISSEN1
100
AcDbLine
 10
-1251.280148811441
 20
1613.860228431733
 30
0.0
 11
-1248.780148747961
 21
1613.860228431733
 31
0.0
  0
LINE
  5
141B9
330
1A
100
AcDbEntity
  8
ZISSEN1
100
AcDbLine
 10
-1251.280148811441
 20
1610.710228431734
 30
0.0
 11
-1260.266443564203
 21
1610.710228431734
 31
0.0
  0
LINE
  5
141BA
330
1A
100
AcDbEntity
  8
ZISSEN1
100
AcDbLine
 10
-1260.280148747961
 20
1633.110228431734
 30
0.0
 11
-1260.280148747961
 21
1610.710228431734
 31
0.0
  0
LINE
  5
141BB
330
1A
100
AcDbEntity
  8
ZISSEN1
100
AcDbLine
 10
-1248.780148747961
 20
1633.110228431734
 30
0.0
 11
-1248.780148747961
 21
1610.710228431734
 31
0.0
  0
LINE
  5
141BC
330
1A
100
AcDbEntity
  8
ZISSEN1
100
AcDbLine
 10
-1248.780148747961
 20
1633.110228431734
 30
0.0
 11
-1260.266443564203
 21
1633.110228431734
 31
0.0
  0
LINE
  5
141FE
102
{ACAD_REACTORS
330
14202
102
}
330
1A
100
AcDbEntity
  8
ZISSEN1
100
AcDbLine
 10
-1368.730203051095
 20
1595.360228431735
 30
0.0
 11
-1361.330203051094
 21
1595.360228431735
 31
0.0
  0
LINE
  5
141FF
102
{ACAD_REACTORS
330
14202
102
}
330
1A
100
AcDbEntity
  8
ZISSEN1
100
AcDbLine
 10
-1368.730203051095
 20
1595.360228431735
 30
0.0
 11
-1368.730203051095
 21
1602.960228431735
 31
0.0
  0
LINE
  5
14200
102
{ACAD_REACTORS
330
14202
102
}
330
1A
100
AcDbEntity
  8
ZISSEN1
100
AcDbLine
 10
-1361.330203051094
 20
1595.360228431735
 30
0.0
 11
-1361.330203051094
 21
1602.960228431735
 31
0.0
  0
LINE
  5
14201
102
{ACAD_REACTORS
330
14202
102
}
330
1A
100
AcDbEntity
  8
ZISSEN1
100
AcDbLine
 10
-1368.730203051095
 20
1602.960228431735
 30
0.0
 11
-1361.330203051094
 21
1602.960228431735
 31
0.0
  0
LINE
  5
14203
102
{ACAD_REACTORS
330
14209
102
}
330
1A
100
AcDbEntity
  8
ZISSEN1
100
AcDbLine
 10
-1359.734619080268
 20
1595.360228431735
 30
0.0
 11
-1359.734619080268
 21
1602.960228431735
 31
0.0
  0
LINE
  5
14204
102
{ACAD_REACTORS
330
14209
102
}
330
1A
100
AcDbEntity
  8
ZISSEN1
100
AcDbLine
 10
-1347.334619080268
 20
1595.365998343163
 30
0.0
 11
-1347.334619080268
 21
1602.965998343163
 31
0.0
  0
LINE
  5
14205
102
{ACAD_REACTORS
330
14209
102
}
330
1A
100
AcDbEntity
  8
ZISSEN1
100
AcDbLine
 10
-1359.734619080268
 20
1595.360228431735
 30
0.0
 11
-1347.334619080268
 21
1595.365998343163
 31
0.0
  0
LINE
  5
14206
330
1A
100
AcDbEntity
  8
ZISSEN1
100
AcDbLine
 10
-1359.734619080268
 20
1602.960228431735
 30
0.0
 11
-1352.334619080268
 21
1602.960228431735
 31
0.0
  0
LINE
  5
1420A
102
{ACAD_REACTORS
330
1420D
102
}
330
1A
100
AcDbEntity
  8
ZISSEN1
100
AcDbLine
 10
-1346.234619080268
 20
1595.360228431735
 30
0.0
 11
-1333.834619080268
 21
1595.365998343164
 31
0.0
  0
LINE
  5
1420B
102
{ACAD_REACTORS
330
1420D
102
}
330
1A
100
AcDbEntity
  8
ZISSEN1
100
AcDbLine
 10
-1333.834619080268
 20
1595.365998343164
 30
0.0
 11
-1333.834619080268
 21
1602.965998343164
 31
0.0
  0
LINE
  5
1420C
102
{ACAD_REACTORS
330
1420D
102
}
330
1A
100
AcDbEntity
  8
ZISSEN1
100
AcDbLine
 10
-1346.234619080268
 20
1595.360228431735
 30
0.0
 11
-1346.234619080268
 21
1602.960228431735
 31
0.0
  0
LINE
  5
1420F
330
1A
100
AcDbEntity
  8
ZISSEN1
100
AcDbLine
 10
-1247.180148747961
 20
1595.560228431734
 30
0.0
 11
-1241.180148747961
 21
1595.560228431734
 31
0.0
  0
LINE
  5
14210
330
1A
100
AcDbEntity
  8
ZISSEN1
100
AcDbLine
 10
-1252.680148747961
 20
1602.960228431735
 30
0.0
 11
-1248.780148747961
 21
1602.960228431735
 31
0.0
  0
LINE
  5
14211
330
1A
100
AcDbEntity
  8
ZISSEN1
100
AcDbLine
 10
-1252.680148747961
 20
1602.960228431735
 30
0.0
 11
-1252.680148747961
 21
1595.560228431734
 31
0.0
  0
LINE
  5
14213
102
{ACAD_REACTORS
330
14216
102
}
330
1A
100
AcDbEntity
  8
ZISSEN1
100
AcDbLine
 10
-1260.280148747961
 20
1602.960228431735
 30
0.0
 11
-1260.280148747961
 21
1595.560228431734
 31
0.0
  0
LINE
  5
14214
102
{ACAD_REACTORS
330
14216
102
}
330
1A
100
AcDbEntity
  8
ZISSEN1
100
AcDbLine
 10
-1260.280148747961
 20
1602.960228431735
 30
0.0
 11
-1248.780148747961
 21
1602.960228431735
 31
0.0
  0
LINE
  5
14215
102
{ACAD_REACTORS
330
14216
102
}
330
1A
100
AcDbEntity
  8
ZISSEN1
100
AcDbLine
 10
-1260.280148747961
 20
1595.560228431734
 30
0.0
 11
-1248.780148747961
 21
1595.560228431734
 31
0.0
  0
LINE
  5
14218
102
{ACAD_REACTORS
330
1421B
102
}
330
1A
100
AcDbEntity
  8
ZISSEN1
100
AcDbLine
 10
-1361.330299649385
 20
1550.20391130254
 30
0.0
 11
-1361.330203342911
 21
1538.703911302943
 31
0.0
  0
LINE
  5
14219
102
{ACAD_REACTORS
330
1421B
102
}
330
1A
100
AcDbEntity
  8
ZISSEN1
100
AcDbLine
 10
-1368.730299649126
 20
1550.203849331417
 30
0.0
 11
-1368.730203342652
 21
1538.70384933182
 31
0.0
  0
LINE
  5
1421A
102
{ACAD_REACTORS
330
1421B
102
}
330
1A
100
AcDbEntity
  8
ZISSEN1
100
AcDbLine
 10
-1361.330299649385
 20
1550.20391130254
 30
0.0
 11
-1368.730299649126
 21
1550.203849331417
 31
0.0
  0
LINE
  5
14224
102
{ACAD_REACTORS
330
14228
102
}
330
1A
100
AcDbEntity
  8
ZISSEN1
100
AcDbLine
 10
-1347.334715386742
 20
1542.60391130254
 30
0.0
 11
-1347.334619080268
 21
1531.103911302943
 31
0.0
  0
LINE
  5
14225
102
{ACAD_REACTORS
330
14228
102
}
330
1A
100
AcDbEntity
  8
ZISSEN1
100
AcDbLine
 10
-1359.734715386223
 20
1542.603849331417
 30
0.0
 11
-1359.734619079749
 21
1531.10384933182
 31
0.0
  0
LINE
  5
14226
102
{ACAD_REACTORS
330
14228
102
}
330
1A
100
AcDbEntity
  8
ZISSEN1
100
AcDbLine
 10
-1347.334715386742
 20
1542.60391130254
 30
0.0
 11
-1359.734619372083
 21
1542.603911302943
 31
0.0
  0
LINE
  5
14229
102
{ACAD_REACTORS
330
14230
102
}
330
1A
100
AcDbEntity
  8
ZISSEN1
100
AcDbLine
 10
-1333.834715678557
 20
1542.60391130254
 30
0.0
 11
-1346.234619663898
 21
1542.603911302943
 31
0.0
  0
LINE
  5
1422A
102
{ACAD_REACTORS
330
14230
102
}
330
1A
100
AcDbEntity
  8
ZISSEN1
100
AcDbLine
 10
-1346.234715678038
 20
1542.603849331418
 30
0.0
 11
-1346.234619371564
 21
1531.103849331821
 31
0.0
  0
LINE
  5
1422B
102
{ACAD_REACTORS
330
14230
102
}
330
1A
100
AcDbEntity
  8
ZISSEN1
100
AcDbLine
 10
-1333.834715678557
 20
1542.60391130254
 30
0.0
 11
-1333.834619372083
 21
1531.103911302944
 31
0.0
  0
LINE
  5
1422C
102
{ACAD_REACTORS
330
14230
102
}
330
1A
100
AcDbEntity
  8
ZISSEN1
100
AcDbLine
 10
-1335.334619663899
 20
1531.103911302943
 30
0.0
 11
-1333.834619663899
 21
1531.103911302943
 31
0.0
  0
LINE
  5
1422D
102
{ACAD_REACTORS
330
14230
102
}
330
1A
100
AcDbEntity
  8
ZISSEN1
100
AcDbLine
 10
-1346.234619663898
 20
1531.103911302943
 30
0.0
 11
-1344.734619663898
 21
1531.103911302943
 31
0.0
  0
LINE
  5
1422E
102
{ACAD_REACTORS
330
14230
102
}
330
1A
100
AcDbEntity
  8
ZISSEN1
100
AcDbLine
 10
-1346.234619663898
 20
1542.603911302943
 30
0.0
 11
-1346.234619663898
 21
1531.103911302943
 31
0.0
  0
LINE
  5
1422F
102
{ACAD_REACTORS
330
14230
102
}
330
1A
100
AcDbEntity
  8
ZISSEN1
100
AcDbLine
 10
-1333.834619663899
 20
1542.603911302943
 30
0.0
 11
-1333.834619663899
 21
1531.103911302943
 31
0.0
  0
LINE
  5
14231
330
1A
100
AcDbEntity
  8
ZISSEN1
100
AcDbLine
 10
-1312.734619080268
 20
1633.110228431734
 30
0.0
 11
-1312.728849168839
 21
1610.710228431734
 31
0.0
  0
LINE
  5
14232
330
1A
100
AcDbEntity
  8
ZISSEN1
100
AcDbLine
 10
-1312.728849168839
 20
1610.710228431734
 30
0.0
 11
-1305.128849168839
 21
1610.710228431734
 31
0.0
  0
LINE
  5
14233
330
1A
100
AcDbEntity
  8
ZISSEN1
100
AcDbLine
 10
-1312.734619080268
 20
1633.110228431734
 30
0.0
 11
-1305.134619080267
 21
1633.110228431734
 31
0.0
  0
LINE
  5
1423D
330
1A
100
AcDbEntity
  8
ZISSEN1
100
AcDbLine
 10
-1245.280148747961
 20
1604.910228431734
 30
0.0
 11
-1241.180148747961
 21
1604.910228431734
 31
0.0
  0
LINE
  5
1423E
330
1A
100
AcDbEntity
  8
ZISSEN1
100
AcDbLine
 10
-1241.180148747961
 20
1604.910228431734
 30
0.0
 11
-1241.180148747961
 21
1597.410228431734
 31
0.0
  0
LINE
  5
14240
330
1A
100
AcDbEntity
  8
ZISSEN1
100
AcDbLine
 10
-1245.280148747961
 20
1601.310228108691
 30
0.0
 11
-1245.280148747961
 21
1604.910228431734
 31
0.0
  0
LINE
  5
14241
330
1A
100
AcDbEntity
  8
ZISSEN1
100
AcDbLine
 10
-1247.180148747961
 20
1602.960228431735
 30
0.0
 11
-1245.280148747961
 21
1602.960228431735
 31
0.0
  0
LINE
  5
14242
330
1A
100
AcDbEntity
  8
ZISSEN1
100
AcDbLine
 10
-1236.080148747961
 20
1602.310228108691
 30
0.0
 11
-1236.080148747961
 21
1601.060228108691
 31
0.0
  0
LINE
  5
14243
330
1A
100
AcDbEntity
  8
ZISSEN1
100
AcDbLine
 10
-1236.080148747961
 20
1644.560228108594
 30
0.0
 11
-1236.080148747961
 21
1639.06022810869
 31
0.0
  0
LINE
  5
14244
330
1A
100
AcDbEntity
  8
ZISSEN1
100
AcDbLine
 10
-1236.080148747961
 20
1634.06022810869
 30
0.0
 11
-1236.080148747961
 21
1634.06022810869
 31
0.0
  0
LINE
  5
14245
330
1A
100
AcDbEntity
  8
ZISSEN1
100
AcDbLine
 10
-1236.080148747961
 20
1639.06022810869
 30
0.0
 11
-1236.080148747961
 21
1639.06022810869
 31
0.0
  0
LINE
  5
1424B
102
{ACAD_REACTORS
330
1424E
102
}
330
1A
100
AcDbEntity
  8
ZISSEN1
100
AcDbLine
 10
-1305.128945475313
 20
1550.20391130254
 30
0.0
 11
-1305.128849168839
 21
1538.703911302944
 31
0.0
  0
LINE
  5
1424C
102
{ACAD_REACTORS
330
1424E
102
}
330
1A
100
AcDbEntity
  8
ZISSEN1
100
AcDbLine
 10
-1312.528945475055
 20
1550.203849331418
 30
0.0
 11
-1312.52884916858
 21
1538.703849331821
 31
0.0
  0
LINE
  5
1424D
102
{ACAD_REACTORS
330
1424E
102
}
330
1A
100
AcDbEntity
  8
ZISSEN1
100
AcDbLine
 10
-1305.128945475313
 20
1550.20391130254
 30
0.0
 11
-1312.528945475055
 21
1550.203849331418
 31
0.0
  0
LINE
  5
14268
102
{ACAD_REACTORS
330
1426D
102
}
330
1A
100
AcDbEntity
  8
ZISSEN1
100
AcDbLine
 10
-1248.780148747961
 20
1608.260228431733
 30
0.0
 11
-1249.88014874796
 21
1608.260228431733
 31
0.0
  0
LINE
  5
14269
102
{ACAD_REACTORS
330
1426D
102
}
330
1A
100
AcDbEntity
  8
ZISSEN1
100
AcDbLine
 10
-1248.780148747961
 20
1607.010228431733
 30
0.0
 11
-1248.780148747961
 21
1608.260228431733
 31
0.0
  0
LINE
  5
1426A
102
{ACAD_REACTORS
330
1426D
102
}
330
1A
100
AcDbEntity
  8
ZISSEN1
100
AcDbLine
 10
-1249.88014874796
 20
1608.260228431733
 30
0.0
 11
-1249.88014874796
 21
1607.010228431733
 31
0.0
  0
LINE
  5
1426B
102
{ACAD_REACTORS
330
1426D
102
}
330
1A
100
AcDbEntity
  8
ZISSEN1
100
AcDbLine
 10
-1249.88014874796
 20
1607.010228431733
 30
0.0
 11
-1248.780148747961
 21
1607.010228431733
 31
0.0
  0
LINE
  5
1426C
102
{ACAD_REACTORS
330
1426D
102
}
330
1A
100
AcDbEntity
  8
ZISSEN1
100
AcDbLine
 10
-1248.780148747961
 20
1607.010228431733
 30
0.0
 11
-1249.08014874796
 21
1607.010228431733
 31
0.0
  0
LINE
  5
1426E
102
{ACAD_REACTORS
330
14273
102
}
330
1A
100
AcDbEntity
  8
ZISSEN1
100
AcDbLine
 10
-1248.780148747961
 20
1604.64764334687
 30
0.0
 11
-1249.88014874796
 21
1604.64764334687
 31
0.0
  0
LINE
  5
1426F
102
{ACAD_REACTORS
330
14273
102
}
330
1A
100
AcDbEntity
  8
ZISSEN1
100
AcDbLine
 10
-1248.780148747961
 20
1603.39764334687
 30
0.0
 11
-1248.780148747961
 21
1604.64764334687
 31
0.0
  0
LINE
  5
14270
102
{ACAD_REACTORS
330
14273
102
}
330
1A
100
AcDbEntity
  8
ZISSEN1
100
AcDbLine
 10
-1249.88014874796
 20
1604.64764334687
 30
0.0
 11
-1249.88014874796
 21
1603.39764334687
 31
0.0
  0
LINE
  5
14271
102
{ACAD_REACTORS
330
14273
102
}
330
1A
100
AcDbEntity
  8
ZISSEN1
100
AcDbLine
 10
-1249.88014874796
 20
1603.39764334687
 30
0.0
 11
-1248.780148747961
 21
1603.39764334687
 31
0.0
  0
LINE
  5
14272
102
{ACAD_REACTORS
330
14273
102
}
330
1A
100
AcDbEntity
  8
ZISSEN1
100
AcDbLine
 10
-1248.780148747961
 20
1603.39764334687
 30
0.0
 11
-1249.08014874796
 21
1603.39764334687
 31
0.0
  0
LWPOLYLINE
  5
14297
330
1A
100
AcDbEntity
  8
ZISSEN1
100
AcDbPolyline
 90
        4
 70
     1
 43
0.0
 10
-1309.499897865214
 20
1603.39764334687
 10
-1307.499897865214
 20
1603.39764334687
 10
-1307.499897865214
 20
1604.64764334687
 10
-1309.499897865214
 20
1604.64764334687
  0
LINE
  5
142AE
330
1A
100
AcDbEntity
  8
CL1
100
AcDbLine
 10
-1379.82280927289
 20
1540.503907486007
 30
0.0
 11
-1376.313131802687
 21
1540.503907486007
 31
0.0
  0
LINE
  5
142AF
330
1A
100
AcDbEntity
  8
CL1
100
AcDbLine
 10
-1379.82280927289
 20
1591.060229775829
 30
0.0
 11
-1376.313131802687
 21
1591.060229775829
 31
0.0
  0
LINE
  5
142B0
330
1A
100
AcDbEntity
  8
CL1
100
AcDbLine
 10
-1379.82280927289
 20
1644.060228431734
 30
0.0
 11
-1376.313131802687
 21
1644.060228431734
 31
0.0
  0
LINE
  5
142B4
330
1A
100
AcDbEntity
  8
ZISSEN1
100
AcDbLine
 10
-1254.580148780592
 20
1644.06022810613
 30
0.0
 11
-1250.580148780592
 21
1644.06022810869
 31
0.0
  0
LINE
  5
142B6
330
1A
100
AcDbEntity
  8
CL1
100
AcDbLine
 10
-1254.580148780592
 20
1644.06022810613
 30
0.0
 11
-1246.580148780592
 21
1644.06022810869
 31
0.0
  0
LINE
  5
142BA
330
1A
100
AcDbEntity
  8
CL1
100
AcDbLine
 10
-1250.580148780592
 20
1648.06022810869
 30
0.0
 11
-1250.580148780592
 21
1640.520458017951
 31
0.0
  0
LINE
  5
142BF
330
1A
100
AcDbEntity
  8
CL1
100
AcDbLine
 10
-1250.580148780592
 20
1595.054142766319
 30
0.0
 11
-1250.580148780592
 21
1587.262735496131
 31
0.0
  0
LINE
  5
142C0
330
1A
100
AcDbEntity
  8
CL1
100
AcDbLine
 10
-1254.580148780592
 20
1591.060228108691
 30
0.0
 11
-1246.580148780592
 21
1591.060228108691
 31
0.0
  0
LINE
  5
142C4
330
1A
100
AcDbEntity
  8
CL1
100
AcDbLine
 10
-1236.873807071648
 20
1591.060228108691
 30
0.0
 11
-1232.262406677535
 21
1591.060228108691
 31
0.0
  0
LINE
  5
142C5
330
1A
100
AcDbEntity
  8
CL1
100
AcDbLine
 10
-1236.873807071648
 20
1644.06022810869
 30
0.0
 11
-1232.262406677535
 21
1644.06022810869
 31
0.0
  0
LINE
  5
142C6
330
1A
100
AcDbEntity
  8
CL1
100
AcDbLine
 10
-1376.313131802687
 20
1644.06022810869
 30
0.0
 11
-1366.034619080268
 21
1644.06022810869
 31
0.0
  0
LINE
  5
142C8
330
1A
100
AcDbEntity
  8
CL1
100
AcDbLine
 10
-1371.034619080268
 20
1648.060228431734
 30
0.0
 11
-1371.034619080268
 21
1640.520458017951
 31
0.0
  0
LINE
  5
142E6
330
1A
100
AcDbEntity
  8
CL1
100
AcDbLine
 10
-1311.068527297376
 20
1591.060229775829
 30
0.0
 11
-1307.046920863773
 21
1591.060229775829
 31
0.0
  0
LINE
  5
142E7
330
1A
100
AcDbEntity
  8
CL1
100
AcDbLine
 10
-1309.038754111827
 20
1593.988504962993
 30
0.0
 11
-1309.038754111827
 21
1588.249670414204
 31
0.0
  0
DIMENSION
  5
142E8
330
1A
100
AcDbEntity
  8
SUNPOU
100
AcDbDimension
  2
*D7
 10
-1250.580148780592
 20
1576.95761355904
 30
0.0
 11
-1242.080148764277
 21
1579.70761355904
 31
0.0
 70
    32
  3
標準スタイル
100
AcDbAlignedDimension
 13
-1233.580148747961
 23
1588.560228108691
 33
0.0
 14
-1250.580148780592
 24
1591.060228108691
 34
0.0
100
AcDbRotatedDimension
1001
ACAD
1000
DSTYLE
1002
{
1070
   340
1005
10
1070
    40
1040
1.0
1002
}
  0
DIMENSION
  5
14307
330
1A
100
AcDbEntity
  8
SUNPOU
100
AcDbDimension
  2
*D8
 10
-1265.580148747961
 20
1566.294196628496
 30
0.0
 11
-1249.580148747961
 21
1569.044196628496
 31
0.0
 70
    32
  3
標準スタイル
100
AcDbAlignedDimension
 13
-1233.580148747961
 23
1588.560228108691
 33
0.0
 14
-1265.580148747961
 24
1590.560228108691
 34
0.0
100
AcDbRotatedDimension
1001
ACAD
1000
DSTYLE
1002
{
1070
   340
1005
10
1070
    40
1040
1.0
1002
}
  0
DIMENSION
  5
143AB
330
1A
100
AcDbEntity
  8
SUNPOU
100
AcDbDimension
  2
*D9
 10
-1387.298000924646
 20
1588.560228431734
 30
0.0
 11
-1390.048000924646
 21
1617.560228431734
 31
0.0
 70
    32
  3
標準スタイル
100
AcDbAlignedDimension
 13
-1379.034619080268
 23
1646.560228431734
 33
0.0
 14
-1379.034619080268
 24
1588.560228431734
 34
0.0
 50
90.0
100
AcDbRotatedDimension
1001
ACAD
1000
DSTYLE
1002
{
1070
   340
1005
10
1070
    40
1040
1.0
1002
}
  0
DIMENSION
  5
143F3
330
1A
100
AcDbEntity
  8
SUNPOU
100
AcDbDimension
  2
*D10
 10
-1275.687630772037
 20
1591.060228108691
 30
0.0
 11
-1275.687630772038
 21
1617.56022810813
 31
0.0
 70
   160
  3
標準スタイル
100
AcDbAlignedDimension
 13
-1252.330148780592
 23
1644.06022810757
 33
0.0
 14
-1252.330148780592
 24
1591.060228108691
 34
0.0
 50
90.0
100
AcDbRotatedDimension
1001
ACAD
1000
DSTYLE
1002
{
1070
   340
1005
10
1070
    40
1040
1.0
1002
}
  0
DIMENSION
  5
14409
330
1A
100
AcDbEntity
  8
SUNPOU
100
AcDbDimension
  2
*D11
 10
-1275.687630772037
 20
1588.560228108691
 30
0.0
 11
-1278.437630772038
 21
1578.06022810869
 31
0.0
 70
    32
  3
標準スタイル
100
AcDbAlignedDimension
 13
-1252.330148780592
 23
1591.060228108691
 33
0.0
 14
-1263.580148747961
 24
1588.560228108691
 34
0.0
 50
90.0
100
AcDbRotatedDimension
1001
ACAD
1000
DSTYLE
1002
{
1070
   340
1005
10
1070
    40
1040
1.0
1002
}
  0
DIMENSION
  5
14451
330
1A
100
AcDbEntity
  8
SUNPOU
100
AcDbDimension
  2
*D12
 10
-1294.617264674363
 20
1591.060229775829
 30
0.0
 11
-1297.367264674363
 21
1617.560228942259
 31
0.0
 70
    32
  3
標準スタイル
100
AcDbAlignedDimension
 13
-1369.282518594822
 23
1644.06022810869
 33
0.0
 14
-1307.046920863773
 24
1591.060229775829
 34
0.0
 50
90.0
100
AcDbRotatedDimension
1001
ACAD
1000
DSTYLE
1002
{
1070
   340
1005
10
1070
    40
1040
1.0
1002
}
  0
DIMENSION
  5
1445F
330
1A
100
AcDbEntity
  8
SUNPOU
100
AcDbDimension
  2
*D13
 10
-1294.601533999527
 20
1588.560229775828
 30
0.0
 11
-1297.351533999528
 21
1578.060229775828
 31
0.0
 70
    32
  3
標準スタイル
100
AcDbAlignedDimension
 13
-1307.046920863773
 23
1591.060229775829
 33
0.0
 14
-1307.286788026133
 24
1588.560229775828
 34
0.0
 50
90.0
100
AcDbRotatedDimension
1001
ACAD
1000
DSTYLE
1002
{
1070
   340
1005
10
1070
    40
1040
1.0
1002
}
  0
LINE
  5
14486
330
1A
100
AcDbEntity
  8
CL1
100
AcDbLine
 10
-1309.038754111827
 20
1526.374789147539
 30
0.0
 11
-1309.038754111827
 21
1522.546951762653
 31
0.0
  0
DIMENSION
  5
1451E
330
1A
100
AcDbEntity
  8
SUNPOU
100
AcDbDimension
  2
*D14
 10
-1304.032108497339
 20
1514.47375944433
 30
0.0
 11
-1341.533363934711
 21
1517.22375944433
 31
0.0
 70
    32
  3
標準スタイル
100
AcDbAlignedDimension
 13
-1379.034619372084
 23
1526.003911302946
 33
0.0
 14
-1304.032108497339
 24
1523.503911302944
 34
0.0
100
AcDbRotatedDimension
1001
ACAD
1000
DSTYLE
1002
{
1070
   340
1005
10
1070
    40
1040
1.0
1002
}
  0
VIEWPORT
  5
5D8F
330
5D8E
100
AcDbEntity
 67
     1
  8
0
100
AcDbViewport
 10
223.7984978784081
 20
168.5955345985572
 30
0.0
 40
537.8884204584777
 41
308.9262906804305
 68
     1
 69
     1
1001
ACAD
1000
MVIEW
1002
{
1070
    16
1010
0.0
1020
0.0
1030
0.0
1010
0.0
1020
0.0
1030
1.0
1040
0.0
1040
308.9262906804305
1040
223.7984978784081
1040
168.5955345985572
1040
50.0
1040
0.0
1040
0.0
1070
     0
1070
   100
1070
     1
1070
     0
1070
     0
1070
     0
1070
     0
1070
     0
1040
0.0
1040
0.0
1040
0.0
1040
1.0
1040
1.0
1040
10.0
1040
10.0
1070
     0
1002
{
1002
}
1002
}
  0
VIEWPORT
  5
6001
330
5D8E
100
AcDbEntity
 67
     1
  8
ZISSEN1
100
AcDbViewport
 10
221.7861955525412
 20
157.6960273330388
 30
0.0
 40
385.4999999999997
 41
259.9999999999999
 68
     2
 69
     2
1001
ACAD
1000
MVIEW
1002
{
1070
    16
1010
0.0
1020
0.0
1030
0.0
1010
0.0
1020
0.0
1030
1.0
1040
0.0
1040
259.9999999999999
1040
-1305.294643015562
1040
1603.337505365215
1040
50.0
1040
0.0
1040
0.0
1070
     0
1070
   100
1070
     1
1070
     0
1070
     0
1070
     0
1070
     0
1070
     0
1040
0.0
1040
0.0
1040
0.0
1040
1.0
1040
1.0
1040
10.0
1040
10.0
1070
     0
1002
{
1002
}
1002
}
  0
TEXT
  5
716F
330
5D8E
100
AcDbEntity
 67
     1
  8
SUNPOU
 62
     0
100
AcDbText
 10
374.1863124306944
 20
60.86794705907585
 30
0.0
 40
3.5
  1
縮尺 1/1
  7
ゴシック体
100
AcDbText
  0
ENDSEC
  0
SECTION
  2
OBJECTS
  0
DICTIONARY
  5
C
330
0
100
AcDbDictionary
  3
ACAD_GROUP
350
D
  3
ACAD_LAYOUT
350
5C7D
  3
ACAD_MLINESTYLE
350
E
  3
ACAD_PLOTSETTINGS
350
5C7E
  3
ACAD_PLOTSTYLENAME
350
5C7B
  3
DWGPROPS
350
12861
  3
ACDBHEADERROUNDTRIPXREC
350
145A2
  0
DICTIONARY
  5
12874
330
2
100
AcDbDictionary
280
     1
  3
ACAD_LAYERFILTERS
360
12875
  0
DICTIONARY
  5
145C2
330
1A
100
AcDbDictionary
280
     1
  3
ACAD_LAYOUTSELFREF
360
145C3
  0
DICTIONARY
  5
145C4
330
5D8E
100
AcDbDictionary
280
     1
  3
ACAD_LAYOUTSELFREF
360
145C5
  0
DICTIONARY
  5
D
102
{ACAD_REACTORS
330
C
102
}
330
C
100
AcDbDictionary
  3
*A1
350
477D
  3
*A2
350
1424F
  3
*A3
350
14257
  3
*A4
350
14187
  3
*A5
350
14267
  3
*A6
350
1426D
  3
*A7
350
14273
  3
*A8
350
477F
  3
*A9
350
14274
  3
*A10
350
4C12
  3
*A11
350
4C13
  3
*A12
350
1420E
  3
*A13
350
4C14
  3
*A14
350
4C15
  3
*A15
350
4C16
  3
*A16
350
1418B
  3
*A17
350
4C17
  3
*A18
350
4780
  3
*A19
350
4781
  3
*A20
350
4C0E
  3
*A21
350
4C0F
  3
*A22
350
14182
  3
*A23
350
14216
  3
*A24
350
14186
  3
*A25
350
4C10
  3
*A26
350
141B8
  3
*A27
350
141FD
  3
*A28
350
14202
  3
*A29
350
14209
  3
*A30
350
1420D
  3
*A31
350
477E
  3
*A32
350
1421B
  3
*A33
350
4C11
  3
*A34
350
14228
  3
*A35
350
14230
  3
*A36
350
1424E
  0
DICTIONARY
  5
5C7D
102
{ACAD_REACTORS
330
C
102
}
330
C
100
AcDbDictionary
  0
DICTIONARY
  5
E
102
{ACAD_REACTORS
330
C
102
}
330
C
100
AcDbDictionary
  3
STANDARD
350
13
  0
DICTIONARY
  5
5C7E
102
{ACAD_REACTORS
330
C
102
}
330
C
100
AcDbDictionary
  0
ACDBDICTIONARYWDFLT
  5
5C7B
102
{ACAD_REACTORS
330
C
102
}
330
C
100
AcDbDictionary
281
     1
  3
Normal
350
5C7C
100
AcDbDictionaryWithDefault
340
5C7C
  0
XRECORD
  5
12861
102
{ACAD_REACTORS
330
C
102
}
330
C
100
AcDbXrecord
  1
DWGPROPS COOKIE
  2

  3

  4

  6

  7

  8

  9

300
=
301
=
302
=
303
=
304
=
305
=
306
=
307
=
308
=
309
=
 40
1.583646701388888
 41
2450495.493631365
 42
2455325.72058449
  1

 90
        0
  0
DICTIONARY
  5
145A2
102
{ACAD_REACTORS
330
C
102
}
330
C
100
AcDbDictionary
  3
TSTACKALIGN
350
145A3
  3
TSTACKSIZE
350
145A4
  3
HYPERLINKBASE
350
145A5
  3
STYLESHEET
350
145A6
  3
LAYOUTDICT
350
145A7
  3
PLOTSETDICT
350
145A8
  3
PLOTSTYLNAMDICT
350
145A9
  3
LWETCUNION
350
145AA
  3
INSUNITS
350
145AB
  3
CEPSNTYPE
350
145AC
  3
FINGERPRINTGUID
350
145AD
  3
VERSIONGUID
350
145AE
  3
PSVPSCALE
350
145AF
  3
PUCSORTHOREF
350
145B0
  3
PUCSORTHOVIEW
350
145B1
  3
PUCSBASE
350
145B2
  3
PUCSORGTOP
350
145B3
  3
PUCSORGBOTTOM
350
145B4
  3
PUCSORGLEFT
350
145B5
  3
PUCSORGRIGHT
350
145B6
  3
PUCSORGFRONT
350
145B7
  3
PUCSORGBACK
350
145B8
  3
UCSORTHOREF
350
145B9
  3
UCSORTHOVIEW
350
145BA
  3
UCSBASE
350
145BB
  3
UCSORGTOP
350
145BC
  3
UCSORGBOTTOM
350
145BD
  3
UCSORGLEFT
350
145BE
  3
UCSORGRIGHT
350
145BF
  3
UCSORGFRONT
350
145C0
  3
UCSORGBACK
350
145C1
  0
DICTIONARY
  5
12875
102
{ACAD_REACTORS
330
12874
102
}
330
12874
100
AcDbDictionary
280
     1
  3
BASE
360
12876
  3
CASE
360
12877
  3
KIKOU
360
12878
  0
XRECORD
  5
145C3
102
{ACAD_REACTORS
330
145C2
102
}
330
145C2
100
AcDbXrecord
340
1A
  0
XRECORD
  5
145C5
102
{ACAD_REACTORS
330
145C4
102
}
330
145C4
100
AcDbXrecord
340
5D8E
  0
GROUP
  5
477D
102
{ACAD_REACTORS
330
D
102
}
330
D
100
AcDbGroup
300

 70
     1
 71
     1
  0
GROUP
  5
1424F
102
{ACAD_REACTORS
330
D
102
}
330
D
100
AcDbGroup
300

 70
     1
 71
     1
  0
GROUP
  5
14257
102
{ACAD_REACTORS
330
D
102
}
330
D
100
AcDbGroup
300

 70
     1
 71
     1
  0
GROUP
  5
14187
102
{ACAD_REACTORS
330
D
102
}
330
D
100
AcDbGroup
300

 70
     1
 71
     1
  0
GROUP
  5
14267
102
{ACAD_REACTORS
330
D
102
}
330
D
100
AcDbGroup
300

 70
     1
 71
     1
  0
GROUP
  5
1426D
102
{ACAD_REACTORS
330
D
102
}
330
D
100
AcDbGroup
300

 70
     1
 71
     1
340
14269
340
1426A
340
14268
340
1426B
340
1426C
  0
GROUP
  5
14273
102
{ACAD_REACTORS
330
D
102
}
330
D
100
AcDbGroup
300

 70
     1
 71
     1
340
1426F
340
14270
340
1426E
340
14271
340
14272
  0
GROUP
  5
477F
102
{ACAD_REACTORS
330
D
102
}
330
D
100
AcDbGroup
300

 70
     1
 71
     1
  0
GROUP
  5
14274
102
{ACAD_REACTORS
330
D
102
}
330
D
100
AcDbGroup
300

 70
     1
 71
     1
  0
GROUP
  5
4C12
102
{ACAD_REACTORS
330
D
102
}
330
D
100
AcDbGroup
300

 70
     1
 71
     1
  0
GROUP
  5
4C13
102
{ACAD_REACTORS
330
D
102
}
330
D
100
AcDbGroup
300

 70
     1
 71
     1
  0
GROUP
  5
1420E
102
{ACAD_REACTORS
330
D
102
}
330
D
100
AcDbGroup
300

 70
     1
 71
     1
  0
GROUP
  5
4C14
102
{ACAD_REACTORS
330
D
102
}
330
D
100
AcDbGroup
300

 70
     1
 71
     1
  0
GROUP
  5
4C15
102
{ACAD_REACTORS
330
D
102
}
330
D
100
AcDbGroup
300

 70
     1
 71
     1
  0
GROUP
  5
4C16
102
{ACAD_REACTORS
330
D
102
}
330
D
100
AcDbGroup
300

 70
     1
 71
     1
  0
GROUP
  5
1418B
102
{ACAD_REACTORS
330
D
102
}
330
D
100
AcDbGroup
300

 70
     1
 71
     1
340
14188
340
14189
340
1418A
  0
GROUP
  5
4C17
102
{ACAD_REACTORS
330
D
102
}
330
D
100
AcDbGroup
300

 70
     1
 71
     1
  0
GROUP
  5
4780
102
{ACAD_REACTORS
330
D
102
}
330
D
100
AcDbGroup
300

 70
     1
 71
     1
  0
GROUP
  5
4781
102
{ACAD_REACTORS
330
D
102
}
330
D
100
AcDbGroup
300

 70
     1
 71
     1
  0
GROUP
  5
4C0E
102
{ACAD_REACTORS
330
D
102
}
330
D
100
AcDbGroup
300

 70
     1
 71
     1
  0
GROUP
  5
4C0F
102
{ACAD_REACTORS
330
D
102
}
330
D
100
AcDbGroup
300

 70
     1
 71
     1
  0
GROUP
  5
14182
102
{ACAD_REACTORS
330
D
102
}
330
D
100
AcDbGroup
300

 70
     1
 71
     1
  0
GROUP
  5
14216
102
{ACAD_REACTORS
330
D
102
}
330
D
100
AcDbGroup
300

 70
     1
 71
     1
340
14214
340
14215
340
14213
  0
GROUP
  5
14186
102
{ACAD_REACTORS
330
D
102
}
330
D
100
AcDbGroup
300

 70
     1
 71
     1
  0
GROUP
  5
4C10
102
{ACAD_REACTORS
330
D
102
}
330
D
100
AcDbGroup
300

 70
     1
 71
     1
  0
GROUP
  5
141B8
102
{ACAD_REACTORS
330
D
102
}
330
D
100
AcDbGroup
300

 70
     1
 71
     1
  0
GROUP
  5
141FD
102
{ACAD_REACTORS
330
D
102
}
330
D
100
AcDbGroup
300

 70
     1
 71
     1
  0
GROUP
  5
14202
102
{ACAD_REACTORS
330
D
102
}
330
D
100
AcDbGroup
300

 70
     1
 71
     1
340
141FF
340
14200
340
141FE
340
14201
  0
GROUP
  5
14209
102
{ACAD_REACTORS
330
D
102
}
330
D
100
AcDbGroup
300

 70
     1
 71
     1
340
14205
340
14204
340
14203
  0
GROUP
  5
1420D
102
{ACAD_REACTORS
330
D
102
}
330
D
100
AcDbGroup
300

 70
     1
 71
     1
340
1420A
340
1420B
340
1420C
  0
GROUP
  5
477E
102
{ACAD_REACTORS
330
D
102
}
330
D
100
AcDbGroup
300

 70
     1
 71
     1
  0
GROUP
  5
1421B
102
{ACAD_REACTORS
330
D
102
}
330
D
100
AcDbGroup
300

 70
     1
 71
     1
340
14218
340
14219
340
1421A
  0
GROUP
  5
4C11
102
{ACAD_REACTORS
330
D
102
}
330
D
100
AcDbGroup
300

 70
     1
 71
     1
  0
GROUP
  5
14228
102
{ACAD_REACTORS
330
D
102
}
330
D
100
AcDbGroup
300

 70
     1
 71
     1
340
14226
340
14225
340
14224
340
13404
340
13403
340
133DD
340
133DB
  0
GROUP
  5
14230
102
{ACAD_REACTORS
330
D
102
}
330
D
100
AcDbGroup
300

 70
     1
 71
     1
340
14229
340
1422A
340
1422B
340
1422C
340
1422D
340
1422E
340
1422F
  0
GROUP
  5
1424E
102
{ACAD_REACTORS
330
D
102
}
330
D
100
AcDbGroup
300

 70
     1
 71
     1
340
1424B
340
1424C
340
1424D
  0
MLINESTYLE
  5
13
102
{ACAD_REACTORS
330
E
102
}
330
E
100
AcDbMlineStyle
  2
STANDARD
 70
     0
  3

 62
     0
 51
90.0
 52
90.0
 71
     2
 49
0.5
 62
   256
  6
BYLAYER
 49
-0.5
 62
   256
  6
BYLAYER
  0
ACDBPLACEHOLDER
  5
5C7C
102
{ACAD_REACTORS
330
5C7B
102
}
330
5C7B
100
AcDbPlaceHolder
280
     0
  0
XRECORD
  5
145A3
102
{ACAD_REACTORS
330
145A2
102
}
330
145A2
100
AcDbXrecord
 90
        1
  0
XRECORD
  5
145A4
102
{ACAD_REACTORS
330
145A2
102
}
330
145A2
100
AcDbXrecord
 90
       70
  0
XRECORD
  5
145A5
102
{ACAD_REACTORS
330
145A2
102
}
330
145A2
100
AcDbXrecord
  1

  0
XRECORD
  5
145A6
102
{ACAD_REACTORS
330
145A2
102
}
330
145A2
100
AcDbXrecord
  1

  0
XRECORD
  5
145A7
102
{ACAD_REACTORS
330
145A2
102
}
330
145A2
100
AcDbXrecord
340
5C7D
  0
XRECORD
  5
145A8
102
{ACAD_REACTORS
330
145A2
102
}
330
145A2
100
AcDbXrecord
340
5C7E
  0
XRECORD
  5
145A9
102
{ACAD_REACTORS
330
145A2
102
}
330
145A2
100
AcDbXrecord
340
5C7B
  0
XRECORD
  5
145AA
102
{ACAD_REACTORS
330
145A2
102
}
330
145A2
100
AcDbXrecord
 90
    10781
  0
XRECORD
  5
145AB
102
{ACAD_REACTORS
330
145A2
102
}
330
145A2
100
AcDbXrecord
 90
        0
  0
XRECORD
  5
145AC
102
{ACAD_REACTORS
330
145A2
102
}
330
145A2
100
AcDbXrecord
 90
        0
  0
XRECORD
  5
145AD
102
{ACAD_REACTORS
330
145A2
102
}
330
145A2
100
AcDbXrecord
  1
{225A7F0D-DA29-11D8-946A-0000E2416295}
  0
XRECORD
  5
145AE
102
{ACAD_REACTORS
330
145A2
102
}
330
145A2
100
AcDbXrecord
  1
{46E726E7-1228-4CC4-93FA-622F12703E8B}
  0
XRECORD
  5
145AF
102
{ACAD_REACTORS
330
145A2
102
}
330
145A2
100
AcDbXrecord
 40
0.0
  0
XRECORD
  5
145B0
102
{ACAD_REACTORS
330
145A2
102
}
330
145A2
100
AcDbXrecord
340
0
  0
XRECORD
  5
145B1
102
{ACAD_REACTORS
330
145A2
102
}
330
145A2
100
AcDbXrecord
 70
     0
  0
XRECORD
  5
145B2
102
{ACAD_REACTORS
330
145A2
102
}
330
145A2
100
AcDbXrecord
340
0
  0
XRECORD
  5
145B3
102
{ACAD_REACTORS
330
145A2
102
}
330
145A2
100
AcDbXrecord
 10
0.0
 20
0.0
 30
0.0
  0
XRECORD
  5
145B4
102
{ACAD_REACTORS
330
145A2
102
}
330
145A2
100
AcDbXrecord
 10
0.0
 20
0.0
 30
0.0
  0
XRECORD
  5
145B5
102
{ACAD_REACTORS
330
145A2
102
}
330
145A2
100
AcDbXrecord
 10
0.0
 20
0.0
 30
0.0
  0
XRECORD
  5
145B6
102
{ACAD_REACTORS
330
145A2
102
}
330
145A2
100
AcDbXrecord
 10
0.0
 20
0.0
 30
0.0
  0
XRECORD
  5
145B7
102
{ACAD_REACTORS
330
145A2
102
}
330
145A2
100
AcDbXrecord
 10
0.0
 20
0.0
 30
0.0
  0
XRECORD
  5
145B8
102
{ACAD_REACTORS
330
145A2
102
}
330
145A2
100
AcDbXrecord
 10
0.0
 20
0.0
 30
0.0
  0
XRECORD
  5
145B9
102
{ACAD_REACTORS
330
145A2
102
}
330
145A2
100
AcDbXrecord
340
0
  0
XRECORD
  5
145BA
102
{ACAD_REACTORS
330
145A2
102
}
330
145A2
100
AcDbXrecord
 70
     0
  0
XRECORD
  5
145BB
102
{ACAD_REACTORS
330
145A2
102
}
330
145A2
100
AcDbXrecord
340
0
  0
XRECORD
  5
145BC
102
{ACAD_REACTORS
330
145A2
102
}
330
145A2
100
AcDbXrecord
 10
0.0
 20
0.0
 30
0.0
  0
XRECORD
  5
145BD
102
{ACAD_REACTORS
330
145A2
102
}
330
145A2
100
AcDbXrecord
 10
0.0
 20
0.0
 30
0.0
  0
XRECORD
  5
145BE
102
{ACAD_REACTORS
330
145A2
102
}
330
145A2
100
AcDbXrecord
 10
0.0
 20
0.0
 30
0.0
  0
XRECORD
  5
145BF
102
{ACAD_REACTORS
330
145A2
102
}
330
145A2
100
AcDbXrecord
 10
0.0
 20
0.0
 30
0.0
  0
XRECORD
  5
145C0
102
{ACAD_REACTORS
330
145A2
102
}
330
145A2
100
AcDbXrecord
 10
0.0
 20
0.0
 30
0.0
  0
XRECORD
  5
145C1
102
{ACAD_REACTORS
330
145A2
102
}
330
145A2
100
AcDbXrecord
 10
0.0
 20
0.0
 30
0.0
  0
XRECORD
  5
12876
102
{ACAD_REACTORS
330
12875
102
}
330
12875
100
AcDbXrecord
  1
BASE
  1
BASE*
  1
*
  1
*
 70
     0
  1
*
  1
*
  0
XRECORD
  5
12877
102
{ACAD_REACTORS
330
12875
102
}
330
12875
100
AcDbXrecord
  1
CASE
  1
CASE*
  1
*
  1
*
 70
     0
  1
*
  1
*
  0
XRECORD
  5
12878
102
{ACAD_REACTORS
330
12875
102
}
330
12875
100
AcDbXrecord
  1
KIKOU
  1
KIKOU*
  1
*
  1
*
 70
     0
  1
*
  1
*
  0
ENDSEC
  0
EOF
