  0
SECTION
  2
HEADER
  9
$ACADVER
  1
AC1014
  9
$ACADMAINTVER
 70
     9
  9
$DWGCODEPAGE
  3
ANSI_932
  9
$INSBASE
 10
0.0
 20
0.0
 30
0.0
  9
$EXTMIN
 10
-1319.045681321918
 20
1517.900232449183
 30
0.0
  9
$EXTMAX
 10
-1153.545509411007
 20
1689.682402445169
 30
0.0
  9
$LIMMIN
 10
0.0
 20
0.0
  9
$LIMMAX
 10
420.0
 20
297.0
  9
$ORTHOMODE
 70
     1
  9
$REGENMODE
 70
     1
  9
$FILLMODE
 70
     1
  9
$QTEXTMODE
 70
     0
  9
$MIRRTEXT
 70
     1
  9
$DRAGMODE
 70
     2
  9
$LTSCALE
 40
1.0
  9
$OSMODE
 70
    37
  9
$ATTMODE
 70
     1
  9
$TEXTSIZE
 40
2.5
  9
$TRACEWID
 40
1.0
  9
$TEXTSTYLE
  7
ゴシック体
  9
$CLAYER
  8
SUNPOU
  9
$CELTYPE
  6
BYLAYER
  9
$CECOLOR
 62
   256
  9
$CELTSCALE
 40
1.0
  9
$DELOBJ
 70
     1
  9
$DISPSILH
 70
     0
  9
$DIMSCALE
 40
0.0
  9
$DIMASZ
 40
3.0
  9
$DIMEXO
 40
0.5
  9
$DIMDLI
 40
0.5
  9
$DIMRND
 40
0.0
  9
$DIMDLE
 40
0.0
  9
$DIMEXE
 40
0.5
  9
$DIMTP
 40
0.0
  9
$DIMTM
 40
0.0
  9
$DIMTXT
 40
3.5
  9
$DIMCEN
 40
0.0
  9
$DIMTSZ
 40
0.0
  9
$DIMTOL
 70
     0
  9
$DIMLIM
 70
     0
  9
$DIMTIH
 70
     0
  9
$DIMTOH
 70
     0
  9
$DIMSE1
 70
     0
  9
$DIMSE2
 70
     0
  9
$DIMTAD
 70
     1
  9
$DIMZIN
 70
     8
  9
$DIMBLK
  1

  9
$DIMASO
 70
     1
  9
$DIMSHO
 70
     1
  9
$DIMPOST
  1

  9
$DIMAPOST
  1

  9
$DIMALT
 70
     0
  9
$DIMALTD
 70
     2
  9
$DIMALTF
 40
25.4
  9
$DIMLFAC
 40
1.0
  9
$DIMTOFL
 70
     1
  9
$DIMTVP
 40
0.0
  9
$DIMTIX
 70
     0
  9
$DIMSOXD
 70
     0
  9
$DIMSAH
 70
     0
  9
$DIMBLK1
  1

  9
$DIMBLK2
  1

  9
$DIMSTYLE
  2
標準スタイル
  9
$DIMCLRD
 70
     1
  9
$DIMCLRE
 70
     1
  9
$DIMCLRT
 70
     1
  9
$DIMTFAC
 40
1.0
  9
$DIMGAP
 40
1.0
  9
$DIMJUST
 70
     0
  9
$DIMSD1
 70
     0
  9
$DIMSD2
 70
     0
  9
$DIMTOLJ
 70
     1
  9
$DIMTZIN
 70
     8
  9
$DIMALTZ
 70
     0
  9
$DIMALTTZ
 70
     0
  9
$DIMFIT
 70
     3
  9
$DIMUPT
 70
     0
  9
$DIMUNIT
 70
     2
  9
$DIMDEC
 70
     2
  9
$DIMTDEC
 70
     2
  9
$DIMALTU
 70
     2
  9
$DIMALTTD
 70
     2
  9
$DIMTXSTY
  7
ゴシック体
  9
$DIMAUNIT
 70
     0
  9
$LUNITS
 70
     2
  9
$LUPREC
 70
     4
  9
$SKETCHINC
 40
1.0
  9
$FILLETRAD
 40
0.0
  9
$AUNITS
 70
     0
  9
$AUPREC
 70
     0
  9
$MENU
  1
.
  9
$ELEVATION
 40
0.0
  9
$PELEVATION
 40
0.0
  9
$THICKNESS
 40
0.0
  9
$LIMCHECK
 70
     0
  9
$BLIPMODE
 70
     0
  9
$CHAMFERA
 40
10.0
  9
$CHAMFERB
 40
10.0
  9
$CHAMFERC
 40
2.0
  9
$CHAMFERD
 40
0.7853981633974483
  9
$SKPOLY
 70
     0
  9
$TDCREATE
 40
2450495.493631365
  9
$TDUPDATE
 40
2455345.763274155
  9
$TDINDWG
 40
1.9889594676
  9
$TDUSRTIMER
 40
1.9889594676
  9
$USRTIMER
 70
     1
  9
$ANGBASE
 50
0.0
  9
$ANGDIR
 70
     0
  9
$PDMODE
 70
    99
  9
$PDSIZE
 40
0.0
  9
$PLINEWID
 40
0.0
  9
$COORDS
 70
     1
  9
$SPLFRAME
 70
     0
  9
$SPLINETYPE
 70
     6
  9
$SPLINESEGS
 70
     8
  9
$ATTDIA
 70
     0
  9
$ATTREQ
 70
     1
  9
$HANDLING
 70
 10241
  9
$HANDSEED
  5
14DC8
  9
$SURFTAB1
 70
     6
  9
$SURFTAB2
 70
     6
  9
$SURFTYPE
 70
     6
  9
$SURFU
 70
     6
  9
$SURFV
 70
     6
  9
$UCSNAME
  2

  9
$UCSORG
 10
0.0
 20
0.0
 30
0.0
  9
$UCSXDIR
 10
1.0
 20
0.0
 30
0.0
  9
$UCSYDIR
 10
0.0
 20
1.0
 30
0.0
  9
$PUCSNAME
  2

  9
$PUCSORG
 10
0.0
 20
0.0
 30
0.0
  9
$PUCSXDIR
 10
1.0
 20
0.0
 30
0.0
  9
$PUCSYDIR
 10
0.0
 20
1.0
 30
0.0
  9
$USERI1
 70
     0
  9
$USERI2
 70
     0
  9
$USERI3
 70
     0
  9
$USERI4
 70
     0
  9
$USERI5
 70
     0
  9
$USERR1
 40
0.0
  9
$USERR2
 40
0.0
  9
$USERR3
 40
0.0
  9
$USERR4
 40
0.0
  9
$USERR5
 40
0.0
  9
$WORLDVIEW
 70
     1
  9
$SHADEDGE
 70
     3
  9
$SHADEDIF
 70
    70
  9
$TILEMODE
 70
     0
  9
$MAXACTVP
 70
    16
  9
$PINSBASE
 10
0.0
 20
0.0
 30
0.0
  9
$PLIMCHECK
 70
     0
  9
$PEXTMIN
 10
29.03619555254135
 20
27.69602733303884
 30
0.0
  9
$PEXTMAX
 10
414.5361955525411
 20
287.6960273330388
 30
0.0
  9
$PLIMMIN
 10
11.82004301553063
 20
9.193992763477359
  9
$PLIMMAX
 10
431.7666982889681
 20
306.204643398243
  9
$UNITMODE
 70
     0
  9
$VISRETAIN
 70
     0
  9
$PLINEGEN
 70
     0
  9
$PSLTSCALE
 70
     1
  9
$TREEDEPTH
 70
  3020
  9
$PICKSTYLE
 70
     1
  9
$CMLSTYLE
  2
STANDARD
  9
$CMLJUST
 70
     0
  9
$CMLSCALE
 40
1.0
  9
$PROXYGRAPHICS
 70
     1
  9
$MEASUREMENT
 70
     1
  0
ENDSEC
  0
SECTION
  2
CLASSES
  0
CLASS
  1
LWPOLYLINE
  2
AcDbPolyline
  3
AutoCAD 2000
 90
        0
280
     0
281
     1
  0
CLASS
  1
HATCH
  2
AcDbHatch
  3
AutoCAD 2000
 90
        0
280
     0
281
     1
  0
CLASS
  1
ACDBDICTIONARYWDFLT
  2
AcDbDictionaryWithDefault
  3
AutoCAD 2000
 90
        0
280
     0
281
     0
  0
CLASS
  1
ACDBPLACEHOLDER
  2
AcDbPlaceHolder
  3
AutoCAD 2000
 90
        0
280
     0
281
     0
  0
CLASS
  1
LAYOUT
  2
AcDbLayout
  3
AutoCAD 2000
 90
        0
280
     0
281
     0
  0
CLASS
  1
DICTIONARYVAR
  2
AcDbDictionaryVar
  3
AutoCAD 2000
 90
        0
280
     0
281
     0
  0
CLASS
  1
LONG_TRANSACTION
  2
AcDbLongTransaction
  3
AutoCAD 2000
 90
        0
280
     0
281
     0
  0
CLASS
  1
LWPOLYLINE
  2
AcDbPolyline
  3
AutoCAD 2000
 90
        0
280
     0
281
     1
  0
CLASS
  1
HATCH
  2
AcDbHatch
  3
AutoCAD 2000
 90
        0
280
     0
281
     1
  0
CLASS
  1
XRECORD
  2
AcDbXrecord
  3
AutoCAD 2000
 90
        0
280
     0
281
     0
  0
ENDSEC
  0
SECTION
  2
TABLES
  0
TABLE
  2
VPORT
  5
8
330
0
100
AcDbSymbolTable
 70
     1
  0
VPORT
  5
14D8F
330
8
100
AcDbSymbolTableRecord
100
AcDbViewportTableRecord
  2
*ACTIVE
 70
     0
 10
0.0
 20
0.0
 11
1.0
 21
1.0
 12
-1236.307268240676
 22
1603.813766495256
 13
0.0
 23
0.0
 14
5.0
 24
5.0
 15
0.0
 25
0.0
 16
0.0
 26
0.0
 36
1.0
 17
0.0
 27
0.0
 37
0.0
 40
173.8231837567937
 41
1.826589595375722
 42
50.0
 43
0.0
 44
0.0
 50
0.0
 51
0.0
 71
     0
 72
   100
 73
     1
 74
     0
 75
     0
 76
     0
 77
     0
 78
     0
  0
ENDTAB
  0
TABLE
  2
LTYPE
  5
5
330
0
100
AcDbSymbolTable
 70
     4
  0
LTYPE
  5
14
330
5
100
AcDbSymbolTableRecord
100
AcDbLinetypeTableRecord
  2
BYBLOCK
 70
     0
  3

 72
    65
 73
     0
 40
0.0
  0
LTYPE
  5
15
330
5
100
AcDbSymbolTableRecord
100
AcDbLinetypeTableRecord
  2
BYLAYER
 70
     0
  3

 72
    65
 73
     0
 40
0.0
  0
LTYPE
  5
16
330
5
100
AcDbSymbolTableRecord
100
AcDbLinetypeTableRecord
  2
CONTINUOUS
 70
     0
  3
Solid line
 72
    65
 73
     0
 40
0.0
  0
LTYPE
  5
329
330
5
100
AcDbSymbolTableRecord
100
AcDbLinetypeTableRecord
  2
DASHEDX2
 70
     0
  3
____  ____  ____  ____  ____  ____  ____  ____ 
 72
    65
 73
     2
 40
1.5
 49
1.0
 74
     0
 49
-0.5
 74
     0
  0
LTYPE
  5
1956
330
5
100
AcDbSymbolTableRecord
100
AcDbLinetypeTableRecord
  2
CENTERX2
 70
     0
  3
________  __  ________  __  ________  __  _____
 72
    65
 73
     4
 40
4.0
 49
2.5
 74
     0
 49
-0.5
 74
     0
 49
0.5
 74
     0
 49
-0.5
 74
     0
  0
LTYPE
  5
1958
330
5
100
AcDbSymbolTableRecord
100
AcDbLinetypeTableRecord
  2
PHANTOMX2
 70
     0
  3
____________    ____    ____    ____________   
 72
    65
 73
     6
 40
5.0
 49
2.5
 74
     0
 49
-0.5
 74
     0
 49
0.5
 74
     0
 49
-0.5
 74
     0
 49
0.5
 74
     0
 49
-0.5
 74
     0
  0
ENDTAB
  0
TABLE
  2
LAYER
  5
2
330
0
100
AcDbSymbolTable
 70
     8
  0
LAYER
  5
F
330
2
100
AcDbSymbolTableRecord
100
AcDbLayerTableRecord
  2
0
 70
     0
 62
     7
  6
CONTINUOUS
  0
LAYER
  5
18F
330
2
100
AcDbSymbolTableRecord
100
AcDbLayerTableRecord
  2
ZISSEN1
 70
     0
 62
     7
  6
CONTINUOUS
  0
LAYER
  5
529
330
2
100
AcDbSymbolTableRecord
100
AcDbLayerTableRecord
  2
SUNPOU
 70
     0
 62
     1
  6
CONTINUOUS
  0
LAYER
  5
1959
330
2
100
AcDbSymbolTableRecord
100
AcDbLayerTableRecord
  2
KAKURESEN1
 70
     0
 62
     3
  6
DASHEDX2
  0
LAYER
  5
195A
330
2
100
AcDbSymbolTableRecord
100
AcDbLayerTableRecord
  2
CL1
 70
     0
 62
   210
  6
CENTERX2
  0
LAYER
  5
195C
330
2
100
AcDbSymbolTableRecord
100
AcDbLayerTableRecord
  2
SOUZOUSEN
 70
     0
 62
     5
  6
PHANTOMX2
  0
LAYER
  5
3A9B
330
2
100
AcDbSymbolTableRecord
100
AcDbLayerTableRecord
  2
DEFPOINTS
 70
     0
 62
     7
  6
CONTINUOUS
  0
LAYER
  5
11C19
330
2
100
AcDbSymbolTableRecord
100
AcDbLayerTableRecord
  2
出力ｷﾊ_ﾝ
 70
     0
 62
     7
  6
CONTINUOUS
  0
ENDTAB
  0
TABLE
  2
STYLE
  5
3
330
0
100
AcDbSymbolTable
 70
     2
  0
STYLE
  5
10
330
3
100
AcDbSymbolTableRecord
100
AcDbTextStyleTableRecord
  2
STANDARD
 70
     0
 40
0.0
 41
1.0
 50
0.0
 71
     0
 42
3.0
  3
txt
  4
BigFont
  0
STYLE
  5
1960
330
3
100
AcDbSymbolTableRecord
100
AcDbTextStyleTableRecord
  2
ゴシック体
 70
     0
 40
0.0
 41
1.0
 50
0.0
 71
     0
 42
2.5
  3
MS Gothic.ttf
  4

1001
ACAD
1000
MS Gothic
1071
    32817
  0
ENDTAB
  0
TABLE
  2
VIEW
  5
6
330
0
100
AcDbSymbolTable
 70
     0
  0
ENDTAB
  0
TABLE
  2
UCS
  5
7
330
0
100
AcDbSymbolTable
 70
     0
  0
ENDTAB
  0
TABLE
  2
APPID
  5
9
330
0
100
AcDbSymbolTable
 70
     5
  0
APPID
  5
11
330
9
100
AcDbSymbolTableRecord
100
AcDbRegAppTableRecord
  2
ACAD
 70
     0
  0
APPID
  5
4005
330
9
100
AcDbSymbolTableRecord
100
AcDbRegAppTableRecord
  2
CONTENTTABDATA
 70
     0
  0
APPID
  5
4006
330
9
100
AcDbSymbolTableRecord
100
AcDbRegAppTableRecord
  2
CONTENTCURRENTTAB
 70
     0
  0
APPID
  5
477B
330
9
100
AcDbSymbolTableRecord
100
AcDbRegAppTableRecord
  2
CONTENTBLOCKDESCRIPTION
 70
     0
  0
APPID
  5
477C
330
9
100
AcDbSymbolTableRecord
100
AcDbRegAppTableRecord
  2
CONTENTBLOCKICON
 70
     0
  0
ENDTAB
  0
TABLE
  2
DIMSTYLE
  5
A
330
0
100
AcDbSymbolTable
 70
     2
  0
DIMSTYLE
105
1D
330
A
100
AcDbSymbolTableRecord
100
AcDbDimStyleTableRecord
  2
STANDARD
 70
     0
  3

  4

  5

  6

  7

 40
1.0
 41
0.18
 42
0.0625
 43
0.38
 44
0.18
 45
0.0
 46
0.0
 47
0.0
 48
0.0
140
0.18
141
0.09
142
0.0
143
25.4
144
1.0
145
0.0
146
1.0
147
0.09
 71
     0
 72
     0
 73
     1
 74
     1
 75
     0
 76
     0
 77
     0
 78
     0
170
     0
171
     2
172
     0
173
     0
174
     0
175
     0
176
     0
177
     0
178
     0
270
     2
271
     4
272
     4
273
     2
274
     2
340
10
275
     0
280
     0
281
     0
282
     0
283
     1
284
     0
285
     0
286
     0
287
     3
288
     0
  0
DIMSTYLE
105
52E
102
{ACAD_REACTORS
330
12FD5
330
12FD6
330
12FE9
330
12FEE
330
12FEF
330
12FFB
330
12FFC
330
13282
330
13283
330
1358B
330
13637
330
13659
330
13284
330
14D58
330
14D65
102
}
330
A
100
AcDbSymbolTableRecord
100
AcDbDimStyleTableRecord
  2
標準スタイル
 70
     0
  3

  4

  5

  6

  7

 40
0.0
 41
3.0
 42
0.5
 43
0.5
 44
0.5
 45
0.0
 46
0.0
 47
0.0
 48
0.0
140
3.5
141
0.0
142
0.0
143
25.4
144
1.0
145
0.0
146
1.0
147
1.0
 71
     0
 72
     0
 73
     0
 74
     0
 75
     0
 76
     0
 77
     1
 78
     8
170
     0
171
     2
172
     1
173
     0
174
     0
175
     0
176
     1
177
     1
178
     1
270
     2
271
     2
272
     2
273
     2
274
     2
340
1960
275
     0
280
     0
281
     0
282
     0
283
     1
284
     8
285
     0
286
     0
287
     3
288
     0
  0
ENDTAB
  0
TABLE
  2
BLOCK_RECORD
  5
1
330
0
100
AcDbSymbolTable
 70
    15
  0
BLOCK_RECORD
  5
1A
102
{ACAD_XDICTIONARY
360
14DB7
102
}
330
1
100
AcDbSymbolTableRecord
100
AcDbBlockTableRecord
  2
*MODEL_SPACE
  0
BLOCK_RECORD
  5
5D8E
102
{ACAD_XDICTIONARY
360
14DB9
102
}
330
1
100
AcDbSymbolTableRecord
100
AcDbBlockTableRecord
  2
*PAPER_SPACE
  0
BLOCK_RECORD
  5
1366C
330
1
100
AcDbSymbolTableRecord
100
AcDbBlockTableRecord
  2
*D0
  0
BLOCK_RECORD
  5
13678
330
1
100
AcDbSymbolTableRecord
100
AcDbBlockTableRecord
  2
*D1
  0
BLOCK_RECORD
  5
13684
330
1
100
AcDbSymbolTableRecord
100
AcDbBlockTableRecord
  2
*D2
  0
BLOCK_RECORD
  5
1369C
330
1
100
AcDbSymbolTableRecord
100
AcDbBlockTableRecord
  2
*D3
  0
BLOCK_RECORD
  5
136A8
330
1
100
AcDbSymbolTableRecord
100
AcDbBlockTableRecord
  2
*D4
  0
BLOCK_RECORD
  5
136C0
330
1
100
AcDbSymbolTableRecord
100
AcDbBlockTableRecord
  2
*D5
  0
BLOCK_RECORD
  5
136CC
330
1
100
AcDbSymbolTableRecord
100
AcDbBlockTableRecord
  2
*D6
  0
BLOCK_RECORD
  5
136DA
330
1
100
AcDbSymbolTableRecord
100
AcDbBlockTableRecord
  2
*D7
  0
BLOCK_RECORD
  5
136E8
330
1
100
AcDbSymbolTableRecord
100
AcDbBlockTableRecord
  2
*D8
  0
BLOCK_RECORD
  5
136F4
330
1
100
AcDbSymbolTableRecord
100
AcDbBlockTableRecord
  2
*D9
  0
BLOCK_RECORD
  5
13702
330
1
100
AcDbSymbolTableRecord
100
AcDbBlockTableRecord
  2
*D10
  0
BLOCK_RECORD
  5
13710
330
1
100
AcDbSymbolTableRecord
100
AcDbBlockTableRecord
  2
*D11
  0
BLOCK_RECORD
  5
1371E
330
1
100
AcDbSymbolTableRecord
100
AcDbBlockTableRecord
  2
*D12
  0
BLOCK_RECORD
  5
14D59
330
1
100
AcDbSymbolTableRecord
100
AcDbBlockTableRecord
  2
*D13
  0
BLOCK_RECORD
  5
14D66
330
1
100
AcDbSymbolTableRecord
100
AcDbBlockTableRecord
  2
*D14
  0
ENDTAB
  0
ENDSEC
  0
SECTION
  2
BLOCKS
  0
BLOCK
  5
1B
330
1A
100
AcDbEntity
  8
0
100
AcDbBlockBegin
  2
*MODEL_SPACE
 70
     0
 10
0.0
 20
0.0
 30
0.0
  3
*MODEL_SPACE
  1

  0
ENDBLK
  5
1C
330
1A
100
AcDbEntity
  8
0
100
AcDbBlockEnd
  0
BLOCK
  5
5E60
330
5D8E
100
AcDbEntity
 67
     1
  8
0
100
AcDbBlockBegin
  2
*PAPER_SPACE
 70
     0
 10
0.0
 20
0.0
 30
0.0
  3
*PAPER_SPACE
  1

  0
ENDBLK
  5
5E61
330
5D8E
100
AcDbEntity
 67
     1
  8
0
100
AcDbBlockEnd
  0
BLOCK
  5
13676
330
1366C
100
AcDbEntity
  8
0
100
AcDbBlockBegin
  2
*D0
 70
     1
 10
0.0
 20
0.0
 30
0.0
  3
*D0
  1

  0
LINE
  5
14D31
330
1366C
100
AcDbEntity
  8
ZISSEN1
 62
     1
100
AcDbLine
 10
-1153.545509411007
 20
1588.907629730357
 30
0.0
 11
-1153.545509411007
 21
1580.90393108977
 31
0.0
  0
LINE
  5
14D32
330
1366C
100
AcDbEntity
  8
ZISSEN1
 62
     1
100
AcDbLine
 10
-1171.545509411006
 20
1591.407629730357
 30
0.0
 11
-1171.545509411006
 21
1580.90393108977
 31
0.0
  0
LINE
  5
14D33
330
1366C
100
AcDbEntity
  8
ZISSEN1
 62
     1
100
AcDbLine
 10
-1156.545509411007
 20
1581.40393108977
 30
0.0
 11
-1168.545509411006
 21
1581.40393108977
 31
0.0
  0
SOLID
  5
14D34
330
1366C
100
AcDbEntity
  8
ZISSEN1
 62
     1
100
AcDbTrace
 10
-1156.545509411007
 20
1581.90393108977
 30
0.0
 11
-1156.545509411007
 21
1580.90393108977
 31
0.0
 12
-1153.545509411007
 22
1581.40393108977
 32
0.0
 13
-1153.545509411007
 23
1581.40393108977
 33
0.0
  0
SOLID
  5
14D35
330
1366C
100
AcDbEntity
  8
ZISSEN1
 62
     1
100
AcDbTrace
 10
-1168.545509411006
 20
1581.90393108977
 30
0.0
 11
-1168.545509411006
 21
1580.90393108977
 31
0.0
 12
-1171.545509411006
 22
1581.40393108977
 32
0.0
 13
-1171.545509411006
 23
1581.40393108977
 33
0.0
  0
MTEXT
  5
14D36
330
1366C
100
AcDbEntity
  8
ZISSEN1
 62
     1
100
AcDbMText
 10
-1162.545509411007
 20
1584.15393108977
 30
0.0
 40
3.5
 41
0.0
 71
     5
 72
     1
  1
\A1;18
1001
ACAD
1000
MTEXTBEGIN
1070
    73
1070
     1
1070
    44
1040
1.0
1070
    74
1070
     0
1000
MTEXTEND
  0
POINT
  5
14D37
330
1366C
100
AcDbEntity
  8
DEFPOINTS
 62
     0
100
AcDbPoint
 10
-1153.545509411007
 20
1589.407629730357
 30
0.0
  0
POINT
  5
14D38
330
1366C
100
AcDbEntity
  8
DEFPOINTS
 62
     0
100
AcDbPoint
 10
-1171.545509411006
 20
1591.907629730357
 30
0.0
  0
POINT
  5
14D39
330
1366C
100
AcDbEntity
  8
DEFPOINTS
 62
     0
100
AcDbPoint
 10
-1171.545509411006
 20
1581.40393108977
 30
0.0
  0
ENDBLK
  5
13677
330
1366C
100
AcDbEntity
  8
0
100
AcDbBlockEnd
  0
BLOCK
  5
13682
330
13678
100
AcDbEntity
  8
0
100
AcDbBlockBegin
  2
*D1
 70
     1
 10
0.0
 20
0.0
 30
0.0
  3
*D1
  1

  0
LINE
  5
14D28
330
13678
100
AcDbEntity
  8
ZISSEN1
 62
     1
100
AcDbLine
 10
-1153.545509411007
 20
1588.907629730357
 30
0.0
 11
-1153.545509411007
 21
1572.90393108977
 31
0.0
  0
LINE
  5
14D29
330
13678
100
AcDbEntity
  8
ZISSEN1
 62
     1
100
AcDbLine
 10
-1189.545509411007
 20
1588.907629730357
 30
0.0
 11
-1189.545509411007
 21
1572.90393108977
 31
0.0
  0
LINE
  5
14D2A
330
13678
100
AcDbEntity
  8
ZISSEN1
 62
     1
100
AcDbLine
 10
-1156.545509411007
 20
1573.40393108977
 30
0.0
 11
-1186.545509411007
 21
1573.40393108977
 31
0.0
  0
SOLID
  5
14D2B
330
13678
100
AcDbEntity
  8
ZISSEN1
 62
     1
100
AcDbTrace
 10
-1156.545509411007
 20
1573.90393108977
 30
0.0
 11
-1156.545509411007
 21
1572.90393108977
 31
0.0
 12
-1153.545509411007
 22
1573.40393108977
 32
0.0
 13
-1153.545509411007
 23
1573.40393108977
 33
0.0
  0
SOLID
  5
14D2C
330
13678
100
AcDbEntity
  8
ZISSEN1
 62
     1
100
AcDbTrace
 10
-1186.545509411007
 20
1573.90393108977
 30
0.0
 11
-1186.545509411007
 21
1572.90393108977
 31
0.0
 12
-1189.545509411007
 22
1573.40393108977
 32
0.0
 13
-1189.545509411007
 23
1573.40393108977
 33
0.0
  0
MTEXT
  5
14D2D
330
13678
100
AcDbEntity
  8
ZISSEN1
 62
     1
100
AcDbMText
 10
-1171.545509411007
 20
1576.15393108977
 30
0.0
 40
3.5
 41
0.0
 71
     5
 72
     1
  1
\A1;36
1001
ACAD
1000
MTEXTBEGIN
1070
    73
1070
     1
1070
    44
1040
1.0
1070
    74
1070
     0
1000
MTEXTEND
  0
POINT
  5
14D2E
330
13678
100
AcDbEntity
  8
DEFPOINTS
 62
     0
100
AcDbPoint
 10
-1153.545509411007
 20
1589.407629730357
 30
0.0
  0
POINT
  5
14D2F
330
13678
100
AcDbEntity
  8
DEFPOINTS
 62
     0
100
AcDbPoint
 10
-1189.545509411007
 20
1589.407629730357
 30
0.0
  0
POINT
  5
14D30
330
13678
100
AcDbEntity
  8
DEFPOINTS
 62
     0
100
AcDbPoint
 10
-1189.545509411007
 20
1573.40393108977
 30
0.0
  0
ENDBLK
  5
13683
330
13678
100
AcDbEntity
  8
0
100
AcDbBlockEnd
  0
BLOCK
  5
1368E
330
13684
100
AcDbEntity
  8
0
100
AcDbBlockBegin
  2
*D2
 70
     1
 10
0.0
 20
0.0
 30
0.0
  3
*D2
  1

  0
LINE
  5
14CF3
330
13684
100
AcDbEntity
  8
ZISSEN1
 62
     1
100
AcDbLine
 10
-1172.045509411006
 20
1654.907629730357
 30
0.0
 11
-1198.045509411007
 21
1654.907629730357
 31
0.0
  0
LINE
  5
14CF4
330
13684
100
AcDbEntity
  8
ZISSEN1
 62
     1
100
AcDbLine
 10
-1172.045509411006
 20
1591.907629730357
 30
0.0
 11
-1198.045509411007
 21
1591.907629730357
 31
0.0
  0
LINE
  5
14CF5
330
13684
100
AcDbEntity
  8
ZISSEN1
 62
     1
100
AcDbLine
 10
-1197.545509411007
 20
1651.907629730357
 30
0.0
 11
-1197.545509411007
 21
1594.907629730357
 31
0.0
  0
SOLID
  5
14CF6
330
13684
100
AcDbEntity
  8
ZISSEN1
 62
     1
100
AcDbTrace
 10
-1198.045509411007
 20
1651.907629730357
 30
0.0
 11
-1197.045509411007
 21
1651.907629730357
 31
0.0
 12
-1197.545509411007
 22
1654.907629730357
 32
0.0
 13
-1197.545509411007
 23
1654.907629730357
 33
0.0
  0
SOLID
  5
14CF7
330
13684
100
AcDbEntity
  8
ZISSEN1
 62
     1
100
AcDbTrace
 10
-1198.045509411007
 20
1594.907629730357
 30
0.0
 11
-1197.045509411007
 21
1594.907629730357
 31
0.0
 12
-1197.545509411007
 22
1591.907629730357
 32
0.0
 13
-1197.545509411007
 23
1591.907629730357
 33
0.0
  0
MTEXT
  5
14CF8
330
13684
100
AcDbEntity
  8
ZISSEN1
 62
     1
100
AcDbMText
 10
-1200.295509411007
 20
1623.407629730357
 30
0.0
 40
3.5
 41
0.0
 71
     5
 72
     1
  1
\A1;63
 11
0.0000000000000001
 21
1.0
 31
0.0
1001
ACAD
1000
MTEXTBEGIN
1070
    73
1070
     1
1070
    44
1040
1.0
1070
    74
1070
     0
1000
MTEXTEND
  0
POINT
  5
14CF9
330
13684
100
AcDbEntity
  8
DEFPOINTS
 62
     0
100
AcDbPoint
 10
-1171.545509411006
 20
1654.907629730357
 30
0.0
  0
POINT
  5
14CFA
330
13684
100
AcDbEntity
  8
DEFPOINTS
 62
     0
100
AcDbPoint
 10
-1171.545509411006
 20
1591.907629730357
 30
0.0
  0
POINT
  5
14CFB
330
13684
100
AcDbEntity
  8
DEFPOINTS
 62
     0
100
AcDbPoint
 10
-1197.545509411007
 20
1591.907629730357
 30
0.0
  0
ENDBLK
  5
1368F
330
13684
100
AcDbEntity
  8
0
100
AcDbBlockEnd
  0
BLOCK
  5
136A6
330
1369C
100
AcDbEntity
  8
0
100
AcDbBlockBegin
  2
*D3
 70
     1
 10
0.0
 20
0.0
 30
0.0
  3
*D3
  1

  0
LINE
  5
14CCB
330
1369C
100
AcDbEntity
  8
ZISSEN1
 62
     1
100
AcDbLine
 10
-1307.045509411006
 20
1657.407629730357
 30
0.0
 11
-1315.045681321917
 21
1657.407629730357
 31
0.0
  0
LINE
  5
14CCC
330
1369C
100
AcDbEntity
  8
ZISSEN1
 62
     1
100
AcDbLine
 10
-1307.045509411007
 20
1589.407629730357
 30
0.0
 11
-1315.045681321917
 21
1589.407629730357
 31
0.0
  0
LINE
  5
14CCD
330
1369C
100
AcDbEntity
  8
ZISSEN1
 62
     1
100
AcDbLine
 10
-1314.545681321917
 20
1654.407629730357
 30
0.0
 11
-1314.545681321917
 21
1592.407629730357
 31
0.0
  0
SOLID
  5
14CCE
330
1369C
100
AcDbEntity
  8
ZISSEN1
 62
     1
100
AcDbTrace
 10
-1315.045681321917
 20
1654.407629730357
 30
0.0
 11
-1314.045681321917
 21
1654.407629730357
 31
0.0
 12
-1314.545681321917
 22
1657.407629730357
 32
0.0
 13
-1314.545681321917
 23
1657.407629730357
 33
0.0
  0
SOLID
  5
14CCF
330
1369C
100
AcDbEntity
  8
ZISSEN1
 62
     1
100
AcDbTrace
 10
-1315.045681321917
 20
1592.407629730357
 30
0.0
 11
-1314.045681321917
 21
1592.407629730357
 31
0.0
 12
-1314.545681321917
 22
1589.407629730357
 32
0.0
 13
-1314.545681321917
 23
1589.407629730357
 33
0.0
  0
MTEXT
  5
14CD0
330
1369C
100
AcDbEntity
  8
ZISSEN1
 62
     1
100
AcDbMText
 10
-1317.295681321917
 20
1623.407629730357
 30
0.0
 40
3.5
 41
0.0
 71
     5
 72
     1
  1
\A1;68
 11
0.0000000000000001
 21
1.0
 31
0.0
1001
ACAD
1000
MTEXTBEGIN
1070
    73
1070
     1
1070
    44
1040
1.0
1070
    74
1070
     0
1000
MTEXTEND
  0
POINT
  5
14CD1
330
1369C
100
AcDbEntity
  8
DEFPOINTS
 62
     0
100
AcDbPoint
 10
-1306.545509411007
 20
1657.407629730357
 30
0.0
  0
POINT
  5
14CD2
330
1369C
100
AcDbEntity
  8
DEFPOINTS
 62
     0
100
AcDbPoint
 10
-1306.545509411007
 20
1589.407629730357
 30
0.0
  0
POINT
  5
14CD3
330
1369C
100
AcDbEntity
  8
DEFPOINTS
 62
     0
100
AcDbPoint
 10
-1314.545681321917
 20
1589.407629730357
 30
0.0
  0
ENDBLK
  5
136A7
330
1369C
100
AcDbEntity
  8
0
100
AcDbBlockEnd
  0
BLOCK
  5
136B2
330
136A8
100
AcDbEntity
  8
0
100
AcDbBlockBegin
  2
*D4
 70
     1
 10
0.0
 20
0.0
 30
0.0
  3
*D4
  1

  0
LINE
  5
14CC2
330
136A8
100
AcDbEntity
  8
ZISSEN1
 62
     1
100
AcDbLine
 10
-1298.04340892556
 20
1654.907629730357
 30
0.0
 11
-1213.045509411006
 21
1654.907629730357
 31
0.0
  0
LINE
  5
14CC3
330
136A8
100
AcDbEntity
  8
ZISSEN1
 62
     1
100
AcDbLine
 10
-1226.047678356873
 20
1591.907629730356
 30
0.0
 11
-1213.045509411006
 21
1591.907629730356
 31
0.0
  0
LINE
  5
14CC4
330
136A8
100
AcDbEntity
  8
ZISSEN1
 62
     1
100
AcDbLine
 10
-1213.545509411007
 20
1651.907629730357
 30
0.0
 11
-1213.545509411007
 21
1594.907629730356
 31
0.0
  0
SOLID
  5
14CC5
330
136A8
100
AcDbEntity
  8
ZISSEN1
 62
     1
100
AcDbTrace
 10
-1214.045509411006
 20
1651.907629730357
 30
0.0
 11
-1213.045509411006
 21
1651.907629730357
 31
0.0
 12
-1213.545509411007
 22
1654.907629730357
 32
0.0
 13
-1213.545509411007
 23
1654.907629730357
 33
0.0
  0
SOLID
  5
14CC6
330
136A8
100
AcDbEntity
  8
ZISSEN1
 62
     1
100
AcDbTrace
 10
-1214.045509411006
 20
1594.907629730356
 30
0.0
 11
-1213.045509411006
 21
1594.907629730356
 31
0.0
 12
-1213.545509411007
 22
1591.907629730356
 32
0.0
 13
-1213.545509411007
 23
1591.907629730356
 33
0.0
  0
MTEXT
  5
14CC7
330
136A8
100
AcDbEntity
  8
ZISSEN1
 62
     1
100
AcDbMText
 10
-1216.295509411007
 20
1623.407629730356
 30
0.0
 40
3.5
 41
0.0
 71
     5
 72
     1
  1
\A1;63
 11
0.0000000000000001
 21
1.0
 31
0.0
1001
ACAD
1000
MTEXTBEGIN
1070
    73
1070
     1
1070
    44
1040
1.0
1070
    74
1070
     0
1000
MTEXTEND
  0
POINT
  5
14CC8
330
136A8
100
AcDbEntity
  8
DEFPOINTS
 62
     0
100
AcDbPoint
 10
-1298.54340892556
 20
1654.907629730357
 30
0.0
  0
POINT
  5
14CC9
330
136A8
100
AcDbEntity
  8
DEFPOINTS
 62
     0
100
AcDbPoint
 10
-1226.547678356872
 20
1591.907629730356
 30
0.0
  0
POINT
  5
14CCA
330
136A8
100
AcDbEntity
  8
DEFPOINTS
 62
     0
100
AcDbPoint
 10
-1213.545509411007
 20
1591.907629730356
 30
0.0
  0
ENDBLK
  5
136B3
330
136A8
100
AcDbEntity
  8
0
100
AcDbBlockEnd
  0
BLOCK
  5
136CA
330
136C0
100
AcDbEntity
  8
0
100
AcDbBlockBegin
  2
*D5
 70
     1
 10
0.0
 20
0.0
 30
0.0
  3
*D5
  1

  0
LINE
  5
14CB0
330
136C0
100
AcDbEntity
  8
ZISSEN1
 62
     1
100
AcDbLine
 10
-1221.545509411007
 20
1525.90393108977
 30
0.0
 11
-1221.545509411007
 21
1517.900232449183
 31
0.0
  0
LINE
  5
14CB1
330
136C0
100
AcDbEntity
  8
ZISSEN1
 62
     1
100
AcDbLine
 10
-1306.545509411006
 20
1525.90393108977
 30
0.0
 11
-1306.545509411006
 21
1517.900232449183
 31
0.0
  0
LINE
  5
14CB2
330
136C0
100
AcDbEntity
  8
ZISSEN1
 62
     1
100
AcDbLine
 10
-1224.545509411007
 20
1518.400232449183
 30
0.0
 11
-1303.545509411006
 21
1518.400232449183
 31
0.0
  0
SOLID
  5
14CB3
330
136C0
100
AcDbEntity
  8
ZISSEN1
 62
     1
100
AcDbTrace
 10
-1224.545509411007
 20
1518.900232449183
 30
0.0
 11
-1224.545509411007
 21
1517.900232449183
 31
0.0
 12
-1221.545509411007
 22
1518.400232449183
 32
0.0
 13
-1221.545509411007
 23
1518.400232449183
 33
0.0
  0
SOLID
  5
14CB4
330
136C0
100
AcDbEntity
  8
ZISSEN1
 62
     1
100
AcDbTrace
 10
-1303.545509411006
 20
1518.900232449183
 30
0.0
 11
-1303.545509411006
 21
1517.900232449183
 31
0.0
 12
-1306.545509411006
 22
1518.400232449183
 32
0.0
 13
-1306.545509411006
 23
1518.400232449183
 33
0.0
  0
MTEXT
  5
14CB5
330
136C0
100
AcDbEntity
  8
ZISSEN1
 62
     1
100
AcDbMText
 10
-1264.045509411007
 20
1521.150232449183
 30
0.0
 40
3.5
 41
0.0
 71
     5
 72
     1
  1
\A1;85
1001
ACAD
1000
MTEXTBEGIN
1070
    73
1070
     1
1070
    44
1040
1.0
1070
    74
1070
     0
1000
MTEXTEND
  0
POINT
  5
14CB6
330
136C0
100
AcDbEntity
  8
DEFPOINTS
 62
     0
100
AcDbPoint
 10
-1221.545509411007
 20
1526.40393108977
 30
0.0
  0
POINT
  5
14CB7
330
136C0
100
AcDbEntity
  8
DEFPOINTS
 62
     0
100
AcDbPoint
 10
-1306.545509411006
 20
1526.40393108977
 30
0.0
  0
POINT
  5
14CB8
330
136C0
100
AcDbEntity
  8
DEFPOINTS
 62
     0
100
AcDbPoint
 10
-1306.545509411006
 20
1518.400232449183
 30
0.0
  0
ENDBLK
  5
136CB
330
136C0
100
AcDbEntity
  8
0
100
AcDbBlockEnd
  0
BLOCK
  5
136D8
330
136CC
100
AcDbEntity
  8
0
100
AcDbBlockBegin
  2
*D6
 70
     1
 10
0.0
 20
0.0
 30
0.0
  3
*D6
  1

  0
LINE
  5
14CDD
330
136CC
100
AcDbEntity
  8
ZISSEN1
 62
     1
100
AcDbLine
 10
-1306.545509411007
 20
1562.90393108977
 30
0.0
 11
-1306.545509411007
 21
1570.905461744398
 31
0.0
  0
LINE
  5
14CDE
330
136CC
100
AcDbEntity
  8
ZISSEN1
 62
     1
100
AcDbLine
 10
-1303.545509411007
 20
1562.90393108977
 30
0.0
 11
-1303.545509411007
 21
1570.905461744398
 31
0.0
  0
LINE
  5
14CDF
330
136CC
100
AcDbEntity
  8
ZISSEN1
 62
     1
100
AcDbLine
 10
-1309.545509411007
 20
1570.405461744398
 30
0.0
 11
-1312.545509411007
 21
1570.405461744398
 31
0.0
  0
LINE
  5
14CE0
330
136CC
100
AcDbEntity
  8
ZISSEN1
 62
     1
100
AcDbLine
 10
-1300.545509411007
 20
1570.405461744398
 30
0.0
 11
-1293.212176077673
 21
1570.405461744398
 31
0.0
  0
LINE
  5
14CE1
330
136CC
100
AcDbEntity
  8
ZISSEN1
 62
     1
100
AcDbLine
 10
-1306.545509411007
 20
1570.405461744398
 30
0.0
 11
-1303.545509411007
 21
1570.405461744398
 31
0.0
  0
SOLID
  5
14CE2
330
136CC
100
AcDbEntity
  8
ZISSEN1
 62
     1
100
AcDbTrace
 10
-1309.545509411007
 20
1570.905461744398
 30
0.0
 11
-1309.545509411007
 21
1569.905461744398
 31
0.0
 12
-1306.545509411007
 22
1570.405461744398
 32
0.0
 13
-1306.545509411007
 23
1570.405461744398
 33
0.0
  0
SOLID
  5
14CE3
330
136CC
100
AcDbEntity
  8
ZISSEN1
 62
     1
100
AcDbTrace
 10
-1300.545509411007
 20
1570.905461744398
 30
0.0
 11
-1300.545509411007
 21
1569.905461744398
 31
0.0
 12
-1303.545509411007
 22
1570.405461744398
 32
0.0
 13
-1303.545509411007
 23
1570.405461744398
 33
0.0
  0
MTEXT
  5
14CE4
330
136CC
100
AcDbEntity
  8
ZISSEN1
 62
     1
100
AcDbMText
 10
-1295.37884274434
 20
1573.155461744398
 30
0.0
 40
3.5
 41
0.0
 71
     5
 72
     1
  1
\A1;3
1001
ACAD
1000
MTEXTBEGIN
1070
    73
1070
     1
1070
    44
1040
1.0
1070
    74
1070
     0
1000
MTEXTEND
  0
POINT
  5
14CE5
330
136CC
100
AcDbEntity
  8
DEFPOINTS
 62
     0
100
AcDbPoint
 10
-1306.545509411007
 20
1562.40393108977
 30
0.0
  0
POINT
  5
14CE6
330
136CC
100
AcDbEntity
  8
DEFPOINTS
 62
     0
100
AcDbPoint
 10
-1303.545509411007
 20
1562.40393108977
 30
0.0
  0
POINT
  5
14CE7
330
136CC
100
AcDbEntity
  8
DEFPOINTS
 62
     0
100
AcDbPoint
 10
-1303.545509411007
 20
1570.405461744398
 30
0.0
  0
ENDBLK
  5
136D9
330
136CC
100
AcDbEntity
  8
0
100
AcDbBlockEnd
  0
BLOCK
  5
136E6
330
136DA
100
AcDbEntity
  8
0
100
AcDbBlockBegin
  2
*D7
 70
     1
 10
0.0
 20
0.0
 30
0.0
  3
*D7
  1

  0
LINE
  5
14D14
330
136DA
100
AcDbEntity
  8
ZISSEN1
 62
     1
100
AcDbLine
 10
-1221.545509411007
 20
1588.907629730357
 30
0.0
 11
-1221.545509411007
 21
1580.903931089769
 31
0.0
  0
LINE
  5
14D15
330
136DA
100
AcDbEntity
  8
ZISSEN1
 62
     1
100
AcDbLine
 10
-1226.545509411006
 20
1591.407629730356
 30
0.0
 11
-1226.545509411006
 21
1580.903931089769
 31
0.0
  0
LINE
  5
14D16
330
136DA
100
AcDbEntity
  8
ZISSEN1
 62
     1
100
AcDbLine
 10
-1218.545509411007
 20
1581.403931089769
 30
0.0
 11
-1215.545509411007
 21
1581.403931089769
 31
0.0
  0
LINE
  5
14D17
330
136DA
100
AcDbEntity
  8
ZISSEN1
 62
     1
100
AcDbLine
 10
-1229.545509411006
 20
1581.403931089769
 30
0.0
 11
-1232.545509411006
 21
1581.403931089769
 31
0.0
  0
LINE
  5
14D18
330
136DA
100
AcDbEntity
  8
ZISSEN1
 62
     1
100
AcDbLine
 10
-1221.545509411007
 20
1581.403931089769
 30
0.0
 11
-1226.545509411006
 21
1581.403931089769
 31
0.0
  0
SOLID
  5
14D19
330
136DA
100
AcDbEntity
  8
ZISSEN1
 62
     1
100
AcDbTrace
 10
-1218.545509411007
 20
1581.903931089769
 30
0.0
 11
-1218.545509411007
 21
1580.903931089769
 31
0.0
 12
-1221.545509411007
 22
1581.403931089769
 32
0.0
 13
-1221.545509411007
 23
1581.403931089769
 33
0.0
  0
SOLID
  5
14D1A
330
136DA
100
AcDbEntity
  8
ZISSEN1
 62
     1
100
AcDbTrace
 10
-1229.545509411006
 20
1581.903931089769
 30
0.0
 11
-1229.545509411006
 21
1580.903931089769
 31
0.0
 12
-1226.545509411006
 22
1581.403931089769
 32
0.0
 13
-1226.545509411006
 23
1581.403931089769
 33
0.0
  0
MTEXT
  5
14D1B
330
136DA
100
AcDbEntity
  8
ZISSEN1
 62
     1
100
AcDbMText
 10
-1224.045509411006
 20
1584.153931089769
 30
0.0
 40
3.5
 41
0.0
 71
     5
 72
     1
  1
\A1;5
1001
ACAD
1000
MTEXTBEGIN
1070
    73
1070
     1
1070
    44
1040
1.0
1070
    74
1070
     0
1000
MTEXTEND
  0
POINT
  5
14D1C
330
136DA
100
AcDbEntity
  8
DEFPOINTS
 62
     0
100
AcDbPoint
 10
-1221.545509411007
 20
1589.407629730357
 30
0.0
  0
POINT
  5
14D1D
330
136DA
100
AcDbEntity
  8
DEFPOINTS
 62
     0
100
AcDbPoint
 10
-1226.545509411006
 20
1591.907629730356
 30
0.0
  0
POINT
  5
14D1E
330
136DA
100
AcDbEntity
  8
DEFPOINTS
 62
     0
100
AcDbPoint
 10
-1226.545509411006
 20
1581.403931089769
 30
0.0
  0
ENDBLK
  5
136E7
330
136DA
100
AcDbEntity
  8
0
100
AcDbBlockEnd
  0
BLOCK
  5
136F2
330
136E8
100
AcDbEntity
  8
0
100
AcDbBlockBegin
  2
*D8
 70
     1
 10
0.0
 20
0.0
 30
0.0
  3
*D8
  1

  0
LINE
  5
14D1F
330
136E8
100
AcDbEntity
  8
ZISSEN1
 62
     1
100
AcDbLine
 10
-1221.045577326847
 20
1555.402782421683
 30
0.0
 11
-1213.049041095823
 21
1555.402782421683
 31
0.0
  0
LINE
  5
14D20
330
136E8
100
AcDbEntity
  8
ZISSEN1
 62
     1
100
AcDbLine
 10
-1221.045509411007
 20
1526.40393108977
 30
0.0
 11
-1213.049041095823
 21
1526.40393108977
 31
0.0
  0
LINE
  5
14D21
330
136E8
100
AcDbEntity
  8
ZISSEN1
 62
     1
100
AcDbLine
 10
-1213.549041095823
 20
1552.402782421683
 30
0.0
 11
-1213.549041095823
 21
1529.40393108977
 31
0.0
  0
SOLID
  5
14D22
330
136E8
100
AcDbEntity
  8
ZISSEN1
 62
     1
100
AcDbTrace
 10
-1214.049041095823
 20
1552.402782421683
 30
0.0
 11
-1213.049041095823
 21
1552.402782421683
 31
0.0
 12
-1213.549041095823
 22
1555.402782421683
 32
0.0
 13
-1213.549041095823
 23
1555.402782421683
 33
0.0
  0
SOLID
  5
14D23
330
136E8
100
AcDbEntity
  8
ZISSEN1
 62
     1
100
AcDbTrace
 10
-1214.049041095823
 20
1529.40393108977
 30
0.0
 11
-1213.049041095823
 21
1529.40393108977
 31
0.0
 12
-1213.549041095823
 22
1526.40393108977
 32
0.0
 13
-1213.549041095823
 23
1526.40393108977
 33
0.0
  0
MTEXT
  5
14D24
330
136E8
100
AcDbEntity
  8
ZISSEN1
 62
     1
100
AcDbMText
 10
-1216.299041095823
 20
1540.903356755726
 30
0.0
 40
3.5
 41
0.0
 71
     5
 72
     1
  1
\A1;29
 11
0.0000000000000001
 21
1.0
 31
0.0
1001
ACAD
1000
MTEXTBEGIN
1070
    73
1070
     1
1070
    44
1040
1.0
1070
    74
1070
     0
1000
MTEXTEND
  0
POINT
  5
14D25
330
136E8
100
AcDbEntity
  8
DEFPOINTS
 62
     0
100
AcDbPoint
 10
-1221.545577326847
 20
1555.402782421683
 30
0.0
  0
POINT
  5
14D26
330
136E8
100
AcDbEntity
  8
DEFPOINTS
 62
     0
100
AcDbPoint
 10
-1221.545509411007
 20
1526.40393108977
 30
0.0
  0
POINT
  5
14D27
330
136E8
100
AcDbEntity
  8
DEFPOINTS
 62
     0
100
AcDbPoint
 10
-1213.549041095823
 20
1526.40393108977
 30
0.0
  0
ENDBLK
  5
136F3
330
136E8
100
AcDbEntity
  8
0
100
AcDbBlockEnd
  0
BLOCK
  5
13700
330
136F4
100
AcDbEntity
  8
0
100
AcDbBlockBegin
  2
*D9
 70
     1
 10
0.0
 20
0.0
 30
0.0
  3
*D9
  1

  0
LINE
  5
14DBB
330
136F4
100
AcDbEntity
  8
ZISSEN1
 62
     1
100
AcDbLine
 10
-1226.047678356873
 20
1591.907629730356
 30
0.0
 11
-1213.049041095823
 21
1591.907629730356
 31
0.0
  0
LINE
  5
14DBC
330
136F4
100
AcDbEntity
  8
ZISSEN1
 62
     1
100
AcDbLine
 10
-1221.045509411007
 20
1589.407629730357
 30
0.0
 11
-1213.049041095823
 21
1589.407629730357
 31
0.0
  0
LINE
  5
14DBD
330
136F4
100
AcDbEntity
  8
ZISSEN1
 62
     1
100
AcDbLine
 10
-1213.549041095823
 20
1594.907629730356
 30
0.0
 11
-1213.549041095823
 21
1597.907629730356
 31
0.0
  0
LINE
  5
14DBE
330
136F4
100
AcDbEntity
  8
ZISSEN1
 62
     1
100
AcDbLine
 10
-1213.549041095823
 20
1586.407629730357
 30
0.0
 11
-1213.549041095823
 21
1583.407629730356
 31
0.0
  0
LINE
  5
14DBF
330
136F4
100
AcDbEntity
  8
ZISSEN1
 62
     1
100
AcDbLine
 10
-1213.549041095823
 20
1568.602179642243
 30
0.0
 11
-1213.549041095823
 21
1589.407629730357
 31
0.0
  0
MTEXT
  5
14DC0
330
136F4
100
AcDbEntity
  8
ZISSEN1
 62
     1
100
AcDbMText
 10
-1216.299041095823
 20
1573.102179642243
 30
0.0
 40
3.5
 41
0.0
 71
     5
 72
     1
  1
\A1;2.5
 11
0.0000000000000001
 21
1.0
 31
0.0
  0
LINE
  5
14DC1
330
136F4
100
AcDbEntity
  8
ZISSEN1
 62
     1
100
AcDbLine
 10
-1213.549041095823
 20
1591.907629730356
 30
0.0
 11
-1213.549041095823
 21
1589.407629730357
 31
0.0
  0
LINE
  5
14DC2
330
136F4
100
AcDbEntity
  8
ZISSEN1
 62
     1
100
AcDbLine
 10
-1213.549041095823
 20
1591.907629730356
 30
0.0
 11
-1213.549041095823
 21
1589.407629730357
 31
0.0
  0
SOLID
  5
14DC3
330
136F4
100
AcDbEntity
  8
ZISSEN1
 62
     1
100
AcDbTrace
 10
-1214.049041095823
 20
1594.907629730356
 30
0.0
 11
-1213.049041095823
 21
1594.907629730356
 31
0.0
 12
-1213.549041095823
 22
1591.907629730356
 32
0.0
 13
-1213.549041095823
 23
1591.907629730356
 33
0.0
  0
SOLID
  5
14DC4
330
136F4
100
AcDbEntity
  8
ZISSEN1
 62
     1
100
AcDbTrace
 10
-1214.049041095823
 20
1586.407629730357
 30
0.0
 11
-1213.049041095823
 21
1586.407629730357
 31
0.0
 12
-1213.549041095823
 22
1589.407629730357
 32
0.0
 13
-1213.549041095823
 23
1589.407629730357
 33
0.0
  0
POINT
  5
14DC5
330
136F4
100
AcDbEntity
  8
DEFPOINTS
 62
     0
100
AcDbPoint
 10
-1226.547678356872
 20
1591.907629730356
 30
0.0
  0
POINT
  5
14DC6
330
136F4
100
AcDbEntity
  8
DEFPOINTS
 62
     0
100
AcDbPoint
 10
-1221.545509411007
 20
1589.407629730357
 30
0.0
  0
POINT
  5
14DC7
330
136F4
100
AcDbEntity
  8
DEFPOINTS
 62
     0
100
AcDbPoint
 10
-1213.549041095823
 20
1589.407629730357
 30
0.0
  0
ENDBLK
  5
13701
330
136F4
100
AcDbEntity
  8
0
100
AcDbBlockEnd
  0
BLOCK
  5
1370E
330
13702
100
AcDbEntity
  8
0
100
AcDbBlockBegin
  2
*D10
 70
     1
 10
0.0
 20
0.0
 30
0.0
  3
*D10
  1

  0
LINE
  5
14CFC
330
13702
100
AcDbEntity
  8
ZISSEN1
 62
     1
100
AcDbLine
 10
-1172.045509411006
 20
1591.907629730357
 30
0.0
 11
-1198.045509411007
 21
1591.907629730357
 31
0.0
  0
LINE
  5
14CFD
330
13702
100
AcDbEntity
  8
ZISSEN1
 62
     1
100
AcDbLine
 10
-1190.045509411007
 20
1589.407629730357
 30
0.0
 11
-1198.045509411007
 21
1589.407629730357
 31
0.0
  0
LINE
  5
14CFE
330
13702
100
AcDbEntity
  8
ZISSEN1
 62
     1
100
AcDbLine
 10
-1197.545509411007
 20
1594.907629730357
 30
0.0
 11
-1197.545509411007
 21
1597.907629730357
 31
0.0
  0
LINE
  5
14CFF
330
13702
100
AcDbEntity
  8
ZISSEN1
 62
     1
100
AcDbLine
 10
-1197.545509411007
 20
1586.407629730357
 30
0.0
 11
-1197.545509411007
 21
1574.407629730357
 31
0.0
  0
LINE
  5
14D00
330
13702
100
AcDbEntity
  8
ZISSEN1
 62
     1
100
AcDbLine
 10
-1197.545509411007
 20
1591.907629730357
 30
0.0
 11
-1197.545509411007
 21
1589.407629730357
 31
0.0
  0
SOLID
  5
14D01
330
13702
100
AcDbEntity
  8
ZISSEN1
 62
     1
100
AcDbTrace
 10
-1198.045509411007
 20
1594.907629730357
 30
0.0
 11
-1197.045509411007
 21
1594.907629730357
 31
0.0
 12
-1197.545509411007
 22
1591.907629730357
 32
0.0
 13
-1197.545509411007
 23
1591.907629730357
 33
0.0
  0
SOLID
  5
14D02
330
13702
100
AcDbEntity
  8
ZISSEN1
 62
     1
100
AcDbTrace
 10
-1198.045509411007
 20
1586.407629730357
 30
0.0
 11
-1197.045509411007
 21
1586.407629730357
 31
0.0
 12
-1197.545509411007
 22
1589.407629730357
 32
0.0
 13
-1197.545509411007
 23
1589.407629730357
 33
0.0
  0
MTEXT
  5
14D03
330
13702
100
AcDbEntity
  8
ZISSEN1
 62
     1
100
AcDbMText
 10
-1200.295509411007
 20
1578.907629730356
 30
0.0
 40
3.5
 41
0.0
 71
     5
 72
     1
  1
\A1;2.5
 11
0.0000000000000001
 21
1.0
 31
0.0
1001
ACAD
1000
MTEXTBEGIN
1070
    73
1070
     1
1070
    44
1040
1.0
1070
    74
1070
     0
1000
MTEXTEND
  0
POINT
  5
14D04
330
13702
100
AcDbEntity
  8
DEFPOINTS
 62
     0
100
AcDbPoint
 10
-1171.545509411006
 20
1591.907629730357
 30
0.0
  0
POINT
  5
14D05
330
13702
100
AcDbEntity
  8
DEFPOINTS
 62
     0
100
AcDbPoint
 10
-1189.545509411007
 20
1589.407629730357
 30
0.0
  0
POINT
  5
14D06
330
13702
100
AcDbEntity
  8
DEFPOINTS
 62
     0
100
AcDbPoint
 10
-1197.545509411007
 20
1589.407629730357
 30
0.0
  0
ENDBLK
  5
1370F
330
13702
100
AcDbEntity
  8
0
100
AcDbBlockEnd
  0
BLOCK
  5
1371C
330
13710
100
AcDbEntity
  8
0
100
AcDbBlockBegin
  2
*D11
 70
     1
 10
0.0
 20
0.0
 30
0.0
  3
*D11
  1

  0
LINE
  5
14CE8
330
13710
100
AcDbEntity
  8
ZISSEN1
 62
     1
100
AcDbLine
 10
-1190.045509411006
 20
1657.407629730357
 30
0.0
 11
-1198.045509411006
 21
1657.407629730357
 31
0.0
  0
LINE
  5
14CE9
330
13710
100
AcDbEntity
  8
ZISSEN1
 62
     1
100
AcDbLine
 10
-1172.045509411006
 20
1654.907629730357
 30
0.0
 11
-1198.045509411006
 21
1654.907629730357
 31
0.0
  0
LINE
  5
14CEA
330
13710
100
AcDbEntity
  8
ZISSEN1
 62
     1
100
AcDbLine
 10
-1197.545509411007
 20
1651.907629730357
 30
0.0
 11
-1197.545509411007
 21
1648.907629730357
 31
0.0
  0
LINE
  5
14CEB
330
13710
100
AcDbEntity
  8
ZISSEN1
 62
     1
100
AcDbLine
 10
-1197.545509411007
 20
1660.407629730357
 30
0.0
 11
-1197.545509411007
 21
1672.407629730357
 31
0.0
  0
LINE
  5
14CEC
330
13710
100
AcDbEntity
  8
ZISSEN1
 62
     1
100
AcDbLine
 10
-1197.545509411007
 20
1654.907629730357
 30
0.0
 11
-1197.545509411007
 21
1657.407629730357
 31
0.0
  0
SOLID
  5
14CED
330
13710
100
AcDbEntity
  8
ZISSEN1
 62
     1
100
AcDbTrace
 10
-1198.045509411006
 20
1651.907629730357
 30
0.0
 11
-1197.045509411007
 21
1651.907629730357
 31
0.0
 12
-1197.545509411007
 22
1654.907629730357
 32
0.0
 13
-1197.545509411007
 23
1654.907629730357
 33
0.0
  0
SOLID
  5
14CEE
330
13710
100
AcDbEntity
  8
ZISSEN1
 62
     1
100
AcDbTrace
 10
-1198.045509411006
 20
1660.407629730357
 30
0.0
 11
-1197.045509411007
 21
1660.407629730357
 31
0.0
 12
-1197.545509411007
 22
1657.407629730357
 32
0.0
 13
-1197.545509411007
 23
1657.407629730357
 33
0.0
  0
MTEXT
  5
14CEF
330
13710
100
AcDbEntity
  8
ZISSEN1
 62
     1
100
AcDbMText
 10
-1200.295509411007
 20
1667.907629730357
 30
0.0
 40
3.5
 41
0.0
 71
     5
 72
     1
  1
\A1;2.5
 11
0.0000000000000001
 21
1.0
 31
0.0
1001
ACAD
1000
MTEXTBEGIN
1070
    73
1070
     1
1070
    44
1040
1.0
1070
    74
1070
     0
1000
MTEXTEND
  0
POINT
  5
14CF0
330
13710
100
AcDbEntity
  8
DEFPOINTS
 62
     0
100
AcDbPoint
 10
-1189.545509411007
 20
1657.407629730357
 30
0.0
  0
POINT
  5
14CF1
330
13710
100
AcDbEntity
  8
DEFPOINTS
 62
     0
100
AcDbPoint
 10
-1171.545509411006
 20
1654.907629730357
 30
0.0
  0
POINT
  5
14CF2
330
13710
100
AcDbEntity
  8
DEFPOINTS
 62
     0
100
AcDbPoint
 10
-1197.545509411007
 20
1654.907629730357
 30
0.0
  0
ENDBLK
  5
1371D
330
13710
100
AcDbEntity
  8
0
100
AcDbBlockEnd
  0
BLOCK
  5
1372A
330
1371E
100
AcDbEntity
  8
0
100
AcDbBlockBegin
  2
*D12
 70
     1
 10
0.0
 20
0.0
 30
0.0
  3
*D12
  1

  0
LINE
  5
14D3A
330
1371E
100
AcDbEntity
  8
ZISSEN1
 62
     1
100
AcDbLine
 10
-1173.295509411006
 20
1657.907629730357
 30
0.0
 11
-1173.295509411006
 21
1665.909160384985
 31
0.0
  0
LINE
  5
14D3B
330
1371E
100
AcDbEntity
  8
ZISSEN1
 62
     1
100
AcDbLine
 10
-1169.795509411006
 20
1657.907629730357
 30
0.0
 11
-1169.795509411006
 21
1665.909160384985
 31
0.0
  0
LINE
  5
14D3C
330
1371E
100
AcDbEntity
  8
ZISSEN1
 62
     1
100
AcDbLine
 10
-1176.295509411006
 20
1665.409160384985
 30
0.0
 11
-1179.295509411006
 21
1665.409160384985
 31
0.0
  0
LINE
  5
14D3D
330
1371E
100
AcDbEntity
  8
ZISSEN1
 62
     1
100
AcDbLine
 10
-1166.795509411006
 20
1665.409160384985
 30
0.0
 11
-1154.795509411006
 21
1665.409160384985
 31
0.0
  0
LINE
  5
14D3E
330
1371E
100
AcDbEntity
  8
ZISSEN1
 62
     1
100
AcDbLine
 10
-1173.295509411006
 20
1665.409160384985
 30
0.0
 11
-1169.795509411006
 21
1665.409160384985
 31
0.0
  0
SOLID
  5
14D3F
330
1371E
100
AcDbEntity
  8
ZISSEN1
 62
     1
100
AcDbTrace
 10
-1176.295509411006
 20
1665.909160384985
 30
0.0
 11
-1176.295509411006
 21
1664.909160384985
 31
0.0
 12
-1173.295509411006
 22
1665.409160384985
 32
0.0
 13
-1173.295509411006
 23
1665.409160384985
 33
0.0
  0
SOLID
  5
14D40
330
1371E
100
AcDbEntity
  8
ZISSEN1
 62
     1
100
AcDbTrace
 10
-1166.795509411006
 20
1665.909160384985
 30
0.0
 11
-1166.795509411006
 21
1664.909160384985
 31
0.0
 12
-1169.795509411006
 22
1665.409160384985
 32
0.0
 13
-1169.795509411006
 23
1665.409160384985
 33
0.0
  0
MTEXT
  5
14D41
330
1371E
100
AcDbEntity
  8
ZISSEN1
 62
     1
100
AcDbMText
 10
-1159.295509411006
 20
1668.159160384985
 30
0.0
 40
3.5
 41
0.0
 71
     5
 72
     1
  1
\A1;3.5
1001
ACAD
1000
MTEXTBEGIN
1070
    73
1070
     1
1070
    44
1040
1.0
1070
    74
1070
     0
1000
MTEXTEND
  0
POINT
  5
14D42
330
1371E
100
AcDbEntity
  8
DEFPOINTS
 62
     0
100
AcDbPoint
 10
-1173.295509411006
 20
1657.407629730357
 30
0.0
  0
POINT
  5
14D43
330
1371E
100
AcDbEntity
  8
DEFPOINTS
 62
     0
100
AcDbPoint
 10
-1169.795509411006
 20
1657.407629730357
 30
0.0
  0
POINT
  5
14D44
330
1371E
100
AcDbEntity
  8
DEFPOINTS
 62
     0
100
AcDbPoint
 10
-1169.795509411006
 20
1665.409160384985
 30
0.0
  0
ENDBLK
  5
1372B
330
1371E
100
AcDbEntity
  8
0
100
AcDbBlockEnd
  0
BLOCK
  5
14D63
330
14D59
100
AcDbEntity
  8
0
100
AcDbBlockBegin
  2
*D13
 70
     1
 10
0.0
 20
0.0
 30
0.0
  3
*D13
  1

  0
LINE
  5
14D72
330
14D59
100
AcDbEntity
  8
SUNPOU
 62
     1
100
AcDbLine
 10
-1306.545509411007
 20
1588.907629730357
 30
0.0
 11
-1306.545509411007
 21
1580.90707629385
 31
0.0
  0
LINE
  5
14D73
330
14D59
100
AcDbEntity
  8
SUNPOU
 62
     1
100
AcDbLine
 10
-1298.545509411006
 20
1649.907629730357
 30
0.0
 11
-1298.545509411006
 21
1580.90707629385
 31
0.0
  0
LINE
  5
14D74
330
14D59
100
AcDbEntity
  8
SUNPOU
 62
     1
100
AcDbLine
 10
-1303.545509411007
 20
1581.40707629385
 30
0.0
 11
-1301.545509411006
 21
1581.40707629385
 31
0.0
  0
SOLID
  5
14D75
330
14D59
100
AcDbEntity
  8
SUNPOU
 62
     1
100
AcDbTrace
 10
-1303.545509411007
 20
1581.90707629385
 30
0.0
 11
-1303.545509411007
 21
1580.90707629385
 31
0.0
 12
-1306.545509411007
 22
1581.40707629385
 32
0.0
 13
-1306.545509411007
 23
1581.40707629385
 33
0.0
  0
SOLID
  5
14D76
330
14D59
100
AcDbEntity
  8
SUNPOU
 62
     1
100
AcDbTrace
 10
-1301.545509411006
 20
1581.90707629385
 30
0.0
 11
-1301.545509411006
 21
1580.90707629385
 31
0.0
 12
-1298.545509411006
 22
1581.40707629385
 32
0.0
 13
-1298.545509411006
 23
1581.40707629385
 33
0.0
  0
MTEXT
  5
14D77
330
14D59
100
AcDbEntity
  8
SUNPOU
 62
     1
100
AcDbMText
 10
-1302.545509411006
 20
1584.15707629385
 30
0.0
 40
3.5
 41
0.0
 71
     5
 72
     1
  1
\A1;8
1001
ACAD
1000
MTEXTBEGIN
1070
    73
1070
     1
1070
    44
1040
1.0
1070
    74
1070
     0
1000
MTEXTEND
  0
POINT
  5
14D78
330
14D59
100
AcDbEntity
  8
DEFPOINTS
 62
     0
100
AcDbPoint
 10
-1306.545509411007
 20
1589.407629730357
 30
0.0
  0
POINT
  5
14D79
330
14D59
100
AcDbEntity
  8
DEFPOINTS
 62
     0
100
AcDbPoint
 10
-1298.545509411006
 20
1650.407629730357
 30
0.0
  0
POINT
  5
14D7A
330
14D59
100
AcDbEntity
  8
DEFPOINTS
 62
     0
100
AcDbPoint
 10
-1298.545509411006
 20
1581.40707629385
 30
0.0
  0
ENDBLK
  5
14D64
330
14D59
100
AcDbEntity
  8
0
100
AcDbBlockEnd
  0
BLOCK
  5
14D70
330
14D66
100
AcDbEntity
  8
0
100
AcDbBlockBegin
  2
*D14
 70
     1
 10
0.0
 20
0.0
 30
0.0
  3
*D14
  1

  0
LINE
  5
14D7B
330
14D66
100
AcDbEntity
  8
SUNPOU
 62
     1
100
AcDbLine
 10
-1298.545509411006
 20
1651.407629730357
 30
0.0
 11
-1298.545509411006
 21
1580.903931089769
 31
0.0
  0
LINE
  5
14D7C
330
14D66
100
AcDbEntity
  8
SUNPOU
 62
     1
100
AcDbLine
 10
-1226.545509411006
 20
1588.907629730356
 30
0.0
 11
-1226.545509411006
 21
1580.903931089769
 31
0.0
  0
LINE
  5
14D7D
330
14D66
100
AcDbEntity
  8
SUNPOU
 62
     1
100
AcDbLine
 10
-1295.545509411006
 20
1581.403931089769
 30
0.0
 11
-1229.545509411006
 21
1581.403931089769
 31
0.0
  0
SOLID
  5
14D7E
330
14D66
100
AcDbEntity
  8
SUNPOU
 62
     1
100
AcDbTrace
 10
-1295.545509411006
 20
1581.903931089769
 30
0.0
 11
-1295.545509411006
 21
1580.903931089769
 31
0.0
 12
-1298.545509411006
 22
1581.403931089769
 32
0.0
 13
-1298.545509411006
 23
1581.403931089769
 33
0.0
  0
SOLID
  5
14D7F
330
14D66
100
AcDbEntity
  8
SUNPOU
 62
     1
100
AcDbTrace
 10
-1229.545509411006
 20
1581.903931089769
 30
0.0
 11
-1229.545509411006
 21
1580.903931089769
 31
0.0
 12
-1226.545509411006
 22
1581.403931089769
 32
0.0
 13
-1226.545509411006
 23
1581.403931089769
 33
0.0
  0
MTEXT
  5
14D80
330
14D66
100
AcDbEntity
  8
SUNPOU
 62
     1
100
AcDbMText
 10
-1262.545509411006
 20
1584.153931089769
 30
0.0
 40
3.5
 41
0.0
 71
     5
 72
     1
  1
\A1;72
1001
ACAD
1000
MTEXTBEGIN
1070
    73
1070
     1
1070
    44
1040
1.0
1070
    74
1070
     0
1000
MTEXTEND
  0
POINT
  5
14D81
330
14D66
100
AcDbEntity
  8
DEFPOINTS
 62
     0
100
AcDbPoint
 10
-1298.545509411006
 20
1651.907629730357
 30
0.0
  0
POINT
  5
14D82
330
14D66
100
AcDbEntity
  8
DEFPOINTS
 62
     0
100
AcDbPoint
 10
-1226.545509411006
 20
1589.407629730357
 30
0.0
  0
POINT
  5
14D83
330
14D66
100
AcDbEntity
  8
DEFPOINTS
 62
     0
100
AcDbPoint
 10
-1226.545509411006
 20
1581.403931089769
 30
0.0
  0
ENDBLK
  5
14D71
330
14D66
100
AcDbEntity
  8
0
100
AcDbBlockEnd
  0
ENDSEC
  0
SECTION
  2
ENTITIES
  0
MTEXT
  5
5084
330
1A
100
AcDbEntity
  8
0
100
AcDbMText
 10
1985.239088685435
 20
-948.5420423450428
 30
0.0
 40
8.0
 41
0.0
 71
     7
 72
     5
  1

1001
ACAD
1000
MTEXTBEGIN
1070
    73
1070
     1
1070
    44
1040
1.0
1070
    74
1070
     0
1000
MTEXTEND
  0
MTEXT
  5
5085
330
1A
100
AcDbEntity
  8
0
100
AcDbMText
 10
4270.596778580329
 20
22.24825240601649
 30
0.0
 40
8.0
 41
0.0
 71
     7
 72
     5
  1

1001
ACAD
1000
MTEXTBEGIN
1070
    73
1070
     1
1070
    44
1040
1.0
1070
    74
1070
     0
1000
MTEXTEND
  0
MTEXT
  5
5343
330
1A
100
AcDbEntity
  8
SUNPOU
100
AcDbMText
 10
6936.493799262471
 20
9534.359644781135
 30
0.0
 40
10.5
 41
0.0
 71
     1
 72
     5
  1

1001
ACAD
1000
MTEXTBEGIN
1070
    73
1070
     1
1070
    44
1040
1.0
1070
    74
1070
     0
1000
MTEXTEND
  0
MTEXT
  5
544F
330
1A
100
AcDbEntity
  8
0
100
AcDbMText
 10
16317.2832773148
 20
12833.35428897674
 30
0.0
 40
8.0
 41
0.0
 71
     7
 72
     5
  1

1001
ACAD
1000
MTEXTBEGIN
1070
    73
1070
     1
1070
    44
1040
1.0
1070
    74
1070
     0
1000
MTEXTEND
  0
MTEXT
  5
5450
330
1A
100
AcDbEntity
  8
0
100
AcDbMText
 10
18602.64096720969
 20
13804.1445837278
 30
0.0
 40
8.0
 41
0.0
 71
     7
 72
     5
  1

1001
ACAD
1000
MTEXTBEGIN
1070
    73
1070
     1
1070
    44
1040
1.0
1070
    74
1070
     0
1000
MTEXTEND
  0
MTEXT
  5
5451
330
1A
100
AcDbEntity
  8
SUNPOU
100
AcDbMText
 10
21268.53798789184
 20
23316.25597610292
 30
0.0
 40
10.5
 41
0.0
 71
     1
 72
     5
  1

1001
ACAD
1000
MTEXTBEGIN
1070
    73
1070
     1
1070
    44
1040
1.0
1070
    74
1070
     0
1000
MTEXTEND
  0
MTEXT
  5
5452
330
1A
100
AcDbEntity
  8
SUNPOU
100
AcDbMText
 10
13337.6147919559
 20
22369.46284218996
 30
0.0
 40
10.5
 41
0.0
 71
     7
 72
     5
  1

1001
ACAD
1000
MTEXTBEGIN
1070
    73
1070
     1
1070
    44
1040
1.0
1070
    74
1070
     0
1000
MTEXTEND
  0
MTEXT
  5
5453
330
1A
100
AcDbEntity
  8
SUNPOU
100
AcDbMText
 10
16286.59845646867
 20
27270.13891403281
 30
0.0
 40
10.5
 41
0.0
 71
     7
 72
     5
  1

1001
ACAD
1000
MTEXTBEGIN
1070
    73
1070
     1
1070
    44
1040
1.0
1070
    74
1070
     0
1000
MTEXTEND
  0
MTEXT
  5
5454
330
1A
100
AcDbEntity
  8
SUNPOU
100
AcDbMText
 10
20795.67658441924
 20
29706.43966165288
 30
0.0
 40
10.5
 41
0.0
 71
     7
 72
     5
  1

1001
ACAD
1000
MTEXTBEGIN
1070
    73
1070
     1
1070
    44
1040
1.0
1070
    74
1070
     0
1000
MTEXTEND
  0
MTEXT
  5
5455
330
1A
100
AcDbEntity
  8
0
100
AcDbMText
 10
16611.93789220314
 20
14707.52144344448
 30
0.0
 40
8.0
 41
0.0
 71
     7
 72
     5
  1

1001
ACAD
1000
MTEXTBEGIN
1070
    73
1070
     1
1070
    44
1040
1.0
1070
    74
1070
     0
1000
MTEXTEND
  0
MTEXT
  5
5456
330
1A
100
AcDbEntity
  8
0
100
AcDbMText
 10
18897.29558209804
 20
15678.31173819554
 30
0.0
 40
8.0
 41
0.0
 71
     7
 72
     5
  1

1001
ACAD
1000
MTEXTBEGIN
1070
    73
1070
     1
1070
    44
1040
1.0
1070
    74
1070
     0
1000
MTEXTEND
  0
MTEXT
  5
5457
330
1A
100
AcDbEntity
  8
SUNPOU
100
AcDbMText
 10
21563.19260278019
 20
25190.42313057066
 30
0.0
 40
10.5
 41
0.0
 71
     1
 72
     5
  1

1001
ACAD
1000
MTEXTBEGIN
1070
    73
1070
     1
1070
    44
1040
1.0
1070
    74
1070
     0
1000
MTEXTEND
  0
MTEXT
  5
5458
330
1A
100
AcDbEntity
  8
SUNPOU
100
AcDbMText
 10
13632.26940684426
 20
24243.6299966577
 30
0.0
 40
10.5
 41
0.0
 71
     7
 72
     5
  1

1001
ACAD
1000
MTEXTBEGIN
1070
    73
1070
     1
1070
    44
1040
1.0
1070
    74
1070
     0
1000
MTEXTEND
  0
MTEXT
  5
5459
330
1A
100
AcDbEntity
  8
SUNPOU
100
AcDbMText
 10
16581.25307135702
 20
29144.30606850055
 30
0.0
 40
10.5
 41
0.0
 71
     7
 72
     5
  1

1001
ACAD
1000
MTEXTBEGIN
1070
    73
1070
     1
1070
    44
1040
1.0
1070
    74
1070
     0
1000
MTEXTEND
  0
MTEXT
  5
545A
330
1A
100
AcDbEntity
  8
SUNPOU
100
AcDbMText
 10
21090.33119930759
 20
31580.60681612062
 30
0.0
 40
10.5
 41
0.0
 71
     7
 72
     5
  1

1001
ACAD
1000
MTEXTBEGIN
1070
    73
1070
     1
1070
    44
1040
1.0
1070
    74
1070
     0
1000
MTEXTEND
  0
MTEXT
  5
545B
330
1A
100
AcDbEntity
  8
0
100
AcDbMText
 10
22871.60517627167
 20
23974.88367124799
 30
0.0
 40
8.0
 41
0.0
 71
     7
 72
     5
  1

1001
ACAD
1000
MTEXTBEGIN
1070
    73
1070
     1
1070
    44
1040
1.0
1070
    74
1070
     0
1000
MTEXTEND
  0
MTEXT
  5
545C
330
1A
100
AcDbEntity
  8
0
100
AcDbMText
 10
25156.96286616657
 20
24945.67396599906
 30
0.0
 40
8.0
 41
0.0
 71
     7
 72
     5
  1

1001
ACAD
1000
MTEXTBEGIN
1070
    73
1070
     1
1070
    44
1040
1.0
1070
    74
1070
     0
1000
MTEXTEND
  0
MTEXT
  5
545D
330
1A
100
AcDbEntity
  8
SUNPOU
100
AcDbMText
 10
27822.85988684871
 20
34457.78535837418
 30
0.0
 40
10.5
 41
0.0
 71
     1
 72
     5
  1

1001
ACAD
1000
MTEXTBEGIN
1070
    73
1070
     1
1070
    44
1040
1.0
1070
    74
1070
     0
1000
MTEXTEND
  0
MTEXT
  5
545E
330
1A
100
AcDbEntity
  8
SUNPOU
100
AcDbMText
 10
19891.93669091278
 20
33510.99222446122
 30
0.0
 40
10.5
 41
0.0
 71
     7
 72
     5
  1

1001
ACAD
1000
MTEXTBEGIN
1070
    73
1070
     1
1070
    44
1040
1.0
1070
    74
1070
     0
1000
MTEXTEND
  0
MTEXT
  5
545F
330
1A
100
AcDbEntity
  8
SUNPOU
100
AcDbMText
 10
22840.92035542555
 20
38411.66829630407
 30
0.0
 40
10.5
 41
0.0
 71
     7
 72
     5
  1

1001
ACAD
1000
MTEXTBEGIN
1070
    73
1070
     1
1070
    44
1040
1.0
1070
    74
1070
     0
1000
MTEXTEND
  0
MTEXT
  5
5460
330
1A
100
AcDbEntity
  8
SUNPOU
100
AcDbMText
 10
27349.99848337611
 20
40847.96904392415
 30
0.0
 40
10.5
 41
0.0
 71
     7
 72
     5
  1

1001
ACAD
1000
MTEXTBEGIN
1070
    73
1070
     1
1070
    44
1040
1.0
1070
    74
1070
     0
1000
MTEXTEND
  0
MTEXT
  5
55B7
330
1A
100
AcDbEntity
  8
SUNPOU
100
AcDbMText
 10
67424.23923338197
 20
64463.86602884816
 30
0.0
 40
10.5
 41
0.0
 71
     9
 72
     5
  1

1001
ACAD
1000
MTEXTBEGIN
1070
    73
1070
     1
1070
    44
1040
1.0
1070
    74
1070
     0
1000
MTEXTEND
  0
MTEXT
  5
55B8
330
1A
100
AcDbEntity
  8
SUNPOU
100
AcDbMText
 10
76146.40679929998
 20
71879.70056038563
 30
0.0
 40
10.5
 41
0.0
 71
     9
 72
     5
  1

1001
ACAD
1000
MTEXTBEGIN
1070
    73
1070
     1
1070
    44
1040
1.0
1070
    74
1070
     0
1000
MTEXTEND
  0
MTEXT
  5
55B9
330
1A
100
AcDbEntity
  8
SUNPOU
100
AcDbMText
 10
95100.16551662994
 20
89346.27661287766
 30
0.0
 40
10.5
 41
0.0
 71
     9
 72
     5
  1

1001
ACAD
1000
MTEXTBEGIN
1070
    73
1070
     1
1070
    44
1040
1.0
1070
    74
1070
     0
1000
MTEXTEND
  0
MTEXT
  5
55BA
330
1A
100
AcDbEntity
  8
SUNPOU
100
AcDbMText
 10
97043.57276333936
 20
87545.22753299966
 30
0.0
 40
3.5
 41
0.0
 71
     9
 72
     5
  1

1001
ACAD
1000
MTEXTBEGIN
1070
    73
1070
     1
1070
    44
1040
1.0
1070
    74
1070
     0
1000
MTEXTEND
  0
MTEXT
  5
55BB
330
1A
100
AcDbEntity
  8
SUNPOU
100
AcDbMText
 10
128169.752595959
 20
130040.1732006569
 30
0.0
 40
10.5
 41
0.0
 71
     9
 72
     5
  1

1001
ACAD
1000
MTEXTBEGIN
1070
    73
1070
     1
1070
    44
1040
1.0
1070
    74
1070
     0
1000
MTEXTEND
  0
MTEXT
  5
55BC
330
1A
100
AcDbEntity
  8
SUNPOU
100
AcDbMText
 10
130113.1598426684
 20
128239.1241207789
 30
0.0
 40
3.5
 41
0.0
 71
     9
 72
     5
  1

1001
ACAD
1000
MTEXTBEGIN
1070
    73
1070
     1
1070
    44
1040
1.0
1070
    74
1070
     0
1000
MTEXTEND
  0
MTEXT
  5
55BD
330
1A
100
AcDbEntity
  8
SUNPOU
100
AcDbMText
 10
78610.02030175463
 20
75873.33835563206
 30
0.0
 40
10.5
 41
0.0
 71
     9
 72
     5
  1

1001
ACAD
1000
MTEXTBEGIN
1070
    73
1070
     1
1070
    44
1040
1.0
1070
    74
1070
     0
1000
MTEXTEND
  0
MTEXT
  5
55BE
330
1A
100
AcDbEntity
  8
SUNPOU
100
AcDbMText
 10
64662.02020137863
 20
56700.93921651987
 30
0.0
 40
3.5
 41
0.0
 71
     7
 72
     5
  1

1001
ACAD
1000
MTEXTBEGIN
1070
    73
1070
     1
1070
    44
1040
1.0
1070
    74
1070
     0
1000
MTEXTEND
  0
MTEXT
  5
55BF
330
1A
100
AcDbEntity
  8
SUNPOU
100
AcDbMText
 10
45647.18959837178
 20
44463.08794733807
 30
0.0
 40
10.5
 41
0.0
 71
     7
 72
     5
  1

1001
ACAD
1000
MTEXTBEGIN
1070
    73
1070
     1
1070
    44
1040
1.0
1070
    74
1070
     0
1000
MTEXTEND
  0
MTEXT
  5
55C0
330
1A
100
AcDbEntity
  8
SUNPOU
100
AcDbMText
 10
33189.96133342368
 20
28618.15636923965
 30
0.0
 40
35.0
 41
0.0
 71
     9
 72
     5
  1

1001
ACAD
1000
MTEXTBEGIN
1070
    73
1070
     1
1070
    44
1040
1.0
1070
    74
1070
     0
1000
MTEXTEND
  0
MTEXT
  5
55C1
330
1A
100
AcDbEntity
  8
SUNPOU
100
AcDbMText
 10
32098.44639099864
 20
29226.93177928835
 30
0.0
 40
350.0000004171781
 41
0.0
 71
     7
 72
     5
  1

1001
ACAD
1000
MTEXTBEGIN
1070
    73
1070
     1
1070
    44
1040
1.0
1070
    74
1070
     0
1000
MTEXTEND
  0
MTEXT
  5
55C2
330
1A
100
AcDbEntity
  8
0
100
AcDbMText
 10
38142.39714894154
 20
27206.85414142458
 30
0.0
 40
8.0
 41
0.0
 71
     7
 72
     5
  1

1001
ACAD
1000
MTEXTBEGIN
1070
    73
1070
     1
1070
    44
1040
1.0
1070
    74
1070
     0
1000
MTEXTEND
  0
MTEXT
  5
55C3
330
1A
100
AcDbEntity
  8
0
100
AcDbMText
 10
40427.75483883644
 20
28177.64443617564
 30
0.0
 40
8.0
 41
0.0
 71
     7
 72
     5
  1

1001
ACAD
1000
MTEXTBEGIN
1070
    73
1070
     1
1070
    44
1040
1.0
1070
    74
1070
     0
1000
MTEXTEND
  0
MTEXT
  5
55C4
330
1A
100
AcDbEntity
  8
SUNPOU
100
AcDbMText
 10
43093.65185951858
 20
37689.75582855077
 30
0.0
 40
10.5
 41
0.0
 71
     1
 72
     5
  1

1001
ACAD
1000
MTEXTBEGIN
1070
    73
1070
     1
1070
    44
1040
1.0
1070
    74
1070
     0
1000
MTEXTEND
  0
MTEXT
  5
55C5
330
1A
100
AcDbEntity
  8
SUNPOU
100
AcDbMText
 10
35162.72866358265
 20
36742.96269463781
 30
0.0
 40
10.5
 41
0.0
 71
     7
 72
     5
  1

1001
ACAD
1000
MTEXTBEGIN
1070
    73
1070
     1
1070
    44
1040
1.0
1070
    74
1070
     0
1000
MTEXTEND
  0
MTEXT
  5
55C6
330
1A
100
AcDbEntity
  8
SUNPOU
100
AcDbMText
 10
38111.71232809542
 20
41643.63876648066
 30
0.0
 40
10.5
 41
0.0
 71
     7
 72
     5
  1

1001
ACAD
1000
MTEXTBEGIN
1070
    73
1070
     1
1070
    44
1040
1.0
1070
    74
1070
     0
1000
MTEXTEND
  0
MTEXT
  5
55C7
330
1A
100
AcDbEntity
  8
SUNPOU
100
AcDbMText
 10
42620.79045604597
 20
44079.93951410074
 30
0.0
 40
10.5
 41
0.0
 71
     7
 72
     5
  1

1001
ACAD
1000
MTEXTBEGIN
1070
    73
1070
     1
1070
    44
1040
1.0
1070
    74
1070
     0
1000
MTEXTEND
  0
MTEXT
  5
55C8
330
1A
100
AcDbEntity
  8
SUNPOU
100
AcDbMText
 10
26221.62834281429
 20
23077.53566448964
 30
0.0
 40
10.5
 41
0.0
 71
     7
 72
     5
  1

1001
ACAD
1000
MTEXTBEGIN
1070
    73
1070
     1
1070
    44
1040
1.0
1070
    74
1070
     0
1000
MTEXTEND
  0
MTEXT
  5
55C9
330
1A
100
AcDbEntity
  8
SUNPOU
100
AcDbMText
 10
77413.14677671455
 20
68750.51622813789
 30
0.0
 40
10.5
 41
0.0
 71
     9
 72
     5
  1

1001
ACAD
1000
MTEXTBEGIN
1070
    73
1070
     1
1070
    44
1040
1.0
1070
    74
1070
     0
1000
MTEXTEND
  0
MTEXT
  5
55CA
330
1A
100
AcDbEntity
  8
SUNPOU
100
AcDbMText
 10
86135.31434263256
 20
76166.35075967536
 30
0.0
 40
10.5
 41
0.0
 71
     9
 72
     5
  1

1001
ACAD
1000
MTEXTBEGIN
1070
    73
1070
     1
1070
    44
1040
1.0
1070
    74
1070
     0
1000
MTEXTEND
  0
MTEXT
  5
55CB
330
1A
100
AcDbEntity
  8
SUNPOU
100
AcDbMText
 10
105089.0730599625
 20
93632.92681216739
 30
0.0
 40
10.5
 41
0.0
 71
     9
 72
     5
  1

1001
ACAD
1000
MTEXTBEGIN
1070
    73
1070
     1
1070
    44
1040
1.0
1070
    74
1070
     0
1000
MTEXTEND
  0
MTEXT
  5
55CC
330
1A
100
AcDbEntity
  8
SUNPOU
100
AcDbMText
 10
107032.4803066719
 20
91831.8777322894
 30
0.0
 40
3.5
 41
0.0
 71
     9
 72
     5
  1

1001
ACAD
1000
MTEXTBEGIN
1070
    73
1070
     1
1070
    44
1040
1.0
1070
    74
1070
     0
1000
MTEXTEND
  0
MTEXT
  5
55CD
330
1A
100
AcDbEntity
  8
SUNPOU
100
AcDbMText
 10
138158.6601392916
 20
134326.8233999467
 30
0.0
 40
10.5
 41
0.0
 71
     9
 72
     5
  1

1001
ACAD
1000
MTEXTBEGIN
1070
    73
1070
     1
1070
    44
1040
1.0
1070
    74
1070
     0
1000
MTEXTEND
  0
MTEXT
  5
55CE
330
1A
100
AcDbEntity
  8
SUNPOU
100
AcDbMText
 10
140102.067386001
 20
132525.7743200686
 30
0.0
 40
3.5
 41
0.0
 71
     9
 72
     5
  1

1001
ACAD
1000
MTEXTBEGIN
1070
    73
1070
     1
1070
    44
1040
1.0
1070
    74
1070
     0
1000
MTEXTEND
  0
MTEXT
  5
55CF
330
1A
100
AcDbEntity
  8
SUNPOU
100
AcDbMText
 10
88598.92784508721
 20
80159.98855492179
 30
0.0
 40
10.5
 41
0.0
 71
     9
 72
     5
  1

1001
ACAD
1000
MTEXTBEGIN
1070
    73
1070
     1
1070
    44
1040
1.0
1070
    74
1070
     0
1000
MTEXTEND
  0
MTEXT
  5
55D0
330
1A
100
AcDbEntity
  8
SUNPOU
100
AcDbMText
 10
74650.92774471121
 20
60987.5894158096
 30
0.0
 40
3.5
 41
0.0
 71
     7
 72
     5
  1

1001
ACAD
1000
MTEXTBEGIN
1070
    73
1070
     1
1070
    44
1040
1.0
1070
    74
1070
     0
1000
MTEXTEND
  0
MTEXT
  5
55D1
330
1A
100
AcDbEntity
  8
SUNPOU
100
AcDbMText
 10
55636.09714170436
 20
48749.73814662781
 30
0.0
 40
10.5
 41
0.0
 71
     7
 72
     5
  1

1001
ACAD
1000
MTEXTBEGIN
1070
    73
1070
     1
1070
    44
1040
1.0
1070
    74
1070
     0
1000
MTEXTEND
  0
MTEXT
  5
55D2
330
1A
100
AcDbEntity
  8
SUNPOU
100
AcDbMText
 10
43178.86887675626
 20
32904.80656852938
 30
0.0
 40
35.0
 41
0.0
 71
     9
 72
     5
  1

1001
ACAD
1000
MTEXTBEGIN
1070
    73
1070
     1
1070
    44
1040
1.0
1070
    74
1070
     0
1000
MTEXTEND
  0
MTEXT
  5
55D3
330
1A
100
AcDbEntity
  8
SUNPOU
100
AcDbMText
 10
42087.35393433121
 20
33513.58197857809
 30
0.0
 40
350.0000004171781
 41
0.0
 71
     7
 72
     5
  1

1001
ACAD
1000
MTEXTBEGIN
1070
    73
1070
     1
1070
    44
1040
1.0
1070
    74
1070
     0
1000
MTEXTEND
  0
MTEXT
  5
55D4
330
1A
100
AcDbEntity
  8
0
100
AcDbMText
 10
48131.30469227412
 20
31493.50434071431
 30
0.0
 40
8.0
 41
0.0
 71
     7
 72
     5
  1

1001
ACAD
1000
MTEXTBEGIN
1070
    73
1070
     1
1070
    44
1040
1.0
1070
    74
1070
     0
1000
MTEXTEND
  0
MTEXT
  5
55D5
330
1A
100
AcDbEntity
  8
0
100
AcDbMText
 10
50416.66238216901
 20
32464.29463546537
 30
0.0
 40
8.0
 41
0.0
 71
     7
 72
     5
  1

1001
ACAD
1000
MTEXTBEGIN
1070
    73
1070
     1
1070
    44
1040
1.0
1070
    74
1070
     0
1000
MTEXTEND
  0
MTEXT
  5
55D6
330
1A
100
AcDbEntity
  8
SUNPOU
100
AcDbMText
 10
53082.55940285115
 20
41976.4060278405
 30
0.0
 40
10.5
 41
0.0
 71
     1
 72
     5
  1

1001
ACAD
1000
MTEXTBEGIN
1070
    73
1070
     1
1070
    44
1040
1.0
1070
    74
1070
     0
1000
MTEXTEND
  0
MTEXT
  5
55D7
330
1A
100
AcDbEntity
  8
SUNPOU
100
AcDbMText
 10
45151.63620691522
 20
41029.61289392755
 30
0.0
 40
10.5
 41
0.0
 71
     7
 72
     5
  1

1001
ACAD
1000
MTEXTBEGIN
1070
    73
1070
     1
1070
    44
1040
1.0
1070
    74
1070
     0
1000
MTEXTEND
  0
MTEXT
  5
55D8
330
1A
100
AcDbEntity
  8
SUNPOU
100
AcDbMText
 10
48100.61987142798
 20
45930.28896577039
 30
0.0
 40
10.5
 41
0.0
 71
     7
 72
     5
  1

1001
ACAD
1000
MTEXTBEGIN
1070
    73
1070
     1
1070
    44
1040
1.0
1070
    74
1070
     0
1000
MTEXTEND
  0
MTEXT
  5
55D9
330
1A
100
AcDbEntity
  8
SUNPOU
100
AcDbMText
 10
52609.69799937854
 20
48366.58971339046
 30
0.0
 40
10.5
 41
0.0
 71
     7
 72
     5
  1

1001
ACAD
1000
MTEXTBEGIN
1070
    73
1070
     1
1070
    44
1040
1.0
1070
    74
1070
     0
1000
MTEXTEND
  0
MTEXT
  5
55DA
330
1A
100
AcDbEntity
  8
SUNPOU
100
AcDbMText
 10
36210.53588614687
 20
27364.18586377937
 30
0.0
 40
10.5
 41
0.0
 71
     7
 72
     5
  1

1001
ACAD
1000
MTEXTBEGIN
1070
    73
1070
     1
1070
    44
1040
1.0
1070
    74
1070
     0
1000
MTEXTEND
  0
MTEXT
  5
55DB
330
1A
100
AcDbEntity
  8
SUNPOU
100
AcDbMText
 10
38021.29879752181
 20
33691.59985125794
 30
0.0
 40
10.5
 41
0.0
 71
     9
 72
     5
  1

1001
ACAD
1000
MTEXTBEGIN
1070
    73
1070
     1
1070
    44
1040
1.0
1070
    74
1070
     0
1000
MTEXTEND
  0
MTEXT
  5
55DC
330
1A
100
AcDbEntity
  8
SUNPOU
100
AcDbMText
 10
46743.46636343979
 20
41107.43438279541
 30
0.0
 40
10.5
 41
0.0
 71
     9
 72
     5
  1

1001
ACAD
1000
MTEXTBEGIN
1070
    73
1070
     1
1070
    44
1040
1.0
1070
    74
1070
     0
1000
MTEXTEND
  0
MTEXT
  5
55DD
330
1A
100
AcDbEntity
  8
SUNPOU
100
AcDbMText
 10
65697.22508076975
 20
58574.01043528746
 30
0.0
 40
10.5
 41
0.0
 71
     9
 72
     5
  1

1001
ACAD
1000
MTEXTBEGIN
1070
    73
1070
     1
1070
    44
1040
1.0
1070
    74
1070
     0
1000
MTEXTEND
  0
MTEXT
  5
55DE
330
1A
100
AcDbEntity
  8
SUNPOU
100
AcDbMText
 10
67640.63232747917
 20
56772.96135540945
 30
0.0
 40
3.5
 41
0.0
 71
     9
 72
     5
  1

1001
ACAD
1000
MTEXTBEGIN
1070
    73
1070
     1
1070
    44
1040
1.0
1070
    74
1070
     0
1000
MTEXTEND
  0
MTEXT
  5
55DF
330
1A
100
AcDbEntity
  8
SUNPOU
100
AcDbMText
 10
98766.81216009888
 20
99267.9070230668
 30
0.0
 40
10.5
 41
0.0
 71
     9
 72
     5
  1

1001
ACAD
1000
MTEXTBEGIN
1070
    73
1070
     1
1070
    44
1040
1.0
1070
    74
1070
     0
1000
MTEXTEND
  0
MTEXT
  5
55E0
330
1A
100
AcDbEntity
  8
SUNPOU
100
AcDbMText
 10
100710.2194068083
 20
97466.85794318878
 30
0.0
 40
3.5
 41
0.0
 71
     9
 72
     5
  1

1001
ACAD
1000
MTEXTBEGIN
1070
    73
1070
     1
1070
    44
1040
1.0
1070
    74
1070
     0
1000
MTEXTEND
  0
MTEXT
  5
55E1
330
1A
100
AcDbEntity
  8
SUNPOU
100
AcDbMText
 10
49207.07986589444
 20
45101.07217804185
 30
0.0
 40
10.5
 41
0.0
 71
     9
 72
     5
  1

1001
ACAD
1000
MTEXTBEGIN
1070
    73
1070
     1
1070
    44
1040
1.0
1070
    74
1070
     0
1000
MTEXTEND
  0
MTEXT
  5
55E2
330
1A
100
AcDbEntity
  8
SUNPOU
100
AcDbMText
 10
35259.07976551845
 20
25928.67303892964
 30
0.0
 40
3.5
 41
0.0
 71
     7
 72
     5
  1

1001
ACAD
1000
MTEXTBEGIN
1070
    73
1070
     1
1070
    44
1040
1.0
1070
    74
1070
     0
1000
MTEXTEND
  0
MTEXT
  5
55E3
330
1A
100
AcDbEntity
  8
SUNPOU
100
AcDbMText
 10
48951.43044828905
 20
35287.73625995099
 30
0.0
 40
10.5
 41
0.0
 71
     9
 72
     5
  1

1001
ACAD
1000
MTEXTBEGIN
1070
    73
1070
     1
1070
    44
1040
1.0
1070
    74
1070
     0
1000
MTEXTEND
  0
MTEXT
  5
55E4
330
1A
100
AcDbEntity
  8
SUNPOU
100
AcDbMText
 10
57673.59801420702
 20
42703.57079148847
 30
0.0
 40
10.5
 41
0.0
 71
     9
 72
     5
  1

1001
ACAD
1000
MTEXTBEGIN
1070
    73
1070
     1
1070
    44
1040
1.0
1070
    74
1070
     0
1000
MTEXTEND
  0
MTEXT
  5
55E5
330
1A
100
AcDbEntity
  8
SUNPOU
100
AcDbMText
 10
76627.35673153699
 20
60170.14684398051
 30
0.0
 40
10.5
 41
0.0
 71
     9
 72
     5
  1

1001
ACAD
1000
MTEXTBEGIN
1070
    73
1070
     1
1070
    44
1040
1.0
1070
    74
1070
     0
1000
MTEXTEND
  0
MTEXT
  5
55E6
330
1A
100
AcDbEntity
  8
SUNPOU
100
AcDbMText
 10
78570.76397824641
 20
58369.09776410251
 30
0.0
 40
3.5
 41
0.0
 71
     9
 72
     5
  1

1001
ACAD
1000
MTEXTBEGIN
1070
    73
1070
     1
1070
    44
1040
1.0
1070
    74
1070
     0
1000
MTEXTEND
  0
MTEXT
  5
55E7
330
1A
100
AcDbEntity
  8
SUNPOU
100
AcDbMText
 10
109696.9438108661
 20
100864.0434317598
 30
0.0
 40
10.5
 41
0.0
 71
     9
 72
     5
  1

1001
ACAD
1000
MTEXTBEGIN
1070
    73
1070
     1
1070
    44
1040
1.0
1070
    74
1070
     0
1000
MTEXTEND
  0
MTEXT
  5
55E8
330
1A
100
AcDbEntity
  8
SUNPOU
100
AcDbMText
 10
111640.3510575755
 20
99062.99435188183
 30
0.0
 40
3.5
 41
0.0
 71
     9
 72
     5
  1

1001
ACAD
1000
MTEXTBEGIN
1070
    73
1070
     1
1070
    44
1040
1.0
1070
    74
1070
     0
1000
MTEXTEND
  0
MTEXT
  5
55E9
330
1A
100
AcDbEntity
  8
SUNPOU
100
AcDbMText
 10
60137.21151666167
 20
46697.20858673491
 30
0.0
 40
10.5
 41
0.0
 71
     9
 72
     5
  1

1001
ACAD
1000
MTEXTBEGIN
1070
    73
1070
     1
1070
    44
1040
1.0
1070
    74
1070
     0
1000
MTEXTEND
  0
MTEXT
  5
55EA
330
1A
100
AcDbEntity
  8
SUNPOU
100
AcDbMText
 10
46189.21141628568
 20
27524.80944762269
 30
0.0
 40
3.5
 41
0.0
 71
     7
 72
     5
  1

1001
ACAD
1000
MTEXTBEGIN
1070
    73
1070
     1
1070
    44
1040
1.0
1070
    74
1070
     0
1000
MTEXTEND
  0
MTEXT
  5
55EB
330
1A
100
AcDbEntity
  8
SUNPOU
100
AcDbMText
 10
45007.68847015541
 20
38269.57947701874
 30
0.0
 40
10.5
 41
0.0
 71
     9
 72
     5
  1

1001
ACAD
1000
MTEXTBEGIN
1070
    73
1070
     1
1070
    44
1040
1.0
1070
    74
1070
     0
1000
MTEXTEND
  0
MTEXT
  5
55EC
330
1A
100
AcDbEntity
  8
SUNPOU
100
AcDbMText
 10
63961.44718748539
 20
55736.15552951081
 30
0.0
 40
10.5
 41
0.0
 71
     9
 72
     5
  1

1001
ACAD
1000
MTEXTBEGIN
1070
    73
1070
     1
1070
    44
1040
1.0
1070
    74
1070
     0
1000
MTEXTEND
  0
MTEXT
  5
55ED
330
1A
100
AcDbEntity
  8
SUNPOU
100
AcDbMText
 10
65904.85443419479
 20
53935.10644963279
 30
0.0
 40
3.5
 41
0.0
 71
     9
 72
     5
  1

1001
ACAD
1000
MTEXTBEGIN
1070
    73
1070
     1
1070
    44
1040
1.0
1070
    74
1070
     0
1000
MTEXTEND
  0
MTEXT
  5
55EE
330
1A
100
AcDbEntity
  8
SUNPOU
100
AcDbMText
 10
97031.03426681451
 20
96430.05211729015
 30
0.0
 40
10.5
 41
0.0
 71
     9
 72
     5
  1

1001
ACAD
1000
MTEXTBEGIN
1070
    73
1070
     1
1070
    44
1040
1.0
1070
    74
1070
     0
1000
MTEXTEND
  0
MTEXT
  5
55EF
330
1A
100
AcDbEntity
  8
SUNPOU
100
AcDbMText
 10
98974.44151352393
 20
94629.00303741212
 30
0.0
 40
3.5
 41
0.0
 71
     9
 72
     5
  1

1001
ACAD
1000
MTEXTBEGIN
1070
    73
1070
     1
1070
    44
1040
1.0
1070
    74
1070
     0
1000
MTEXTEND
  0
MTEXT
  5
55F0
330
1A
100
AcDbEntity
  8
SUNPOU
100
AcDbMText
 10
47471.30197261006
 20
42263.21727226519
 30
0.0
 40
10.5
 41
0.0
 71
     9
 72
     5
  1

1001
ACAD
1000
MTEXTBEGIN
1070
    73
1070
     1
1070
    44
1040
1.0
1070
    74
1070
     0
1000
MTEXTEND
  0
MTEXT
  5
55F1
330
1A
100
AcDbEntity
  8
SUNPOU
100
AcDbMText
 10
33523.30187223408
 20
23090.81813315298
 30
0.0
 40
3.5
 41
0.0
 71
     7
 72
     5
  1

1001
ACAD
1000
MTEXTBEGIN
1070
    73
1070
     1
1070
    44
1040
1.0
1070
    74
1070
     0
1000
MTEXTEND
  0
MTEXT
  5
55F2
330
1A
100
AcDbEntity
  8
SUNPOU
100
AcDbMText
 10
57959.46254102503
 20
50038.08111611015
 30
0.0
 40
10.5
 41
0.0
 71
     9
 72
     5
  1

1001
ACAD
1000
MTEXTBEGIN
1070
    73
1070
     1
1070
    44
1040
1.0
1070
    74
1070
     0
1000
MTEXTEND
  0
MTEXT
  5
55F3
330
1A
100
AcDbEntity
  8
SUNPOU
100
AcDbMText
 10
76913.22125835503
 20
67504.65716860222
 30
0.0
 40
10.5
 41
0.0
 71
     9
 72
     5
  1

1001
ACAD
1000
MTEXTBEGIN
1070
    73
1070
     1
1070
    44
1040
1.0
1070
    74
1070
     0
1000
MTEXTEND
  0
MTEXT
  5
55F4
330
1A
100
AcDbEntity
  8
SUNPOU
100
AcDbMText
 10
78856.62850506443
 20
65703.6080887242
 30
0.0
 40
3.5
 41
0.0
 71
     9
 72
     5
  1

1001
ACAD
1000
MTEXTBEGIN
1070
    73
1070
     1
1070
    44
1040
1.0
1070
    74
1070
     0
1000
MTEXTEND
  0
MTEXT
  5
55F5
330
1A
100
AcDbEntity
  8
SUNPOU
100
AcDbMText
 10
109982.8083376841
 20
108198.5537563815
 30
0.0
 40
10.5
 41
0.0
 71
     9
 72
     5
  1

1001
ACAD
1000
MTEXTBEGIN
1070
    73
1070
     1
1070
    44
1040
1.0
1070
    74
1070
     0
1000
MTEXTEND
  0
MTEXT
  5
55F6
330
1A
100
AcDbEntity
  8
SUNPOU
100
AcDbMText
 10
111926.2155843935
 20
106397.5046765035
 30
0.0
 40
3.5
 41
0.0
 71
     9
 72
     5
  1

1001
ACAD
1000
MTEXTBEGIN
1070
    73
1070
     1
1070
    44
1040
1.0
1070
    74
1070
     0
1000
MTEXTEND
  0
MTEXT
  5
55F7
330
1A
100
AcDbEntity
  8
SUNPOU
100
AcDbMText
 10
60423.07604347968
 20
54031.71891135659
 30
0.0
 40
10.5
 41
0.0
 71
     9
 72
     5
  1

1001
ACAD
1000
MTEXTBEGIN
1070
    73
1070
     1
1070
    44
1040
1.0
1070
    74
1070
     0
1000
MTEXTEND
  0
MTEXT
  5
55F8
330
1A
100
AcDbEntity
  8
SUNPOU
100
AcDbMText
 10
46475.07594310369
 20
34859.3197722444
 30
0.0
 40
3.5
 41
0.0
 71
     7
 72
     5
  1

1001
ACAD
1000
MTEXTBEGIN
1070
    73
1070
     1
1070
    44
1040
1.0
1070
    74
1070
     0
1000
MTEXTEND
  0
MTEXT
  5
55F9
330
1A
100
AcDbEntity
  8
SUNPOU
100
AcDbMText
 10
74027.35402123588
 20
68370.58278833383
 30
0.0
 40
10.5
 41
0.0
 71
     9
 72
     5
  1

1001
ACAD
1000
MTEXTBEGIN
1070
    73
1070
     1
1070
    44
1040
1.0
1070
    74
1070
     0
1000
MTEXTEND
  0
MTEXT
  5
55FA
330
1A
100
AcDbEntity
  8
SUNPOU
100
AcDbMText
 10
75970.7612679453
 20
66569.53370845583
 30
0.0
 40
3.5
 41
0.0
 71
     9
 72
     5
  1

1001
ACAD
1000
MTEXTBEGIN
1070
    73
1070
     1
1070
    44
1040
1.0
1070
    74
1070
     0
1000
MTEXTEND
  0
MTEXT
  5
55FB
330
1A
100
AcDbEntity
  8
SUNPOU
100
AcDbMText
 10
107096.941100565
 20
109064.4793761132
 30
0.0
 40
10.5
 41
0.0
 71
     9
 72
     5
  1

1001
ACAD
1000
MTEXTBEGIN
1070
    73
1070
     1
1070
    44
1040
1.0
1070
    74
1070
     0
1000
MTEXTEND
  0
MTEXT
  5
55FC
330
1A
100
AcDbEntity
  8
SUNPOU
100
AcDbMText
 10
109040.3483472744
 20
107263.4302962351
 30
0.0
 40
3.5
 41
0.0
 71
     9
 72
     5
  1

1001
ACAD
1000
MTEXTBEGIN
1070
    73
1070
     1
1070
    44
1040
1.0
1070
    74
1070
     0
1000
MTEXTEND
  0
MTEXT
  5
55FD
330
1A
100
AcDbEntity
  8
SUNPOU
100
AcDbMText
 10
105709.1709283621
 20
108141.3777665285
 30
0.0
 40
10.5
 41
0.0
 71
     9
 72
     5
  1

1001
ACAD
1000
MTEXTBEGIN
1070
    73
1070
     1
1070
    44
1040
1.0
1070
    74
1070
     0
1000
MTEXTEND
  0
MTEXT
  5
55FE
330
1A
100
AcDbEntity
  8
SUNPOU
100
AcDbMText
 10
107652.5781750715
 20
106340.3286866505
 30
0.0
 40
3.5
 41
0.0
 71
     9
 72
     5
  1

1001
ACAD
1000
MTEXTBEGIN
1070
    73
1070
     1
1070
    44
1040
1.0
1070
    74
1070
     0
1000
MTEXTEND
  0
MTEXT
  5
55FF
330
1A
100
AcDbEntity
  8
SUNPOU
100
AcDbMText
 10
73193.09268743351
 20
66158.78082845056
 30
0.0
 40
10.5
 41
0.0
 71
     9
 72
     5
  1

1001
ACAD
1000
MTEXTBEGIN
1070
    73
1070
     1
1070
    44
1040
1.0
1070
    74
1070
     0
1000
MTEXTEND
  0
MTEXT
  5
5600
330
1A
100
AcDbEntity
  8
SUNPOU
100
AcDbMText
 10
75916.39889159806
 20
66563.46252003162
 30
0.0
 40
3.5
 41
0.0
 71
     9
 72
     5
  1

1001
ACAD
1000
MTEXTBEGIN
1070
    73
1070
     1
1070
    44
1040
1.0
1070
    74
1070
     0
1000
MTEXTEND
  0
MTEXT
  5
5601
330
1A
100
AcDbEntity
  8
SUNPOU
100
AcDbMText
 10
75124.04436649058
 20
63402.1566819768
 30
0.0
 40
10.5
 41
0.0
 71
     9
 72
     5
  1

1001
ACAD
1000
MTEXTBEGIN
1070
    73
1070
     1
1070
    44
1040
1.0
1070
    74
1070
     0
1000
MTEXTEND
  0
MTEXT
  5
5602
330
1A
100
AcDbEntity
  8
SUNPOU
100
AcDbMText
 10
77067.4516132
 20
61601.1076020988
 30
0.0
 40
3.5
 41
0.0
 71
     9
 72
     5
  1

1001
ACAD
1000
MTEXTBEGIN
1070
    73
1070
     1
1070
    44
1040
1.0
1070
    74
1070
     0
1000
MTEXTEND
  0
MTEXT
  5
5603
330
1A
100
AcDbEntity
  8
SUNPOU
100
AcDbMText
 10
77012.54710378659
 20
61488.33571981449
 30
0.0
 40
3.5
 41
0.0
 71
     9
 72
     5
  1

1001
ACAD
1000
MTEXTBEGIN
1070
    73
1070
     1
1070
    44
1040
1.0
1070
    74
1070
     0
1000
MTEXTEND
  0
MTEXT
  5
5604
330
1A
100
AcDbEntity
  8
SUNPOU
100
AcDbMText
 10
76376.61896736668
 20
60677.01447874797
 30
0.0
 40
3.5
 41
0.0
 71
     9
 72
     5
  1

1001
ACAD
1000
MTEXTBEGIN
1070
    73
1070
     1
1070
    44
1040
1.0
1070
    74
1070
     0
1000
MTEXTEND
  0
MTEXT
  5
5605
330
1A
100
AcDbEntity
  8
SUNPOU
100
AcDbMText
 10
76375.37854794595
 20
60676.76650181047
 30
0.0
 40
10.5
 41
0.0
 71
     9
 72
     5
  1

1001
ACAD
1000
MTEXTBEGIN
1070
    73
1070
     1
1070
    44
1040
1.0
1070
    74
1070
     0
1000
MTEXTEND
  0
MTEXT
  5
5606
330
1A
100
AcDbEntity
  8
SUNPOU
100
AcDbMText
 10
84709.93991079748
 20
78034.0328293557
 30
0.0
 40
10.5
 41
0.0
 71
     9
 72
     5
  1

1001
ACAD
1000
MTEXTBEGIN
1070
    73
1070
     1
1070
    44
1040
1.0
1070
    74
1070
     0
1000
MTEXTEND
  0
MTEXT
  5
5607
330
1A
100
AcDbEntity
  8
SUNPOU
100
AcDbMText
 10
93432.10747671548
 20
85449.86736089315
 30
0.0
 40
10.5
 41
0.0
 71
     9
 72
     5
  1

1001
ACAD
1000
MTEXTBEGIN
1070
    73
1070
     1
1070
    44
1040
1.0
1070
    74
1070
     0
1000
MTEXTEND
  0
MTEXT
  5
5608
330
1A
100
AcDbEntity
  8
SUNPOU
100
AcDbMText
 10
112385.8661940454
 20
102916.4434133851
 30
0.0
 40
10.5
 41
0.0
 71
     9
 72
     5
  1

1001
ACAD
1000
MTEXTBEGIN
1070
    73
1070
     1
1070
    44
1040
1.0
1070
    74
1070
     0
1000
MTEXTEND
  0
MTEXT
  5
5609
330
1A
100
AcDbEntity
  8
SUNPOU
100
AcDbMText
 10
114329.2734407548
 20
101115.3943335072
 30
0.0
 40
3.5
 41
0.0
 71
     9
 72
     5
  1

1001
ACAD
1000
MTEXTBEGIN
1070
    73
1070
     1
1070
    44
1040
1.0
1070
    74
1070
     0
1000
MTEXTEND
  0
MTEXT
  5
560A
330
1A
100
AcDbEntity
  8
SUNPOU
100
AcDbMText
 10
145455.4532733745
 20
143610.3400011645
 30
0.0
 40
10.5
 41
0.0
 71
     9
 72
     5
  1

1001
ACAD
1000
MTEXTBEGIN
1070
    73
1070
     1
1070
    44
1040
1.0
1070
    74
1070
     0
1000
MTEXTEND
  0
MTEXT
  5
560B
330
1A
100
AcDbEntity
  8
SUNPOU
100
AcDbMText
 10
147398.8605200839
 20
141809.2909212864
 30
0.0
 40
3.5
 41
0.0
 71
     9
 72
     5
  1

1001
ACAD
1000
MTEXTBEGIN
1070
    73
1070
     1
1070
    44
1040
1.0
1070
    74
1070
     0
1000
MTEXTEND
  0
MTEXT
  5
560C
330
1A
100
AcDbEntity
  8
SUNPOU
100
AcDbMText
 10
95895.72097917013
 20
89443.5051561396
 30
0.0
 40
10.5
 41
0.0
 71
     9
 72
     5
  1

1001
ACAD
1000
MTEXTBEGIN
1070
    73
1070
     1
1070
    44
1040
1.0
1070
    74
1070
     0
1000
MTEXTEND
  0
MTEXT
  5
560D
330
1A
100
AcDbEntity
  8
SUNPOU
100
AcDbMText
 10
81947.72087879414
 20
70271.1060170274
 30
0.0
 40
3.5
 41
0.0
 71
     7
 72
     5
  1

1001
ACAD
1000
MTEXTBEGIN
1070
    73
1070
     1
1070
    44
1040
1.0
1070
    74
1070
     0
1000
MTEXTEND
  0
MTEXT
  5
560E
330
1A
100
AcDbEntity
  8
SUNPOU
100
AcDbMText
 10
62932.89027578729
 20
58033.25474784561
 30
0.0
 40
10.5
 41
0.0
 71
     7
 72
     5
  1

1001
ACAD
1000
MTEXTBEGIN
1070
    73
1070
     1
1070
    44
1040
1.0
1070
    74
1070
     0
1000
MTEXTEND
  0
MTEXT
  5
560F
330
1A
100
AcDbEntity
  8
SUNPOU
100
AcDbMText
 10
50475.66201083918
 20
42188.32316974719
 30
0.0
 40
35.0
 41
0.0
 71
     9
 72
     5
  1

1001
ACAD
1000
MTEXTBEGIN
1070
    73
1070
     1
1070
    44
1040
1.0
1070
    74
1070
     0
1000
MTEXTEND
  0
MTEXT
  5
5610
330
1A
100
AcDbEntity
  8
SUNPOU
100
AcDbMText
 10
49384.14706841413
 20
42797.0985797959
 30
0.0
 40
350.0000004171781
 41
0.0
 71
     7
 72
     5
  1

1001
ACAD
1000
MTEXTBEGIN
1070
    73
1070
     1
1070
    44
1040
1.0
1070
    74
1070
     0
1000
MTEXTEND
  0
MTEXT
  5
5611
330
1A
100
AcDbEntity
  8
0
100
AcDbMText
 10
55428.09782635704
 20
40777.02094193211
 30
0.0
 40
8.0
 41
0.0
 71
     7
 72
     5
  1

1001
ACAD
1000
MTEXTBEGIN
1070
    73
1070
     1
1070
    44
1040
1.0
1070
    74
1070
     0
1000
MTEXTEND
  0
MTEXT
  5
5612
330
1A
100
AcDbEntity
  8
0
100
AcDbMText
 10
57713.45551625194
 20
41747.81123668317
 30
0.0
 40
8.0
 41
0.0
 71
     7
 72
     5
  1

1001
ACAD
1000
MTEXTBEGIN
1070
    73
1070
     1
1070
    44
1040
1.0
1070
    74
1070
     0
1000
MTEXTEND
  0
MTEXT
  5
5613
330
1A
100
AcDbEntity
  8
SUNPOU
100
AcDbMText
 10
60379.35253693408
 20
51259.9226290583
 30
0.0
 40
10.5
 41
0.0
 71
     1
 72
     5
  1

1001
ACAD
1000
MTEXTBEGIN
1070
    73
1070
     1
1070
    44
1040
1.0
1070
    74
1070
     0
1000
MTEXTEND
  0
MTEXT
  5
5614
330
1A
100
AcDbEntity
  8
SUNPOU
100
AcDbMText
 10
52448.42934099814
 20
50313.12949514535
 30
0.0
 40
10.5
 41
0.0
 71
     7
 72
     5
  1

1001
ACAD
1000
MTEXTBEGIN
1070
    73
1070
     1
1070
    44
1040
1.0
1070
    74
1070
     0
1000
MTEXTEND
  0
MTEXT
  5
5615
330
1A
100
AcDbEntity
  8
SUNPOU
100
AcDbMText
 10
55397.41300551091
 20
55213.80556698819
 30
0.0
 40
10.5
 41
0.0
 71
     7
 72
     5
  1

1001
ACAD
1000
MTEXTBEGIN
1070
    73
1070
     1
1070
    44
1040
1.0
1070
    74
1070
     0
1000
MTEXTEND
  0
MTEXT
  5
5616
330
1A
100
AcDbEntity
  8
SUNPOU
100
AcDbMText
 10
59906.49113346147
 20
57650.10631460826
 30
0.0
 40
10.5
 41
0.0
 71
     7
 72
     5
  1

1001
ACAD
1000
MTEXTBEGIN
1070
    73
1070
     1
1070
    44
1040
1.0
1070
    74
1070
     0
1000
MTEXTEND
  0
MTEXT
  5
5617
330
1A
100
AcDbEntity
  8
SUNPOU
100
AcDbMText
 10
43507.32902022979
 20
36647.70246499718
 30
0.0
 40
10.5
 41
0.0
 71
     7
 72
     5
  1

1001
ACAD
1000
MTEXTBEGIN
1070
    73
1070
     1
1070
    44
1040
1.0
1070
    74
1070
     0
1000
MTEXTEND
  0
MTEXT
  5
5618
330
1A
100
AcDbEntity
  8
SUNPOU
100
AcDbMText
 10
94698.84745413006
 20
82320.68302864542
 30
0.0
 40
10.5
 41
0.0
 71
     9
 72
     5
  1

1001
ACAD
1000
MTEXTBEGIN
1070
    73
1070
     1
1070
    44
1040
1.0
1070
    74
1070
     0
1000
MTEXTEND
  0
MTEXT
  5
5619
330
1A
100
AcDbEntity
  8
SUNPOU
100
AcDbMText
 10
103421.015020048
 20
89736.5175601829
 30
0.0
 40
10.5
 41
0.0
 71
     9
 72
     5
  1

1001
ACAD
1000
MTEXTBEGIN
1070
    73
1070
     1
1070
    44
1040
1.0
1070
    74
1070
     0
1000
MTEXTEND
  0
MTEXT
  5
561A
330
1A
100
AcDbEntity
  8
SUNPOU
100
AcDbMText
 10
122374.773737378
 20
107203.0936126749
 30
0.0
 40
10.5
 41
0.0
 71
     9
 72
     5
  1

1001
ACAD
1000
MTEXTBEGIN
1070
    73
1070
     1
1070
    44
1040
1.0
1070
    74
1070
     0
1000
MTEXTEND
  0
MTEXT
  5
561B
330
1A
100
AcDbEntity
  8
SUNPOU
100
AcDbMText
 10
124318.1809840874
 20
105402.0445327969
 30
0.0
 40
3.5
 41
0.0
 71
     9
 72
     5
  1

1001
ACAD
1000
MTEXTBEGIN
1070
    73
1070
     1
1070
    44
1040
1.0
1070
    74
1070
     0
1000
MTEXTEND
  0
MTEXT
  5
561C
330
1A
100
AcDbEntity
  8
SUNPOU
100
AcDbMText
 10
155444.3608167071
 20
147896.9902004542
 30
0.0
 40
10.5
 41
0.0
 71
     9
 72
     5
  1

1001
ACAD
1000
MTEXTBEGIN
1070
    73
1070
     1
1070
    44
1040
1.0
1070
    74
1070
     0
1000
MTEXTEND
  0
MTEXT
  5
561D
330
1A
100
AcDbEntity
  8
SUNPOU
100
AcDbMText
 10
157387.7680634165
 20
146095.9411205762
 30
0.0
 40
3.5
 41
0.0
 71
     9
 72
     5
  1

1001
ACAD
1000
MTEXTBEGIN
1070
    73
1070
     1
1070
    44
1040
1.0
1070
    74
1070
     0
1000
MTEXTEND
  0
MTEXT
  5
561E
330
1A
100
AcDbEntity
  8
SUNPOU
100
AcDbMText
 10
105884.6285225027
 20
93730.15535542933
 30
0.0
 40
10.5
 41
0.0
 71
     9
 72
     5
  1

1001
ACAD
1000
MTEXTBEGIN
1070
    73
1070
     1
1070
    44
1040
1.0
1070
    74
1070
     0
1000
MTEXTEND
  0
MTEXT
  5
561F
330
1A
100
AcDbEntity
  8
SUNPOU
100
AcDbMText
 10
91936.6284221267
 20
74557.75621631714
 30
0.0
 40
3.5
 41
0.0
 71
     7
 72
     5
  1

1001
ACAD
1000
MTEXTBEGIN
1070
    73
1070
     1
1070
    44
1040
1.0
1070
    74
1070
     0
1000
MTEXTEND
  0
MTEXT
  5
5620
330
1A
100
AcDbEntity
  8
SUNPOU
100
AcDbMText
 10
72921.79781911986
 20
62319.90494713533
 30
0.0
 40
10.5
 41
0.0
 71
     7
 72
     5
  1

1001
ACAD
1000
MTEXTBEGIN
1070
    73
1070
     1
1070
    44
1040
1.0
1070
    74
1070
     0
1000
MTEXTEND
  0
MTEXT
  5
5621
330
1A
100
AcDbEntity
  8
SUNPOU
100
AcDbMText
 10
60464.56955417175
 20
46474.97336903692
 30
0.0
 40
35.0
 41
0.0
 71
     9
 72
     5
  1

1001
ACAD
1000
MTEXTBEGIN
1070
    73
1070
     1
1070
    44
1040
1.0
1070
    74
1070
     0
1000
MTEXTEND
  0
MTEXT
  5
5622
330
1A
100
AcDbEntity
  8
SUNPOU
100
AcDbMText
 10
59373.05461174672
 20
47083.74877908562
 30
0.0
 40
350.0000004171781
 41
0.0
 71
     7
 72
     5
  1

1001
ACAD
1000
MTEXTBEGIN
1070
    73
1070
     1
1070
    44
1040
1.0
1070
    74
1070
     0
1000
MTEXTEND
  0
MTEXT
  5
5623
330
1A
100
AcDbEntity
  8
0
100
AcDbMText
 10
65417.00536968962
 20
45063.67114122186
 30
0.0
 40
8.0
 41
0.0
 71
     7
 72
     5
  1

1001
ACAD
1000
MTEXTBEGIN
1070
    73
1070
     1
1070
    44
1040
1.0
1070
    74
1070
     0
1000
MTEXTEND
  0
MTEXT
  5
5624
330
1A
100
AcDbEntity
  8
0
100
AcDbMText
 10
67702.36305958452
 20
46034.46143597292
 30
0.0
 40
8.0
 41
0.0
 71
     7
 72
     5
  1

1001
ACAD
1000
MTEXTBEGIN
1070
    73
1070
     1
1070
    44
1040
1.0
1070
    74
1070
     0
1000
MTEXTEND
  0
MTEXT
  5
5625
330
1A
100
AcDbEntity
  8
SUNPOU
100
AcDbMText
 10
70368.26008026666
 20
55546.57282834803
 30
0.0
 40
10.5
 41
0.0
 71
     1
 72
     5
  1

1001
ACAD
1000
MTEXTBEGIN
1070
    73
1070
     1
1070
    44
1040
1.0
1070
    74
1070
     0
1000
MTEXTEND
  0
MTEXT
  5
5626
330
1A
100
AcDbEntity
  8
SUNPOU
100
AcDbMText
 10
62437.33688433072
 20
54599.77969443508
 30
0.0
 40
10.5
 41
0.0
 71
     7
 72
     5
  1

1001
ACAD
1000
MTEXTBEGIN
1070
    73
1070
     1
1070
    44
1040
1.0
1070
    74
1070
     0
1000
MTEXTEND
  0
MTEXT
  5
5627
330
1A
100
AcDbEntity
  8
SUNPOU
100
AcDbMText
 10
65386.32054884349
 20
59500.45576627792
 30
0.0
 40
10.5
 41
0.0
 71
     7
 72
     5
  1

1001
ACAD
1000
MTEXTBEGIN
1070
    73
1070
     1
1070
    44
1040
1.0
1070
    74
1070
     0
1000
MTEXTEND
  0
MTEXT
  5
5628
330
1A
100
AcDbEntity
  8
SUNPOU
100
AcDbMText
 10
69895.39867679405
 20
61936.756513898
 30
0.0
 40
10.5
 41
0.0
 71
     7
 72
     5
  1

1001
ACAD
1000
MTEXTBEGIN
1070
    73
1070
     1
1070
    44
1040
1.0
1070
    74
1070
     0
1000
MTEXTEND
  0
MTEXT
  5
5629
330
1A
100
AcDbEntity
  8
SUNPOU
100
AcDbMText
 10
53496.23656356237
 20
40934.35266428691
 30
0.0
 40
10.5
 41
0.0
 71
     7
 72
     5
  1

1001
ACAD
1000
MTEXTBEGIN
1070
    73
1070
     1
1070
    44
1040
1.0
1070
    74
1070
     0
1000
MTEXTEND
  0
MTEXT
  5
562A
330
1A
100
AcDbEntity
  8
SUNPOU
100
AcDbMText
 10
55306.99947493731
 20
47261.76665176547
 30
0.0
 40
10.5
 41
0.0
 71
     9
 72
     5
  1

1001
ACAD
1000
MTEXTBEGIN
1070
    73
1070
     1
1070
    44
1040
1.0
1070
    74
1070
     0
1000
MTEXTEND
  0
MTEXT
  5
562B
330
1A
100
AcDbEntity
  8
SUNPOU
100
AcDbMText
 10
64029.16704085528
 20
54677.60118330295
 30
0.0
 40
10.5
 41
0.0
 71
     9
 72
     5
  1

1001
ACAD
1000
MTEXTBEGIN
1070
    73
1070
     1
1070
    44
1040
1.0
1070
    74
1070
     0
1000
MTEXTEND
  0
MTEXT
  5
562C
330
1A
100
AcDbEntity
  8
SUNPOU
100
AcDbMText
 10
82982.92575818527
 20
72144.17723579499
 30
0.0
 40
10.5
 41
0.0
 71
     9
 72
     5
  1

1001
ACAD
1000
MTEXTBEGIN
1070
    73
1070
     1
1070
    44
1040
1.0
1070
    74
1070
     0
1000
MTEXTEND
  0
MTEXT
  5
562D
330
1A
100
AcDbEntity
  8
SUNPOU
100
AcDbMText
 10
84926.33300489467
 20
70343.12815591698
 30
0.0
 40
3.5
 41
0.0
 71
     9
 72
     5
  1

1001
ACAD
1000
MTEXTBEGIN
1070
    73
1070
     1
1070
    44
1040
1.0
1070
    74
1070
     0
1000
MTEXTEND
  0
MTEXT
  5
562E
330
1A
100
AcDbEntity
  8
SUNPOU
100
AcDbMText
 10
116052.5128375143
 20
112838.0738235743
 30
0.0
 40
10.5
 41
0.0
 71
     9
 72
     5
  1

1001
ACAD
1000
MTEXTBEGIN
1070
    73
1070
     1
1070
    44
1040
1.0
1070
    74
1070
     0
1000
MTEXTEND
  0
MTEXT
  5
562F
330
1A
100
AcDbEntity
  8
SUNPOU
100
AcDbMText
 10
117995.9200842238
 20
111037.0247436963
 30
0.0
 40
3.5
 41
0.0
 71
     9
 72
     5
  1

1001
ACAD
1000
MTEXTBEGIN
1070
    73
1070
     1
1070
    44
1040
1.0
1070
    74
1070
     0
1000
MTEXTEND
  0
MTEXT
  5
5630
330
1A
100
AcDbEntity
  8
SUNPOU
100
AcDbMText
 10
66492.78054330994
 20
58671.23897854939
 30
0.0
 40
10.5
 41
0.0
 71
     9
 72
     5
  1

1001
ACAD
1000
MTEXTBEGIN
1070
    73
1070
     1
1070
    44
1040
1.0
1070
    74
1070
     0
1000
MTEXTEND
  0
MTEXT
  5
5631
330
1A
100
AcDbEntity
  8
SUNPOU
100
AcDbMText
 10
52544.78044293396
 20
39498.83983943717
 30
0.0
 40
3.5
 41
0.0
 71
     7
 72
     5
  1

1001
ACAD
1000
MTEXTBEGIN
1070
    73
1070
     1
1070
    44
1040
1.0
1070
    74
1070
     0
1000
MTEXTEND
  0
MTEXT
  5
5632
330
1A
100
AcDbEntity
  8
SUNPOU
100
AcDbMText
 10
66237.13112570454
 20
48857.90306045851
 30
0.0
 40
10.5
 41
0.0
 71
     9
 72
     5
  1

1001
ACAD
1000
MTEXTBEGIN
1070
    73
1070
     1
1070
    44
1040
1.0
1070
    74
1070
     0
1000
MTEXTEND
  0
MTEXT
  5
5633
330
1A
100
AcDbEntity
  8
SUNPOU
100
AcDbMText
 10
74959.29869162252
 20
56273.737591996
 30
0.0
 40
10.5
 41
0.0
 71
     9
 72
     5
  1

1001
ACAD
1000
MTEXTBEGIN
1070
    73
1070
     1
1070
    44
1040
1.0
1070
    74
1070
     0
1000
MTEXTEND
  0
MTEXT
  5
5634
330
1A
100
AcDbEntity
  8
SUNPOU
100
AcDbMText
 10
93913.0574089525
 20
73740.31364448805
 30
0.0
 40
10.5
 41
0.0
 71
     9
 72
     5
  1

1001
ACAD
1000
MTEXTBEGIN
1070
    73
1070
     1
1070
    44
1040
1.0
1070
    74
1070
     0
1000
MTEXTEND
  0
MTEXT
  5
5635
330
1A
100
AcDbEntity
  8
SUNPOU
100
AcDbMText
 10
95856.46465566192
 20
71939.26456461004
 30
0.0
 40
3.5
 41
0.0
 71
     9
 72
     5
  1

1001
ACAD
1000
MTEXTBEGIN
1070
    73
1070
     1
1070
    44
1040
1.0
1070
    74
1070
     0
1000
MTEXTEND
  0
MTEXT
  5
5636
330
1A
100
AcDbEntity
  8
SUNPOU
100
AcDbMText
 10
126982.6444882816
 20
114434.2102322673
 30
0.0
 40
10.5
 41
0.0
 71
     9
 72
     5
  1

1001
ACAD
1000
MTEXTBEGIN
1070
    73
1070
     1
1070
    44
1040
1.0
1070
    74
1070
     0
1000
MTEXTEND
  0
MTEXT
  5
5637
330
1A
100
AcDbEntity
  8
SUNPOU
100
AcDbMText
 10
128926.051734991
 20
112633.1611523893
 30
0.0
 40
3.5
 41
0.0
 71
     9
 72
     5
  1

1001
ACAD
1000
MTEXTBEGIN
1070
    73
1070
     1
1070
    44
1040
1.0
1070
    74
1070
     0
1000
MTEXTEND
  0
MTEXT
  5
5638
330
1A
100
AcDbEntity
  8
SUNPOU
100
AcDbMText
 10
77422.91219407717
 20
60267.37538724244
 30
0.0
 40
10.5
 41
0.0
 71
     9
 72
     5
  1

1001
ACAD
1000
MTEXTBEGIN
1070
    73
1070
     1
1070
    44
1040
1.0
1070
    74
1070
     0
1000
MTEXTEND
  0
MTEXT
  5
5639
330
1A
100
AcDbEntity
  8
SUNPOU
100
AcDbMText
 10
63474.91209370119
 20
41094.97624813023
 30
0.0
 40
3.5
 41
0.0
 71
     7
 72
     5
  1

1001
ACAD
1000
MTEXTBEGIN
1070
    73
1070
     1
1070
    44
1040
1.0
1070
    74
1070
     0
1000
MTEXTEND
  0
MTEXT
  5
563A
330
1A
100
AcDbEntity
  8
SUNPOU
100
AcDbMText
 10
48117.65086229006
 20
40806.11043916631
 30
0.0
 40
10.5
 41
0.0
 71
     9
 72
     5
  1

1001
ACAD
1000
MTEXTBEGIN
1070
    73
1070
     1
1070
    44
1040
1.0
1070
    74
1070
     0
1000
MTEXTEND
  0
MTEXT
  5
563B
330
1A
100
AcDbEntity
  8
SUNPOU
100
AcDbMText
 10
67071.40957962004
 20
58272.68649165837
 30
0.0
 40
10.5
 41
0.0
 71
     9
 72
     5
  1

1001
ACAD
1000
MTEXTBEGIN
1070
    73
1070
     1
1070
    44
1040
1.0
1070
    74
1070
     0
1000
MTEXTEND
  0
MTEXT
  5
563C
330
1A
100
AcDbEntity
  8
SUNPOU
100
AcDbMText
 10
69014.81682632945
 20
56471.63741178035
 30
0.0
 40
3.5
 41
0.0
 71
     9
 72
     5
  1

1001
ACAD
1000
MTEXTBEGIN
1070
    73
1070
     1
1070
    44
1040
1.0
1070
    74
1070
     0
1000
MTEXTEND
  0
MTEXT
  5
563D
330
1A
100
AcDbEntity
  8
SUNPOU
100
AcDbMText
 10
100140.9966589491
 20
98966.58307943772
 30
0.0
 40
10.5
 41
0.0
 71
     9
 72
     5
  1

1001
ACAD
1000
MTEXTBEGIN
1070
    73
1070
     1
1070
    44
1040
1.0
1070
    74
1070
     0
1000
MTEXTEND
  0
MTEXT
  5
563E
330
1A
100
AcDbEntity
  8
SUNPOU
100
AcDbMText
 10
102084.4039056586
 20
97165.53399955969
 30
0.0
 40
3.5
 41
0.0
 71
     9
 72
     5
  1

1001
ACAD
1000
MTEXTBEGIN
1070
    73
1070
     1
1070
    44
1040
1.0
1070
    74
1070
     0
1000
MTEXTEND
  0
MTEXT
  5
563F
330
1A
100
AcDbEntity
  8
SUNPOU
100
AcDbMText
 10
50581.26436474472
 20
44799.74823441275
 30
0.0
 40
10.5
 41
0.0
 71
     9
 72
     5
  1

1001
ACAD
1000
MTEXTBEGIN
1070
    73
1070
     1
1070
    44
1040
1.0
1070
    74
1070
     0
1000
MTEXTEND
  0
MTEXT
  5
5640
330
1A
100
AcDbEntity
  8
SUNPOU
100
AcDbMText
 10
36633.26426436873
 20
25627.34909530054
 30
0.0
 40
3.5
 41
0.0
 71
     7
 72
     5
  1

1001
ACAD
1000
MTEXTBEGIN
1070
    73
1070
     1
1070
    44
1040
1.0
1070
    74
1070
     0
1000
MTEXTEND
  0
MTEXT
  5
5641
330
1A
100
AcDbEntity
  8
SUNPOU
100
AcDbMText
 10
61069.42493315968
 20
52574.61207825771
 30
0.0
 40
10.5
 41
0.0
 71
     9
 72
     5
  1

1001
ACAD
1000
MTEXTBEGIN
1070
    73
1070
     1
1070
    44
1040
1.0
1070
    74
1070
     0
1000
MTEXTEND
  0
MTEXT
  5
5642
330
1A
100
AcDbEntity
  8
SUNPOU
100
AcDbMText
 10
80023.18365048967
 20
70041.18813074978
 30
0.0
 40
10.5
 41
0.0
 71
     9
 72
     5
  1

1001
ACAD
1000
MTEXTBEGIN
1070
    73
1070
     1
1070
    44
1040
1.0
1070
    74
1070
     0
1000
MTEXTEND
  0
MTEXT
  5
5643
330
1A
100
AcDbEntity
  8
SUNPOU
100
AcDbMText
 10
81966.59089719908
 20
68240.13905087176
 30
0.0
 40
3.5
 41
0.0
 71
     9
 72
     5
  1

1001
ACAD
1000
MTEXTBEGIN
1070
    73
1070
     1
1070
    44
1040
1.0
1070
    74
1070
     0
1000
MTEXTEND
  0
MTEXT
  5
5644
330
1A
100
AcDbEntity
  8
SUNPOU
100
AcDbMText
 10
113092.7707298187
 20
110735.0847185291
 30
0.0
 40
10.5
 41
0.0
 71
     9
 72
     5
  1

1001
ACAD
1000
MTEXTBEGIN
1070
    73
1070
     1
1070
    44
1040
1.0
1070
    74
1070
     0
1000
MTEXTEND
  0
MTEXT
  5
5645
330
1A
100
AcDbEntity
  8
SUNPOU
100
AcDbMText
 10
115036.1779765282
 20
108934.0356386511
 30
0.0
 40
3.5
 41
0.0
 71
     9
 72
     5
  1

1001
ACAD
1000
MTEXTBEGIN
1070
    73
1070
     1
1070
    44
1040
1.0
1070
    74
1070
     0
1000
MTEXTEND
  0
MTEXT
  5
5646
330
1A
100
AcDbEntity
  8
SUNPOU
100
AcDbMText
 10
63533.03843561433
 20
56568.24987350415
 30
0.0
 40
10.5
 41
0.0
 71
     9
 72
     5
  1

1001
ACAD
1000
MTEXTBEGIN
1070
    73
1070
     1
1070
    44
1040
1.0
1070
    74
1070
     0
1000
MTEXTEND
  0
MTEXT
  5
5647
330
1A
100
AcDbEntity
  8
SUNPOU
100
AcDbMText
 10
49585.03833523835
 20
37395.85073439196
 30
0.0
 40
3.5
 41
0.0
 71
     7
 72
     5
  1

1001
ACAD
1000
MTEXTBEGIN
1070
    73
1070
     1
1070
    44
1040
1.0
1070
    74
1070
     0
1000
MTEXTEND
  0
MTEXT
  5
5648
330
1A
100
AcDbEntity
  8
SUNPOU
100
AcDbMText
 10
77137.31641337052
 20
70907.11375048141
 30
0.0
 40
10.5
 41
0.0
 71
     9
 72
     5
  1

1001
ACAD
1000
MTEXTBEGIN
1070
    73
1070
     1
1070
    44
1040
1.0
1070
    74
1070
     0
1000
MTEXTEND
  0
MTEXT
  5
5649
330
1A
100
AcDbEntity
  8
SUNPOU
100
AcDbMText
 10
79080.72366007995
 20
69106.06467060339
 30
0.0
 40
3.5
 41
0.0
 71
     9
 72
     5
  1

1001
ACAD
1000
MTEXTBEGIN
1070
    73
1070
     1
1070
    44
1040
1.0
1070
    74
1070
     0
1000
MTEXTEND
  0
MTEXT
  5
564A
330
1A
100
AcDbEntity
  8
SUNPOU
100
AcDbMText
 10
110206.9034926996
 20
111601.0103382607
 30
0.0
 40
10.5
 41
0.0
 71
     9
 72
     5
  1

1001
ACAD
1000
MTEXTBEGIN
1070
    73
1070
     1
1070
    44
1040
1.0
1070
    74
1070
     0
1000
MTEXTEND
  0
MTEXT
  5
564B
330
1A
100
AcDbEntity
  8
SUNPOU
100
AcDbMText
 10
112150.310739409
 20
109799.9612583827
 30
0.0
 40
3.5
 41
0.0
 71
     9
 72
     5
  1

1001
ACAD
1000
MTEXTBEGIN
1070
    73
1070
     1
1070
    44
1040
1.0
1070
    74
1070
     0
1000
MTEXTEND
  0
MTEXT
  5
564C
330
1A
100
AcDbEntity
  8
SUNPOU
100
AcDbMText
 10
108819.1333204968
 20
110677.9087286761
 30
0.0
 40
10.5
 41
0.0
 71
     9
 72
     5
  1

1001
ACAD
1000
MTEXTBEGIN
1070
    73
1070
     1
1070
    44
1040
1.0
1070
    74
1070
     0
1000
MTEXTEND
  0
MTEXT
  5
564D
330
1A
100
AcDbEntity
  8
SUNPOU
100
AcDbMText
 10
110762.5405672062
 20
108876.8596487981
 30
0.0
 40
3.5
 41
0.0
 71
     9
 72
     5
  1

1001
ACAD
1000
MTEXTBEGIN
1070
    73
1070
     1
1070
    44
1040
1.0
1070
    74
1070
     0
1000
MTEXTEND
  0
MTEXT
  5
564E
330
1A
100
AcDbEntity
  8
SUNPOU
100
AcDbMText
 10
76303.05507956816
 20
68695.31179059812
 30
0.0
 40
10.5
 41
0.0
 71
     9
 72
     5
  1

1001
ACAD
1000
MTEXTBEGIN
1070
    73
1070
     1
1070
    44
1040
1.0
1070
    74
1070
     0
1000
MTEXTEND
  0
MTEXT
  5
564F
330
1A
100
AcDbEntity
  8
SUNPOU
100
AcDbMText
 10
79026.36128373271
 20
69099.99348217918
 30
0.0
 40
3.5
 41
0.0
 71
     9
 72
     5
  1

1001
ACAD
1000
MTEXTBEGIN
1070
    73
1070
     1
1070
    44
1040
1.0
1070
    74
1070
     0
1000
MTEXTEND
  0
MTEXT
  5
5650
330
1A
100
AcDbEntity
  8
SUNPOU
100
AcDbMText
 10
78234.00675862522
 20
65938.68764412436
 30
0.0
 40
10.5
 41
0.0
 71
     9
 72
     5
  1

1001
ACAD
1000
MTEXTBEGIN
1070
    73
1070
     1
1070
    44
1040
1.0
1070
    74
1070
     0
1000
MTEXTEND
  0
MTEXT
  5
5651
330
1A
100
AcDbEntity
  8
SUNPOU
100
AcDbMText
 10
80177.41400533465
 20
64137.63856424636
 30
0.0
 40
3.5
 41
0.0
 71
     9
 72
     5
  1

1001
ACAD
1000
MTEXTBEGIN
1070
    73
1070
     1
1070
    44
1040
1.0
1070
    74
1070
     0
1000
MTEXTEND
  0
MTEXT
  5
5652
330
1A
100
AcDbEntity
  8
SUNPOU
100
AcDbMText
 10
80122.50949592123
 20
64024.86668196205
 30
0.0
 40
3.5
 41
0.0
 71
     9
 72
     5
  1

1001
ACAD
1000
MTEXTBEGIN
1070
    73
1070
     1
1070
    44
1040
1.0
1070
    74
1070
     0
1000
MTEXTEND
  0
MTEXT
  5
5653
330
1A
100
AcDbEntity
  8
SUNPOU
100
AcDbMText
 10
79486.58135950133
 20
63213.54544089553
 30
0.0
 40
3.5
 41
0.0
 71
     9
 72
     5
  1

1001
ACAD
1000
MTEXTBEGIN
1070
    73
1070
     1
1070
    44
1040
1.0
1070
    74
1070
     0
1000
MTEXTEND
  0
MTEXT
  5
5654
330
1A
100
AcDbEntity
  8
SUNPOU
100
AcDbMText
 10
79485.3409400806
 20
63213.29746395804
 30
0.0
 40
10.5
 41
0.0
 71
     9
 72
     5
  1

1001
ACAD
1000
MTEXTBEGIN
1070
    73
1070
     1
1070
    44
1040
1.0
1070
    74
1070
     0
1000
MTEXTEND
  0
MTEXT
  5
5655
330
1A
100
AcDbEntity
  8
SUNPOU
100
AcDbMText
 10
85473.63363627567
 20
80747.76348077064
 30
0.0
 40
10.5
 41
0.0
 71
     9
 72
     5
  1

1001
ACAD
1000
MTEXTBEGIN
1070
    73
1070
     1
1070
    44
1040
1.0
1070
    74
1070
     0
1000
MTEXTEND
  0
MTEXT
  5
5656
330
1A
100
AcDbEntity
  8
SUNPOU
100
AcDbMText
 10
94195.80120219368
 20
88163.59801230809
 30
0.0
 40
10.5
 41
0.0
 71
     9
 72
     5
  1

1001
ACAD
1000
MTEXTBEGIN
1070
    73
1070
     1
1070
    44
1040
1.0
1070
    74
1070
     0
1000
MTEXTEND
  0
MTEXT
  5
5657
330
1A
100
AcDbEntity
  8
SUNPOU
100
AcDbMText
 10
113149.5599195236
 20
105630.1740648001
 30
0.0
 40
10.5
 41
0.0
 71
     9
 72
     5
  1

1001
ACAD
1000
MTEXTBEGIN
1070
    73
1070
     1
1070
    44
1040
1.0
1070
    74
1070
     0
1000
MTEXTEND
  0
MTEXT
  5
5658
330
1A
100
AcDbEntity
  8
SUNPOU
100
AcDbMText
 10
115092.967166233
 20
103829.1249849221
 30
0.0
 40
3.5
 41
0.0
 71
     9
 72
     5
  1

1001
ACAD
1000
MTEXTBEGIN
1070
    73
1070
     1
1070
    44
1040
1.0
1070
    74
1070
     0
1000
MTEXTEND
  0
MTEXT
  5
5659
330
1A
100
AcDbEntity
  8
SUNPOU
100
AcDbMText
 10
146219.1469988527
 20
146324.0706525794
 30
0.0
 40
10.5
 41
0.0
 71
     9
 72
     5
  1

1001
ACAD
1000
MTEXTBEGIN
1070
    73
1070
     1
1070
    44
1040
1.0
1070
    74
1070
     0
1000
MTEXTEND
  0
MTEXT
  5
565A
330
1A
100
AcDbEntity
  8
SUNPOU
100
AcDbMText
 10
148162.5542455621
 20
144523.0215727014
 30
0.0
 40
3.5
 41
0.0
 71
     9
 72
     5
  1

1001
ACAD
1000
MTEXTBEGIN
1070
    73
1070
     1
1070
    44
1040
1.0
1070
    74
1070
     0
1000
MTEXTEND
  0
MTEXT
  5
565B
330
1A
100
AcDbEntity
  8
SUNPOU
100
AcDbMText
 10
96659.41470464833
 20
92157.23580755453
 30
0.0
 40
10.5
 41
0.0
 71
     9
 72
     5
  1

1001
ACAD
1000
MTEXTBEGIN
1070
    73
1070
     1
1070
    44
1040
1.0
1070
    74
1070
     0
1000
MTEXTEND
  0
MTEXT
  5
565C
330
1A
100
AcDbEntity
  8
SUNPOU
100
AcDbMText
 10
82711.41460427234
 20
72984.83666844234
 30
0.0
 40
3.5
 41
0.0
 71
     7
 72
     5
  1

1001
ACAD
1000
MTEXTBEGIN
1070
    73
1070
     1
1070
    44
1040
1.0
1070
    74
1070
     0
1000
MTEXTEND
  0
MTEXT
  5
565D
330
1A
100
AcDbEntity
  8
SUNPOU
100
AcDbMText
 10
63696.58400126548
 20
60746.98539926055
 30
0.0
 40
10.5
 41
0.0
 71
     7
 72
     5
  1

1001
ACAD
1000
MTEXTBEGIN
1070
    73
1070
     1
1070
    44
1040
1.0
1070
    74
1070
     0
1000
MTEXTEND
  0
MTEXT
  5
565E
330
1A
100
AcDbEntity
  8
SUNPOU
100
AcDbMText
 10
51239.35573631738
 20
44902.05382116213
 30
0.0
 40
35.0
 41
0.0
 71
     9
 72
     5
  1

1001
ACAD
1000
MTEXTBEGIN
1070
    73
1070
     1
1070
    44
1040
1.0
1070
    74
1070
     0
1000
MTEXTEND
  0
MTEXT
  5
565F
330
1A
100
AcDbEntity
  8
SUNPOU
100
AcDbMText
 10
50147.84079389233
 20
45510.82923121084
 30
0.0
 40
350.0000004171781
 41
0.0
 71
     7
 72
     5
  1

1001
ACAD
1000
MTEXTBEGIN
1070
    73
1070
     1
1070
    44
1040
1.0
1070
    74
1070
     0
1000
MTEXTEND
  0
MTEXT
  5
5660
330
1A
100
AcDbEntity
  8
0
100
AcDbMText
 10
56191.79155183523
 20
43490.75159334705
 30
0.0
 40
8.0
 41
0.0
 71
     7
 72
     5
  1

1001
ACAD
1000
MTEXTBEGIN
1070
    73
1070
     1
1070
    44
1040
1.0
1070
    74
1070
     0
1000
MTEXTEND
  0
MTEXT
  5
5661
330
1A
100
AcDbEntity
  8
0
100
AcDbMText
 10
58477.14924173013
 20
44461.54188809812
 30
0.0
 40
8.0
 41
0.0
 71
     7
 72
     5
  1

1001
ACAD
1000
MTEXTBEGIN
1070
    73
1070
     1
1070
    44
1040
1.0
1070
    74
1070
     0
1000
MTEXTEND
  0
MTEXT
  5
5662
330
1A
100
AcDbEntity
  8
SUNPOU
100
AcDbMText
 10
61143.04626241227
 20
53973.65328047324
 30
0.0
 40
10.5
 41
0.0
 71
     1
 72
     5
  1

1001
ACAD
1000
MTEXTBEGIN
1070
    73
1070
     1
1070
    44
1040
1.0
1070
    74
1070
     0
1000
MTEXTEND
  0
MTEXT
  5
5663
330
1A
100
AcDbEntity
  8
SUNPOU
100
AcDbMText
 10
53212.12306647634
 20
53026.86014656028
 30
0.0
 40
10.5
 41
0.0
 71
     7
 72
     5
  1

1001
ACAD
1000
MTEXTBEGIN
1070
    73
1070
     1
1070
    44
1040
1.0
1070
    74
1070
     0
1000
MTEXTEND
  0
MTEXT
  5
5664
330
1A
100
AcDbEntity
  8
SUNPOU
100
AcDbMText
 10
56161.1067309891
 20
57927.53621840312
 30
0.0
 40
10.5
 41
0.0
 71
     7
 72
     5
  1

1001
ACAD
1000
MTEXTBEGIN
1070
    73
1070
     1
1070
    44
1040
1.0
1070
    74
1070
     0
1000
MTEXTEND
  0
MTEXT
  5
5665
330
1A
100
AcDbEntity
  8
SUNPOU
100
AcDbMText
 10
60670.18485893966
 20
60363.8369660232
 30
0.0
 40
10.5
 41
0.0
 71
     7
 72
     5
  1

1001
ACAD
1000
MTEXTBEGIN
1070
    73
1070
     1
1070
    44
1040
1.0
1070
    74
1070
     0
1000
MTEXTEND
  0
MTEXT
  5
5666
330
1A
100
AcDbEntity
  8
SUNPOU
100
AcDbMText
 10
44271.02274570799
 20
39361.43311641212
 30
0.0
 40
10.5
 41
0.0
 71
     7
 72
     5
  1

1001
ACAD
1000
MTEXTBEGIN
1070
    73
1070
     1
1070
    44
1040
1.0
1070
    74
1070
     0
1000
MTEXTEND
  0
MTEXT
  5
5667
330
1A
100
AcDbEntity
  8
SUNPOU
100
AcDbMText
 10
95462.54117960824
 20
85034.41368006038
 30
0.0
 40
10.5
 41
0.0
 71
     9
 72
     5
  1

1001
ACAD
1000
MTEXTBEGIN
1070
    73
1070
     1
1070
    44
1040
1.0
1070
    74
1070
     0
1000
MTEXTEND
  0
MTEXT
  5
5668
330
1A
100
AcDbEntity
  8
SUNPOU
100
AcDbMText
 10
104184.7087455262
 20
92450.24821159784
 30
0.0
 40
10.5
 41
0.0
 71
     9
 72
     5
  1

1001
ACAD
1000
MTEXTBEGIN
1070
    73
1070
     1
1070
    44
1040
1.0
1070
    74
1070
     0
1000
MTEXTEND
  0
MTEXT
  5
5669
330
1A
100
AcDbEntity
  8
SUNPOU
100
AcDbMText
 10
123138.4674628562
 20
109916.8242640898
 30
0.0
 40
10.5
 41
0.0
 71
     9
 72
     5
  1

1001
ACAD
1000
MTEXTBEGIN
1070
    73
1070
     1
1070
    44
1040
1.0
1070
    74
1070
     0
1000
MTEXTEND
  0
MTEXT
  5
566A
330
1A
100
AcDbEntity
  8
SUNPOU
100
AcDbMText
 10
125081.8747095656
 20
108115.7751842118
 30
0.0
 40
3.5
 41
0.0
 71
     9
 72
     5
  1

1001
ACAD
1000
MTEXTBEGIN
1070
    73
1070
     1
1070
    44
1040
1.0
1070
    74
1070
     0
1000
MTEXTEND
  0
MTEXT
  5
566B
330
1A
100
AcDbEntity
  8
SUNPOU
100
AcDbMText
 10
156208.0545421853
 20
150610.7208518691
 30
0.0
 40
10.5
 41
0.0
 71
     9
 72
     5
  1

1001
ACAD
1000
MTEXTBEGIN
1070
    73
1070
     1
1070
    44
1040
1.0
1070
    74
1070
     0
1000
MTEXTEND
  0
MTEXT
  5
566C
330
1A
100
AcDbEntity
  8
SUNPOU
100
AcDbMText
 10
158151.4617888947
 20
148809.6717719911
 30
0.0
 40
3.5
 41
0.0
 71
     9
 72
     5
  1

1001
ACAD
1000
MTEXTBEGIN
1070
    73
1070
     1
1070
    44
1040
1.0
1070
    74
1070
     0
1000
MTEXTEND
  0
MTEXT
  5
566D
330
1A
100
AcDbEntity
  8
SUNPOU
100
AcDbMText
 10
106648.3222479809
 20
96443.88600684427
 30
0.0
 40
10.5
 41
0.0
 71
     9
 72
     5
  1

1001
ACAD
1000
MTEXTBEGIN
1070
    73
1070
     1
1070
    44
1040
1.0
1070
    74
1070
     0
1000
MTEXTEND
  0
MTEXT
  5
566E
330
1A
100
AcDbEntity
  8
SUNPOU
100
AcDbMText
 10
92700.3221476049
 20
77271.48686773207
 30
0.0
 40
3.5
 41
0.0
 71
     7
 72
     5
  1

1001
ACAD
1000
MTEXTBEGIN
1070
    73
1070
     1
1070
    44
1040
1.0
1070
    74
1070
     0
1000
MTEXTEND
  0
MTEXT
  5
566F
330
1A
100
AcDbEntity
  8
SUNPOU
100
AcDbMText
 10
73685.49154459806
 20
65033.63559855027
 30
0.0
 40
10.5
 41
0.0
 71
     7
 72
     5
  1

1001
ACAD
1000
MTEXTBEGIN
1070
    73
1070
     1
1070
    44
1040
1.0
1070
    74
1070
     0
1000
MTEXTEND
  0
MTEXT
  5
5670
330
1A
100
AcDbEntity
  8
SUNPOU
100
AcDbMText
 10
61228.26327964995
 20
49188.70402045185
 30
0.0
 40
35.0
 41
0.0
 71
     9
 72
     5
  1

1001
ACAD
1000
MTEXTBEGIN
1070
    73
1070
     1
1070
    44
1040
1.0
1070
    74
1070
     0
1000
MTEXTEND
  0
MTEXT
  5
5671
330
1A
100
AcDbEntity
  8
SUNPOU
100
AcDbMText
 10
60136.74833722491
 20
49797.47943050056
 30
0.0
 40
350.0000004171781
 41
0.0
 71
     7
 72
     5
  1

1001
ACAD
1000
MTEXTBEGIN
1070
    73
1070
     1
1070
    44
1040
1.0
1070
    74
1070
     0
1000
MTEXTEND
  0
MTEXT
  5
5672
330
1A
100
AcDbEntity
  8
0
100
AcDbMText
 10
66180.69909516782
 20
47777.40179263678
 30
0.0
 40
8.0
 41
0.0
 71
     7
 72
     5
  1

1001
ACAD
1000
MTEXTBEGIN
1070
    73
1070
     1
1070
    44
1040
1.0
1070
    74
1070
     0
1000
MTEXTEND
  0
MTEXT
  5
5673
330
1A
100
AcDbEntity
  8
0
100
AcDbMText
 10
68466.05678506271
 20
48748.19208738784
 30
0.0
 40
8.0
 41
0.0
 71
     7
 72
     5
  1

1001
ACAD
1000
MTEXTBEGIN
1070
    73
1070
     1
1070
    44
1040
1.0
1070
    74
1070
     0
1000
MTEXTEND
  0
MTEXT
  5
5674
330
1A
100
AcDbEntity
  8
SUNPOU
100
AcDbMText
 10
71131.95380574485
 20
58260.30347976296
 30
0.0
 40
10.5
 41
0.0
 71
     1
 72
     5
  1

1001
ACAD
1000
MTEXTBEGIN
1070
    73
1070
     1
1070
    44
1040
1.0
1070
    74
1070
     0
1000
MTEXTEND
  0
MTEXT
  5
5675
330
1A
100
AcDbEntity
  8
SUNPOU
100
AcDbMText
 10
63201.03060980891
 20
57313.51034585002
 30
0.0
 40
10.5
 41
0.0
 71
     7
 72
     5
  1

1001
ACAD
1000
MTEXTBEGIN
1070
    73
1070
     1
1070
    44
1040
1.0
1070
    74
1070
     0
1000
MTEXTEND
  0
MTEXT
  5
5676
330
1A
100
AcDbEntity
  8
SUNPOU
100
AcDbMText
 10
66150.01427432169
 20
62214.18641769286
 30
0.0
 40
10.5
 41
0.0
 71
     7
 72
     5
  1

1001
ACAD
1000
MTEXTBEGIN
1070
    73
1070
     1
1070
    44
1040
1.0
1070
    74
1070
     0
1000
MTEXTEND
  0
MTEXT
  5
5677
330
1A
100
AcDbEntity
  8
SUNPOU
100
AcDbMText
 10
70659.09240227225
 20
64650.48716531294
 30
0.0
 40
10.5
 41
0.0
 71
     7
 72
     5
  1

1001
ACAD
1000
MTEXTBEGIN
1070
    73
1070
     1
1070
    44
1040
1.0
1070
    74
1070
     0
1000
MTEXTEND
  0
MTEXT
  5
5678
330
1A
100
AcDbEntity
  8
SUNPOU
100
AcDbMText
 10
54259.93028904056
 20
43648.08331570185
 30
0.0
 40
10.5
 41
0.0
 71
     7
 72
     5
  1

1001
ACAD
1000
MTEXTBEGIN
1070
    73
1070
     1
1070
    44
1040
1.0
1070
    74
1070
     0
1000
MTEXTEND
  0
MTEXT
  5
5679
330
1A
100
AcDbEntity
  8
SUNPOU
100
AcDbMText
 10
56070.69320041551
 20
49975.4973031804
 30
0.0
 40
10.5
 41
0.0
 71
     9
 72
     5
  1

1001
ACAD
1000
MTEXTBEGIN
1070
    73
1070
     1
1070
    44
1040
1.0
1070
    74
1070
     0
1000
MTEXTEND
  0
MTEXT
  5
567A
330
1A
100
AcDbEntity
  8
SUNPOU
100
AcDbMText
 10
64792.86076633348
 20
57391.33183471788
 30
0.0
 40
10.5
 41
0.0
 71
     9
 72
     5
  1

1001
ACAD
1000
MTEXTBEGIN
1070
    73
1070
     1
1070
    44
1040
1.0
1070
    74
1070
     0
1000
MTEXTEND
  0
MTEXT
  5
567B
330
1A
100
AcDbEntity
  8
SUNPOU
100
AcDbMText
 10
83746.61948366345
 20
74857.90788720994
 30
0.0
 40
10.5
 41
0.0
 71
     9
 72
     5
  1

1001
ACAD
1000
MTEXTBEGIN
1070
    73
1070
     1
1070
    44
1040
1.0
1070
    74
1070
     0
1000
MTEXTEND
  0
MTEXT
  5
567C
330
1A
100
AcDbEntity
  8
SUNPOU
100
AcDbMText
 10
85690.02673037287
 20
73056.85880733192
 30
0.0
 40
3.5
 41
0.0
 71
     9
 72
     5
  1

1001
ACAD
1000
MTEXTBEGIN
1070
    73
1070
     1
1070
    44
1040
1.0
1070
    74
1070
     0
1000
MTEXTEND
  0
MTEXT
  5
567D
330
1A
100
AcDbEntity
  8
SUNPOU
100
AcDbMText
 10
116816.2065629925
 20
115551.8044749892
 30
0.0
 40
10.5
 41
0.0
 71
     9
 72
     5
  1

1001
ACAD
1000
MTEXTBEGIN
1070
    73
1070
     1
1070
    44
1040
1.0
1070
    74
1070
     0
1000
MTEXTEND
  0
MTEXT
  5
567E
330
1A
100
AcDbEntity
  8
SUNPOU
100
AcDbMText
 10
118759.613809702
 20
113750.7553951112
 30
0.0
 40
3.5
 41
0.0
 71
     9
 72
     5
  1

1001
ACAD
1000
MTEXTBEGIN
1070
    73
1070
     1
1070
    44
1040
1.0
1070
    74
1070
     0
1000
MTEXTEND
  0
MTEXT
  5
567F
330
1A
100
AcDbEntity
  8
SUNPOU
100
AcDbMText
 10
67256.47426878814
 20
61384.96962996432
 30
0.0
 40
10.5
 41
0.0
 71
     9
 72
     5
  1

1001
ACAD
1000
MTEXTBEGIN
1070
    73
1070
     1
1070
    44
1040
1.0
1070
    74
1070
     0
1000
MTEXTEND
  0
MTEXT
  5
5680
330
1A
100
AcDbEntity
  8
SUNPOU
100
AcDbMText
 10
53308.47416841216
 20
42212.57049085211
 30
0.0
 40
3.5
 41
0.0
 71
     7
 72
     5
  1

1001
ACAD
1000
MTEXTBEGIN
1070
    73
1070
     1
1070
    44
1040
1.0
1070
    74
1070
     0
1000
MTEXTEND
  0
MTEXT
  5
5681
330
1A
100
AcDbEntity
  8
SUNPOU
100
AcDbMText
 10
67000.82485118274
 20
51571.63371187345
 30
0.0
 40
10.5
 41
0.0
 71
     9
 72
     5
  1

1001
ACAD
1000
MTEXTBEGIN
1070
    73
1070
     1
1070
    44
1040
1.0
1070
    74
1070
     0
1000
MTEXTEND
  0
MTEXT
  5
5682
330
1A
100
AcDbEntity
  8
SUNPOU
100
AcDbMText
 10
75722.99241710071
 20
58987.46824341094
 30
0.0
 40
10.5
 41
0.0
 71
     9
 72
     5
  1

1001
ACAD
1000
MTEXTBEGIN
1070
    73
1070
     1
1070
    44
1040
1.0
1070
    74
1070
     0
1000
MTEXTEND
  0
MTEXT
  5
5683
330
1A
100
AcDbEntity
  8
SUNPOU
100
AcDbMText
 10
94676.75113443068
 20
76454.04429590299
 30
0.0
 40
10.5
 41
0.0
 71
     9
 72
     5
  1

1001
ACAD
1000
MTEXTBEGIN
1070
    73
1070
     1
1070
    44
1040
1.0
1070
    74
1070
     0
1000
MTEXTEND
  0
MTEXT
  5
5684
330
1A
100
AcDbEntity
  8
SUNPOU
100
AcDbMText
 10
96620.1583811401
 20
74652.99521602498
 30
0.0
 40
3.5
 41
0.0
 71
     9
 72
     5
  1

1001
ACAD
1000
MTEXTBEGIN
1070
    73
1070
     1
1070
    44
1040
1.0
1070
    74
1070
     0
1000
MTEXTEND
  0
MTEXT
  5
5685
330
1A
100
AcDbEntity
  8
SUNPOU
100
AcDbMText
 10
127746.3382137598
 20
117147.9408836823
 30
0.0
 40
10.5
 41
0.0
 71
     9
 72
     5
  1

1001
ACAD
1000
MTEXTBEGIN
1070
    73
1070
     1
1070
    44
1040
1.0
1070
    74
1070
     0
1000
MTEXTEND
  0
MTEXT
  5
5686
330
1A
100
AcDbEntity
  8
SUNPOU
100
AcDbMText
 10
129689.7454604692
 20
115346.8918038043
 30
0.0
 40
3.5
 41
0.0
 71
     9
 72
     5
  1

1001
ACAD
1000
MTEXTBEGIN
1070
    73
1070
     1
1070
    44
1040
1.0
1070
    74
1070
     0
1000
MTEXTEND
  0
MTEXT
  5
5687
330
1A
100
AcDbEntity
  8
SUNPOU
100
AcDbMText
 10
78186.60591955537
 20
62981.10603865738
 30
0.0
 40
10.5
 41
0.0
 71
     9
 72
     5
  1

1001
ACAD
1000
MTEXTBEGIN
1070
    73
1070
     1
1070
    44
1040
1.0
1070
    74
1070
     0
1000
MTEXTEND
  0
MTEXT
  5
5688
330
1A
100
AcDbEntity
  8
SUNPOU
100
AcDbMText
 10
64238.60581917939
 20
43808.70689954517
 30
0.0
 40
3.5
 41
0.0
 71
     7
 72
     5
  1

1001
ACAD
1000
MTEXTBEGIN
1070
    73
1070
     1
1070
    44
1040
1.0
1070
    74
1070
     0
1000
MTEXTEND
  0
MTEXT
  5
5689
330
1A
100
AcDbEntity
  8
SUNPOU
100
AcDbMText
 10
33428.13481137435
 20
32770.04710035564
 30
0.0
 40
10.5
 41
0.0
 71
     9
 72
     5
  1

1001
ACAD
1000
MTEXTBEGIN
1070
    73
1070
     1
1070
    44
1040
1.0
1070
    74
1070
     0
1000
MTEXTEND
  0
MTEXT
  5
568A
330
1A
100
AcDbEntity
  8
SUNPOU
100
AcDbMText
 10
52381.89352870432
 20
50236.62315284769
 30
0.0
 40
10.5
 41
0.0
 71
     9
 72
     5
  1

1001
ACAD
1000
MTEXTBEGIN
1070
    73
1070
     1
1070
    44
1040
1.0
1070
    74
1070
     0
1000
MTEXTEND
  0
MTEXT
  5
568B
330
1A
100
AcDbEntity
  8
SUNPOU
100
AcDbMText
 10
54325.30077541374
 20
48435.57407296968
 30
0.0
 40
3.5
 41
0.0
 71
     9
 72
     5
  1

1001
ACAD
1000
MTEXTBEGIN
1070
    73
1070
     1
1070
    44
1040
1.0
1070
    74
1070
     0
1000
MTEXTEND
  0
MTEXT
  5
568C
330
1A
100
AcDbEntity
  8
SUNPOU
100
AcDbMText
 10
85451.48060803343
 20
90930.51974062703
 30
0.0
 40
10.5
 41
0.0
 71
     9
 72
     5
  1

1001
ACAD
1000
MTEXTBEGIN
1070
    73
1070
     1
1070
    44
1040
1.0
1070
    74
1070
     0
1000
MTEXTEND
  0
MTEXT
  5
568D
330
1A
100
AcDbEntity
  8
SUNPOU
100
AcDbMText
 10
87394.88785474286
 20
89129.47066074901
 30
0.0
 40
3.5
 41
0.0
 71
     9
 72
     5
  1

1001
ACAD
1000
MTEXTBEGIN
1070
    73
1070
     1
1070
    44
1040
1.0
1070
    74
1070
     0
1000
MTEXTEND
  0
MTEXT
  5
568E
330
1A
100
AcDbEntity
  8
SUNPOU
100
AcDbMText
 10
35891.74831382901
 20
36763.68489560208
 30
0.0
 40
10.5
 41
0.0
 71
     9
 72
     5
  1

1001
ACAD
1000
MTEXTBEGIN
1070
    73
1070
     1
1070
    44
1040
1.0
1070
    74
1070
     0
1000
MTEXTEND
  0
MTEXT
  5
568F
330
1A
100
AcDbEntity
  8
SUNPOU
100
AcDbMText
 10
21943.74821345303
 20
17591.28575648986
 30
0.0
 40
3.5
 41
0.0
 71
     7
 72
     5
  1

1001
ACAD
1000
MTEXTBEGIN
1070
    73
1070
     1
1070
    44
1040
1.0
1070
    74
1070
     0
1000
MTEXTEND
  0
MTEXT
  5
11084
330
1A
100
AcDbEntity
  8
ZISSEN1
100
AcDbMText
 10
-1290.801949536872
 20
1689.682402445169
 30
0.0
 40
5.0
 41
108.3598999999999
 71
     1
 72
     5
  1
ADB-2F60B  No.SS0001f81
1001
ACAD
1000
MTEXTBEGIN
1070
    73
1070
     1
1070
    44
1040
1.0
1070
    74
1070
     0
1000
MTEXTEND
1000
MTEXTBEGIN
1070
    73
1070
     1
1070
    44
1040
1.0
1070
    74
1070
     0
1000
MTEXTEND
1000
MTEXTBEGIN
1070
    73
1070
     1
1070
    44
1040
1.0
1070
    74
1070
     0
1000
MTEXTEND
  0
XLINE
  5
126D7
330
1A
100
AcDbEntity
  8
SOUZOUSEN
100
AcDbXline
 10
-2343.442450720007
 20
3248.111410528631
 30
0.0
 11
0.0
 21
1.0
 31
0.0
  0
XLINE
  5
126D8
330
1A
100
AcDbEntity
  8
SOUZOUSEN
100
AcDbXline
 10
-2343.419932224668
 20
3244.179140051123
 30
0.0
 11
0.0
 21
-1.0
 31
0.0
  0
LINE
  5
12FD0
330
1A
100
AcDbEntity
  8
ZISSEN1
 48
0.3
100
AcDbLine
 10
-1158.445509411007
 20
1656.907629730357
 30
0.0
 11
-1156.845509411007
 21
1656.907629730357
 31
0.0
  0
LINE
  5
12FD1
330
1A
100
AcDbEntity
  8
ZISSEN1
100
AcDbLine
 10
-1158.545509411007
 20
1657.407629730357
 30
0.0
 11
-1158.045509411007
 21
1656.907629730357
 31
0.0
  0
LINE
  5
12FD2
330
1A
100
AcDbEntity
  8
ZISSEN1
100
AcDbLine
 10
-1158.445509411007
 20
1596.407629730357
 30
0.0
 11
-1156.545509411007
 21
1596.407629730357
 31
0.0
  0
LINE
  5
12FD3
330
1A
100
AcDbEntity
  8
ZISSEN1
100
AcDbLine
 10
-1158.445509411007
 20
1589.907629730357
 30
0.0
 11
-1156.845509411007
 21
1589.907629730357
 31
0.0
  0
LINE
  5
12FD4
330
1A
100
AcDbEntity
  8
ZISSEN1
100
AcDbLine
 10
-1158.545509411007
 20
1589.407629730357
 30
0.0
 11
-1158.045509411007
 21
1589.907629730357
 31
0.0
  0
DIMENSION
  5
12FD5
330
1A
100
AcDbEntity
  8
ZISSEN1
100
AcDbDimension
  2
*D0
 10
-1171.545509411006
 20
1581.40393108977
 30
0.0
 11
-1162.545509411007
 21
1584.15393108977
 31
0.0
 70
    32
  3
標準スタイル
100
AcDbAlignedDimension
 13
-1153.545509411007
 23
1589.407629730357
 33
0.0
 14
-1171.545509411006
 24
1591.907629730357
 34
0.0
100
AcDbRotatedDimension
1001
ACAD
1000
DSTYLE
1002
{
1070
   340
1005
10
1070
    40
1040
1.0
1002
}
  0
DIMENSION
  5
12FD6
330
1A
100
AcDbEntity
  8
ZISSEN1
100
AcDbDimension
  2
*D1
 10
-1189.545509411007
 20
1573.40393108977
 30
0.0
 11
-1171.545509411007
 21
1576.15393108977
 31
0.0
 70
    32
  3
標準スタイル
100
AcDbAlignedDimension
 13
-1153.545509411007
 23
1589.407629730357
 33
0.0
 14
-1189.545509411007
 24
1589.407629730357
 34
0.0
100
AcDbRotatedDimension
1001
ACAD
1000
DSTYLE
1002
{
1070
   340
1005
10
1070
    40
1040
1.0
1002
}
  0
LINE
  5
12FD7
330
1A
100
AcDbEntity
  8
ZISSEN1
100
AcDbLine
 10
-1158.445509411007
 20
1656.907629730357
 30
0.0
 11
-1158.445509411007
 21
1619.007629730357
 31
0.0
  0
LINE
  5
12FD8
330
1A
100
AcDbEntity
  8
ZISSEN1
 48
0.3
100
AcDbLine
 10
-1158.445509411007
 20
1589.907629730357
 30
0.0
 11
-1158.445509411007
 21
1646.907629730357
 31
0.0
  0
LINE
  5
12FDA
330
1A
100
AcDbEntity
  8
ZISSEN1
100
AcDbLine
 10
-1158.445509411006
 20
1616.467629730357
 30
0.0
 11
-1158.445509411006
 21
1632.247629730357
 31
0.0
  0
LINE
  5
12FDB
330
1A
100
AcDbEntity
  8
ZISSEN1
100
AcDbLine
 10
-1158.445509411007
 20
1616.307629730357
 30
0.0
 11
-1158.445509411006
 21
1632.407629730357
 31
0.0
  0
LINE
  5
12FDE
330
1A
100
AcDbEntity
  8
ZISSEN1
100
AcDbLine
 10
-1232.545509411006
 20
1632.597629730357
 30
0.0
 11
-1232.545509411006
 21
1616.817629730357
 31
0.0
  0
LINE
  5
12FE6
330
1A
100
AcDbEntity
  8
ZISSEN1
100
AcDbLine
 10
-1222.045509411006
 20
1615.807629730357
 30
0.0
 11
-1222.045509411007
 21
1634.807629730357
 31
0.0
  0
LINE
  5
12FE7
330
1A
100
AcDbEntity
  8
ZISSEN1
100
AcDbLine
 10
-1233.545509411007
 20
1634.807629730357
 30
0.0
 11
-1233.545509411007
 21
1615.807629730357
 31
0.0
  0
LINE
  5
12FE8
330
1A
100
AcDbEntity
  8
ZISSEN1
100
AcDbLine
 10
-1189.545509411007
 20
1591.407629730357
 30
0.0
 11
-1189.545509411007
 21
1655.407629730357
 31
0.0
  0
DIMENSION
  5
12FE9
330
1A
100
AcDbEntity
  8
ZISSEN1
100
AcDbDimension
  2
*D2
 10
-1197.545509411007
 20
1591.907629730357
 30
0.0
 11
-1200.295509411007
 21
1623.407629730357
 31
0.0
 70
    32
  3
標準スタイル
100
AcDbAlignedDimension
 13
-1171.545509411006
 23
1654.907629730357
 33
0.0
 14
-1171.545509411006
 24
1591.907629730357
 34
0.0
 50
90.0
100
AcDbRotatedDimension
1001
ACAD
1000
DSTYLE
1002
{
1070
   340
1005
10
1070
    40
1040
1.0
1002
}
  0
LINE
  5
12FEA
330
1A
100
AcDbEntity
  8
ZISSEN1
100
AcDbLine
 10
-1303.545509411006
 20
1657.407629730357
 30
0.0
 11
-1303.545509411006
 21
1594.407629730357
 31
0.0
  0
LINE
  5
12FEB
330
1A
100
AcDbEntity
  8
ZISSEN1
100
AcDbLine
 10
-1306.545509411007
 20
1657.407629730357
 30
0.0
 11
-1306.545509411007
 21
1589.407629730357
 31
0.0
  0
LINE
  5
12FEC
330
1A
100
AcDbEntity
  8
ZISSEN1
100
AcDbLine
 10
-1303.045509411006
 20
1650.407629730357
 30
0.0
 11
-1303.045509411007
 21
1589.907629730357
 31
0.0
  0
DIMENSION
  5
12FEE
330
1A
100
AcDbEntity
  8
ZISSEN1
100
AcDbDimension
  2
*D3
 10
-1314.545681321917
 20
1589.407629730357
 30
0.0
 11
-1317.295681321917
 21
1623.407629730357
 31
0.0
 70
    32
  3
標準スタイル
100
AcDbAlignedDimension
 13
-1306.545509411007
 23
1657.407629730357
 33
0.0
 14
-1306.545509411007
 24
1589.407629730357
 34
0.0
 50
90.0
100
AcDbRotatedDimension
1001
ACAD
1000
DSTYLE
1002
{
1070
   340
1005
10
1070
    40
1040
1.0
1002
}
  0
DIMENSION
  5
12FEF
330
1A
100
AcDbEntity
  8
ZISSEN1
100
AcDbDimension
  2
*D4
 10
-1213.545509411007
 20
1591.907629730356
 30
0.0
 11
-1216.295509411007
 21
1623.407629730356
 31
0.0
 70
    32
  3
標準スタイル
100
AcDbAlignedDimension
 13
-1298.54340892556
 23
1654.907629730357
 33
0.0
 14
-1226.547678356872
 24
1591.907629730356
 34
0.0
 50
270.0
100
AcDbRotatedDimension
1001
ACAD
1000
DSTYLE
1002
{
1070
   340
1005
10
1070
    40
1040
1.0
1002
}
  0
LINE
  5
12FF1
330
1A
100
AcDbEntity
  8
ZISSEN1
100
AcDbLine
 10
-1303.045509411007
 20
1589.907629730357
 30
0.0
 11
-1232.045509411007
 21
1589.907629730357
 31
0.0
  0
LINE
  5
12FF2
330
1A
100
AcDbEntity
  8
ZISSEN1
100
AcDbLine
 10
-1295.976102065785
 20
1550.40393108977
 30
0.0
 11
-1268.650377494433
 21
1550.40393108977
 31
0.0
  0
LINE
  5
12FF4
330
1A
100
AcDbEntity
  8
ZISSEN1
100
AcDbLine
 10
-1295.976102065785
 20
1550.40393108977
 30
0.0
 11
-1268.576102065784
 21
1550.40393108977
 31
0.0
  0
LINE
  5
12FF5
330
1A
100
AcDbEntity
  8
ZISSEN1
100
AcDbLine
 10
-1222.045509411007
 20
1529.70393108977
 30
0.0
 11
-1302.545509411007
 21
1529.70393108977
 31
0.0
  0
LINE
  5
12FF6
330
1A
100
AcDbEntity
  8
ZISSEN1
100
AcDbLine
 10
-1302.545509411007
 20
1529.70393108977
 30
0.0
 11
-1222.045509411007
 21
1529.70393108977
 31
0.0
  0
LINE
  5
12FF7
330
1A
100
AcDbEntity
  8
ZISSEN1
100
AcDbLine
 10
-1222.045509411007
 20
1531.30393108977
 30
0.0
 11
-1302.545509411007
 21
1531.30393108977
 31
0.0
  0
LINE
  5
12FF8
330
1A
100
AcDbEntity
  8
ZISSEN1
100
AcDbLine
 10
-1222.045509411007
 20
1537.30393108977
 30
0.0
 11
-1303.045509411007
 21
1537.30393108977
 31
0.0
  0
LINE
  5
12FF9
330
1A
100
AcDbEntity
  8
ZISSEN1
100
AcDbLine
 10
-1222.045509411007
 20
1538.90393108977
 30
0.0
 11
-1303.045509411007
 21
1538.90393108977
 31
0.0
  0
LINE
  5
12FFA
330
1A
100
AcDbEntity
  8
ZISSEN1
100
AcDbLine
 10
-1303.545509411007
 20
1526.40393108977
 30
0.0
 11
-1221.545509411007
 21
1526.40393108977
 31
0.0
  0
DIMENSION
  5
12FFB
330
1A
100
AcDbEntity
  8
ZISSEN1
100
AcDbDimension
  2
*D5
 10
-1306.545509411006
 20
1518.400232449183
 30
0.0
 11
-1264.045509411007
 21
1521.150232449183
 31
0.0
 70
    32
  3
標準スタイル
100
AcDbAlignedDimension
 13
-1221.545509411007
 23
1526.40393108977
 33
0.0
 14
-1306.545509411006
 24
1526.40393108977
 34
0.0
100
AcDbRotatedDimension
1001
ACAD
1000
DSTYLE
1002
{
1070
   340
1005
10
1070
    40
1040
1.0
1002
}
  0
DIMENSION
  5
12FFC
330
1A
100
AcDbEntity
  8
ZISSEN1
100
AcDbDimension
  2
*D6
 10
-1303.545509411007
 20
1570.405461744398
 30
0.0
 11
-1295.37884274434
 21
1573.155461744398
 31
0.0
 70
    32
  3
標準スタイル
100
AcDbAlignedDimension
 13
-1306.545509411007
 23
1562.40393108977
 33
0.0
 14
-1303.545509411007
 24
1562.40393108977
 34
0.0
100
AcDbRotatedDimension
1001
ACAD
1000
DSTYLE
1002
{
1070
   340
1005
10
1070
    40
1040
1.0
1002
}
  0
LWPOLYLINE
  5
12FFD
330
1A
100
AcDbEntity
  8
ZISSEN1
100
AcDbPolyline
 90
        4
 70
     1
 43
0.0
 10
-1303.545509411007
 20
1546.15393108977
 10
-1303.545509411007
 20
1542.65393108977
 10
-1306.545509411007
 20
1542.65393108977
 10
-1306.545509411007
 20
1546.15393108977
  0
LINE
  5
12FFE
330
1A
100
AcDbEntity
  8
ZISSEN1
100
AcDbLine
 10
-1303.545509411007
 20
1562.40393108977
 30
0.0
 11
-1303.545509411007
 21
1529.40393108977
 31
0.0
  0
LINE
  5
12FFF
330
1A
100
AcDbEntity
  8
ZISSEN1
100
AcDbLine
 10
-1306.545509411007
 20
1562.40393108977
 30
0.0
 11
-1306.545509411007
 21
1529.40393108977
 31
0.0
  0
LINE
  5
13000
330
1A
100
AcDbEntity
  8
ZISSEN1
100
AcDbLine
 10
-1295.976102065785
 20
1550.40393108977
 30
0.0
 11
-1295.976102065785
 21
1538.90393108977
 31
0.0
  0
LINE
  5
13001
330
1A
100
AcDbEntity
  8
ZISSEN1
100
AcDbLine
 10
-1303.545509411007
 20
1562.40393108977
 30
0.0
 11
-1306.545509411007
 21
1562.40393108977
 31
0.0
  0
LINE
  5
13002
330
1A
100
AcDbEntity
  8
ZISSEN1
100
AcDbLine
 10
-1303.545509411007
 20
1560.40393108977
 30
0.0
 11
-1306.545509411007
 21
1560.40393108977
 31
0.0
  0
LINE
  5
13014
330
1A
100
AcDbEntity
  8
ZISSEN1
100
AcDbLine
 10
-1302.545509411007
 20
1529.40393108977
 30
0.0
 11
-1252.745509411006
 21
1529.40393108977
 31
0.0
  0
LINE
  5
13015
330
1A
100
AcDbEntity
  8
ZISSEN1
100
AcDbLine
 10
-1302.545509411007
 20
1529.70393108977
 30
0.0
 11
-1302.545509411007
 21
1529.40393108977
 31
0.0
  0
LINE
  5
13016
330
1A
100
AcDbEntity
  8
ZISSEN1
100
AcDbLine
 10
-1302.545509411007
 20
1531.30393108977
 30
0.0
 11
-1302.545509411007
 21
1529.70393108977
 31
0.0
  0
LINE
  5
13017
330
1A
100
AcDbEntity
  8
ZISSEN1
100
AcDbLine
 10
-1303.045509411007
 20
1538.90393108977
 30
0.0
 11
-1303.045509411007
 21
1537.30393108977
 31
0.0
  0
ARC
  5
13030
330
1A
100
AcDbEntity
  8
ZISSEN1
100
AcDbCircle
 10
-1303.545509411007
 20
1529.40393108977
 30
0.0
 40
3.0
100
AcDbArc
 50
180.0
 51
270.0
  0
LINE
  5
13031
330
1A
100
AcDbEntity
  8
ZISSEN1
100
AcDbLine
 10
-1306.545509411007
 20
1529.40393108977
 30
0.0
 11
-1303.545509411007
 21
1529.40393108977
 31
0.0
  0
LINE
  5
13032
330
1A
100
AcDbEntity
  8
ZISSEN1
100
AcDbLine
 10
-1303.545509411007
 20
1529.40393108977
 30
0.0
 11
-1303.545509411007
 21
1526.40393108977
 31
0.0
  0
LINE
  5
13035
330
1A
100
AcDbEntity
  8
ZISSEN1
100
AcDbLine
 10
-1302.545509411007
 20
1537.30393108977
 30
0.0
 11
-1302.545509411007
 21
1531.30393108977
 31
0.0
  0
LINE
  5
13036
330
1A
100
AcDbEntity
  8
ZISSEN1
100
AcDbLine
 10
-1297.545509411007
 20
1537.30393108977
 30
0.0
 11
-1297.545509411007
 21
1531.30393108977
 31
0.0
  0
LINE
  5
13037
330
1A
100
AcDbEntity
  8
ZISSEN1
100
AcDbLine
 10
-1306.545509411007
 20
1531.40393108977
 30
0.0
 11
-1303.545509411007
 21
1531.40393108977
 31
0.0
  0
LINE
  5
13038
330
1A
100
AcDbEntity
  8
ZISSEN1
100
AcDbLine
 10
-1302.545509411007
 20
1529.40393108977
 30
0.0
 11
-1302.545509411007
 21
1526.40393108977
 31
0.0
  0
LINE
  5
13069
330
1A
100
AcDbEntity
  8
ZISSEN1
100
AcDbLine
 10
-1302.545509411007
 20
1529.40393108977
 30
0.0
 11
-1303.545509411007
 21
1529.40393108977
 31
0.0
  0
LINE
  5
130CE
330
1A
100
AcDbEntity
  8
ZISSEN1
100
AcDbLine
 10
-1303.045509411007
 20
1594.407629730357
 30
0.0
 11
-1303.545509411006
 21
1594.407629730357
 31
0.0
  0
LINE
  5
130CF
330
1A
100
AcDbEntity
  8
ZISSEN1
100
AcDbLine
 10
-1303.545509411007
 20
1589.407629730357
 30
0.0
 11
-1303.545509411006
 21
1594.407629730357
 31
0.0
  0
LINE
  5
130D0
330
1A
100
AcDbEntity
  8
ZISSEN1
100
AcDbLine
 10
-1306.545509411007
 20
1589.407629730357
 30
0.0
 11
-1303.545509411007
 21
1589.407629730357
 31
0.0
  0
LINE
  5
130D1
330
1A
100
AcDbEntity
  8
ZISSEN1
100
AcDbLine
 10
-1306.545509411007
 20
1591.407629730357
 30
0.0
 11
-1303.545509411007
 21
1591.407629730357
 31
0.0
  0
DIMENSION
  5
13282
330
1A
100
AcDbEntity
  8
ZISSEN1
100
AcDbDimension
  2
*D7
 10
-1226.545509411006
 20
1581.403931089769
 30
0.0
 11
-1224.045509411006
 21
1584.153931089769
 31
0.0
 70
    32
  3
標準スタイル
100
AcDbAlignedDimension
 13
-1221.545509411007
 23
1589.407629730357
 33
0.0
 14
-1226.545509411006
 24
1591.907629730356
 34
0.0
100
AcDbRotatedDimension
1001
ACAD
1000
DSTYLE
1002
{
1070
   340
1005
10
1070
    40
1040
1.0
1002
}
  0
DIMENSION
  5
13283
330
1A
100
AcDbEntity
  8
ZISSEN1
100
AcDbDimension
  2
*D8
 10
-1213.549041095823
 20
1526.40393108977
 30
0.0
 11
-1216.299041095823
 21
1540.903356755726
 31
0.0
 70
    32
  3
標準スタイル
100
AcDbAlignedDimension
 13
-1221.545577326847
 23
1555.402782421683
 33
0.0
 14
-1221.545509411007
 24
1526.40393108977
 34
0.0
 50
270.0
100
AcDbRotatedDimension
1001
ACAD
1000
DSTYLE
1002
{
1070
   340
1005
10
1070
    40
1040
1.0
1002
}
  0
DIMENSION
  5
13284
330
1A
100
AcDbEntity
  8
ZISSEN1
100
AcDbDimension
  2
*D9
 10
-1213.549041095823
 20
1589.407629730357
 30
0.0
 11
-1212.598510880409
 21
1573.102179642243
 31
0.0
 70
   160
  3
標準スタイル
100
AcDbAlignedDimension
 13
-1226.547678356872
 23
1591.907629730356
 33
0.0
 14
-1221.545509411007
 24
1589.407629730357
 34
0.0
 50
270.0
100
AcDbRotatedDimension
1001
ACAD
1000
DSTYLE
1002
{
1070
   287
1070
     4
1070
    40
1040
1.0
1070
   279
1070
     1
1070
   340
1005
10
1002
}
  0
LINE
  5
13285
330
1A
100
AcDbEntity
  8
ZISSEN1
100
AcDbLine
 10
-1221.545509411007
 20
1529.40393108977
 30
0.0
 11
-1252.745509411006
 21
1529.40393108977
 31
0.0
  0
LINE
  5
13286
330
1A
100
AcDbEntity
  8
ZISSEN1
100
AcDbLine
 10
-1252.745509411006
 20
1529.40393108977
 30
0.0
 11
-1222.045509411007
 21
1529.40393108977
 31
0.0
  0
LINE
  5
13287
330
1A
100
AcDbEntity
  8
ZISSEN1
100
AcDbLine
 10
-1268.650377494433
 20
1550.40393108977
 30
0.0
 11
-1268.650377494433
 21
1538.90393108977
 31
0.0
  0
LINE
  5
1333B
330
1A
100
AcDbEntity
  8
ZISSEN1
100
AcDbLine
 10
-1250.045509411007
 20
1529.40393108977
 30
0.0
 11
-1250.045509411007
 21
1526.40393108977
 31
0.0
  0
LINE
  5
13349
330
1A
100
AcDbEntity
  8
ZISSEN1
  6
BYBLOCK
100
AcDbLine
 10
-1245.548828108629
 20
1538.90393108977
 30
0.0
 11
-1247.148828108629
 21
1538.90393108977
 31
0.0
  0
LINE
  5
1334E
330
1A
100
AcDbEntity
  8
ZISSEN1
100
AcDbLine
 10
-1222.045509411007
 20
1529.70393108977
 30
0.0
 11
-1222.045509411007
 21
1529.40393108977
 31
0.0
  0
LINE
  5
1334F
330
1A
100
AcDbEntity
  8
ZISSEN1
100
AcDbLine
 10
-1222.045509411007
 20
1531.30393108977
 30
0.0
 11
-1222.045509411007
 21
1529.70393108977
 31
0.0
  0
LINE
  5
13350
330
1A
100
AcDbEntity
  8
ZISSEN1
100
AcDbLine
 10
-1222.045509411007
 20
1538.90393108977
 30
0.0
 11
-1222.045509411007
 21
1537.30393108977
 31
0.0
  0
LINE
  5
13352
330
1A
100
AcDbEntity
  8
ZISSEN1
100
AcDbLine
 10
-1226.045509411006
 20
1538.906228425944
 30
0.0
 11
-1232.545509411006
 21
1538.906228425944
 31
0.0
  0
LINE
  5
13353
330
1A
100
AcDbEntity
  8
ZISSEN1
  6
DASHEDX2
100
AcDbLine
 10
-1239.750509411009
 20
1538.90393108977
 30
0.0
 11
-1241.350509411009
 21
1538.90393108977
 31
0.0
  0
LINE
  5
13357
330
1A
100
AcDbEntity
  8
ZISSEN1
  6
DASHEDX2
100
AcDbLine
 10
-1232.565509411006
 20
1531.30393108977
 30
0.0
 11
-1225.165509411006
 21
1531.30393108977
 31
0.0
  0
LINE
  5
1335A
330
1A
100
AcDbEntity
  8
ZISSEN1
 48
0.4
100
AcDbLine
 10
-1224.797678356873
 20
1529.40393108977
 30
0.0
 11
-1224.797678356873
 21
1526.40393108977
 31
0.0
  0
LINE
  5
1335B
330
1A
100
AcDbEntity
  8
ZISSEN1
 48
0.4
100
AcDbLine
 10
-1228.297678356873
 20
1529.40393108977
 30
0.0
 11
-1228.297678356873
 21
1526.40393108977
 31
0.0
  0
LINE
  5
1335C
330
1A
100
AcDbEntity
  8
ZISSEN1
100
AcDbLine
 10
-1221.545509411007
 20
1529.40393108977
 30
0.0
 11
-1221.545509411007
 21
1526.40393108977
 31
0.0
  0
LINE
  5
1335D
330
1A
100
AcDbEntity
  8
ZISSEN1
100
AcDbLine
 10
-1227.545509411007
 20
1537.30393108977
 30
0.0
 11
-1227.545509411007
 21
1531.30393108977
 31
0.0
  0
LINE
  5
1335E
330
1A
100
AcDbEntity
  8
ZISSEN1
100
AcDbLine
 10
-1222.545509411007
 20
1537.30393108977
 30
0.0
 11
-1222.545509411007
 21
1531.30393108977
 31
0.0
  0
LINE
  5
1335F
330
1A
100
AcDbEntity
  8
ZISSEN1
100
AcDbLine
 10
-1222.545509411007
 20
1529.40393108977
 30
0.0
 11
-1222.545509411007
 21
1526.40393108977
 31
0.0
  0
LINE
  5
13360
330
1A
100
AcDbEntity
  8
ZISSEN1
100
AcDbLine
 10
-1233.625509411007
 20
1538.90393108977
 30
0.0
 11
-1233.625509411007
 21
1537.30393108977
 31
0.0
  0
LINE
  5
13361
330
1A
100
AcDbEntity
  8
ZISSEN1
100
AcDbLine
 10
-1231.045509411007
 20
1531.30393108977
 30
0.0
 11
-1231.045509411007
 21
1529.70393108977
 31
0.0
  0
LINE
  5
1337F
330
1A
100
AcDbEntity
  8
ZISSEN1
100
AcDbLine
 10
-1228.297678356873
 20
1589.407629730357
 30
0.0
 11
-1250.045509411007
 21
1589.407629730357
 31
0.0
  0
LINE
  5
13470
330
1A
100
AcDbEntity
  8
ZISSEN1
100
AcDbLine
 10
-1250.045509411007
 20
1589.907629730357
 30
0.0
 11
-1250.045509411007
 21
1589.407629730357
 31
0.0
  0
LINE
  5
13561
330
1A
100
AcDbEntity
  8
ZISSEN1
100
AcDbLine
 10
-1222.045509411006
 20
1614.707629730357
 30
0.0
 11
-1221.545509411007
 21
1614.707629730357
 31
0.0
  0
LINE
  5
13568
330
1A
100
AcDbEntity
  8
ZISSEN1
100
AcDbLine
 10
-1232.545509411006
 20
1616.817629730357
 30
0.0
 11
-1222.045509411006
 21
1616.817629730357
 31
0.0
  0
ARC
  5
1356A
330
1A
100
AcDbEntity
  8
ZISSEN1
100
AcDbCircle
 10
-1222.045509411006
 20
1596.407629730356
 30
0.0
 40
1.0
100
AcDbArc
 50
90.0
 51
180.0
  0
LINE
  5
1356F
330
1A
100
AcDbEntity
  8
ZISSEN1
100
AcDbLine
 10
-1222.045509411006
 20
1615.807629730357
 30
0.0
 11
-1222.045509411006
 21
1597.407629730357
 31
0.0
  0
ARC
  5
13570
330
1A
100
AcDbEntity
  8
ZISSEN1
100
AcDbCircle
 10
-1231.045509411007
 20
1589.907629730356
 30
0.0
 40
1.0
100
AcDbArc
 50
90.0
 51
180.0
  0
LINE
  5
13571
330
1A
100
AcDbEntity
  8
ZISSEN1
100
AcDbLine
 10
-1231.045509411007
 20
1590.907629730357
 30
0.0
 11
-1231.045509411007
 21
1596.407629730357
 31
0.0
  0
LINE
  5
13572
330
1A
100
AcDbEntity
  8
ZISSEN1
100
AcDbLine
 10
-1232.545509411006
 20
1607.477629730357
 30
0.0
 11
-1222.045509411006
 21
1607.477629730357
 31
0.0
  0
LINE
  5
13578
330
1A
100
AcDbEntity
  8
ZISSEN1
100
AcDbLine
 10
-1222.045509411006
 20
1615.337629730357
 30
0.0
 11
-1232.545509411006
 21
1615.337629730357
 31
0.0
  0
LINE
  5
1357D
330
1A
100
AcDbEntity
  8
ZISSEN1
100
AcDbLine
 10
-1232.545509411006
 20
1615.337629730357
 30
0.0
 11
-1232.545509411006
 21
1607.477629730357
 31
0.0
  0
LINE
  5
1357F
330
1A
100
AcDbEntity
  8
ZISSEN1
100
AcDbLine
 10
-1233.545509411007
 20
1615.807629730357
 30
0.0
 11
-1222.045509411006
 21
1615.807629730357
 31
0.0
  0
LINE
  5
13581
330
1A
100
AcDbEntity
  8
ZISSEN1
100
AcDbLine
 10
-1231.045509411007
 20
1596.407629730357
 30
0.0
 11
-1223.045509411006
 21
1596.407629730357
 31
0.0
  0
LINE
  5
13582
330
1A
100
AcDbEntity
  8
ZISSEN1
100
AcDbLine
 10
-1221.545509411007
 20
1590.407629730357
 30
0.0
 11
-1222.545509411007
 21
1589.407629730357
 31
0.0
  0
LINE
  5
13583
330
1A
100
AcDbEntity
  8
ZISSEN1
100
AcDbLine
 10
-1222.545509411007
 20
1589.407629730357
 30
0.0
 11
-1224.797678356873
 21
1589.407629730357
 31
0.0
  0
ARC
  5
13584
330
1A
100
AcDbEntity
  8
ZISSEN1
100
AcDbCircle
 10
-1226.547678356873
 20
1592.907629730357
 30
0.0
 40
1.749999999999772
100
AcDbArc
 50
0.0
 51
180.0
  0
LINE
  5
13585
330
1A
100
AcDbEntity
  8
ZISSEN1
100
AcDbLine
 10
-1228.297678356873
 20
1589.407629730357
 30
0.0
 11
-1228.297678356873
 21
1592.907629730357
 31
0.0
  0
LINE
  5
13586
330
1A
100
AcDbEntity
  8
ZISSEN1
100
AcDbLine
 10
-1224.797678356873
 20
1589.407629730357
 30
0.0
 11
-1224.797678356873
 21
1592.907629730357
 31
0.0
  0
LINE
  5
13587
330
1A
100
AcDbEntity
  8
ZISSEN1
100
AcDbLine
 10
-1221.545509411007
 20
1614.707629730357
 30
0.0
 11
-1221.545509411007
 21
1590.407629730357
 31
0.0
  0
LINE
  5
13588
330
1A
100
AcDbEntity
  8
CL1
100
AcDbLine
 10
-1224.797678356873
 20
1591.907629730356
 30
0.0
 11
-1228.297678356873
 21
1591.907629730356
 31
0.0
  0
LINE
  5
13589
330
1A
100
AcDbEntity
  8
CL1
100
AcDbLine
 10
-1226.545509411006
 20
1589.407629730357
 30
0.0
 11
-1226.545509411006
 21
1594.407629730357
 31
0.0
  0
LINE
  5
1358A
330
1A
100
AcDbEntity
  8
ZISSEN1
100
AcDbLine
 10
-1189.545509411007
 20
1591.407629730357
 30
0.0
 11
-1187.545509411007
 21
1589.407629730357
 31
0.0
  0
DIMENSION
  5
1358B
330
1A
100
AcDbEntity
  8
ZISSEN1
100
AcDbDimension
  2
*D10
 10
-1197.545509411007
 20
1589.407629730357
 30
0.0
 11
-1200.295509411007
 21
1578.907629730356
 31
0.0
 70
    32
  3
標準スタイル
100
AcDbAlignedDimension
 13
-1171.545509411006
 23
1591.907629730357
 33
0.0
 14
-1189.545509411007
 24
1589.407629730357
 34
0.0
 50
90.0
100
AcDbRotatedDimension
1001
ACAD
1000
DSTYLE
1002
{
1070
   340
1005
10
1070
    40
1040
1.0
1002
}
  0
LINE
  5
1358C
330
1A
100
AcDbEntity
  8
ZISSEN1
100
AcDbLine
 10
-1166.045509411007
 20
1602.587092485163
 30
0.0
 11
-1166.045509411007
 21
1600.987092485163
 31
0.0
  0
LINE
  5
1358D
330
1A
100
AcDbEntity
  8
ZISSEN1
100
AcDbLine
 10
-1164.445509411007
 20
1615.807629730357
 30
0.0
 11
-1166.045509411007
 21
1615.807629730357
 31
0.0
  0
LINE
  5
13591
330
1A
100
AcDbEntity
  8
ZISSEN1
100
AcDbLine
 10
-1164.445509411007
 20
1596.407629730357
 30
0.0
 11
-1166.045509411007
 21
1596.407629730357
 31
0.0
  0
LINE
  5
13593
330
1A
100
AcDbEntity
  8
ZISSEN1
100
AcDbLine
 10
-1166.045509411006
 20
1597.027629730357
 30
0.0
 11
-1166.045509411006
 21
1604.887629730356
 31
0.0
  0
LINE
  5
1359D
330
1A
100
AcDbEntity
  8
ZISSEN1
100
AcDbLine
 10
-1161.645509411007
 20
1616.817629730357
 30
0.0
 11
-1158.445509411006
 21
1616.817629730357
 31
0.0
  0
LINE
  5
135A2
330
1A
100
AcDbEntity
  8
ZISSEN1
100
AcDbLine
 10
-1169.795509411007
 20
1589.407629730357
 30
0.0
 11
-1158.545509411007
 21
1589.407629730357
 31
0.0
  0
LINE
  5
135A3
330
1A
100
AcDbEntity
  8
ZISSEN1
100
AcDbLine
 10
-1169.795509411007
 20
1589.407629730357
 30
0.0
 11
-1169.795509411007
 21
1592.907629730357
 31
0.0
  0
LINE
  5
135A4
330
1A
100
AcDbEntity
  8
ZISSEN1
100
AcDbLine
 10
-1173.295509411007
 20
1589.407629730357
 30
0.0
 11
-1173.295509411006
 21
1592.907629730357
 31
0.0
  0
ARC
  5
135A5
330
1A
100
AcDbEntity
  8
ZISSEN1
100
AcDbCircle
 10
-1171.545509411006
 20
1592.907629730357
 30
0.0
 40
1.749999999999772
100
AcDbArc
 50
0.0
 51
180.0
  0
LINE
  5
135A7
330
1A
100
AcDbEntity
  8
ZISSEN1
 48
0.3
100
AcDbLine
 10
-1164.445509411007
 20
1589.907629730357
 30
0.0
 11
-1164.445509411007
 21
1616.817629730357
 31
0.0
  0
LINE
  5
135A8
330
1A
100
AcDbEntity
  8
ZISSEN1
100
AcDbLine
 10
-1158.445509411007
 20
1609.207629730357
 30
0.0
 11
-1158.445509411007
 21
1606.607629730357
 31
0.0
  0
LINE
  5
135A9
330
1A
100
AcDbEntity
  8
ZISSEN1
 48
0.3
100
AcDbLine
 10
-1158.445509411007
 20
1596.907629730357
 30
0.0
 11
-1164.445509411007
 21
1596.907629730357
 31
0.0
  0
LINE
  5
135AA
330
1A
100
AcDbEntity
  8
ZISSEN1
 48
0.3
100
AcDbLine
 10
-1158.445509411007
 20
1609.907629730357
 30
0.0
 11
-1158.445509411007
 21
1604.907629730357
 31
0.0
  0
LINE
  5
135AB
330
1A
100
AcDbEntity
  8
ZISSEN1
 48
0.3
100
AcDbLine
 10
-1164.445509411007
 20
1601.907629730357
 30
0.0
 11
-1158.445509411007
 21
1601.907629730357
 31
0.0
  0
LINE
  5
135AE
330
1A
100
AcDbEntity
  8
ZISSEN1
100
AcDbLine
 10
-1166.045509411007
 20
1596.407629730357
 30
0.0
 11
-1166.045509411007
 21
1603.807629730357
 31
0.0
  0
LINE
  5
135AF
330
1A
100
AcDbEntity
  8
ZISSEN1
100
AcDbLine
 10
-1166.045509411007
 20
1616.817629730357
 30
0.0
 11
-1166.045509411007
 21
1589.907629730357
 31
0.0
  0
LINE
  5
135B0
330
1A
100
AcDbEntity
  8
ZISSEN1
100
AcDbLine
 10
-1166.045509411007
 20
1603.807629730357
 30
0.0
 11
-1166.045509411007
 21
1602.807629730357
 31
0.0
  0
LINE
  5
135B1
330
1A
100
AcDbEntity
  8
ZISSEN1
 48
0.3
100
AcDbLine
 10
-1166.045509411007
 20
1589.907629730357
 30
0.0
 11
-1164.445509411007
 21
1589.907629730357
 31
0.0
  0
LINE
  5
135B2
330
1A
100
AcDbEntity
  8
ZISSEN1
100
AcDbLine
 10
-1166.045509411007
 20
1602.507629730357
 30
0.0
 11
-1166.045509411007
 21
1600.982629730357
 31
0.0
  0
LINE
  5
135B3
330
1A
100
AcDbEntity
  8
ZISSEN1
100
AcDbLine
 10
-1166.045509411007
 20
1597.432629730357
 30
0.0
 11
-1166.045509411007
 21
1595.907629730357
 31
0.0
  0
LINE
  5
135B4
330
1A
100
AcDbEntity
  8
ZISSEN1
100
AcDbLine
 10
-1166.045509411007
 20
1602.507629730357
 30
0.0
 11
-1166.045509411007
 21
1602.807629730357
 31
0.0
  0
LINE
  5
135B5
330
1A
100
AcDbEntity
  8
ZISSEN1
100
AcDbLine
 10
-1166.045509411006
 20
1601.43002279536
 30
0.0
 11
-1166.045509411006
 21
1599.83002279536
 31
0.0
  0
LINE
  5
135BF
330
1A
100
AcDbEntity
  8
CL1
100
AcDbLine
 10
-1169.795509411006
 20
1591.907629730357
 30
0.0
 11
-1173.295509411006
 21
1591.907629730357
 31
0.0
  0
LINE
  5
135C0
330
1A
100
AcDbEntity
  8
CL1
100
AcDbLine
 10
-1171.54334046514
 20
1589.407629730357
 30
0.0
 11
-1171.54334046514
 21
1594.407629730357
 31
0.0
  0
LINE
  5
135C1
330
1A
100
AcDbEntity
  8
ZISSEN1
100
AcDbLine
 10
-1187.545509411007
 20
1589.407629730357
 30
0.0
 11
-1173.295509411007
 21
1589.407629730357
 31
0.0
  0
LINE
  5
135C7
330
1A
100
AcDbEntity
  8
ZISSEN1
100
AcDbLine
 10
-1223.045509411006
 20
1656.907629730357
 30
0.0
 11
-1293.045509411006
 21
1656.907629730357
 31
0.0
  0
LINE
  5
135C8
330
1A
100
AcDbEntity
  8
ZISSEN1
100
AcDbLine
 10
-1296.79340892556
 20
1657.407629730357
 30
0.0
 11
-1222.545509411006
 21
1657.407629730357
 31
0.0
  0
LINE
  5
135C9
330
1A
100
AcDbEntity
  8
ZISSEN1
100
AcDbLine
 10
-1294.045509411007
 20
1655.907629730357
 30
0.0
 11
-1294.045509411007
 21
1650.407629730357
 31
0.0
  0
ARC
  5
135CA
330
1A
100
AcDbEntity
  8
ZISSEN1
100
AcDbCircle
 10
-1298.54340892556
 20
1653.907629730357
 30
0.0
 40
1.749999999999772
100
AcDbArc
 50
180.0
 51
0.0
  0
LINE
  5
135CB
330
1A
100
AcDbEntity
  8
ZISSEN1
100
AcDbLine
 10
-1302.545509411006
 20
1657.407629730357
 30
0.0
 11
-1303.545509411006
 21
1656.407629730357
 31
0.0
  0
LINE
  5
135CC
330
1A
100
AcDbEntity
  8
ZISSEN1
100
AcDbLine
 10
-1306.545509411007
 20
1655.407629730357
 30
0.0
 11
-1303.545509411006
 21
1655.407629730357
 31
0.0
  0
LINE
  5
135CD
330
1A
100
AcDbEntity
  8
ZISSEN1
100
AcDbLine
 10
-1306.545509411007
 20
1657.407629730357
 30
0.0
 11
-1303.545509411006
 21
1657.407629730357
 31
0.0
  0
ARC
  5
135CE
330
1A
100
AcDbEntity
  8
ZISSEN1
100
AcDbCircle
 10
-1294.045509411007
 20
1656.907629730357
 30
0.0
 40
1.0
100
AcDbArc
 50
270.0
 51
0.0
  0
LINE
  5
135CF
330
1A
100
AcDbEntity
  8
ZISSEN1
100
AcDbLine
 10
-1300.29340892556
 20
1657.407629730357
 30
0.0
 11
-1302.545509411006
 21
1657.407629730357
 31
0.0
  0
LINE
  5
135D0
330
1A
100
AcDbEntity
  8
ZISSEN1
100
AcDbLine
 10
-1296.79340892556
 20
1657.407629730357
 30
0.0
 11
-1296.79340892556
 21
1653.907629730357
 31
0.0
  0
LINE
  5
135D1
330
1A
100
AcDbEntity
  8
ZISSEN1
100
AcDbLine
 10
-1300.29340892556
 20
1657.407629730357
 30
0.0
 11
-1300.29340892556
 21
1653.907629730357
 31
0.0
  0
LINE
  5
135D3
330
1A
100
AcDbEntity
  8
ZISSEN1
100
AcDbLine
 10
-1294.045509411007
 20
1650.407629730357
 30
0.0
 11
-1303.045509411006
 21
1650.407629730357
 31
0.0
  0
LINE
  5
135F8
330
1A
100
AcDbEntity
  8
CL1
100
AcDbLine
 10
-1296.79340892556
 20
1654.907629730357
 30
0.0
 11
-1300.29340892556
 21
1654.907629730357
 31
0.0
  0
LINE
  5
135F9
330
1A
100
AcDbEntity
  8
CL1
100
AcDbLine
 10
-1298.545509411006
 20
1656.907629730357
 30
0.0
 11
-1298.545509411006
 21
1651.907629730357
 31
0.0
  0
LINE
  5
13609
330
1A
100
AcDbEntity
  8
ZISSEN1
100
AcDbLine
 10
-1222.045509411006
 20
1655.907629730356
 30
0.0
 11
-1222.045509411006
 21
1634.807629730357
 31
0.0
  0
LINE
  5
13611
330
1A
100
AcDbEntity
  8
ZISSEN1
100
AcDbLine
 10
-1221.545509411007
 20
1656.407629730357
 30
0.0
 11
-1221.545509411007
 21
1634.707629730357
 31
0.0
  0
ARC
  5
13612
330
1A
100
AcDbEntity
  8
ZISSEN1
100
AcDbCircle
 10
-1222.045509411006
 20
1656.907629730356
 30
0.0
 40
1.0
100
AcDbArc
 50
180.0
 51
270.0
  0
LINE
  5
13621
330
1A
100
AcDbEntity
  8
ZISSEN1
100
AcDbLine
 10
-1222.545509411006
 20
1657.407629730357
 30
0.0
 11
-1221.545509411007
 21
1656.407629730357
 31
0.0
  0
LINE
  5
13624
330
1A
100
AcDbEntity
  8
ZISSEN1
100
AcDbLine
 10
-1222.045509411007
 20
1632.597629730357
 30
0.0
 11
-1232.545509411006
 21
1632.597629730357
 31
0.0
  0
LINE
  5
13634
330
1A
100
AcDbEntity
  8
ZISSEN1
100
AcDbLine
 10
-1233.545509411007
 20
1634.807629730357
 30
0.0
 11
-1222.045509411006
 21
1634.807629730357
 31
0.0
  0
LINE
  5
13635
330
1A
100
AcDbEntity
  8
ZISSEN1
100
AcDbLine
 10
-1221.545509411007
 20
1634.707629730357
 30
0.0
 11
-1222.045509411007
 21
1634.707629730357
 31
0.0
  0
LINE
  5
13636
330
1A
100
AcDbEntity
  8
ZISSEN1
100
AcDbLine
 10
-1189.545509411007
 20
1655.407629730357
 30
0.0
 11
-1187.545509411006
 21
1657.407629730357
 31
0.0
  0
DIMENSION
  5
13637
330
1A
100
AcDbEntity
  8
ZISSEN1
100
AcDbDimension
  2
*D11
 10
-1197.545509411007
 20
1654.907629730357
 30
0.0
 11
-1197.545509411007
 21
1667.907629730357
 31
0.0
 70
   160
  3
標準スタイル
100
AcDbAlignedDimension
 13
-1189.545509411007
 23
1657.407629730357
 33
0.0
 14
-1171.545509411006
 24
1654.907629730357
 34
0.0
 50
90.0
100
AcDbRotatedDimension
1001
ACAD
1000
DSTYLE
1002
{
1070
   340
1005
10
1070
    40
1040
1.0
1002
}
  0
LINE
  5
1363A
330
1A
100
AcDbEntity
  8
ZISSEN1
100
AcDbLine
 10
-1158.445509411007
 20
1648.707629730357
 30
0.0
 11
-1158.445509411007
 21
1646.107629730357
 31
0.0
  0
LINE
  5
1363B
330
1A
100
AcDbEntity
  8
ZISSEN1
 48
0.3
100
AcDbLine
 10
-1164.445509411007
 20
1648.907629730357
 30
0.0
 11
-1164.445509411007
 21
1646.407629730357
 31
0.0
  0
LINE
  5
1363C
330
1A
100
AcDbEntity
  8
ZISSEN1
100
AcDbLine
 10
-1164.445509411007
 20
1656.907629730357
 30
0.0
 11
-1164.445509411007
 21
1632.597629730357
 31
0.0
  0
LINE
  5
1363D
330
1A
100
AcDbEntity
  8
ZISSEN1
100
AcDbLine
 10
-1166.045509411007
 20
1656.907629730357
 30
0.0
 11
-1166.045509411007
 21
1632.597629730357
 31
0.0
  0
ARC
  5
13642
330
1A
100
AcDbEntity
  8
ZISSEN1
100
AcDbCircle
 10
-1171.545509411006
 20
1653.907629730357
 30
0.0
 40
1.749999999999772
100
AcDbArc
 50
180.0
 51
0.0
  0
LINE
  5
13644
330
1A
100
AcDbEntity
  8
ZISSEN1
 48
0.3
100
AcDbLine
 10
-1164.445509411007
 20
1651.407629730357
 30
0.0
 11
-1158.445509411007
 21
1651.407629730357
 31
0.0
  0
LINE
  5
13645
330
1A
100
AcDbEntity
  8
ZISSEN1
 48
0.3
100
AcDbLine
 10
-1164.445509411007
 20
1656.907629730357
 30
0.0
 11
-1166.045509411007
 21
1656.907629730357
 31
0.0
  0
LINE
  5
13646
330
1A
100
AcDbEntity
  8
ZISSEN1
100
AcDbLine
 10
-1169.795509411006
 20
1657.407629730357
 30
0.0
 11
-1158.545509411007
 21
1657.407629730357
 31
0.0
  0
LINE
  5
13648
330
1A
100
AcDbEntity
  8
ZISSEN1
100
AcDbLine
 10
-1164.445509411007
 20
1656.407629730357
 30
0.0
 11
-1158.445509411007
 21
1656.407629730357
 31
0.0
  0
LINE
  5
13649
330
1A
100
AcDbEntity
  8
ZISSEN1
100
AcDbLine
 10
-1173.295509411006
 20
1657.407629730357
 30
0.0
 11
-1173.295509411006
 21
1653.907629730357
 31
0.0
  0
LINE
  5
1364A
330
1A
100
AcDbEntity
  8
ZISSEN1
100
AcDbLine
 10
-1169.795509411006
 20
1657.407629730357
 30
0.0
 11
-1169.795509411006
 21
1653.907629730357
 31
0.0
  0
LINE
  5
1364B
330
1A
100
AcDbEntity
  8
ZISSEN1
100
AcDbLine
 10
-1164.445509411007
 20
1634.807629730357
 30
0.0
 11
-1166.045509411007
 21
1634.807629730357
 31
0.0
  0
LINE
  5
1364E
330
1A
100
AcDbEntity
  8
ZISSEN1
100
AcDbLine
 10
-1158.445509411006
 20
1632.597629730357
 30
0.0
 11
-1161.645509411007
 21
1632.597629730357
 31
0.0
  0
LINE
  5
13657
330
1A
100
AcDbEntity
  8
CL1
100
AcDbLine
 10
-1169.795509411006
 20
1654.907629730357
 30
0.0
 11
-1173.295509411006
 21
1654.907629730357
 31
0.0
  0
LINE
  5
13658
330
1A
100
AcDbEntity
  8
CL1
100
AcDbLine
 10
-1171.547609896452
 20
1656.907629730357
 30
0.0
 11
-1171.547609896452
 21
1651.907629730357
 31
0.0
  0
DIMENSION
  5
13659
330
1A
100
AcDbEntity
  8
ZISSEN1
100
AcDbDimension
  2
*D12
 10
-1169.795509411006
 20
1665.409160384985
 30
0.0
 11
-1159.295509411006
 21
1668.159160384985
 31
0.0
 70
    32
  3
標準スタイル
100
AcDbAlignedDimension
 13
-1173.295509411006
 23
1657.407629730357
 33
0.0
 14
-1169.795509411006
 24
1657.407629730357
 34
0.0
100
AcDbRotatedDimension
1001
ACAD
1000
DSTYLE
1002
{
1070
   340
1005
10
1070
    40
1040
1.0
1002
}
  0
LINE
  5
1365A
330
1A
100
AcDbEntity
  8
ZISSEN1
100
AcDbLine
 10
-1173.295509411006
 20
1657.407629730357
 30
0.0
 11
-1187.545509411006
 21
1657.407629730357
 31
0.0
  0
LINE
  5
1365B
330
1A
100
AcDbEntity
  8
ZISSEN1
 48
0.3
100
AcDbLine
 10
-1156.845509411007
 20
1589.907629730357
 30
0.0
 11
-1156.845509411007
 21
1656.907629730357
 31
0.0
  0
LINE
  5
1365C
330
1A
100
AcDbEntity
  8
ZISSEN1
 48
0.3
100
AcDbLine
 10
-1156.545509411007
 20
1594.407629730357
 30
0.0
 11
-1156.545509411007
 21
1650.407629730357
 31
0.0
  0
LINE
  5
1365D
330
1A
100
AcDbEntity
  8
ZISSEN1
100
AcDbLine
 10
-1153.545509411007
 20
1604.407629730357
 30
0.0
 11
-1153.545509411007
 21
1650.407629730357
 31
0.0
  0
LINE
  5
1365E
330
1A
100
AcDbEntity
  8
ZISSEN1
100
AcDbLine
 10
-1153.545509411007
 20
1589.407629730357
 30
0.0
 11
-1153.545509411007
 21
1604.407629730357
 31
0.0
  0
LINE
  5
1365F
330
1A
100
AcDbEntity
  8
ZISSEN1
100
AcDbLine
 10
-1156.545509411007
 20
1589.407629730357
 30
0.0
 11
-1156.545509411007
 21
1594.407629730357
 31
0.0
  0
LINE
  5
13660
330
1A
100
AcDbEntity
  8
ZISSEN1
 48
0.3
100
AcDbLine
 10
-1153.545509411007
 20
1590.407629730357
 30
0.0
 11
-1156.545509411007
 21
1590.407629730357
 31
0.0
  0
LINE
  5
13661
330
1A
100
AcDbEntity
  8
ZISSEN1
 48
0.3
100
AcDbLine
 10
-1153.545509411007
 20
1589.407629730357
 30
0.0
 11
-1156.545509411007
 21
1589.407629730357
 31
0.0
  0
LINE
  5
13662
330
1A
100
AcDbEntity
  8
ZISSEN1
100
AcDbLine
 10
-1156.545509411007
 20
1589.407629730357
 30
0.0
 11
-1153.545509411007
 21
1589.407629730357
 31
0.0
  0
LINE
  5
13663
330
1A
100
AcDbEntity
  8
ZISSEN1
 48
0.3
100
AcDbLine
 10
-1156.845509411007
 20
1589.907629730357
 30
0.0
 11
-1156.545509411007
 21
1589.907629730357
 31
0.0
  0
LINE
  5
13664
330
1A
100
AcDbEntity
  8
ZISSEN1
100
AcDbLine
 10
-1156.545509411007
 20
1614.707629730357
 30
0.0
 11
-1153.545509411007
 21
1614.707629730357
 31
0.0
  0
LINE
  5
13665
330
1A
100
AcDbEntity
  8
ZISSEN1
 48
0.3
100
AcDbLine
 10
-1156.845509411007
 20
1615.707629730357
 30
0.0
 11
-1156.545509411007
 21
1615.707629730357
 31
0.0
  0
LINE
  5
13666
330
1A
100
AcDbEntity
  8
ZISSEN1
100
AcDbLine
 10
-1156.545509411007
 20
1656.407629730357
 30
0.0
 11
-1153.545509411007
 21
1656.407629730357
 31
0.0
  0
LINE
  5
13667
330
1A
100
AcDbEntity
  8
ZISSEN1
100
AcDbLine
 10
-1156.545509411007
 20
1657.407629730357
 30
0.0
 11
-1153.545509411007
 21
1657.407629730357
 31
0.0
  0
LINE
  5
13668
330
1A
100
AcDbEntity
  8
ZISSEN1
100
AcDbLine
 10
-1153.545509411007
 20
1650.407629730357
 30
0.0
 11
-1153.545509411007
 21
1657.407629730357
 31
0.0
  0
LINE
  5
13669
330
1A
100
AcDbEntity
  8
ZISSEN1
100
AcDbLine
 10
-1156.545509411007
 20
1650.407629730357
 30
0.0
 11
-1156.545509411007
 21
1657.407629730357
 31
0.0
  0
LINE
  5
1366A
330
1A
100
AcDbEntity
  8
ZISSEN1
100
AcDbLine
 10
-1153.545509411007
 20
1634.707629730358
 30
0.0
 11
-1156.545509411007
 21
1634.707629730358
 31
0.0
  0
LINE
  5
1366B
330
1A
100
AcDbEntity
  8
ZISSEN1
 48
0.3
100
AcDbLine
 10
-1156.845509411007
 20
1633.707629730357
 30
0.0
 11
-1156.545509411007
 21
1633.707629730357
 31
0.0
  0
LINE
  5
14536
330
1A
100
AcDbEntity
  8
ZISSEN1
100
AcDbLine
 10
-1296.050377494433
 20
1650.407629730357
 30
0.0
 11
-1268.650377494433
 21
1650.407629730357
 31
0.0
  0
LINE
  5
14537
330
1A
100
AcDbEntity
  8
ZISSEN1
100
AcDbLine
 10
-1268.650377494433
 20
1650.407629730357
 30
0.0
 11
-1296.050377494433
 21
1650.407629730357
 31
0.0
  0
LINE
  5
14538
330
1A
100
AcDbEntity
  8
ZISSEN1
100
AcDbLine
 10
-1268.650377494433
 20
1650.407629730357
 30
0.0
 11
-1296.050377494433
 21
1650.407629730357
 31
0.0
  0
LINE
  5
14539
330
1A
100
AcDbEntity
  8
ZISSEN1
100
AcDbLine
 10
-1296.050377494433
 20
1642.807629730357
 30
0.0
 11
-1296.050377494433
 21
1650.407629730357
 31
0.0
  0
LINE
  5
1453A
330
1A
100
AcDbEntity
  8
ZISSEN1
100
AcDbLine
 10
-1296.050377494433
 20
1650.407629730357
 30
0.0
 11
-1296.050377494433
 21
1643.607629730357
 31
0.0
  0
LINE
  5
1453B
330
1A
100
AcDbEntity
  8
ZISSEN1
100
AcDbLine
 10
-1268.650377494433
 20
1650.407629730357
 30
0.0
 11
-1268.650377494433
 21
1642.807629730357
 31
0.0
  0
LINE
  5
1453C
330
1A
100
AcDbEntity
  8
ZISSEN1
100
AcDbLine
 10
-1268.650377494433
 20
1650.407629730357
 30
0.0
 11
-1268.650377494433
 21
1642.807629730357
 31
0.0
  0
LINE
  5
1453D
330
1A
100
AcDbEntity
  8
ZISSEN1
100
AcDbLine
 10
-1268.650377494433
 20
1643.607629730357
 30
0.0
 11
-1268.650377494433
 21
1650.407629730357
 31
0.0
  0
LINE
  5
1453E
330
1A
100
AcDbEntity
  8
ZISSEN1
100
AcDbLine
 10
-1268.650377494433
 20
1643.607629730357
 30
0.0
 11
-1268.650377494433
 21
1650.407629730357
 31
0.0
  0
LINE
  5
1453F
330
1A
100
AcDbEntity
  8
ZISSEN1
100
AcDbLine
 10
-1268.650377494433
 20
1642.807629730357
 30
0.0
 11
-1296.050377494433
 21
1642.807629730357
 31
0.0
  0
LINE
  5
1454D
330
1A
100
AcDbEntity
  8
出力ｷﾊ_ﾝ
100
AcDbLine
 10
-1232.129254892833
 20
1653.706968658318
 30
0.0
 11
-1231.129254892833
 21
1653.706968658318
 31
0.0
  0
LINE
  5
1454E
330
1A
100
AcDbEntity
  8
出力ｷﾊ_ﾝ
100
AcDbLine
 10
-1232.129254892833
 20
1652.456968658318
 30
0.0
 11
-1231.829254892833
 21
1652.456968658318
 31
0.0
  0
LINE
  5
1454F
330
1A
100
AcDbEntity
  8
出力ｷﾊ_ﾝ
100
AcDbLine
 10
-1230.129254892833
 20
1652.456968658318
 30
0.0
 11
-1230.429254892832
 21
1652.456968658318
 31
0.0
  0
LINE
  5
14550
330
1A
100
AcDbEntity
  8
出力ｷﾊ_ﾝ
100
AcDbLine
 10
-1232.129254892833
 20
1652.456968658318
 30
0.0
 11
-1232.129254892833
 21
1653.081968658318
 31
0.0
  0
LINE
  5
14551
330
1A
100
AcDbEntity
  8
出力ｷﾊ_ﾝ
100
AcDbLine
 10
-1232.129254892833
 20
1652.456968658318
 30
0.0
 11
-1232.129254892833
 21
1653.081968658318
 31
0.0
  0
LINE
  5
14552
330
1A
100
AcDbEntity
  8
出力ｷﾊ_ﾝ
100
AcDbLine
 10
-1230.129254892833
 20
1652.456968658318
 30
0.0
 11
-1230.429254892832
 21
1652.456968658318
 31
0.0
  0
LINE
  5
14553
330
1A
100
AcDbEntity
  8
出力ｷﾊ_ﾝ
100
AcDbLine
 10
-1232.129254892833
 20
1652.456968658318
 30
0.0
 11
-1231.829254892833
 21
1652.456968658318
 31
0.0
  0
LINE
  5
14554
330
1A
100
AcDbEntity
  8
出力ｷﾊ_ﾝ
100
AcDbLine
 10
-1232.129254892833
 20
1652.456968658318
 30
0.0
 11
-1230.129254892833
 21
1652.456968658318
 31
0.0
  0
LINE
  5
14555
330
1A
100
AcDbEntity
  8
出力ｷﾊ_ﾝ
100
AcDbLine
 10
-1232.129254892833
 20
1653.706968658318
 30
0.0
 11
-1231.129254892833
 21
1653.706968658318
 31
0.0
  0
LINE
  5
14556
330
1A
100
AcDbEntity
  8
出力ｷﾊ_ﾝ
100
AcDbLine
 10
-1230.129254892833
 20
1653.706968658318
 30
0.0
 11
-1232.129254892833
 21
1653.706968658318
 31
0.0
  0
LINE
  5
14557
330
1A
100
AcDbEntity
  8
出力ｷﾊ_ﾝ
100
AcDbLine
 10
-1232.129254892833
 20
1653.706968658318
 30
0.0
 11
-1232.129254892833
 21
1652.456968658318
 31
0.0
  0
LINE
  5
14558
330
1A
100
AcDbEntity
  8
出力ｷﾊ_ﾝ
100
AcDbLine
 10
-1230.129254892833
 20
1652.456968658318
 30
0.0
 11
-1230.129254892833
 21
1653.706968658318
 31
0.0
  0
LINE
  5
14559
330
1A
100
AcDbEntity
  8
出力ｷﾊ_ﾝ
100
AcDbLine
 10
-1232.129254892833
 20
1655.706968658318
 30
0.0
 11
-1231.129254892833
 21
1655.706968658318
 31
0.0
  0
LINE
  5
1455A
330
1A
100
AcDbEntity
  8
出力ｷﾊ_ﾝ
100
AcDbLine
 10
-1230.129254892833
 20
1654.456968658318
 30
0.0
 11
-1230.129254892833
 21
1655.706968658318
 31
0.0
  0
LINE
  5
1455B
330
1A
100
AcDbEntity
  8
出力ｷﾊ_ﾝ
100
AcDbLine
 10
-1232.129254892833
 20
1655.706968658318
 30
0.0
 11
-1232.129254892833
 21
1654.456968658318
 31
0.0
  0
LINE
  5
1455C
330
1A
100
AcDbEntity
  8
出力ｷﾊ_ﾝ
100
AcDbLine
 10
-1230.129254892833
 20
1655.706968658318
 30
0.0
 11
-1232.129254892833
 21
1655.706968658318
 31
0.0
  0
LINE
  5
1455D
330
1A
100
AcDbEntity
  8
出力ｷﾊ_ﾝ
100
AcDbLine
 10
-1232.129254892833
 20
1655.706968658318
 30
0.0
 11
-1231.129254892833
 21
1655.706968658318
 31
0.0
  0
LINE
  5
1455E
330
1A
100
AcDbEntity
  8
出力ｷﾊ_ﾝ
100
AcDbLine
 10
-1232.129254892833
 20
1654.456968658318
 30
0.0
 11
-1230.129254892833
 21
1654.456968658318
 31
0.0
  0
LINE
  5
1455F
330
1A
100
AcDbEntity
  8
出力ｷﾊ_ﾝ
100
AcDbLine
 10
-1232.129254892833
 20
1654.456968658318
 30
0.0
 11
-1231.829254892833
 21
1654.456968658318
 31
0.0
  0
LINE
  5
14560
330
1A
100
AcDbEntity
  8
出力ｷﾊ_ﾝ
100
AcDbLine
 10
-1230.129254892833
 20
1654.456968658318
 30
0.0
 11
-1230.429254892832
 21
1654.456968658318
 31
0.0
  0
LINE
  5
14561
330
1A
100
AcDbEntity
  8
出力ｷﾊ_ﾝ
100
AcDbLine
 10
-1232.129254892833
 20
1654.456968658318
 30
0.0
 11
-1232.129254892833
 21
1655.081968658318
 31
0.0
  0
LINE
  5
14562
330
1A
100
AcDbEntity
  8
ZISSEN1
100
AcDbLine
 10
-1241.611853145857
 20
1643.407629730357
 30
0.0
 11
-1235.161853145857
 21
1643.407629730357
 31
0.0
  0
LINE
  5
14563
330
1A
100
AcDbEntity
  8
ZISSEN1
100
AcDbLine
 10
-1235.161853145857
 20
1650.907629730356
 30
0.0
 11
-1241.611853145857
 21
1650.907629730356
 31
0.0
  0
LINE
  5
14564
330
1A
100
AcDbEntity
  8
ZISSEN1
100
AcDbLine
 10
-1241.611853145857
 20
1650.907629730356
 30
0.0
 11
-1241.611853145857
 21
1643.407629730357
 31
0.0
  0
LINE
  5
14565
330
1A
100
AcDbEntity
  8
ZISSEN1
100
AcDbLine
 10
-1235.161853145857
 20
1643.407629730357
 30
0.0
 11
-1235.161853145857
 21
1650.907629730356
 31
0.0
  0
LWPOLYLINE
  5
14567
330
1A
100
AcDbEntity
  8
ZISSEN1
100
AcDbPolyline
 90
        4
 70
     1
 43
0.0
 10
-1230.646853145856
 20
1642.607629730357
 10
-1225.046853145856
 20
1642.607629730357
 10
-1225.046853145856
 20
1636.007629730357
 10
-1230.646853145856
 20
1636.007629730357
  0
LWPOLYLINE
  5
14568
330
1A
100
AcDbEntity
  8
ZISSEN1
100
AcDbPolyline
 90
        4
 70
     1
 43
0.0
 10
-1230.646853145857
 20
1649.707629730357
 10
-1225.046853145856
 20
1649.707629730357
 10
-1225.046853145856
 20
1643.107629730356
 10
-1230.646853145857
 20
1643.107629730356
  0
LINE
  5
1456B
330
1A
100
AcDbEntity
  8
出力ｷﾊ_ﾝ
100
AcDbLine
 10
-1167.145509411007
 20
1652.456968658318
 30
0.0
 11
-1166.045509411007
 21
1652.456968658318
 31
0.0
  0
LINE
  5
1456C
330
1A
100
AcDbEntity
  8
出力ｷﾊ_ﾝ
100
AcDbLine
 10
-1166.045509411007
 20
1653.706968658318
 30
0.0
 11
-1167.145509411007
 21
1653.706968658318
 31
0.0
  0
LINE
  5
1456D
330
1A
100
AcDbEntity
  8
出力ｷﾊ_ﾝ
100
AcDbLine
 10
-1166.045509411007
 20
1652.456968658318
 30
0.0
 11
-1166.345509411007
 21
1652.456968658318
 31
0.0
  0
LINE
  5
1456E
330
1A
100
AcDbEntity
  8
出力ｷﾊ_ﾝ
100
AcDbLine
 10
-1167.145509411007
 20
1652.456968658318
 30
0.0
 11
-1167.145509411007
 21
1653.081968658318
 31
0.0
  0
LINE
  5
1456F
330
1A
100
AcDbEntity
  8
出力ｷﾊ_ﾝ
100
AcDbLine
 10
-1167.145509411007
 20
1653.706968658318
 30
0.0
 11
-1167.145509411007
 21
1653.081968658318
 31
0.0
  0
LINE
  5
14570
330
1A
100
AcDbEntity
  8
出力ｷﾊ_ﾝ
100
AcDbLine
 10
-1166.045509411007
 20
1652.456968658318
 30
0.0
 11
-1166.045509411007
 21
1653.706968658318
 31
0.0
  0
LINE
  5
14571
330
1A
100
AcDbEntity
  8
出力ｷﾊ_ﾝ
100
AcDbLine
 10
-1166.045509411007
 20
1655.706968658318
 30
0.0
 11
-1167.145509411007
 21
1655.706968658318
 31
0.0
  0
LINE
  5
14572
330
1A
100
AcDbEntity
  8
出力ｷﾊ_ﾝ
100
AcDbLine
 10
-1167.145509411007
 20
1654.456968658318
 30
0.0
 11
-1166.045509411007
 21
1654.456968658318
 31
0.0
  0
LINE
  5
14573
330
1A
100
AcDbEntity
  8
出力ｷﾊ_ﾝ
100
AcDbLine
 10
-1166.045509411007
 20
1654.456968658318
 30
0.0
 11
-1166.345509411007
 21
1654.456968658318
 31
0.0
  0
LINE
  5
14574
330
1A
100
AcDbEntity
  8
出力ｷﾊ_ﾝ
100
AcDbLine
 10
-1167.145509411007
 20
1655.706968658318
 30
0.0
 11
-1167.145509411007
 21
1654.456968658318
 31
0.0
  0
LINE
  5
14575
330
1A
100
AcDbEntity
  8
出力ｷﾊ_ﾝ
100
AcDbLine
 10
-1166.045509411007
 20
1654.456968658318
 30
0.0
 11
-1166.045509411007
 21
1655.706968658318
 31
0.0
  0
LINE
  5
14B0B
330
1A
100
AcDbEntity
  8
ZISSEN1
100
AcDbLine
 10
-1173.545509411007
 20
1650.407629730357
 30
0.0
 11
-1177.545509411007
 21
1650.407629730357
 31
0.0
  0
LINE
  5
14B0C
330
1A
100
AcDbEntity
  8
ZISSEN1
100
AcDbLine
 10
-1177.545509411007
 20
1642.807629730357
 30
0.0
 11
-1166.045509411007
 21
1642.807629730357
 31
0.0
  0
LINE
  5
14B0D
330
1A
100
AcDbEntity
  8
ZISSEN1
100
AcDbLine
 10
-1177.545509411007
 20
1642.807629730357
 30
0.0
 11
-1176.545509411007
 21
1642.807629730357
 31
0.0
  0
LINE
  5
14B0E
330
1A
100
AcDbEntity
  8
ZISSEN1
100
AcDbLine
 10
-1177.545509411007
 20
1650.407629730357
 30
0.0
 11
-1177.545509411007
 21
1648.907629730357
 31
0.0
  0
LINE
  5
14B0F
330
1A
100
AcDbEntity
  8
ZISSEN1
100
AcDbLine
 10
-1177.545509411007
 20
1650.407629730357
 30
0.0
 11
-1177.545509411007
 21
1643.607629730357
 31
0.0
  0
LINE
  5
14B10
330
1A
100
AcDbEntity
  8
ZISSEN1
100
AcDbLine
 10
-1177.545509411007
 20
1650.407629730357
 30
0.0
 11
-1177.545509411007
 21
1642.807629730357
 31
0.0
  0
LINE
  5
14B11
330
1A
100
AcDbEntity
  8
ZISSEN1
100
AcDbLine
 10
-1168.545509411007
 20
1642.607629730357
 30
0.0
 11
-1168.545509411007
 21
1636.007629730357
 31
0.0
  0
LINE
  5
14B12
330
1A
100
AcDbEntity
  8
ZISSEN1
100
AcDbLine
 10
-1168.545509411007
 20
1636.007629730357
 30
0.0
 11
-1166.045509411007
 21
1636.007629730357
 31
0.0
  0
LINE
  5
14B13
330
1A
100
AcDbEntity
  8
ZISSEN1
100
AcDbLine
 10
-1168.545509411007
 20
1649.707629730357
 30
0.0
 11
-1168.545509411007
 21
1643.107629730357
 31
0.0
  0
LINE
  5
14B14
330
1A
100
AcDbEntity
  8
ZISSEN1
100
AcDbLine
 10
-1166.045509411007
 20
1649.707629730357
 30
0.0
 11
-1168.545509411007
 21
1649.707629730357
 31
0.0
  0
LINE
  5
14B15
330
1A
100
AcDbEntity
  8
ZISSEN1
100
AcDbLine
 10
-1168.545509411007
 20
1643.107629730357
 30
0.0
 11
-1166.045509411007
 21
1643.107629730357
 31
0.0
  0
LINE
  5
14B16
330
1A
100
AcDbEntity
  8
ZISSEN1
100
AcDbLine
 10
-1166.045509411007
 20
1642.607629730357
 30
0.0
 11
-1168.545509411007
 21
1642.607629730357
 31
0.0
  0
LINE
  5
14B17
330
1A
100
AcDbEntity
  8
ZISSEN1
100
AcDbLine
 10
-1173.545509411007
 20
1650.907629730357
 30
0.0
 11
-1173.545509411007
 21
1643.407629730357
 31
0.0
  0
LINE
  5
14B18
330
1A
100
AcDbEntity
  8
ZISSEN1
100
AcDbLine
 10
-1166.045509411007
 20
1650.907629730357
 30
0.0
 11
-1173.545509411007
 21
1650.907629730357
 31
0.0
  0
LINE
  5
14B19
330
1A
100
AcDbEntity
  8
ZISSEN1
100
AcDbLine
 10
-1173.545509411007
 20
1643.407629730357
 30
0.0
 11
-1168.545509411007
 21
1643.407629730357
 31
0.0
  0
LINE
  5
14B4C
330
1A
100
AcDbEntity
  8
ZISSEN1
100
AcDbLine
 10
-1222.045509411006
 20
1538.90737709403
 30
0.0
 11
-1222.045509411006
 21
1547.80737709403
 31
0.0
  0
LINE
  5
14B4D
330
1A
100
AcDbEntity
  8
ZISSEN1
100
AcDbLine
 10
-1222.045509411006
 20
1531.30737709403
 30
0.0
 11
-1222.045509411006
 21
1538.90737709403
 31
0.0
  0
LINE
  5
14B4E
330
1A
100
AcDbEntity
  8
ZISSEN1
100
AcDbLine
 10
-1232.545509411006
 20
1555.406228425944
 30
0.0
 11
-1222.045509411006
 21
1555.406228425944
 31
0.0
  0
LINE
  5
14B4F
330
1A
100
AcDbEntity
  8
ZISSEN1
100
AcDbLine
 10
-1222.045509411006
 20
1555.406228425944
 30
0.0
 11
-1222.045509411006
 21
1547.80737709403
 31
0.0
  0
LINE
  5
14B50
330
1A
100
AcDbEntity
  8
ZISSEN1
100
AcDbLine
 10
-1232.545509411006
 20
1555.406228425944
 30
0.0
 11
-1232.545509411006
 21
1538.90737709403
 31
0.0
  0
LINE
  5
14B51
330
1A
100
AcDbEntity
  8
ZISSEN1
100
AcDbLine
 10
-1232.545509411006
 20
1531.30393108977
 30
0.0
 11
-1232.545509411006
 21
1537.30393108977
 31
0.0
  0
LINE
  5
14B52
330
1A
100
AcDbEntity
  8
KAKURESEN1
100
AcDbLine
 10
-1232.545509411006
 20
1547.80737709403
 30
0.0
 11
-1222.045509411006
 21
1547.80737709403
 31
0.0
  0
LINE
  5
14B55
330
1A
100
AcDbEntity
  8
ZISSEN1
100
AcDbLine
 10
-1241.611853145857
 20
1538.90737709403
 30
0.0
 11
-1241.611853145857
 21
1546.40737709403
 31
0.0
  0
LINE
  5
14B56
330
1A
100
AcDbEntity
  8
ZISSEN1
100
AcDbLine
 10
-1241.611853145857
 20
1546.40737709403
 30
0.0
 11
-1235.161853145857
 21
1546.40737709403
 31
0.0
  0
LINE
  5
14B57
330
1A
100
AcDbEntity
  8
ZISSEN1
100
AcDbLine
 10
-1235.161853145857
 20
1546.40737709403
 30
0.0
 11
-1235.161853145857
 21
1538.90737709403
 31
0.0
  0
LINE
  5
14B5C
330
1A
100
AcDbEntity
  8
ZISSEN1
100
AcDbLine
 10
-1158.445509411006
 20
1632.597629730357
 30
0.0
 11
-1174.945509411007
 21
1632.597629730357
 31
0.0
  0
LINE
  5
14B5D
330
1A
100
AcDbEntity
  8
ZISSEN1
100
AcDbLine
 10
-1174.945509411007
 20
1632.597629730357
 30
0.0
 11
-1174.945509411007
 21
1616.817629730357
 31
0.0
  0
LINE
  5
14B5E
330
1A
100
AcDbEntity
  8
ZISSEN1
100
AcDbLine
 10
-1174.945509411007
 20
1616.817629730357
 30
0.0
 11
-1158.445509411007
 21
1616.817629730357
 31
0.0
  0
LINE
  5
14B5F
330
1A
100
AcDbEntity
  8
ZISSEN1
100
AcDbLine
 10
-1166.045509411007
 20
1615.337629730357
 30
0.0
 11
-1182.545509411007
 21
1615.337629730357
 31
0.0
  0
LINE
  5
14B60
330
1A
100
AcDbEntity
  8
ZISSEN1
100
AcDbLine
 10
-1182.545509411007
 20
1615.337629730357
 30
0.0
 11
-1182.545509411007
 21
1607.477629730357
 31
0.0
  0
LINE
  5
14B61
330
1A
100
AcDbEntity
  8
ZISSEN1
100
AcDbLine
 10
-1182.545509411007
 20
1607.477629730357
 30
0.0
 11
-1166.045509411007
 21
1607.477629730357
 31
0.0
  0
LINE
  5
14BF1
330
1A
100
AcDbEntity
  8
CL1
100
AcDbLine
 10
-1303.22166450666
 20
1654.907629730357
 30
0.0
 11
-1307.075519204805
 21
1654.907629730357
 31
0.0
  0
LINE
  5
14BF3
330
1A
100
AcDbEntity
  8
CL1
100
AcDbLine
 10
-1303.191654712861
 20
1591.907629730356
 30
0.0
 11
-1307.045509411006
 21
1591.907629730356
 31
0.0
  0
LINE
  5
14BF7
330
1A
100
AcDbEntity
  8
CL1
100
AcDbLine
 10
-1226.545509411006
 20
1531.030014285873
 30
0.0
 11
-1226.545509411006
 21
1525.90393108977
 31
0.0
  0
LINE
  5
14BFC
330
1A
100
AcDbEntity
  8
CL1
100
AcDbLine
 10
-1307.545509411007
 20
1544.40393108977
 30
0.0
 11
-1302.333735975635
 21
1544.40393108977
 31
0.0
  0
DIMENSION
  5
14D58
330
1A
100
AcDbEntity
  8
SUNPOU
100
AcDbDimension
  2
*D13
 10
-1298.545509411006
 20
1581.40707629385
 30
0.0
 11
-1302.545509411006
 21
1584.15707629385
 31
0.0
 70
    32
  3
標準スタイル
100
AcDbAlignedDimension
 13
-1306.545509411007
 23
1589.407629730357
 33
0.0
 14
-1298.545509411006
 24
1650.407629730357
 34
0.0
100
AcDbRotatedDimension
1001
ACAD
1000
DSTYLE
1002
{
1070
   340
1005
10
1070
    40
1040
1.0
1002
}
  0
DIMENSION
  5
14D65
330
1A
100
AcDbEntity
  8
SUNPOU
100
AcDbDimension
  2
*D14
 10
-1226.545509411006
 20
1581.403931089769
 30
0.0
 11
-1262.545509411006
 21
1584.153931089769
 31
0.0
 70
    32
  3
標準スタイル
100
AcDbAlignedDimension
 13
-1298.545509411006
 23
1651.907629730357
 33
0.0
 14
-1226.545509411006
 24
1589.407629730357
 34
0.0
100
AcDbRotatedDimension
1001
ACAD
1000
DSTYLE
1002
{
1070
   340
1005
10
1070
    40
1040
1.0
1002
}
  0
VIEWPORT
  5
5D8F
330
5D8E
100
AcDbEntity
 67
     1
  8
0
100
AcDbViewport
 10
279.2941682835933
 20
157.6993180808601
 30
0.0
 40
688.9841201495081
 41
314.237268371582
 68
     1
 69
     1
1001
ACAD
1000
MVIEW
1002
{
1070
    16
1010
0.0
1020
0.0
1030
0.0
1010
0.0
1020
0.0
1030
1.0
1040
0.0
1040
314.237268371582
1040
279.2941682835933
1040
157.6993180808601
1040
50.0
1040
0.0
1040
0.0
1070
     0
1070
   100
1070
     1
1070
     0
1070
     0
1070
     0
1070
     0
1070
     0
1040
0.0
1040
0.0
1040
0.0
1040
1.0
1040
1.0
1040
10.0
1040
10.0
1070
     0
1002
{
1002
}
1002
}
  0
VIEWPORT
  5
6001
330
5D8E
100
AcDbEntity
 67
     1
  8
ZISSEN1
100
AcDbViewport
 10
221.7861955525412
 20
157.6960273330388
 30
0.0
 40
385.4999999999997
 41
259.9999999999999
 68
     2
 69
     2
1001
ACAD
1000
MVIEW
1002
{
1070
    16
1010
0.0
1020
0.0
1030
0.0
1010
0.0
1020
0.0
1030
1.0
1040
0.0
1040
259.9999999999999
1040
-1231.510439572765
1040
1597.522664279137
1040
50.0
1040
0.0
1040
0.0
1070
     0
1070
   100
1070
     1
1070
     0
1070
     0
1070
     0
1070
     0
1070
     0
1040
0.0
1040
0.0
1040
0.0
1040
1.0
1040
1.0
1040
10.0
1040
10.0
1070
     0
1002
{
1002
}
1002
}
  0
TEXT
  5
716F
330
5D8E
100
AcDbEntity
 67
     1
  8
SUNPOU
 62
     0
100
AcDbText
 10
374.1863124306944
 20
60.86794705907585
 30
0.0
 40
3.5
  1
縮尺 1/1
  7
ゴシック体
100
AcDbText
  0
ENDSEC
  0
SECTION
  2
OBJECTS
  0
DICTIONARY
  5
C
330
0
100
AcDbDictionary
  3
ACAD_GROUP
350
D
  3
ACAD_LAYOUT
350
5C7D
  3
ACAD_MLINESTYLE
350
E
  3
ACAD_PLOTSETTINGS
350
5C7E
  3
ACAD_PLOTSTYLENAME
350
5C7B
  3
DWGPROPS
350
12861
  3
ACDBVARIABLEDICTIONARY
350
14D95
  3
ACDBHEADERROUNDTRIPXREC
350
14D97
  0
DICTIONARY
  5
14DB7
330
1A
100
AcDbDictionary
280
     1
  3
ACAD_LAYOUTSELFREF
360
14DB8
  0
DICTIONARY
  5
14DB9
330
5D8E
100
AcDbDictionary
280
     1
  3
ACAD_LAYOUTSELFREF
360
14DBA
  0
DICTIONARY
  5
D
102
{ACAD_REACTORS
330
C
102
}
330
C
100
AcDbDictionary
  3
*A1
350
477D
  3
*A2
350
4C10
  3
*A3
350
4C11
  3
*A4
350
4C12
  3
*A5
350
4C13
  3
*A6
350
4C14
  3
*A7
350
4C15
  3
*A8
350
1456A
  3
*A9
350
14B27
  3
*A10
350
4C16
  3
*A11
350
4C17
  3
*A12
350
477E
  3
*A13
350
477F
  3
*A14
350
4780
  3
*A15
350
4781
  3
*A16
350
4C0E
  3
*A17
350
4C0F
  0
DICTIONARY
  5
5C7D
102
{ACAD_REACTORS
330
C
102
}
330
C
100
AcDbDictionary
  0
DICTIONARY
  5
E
102
{ACAD_REACTORS
330
C
102
}
330
C
100
AcDbDictionary
  3
STANDARD
350
13
  0
DICTIONARY
  5
5C7E
102
{ACAD_REACTORS
330
C
102
}
330
C
100
AcDbDictionary
  0
ACDBDICTIONARYWDFLT
  5
5C7B
102
{ACAD_REACTORS
330
C
102
}
330
C
100
AcDbDictionary
281
     1
  3
Normal
350
5C7C
100
AcDbDictionaryWithDefault
340
5C7C
  0
XRECORD
  5
12861
102
{ACAD_REACTORS
330
C
102
}
330
C
100
AcDbXrecord
  1
DWGPROPS COOKIE
  2

  3

  4

  6

  7

  8

  9

300
=
301
=
302
=
303
=
304
=
305
=
306
=
307
=
308
=
309
=
 40
1.583646701388888
 41
2450495.493631365
 42
2455325.72058449
  1

 90
        0
  0
DICTIONARY
  5
14D95
102
{ACAD_REACTORS
330
C
102
}
330
C
100
AcDbDictionary
  3
INDEXCTL
350
14D96
  0
DICTIONARY
  5
14D97
102
{ACAD_REACTORS
330
C
102
}
330
C
100
AcDbDictionary
  3
TSTACKALIGN
350
14D98
  3
TSTACKSIZE
350
14D99
  3
HYPERLINKBASE
350
14D9A
  3
STYLESHEET
350
14D9B
  3
LAYOUTDICT
350
14D9C
  3
PLOTSETDICT
350
14D9D
  3
PLOTSTYLNAMDICT
350
14D9E
  3
LWETCUNION
350
14D9F
  3
INSUNITS
350
14DA0
  3
CEPSNTYPE
350
14DA1
  3
FINGERPRINTGUID
350
14DA2
  3
VERSIONGUID
350
14DA3
  3
PSVPSCALE
350
14DA4
  3
PUCSORTHOREF
350
14DA5
  3
PUCSORTHOVIEW
350
14DA6
  3
PUCSBASE
350
14DA7
  3
PUCSORGTOP
350
14DA8
  3
PUCSORGBOTTOM
350
14DA9
  3
PUCSORGLEFT
350
14DAA
  3
PUCSORGRIGHT
350
14DAB
  3
PUCSORGFRONT
350
14DAC
  3
PUCSORGBACK
350
14DAD
  3
UCSORTHOREF
350
14DAE
  3
UCSORTHOVIEW
350
14DAF
  3
UCSBASE
350
14DB0
  3
UCSORGTOP
350
14DB1
  3
UCSORGBOTTOM
350
14DB2
  3
UCSORGLEFT
350
14DB3
  3
UCSORGRIGHT
350
14DB4
  3
UCSORGFRONT
350
14DB5
  3
UCSORGBACK
350
14DB6
  0
XRECORD
  5
14DB8
102
{ACAD_REACTORS
330
14DB7
102
}
330
14DB7
100
AcDbXrecord
340
1A
  0
XRECORD
  5
14DBA
102
{ACAD_REACTORS
330
14DB9
102
}
330
14DB9
100
AcDbXrecord
340
5D8E
  0
GROUP
  5
477D
102
{ACAD_REACTORS
330
D
102
}
330
D
100
AcDbGroup
300

 70
     1
 71
     1
  0
GROUP
  5
4C10
102
{ACAD_REACTORS
330
D
102
}
330
D
100
AcDbGroup
300

 70
     1
 71
     1
  0
GROUP
  5
4C11
102
{ACAD_REACTORS
330
D
102
}
330
D
100
AcDbGroup
300

 70
     1
 71
     1
  0
GROUP
  5
4C12
102
{ACAD_REACTORS
330
D
102
}
330
D
100
AcDbGroup
300

 70
     1
 71
     1
  0
GROUP
  5
4C13
102
{ACAD_REACTORS
330
D
102
}
330
D
100
AcDbGroup
300

 70
     1
 71
     1
  0
GROUP
  5
4C14
102
{ACAD_REACTORS
330
D
102
}
330
D
100
AcDbGroup
300

 70
     1
 71
     1
  0
GROUP
  5
4C15
102
{ACAD_REACTORS
330
D
102
}
330
D
100
AcDbGroup
300

 70
     1
 71
     1
  0
GROUP
  5
1456A
102
{ACAD_REACTORS
330
D
102
}
330
D
100
AcDbGroup
300

 70
     1
 71
     1
  0
GROUP
  5
14B27
102
{ACAD_REACTORS
330
D
102
}
330
D
100
AcDbGroup
300

 70
     1
 71
     1
  0
GROUP
  5
4C16
102
{ACAD_REACTORS
330
D
102
}
330
D
100
AcDbGroup
300

 70
     1
 71
     1
  0
GROUP
  5
4C17
102
{ACAD_REACTORS
330
D
102
}
330
D
100
AcDbGroup
300

 70
     1
 71
     1
  0
GROUP
  5
477E
102
{ACAD_REACTORS
330
D
102
}
330
D
100
AcDbGroup
300

 70
     1
 71
     1
  0
GROUP
  5
477F
102
{ACAD_REACTORS
330
D
102
}
330
D
100
AcDbGroup
300

 70
     1
 71
     1
  0
GROUP
  5
4780
102
{ACAD_REACTORS
330
D
102
}
330
D
100
AcDbGroup
300

 70
     1
 71
     1
  0
GROUP
  5
4781
102
{ACAD_REACTORS
330
D
102
}
330
D
100
AcDbGroup
300

 70
     1
 71
     1
  0
GROUP
  5
4C0E
102
{ACAD_REACTORS
330
D
102
}
330
D
100
AcDbGroup
300

 70
     1
 71
     1
  0
GROUP
  5
4C0F
102
{ACAD_REACTORS
330
D
102
}
330
D
100
AcDbGroup
300

 70
     1
 71
     1
  0
MLINESTYLE
  5
13
102
{ACAD_REACTORS
330
E
102
}
330
E
100
AcDbMlineStyle
  2
STANDARD
 70
     0
  3

 62
     0
 51
90.0
 52
90.0
 71
     2
 49
0.5
 62
   256
  6
BYLAYER
 49
-0.5
 62
   256
  6
BYLAYER
  0
ACDBPLACEHOLDER
  5
5C7C
102
{ACAD_REACTORS
330
5C7B
102
}
330
5C7B
100
AcDbPlaceHolder
280
     0
  0
DICTIONARYVAR
  5
14D96
102
{ACAD_REACTORS
330
14D95
102
}
330
14D95
100
DictionaryVariables
280
     0
  1
-1
  0
XRECORD
  5
14D98
102
{ACAD_REACTORS
330
14D97
102
}
330
14D97
100
AcDbXrecord
 90
        1
  0
XRECORD
  5
14D99
102
{ACAD_REACTORS
330
14D97
102
}
330
14D97
100
AcDbXrecord
 90
       70
  0
XRECORD
  5
14D9A
102
{ACAD_REACTORS
330
14D97
102
}
330
14D97
100
AcDbXrecord
  1

  0
XRECORD
  5
14D9B
102
{ACAD_REACTORS
330
14D97
102
}
330
14D97
100
AcDbXrecord
  1

  0
XRECORD
  5
14D9C
102
{ACAD_REACTORS
330
14D97
102
}
330
14D97
100
AcDbXrecord
340
5C7D
  0
XRECORD
  5
14D9D
102
{ACAD_REACTORS
330
14D97
102
}
330
14D97
100
AcDbXrecord
340
5C7E
  0
XRECORD
  5
14D9E
102
{ACAD_REACTORS
330
14D97
102
}
330
14D97
100
AcDbXrecord
340
5C7B
  0
XRECORD
  5
14D9F
102
{ACAD_REACTORS
330
14D97
102
}
330
14D97
100
AcDbXrecord
 90
    10781
  0
XRECORD
  5
14DA0
102
{ACAD_REACTORS
330
14D97
102
}
330
14D97
100
AcDbXrecord
 90
        0
  0
XRECORD
  5
14DA1
102
{ACAD_REACTORS
330
14D97
102
}
330
14D97
100
AcDbXrecord
 90
        0
  0
XRECORD
  5
14DA2
102
{ACAD_REACTORS
330
14D97
102
}
330
14D97
100
AcDbXrecord
  1
{225A7F0D-DA29-11D8-946A-0000E2416295}
  0
XRECORD
  5
14DA3
102
{ACAD_REACTORS
330
14D97
102
}
330
14D97
100
AcDbXrecord
  1
{CF996425-2456-4B72-B0C9-3E04951477F0}
  0
XRECORD
  5
14DA4
102
{ACAD_REACTORS
330
14D97
102
}
330
14D97
100
AcDbXrecord
 40
0.0
  0
XRECORD
  5
14DA5
102
{ACAD_REACTORS
330
14D97
102
}
330
14D97
100
AcDbXrecord
340
0
  0
XRECORD
  5
14DA6
102
{ACAD_REACTORS
330
14D97
102
}
330
14D97
100
AcDbXrecord
 70
     0
  0
XRECORD
  5
14DA7
102
{ACAD_REACTORS
330
14D97
102
}
330
14D97
100
AcDbXrecord
340
0
  0
XRECORD
  5
14DA8
102
{ACAD_REACTORS
330
14D97
102
}
330
14D97
100
AcDbXrecord
 10
0.0
 20
0.0
 30
0.0
  0
XRECORD
  5
14DA9
102
{ACAD_REACTORS
330
14D97
102
}
330
14D97
100
AcDbXrecord
 10
0.0
 20
0.0
 30
0.0
  0
XRECORD
  5
14DAA
102
{ACAD_REACTORS
330
14D97
102
}
330
14D97
100
AcDbXrecord
 10
0.0
 20
0.0
 30
0.0
  0
XRECORD
  5
14DAB
102
{ACAD_REACTORS
330
14D97
102
}
330
14D97
100
AcDbXrecord
 10
0.0
 20
0.0
 30
0.0
  0
XRECORD
  5
14DAC
102
{ACAD_REACTORS
330
14D97
102
}
330
14D97
100
AcDbXrecord
 10
0.0
 20
0.0
 30
0.0
  0
XRECORD
  5
14DAD
102
{ACAD_REACTORS
330
14D97
102
}
330
14D97
100
AcDbXrecord
 10
0.0
 20
0.0
 30
0.0
  0
XRECORD
  5
14DAE
102
{ACAD_REACTORS
330
14D97
102
}
330
14D97
100
AcDbXrecord
340
0
  0
XRECORD
  5
14DAF
102
{ACAD_REACTORS
330
14D97
102
}
330
14D97
100
AcDbXrecord
 70
     0
  0
XRECORD
  5
14DB0
102
{ACAD_REACTORS
330
14D97
102
}
330
14D97
100
AcDbXrecord
340
0
  0
XRECORD
  5
14DB1
102
{ACAD_REACTORS
330
14D97
102
}
330
14D97
100
AcDbXrecord
 10
0.0
 20
0.0
 30
0.0
  0
XRECORD
  5
14DB2
102
{ACAD_REACTORS
330
14D97
102
}
330
14D97
100
AcDbXrecord
 10
0.0
 20
0.0
 30
0.0
  0
XRECORD
  5
14DB3
102
{ACAD_REACTORS
330
14D97
102
}
330
14D97
100
AcDbXrecord
 10
0.0
 20
0.0
 30
0.0
  0
XRECORD
  5
14DB4
102
{ACAD_REACTORS
330
14D97
102
}
330
14D97
100
AcDbXrecord
 10
0.0
 20
0.0
 30
0.0
  0
XRECORD
  5
14DB5
102
{ACAD_REACTORS
330
14D97
102
}
330
14D97
100
AcDbXrecord
 10
0.0
 20
0.0
 30
0.0
  0
XRECORD
  5
14DB6
102
{ACAD_REACTORS
330
14D97
102
}
330
14D97
100
AcDbXrecord
 10
0.0
 20
0.0
 30
0.0
  0
ENDSEC
  0
EOF
