  0
SECTION
  2
HEADER
  9
$ACADVER
  1
AC1014
  9
$ACADMAINTVER
 70
     9
  9
$DWGCODEPAGE
  3
ANSI_932
  9
$INSBASE
 10
0.0
 20
0.0
 30
0.0
  9
$EXTMIN
 10
-1872.591457180787
 20
1639.814319111223
 30
-0.00000001
  9
$EXTMAX
 10
-1430.403429941049
 20
2008.852179717625
 30
0.00000001
  9
$LIMMIN
 10
0.0
 20
0.0
  9
$LIMMAX
 10
420.0
 20
297.0
  9
$ORTHOMODE
 70
     0
  9
$REGENMODE
 70
     1
  9
$FILLMODE
 70
     1
  9
$QTEXTMODE
 70
     0
  9
$MIRRTEXT
 70
     1
  9
$DRAGMODE
 70
     2
  9
$LTSCALE
 40
1.0
  9
$OSMODE
 70
    37
  9
$ATTMODE
 70
     1
  9
$TEXTSIZE
 40
2.5
  9
$TRACEWID
 40
1.0
  9
$TEXTSTYLE
  7
ゴシック体
  9
$CLAYER
  8
ZISSEN1
  9
$CELTYPE
  6
BYLAYER
  9
$CECOLOR
 62
   256
  9
$CELTSCALE
 40
1.0
  9
$DELOBJ
 70
     1
  9
$DISPSILH
 70
     0
  9
$DIMSCALE
 40
0.0
  9
$DIMASZ
 40
3.0
  9
$DIMEXO
 40
0.5
  9
$DIMDLI
 40
0.5
  9
$DIMRND
 40
0.0
  9
$DIMDLE
 40
0.0
  9
$DIMEXE
 40
0.5
  9
$DIMTP
 40
0.0
  9
$DIMTM
 40
0.0
  9
$DIMTXT
 40
3.5
  9
$DIMCEN
 40
0.0
  9
$DIMTSZ
 40
0.0
  9
$DIMTOL
 70
     0
  9
$DIMLIM
 70
     0
  9
$DIMTIH
 70
     0
  9
$DIMTOH
 70
     0
  9
$DIMSE1
 70
     0
  9
$DIMSE2
 70
     0
  9
$DIMTAD
 70
     1
  9
$DIMZIN
 70
     8
  9
$DIMBLK
  1

  9
$DIMASO
 70
     1
  9
$DIMSHO
 70
     1
  9
$DIMPOST
  1

  9
$DIMAPOST
  1

  9
$DIMALT
 70
     0
  9
$DIMALTD
 70
     2
  9
$DIMALTF
 40
25.4
  9
$DIMLFAC
 40
1.0
  9
$DIMTOFL
 70
     1
  9
$DIMTVP
 40
0.0
  9
$DIMTIX
 70
     0
  9
$DIMSOXD
 70
     0
  9
$DIMSAH
 70
     0
  9
$DIMBLK1
  1

  9
$DIMBLK2
  1

  9
$DIMSTYLE
  2
標準スタイル
  9
$DIMCLRD
 70
     1
  9
$DIMCLRE
 70
     1
  9
$DIMCLRT
 70
     1
  9
$DIMTFAC
 40
1.0
  9
$DIMGAP
 40
1.0
  9
$DIMJUST
 70
     0
  9
$DIMSD1
 70
     0
  9
$DIMSD2
 70
     0
  9
$DIMTOLJ
 70
     1
  9
$DIMTZIN
 70
     8
  9
$DIMALTZ
 70
     0
  9
$DIMALTTZ
 70
     0
  9
$DIMFIT
 70
     3
  9
$DIMUPT
 70
     0
  9
$DIMUNIT
 70
     2
  9
$DIMDEC
 70
     2
  9
$DIMTDEC
 70
     2
  9
$DIMALTU
 70
     2
  9
$DIMALTTD
 70
     2
  9
$DIMTXSTY
  7
ゴシック体
  9
$DIMAUNIT
 70
     0
  9
$LUNITS
 70
     2
  9
$LUPREC
 70
     4
  9
$SKETCHINC
 40
1.0
  9
$FILLETRAD
 40
1.0
  9
$AUNITS
 70
     0
  9
$AUPREC
 70
     0
  9
$MENU
  1
.
  9
$ELEVATION
 40
0.0
  9
$PELEVATION
 40
0.0
  9
$THICKNESS
 40
0.0
  9
$LIMCHECK
 70
     0
  9
$BLIPMODE
 70
     0
  9
$CHAMFERA
 40
10.0
  9
$CHAMFERB
 40
10.0
  9
$CHAMFERC
 40
2.0
  9
$CHAMFERD
 40
0.7853981633974483
  9
$SKPOLY
 70
     0
  9
$TDCREATE
 40
2450495.493631365
  9
$TDUPDATE
 40
2454488.636623900
  9
$TDINDWG
 40
1.5897886690
  9
$TDUSRTIMER
 40
1.5897886690
  9
$USRTIMER
 70
     1
  9
$ANGBASE
 50
0.0
  9
$ANGDIR
 70
     0
  9
$PDMODE
 70
    99
  9
$PDSIZE
 40
0.0
  9
$PLINEWID
 40
0.0
  9
$COORDS
 70
     1
  9
$SPLFRAME
 70
     0
  9
$SPLINETYPE
 70
     6
  9
$SPLINESEGS
 70
     8
  9
$ATTDIA
 70
     0
  9
$ATTREQ
 70
     1
  9
$HANDLING
 70
 10241
  9
$HANDSEED
  5
134DC
  9
$SURFTAB1
 70
     6
  9
$SURFTAB2
 70
     6
  9
$SURFTYPE
 70
     6
  9
$SURFU
 70
     6
  9
$SURFV
 70
     6
  9
$UCSNAME
  2

  9
$UCSORG
 10
0.0
 20
0.0
 30
0.0
  9
$UCSXDIR
 10
1.0
 20
0.0
 30
0.0
  9
$UCSYDIR
 10
0.0
 20
1.0
 30
0.0
  9
$PUCSNAME
  2

  9
$PUCSORG
 10
0.0
 20
0.0
 30
0.0
  9
$PUCSXDIR
 10
1.0
 20
0.0
 30
0.0
  9
$PUCSYDIR
 10
0.0
 20
1.0
 30
0.0
  9
$USERI1
 70
     0
  9
$USERI2
 70
     0
  9
$USERI3
 70
     0
  9
$USERI4
 70
     0
  9
$USERI5
 70
     0
  9
$USERR1
 40
0.0
  9
$USERR2
 40
0.0
  9
$USERR3
 40
0.0
  9
$USERR4
 40
0.0
  9
$USERR5
 40
0.0
  9
$WORLDVIEW
 70
     1
  9
$SHADEDGE
 70
     3
  9
$SHADEDIF
 70
    70
  9
$TILEMODE
 70
     0
  9
$MAXACTVP
 70
    16
  9
$PINSBASE
 10
0.0
 20
0.0
 30
0.0
  9
$PLIMCHECK
 70
     0
  9
$PEXTMIN
 10
29.03619555254135
 20
27.69602733303884
 30
0.0
  9
$PEXTMAX
 10
414.5361955525411
 20
287.6960273330388
 30
0.0
  9
$PLIMMIN
 10
11.83213928317586
 20
9.19665609355764
  9
$PLIMMAX
 10
431.7787945566133
 20
306.2073067283232
  9
$UNITMODE
 70
     0
  9
$VISRETAIN
 70
     0
  9
$PLINEGEN
 70
     0
  9
$PSLTSCALE
 70
     1
  9
$TREEDEPTH
 70
  3020
  9
$PICKSTYLE
 70
     1
  9
$CMLSTYLE
  2
STANDARD
  9
$CMLJUST
 70
     0
  9
$CMLSCALE
 40
1.0
  9
$PROXYGRAPHICS
 70
     1
  9
$MEASUREMENT
 70
     1
  0
ENDSEC
  0
SECTION
  2
CLASSES
  0
CLASS
  1
LWPOLYLINE
  2
AcDbPolyline
  3
AutoCAD 2000
 90
        0
280
     0
281
     1
  0
CLASS
  1
HATCH
  2
AcDbHatch
  3
AutoCAD 2000
 90
        0
280
     0
281
     1
  0
CLASS
  1
ACDBDICTIONARYWDFLT
  2
AcDbDictionaryWithDefault
  3
AutoCAD 2000
 90
        0
280
     0
281
     0
  0
CLASS
  1
ACDBPLACEHOLDER
  2
AcDbPlaceHolder
  3
AutoCAD 2000
 90
        0
280
     0
281
     0
  0
CLASS
  1
LAYOUT
  2
AcDbLayout
  3
AutoCAD 2000
 90
        0
280
     0
281
     0
  0
CLASS
  1
LONG_TRANSACTION
  2
AcDbLongTransaction
  3
AutoCAD 2000
 90
        0
280
     0
281
     0
  0
CLASS
  1
LWPOLYLINE
  2
AcDbPolyline
  3
AutoCAD 2000
 90
        0
280
     0
281
     1
  0
CLASS
  1
HATCH
  2
AcDbHatch
  3
AutoCAD 2000
 90
        0
280
     0
281
     1
  0
CLASS
  1
XRECORD
  2
AcDbXrecord
  3
AutoCAD 2000
 90
        0
280
     0
281
     0
  0
ENDSEC
  0
SECTION
  2
TABLES
  0
TABLE
  2
VPORT
  5
8
330
0
100
AcDbSymbolTable
 70
     2
  0
VPORT
  5
134AC
330
8
100
AcDbSymbolTableRecord
100
AcDbViewportTableRecord
  2
*ACTIVE
 70
     0
 10
0.0
 20
0.0
 11
1.0
 21
1.0
 12
-1597.394809045833
 22
1824.307895981795
 13
0.0
 23
0.0
 14
5.0
 24
5.0
 15
0.0
 25
0.0
 16
0.0
 26
0.0
 36
1.0
 17
0.0
 27
0.0
 37
0.0
 40
373.290869062017
 41
2.040733197556008
 42
50.0
 43
0.0
 44
0.0
 50
0.0
 51
0.0
 71
     0
 72
   100
 73
     1
 74
     0
 75
     0
 76
     0
 77
     0
 78
     0
  0
ENDTAB
  0
TABLE
  2
LTYPE
  5
5
330
0
100
AcDbSymbolTable
 70
     4
  0
LTYPE
  5
14
330
5
100
AcDbSymbolTableRecord
100
AcDbLinetypeTableRecord
  2
BYBLOCK
 70
     0
  3

 72
    65
 73
     0
 40
0.0
  0
LTYPE
  5
15
330
5
100
AcDbSymbolTableRecord
100
AcDbLinetypeTableRecord
  2
BYLAYER
 70
     0
  3

 72
    65
 73
     0
 40
0.0
  0
LTYPE
  5
16
330
5
100
AcDbSymbolTableRecord
100
AcDbLinetypeTableRecord
  2
CONTINUOUS
 70
     0
  3
Solid line
 72
    65
 73
     0
 40
0.0
  0
LTYPE
  5
329
330
5
100
AcDbSymbolTableRecord
100
AcDbLinetypeTableRecord
  2
DASHEDX2
 70
     0
  3
____  ____  ____  ____  ____  ____  ____  ____ 
 72
    65
 73
     2
 40
1.5
 49
1.0
 74
     0
 49
-0.5
 74
     0
  0
LTYPE
  5
1956
330
5
100
AcDbSymbolTableRecord
100
AcDbLinetypeTableRecord
  2
CENTERX2
 70
     0
  3
________  __  ________  __  ________  __  _____
 72
    65
 73
     4
 40
4.0
 49
2.5
 74
     0
 49
-0.5
 74
     0
 49
0.5
 74
     0
 49
-0.5
 74
     0
  0
LTYPE
  5
1958
330
5
100
AcDbSymbolTableRecord
100
AcDbLinetypeTableRecord
  2
PHANTOMX2
 70
     0
  3
____________    ____    ____    ____________   
 72
    65
 73
     6
 40
5.0
 49
2.5
 74
     0
 49
-0.5
 74
     0
 49
0.5
 74
     0
 49
-0.5
 74
     0
 49
0.5
 74
     0
 49
-0.5
 74
     0
  0
ENDTAB
  0
TABLE
  2
LAYER
  5
2
330
0
100
AcDbSymbolTable
 70
     8
  0
LAYER
  5
F
330
2
100
AcDbSymbolTableRecord
100
AcDbLayerTableRecord
  2
0
 70
     0
 62
     7
  6
CONTINUOUS
  0
LAYER
  5
18F
330
2
100
AcDbSymbolTableRecord
100
AcDbLayerTableRecord
  2
ZISSEN1
 70
     0
 62
     7
  6
CONTINUOUS
  0
LAYER
  5
191
330
2
100
AcDbSymbolTableRecord
100
AcDbLayerTableRecord
  2
SAISEN
 70
     0
 62
     1
  6
CONTINUOUS
  0
LAYER
  5
529
330
2
100
AcDbSymbolTableRecord
100
AcDbLayerTableRecord
  2
SUNPOU
 70
     0
 62
     1
  6
CONTINUOUS
  0
LAYER
  5
1959
330
2
100
AcDbSymbolTableRecord
100
AcDbLayerTableRecord
  2
KAKURESEN1
 70
     0
 62
     3
  6
DASHEDX2
  0
LAYER
  5
195A
330
2
100
AcDbSymbolTableRecord
100
AcDbLayerTableRecord
  2
CL1
 70
     0
 62
   210
  6
CENTERX2
  0
LAYER
  5
195C
330
2
100
AcDbSymbolTableRecord
100
AcDbLayerTableRecord
  2
SOUZOUSEN
 70
     0
 62
     5
  6
PHANTOMX2
  0
LAYER
  5
3A9B
330
2
100
AcDbSymbolTableRecord
100
AcDbLayerTableRecord
  2
DEFPOINTS
 70
     0
 62
     7
  6
CONTINUOUS
  0
ENDTAB
  0
TABLE
  2
STYLE
  5
3
330
0
100
AcDbSymbolTable
 70
     2
  0
STYLE
  5
10
330
3
100
AcDbSymbolTableRecord
100
AcDbTextStyleTableRecord
  2
STANDARD
 70
     0
 40
0.0
 41
1.0
 50
0.0
 71
     0
 42
3.0
  3
txt
  4
BigFont
  0
STYLE
  5
1960
330
3
100
AcDbSymbolTableRecord
100
AcDbTextStyleTableRecord
  2
ゴシック体
 70
     0
 40
0.0
 41
1.0
 50
0.0
 71
     0
 42
2.5
  3
MS Gothic.ttf
  4

1001
ACAD
1000
MS Gothic
1071
    32817
  0
ENDTAB
  0
TABLE
  2
VIEW
  5
6
330
0
100
AcDbSymbolTable
 70
     0
  0
ENDTAB
  0
TABLE
  2
UCS
  5
7
330
0
100
AcDbSymbolTable
 70
     0
  0
ENDTAB
  0
TABLE
  2
APPID
  5
9
330
0
100
AcDbSymbolTable
 70
     5
  0
APPID
  5
11
330
9
100
AcDbSymbolTableRecord
100
AcDbRegAppTableRecord
  2
ACAD
 70
     0
  0
APPID
  5
4005
330
9
100
AcDbSymbolTableRecord
100
AcDbRegAppTableRecord
  2
CONTENTTABDATA
 70
     0
  0
APPID
  5
4006
330
9
100
AcDbSymbolTableRecord
100
AcDbRegAppTableRecord
  2
CONTENTCURRENTTAB
 70
     0
  0
APPID
  5
477B
330
9
100
AcDbSymbolTableRecord
100
AcDbRegAppTableRecord
  2
CONTENTBLOCKDESCRIPTION
 70
     0
  0
APPID
  5
477C
330
9
100
AcDbSymbolTableRecord
100
AcDbRegAppTableRecord
  2
CONTENTBLOCKICON
 70
     0
  0
ENDTAB
  0
TABLE
  2
DIMSTYLE
  5
A
330
0
100
AcDbSymbolTable
 70
     2
  0
DIMSTYLE
105
1D
330
A
100
AcDbSymbolTableRecord
100
AcDbDimStyleTableRecord
  2
STANDARD
 70
     0
  3

  4

  5

  6

  7

 40
1.0
 41
0.18
 42
0.0625
 43
0.38
 44
0.18
 45
0.0
 46
0.0
 47
0.0
 48
0.0
140
0.18
141
0.09
142
0.0
143
25.4
144
1.0
145
0.0
146
1.0
147
0.09
 71
     0
 72
     0
 73
     1
 74
     1
 75
     0
 76
     0
 77
     0
 78
     0
170
     0
171
     2
172
     0
173
     0
174
     0
175
     0
176
     0
177
     0
178
     0
270
     2
271
     4
272
     4
273
     2
274
     2
340
10
275
     0
280
     0
281
     0
282
     0
283
     1
284
     0
285
     0
286
     0
287
     3
288
     0
  0
DIMSTYLE
105
52E
102
{ACAD_REACTORS
330
12F15
330
12F16
330
12F1C
330
12F1E
330
12F1F
330
12F24
330
13031
330
13035
330
13036
330
13270
330
1327D
330
13297
102
}
330
A
100
AcDbSymbolTableRecord
100
AcDbDimStyleTableRecord
  2
標準スタイル
 70
     0
  3

  4

  5

  6

  7

 40
0.0
 41
3.0
 42
0.5
 43
0.5
 44
0.5
 45
0.0
 46
0.0
 47
0.0
 48
0.0
140
3.5
141
0.0
142
0.0
143
25.4
144
1.0
145
0.0
146
1.0
147
1.0
 71
     0
 72
     0
 73
     0
 74
     0
 75
     0
 76
     0
 77
     1
 78
     8
170
     0
171
     2
172
     1
173
     0
174
     0
175
     0
176
     1
177
     1
178
     1
270
     2
271
     2
272
     2
273
     2
274
     2
340
1960
275
     0
280
     0
281
     0
282
     0
283
     1
284
     8
285
     0
286
     0
287
     3
288
     0
  0
ENDTAB
  0
TABLE
  2
BLOCK_RECORD
  5
1
330
0
100
AcDbSymbolTable
 70
    12
  0
BLOCK_RECORD
  5
1A
102
{ACAD_XDICTIONARY
360
134CE
102
}
330
1
100
AcDbSymbolTableRecord
100
AcDbBlockTableRecord
  2
*MODEL_SPACE
  0
BLOCK_RECORD
  5
5D8E
102
{ACAD_XDICTIONARY
360
134D0
102
}
330
1
100
AcDbSymbolTableRecord
100
AcDbBlockTableRecord
  2
*PAPER_SPACE
  0
BLOCK_RECORD
  5
130BE
330
1
100
AcDbSymbolTableRecord
100
AcDbBlockTableRecord
  2
*D0
  0
BLOCK_RECORD
  5
130CA
330
1
100
AcDbSymbolTableRecord
100
AcDbBlockTableRecord
  2
*D1
  0
BLOCK_RECORD
  5
130D6
330
1
100
AcDbSymbolTableRecord
100
AcDbBlockTableRecord
  2
*D2
  0
BLOCK_RECORD
  5
130E4
330
1
100
AcDbSymbolTableRecord
100
AcDbBlockTableRecord
  2
*D3
  0
BLOCK_RECORD
  5
130F1
330
1
100
AcDbSymbolTableRecord
100
AcDbBlockTableRecord
  2
*D4
  0
BLOCK_RECORD
  5
130FD
330
1
100
AcDbSymbolTableRecord
100
AcDbBlockTableRecord
  2
*D5
  0
BLOCK_RECORD
  5
13123
330
1
100
AcDbSymbolTableRecord
100
AcDbBlockTableRecord
  2
*D6
  0
BLOCK_RECORD
  5
13130
330
1
100
AcDbSymbolTableRecord
100
AcDbBlockTableRecord
  2
*D7
  0
BLOCK_RECORD
  5
1313C
330
1
100
AcDbSymbolTableRecord
100
AcDbBlockTableRecord
  2
*D8
  0
BLOCK_RECORD
  5
13271
330
1
100
AcDbSymbolTableRecord
100
AcDbBlockTableRecord
  2
*D9
  0
BLOCK_RECORD
  5
1327E
330
1
100
AcDbSymbolTableRecord
100
AcDbBlockTableRecord
  2
*D10
  0
BLOCK_RECORD
  5
13298
330
1
100
AcDbSymbolTableRecord
100
AcDbBlockTableRecord
  2
*D11
  0
ENDTAB
  0
ENDSEC
  0
SECTION
  2
BLOCKS
  0
BLOCK
  5
1B
330
1A
100
AcDbEntity
  8
0
100
AcDbBlockBegin
  2
*MODEL_SPACE
 70
     0
 10
0.0
 20
0.0
 30
0.0
  3
*MODEL_SPACE
  1

  0
ENDBLK
  5
1C
330
1A
100
AcDbEntity
  8
0
100
AcDbBlockEnd
  0
BLOCK
  5
5E60
330
5D8E
100
AcDbEntity
 67
     1
  8
0
100
AcDbBlockBegin
  2
*PAPER_SPACE
 70
     0
 10
0.0
 20
0.0
 30
0.0
  3
*PAPER_SPACE
  1

  0
ENDBLK
  5
5E61
330
5D8E
100
AcDbEntity
 67
     1
  8
0
100
AcDbBlockEnd
  0
BLOCK
  5
130C8
330
130BE
100
AcDbEntity
  8
0
100
AcDbBlockBegin
  2
*D0
 70
     1
 10
0.0
 20
0.0
 30
0.0
  3
*D0
  1

  0
LINE
  5
1347B
330
130BE
100
AcDbEntity
  8
SUNPOU
 62
     1
100
AcDbLine
 10
-1622.753440941049
 20
1665.06049213777
 30
0.0
 11
-1622.753440941049
 21
1648.484645629014
 31
0.0
  0
LINE
  5
1347C
330
130BE
100
AcDbEntity
  8
SUNPOU
 62
     1
100
AcDbLine
 10
-1692.753443941049
 20
1649.429826406589
 30
0.0
 11
-1692.753443941049
 21
1649.484645629014
 31
0.0
  0
LINE
  5
1347D
330
130BE
100
AcDbEntity
  8
SUNPOU
 62
     1
100
AcDbLine
 10
-1625.753440941049
 20
1648.984645629014
 30
0.0
 11
-1689.753443941049
 21
1648.984645629014
 31
0.0
  0
SOLID
  5
1347E
330
130BE
100
AcDbEntity
  8
SUNPOU
 62
     1
100
AcDbTrace
 10
-1625.753440941049
 20
1649.484645629014
 30
0.0
 11
-1625.753440941049
 21
1648.484645629014
 31
0.0
 12
-1622.753440941049
 22
1648.984645629014
 32
0.0
 13
-1622.753440941049
 23
1648.984645629014
 33
0.0
  0
SOLID
  5
1347F
330
130BE
100
AcDbEntity
  8
SUNPOU
 62
     1
100
AcDbTrace
 10
-1689.753443941049
 20
1649.484645629014
 30
0.0
 11
-1689.753443941049
 21
1648.484645629014
 31
0.0
 12
-1692.753443941049
 22
1648.984645629014
 32
0.0
 13
-1692.753443941049
 23
1648.984645629014
 33
0.0
  0
MTEXT
  5
13480
330
130BE
100
AcDbEntity
  8
SUNPOU
 62
     1
100
AcDbMText
 10
-1657.753442441049
 20
1651.734645629014
 30
0.0
 40
3.5
 41
0.0
 71
     5
 72
     1
  1
\A1;CE-26等装着時約70
1001
ACAD
1000
MTEXTBEGIN
1070
    73
1070
     1
1070
    44
1040
1.0
1070
    74
1070
     0
1000
MTEXTEND
  0
POINT
  5
13481
330
130BE
100
AcDbEntity
  8
DEFPOINTS
 62
     0
100
AcDbPoint
 10
-1622.753440941049
 20
1665.56049213777
 30
0.0
  0
POINT
  5
13482
330
130BE
100
AcDbEntity
  8
DEFPOINTS
 62
     0
100
AcDbPoint
 10
-1692.753443941049
 20
1648.929826406589
 30
0.0
  0
POINT
  5
13483
330
130BE
100
AcDbEntity
  8
DEFPOINTS
 62
     0
100
AcDbPoint
 10
-1692.753443941049
 20
1648.984645629014
 30
0.0
  0
ENDBLK
  5
130C9
330
130BE
100
AcDbEntity
  8
0
100
AcDbBlockEnd
  0
BLOCK
  5
130D4
330
130CA
100
AcDbEntity
  8
0
100
AcDbBlockBegin
  2
*D1
 70
     1
 10
0.0
 20
0.0
 30
0.0
  3
*D1
  1

  0
LINE
  5
13454
330
130CA
100
AcDbEntity
  8
SUNPOU
 62
     1
100
AcDbLine
 10
-1704.653446941049
 20
1656.08752213777
 30
0.0
 11
-1704.653446941049
 21
1648.429826406589
 31
0.0
  0
LINE
  5
13455
330
130CA
100
AcDbEntity
  8
SUNPOU
 62
     1
100
AcDbLine
 10
-1720.853429941049
 20
1669.24834213777
 30
0.0
 11
-1720.853429941049
 21
1648.429826406589
 31
0.0
  0
LINE
  5
13456
330
130CA
100
AcDbEntity
  8
SUNPOU
 62
     1
100
AcDbLine
 10
-1707.653446941049
 20
1648.929826406589
 30
0.0
 11
-1717.853429941049
 21
1648.929826406589
 31
0.0
  0
SOLID
  5
13457
330
130CA
100
AcDbEntity
  8
SUNPOU
 62
     1
100
AcDbTrace
 10
-1707.653446941049
 20
1649.429826406589
 30
0.0
 11
-1707.653446941049
 21
1648.429826406589
 31
0.0
 12
-1704.653446941049
 22
1648.929826406589
 32
0.0
 13
-1704.653446941049
 23
1648.929826406589
 33
0.0
  0
SOLID
  5
13458
330
130CA
100
AcDbEntity
  8
SUNPOU
 62
     1
100
AcDbTrace
 10
-1717.853429941049
 20
1649.429826406589
 30
0.0
 11
-1717.853429941049
 21
1648.429826406589
 31
0.0
 12
-1720.853429941049
 22
1648.929826406589
 32
0.0
 13
-1720.853429941049
 23
1648.929826406589
 33
0.0
  0
MTEXT
  5
13459
330
130CA
100
AcDbEntity
  8
SUNPOU
 62
     1
100
AcDbMText
 10
-1712.753438441049
 20
1651.679826406589
 30
0.0
 40
3.5
 41
0.0
 71
     5
 72
     1
  1
\A1;16.2
1001
ACAD
1000
MTEXTBEGIN
1070
    73
1070
     1
1070
    44
1040
1.0
1070
    74
1070
     0
1000
MTEXTEND
  0
POINT
  5
1345A
330
130CA
100
AcDbEntity
  8
DEFPOINTS
 62
     0
100
AcDbPoint
 10
-1704.653446941049
 20
1656.58752213777
 30
0.0
  0
POINT
  5
1345B
330
130CA
100
AcDbEntity
  8
DEFPOINTS
 62
     0
100
AcDbPoint
 10
-1720.853429941049
 20
1669.74834213777
 30
0.0
  0
POINT
  5
1345C
330
130CA
100
AcDbEntity
  8
DEFPOINTS
 62
     0
100
AcDbPoint
 10
-1720.853429941049
 20
1648.929826406589
 30
0.0
  0
ENDBLK
  5
130D5
330
130CA
100
AcDbEntity
  8
0
100
AcDbBlockEnd
  0
BLOCK
  5
130E2
330
130D6
100
AcDbEntity
  8
0
100
AcDbBlockBegin
  2
*D2
 70
     1
 10
0.0
 20
0.0
 30
0.0
  3
*D2
  1

  0
LINE
  5
13470
330
130D6
100
AcDbEntity
  8
SUNPOU
 62
     1
100
AcDbLine
 10
-1694.553443941049
 20
1643.976635030666
 30
0.0
 11
-1694.553443941049
 21
1639.814319111223
 31
0.0
  0
LINE
  5
13471
330
130D6
100
AcDbEntity
  8
SUNPOU
 62
     1
100
AcDbLine
 10
-1692.753443941049
 20
1643.844962409948
 30
0.0
 11
-1692.753443941049
 21
1639.814319111223
 31
0.0
  0
LINE
  5
13472
330
130D6
100
AcDbEntity
  8
SUNPOU
 62
     1
100
AcDbLine
 10
-1697.553443941049
 20
1640.314319111223
 30
0.0
 11
-1700.553443941049
 21
1640.314319111223
 31
0.0
  0
LINE
  5
13473
330
130D6
100
AcDbEntity
  8
SUNPOU
 62
     1
100
AcDbLine
 10
-1689.753443941049
 20
1640.314319111223
 30
0.0
 11
-1668.420110607716
 21
1640.314319111223
 31
0.0
  0
LINE
  5
13474
330
130D6
100
AcDbEntity
  8
SUNPOU
 62
     1
100
AcDbLine
 10
-1694.553443941049
 20
1640.314319111223
 30
0.0
 11
-1692.753443941049
 21
1640.314319111223
 31
0.0
  0
SOLID
  5
13475
330
130D6
100
AcDbEntity
  8
SUNPOU
 62
     1
100
AcDbTrace
 10
-1697.553443941049
 20
1640.814319111224
 30
0.0
 11
-1697.553443941049
 21
1639.814319111223
 31
0.0
 12
-1694.553443941049
 22
1640.314319111223
 32
0.0
 13
-1694.553443941049
 23
1640.314319111223
 33
0.0
  0
SOLID
  5
13476
330
130D6
100
AcDbEntity
  8
SUNPOU
 62
     1
100
AcDbTrace
 10
-1689.753443941049
 20
1640.814319111224
 30
0.0
 11
-1689.753443941049
 21
1639.814319111223
 31
0.0
 12
-1692.753443941049
 22
1640.314319111223
 32
0.0
 13
-1692.753443941049
 23
1640.314319111223
 33
0.0
  0
MTEXT
  5
13477
330
130D6
100
AcDbEntity
  8
SUNPOU
 62
     1
100
AcDbMText
 10
-1677.586777274383
 20
1643.064319111223
 30
0.0
 40
3.5
 41
0.0
 71
     5
 72
     1
  1
\A1;MAX1.8
1001
ACAD
1000
MTEXTBEGIN
1070
    73
1070
     1
1070
    44
1040
1.0
1070
    74
1070
     0
1000
MTEXTEND
  0
POINT
  5
13478
330
130D6
100
AcDbEntity
  8
DEFPOINTS
 62
     0
100
AcDbPoint
 10
-1694.553443941049
 20
1644.476635030666
 30
0.0
  0
POINT
  5
13479
330
130D6
100
AcDbEntity
  8
DEFPOINTS
 62
     0
100
AcDbPoint
 10
-1692.753443941049
 20
1644.344962409948
 30
0.0
  0
POINT
  5
1347A
330
130D6
100
AcDbEntity
  8
DEFPOINTS
 62
     0
100
AcDbPoint
 10
-1692.753443941049
 20
1640.314319111223
 30
0.0
  0
ENDBLK
  5
130E3
330
130D6
100
AcDbEntity
  8
0
100
AcDbBlockEnd
  0
BLOCK
  5
130EF
330
130E4
100
AcDbEntity
  8
0
100
AcDbBlockBegin
  2
*D3
 70
     1
 10
0.0
 20
0.0
 30
0.0
  3
*D3
  1

  0
LINE
  5
134D2
330
130E4
100
AcDbEntity
  8
SUNPOU
 62
     1
100
AcDbLine
 10
-1704.653446941049
 20
1656.08752213777
 30
0.0
 11
-1704.653446941049
 21
1648.429826406589
 31
0.0
  0
LINE
  5
134D3
330
130E4
100
AcDbEntity
  8
SUNPOU
 62
     1
100
AcDbLine
 10
-1700.053444941049
 20
1648.929826406589
 30
0.0
 11
-1697.053444941049
 21
1648.929826406589
 31
0.0
  0
LINE
  5
134D4
330
130E4
100
AcDbEntity
  8
SUNPOU
 62
     1
100
AcDbLine
 10
-1707.653446941049
 20
1648.929826406589
 30
0.0
 11
-1710.653446941049
 21
1648.929826406589
 31
0.0
  0
MTEXT
  5
134D5
330
130E4
100
AcDbEntity
  8
SUNPOU
 62
     1
100
AcDbMText
 10
-1703.423024863878
 20
1645.210473560411
 30
0.0
 40
3.5
 41
0.0
 71
     5
 72
     1
  1
\A1;t1.6
  0
LINE
  5
134D6
330
130E4
100
AcDbEntity
  8
SUNPOU
 62
     1
100
AcDbLine
 10
-1703.053444941049
 20
1648.929826406589
 30
0.0
 11
-1704.653446941049
 21
1648.929826406589
 31
0.0
  0
SOLID
  5
134D7
330
130E4
100
AcDbEntity
  8
SUNPOU
 62
     1
100
AcDbTrace
 10
-1700.053444941049
 20
1649.429826406589
 30
0.0
 11
-1700.053444941049
 21
1648.429826406589
 31
0.0
 12
-1703.053444941049
 22
1648.929826406589
 32
0.0
 13
-1703.053444941049
 23
1648.929826406589
 33
0.0
  0
SOLID
  5
134D8
330
130E4
100
AcDbEntity
  8
SUNPOU
 62
     1
100
AcDbTrace
 10
-1707.653446941049
 20
1649.429826406589
 30
0.0
 11
-1707.653446941049
 21
1648.429826406589
 31
0.0
 12
-1704.653446941049
 22
1648.929826406589
 32
0.0
 13
-1704.653446941049
 23
1648.929826406589
 33
0.0
  0
POINT
  5
134D9
330
130E4
100
AcDbEntity
  8
DEFPOINTS
 62
     0
100
AcDbPoint
 10
-1703.053444941049
 20
1648.929826406589
 30
0.0
  0
POINT
  5
134DA
330
130E4
100
AcDbEntity
  8
DEFPOINTS
 62
     0
100
AcDbPoint
 10
-1704.653446941049
 20
1656.58752213777
 30
0.0
  0
POINT
  5
134DB
330
130E4
100
AcDbEntity
  8
DEFPOINTS
 62
     0
100
AcDbPoint
 10
-1704.653446941049
 20
1648.929826406589
 30
0.0
  0
ENDBLK
  5
130F0
330
130E4
100
AcDbEntity
  8
0
100
AcDbBlockEnd
  0
BLOCK
  5
130FB
330
130F1
100
AcDbEntity
  8
0
100
AcDbBlockBegin
  2
*D4
 70
     1
 10
0.0
 20
0.0
 30
0.0
  3
*D4
  1

  0
LINE
  5
13467
330
130F1
100
AcDbEntity
  8
SUNPOU
 62
     1
100
AcDbLine
 10
-1703.053444941049
 20
1656.08752213777
 30
0.0
 11
-1703.053444941049
 21
1648.429826406589
 31
0.0
  0
LINE
  5
13468
330
130F1
100
AcDbEntity
  8
SUNPOU
 62
     1
100
AcDbLine
 10
-1700.053444941049
 20
1648.929826406589
 30
0.0
 11
-1697.553443941049
 21
1648.929826406589
 31
0.0
  0
LINE
  5
13469
330
130F1
100
AcDbEntity
  8
SUNPOU
 62
     1
100
AcDbLine
 10
-1694.553443941049
 20
1648.929826406589
 30
0.0
 11
-1682.553443941049
 21
1648.929826406589
 31
0.0
  0
SOLID
  5
1346A
330
130F1
100
AcDbEntity
  8
SUNPOU
 62
     1
100
AcDbTrace
 10
-1700.053444941049
 20
1649.429826406589
 30
0.0
 11
-1700.053444941049
 21
1648.429826406589
 31
0.0
 12
-1703.053444941049
 22
1648.929826406589
 32
0.0
 13
-1703.053444941049
 23
1648.929826406589
 33
0.0
  0
SOLID
  5
1346B
330
130F1
100
AcDbEntity
  8
SUNPOU
 62
     1
100
AcDbTrace
 10
-1697.553443941049
 20
1649.429826406589
 30
0.0
 11
-1697.553443941049
 21
1648.429826406589
 31
0.0
 12
-1694.553443941049
 22
1648.929826406589
 32
0.0
 13
-1694.553443941049
 23
1648.929826406589
 33
0.0
  0
MTEXT
  5
1346C
330
130F1
100
AcDbEntity
  8
SUNPOU
 62
     1
100
AcDbMText
 10
-1687.053443941049
 20
1651.679826406589
 30
0.0
 40
3.5
 41
0.0
 71
     5
 72
     1
  1
\A1;8.5
1001
ACAD
1000
MTEXTBEGIN
1070
    73
1070
     1
1070
    44
1040
1.0
1070
    74
1070
     0
1000
MTEXTEND
  0
POINT
  5
1346D
330
130F1
100
AcDbEntity
  8
DEFPOINTS
 62
     0
100
AcDbPoint
 10
-1703.053444941049
 20
1656.58752213777
 30
0.0
  0
POINT
  5
1346E
330
130F1
100
AcDbEntity
  8
DEFPOINTS
 62
     0
100
AcDbPoint
 10
-1694.553443941049
 20
1648.929826406589
 30
0.0
  0
POINT
  5
1346F
330
130F1
100
AcDbEntity
  8
DEFPOINTS
 62
     0
100
AcDbPoint
 10
-1694.553443941049
 20
1648.929826406589
 30
0.0
  0
ENDBLK
  5
130FC
330
130F1
100
AcDbEntity
  8
0
100
AcDbBlockEnd
  0
BLOCK
  5
13107
330
130FD
100
AcDbEntity
  8
0
100
AcDbBlockBegin
  2
*D5
 70
     1
 10
0.0
 20
0.0
 30
0.0
  3
*D5
  1

  0
LINE
  5
13439
330
130FD
100
AcDbEntity
  8
SUNPOU
 62
     1
100
AcDbLine
 10
-1619.910519941051
 20
1991.28751313777
 30
0.0
 11
-1606.241563646915
 21
1991.28751313777
 31
0.0
  0
LINE
  5
1343A
330
130FD
100
AcDbEntity
  8
SUNPOU
 62
     1
100
AcDbLine
 10
-1619.910519941051
 20
1939.28752213777
 30
0.0
 11
-1606.241563646915
 21
1939.28752213777
 31
0.0
  0
LINE
  5
1343B
330
130FD
100
AcDbEntity
  8
SUNPOU
 62
     1
100
AcDbLine
 10
-1606.741563646915
 20
1988.28751313777
 30
0.0
 11
-1606.741563646915
 21
1942.28752213777
 31
0.0
  0
SOLID
  5
1343C
330
130FD
100
AcDbEntity
  8
SUNPOU
 62
     1
100
AcDbTrace
 10
-1607.241563646915
 20
1988.28751313777
 30
0.0
 11
-1606.241563646915
 21
1988.28751313777
 31
0.0
 12
-1606.741563646915
 22
1991.28751313777
 32
0.0
 13
-1606.741563646915
 23
1991.28751313777
 33
0.0
  0
SOLID
  5
1343D
330
130FD
100
AcDbEntity
  8
SUNPOU
 62
     1
100
AcDbTrace
 10
-1607.241563646915
 20
1942.28752213777
 30
0.0
 11
-1606.241563646915
 21
1942.28752213777
 31
0.0
 12
-1606.741563646915
 22
1939.28752213777
 32
0.0
 13
-1606.741563646915
 23
1939.28752213777
 33
0.0
  0
MTEXT
  5
1343E
330
130FD
100
AcDbEntity
  8
SUNPOU
 62
     1
100
AcDbMText
 10
-1609.491563646916
 20
1965.287517637769
 30
0.0
 40
3.5
 41
0.0
 71
     5
 72
     1
  1
\A1;52
 11
0.0000000000000001
 21
1.0
 31
0.0
1001
ACAD
1000
MTEXTBEGIN
1070
    73
1070
     1
1070
    44
1040
1.0
1070
    74
1070
     0
1000
MTEXTEND
  0
POINT
  5
1343F
330
130FD
100
AcDbEntity
  8
DEFPOINTS
 62
     0
100
AcDbPoint
 10
-1620.410519941051
 20
1991.28751313777
 30
0.0
  0
POINT
  5
13440
330
130FD
100
AcDbEntity
  8
DEFPOINTS
 62
     0
100
AcDbPoint
 10
-1620.410519941051
 20
1939.28752213777
 30
0.0
  0
POINT
  5
13441
330
130FD
100
AcDbEntity
  8
DEFPOINTS
 62
     0
100
AcDbPoint
 10
-1606.741563646915
 20
1939.28752213777
 30
0.0
  0
ENDBLK
  5
13108
330
130FD
100
AcDbEntity
  8
0
100
AcDbBlockEnd
  0
BLOCK
  5
1312E
330
13123
100
AcDbEntity
  8
0
100
AcDbBlockBegin
  2
*D6
 70
     1
 10
0.0
 20
0.0
 30
0.0
  3
*D6
  1

  0
LINE
  5
13496
330
13123
100
AcDbEntity
  8
SUNPOU
 62
     1
100
AcDbLine
 10
-1457.903429941049
 20
1706.28752213777
 30
0.0
 11
-1437.436424267639
 21
1706.28752213777
 31
0.0
  0
LINE
  5
13497
330
13123
100
AcDbEntity
  8
SUNPOU
 62
     1
100
AcDbLine
 10
-1457.903429941049
 20
1697.88752213777
 30
0.0
 11
-1437.436424267639
 21
1697.88752213777
 31
0.0
  0
LINE
  5
13498
330
13123
100
AcDbEntity
  8
SUNPOU
 62
     1
100
AcDbLine
 10
-1437.936424267639
 20
1703.28752213777
 30
0.0
 11
-1437.936424267639
 21
1700.88752213777
 31
0.0
  0
LINE
  5
13499
330
13123
100
AcDbEntity
  8
SUNPOU
 62
     1
100
AcDbLine
 10
-1437.936424267639
 20
1697.88752213777
 30
0.0
 11
-1437.936424267639
 21
1675.270855471103
 31
0.0
  0
SOLID
  5
1349A
330
13123
100
AcDbEntity
  8
SUNPOU
 62
     1
100
AcDbTrace
 10
-1438.436424267639
 20
1703.28752213777
 30
0.0
 11
-1437.436424267639
 21
1703.28752213777
 31
0.0
 12
-1437.936424267639
 22
1706.28752213777
 32
0.0
 13
-1437.936424267639
 23
1706.28752213777
 33
0.0
  0
SOLID
  5
1349B
330
13123
100
AcDbEntity
  8
SUNPOU
 62
     1
100
AcDbTrace
 10
-1438.436424267639
 20
1700.88752213777
 30
0.0
 11
-1437.436424267639
 21
1700.88752213777
 31
0.0
 12
-1437.936424267639
 22
1697.88752213777
 32
0.0
 13
-1437.936424267639
 23
1697.88752213777
 33
0.0
  0
MTEXT
  5
1349C
330
13123
100
AcDbEntity
  8
SUNPOU
 62
     1
100
AcDbMText
 10
-1440.686424267639
 20
1685.079188804436
 30
0.0
 40
3.5
 41
0.0
 71
     5
 72
     1
  1
\A1;8.4±0.1
 11
0.0000000000000001
 21
1.0
 31
0.0
1001
ACAD
1000
MTEXTBEGIN
1070
    73
1070
     1
1070
    44
1040
1.0
1070
    74
1070
     0
1000
MTEXTEND
  0
POINT
  5
1349D
330
13123
100
AcDbEntity
  8
DEFPOINTS
 62
     0
100
AcDbPoint
 10
-1458.403429941049
 20
1706.28752213777
 30
0.0
  0
POINT
  5
1349E
330
13123
100
AcDbEntity
  8
DEFPOINTS
 62
     0
100
AcDbPoint
 10
-1458.403429941049
 20
1697.88752213777
 30
0.0
  0
POINT
  5
1349F
330
13123
100
AcDbEntity
  8
DEFPOINTS
 62
     0
100
AcDbPoint
 10
-1437.936424267639
 20
1697.88752213777
 30
0.0
  0
ENDBLK
  5
1312F
330
13123
100
AcDbEntity
  8
0
100
AcDbBlockEnd
  0
BLOCK
  5
1313A
330
13130
100
AcDbEntity
  8
0
100
AcDbBlockBegin
  2
*D7
 70
     1
 10
0.0
 20
0.0
 30
0.0
  3
*D7
  1

  0
LINE
  5
13484
330
13130
100
AcDbEntity
  8
SUNPOU
 62
     1
100
AcDbLine
 10
-1528.403429941049
 20
1697.38752213777
 30
0.0
 11
-1528.403429941049
 21
1684.444377859686
 31
0.0
  0
LINE
  5
13485
330
13130
100
AcDbEntity
  8
SUNPOU
 62
     1
100
AcDbLine
 10
-1458.803429941049
 20
1697.38752213777
 30
0.0
 11
-1458.803429941049
 21
1684.444377859686
 31
0.0
  0
LINE
  5
13486
330
13130
100
AcDbEntity
  8
SUNPOU
 62
     1
100
AcDbLine
 10
-1525.403429941049
 20
1684.944377859686
 30
0.0
 11
-1461.803429941049
 21
1684.944377859686
 31
0.0
  0
SOLID
  5
13487
330
13130
100
AcDbEntity
  8
SUNPOU
 62
     1
100
AcDbTrace
 10
-1525.403429941049
 20
1685.444377859686
 30
0.0
 11
-1525.403429941049
 21
1684.444377859686
 31
0.0
 12
-1528.403429941049
 22
1684.944377859686
 32
0.0
 13
-1528.403429941049
 23
1684.944377859686
 33
0.0
  0
SOLID
  5
13488
330
13130
100
AcDbEntity
  8
SUNPOU
 62
     1
100
AcDbTrace
 10
-1461.803429941049
 20
1685.444377859686
 30
0.0
 11
-1461.803429941049
 21
1684.444377859686
 31
0.0
 12
-1458.803429941049
 22
1684.944377859686
 32
0.0
 13
-1458.803429941049
 23
1684.944377859686
 33
0.0
  0
MTEXT
  5
13489
330
13130
100
AcDbEntity
  8
SUNPOU
 62
     1
100
AcDbMText
 10
-1493.403429941049
 20
1687.694377859686
 30
0.0
 40
3.5
 41
0.0
 71
     5
 72
     1
  1
\A1;69.6±0.1
1001
ACAD
1000
MTEXTBEGIN
1070
    73
1070
     1
1070
    44
1040
1.0
1070
    74
1070
     0
1000
MTEXTEND
  0
POINT
  5
1348A
330
13130
100
AcDbEntity
  8
DEFPOINTS
 62
     0
100
AcDbPoint
 10
-1528.403429941049
 20
1697.88752213777
 30
0.0
  0
POINT
  5
1348B
330
13130
100
AcDbEntity
  8
DEFPOINTS
 62
     0
100
AcDbPoint
 10
-1458.803429941049
 20
1697.88752213777
 30
0.0
  0
POINT
  5
1348C
330
13130
100
AcDbEntity
  8
DEFPOINTS
 62
     0
100
AcDbPoint
 10
-1458.803429941049
 20
1684.944377859686
 30
0.0
  0
ENDBLK
  5
1313B
330
13130
100
AcDbEntity
  8
0
100
AcDbBlockEnd
  0
BLOCK
  5
13146
330
1313C
100
AcDbEntity
  8
0
100
AcDbBlockBegin
  2
*D8
 70
     1
 10
0.0
 20
0.0
 30
0.0
  3
*D8
  1

  0
LINE
  5
1348D
330
1313C
100
AcDbEntity
  8
SUNPOU
 62
     1
100
AcDbLine
 10
-1532.703429941049
 20
1701.58752213777
 30
0.0
 11
-1532.703429941049
 21
1673.690082372055
 31
0.0
  0
LINE
  5
1348E
330
1313C
100
AcDbEntity
  8
SUNPOU
 62
     1
100
AcDbLine
 10
-1454.503429941049
 20
1701.58752213777
 30
0.0
 11
-1454.503429941049
 21
1673.690082372055
 31
0.0
  0
LINE
  5
1348F
330
1313C
100
AcDbEntity
  8
SUNPOU
 62
     1
100
AcDbLine
 10
-1529.703429941049
 20
1674.190082372055
 30
0.0
 11
-1457.503429941049
 21
1674.190082372055
 31
0.0
  0
SOLID
  5
13490
330
1313C
100
AcDbEntity
  8
SUNPOU
 62
     1
100
AcDbTrace
 10
-1529.703429941049
 20
1674.690082372055
 30
0.0
 11
-1529.703429941049
 21
1673.690082372055
 31
0.0
 12
-1532.703429941049
 22
1674.190082372055
 32
0.0
 13
-1532.703429941049
 23
1674.190082372055
 33
0.0
  0
SOLID
  5
13491
330
1313C
100
AcDbEntity
  8
SUNPOU
 62
     1
100
AcDbTrace
 10
-1457.503429941049
 20
1674.690082372055
 30
0.0
 11
-1457.503429941049
 21
1673.690082372055
 31
0.0
 12
-1454.503429941049
 22
1674.190082372055
 32
0.0
 13
-1454.503429941049
 23
1674.190082372055
 33
0.0
  0
MTEXT
  5
13492
330
1313C
100
AcDbEntity
  8
SUNPOU
 62
     1
100
AcDbMText
 10
-1493.603429941049
 20
1676.940082372055
 30
0.0
 40
3.5
 41
0.0
 71
     5
 72
     1
  1
\A1;78.2±0.1
1001
ACAD
1000
MTEXTBEGIN
1070
    73
1070
     1
1070
    44
1040
1.0
1070
    74
1070
     0
1000
MTEXTEND
  0
POINT
  5
13493
330
1313C
100
AcDbEntity
  8
DEFPOINTS
 62
     0
100
AcDbPoint
 10
-1532.703429941049
 20
1702.08752213777
 30
0.0
  0
POINT
  5
13494
330
1313C
100
AcDbEntity
  8
DEFPOINTS
 62
     0
100
AcDbPoint
 10
-1454.503429941049
 20
1702.08752213777
 30
0.0
  0
POINT
  5
13495
330
1313C
100
AcDbEntity
  8
DEFPOINTS
 62
     0
100
AcDbPoint
 10
-1454.503429941049
 20
1674.190082372055
 30
0.0
  0
ENDBLK
  5
13147
330
1313C
100
AcDbEntity
  8
0
100
AcDbBlockEnd
  0
BLOCK
  5
1327B
330
13271
100
AcDbEntity
  8
0
100
AcDbBlockBegin
  2
*D9
 70
     1
 10
0.0
 20
0.0
 30
0.0
  3
*D9
  1

  0
LINE
  5
13442
330
13271
100
AcDbEntity
  8
SUNPOU
 62
     1
100
AcDbLine
 10
-1722.703429941049
 20
1801.080404137768
 30
0.0
 11
-1722.703429941049
 21
1812.160581193797
 31
0.0
  0
LINE
  5
13443
330
13271
100
AcDbEntity
  8
SUNPOU
 62
     1
100
AcDbLine
 10
-1710.303429941049
 20
1778.53752213777
 30
0.0
 11
-1710.303429941049
 21
1812.160581193797
 31
0.0
  0
LINE
  5
13444
330
13271
100
AcDbEntity
  8
SUNPOU
 62
     1
100
AcDbLine
 10
-1719.703429941049
 20
1811.660581193797
 30
0.0
 11
-1713.303429941049
 21
1811.660581193797
 31
0.0
  0
SOLID
  5
13445
330
13271
100
AcDbEntity
  8
SUNPOU
 62
     1
100
AcDbTrace
 10
-1719.703429941049
 20
1812.160581193797
 30
0.0
 11
-1719.703429941049
 21
1811.160581193798
 31
0.0
 12
-1722.703429941049
 22
1811.660581193797
 32
0.0
 13
-1722.703429941049
 23
1811.660581193797
 33
0.0
  0
SOLID
  5
13446
330
13271
100
AcDbEntity
  8
SUNPOU
 62
     1
100
AcDbTrace
 10
-1713.303429941049
 20
1812.160581193797
 30
0.0
 11
-1713.303429941049
 21
1811.160581193798
 31
0.0
 12
-1710.303429941049
 22
1811.660581193797
 32
0.0
 13
-1710.303429941049
 23
1811.660581193797
 33
0.0
  0
MTEXT
  5
13447
330
13271
100
AcDbEntity
  8
SUNPOU
 62
     1
100
AcDbMText
 10
-1716.503429941049
 20
1814.410581193797
 30
0.0
 40
3.5
 41
0.0
 71
     5
 72
     1
  1
\A1;12.4
1001
ACAD
1000
MTEXTBEGIN
1070
    73
1070
     1
1070
    44
1040
1.0
1070
    74
1070
     0
1000
MTEXTEND
  0
POINT
  5
13448
330
13271
100
AcDbEntity
  8
DEFPOINTS
 62
     0
100
AcDbPoint
 10
-1722.703429941049
 20
1800.580404137767
 30
0.0
  0
POINT
  5
13449
330
13271
100
AcDbEntity
  8
DEFPOINTS
 62
     0
100
AcDbPoint
 10
-1710.303429941049
 20
1778.03752213777
 30
0.0
  0
POINT
  5
1344A
330
13271
100
AcDbEntity
  8
DEFPOINTS
 62
     0
100
AcDbPoint
 10
-1710.303429941049
 20
1811.660581193797
 30
0.0
  0
ENDBLK
  5
1327C
330
13271
100
AcDbEntity
  8
0
100
AcDbBlockEnd
  0
BLOCK
  5
13288
330
1327E
100
AcDbEntity
  8
0
100
AcDbBlockBegin
  2
*D10
 70
     1
 10
0.0
 20
0.0
 30
0.0
  3
*D10
  1

  0
LINE
  5
1344B
330
1327E
100
AcDbEntity
  8
SUNPOU
 62
     1
100
AcDbLine
 10
-1710.303429941049
 20
1778.53752213777
 30
0.0
 11
-1710.303429941049
 21
1812.160581193797
 31
0.0
  0
LINE
  5
1344C
330
1327E
100
AcDbEntity
  8
SUNPOU
 62
     1
100
AcDbLine
 10
-1632.103429941049
 20
1778.53752213777
 30
0.0
 11
-1632.103429941049
 21
1812.160581193797
 31
0.0
  0
LINE
  5
1344D
330
1327E
100
AcDbEntity
  8
SUNPOU
 62
     1
100
AcDbLine
 10
-1707.303429941049
 20
1811.660581193797
 30
0.0
 11
-1635.103429941049
 21
1811.660581193797
 31
0.0
  0
SOLID
  5
1344E
330
1327E
100
AcDbEntity
  8
SUNPOU
 62
     1
100
AcDbTrace
 10
-1707.303429941049
 20
1812.160581193797
 30
0.0
 11
-1707.303429941049
 21
1811.160581193798
 31
0.0
 12
-1710.303429941049
 22
1811.660581193797
 32
0.0
 13
-1710.303429941049
 23
1811.660581193797
 33
0.0
  0
SOLID
  5
1344F
330
1327E
100
AcDbEntity
  8
SUNPOU
 62
     1
100
AcDbTrace
 10
-1635.103429941049
 20
1812.160581193797
 30
0.0
 11
-1635.103429941049
 21
1811.160581193798
 31
0.0
 12
-1632.103429941049
 22
1811.660581193797
 32
0.0
 13
-1632.103429941049
 23
1811.660581193797
 33
0.0
  0
MTEXT
  5
13450
330
1327E
100
AcDbEntity
  8
SUNPOU
 62
     1
100
AcDbMText
 10
-1671.203429941049
 20
1814.410581193797
 30
0.0
 40
3.5
 41
0.0
 71
     5
 72
     1
  1
\A1;78.2
1001
ACAD
1000
MTEXTBEGIN
1070
    73
1070
     1
1070
    44
1040
1.0
1070
    74
1070
     0
1000
MTEXTEND
  0
POINT
  5
13451
330
1327E
100
AcDbEntity
  8
DEFPOINTS
 62
     0
100
AcDbPoint
 10
-1710.303429941049
 20
1778.03752213777
 30
0.0
  0
POINT
  5
13452
330
1327E
100
AcDbEntity
  8
DEFPOINTS
 62
     0
100
AcDbPoint
 10
-1632.103429941049
 20
1778.03752213777
 30
0.0
  0
POINT
  5
13453
330
1327E
100
AcDbEntity
  8
DEFPOINTS
 62
     0
100
AcDbPoint
 10
-1632.103429941049
 20
1811.660581193797
 30
0.0
  0
ENDBLK
  5
13289
330
1327E
100
AcDbEntity
  8
0
100
AcDbBlockEnd
  0
BLOCK
  5
132A2
330
13298
100
AcDbEntity
  8
0
100
AcDbBlockBegin
  2
*D11
 70
     1
 10
0.0
 20
0.0
 30
0.0
  3
*D11
  1

  0
LINE
  5
13430
330
13298
100
AcDbEntity
  8
SUNPOU
 62
     1
100
AcDbLine
 10
-1722.703429941049
 20
1991.080404137768
 30
0.0
 11
-1722.703429941049
 21
2004.852179717625
 31
0.0
  0
LINE
  5
13431
330
13298
100
AcDbEntity
  8
SUNPOU
 62
     1
100
AcDbLine
 10
-1619.703409941051
 20
1991.080404137768
 30
0.0
 11
-1619.703409941051
 21
2004.852179717625
 31
0.0
  0
LINE
  5
13432
330
13298
100
AcDbEntity
  8
SUNPOU
 62
     1
100
AcDbLine
 10
-1719.703429941049
 20
2004.352179717625
 30
0.0
 11
-1622.70340994105
 21
2004.352179717625
 31
0.0
  0
SOLID
  5
13433
330
13298
100
AcDbEntity
  8
SUNPOU
 62
     1
100
AcDbTrace
 10
-1719.703429941049
 20
2004.852179717625
 30
0.0
 11
-1719.703429941049
 21
2003.852179717625
 31
0.0
 12
-1722.703429941049
 22
2004.352179717625
 32
0.0
 13
-1722.703429941049
 23
2004.352179717625
 33
0.0
  0
SOLID
  5
13434
330
13298
100
AcDbEntity
  8
SUNPOU
 62
     1
100
AcDbTrace
 10
-1622.70340994105
 20
2004.852179717625
 30
0.0
 11
-1622.70340994105
 21
2003.852179717625
 31
0.0
 12
-1619.703409941051
 22
2004.352179717625
 32
0.0
 13
-1619.703409941051
 23
2004.352179717625
 33
0.0
  0
MTEXT
  5
13435
330
13298
100
AcDbEntity
  8
SUNPOU
 62
     1
100
AcDbMText
 10
-1671.20341994105
 20
2007.102179717625
 30
0.0
 40
3.5
 41
0.0
 71
     5
 72
     1
  1
\A1;103
1001
ACAD
1000
MTEXTBEGIN
1070
    73
1070
     1
1070
    44
1040
1.0
1070
    74
1070
     0
1000
MTEXTEND
  0
POINT
  5
13436
330
13298
100
AcDbEntity
  8
DEFPOINTS
 62
     0
100
AcDbPoint
 10
-1722.703429941049
 20
1990.580404137768
 30
0.0
  0
POINT
  5
13437
330
13298
100
AcDbEntity
  8
DEFPOINTS
 62
     0
100
AcDbPoint
 10
-1619.703409941051
 20
1990.580404137768
 30
0.0
  0
POINT
  5
13438
330
13298
100
AcDbEntity
  8
DEFPOINTS
 62
     0
100
AcDbPoint
 10
-1619.703409941051
 20
2004.352179717625
 30
0.0
  0
ENDBLK
  5
132A3
330
13298
100
AcDbEntity
  8
0
100
AcDbBlockEnd
  0
ENDSEC
  0
SECTION
  2
ENTITIES
  0
MTEXT
  5
5084
330
1A
100
AcDbEntity
  8
0
100
AcDbMText
 10
1985.239088685435
 20
-948.5420423450428
 30
0.0
 40
8.0
 41
0.0
 71
     7
 72
     5
  1

1001
ACAD
1000
MTEXTBEGIN
1070
    73
1070
     1
1070
    44
1040
1.0
1070
    74
1070
     0
1000
MTEXTEND
  0
MTEXT
  5
5085
330
1A
100
AcDbEntity
  8
0
100
AcDbMText
 10
4270.596778580329
 20
22.24825240601649
 30
0.0
 40
8.0
 41
0.0
 71
     7
 72
     5
  1

1001
ACAD
1000
MTEXTBEGIN
1070
    73
1070
     1
1070
    44
1040
1.0
1070
    74
1070
     0
1000
MTEXTEND
  0
MTEXT
  5
5343
330
1A
100
AcDbEntity
  8
SUNPOU
100
AcDbMText
 10
6936.493799262471
 20
9534.359644781135
 30
0.0
 40
10.5
 41
0.0
 71
     1
 72
     5
  1

1001
ACAD
1000
MTEXTBEGIN
1070
    73
1070
     1
1070
    44
1040
1.0
1070
    74
1070
     0
1000
MTEXTEND
  0
MTEXT
  5
544F
330
1A
100
AcDbEntity
  8
0
100
AcDbMText
 10
16317.2832773148
 20
12833.35428897674
 30
0.0
 40
8.0
 41
0.0
 71
     7
 72
     5
  1

1001
ACAD
1000
MTEXTBEGIN
1070
    73
1070
     1
1070
    44
1040
1.0
1070
    74
1070
     0
1000
MTEXTEND
  0
MTEXT
  5
5450
330
1A
100
AcDbEntity
  8
0
100
AcDbMText
 10
18602.64096720969
 20
13804.1445837278
 30
0.0
 40
8.0
 41
0.0
 71
     7
 72
     5
  1

1001
ACAD
1000
MTEXTBEGIN
1070
    73
1070
     1
1070
    44
1040
1.0
1070
    74
1070
     0
1000
MTEXTEND
  0
MTEXT
  5
5451
330
1A
100
AcDbEntity
  8
SUNPOU
100
AcDbMText
 10
21268.53798789184
 20
23316.25597610292
 30
0.0
 40
10.5
 41
0.0
 71
     1
 72
     5
  1

1001
ACAD
1000
MTEXTBEGIN
1070
    73
1070
     1
1070
    44
1040
1.0
1070
    74
1070
     0
1000
MTEXTEND
  0
MTEXT
  5
5452
330
1A
100
AcDbEntity
  8
SUNPOU
100
AcDbMText
 10
13337.6147919559
 20
22369.46284218996
 30
0.0
 40
10.5
 41
0.0
 71
     7
 72
     5
  1

1001
ACAD
1000
MTEXTBEGIN
1070
    73
1070
     1
1070
    44
1040
1.0
1070
    74
1070
     0
1000
MTEXTEND
  0
MTEXT
  5
5453
330
1A
100
AcDbEntity
  8
SUNPOU
100
AcDbMText
 10
16286.59845646867
 20
27270.13891403281
 30
0.0
 40
10.5
 41
0.0
 71
     7
 72
     5
  1

1001
ACAD
1000
MTEXTBEGIN
1070
    73
1070
     1
1070
    44
1040
1.0
1070
    74
1070
     0
1000
MTEXTEND
  0
MTEXT
  5
5454
330
1A
100
AcDbEntity
  8
SUNPOU
100
AcDbMText
 10
20795.67658441924
 20
29706.43966165288
 30
0.0
 40
10.5
 41
0.0
 71
     7
 72
     5
  1

1001
ACAD
1000
MTEXTBEGIN
1070
    73
1070
     1
1070
    44
1040
1.0
1070
    74
1070
     0
1000
MTEXTEND
  0
MTEXT
  5
5455
330
1A
100
AcDbEntity
  8
0
100
AcDbMText
 10
16611.93789220314
 20
14707.52144344448
 30
0.0
 40
8.0
 41
0.0
 71
     7
 72
     5
  1

1001
ACAD
1000
MTEXTBEGIN
1070
    73
1070
     1
1070
    44
1040
1.0
1070
    74
1070
     0
1000
MTEXTEND
  0
MTEXT
  5
5456
330
1A
100
AcDbEntity
  8
0
100
AcDbMText
 10
18897.29558209804
 20
15678.31173819554
 30
0.0
 40
8.0
 41
0.0
 71
     7
 72
     5
  1

1001
ACAD
1000
MTEXTBEGIN
1070
    73
1070
     1
1070
    44
1040
1.0
1070
    74
1070
     0
1000
MTEXTEND
  0
MTEXT
  5
5457
330
1A
100
AcDbEntity
  8
SUNPOU
100
AcDbMText
 10
21563.19260278019
 20
25190.42313057066
 30
0.0
 40
10.5
 41
0.0
 71
     1
 72
     5
  1

1001
ACAD
1000
MTEXTBEGIN
1070
    73
1070
     1
1070
    44
1040
1.0
1070
    74
1070
     0
1000
MTEXTEND
  0
MTEXT
  5
5458
330
1A
100
AcDbEntity
  8
SUNPOU
100
AcDbMText
 10
13632.26940684426
 20
24243.6299966577
 30
0.0
 40
10.5
 41
0.0
 71
     7
 72
     5
  1

1001
ACAD
1000
MTEXTBEGIN
1070
    73
1070
     1
1070
    44
1040
1.0
1070
    74
1070
     0
1000
MTEXTEND
  0
MTEXT
  5
5459
330
1A
100
AcDbEntity
  8
SUNPOU
100
AcDbMText
 10
16581.25307135702
 20
29144.30606850055
 30
0.0
 40
10.5
 41
0.0
 71
     7
 72
     5
  1

1001
ACAD
1000
MTEXTBEGIN
1070
    73
1070
     1
1070
    44
1040
1.0
1070
    74
1070
     0
1000
MTEXTEND
  0
MTEXT
  5
545A
330
1A
100
AcDbEntity
  8
SUNPOU
100
AcDbMText
 10
21090.33119930759
 20
31580.60681612062
 30
0.0
 40
10.5
 41
0.0
 71
     7
 72
     5
  1

1001
ACAD
1000
MTEXTBEGIN
1070
    73
1070
     1
1070
    44
1040
1.0
1070
    74
1070
     0
1000
MTEXTEND
  0
MTEXT
  5
545B
330
1A
100
AcDbEntity
  8
0
100
AcDbMText
 10
22871.60517627167
 20
23974.88367124799
 30
0.0
 40
8.0
 41
0.0
 71
     7
 72
     5
  1

1001
ACAD
1000
MTEXTBEGIN
1070
    73
1070
     1
1070
    44
1040
1.0
1070
    74
1070
     0
1000
MTEXTEND
  0
MTEXT
  5
545C
330
1A
100
AcDbEntity
  8
0
100
AcDbMText
 10
25156.96286616657
 20
24945.67396599906
 30
0.0
 40
8.0
 41
0.0
 71
     7
 72
     5
  1

1001
ACAD
1000
MTEXTBEGIN
1070
    73
1070
     1
1070
    44
1040
1.0
1070
    74
1070
     0
1000
MTEXTEND
  0
MTEXT
  5
545D
330
1A
100
AcDbEntity
  8
SUNPOU
100
AcDbMText
 10
27822.85988684871
 20
34457.78535837418
 30
0.0
 40
10.5
 41
0.0
 71
     1
 72
     5
  1

1001
ACAD
1000
MTEXTBEGIN
1070
    73
1070
     1
1070
    44
1040
1.0
1070
    74
1070
     0
1000
MTEXTEND
  0
MTEXT
  5
545E
330
1A
100
AcDbEntity
  8
SUNPOU
100
AcDbMText
 10
19891.93669091278
 20
33510.99222446122
 30
0.0
 40
10.5
 41
0.0
 71
     7
 72
     5
  1

1001
ACAD
1000
MTEXTBEGIN
1070
    73
1070
     1
1070
    44
1040
1.0
1070
    74
1070
     0
1000
MTEXTEND
  0
MTEXT
  5
545F
330
1A
100
AcDbEntity
  8
SUNPOU
100
AcDbMText
 10
22840.92035542555
 20
38411.66829630407
 30
0.0
 40
10.5
 41
0.0
 71
     7
 72
     5
  1

1001
ACAD
1000
MTEXTBEGIN
1070
    73
1070
     1
1070
    44
1040
1.0
1070
    74
1070
     0
1000
MTEXTEND
  0
MTEXT
  5
5460
330
1A
100
AcDbEntity
  8
SUNPOU
100
AcDbMText
 10
27349.99848337611
 20
40847.96904392415
 30
0.0
 40
10.5
 41
0.0
 71
     7
 72
     5
  1

1001
ACAD
1000
MTEXTBEGIN
1070
    73
1070
     1
1070
    44
1040
1.0
1070
    74
1070
     0
1000
MTEXTEND
  0
MTEXT
  5
55B7
330
1A
100
AcDbEntity
  8
SUNPOU
100
AcDbMText
 10
67424.23923338197
 20
64463.86602884816
 30
0.0
 40
10.5
 41
0.0
 71
     9
 72
     5
  1

1001
ACAD
1000
MTEXTBEGIN
1070
    73
1070
     1
1070
    44
1040
1.0
1070
    74
1070
     0
1000
MTEXTEND
  0
MTEXT
  5
55B8
330
1A
100
AcDbEntity
  8
SUNPOU
100
AcDbMText
 10
76146.40679929998
 20
71879.70056038563
 30
0.0
 40
10.5
 41
0.0
 71
     9
 72
     5
  1

1001
ACAD
1000
MTEXTBEGIN
1070
    73
1070
     1
1070
    44
1040
1.0
1070
    74
1070
     0
1000
MTEXTEND
  0
MTEXT
  5
55B9
330
1A
100
AcDbEntity
  8
SUNPOU
100
AcDbMText
 10
95100.16551662994
 20
89346.27661287766
 30
0.0
 40
10.5
 41
0.0
 71
     9
 72
     5
  1

1001
ACAD
1000
MTEXTBEGIN
1070
    73
1070
     1
1070
    44
1040
1.0
1070
    74
1070
     0
1000
MTEXTEND
  0
MTEXT
  5
55BA
330
1A
100
AcDbEntity
  8
SUNPOU
100
AcDbMText
 10
97043.57276333936
 20
87545.22753299966
 30
0.0
 40
3.5
 41
0.0
 71
     9
 72
     5
  1

1001
ACAD
1000
MTEXTBEGIN
1070
    73
1070
     1
1070
    44
1040
1.0
1070
    74
1070
     0
1000
MTEXTEND
  0
MTEXT
  5
55BB
330
1A
100
AcDbEntity
  8
SUNPOU
100
AcDbMText
 10
128169.752595959
 20
130040.1732006569
 30
0.0
 40
10.5
 41
0.0
 71
     9
 72
     5
  1

1001
ACAD
1000
MTEXTBEGIN
1070
    73
1070
     1
1070
    44
1040
1.0
1070
    74
1070
     0
1000
MTEXTEND
  0
MTEXT
  5
55BC
330
1A
100
AcDbEntity
  8
SUNPOU
100
AcDbMText
 10
130113.1598426684
 20
128239.1241207789
 30
0.0
 40
3.5
 41
0.0
 71
     9
 72
     5
  1

1001
ACAD
1000
MTEXTBEGIN
1070
    73
1070
     1
1070
    44
1040
1.0
1070
    74
1070
     0
1000
MTEXTEND
  0
MTEXT
  5
55BD
330
1A
100
AcDbEntity
  8
SUNPOU
100
AcDbMText
 10
78610.02030175463
 20
75873.33835563206
 30
0.0
 40
10.5
 41
0.0
 71
     9
 72
     5
  1

1001
ACAD
1000
MTEXTBEGIN
1070
    73
1070
     1
1070
    44
1040
1.0
1070
    74
1070
     0
1000
MTEXTEND
  0
MTEXT
  5
55BE
330
1A
100
AcDbEntity
  8
SUNPOU
100
AcDbMText
 10
64662.02020137863
 20
56700.93921651987
 30
0.0
 40
3.5
 41
0.0
 71
     7
 72
     5
  1

1001
ACAD
1000
MTEXTBEGIN
1070
    73
1070
     1
1070
    44
1040
1.0
1070
    74
1070
     0
1000
MTEXTEND
  0
MTEXT
  5
55BF
330
1A
100
AcDbEntity
  8
SUNPOU
100
AcDbMText
 10
45647.18959837178
 20
44463.08794733807
 30
0.0
 40
10.5
 41
0.0
 71
     7
 72
     5
  1

1001
ACAD
1000
MTEXTBEGIN
1070
    73
1070
     1
1070
    44
1040
1.0
1070
    74
1070
     0
1000
MTEXTEND
  0
MTEXT
  5
55C0
330
1A
100
AcDbEntity
  8
SUNPOU
100
AcDbMText
 10
33189.96133342368
 20
28618.15636923965
 30
0.0
 40
35.0
 41
0.0
 71
     9
 72
     5
  1

1001
ACAD
1000
MTEXTBEGIN
1070
    73
1070
     1
1070
    44
1040
1.0
1070
    74
1070
     0
1000
MTEXTEND
  0
MTEXT
  5
55C1
330
1A
100
AcDbEntity
  8
SUNPOU
100
AcDbMText
 10
32098.44639099864
 20
29226.93177928835
 30
0.0
 40
350.0000004171781
 41
0.0
 71
     7
 72
     5
  1

1001
ACAD
1000
MTEXTBEGIN
1070
    73
1070
     1
1070
    44
1040
1.0
1070
    74
1070
     0
1000
MTEXTEND
  0
MTEXT
  5
55C2
330
1A
100
AcDbEntity
  8
0
100
AcDbMText
 10
38142.39714894154
 20
27206.85414142458
 30
0.0
 40
8.0
 41
0.0
 71
     7
 72
     5
  1

1001
ACAD
1000
MTEXTBEGIN
1070
    73
1070
     1
1070
    44
1040
1.0
1070
    74
1070
     0
1000
MTEXTEND
  0
MTEXT
  5
55C3
330
1A
100
AcDbEntity
  8
0
100
AcDbMText
 10
40427.75483883644
 20
28177.64443617564
 30
0.0
 40
8.0
 41
0.0
 71
     7
 72
     5
  1

1001
ACAD
1000
MTEXTBEGIN
1070
    73
1070
     1
1070
    44
1040
1.0
1070
    74
1070
     0
1000
MTEXTEND
  0
MTEXT
  5
55C4
330
1A
100
AcDbEntity
  8
SUNPOU
100
AcDbMText
 10
43093.65185951858
 20
37689.75582855077
 30
0.0
 40
10.5
 41
0.0
 71
     1
 72
     5
  1

1001
ACAD
1000
MTEXTBEGIN
1070
    73
1070
     1
1070
    44
1040
1.0
1070
    74
1070
     0
1000
MTEXTEND
  0
MTEXT
  5
55C5
330
1A
100
AcDbEntity
  8
SUNPOU
100
AcDbMText
 10
35162.72866358265
 20
36742.96269463781
 30
0.0
 40
10.5
 41
0.0
 71
     7
 72
     5
  1

1001
ACAD
1000
MTEXTBEGIN
1070
    73
1070
     1
1070
    44
1040
1.0
1070
    74
1070
     0
1000
MTEXTEND
  0
MTEXT
  5
55C6
330
1A
100
AcDbEntity
  8
SUNPOU
100
AcDbMText
 10
38111.71232809542
 20
41643.63876648066
 30
0.0
 40
10.5
 41
0.0
 71
     7
 72
     5
  1

1001
ACAD
1000
MTEXTBEGIN
1070
    73
1070
     1
1070
    44
1040
1.0
1070
    74
1070
     0
1000
MTEXTEND
  0
MTEXT
  5
55C7
330
1A
100
AcDbEntity
  8
SUNPOU
100
AcDbMText
 10
42620.79045604597
 20
44079.93951410074
 30
0.0
 40
10.5
 41
0.0
 71
     7
 72
     5
  1

1001
ACAD
1000
MTEXTBEGIN
1070
    73
1070
     1
1070
    44
1040
1.0
1070
    74
1070
     0
1000
MTEXTEND
  0
MTEXT
  5
55C8
330
1A
100
AcDbEntity
  8
SUNPOU
100
AcDbMText
 10
26221.62834281429
 20
23077.53566448964
 30
0.0
 40
10.5
 41
0.0
 71
     7
 72
     5
  1

1001
ACAD
1000
MTEXTBEGIN
1070
    73
1070
     1
1070
    44
1040
1.0
1070
    74
1070
     0
1000
MTEXTEND
  0
MTEXT
  5
55C9
330
1A
100
AcDbEntity
  8
SUNPOU
100
AcDbMText
 10
77413.14677671455
 20
68750.51622813789
 30
0.0
 40
10.5
 41
0.0
 71
     9
 72
     5
  1

1001
ACAD
1000
MTEXTBEGIN
1070
    73
1070
     1
1070
    44
1040
1.0
1070
    74
1070
     0
1000
MTEXTEND
  0
MTEXT
  5
55CA
330
1A
100
AcDbEntity
  8
SUNPOU
100
AcDbMText
 10
86135.31434263256
 20
76166.35075967536
 30
0.0
 40
10.5
 41
0.0
 71
     9
 72
     5
  1

1001
ACAD
1000
MTEXTBEGIN
1070
    73
1070
     1
1070
    44
1040
1.0
1070
    74
1070
     0
1000
MTEXTEND
  0
MTEXT
  5
55CB
330
1A
100
AcDbEntity
  8
SUNPOU
100
AcDbMText
 10
105089.0730599625
 20
93632.92681216739
 30
0.0
 40
10.5
 41
0.0
 71
     9
 72
     5
  1

1001
ACAD
1000
MTEXTBEGIN
1070
    73
1070
     1
1070
    44
1040
1.0
1070
    74
1070
     0
1000
MTEXTEND
  0
MTEXT
  5
55CC
330
1A
100
AcDbEntity
  8
SUNPOU
100
AcDbMText
 10
107032.4803066719
 20
91831.8777322894
 30
0.0
 40
3.5
 41
0.0
 71
     9
 72
     5
  1

1001
ACAD
1000
MTEXTBEGIN
1070
    73
1070
     1
1070
    44
1040
1.0
1070
    74
1070
     0
1000
MTEXTEND
  0
MTEXT
  5
55CD
330
1A
100
AcDbEntity
  8
SUNPOU
100
AcDbMText
 10
138158.6601392916
 20
134326.8233999467
 30
0.0
 40
10.5
 41
0.0
 71
     9
 72
     5
  1

1001
ACAD
1000
MTEXTBEGIN
1070
    73
1070
     1
1070
    44
1040
1.0
1070
    74
1070
     0
1000
MTEXTEND
  0
MTEXT
  5
55CE
330
1A
100
AcDbEntity
  8
SUNPOU
100
AcDbMText
 10
140102.067386001
 20
132525.7743200686
 30
0.0
 40
3.5
 41
0.0
 71
     9
 72
     5
  1

1001
ACAD
1000
MTEXTBEGIN
1070
    73
1070
     1
1070
    44
1040
1.0
1070
    74
1070
     0
1000
MTEXTEND
  0
MTEXT
  5
55CF
330
1A
100
AcDbEntity
  8
SUNPOU
100
AcDbMText
 10
88598.92784508721
 20
80159.98855492179
 30
0.0
 40
10.5
 41
0.0
 71
     9
 72
     5
  1

1001
ACAD
1000
MTEXTBEGIN
1070
    73
1070
     1
1070
    44
1040
1.0
1070
    74
1070
     0
1000
MTEXTEND
  0
MTEXT
  5
55D0
330
1A
100
AcDbEntity
  8
SUNPOU
100
AcDbMText
 10
74650.92774471121
 20
60987.5894158096
 30
0.0
 40
3.5
 41
0.0
 71
     7
 72
     5
  1

1001
ACAD
1000
MTEXTBEGIN
1070
    73
1070
     1
1070
    44
1040
1.0
1070
    74
1070
     0
1000
MTEXTEND
  0
MTEXT
  5
55D1
330
1A
100
AcDbEntity
  8
SUNPOU
100
AcDbMText
 10
55636.09714170436
 20
48749.73814662781
 30
0.0
 40
10.5
 41
0.0
 71
     7
 72
     5
  1

1001
ACAD
1000
MTEXTBEGIN
1070
    73
1070
     1
1070
    44
1040
1.0
1070
    74
1070
     0
1000
MTEXTEND
  0
MTEXT
  5
55D2
330
1A
100
AcDbEntity
  8
SUNPOU
100
AcDbMText
 10
43178.86887675626
 20
32904.80656852938
 30
0.0
 40
35.0
 41
0.0
 71
     9
 72
     5
  1

1001
ACAD
1000
MTEXTBEGIN
1070
    73
1070
     1
1070
    44
1040
1.0
1070
    74
1070
     0
1000
MTEXTEND
  0
MTEXT
  5
55D3
330
1A
100
AcDbEntity
  8
SUNPOU
100
AcDbMText
 10
42087.35393433121
 20
33513.58197857809
 30
0.0
 40
350.0000004171781
 41
0.0
 71
     7
 72
     5
  1

1001
ACAD
1000
MTEXTBEGIN
1070
    73
1070
     1
1070
    44
1040
1.0
1070
    74
1070
     0
1000
MTEXTEND
  0
MTEXT
  5
55D4
330
1A
100
AcDbEntity
  8
0
100
AcDbMText
 10
48131.30469227412
 20
31493.50434071431
 30
0.0
 40
8.0
 41
0.0
 71
     7
 72
     5
  1

1001
ACAD
1000
MTEXTBEGIN
1070
    73
1070
     1
1070
    44
1040
1.0
1070
    74
1070
     0
1000
MTEXTEND
  0
MTEXT
  5
55D5
330
1A
100
AcDbEntity
  8
0
100
AcDbMText
 10
50416.66238216901
 20
32464.29463546537
 30
0.0
 40
8.0
 41
0.0
 71
     7
 72
     5
  1

1001
ACAD
1000
MTEXTBEGIN
1070
    73
1070
     1
1070
    44
1040
1.0
1070
    74
1070
     0
1000
MTEXTEND
  0
MTEXT
  5
55D6
330
1A
100
AcDbEntity
  8
SUNPOU
100
AcDbMText
 10
53082.55940285115
 20
41976.4060278405
 30
0.0
 40
10.5
 41
0.0
 71
     1
 72
     5
  1

1001
ACAD
1000
MTEXTBEGIN
1070
    73
1070
     1
1070
    44
1040
1.0
1070
    74
1070
     0
1000
MTEXTEND
  0
MTEXT
  5
55D7
330
1A
100
AcDbEntity
  8
SUNPOU
100
AcDbMText
 10
45151.63620691522
 20
41029.61289392755
 30
0.0
 40
10.5
 41
0.0
 71
     7
 72
     5
  1

1001
ACAD
1000
MTEXTBEGIN
1070
    73
1070
     1
1070
    44
1040
1.0
1070
    74
1070
     0
1000
MTEXTEND
  0
MTEXT
  5
55D8
330
1A
100
AcDbEntity
  8
SUNPOU
100
AcDbMText
 10
48100.61987142798
 20
45930.28896577039
 30
0.0
 40
10.5
 41
0.0
 71
     7
 72
     5
  1

1001
ACAD
1000
MTEXTBEGIN
1070
    73
1070
     1
1070
    44
1040
1.0
1070
    74
1070
     0
1000
MTEXTEND
  0
MTEXT
  5
55D9
330
1A
100
AcDbEntity
  8
SUNPOU
100
AcDbMText
 10
52609.69799937854
 20
48366.58971339046
 30
0.0
 40
10.5
 41
0.0
 71
     7
 72
     5
  1

1001
ACAD
1000
MTEXTBEGIN
1070
    73
1070
     1
1070
    44
1040
1.0
1070
    74
1070
     0
1000
MTEXTEND
  0
MTEXT
  5
55DA
330
1A
100
AcDbEntity
  8
SUNPOU
100
AcDbMText
 10
36210.53588614687
 20
27364.18586377937
 30
0.0
 40
10.5
 41
0.0
 71
     7
 72
     5
  1

1001
ACAD
1000
MTEXTBEGIN
1070
    73
1070
     1
1070
    44
1040
1.0
1070
    74
1070
     0
1000
MTEXTEND
  0
MTEXT
  5
55DB
330
1A
100
AcDbEntity
  8
SUNPOU
100
AcDbMText
 10
38021.29879752181
 20
33691.59985125794
 30
0.0
 40
10.5
 41
0.0
 71
     9
 72
     5
  1

1001
ACAD
1000
MTEXTBEGIN
1070
    73
1070
     1
1070
    44
1040
1.0
1070
    74
1070
     0
1000
MTEXTEND
  0
MTEXT
  5
55DC
330
1A
100
AcDbEntity
  8
SUNPOU
100
AcDbMText
 10
46743.46636343979
 20
41107.43438279541
 30
0.0
 40
10.5
 41
0.0
 71
     9
 72
     5
  1

1001
ACAD
1000
MTEXTBEGIN
1070
    73
1070
     1
1070
    44
1040
1.0
1070
    74
1070
     0
1000
MTEXTEND
  0
MTEXT
  5
55DD
330
1A
100
AcDbEntity
  8
SUNPOU
100
AcDbMText
 10
65697.22508076975
 20
58574.01043528746
 30
0.0
 40
10.5
 41
0.0
 71
     9
 72
     5
  1

1001
ACAD
1000
MTEXTBEGIN
1070
    73
1070
     1
1070
    44
1040
1.0
1070
    74
1070
     0
1000
MTEXTEND
  0
MTEXT
  5
55DE
330
1A
100
AcDbEntity
  8
SUNPOU
100
AcDbMText
 10
67640.63232747917
 20
56772.96135540945
 30
0.0
 40
3.5
 41
0.0
 71
     9
 72
     5
  1

1001
ACAD
1000
MTEXTBEGIN
1070
    73
1070
     1
1070
    44
1040
1.0
1070
    74
1070
     0
1000
MTEXTEND
  0
MTEXT
  5
55DF
330
1A
100
AcDbEntity
  8
SUNPOU
100
AcDbMText
 10
98766.81216009888
 20
99267.9070230668
 30
0.0
 40
10.5
 41
0.0
 71
     9
 72
     5
  1

1001
ACAD
1000
MTEXTBEGIN
1070
    73
1070
     1
1070
    44
1040
1.0
1070
    74
1070
     0
1000
MTEXTEND
  0
MTEXT
  5
55E0
330
1A
100
AcDbEntity
  8
SUNPOU
100
AcDbMText
 10
100710.2194068083
 20
97466.85794318878
 30
0.0
 40
3.5
 41
0.0
 71
     9
 72
     5
  1

1001
ACAD
1000
MTEXTBEGIN
1070
    73
1070
     1
1070
    44
1040
1.0
1070
    74
1070
     0
1000
MTEXTEND
  0
MTEXT
  5
55E1
330
1A
100
AcDbEntity
  8
SUNPOU
100
AcDbMText
 10
49207.07986589444
 20
45101.07217804185
 30
0.0
 40
10.5
 41
0.0
 71
     9
 72
     5
  1

1001
ACAD
1000
MTEXTBEGIN
1070
    73
1070
     1
1070
    44
1040
1.0
1070
    74
1070
     0
1000
MTEXTEND
  0
MTEXT
  5
55E2
330
1A
100
AcDbEntity
  8
SUNPOU
100
AcDbMText
 10
35259.07976551845
 20
25928.67303892964
 30
0.0
 40
3.5
 41
0.0
 71
     7
 72
     5
  1

1001
ACAD
1000
MTEXTBEGIN
1070
    73
1070
     1
1070
    44
1040
1.0
1070
    74
1070
     0
1000
MTEXTEND
  0
MTEXT
  5
55E3
330
1A
100
AcDbEntity
  8
SUNPOU
100
AcDbMText
 10
48951.43044828905
 20
35287.73625995099
 30
0.0
 40
10.5
 41
0.0
 71
     9
 72
     5
  1

1001
ACAD
1000
MTEXTBEGIN
1070
    73
1070
     1
1070
    44
1040
1.0
1070
    74
1070
     0
1000
MTEXTEND
  0
MTEXT
  5
55E4
330
1A
100
AcDbEntity
  8
SUNPOU
100
AcDbMText
 10
57673.59801420702
 20
42703.57079148847
 30
0.0
 40
10.5
 41
0.0
 71
     9
 72
     5
  1

1001
ACAD
1000
MTEXTBEGIN
1070
    73
1070
     1
1070
    44
1040
1.0
1070
    74
1070
     0
1000
MTEXTEND
  0
MTEXT
  5
55E5
330
1A
100
AcDbEntity
  8
SUNPOU
100
AcDbMText
 10
76627.35673153699
 20
60170.14684398051
 30
0.0
 40
10.5
 41
0.0
 71
     9
 72
     5
  1

1001
ACAD
1000
MTEXTBEGIN
1070
    73
1070
     1
1070
    44
1040
1.0
1070
    74
1070
     0
1000
MTEXTEND
  0
MTEXT
  5
55E6
330
1A
100
AcDbEntity
  8
SUNPOU
100
AcDbMText
 10
78570.76397824641
 20
58369.09776410251
 30
0.0
 40
3.5
 41
0.0
 71
     9
 72
     5
  1

1001
ACAD
1000
MTEXTBEGIN
1070
    73
1070
     1
1070
    44
1040
1.0
1070
    74
1070
     0
1000
MTEXTEND
  0
MTEXT
  5
55E7
330
1A
100
AcDbEntity
  8
SUNPOU
100
AcDbMText
 10
109696.9438108661
 20
100864.0434317598
 30
0.0
 40
10.5
 41
0.0
 71
     9
 72
     5
  1

1001
ACAD
1000
MTEXTBEGIN
1070
    73
1070
     1
1070
    44
1040
1.0
1070
    74
1070
     0
1000
MTEXTEND
  0
MTEXT
  5
55E8
330
1A
100
AcDbEntity
  8
SUNPOU
100
AcDbMText
 10
111640.3510575755
 20
99062.99435188183
 30
0.0
 40
3.5
 41
0.0
 71
     9
 72
     5
  1

1001
ACAD
1000
MTEXTBEGIN
1070
    73
1070
     1
1070
    44
1040
1.0
1070
    74
1070
     0
1000
MTEXTEND
  0
MTEXT
  5
55E9
330
1A
100
AcDbEntity
  8
SUNPOU
100
AcDbMText
 10
60137.21151666167
 20
46697.20858673491
 30
0.0
 40
10.5
 41
0.0
 71
     9
 72
     5
  1

1001
ACAD
1000
MTEXTBEGIN
1070
    73
1070
     1
1070
    44
1040
1.0
1070
    74
1070
     0
1000
MTEXTEND
  0
MTEXT
  5
55EA
330
1A
100
AcDbEntity
  8
SUNPOU
100
AcDbMText
 10
46189.21141628568
 20
27524.80944762269
 30
0.0
 40
3.5
 41
0.0
 71
     7
 72
     5
  1

1001
ACAD
1000
MTEXTBEGIN
1070
    73
1070
     1
1070
    44
1040
1.0
1070
    74
1070
     0
1000
MTEXTEND
  0
MTEXT
  5
55EB
330
1A
100
AcDbEntity
  8
SUNPOU
100
AcDbMText
 10
45007.68847015541
 20
38269.57947701874
 30
0.0
 40
10.5
 41
0.0
 71
     9
 72
     5
  1

1001
ACAD
1000
MTEXTBEGIN
1070
    73
1070
     1
1070
    44
1040
1.0
1070
    74
1070
     0
1000
MTEXTEND
  0
MTEXT
  5
55EC
330
1A
100
AcDbEntity
  8
SUNPOU
100
AcDbMText
 10
63961.44718748539
 20
55736.15552951081
 30
0.0
 40
10.5
 41
0.0
 71
     9
 72
     5
  1

1001
ACAD
1000
MTEXTBEGIN
1070
    73
1070
     1
1070
    44
1040
1.0
1070
    74
1070
     0
1000
MTEXTEND
  0
MTEXT
  5
55ED
330
1A
100
AcDbEntity
  8
SUNPOU
100
AcDbMText
 10
65904.85443419479
 20
53935.10644963279
 30
0.0
 40
3.5
 41
0.0
 71
     9
 72
     5
  1

1001
ACAD
1000
MTEXTBEGIN
1070
    73
1070
     1
1070
    44
1040
1.0
1070
    74
1070
     0
1000
MTEXTEND
  0
MTEXT
  5
55EE
330
1A
100
AcDbEntity
  8
SUNPOU
100
AcDbMText
 10
97031.03426681451
 20
96430.05211729015
 30
0.0
 40
10.5
 41
0.0
 71
     9
 72
     5
  1

1001
ACAD
1000
MTEXTBEGIN
1070
    73
1070
     1
1070
    44
1040
1.0
1070
    74
1070
     0
1000
MTEXTEND
  0
MTEXT
  5
55EF
330
1A
100
AcDbEntity
  8
SUNPOU
100
AcDbMText
 10
98974.44151352393
 20
94629.00303741212
 30
0.0
 40
3.5
 41
0.0
 71
     9
 72
     5
  1

1001
ACAD
1000
MTEXTBEGIN
1070
    73
1070
     1
1070
    44
1040
1.0
1070
    74
1070
     0
1000
MTEXTEND
  0
MTEXT
  5
55F0
330
1A
100
AcDbEntity
  8
SUNPOU
100
AcDbMText
 10
47471.30197261006
 20
42263.21727226519
 30
0.0
 40
10.5
 41
0.0
 71
     9
 72
     5
  1

1001
ACAD
1000
MTEXTBEGIN
1070
    73
1070
     1
1070
    44
1040
1.0
1070
    74
1070
     0
1000
MTEXTEND
  0
MTEXT
  5
55F1
330
1A
100
AcDbEntity
  8
SUNPOU
100
AcDbMText
 10
33523.30187223408
 20
23090.81813315298
 30
0.0
 40
3.5
 41
0.0
 71
     7
 72
     5
  1

1001
ACAD
1000
MTEXTBEGIN
1070
    73
1070
     1
1070
    44
1040
1.0
1070
    74
1070
     0
1000
MTEXTEND
  0
MTEXT
  5
55F2
330
1A
100
AcDbEntity
  8
SUNPOU
100
AcDbMText
 10
57959.46254102503
 20
50038.08111611015
 30
0.0
 40
10.5
 41
0.0
 71
     9
 72
     5
  1

1001
ACAD
1000
MTEXTBEGIN
1070
    73
1070
     1
1070
    44
1040
1.0
1070
    74
1070
     0
1000
MTEXTEND
  0
MTEXT
  5
55F3
330
1A
100
AcDbEntity
  8
SUNPOU
100
AcDbMText
 10
76913.22125835503
 20
67504.65716860222
 30
0.0
 40
10.5
 41
0.0
 71
     9
 72
     5
  1

1001
ACAD
1000
MTEXTBEGIN
1070
    73
1070
     1
1070
    44
1040
1.0
1070
    74
1070
     0
1000
MTEXTEND
  0
MTEXT
  5
55F4
330
1A
100
AcDbEntity
  8
SUNPOU
100
AcDbMText
 10
78856.62850506443
 20
65703.6080887242
 30
0.0
 40
3.5
 41
0.0
 71
     9
 72
     5
  1

1001
ACAD
1000
MTEXTBEGIN
1070
    73
1070
     1
1070
    44
1040
1.0
1070
    74
1070
     0
1000
MTEXTEND
  0
MTEXT
  5
55F5
330
1A
100
AcDbEntity
  8
SUNPOU
100
AcDbMText
 10
109982.8083376841
 20
108198.5537563815
 30
0.0
 40
10.5
 41
0.0
 71
     9
 72
     5
  1

1001
ACAD
1000
MTEXTBEGIN
1070
    73
1070
     1
1070
    44
1040
1.0
1070
    74
1070
     0
1000
MTEXTEND
  0
MTEXT
  5
55F6
330
1A
100
AcDbEntity
  8
SUNPOU
100
AcDbMText
 10
111926.2155843935
 20
106397.5046765035
 30
0.0
 40
3.5
 41
0.0
 71
     9
 72
     5
  1

1001
ACAD
1000
MTEXTBEGIN
1070
    73
1070
     1
1070
    44
1040
1.0
1070
    74
1070
     0
1000
MTEXTEND
  0
MTEXT
  5
55F7
330
1A
100
AcDbEntity
  8
SUNPOU
100
AcDbMText
 10
60423.07604347968
 20
54031.71891135659
 30
0.0
 40
10.5
 41
0.0
 71
     9
 72
     5
  1

1001
ACAD
1000
MTEXTBEGIN
1070
    73
1070
     1
1070
    44
1040
1.0
1070
    74
1070
     0
1000
MTEXTEND
  0
MTEXT
  5
55F8
330
1A
100
AcDbEntity
  8
SUNPOU
100
AcDbMText
 10
46475.07594310369
 20
34859.3197722444
 30
0.0
 40
3.5
 41
0.0
 71
     7
 72
     5
  1

1001
ACAD
1000
MTEXTBEGIN
1070
    73
1070
     1
1070
    44
1040
1.0
1070
    74
1070
     0
1000
MTEXTEND
  0
MTEXT
  5
55F9
330
1A
100
AcDbEntity
  8
SUNPOU
100
AcDbMText
 10
74027.35402123588
 20
68370.58278833383
 30
0.0
 40
10.5
 41
0.0
 71
     9
 72
     5
  1

1001
ACAD
1000
MTEXTBEGIN
1070
    73
1070
     1
1070
    44
1040
1.0
1070
    74
1070
     0
1000
MTEXTEND
  0
MTEXT
  5
55FA
330
1A
100
AcDbEntity
  8
SUNPOU
100
AcDbMText
 10
75970.7612679453
 20
66569.53370845583
 30
0.0
 40
3.5
 41
0.0
 71
     9
 72
     5
  1

1001
ACAD
1000
MTEXTBEGIN
1070
    73
1070
     1
1070
    44
1040
1.0
1070
    74
1070
     0
1000
MTEXTEND
  0
MTEXT
  5
55FB
330
1A
100
AcDbEntity
  8
SUNPOU
100
AcDbMText
 10
107096.941100565
 20
109064.4793761132
 30
0.0
 40
10.5
 41
0.0
 71
     9
 72
     5
  1

1001
ACAD
1000
MTEXTBEGIN
1070
    73
1070
     1
1070
    44
1040
1.0
1070
    74
1070
     0
1000
MTEXTEND
  0
MTEXT
  5
55FC
330
1A
100
AcDbEntity
  8
SUNPOU
100
AcDbMText
 10
109040.3483472744
 20
107263.4302962351
 30
0.0
 40
3.5
 41
0.0
 71
     9
 72
     5
  1

1001
ACAD
1000
MTEXTBEGIN
1070
    73
1070
     1
1070
    44
1040
1.0
1070
    74
1070
     0
1000
MTEXTEND
  0
MTEXT
  5
55FD
330
1A
100
AcDbEntity
  8
SUNPOU
100
AcDbMText
 10
105709.1709283621
 20
108141.3777665285
 30
0.0
 40
10.5
 41
0.0
 71
     9
 72
     5
  1

1001
ACAD
1000
MTEXTBEGIN
1070
    73
1070
     1
1070
    44
1040
1.0
1070
    74
1070
     0
1000
MTEXTEND
  0
MTEXT
  5
55FE
330
1A
100
AcDbEntity
  8
SUNPOU
100
AcDbMText
 10
107652.5781750715
 20
106340.3286866505
 30
0.0
 40
3.5
 41
0.0
 71
     9
 72
     5
  1

1001
ACAD
1000
MTEXTBEGIN
1070
    73
1070
     1
1070
    44
1040
1.0
1070
    74
1070
     0
1000
MTEXTEND
  0
MTEXT
  5
55FF
330
1A
100
AcDbEntity
  8
SUNPOU
100
AcDbMText
 10
73193.09268743351
 20
66158.78082845056
 30
0.0
 40
10.5
 41
0.0
 71
     9
 72
     5
  1

1001
ACAD
1000
MTEXTBEGIN
1070
    73
1070
     1
1070
    44
1040
1.0
1070
    74
1070
     0
1000
MTEXTEND
  0
MTEXT
  5
5600
330
1A
100
AcDbEntity
  8
SUNPOU
100
AcDbMText
 10
75916.39889159806
 20
66563.46252003162
 30
0.0
 40
3.5
 41
0.0
 71
     9
 72
     5
  1

1001
ACAD
1000
MTEXTBEGIN
1070
    73
1070
     1
1070
    44
1040
1.0
1070
    74
1070
     0
1000
MTEXTEND
  0
MTEXT
  5
5601
330
1A
100
AcDbEntity
  8
SUNPOU
100
AcDbMText
 10
75124.04436649058
 20
63402.1566819768
 30
0.0
 40
10.5
 41
0.0
 71
     9
 72
     5
  1

1001
ACAD
1000
MTEXTBEGIN
1070
    73
1070
     1
1070
    44
1040
1.0
1070
    74
1070
     0
1000
MTEXTEND
  0
MTEXT
  5
5602
330
1A
100
AcDbEntity
  8
SUNPOU
100
AcDbMText
 10
77067.4516132
 20
61601.1076020988
 30
0.0
 40
3.5
 41
0.0
 71
     9
 72
     5
  1

1001
ACAD
1000
MTEXTBEGIN
1070
    73
1070
     1
1070
    44
1040
1.0
1070
    74
1070
     0
1000
MTEXTEND
  0
MTEXT
  5
5603
330
1A
100
AcDbEntity
  8
SUNPOU
100
AcDbMText
 10
77012.54710378659
 20
61488.33571981449
 30
0.0
 40
3.5
 41
0.0
 71
     9
 72
     5
  1

1001
ACAD
1000
MTEXTBEGIN
1070
    73
1070
     1
1070
    44
1040
1.0
1070
    74
1070
     0
1000
MTEXTEND
  0
MTEXT
  5
5604
330
1A
100
AcDbEntity
  8
SUNPOU
100
AcDbMText
 10
76376.61896736668
 20
60677.01447874797
 30
0.0
 40
3.5
 41
0.0
 71
     9
 72
     5
  1

1001
ACAD
1000
MTEXTBEGIN
1070
    73
1070
     1
1070
    44
1040
1.0
1070
    74
1070
     0
1000
MTEXTEND
  0
MTEXT
  5
5605
330
1A
100
AcDbEntity
  8
SUNPOU
100
AcDbMText
 10
76375.37854794595
 20
60676.76650181047
 30
0.0
 40
10.5
 41
0.0
 71
     9
 72
     5
  1

1001
ACAD
1000
MTEXTBEGIN
1070
    73
1070
     1
1070
    44
1040
1.0
1070
    74
1070
     0
1000
MTEXTEND
  0
MTEXT
  5
5606
330
1A
100
AcDbEntity
  8
SUNPOU
100
AcDbMText
 10
84709.93991079748
 20
78034.0328293557
 30
0.0
 40
10.5
 41
0.0
 71
     9
 72
     5
  1

1001
ACAD
1000
MTEXTBEGIN
1070
    73
1070
     1
1070
    44
1040
1.0
1070
    74
1070
     0
1000
MTEXTEND
  0
MTEXT
  5
5607
330
1A
100
AcDbEntity
  8
SUNPOU
100
AcDbMText
 10
93432.10747671548
 20
85449.86736089315
 30
0.0
 40
10.5
 41
0.0
 71
     9
 72
     5
  1

1001
ACAD
1000
MTEXTBEGIN
1070
    73
1070
     1
1070
    44
1040
1.0
1070
    74
1070
     0
1000
MTEXTEND
  0
MTEXT
  5
5608
330
1A
100
AcDbEntity
  8
SUNPOU
100
AcDbMText
 10
112385.8661940454
 20
102916.4434133851
 30
0.0
 40
10.5
 41
0.0
 71
     9
 72
     5
  1

1001
ACAD
1000
MTEXTBEGIN
1070
    73
1070
     1
1070
    44
1040
1.0
1070
    74
1070
     0
1000
MTEXTEND
  0
MTEXT
  5
5609
330
1A
100
AcDbEntity
  8
SUNPOU
100
AcDbMText
 10
114329.2734407548
 20
101115.3943335072
 30
0.0
 40
3.5
 41
0.0
 71
     9
 72
     5
  1

1001
ACAD
1000
MTEXTBEGIN
1070
    73
1070
     1
1070
    44
1040
1.0
1070
    74
1070
     0
1000
MTEXTEND
  0
MTEXT
  5
560A
330
1A
100
AcDbEntity
  8
SUNPOU
100
AcDbMText
 10
145455.4532733745
 20
143610.3400011645
 30
0.0
 40
10.5
 41
0.0
 71
     9
 72
     5
  1

1001
ACAD
1000
MTEXTBEGIN
1070
    73
1070
     1
1070
    44
1040
1.0
1070
    74
1070
     0
1000
MTEXTEND
  0
MTEXT
  5
560B
330
1A
100
AcDbEntity
  8
SUNPOU
100
AcDbMText
 10
147398.8605200839
 20
141809.2909212864
 30
0.0
 40
3.5
 41
0.0
 71
     9
 72
     5
  1

1001
ACAD
1000
MTEXTBEGIN
1070
    73
1070
     1
1070
    44
1040
1.0
1070
    74
1070
     0
1000
MTEXTEND
  0
MTEXT
  5
560C
330
1A
100
AcDbEntity
  8
SUNPOU
100
AcDbMText
 10
95895.72097917013
 20
89443.5051561396
 30
0.0
 40
10.5
 41
0.0
 71
     9
 72
     5
  1

1001
ACAD
1000
MTEXTBEGIN
1070
    73
1070
     1
1070
    44
1040
1.0
1070
    74
1070
     0
1000
MTEXTEND
  0
MTEXT
  5
560D
330
1A
100
AcDbEntity
  8
SUNPOU
100
AcDbMText
 10
81947.72087879414
 20
70271.1060170274
 30
0.0
 40
3.5
 41
0.0
 71
     7
 72
     5
  1

1001
ACAD
1000
MTEXTBEGIN
1070
    73
1070
     1
1070
    44
1040
1.0
1070
    74
1070
     0
1000
MTEXTEND
  0
MTEXT
  5
560E
330
1A
100
AcDbEntity
  8
SUNPOU
100
AcDbMText
 10
62932.89027578729
 20
58033.25474784561
 30
0.0
 40
10.5
 41
0.0
 71
     7
 72
     5
  1

1001
ACAD
1000
MTEXTBEGIN
1070
    73
1070
     1
1070
    44
1040
1.0
1070
    74
1070
     0
1000
MTEXTEND
  0
MTEXT
  5
560F
330
1A
100
AcDbEntity
  8
SUNPOU
100
AcDbMText
 10
50475.66201083918
 20
42188.32316974719
 30
0.0
 40
35.0
 41
0.0
 71
     9
 72
     5
  1

1001
ACAD
1000
MTEXTBEGIN
1070
    73
1070
     1
1070
    44
1040
1.0
1070
    74
1070
     0
1000
MTEXTEND
  0
MTEXT
  5
5610
330
1A
100
AcDbEntity
  8
SUNPOU
100
AcDbMText
 10
49384.14706841413
 20
42797.0985797959
 30
0.0
 40
350.0000004171781
 41
0.0
 71
     7
 72
     5
  1

1001
ACAD
1000
MTEXTBEGIN
1070
    73
1070
     1
1070
    44
1040
1.0
1070
    74
1070
     0
1000
MTEXTEND
  0
MTEXT
  5
5611
330
1A
100
AcDbEntity
  8
0
100
AcDbMText
 10
55428.09782635704
 20
40777.02094193211
 30
0.0
 40
8.0
 41
0.0
 71
     7
 72
     5
  1

1001
ACAD
1000
MTEXTBEGIN
1070
    73
1070
     1
1070
    44
1040
1.0
1070
    74
1070
     0
1000
MTEXTEND
  0
MTEXT
  5
5612
330
1A
100
AcDbEntity
  8
0
100
AcDbMText
 10
57713.45551625194
 20
41747.81123668317
 30
0.0
 40
8.0
 41
0.0
 71
     7
 72
     5
  1

1001
ACAD
1000
MTEXTBEGIN
1070
    73
1070
     1
1070
    44
1040
1.0
1070
    74
1070
     0
1000
MTEXTEND
  0
MTEXT
  5
5613
330
1A
100
AcDbEntity
  8
SUNPOU
100
AcDbMText
 10
60379.35253693408
 20
51259.9226290583
 30
0.0
 40
10.5
 41
0.0
 71
     1
 72
     5
  1

1001
ACAD
1000
MTEXTBEGIN
1070
    73
1070
     1
1070
    44
1040
1.0
1070
    74
1070
     0
1000
MTEXTEND
  0
MTEXT
  5
5614
330
1A
100
AcDbEntity
  8
SUNPOU
100
AcDbMText
 10
52448.42934099814
 20
50313.12949514535
 30
0.0
 40
10.5
 41
0.0
 71
     7
 72
     5
  1

1001
ACAD
1000
MTEXTBEGIN
1070
    73
1070
     1
1070
    44
1040
1.0
1070
    74
1070
     0
1000
MTEXTEND
  0
MTEXT
  5
5615
330
1A
100
AcDbEntity
  8
SUNPOU
100
AcDbMText
 10
55397.41300551091
 20
55213.80556698819
 30
0.0
 40
10.5
 41
0.0
 71
     7
 72
     5
  1

1001
ACAD
1000
MTEXTBEGIN
1070
    73
1070
     1
1070
    44
1040
1.0
1070
    74
1070
     0
1000
MTEXTEND
  0
MTEXT
  5
5616
330
1A
100
AcDbEntity
  8
SUNPOU
100
AcDbMText
 10
59906.49113346147
 20
57650.10631460826
 30
0.0
 40
10.5
 41
0.0
 71
     7
 72
     5
  1

1001
ACAD
1000
MTEXTBEGIN
1070
    73
1070
     1
1070
    44
1040
1.0
1070
    74
1070
     0
1000
MTEXTEND
  0
MTEXT
  5
5617
330
1A
100
AcDbEntity
  8
SUNPOU
100
AcDbMText
 10
43507.32902022979
 20
36647.70246499718
 30
0.0
 40
10.5
 41
0.0
 71
     7
 72
     5
  1

1001
ACAD
1000
MTEXTBEGIN
1070
    73
1070
     1
1070
    44
1040
1.0
1070
    74
1070
     0
1000
MTEXTEND
  0
MTEXT
  5
5618
330
1A
100
AcDbEntity
  8
SUNPOU
100
AcDbMText
 10
94698.84745413006
 20
82320.68302864542
 30
0.0
 40
10.5
 41
0.0
 71
     9
 72
     5
  1

1001
ACAD
1000
MTEXTBEGIN
1070
    73
1070
     1
1070
    44
1040
1.0
1070
    74
1070
     0
1000
MTEXTEND
  0
MTEXT
  5
5619
330
1A
100
AcDbEntity
  8
SUNPOU
100
AcDbMText
 10
103421.015020048
 20
89736.5175601829
 30
0.0
 40
10.5
 41
0.0
 71
     9
 72
     5
  1

1001
ACAD
1000
MTEXTBEGIN
1070
    73
1070
     1
1070
    44
1040
1.0
1070
    74
1070
     0
1000
MTEXTEND
  0
MTEXT
  5
561A
330
1A
100
AcDbEntity
  8
SUNPOU
100
AcDbMText
 10
122374.773737378
 20
107203.0936126749
 30
0.0
 40
10.5
 41
0.0
 71
     9
 72
     5
  1

1001
ACAD
1000
MTEXTBEGIN
1070
    73
1070
     1
1070
    44
1040
1.0
1070
    74
1070
     0
1000
MTEXTEND
  0
MTEXT
  5
561B
330
1A
100
AcDbEntity
  8
SUNPOU
100
AcDbMText
 10
124318.1809840874
 20
105402.0445327969
 30
0.0
 40
3.5
 41
0.0
 71
     9
 72
     5
  1

1001
ACAD
1000
MTEXTBEGIN
1070
    73
1070
     1
1070
    44
1040
1.0
1070
    74
1070
     0
1000
MTEXTEND
  0
MTEXT
  5
561C
330
1A
100
AcDbEntity
  8
SUNPOU
100
AcDbMText
 10
155444.3608167071
 20
147896.9902004542
 30
0.0
 40
10.5
 41
0.0
 71
     9
 72
     5
  1

1001
ACAD
1000
MTEXTBEGIN
1070
    73
1070
     1
1070
    44
1040
1.0
1070
    74
1070
     0
1000
MTEXTEND
  0
MTEXT
  5
561D
330
1A
100
AcDbEntity
  8
SUNPOU
100
AcDbMText
 10
157387.7680634165
 20
146095.9411205762
 30
0.0
 40
3.5
 41
0.0
 71
     9
 72
     5
  1

1001
ACAD
1000
MTEXTBEGIN
1070
    73
1070
     1
1070
    44
1040
1.0
1070
    74
1070
     0
1000
MTEXTEND
  0
MTEXT
  5
561E
330
1A
100
AcDbEntity
  8
SUNPOU
100
AcDbMText
 10
105884.6285225027
 20
93730.15535542933
 30
0.0
 40
10.5
 41
0.0
 71
     9
 72
     5
  1

1001
ACAD
1000
MTEXTBEGIN
1070
    73
1070
     1
1070
    44
1040
1.0
1070
    74
1070
     0
1000
MTEXTEND
  0
MTEXT
  5
561F
330
1A
100
AcDbEntity
  8
SUNPOU
100
AcDbMText
 10
91936.6284221267
 20
74557.75621631714
 30
0.0
 40
3.5
 41
0.0
 71
     7
 72
     5
  1

1001
ACAD
1000
MTEXTBEGIN
1070
    73
1070
     1
1070
    44
1040
1.0
1070
    74
1070
     0
1000
MTEXTEND
  0
MTEXT
  5
5620
330
1A
100
AcDbEntity
  8
SUNPOU
100
AcDbMText
 10
72921.79781911986
 20
62319.90494713533
 30
0.0
 40
10.5
 41
0.0
 71
     7
 72
     5
  1

1001
ACAD
1000
MTEXTBEGIN
1070
    73
1070
     1
1070
    44
1040
1.0
1070
    74
1070
     0
1000
MTEXTEND
  0
MTEXT
  5
5621
330
1A
100
AcDbEntity
  8
SUNPOU
100
AcDbMText
 10
60464.56955417175
 20
46474.97336903692
 30
0.0
 40
35.0
 41
0.0
 71
     9
 72
     5
  1

1001
ACAD
1000
MTEXTBEGIN
1070
    73
1070
     1
1070
    44
1040
1.0
1070
    74
1070
     0
1000
MTEXTEND
  0
MTEXT
  5
5622
330
1A
100
AcDbEntity
  8
SUNPOU
100
AcDbMText
 10
59373.05461174672
 20
47083.74877908562
 30
0.0
 40
350.0000004171781
 41
0.0
 71
     7
 72
     5
  1

1001
ACAD
1000
MTEXTBEGIN
1070
    73
1070
     1
1070
    44
1040
1.0
1070
    74
1070
     0
1000
MTEXTEND
  0
MTEXT
  5
5623
330
1A
100
AcDbEntity
  8
0
100
AcDbMText
 10
65417.00536968962
 20
45063.67114122186
 30
0.0
 40
8.0
 41
0.0
 71
     7
 72
     5
  1

1001
ACAD
1000
MTEXTBEGIN
1070
    73
1070
     1
1070
    44
1040
1.0
1070
    74
1070
     0
1000
MTEXTEND
  0
MTEXT
  5
5624
330
1A
100
AcDbEntity
  8
0
100
AcDbMText
 10
67702.36305958452
 20
46034.46143597292
 30
0.0
 40
8.0
 41
0.0
 71
     7
 72
     5
  1

1001
ACAD
1000
MTEXTBEGIN
1070
    73
1070
     1
1070
    44
1040
1.0
1070
    74
1070
     0
1000
MTEXTEND
  0
MTEXT
  5
5625
330
1A
100
AcDbEntity
  8
SUNPOU
100
AcDbMText
 10
70368.26008026666
 20
55546.57282834803
 30
0.0
 40
10.5
 41
0.0
 71
     1
 72
     5
  1

1001
ACAD
1000
MTEXTBEGIN
1070
    73
1070
     1
1070
    44
1040
1.0
1070
    74
1070
     0
1000
MTEXTEND
  0
MTEXT
  5
5626
330
1A
100
AcDbEntity
  8
SUNPOU
100
AcDbMText
 10
62437.33688433072
 20
54599.77969443508
 30
0.0
 40
10.5
 41
0.0
 71
     7
 72
     5
  1

1001
ACAD
1000
MTEXTBEGIN
1070
    73
1070
     1
1070
    44
1040
1.0
1070
    74
1070
     0
1000
MTEXTEND
  0
MTEXT
  5
5627
330
1A
100
AcDbEntity
  8
SUNPOU
100
AcDbMText
 10
65386.32054884349
 20
59500.45576627792
 30
0.0
 40
10.5
 41
0.0
 71
     7
 72
     5
  1

1001
ACAD
1000
MTEXTBEGIN
1070
    73
1070
     1
1070
    44
1040
1.0
1070
    74
1070
     0
1000
MTEXTEND
  0
MTEXT
  5
5628
330
1A
100
AcDbEntity
  8
SUNPOU
100
AcDbMText
 10
69895.39867679405
 20
61936.756513898
 30
0.0
 40
10.5
 41
0.0
 71
     7
 72
     5
  1

1001
ACAD
1000
MTEXTBEGIN
1070
    73
1070
     1
1070
    44
1040
1.0
1070
    74
1070
     0
1000
MTEXTEND
  0
MTEXT
  5
5629
330
1A
100
AcDbEntity
  8
SUNPOU
100
AcDbMText
 10
53496.23656356237
 20
40934.35266428691
 30
0.0
 40
10.5
 41
0.0
 71
     7
 72
     5
  1

1001
ACAD
1000
MTEXTBEGIN
1070
    73
1070
     1
1070
    44
1040
1.0
1070
    74
1070
     0
1000
MTEXTEND
  0
MTEXT
  5
562A
330
1A
100
AcDbEntity
  8
SUNPOU
100
AcDbMText
 10
55306.99947493731
 20
47261.76665176547
 30
0.0
 40
10.5
 41
0.0
 71
     9
 72
     5
  1

1001
ACAD
1000
MTEXTBEGIN
1070
    73
1070
     1
1070
    44
1040
1.0
1070
    74
1070
     0
1000
MTEXTEND
  0
MTEXT
  5
562B
330
1A
100
AcDbEntity
  8
SUNPOU
100
AcDbMText
 10
64029.16704085528
 20
54677.60118330295
 30
0.0
 40
10.5
 41
0.0
 71
     9
 72
     5
  1

1001
ACAD
1000
MTEXTBEGIN
1070
    73
1070
     1
1070
    44
1040
1.0
1070
    74
1070
     0
1000
MTEXTEND
  0
MTEXT
  5
562C
330
1A
100
AcDbEntity
  8
SUNPOU
100
AcDbMText
 10
82982.92575818527
 20
72144.17723579499
 30
0.0
 40
10.5
 41
0.0
 71
     9
 72
     5
  1

1001
ACAD
1000
MTEXTBEGIN
1070
    73
1070
     1
1070
    44
1040
1.0
1070
    74
1070
     0
1000
MTEXTEND
  0
MTEXT
  5
562D
330
1A
100
AcDbEntity
  8
SUNPOU
100
AcDbMText
 10
84926.33300489467
 20
70343.12815591698
 30
0.0
 40
3.5
 41
0.0
 71
     9
 72
     5
  1

1001
ACAD
1000
MTEXTBEGIN
1070
    73
1070
     1
1070
    44
1040
1.0
1070
    74
1070
     0
1000
MTEXTEND
  0
MTEXT
  5
562E
330
1A
100
AcDbEntity
  8
SUNPOU
100
AcDbMText
 10
116052.5128375143
 20
112838.0738235743
 30
0.0
 40
10.5
 41
0.0
 71
     9
 72
     5
  1

1001
ACAD
1000
MTEXTBEGIN
1070
    73
1070
     1
1070
    44
1040
1.0
1070
    74
1070
     0
1000
MTEXTEND
  0
MTEXT
  5
562F
330
1A
100
AcDbEntity
  8
SUNPOU
100
AcDbMText
 10
117995.9200842238
 20
111037.0247436963
 30
0.0
 40
3.5
 41
0.0
 71
     9
 72
     5
  1

1001
ACAD
1000
MTEXTBEGIN
1070
    73
1070
     1
1070
    44
1040
1.0
1070
    74
1070
     0
1000
MTEXTEND
  0
MTEXT
  5
5630
330
1A
100
AcDbEntity
  8
SUNPOU
100
AcDbMText
 10
66492.78054330994
 20
58671.23897854939
 30
0.0
 40
10.5
 41
0.0
 71
     9
 72
     5
  1

1001
ACAD
1000
MTEXTBEGIN
1070
    73
1070
     1
1070
    44
1040
1.0
1070
    74
1070
     0
1000
MTEXTEND
  0
MTEXT
  5
5631
330
1A
100
AcDbEntity
  8
SUNPOU
100
AcDbMText
 10
52544.78044293396
 20
39498.83983943717
 30
0.0
 40
3.5
 41
0.0
 71
     7
 72
     5
  1

1001
ACAD
1000
MTEXTBEGIN
1070
    73
1070
     1
1070
    44
1040
1.0
1070
    74
1070
     0
1000
MTEXTEND
  0
MTEXT
  5
5632
330
1A
100
AcDbEntity
  8
SUNPOU
100
AcDbMText
 10
66237.13112570454
 20
48857.90306045851
 30
0.0
 40
10.5
 41
0.0
 71
     9
 72
     5
  1

1001
ACAD
1000
MTEXTBEGIN
1070
    73
1070
     1
1070
    44
1040
1.0
1070
    74
1070
     0
1000
MTEXTEND
  0
MTEXT
  5
5633
330
1A
100
AcDbEntity
  8
SUNPOU
100
AcDbMText
 10
74959.29869162252
 20
56273.737591996
 30
0.0
 40
10.5
 41
0.0
 71
     9
 72
     5
  1

1001
ACAD
1000
MTEXTBEGIN
1070
    73
1070
     1
1070
    44
1040
1.0
1070
    74
1070
     0
1000
MTEXTEND
  0
MTEXT
  5
5634
330
1A
100
AcDbEntity
  8
SUNPOU
100
AcDbMText
 10
93913.0574089525
 20
73740.31364448805
 30
0.0
 40
10.5
 41
0.0
 71
     9
 72
     5
  1

1001
ACAD
1000
MTEXTBEGIN
1070
    73
1070
     1
1070
    44
1040
1.0
1070
    74
1070
     0
1000
MTEXTEND
  0
MTEXT
  5
5635
330
1A
100
AcDbEntity
  8
SUNPOU
100
AcDbMText
 10
95856.46465566192
 20
71939.26456461004
 30
0.0
 40
3.5
 41
0.0
 71
     9
 72
     5
  1

1001
ACAD
1000
MTEXTBEGIN
1070
    73
1070
     1
1070
    44
1040
1.0
1070
    74
1070
     0
1000
MTEXTEND
  0
MTEXT
  5
5636
330
1A
100
AcDbEntity
  8
SUNPOU
100
AcDbMText
 10
126982.6444882816
 20
114434.2102322673
 30
0.0
 40
10.5
 41
0.0
 71
     9
 72
     5
  1

1001
ACAD
1000
MTEXTBEGIN
1070
    73
1070
     1
1070
    44
1040
1.0
1070
    74
1070
     0
1000
MTEXTEND
  0
MTEXT
  5
5637
330
1A
100
AcDbEntity
  8
SUNPOU
100
AcDbMText
 10
128926.051734991
 20
112633.1611523893
 30
0.0
 40
3.5
 41
0.0
 71
     9
 72
     5
  1

1001
ACAD
1000
MTEXTBEGIN
1070
    73
1070
     1
1070
    44
1040
1.0
1070
    74
1070
     0
1000
MTEXTEND
  0
MTEXT
  5
5638
330
1A
100
AcDbEntity
  8
SUNPOU
100
AcDbMText
 10
77422.91219407717
 20
60267.37538724244
 30
0.0
 40
10.5
 41
0.0
 71
     9
 72
     5
  1

1001
ACAD
1000
MTEXTBEGIN
1070
    73
1070
     1
1070
    44
1040
1.0
1070
    74
1070
     0
1000
MTEXTEND
  0
MTEXT
  5
5639
330
1A
100
AcDbEntity
  8
SUNPOU
100
AcDbMText
 10
63474.91209370119
 20
41094.97624813023
 30
0.0
 40
3.5
 41
0.0
 71
     7
 72
     5
  1

1001
ACAD
1000
MTEXTBEGIN
1070
    73
1070
     1
1070
    44
1040
1.0
1070
    74
1070
     0
1000
MTEXTEND
  0
MTEXT
  5
563A
330
1A
100
AcDbEntity
  8
SUNPOU
100
AcDbMText
 10
48117.65086229006
 20
40806.11043916631
 30
0.0
 40
10.5
 41
0.0
 71
     9
 72
     5
  1

1001
ACAD
1000
MTEXTBEGIN
1070
    73
1070
     1
1070
    44
1040
1.0
1070
    74
1070
     0
1000
MTEXTEND
  0
MTEXT
  5
563B
330
1A
100
AcDbEntity
  8
SUNPOU
100
AcDbMText
 10
67071.40957962004
 20
58272.68649165837
 30
0.0
 40
10.5
 41
0.0
 71
     9
 72
     5
  1

1001
ACAD
1000
MTEXTBEGIN
1070
    73
1070
     1
1070
    44
1040
1.0
1070
    74
1070
     0
1000
MTEXTEND
  0
MTEXT
  5
563C
330
1A
100
AcDbEntity
  8
SUNPOU
100
AcDbMText
 10
69014.81682632945
 20
56471.63741178035
 30
0.0
 40
3.5
 41
0.0
 71
     9
 72
     5
  1

1001
ACAD
1000
MTEXTBEGIN
1070
    73
1070
     1
1070
    44
1040
1.0
1070
    74
1070
     0
1000
MTEXTEND
  0
MTEXT
  5
563D
330
1A
100
AcDbEntity
  8
SUNPOU
100
AcDbMText
 10
100140.9966589491
 20
98966.58307943772
 30
0.0
 40
10.5
 41
0.0
 71
     9
 72
     5
  1

1001
ACAD
1000
MTEXTBEGIN
1070
    73
1070
     1
1070
    44
1040
1.0
1070
    74
1070
     0
1000
MTEXTEND
  0
MTEXT
  5
563E
330
1A
100
AcDbEntity
  8
SUNPOU
100
AcDbMText
 10
102084.4039056586
 20
97165.53399955969
 30
0.0
 40
3.5
 41
0.0
 71
     9
 72
     5
  1

1001
ACAD
1000
MTEXTBEGIN
1070
    73
1070
     1
1070
    44
1040
1.0
1070
    74
1070
     0
1000
MTEXTEND
  0
MTEXT
  5
563F
330
1A
100
AcDbEntity
  8
SUNPOU
100
AcDbMText
 10
50581.26436474472
 20
44799.74823441275
 30
0.0
 40
10.5
 41
0.0
 71
     9
 72
     5
  1

1001
ACAD
1000
MTEXTBEGIN
1070
    73
1070
     1
1070
    44
1040
1.0
1070
    74
1070
     0
1000
MTEXTEND
  0
MTEXT
  5
5640
330
1A
100
AcDbEntity
  8
SUNPOU
100
AcDbMText
 10
36633.26426436873
 20
25627.34909530054
 30
0.0
 40
3.5
 41
0.0
 71
     7
 72
     5
  1

1001
ACAD
1000
MTEXTBEGIN
1070
    73
1070
     1
1070
    44
1040
1.0
1070
    74
1070
     0
1000
MTEXTEND
  0
MTEXT
  5
5641
330
1A
100
AcDbEntity
  8
SUNPOU
100
AcDbMText
 10
61069.42493315968
 20
52574.61207825771
 30
0.0
 40
10.5
 41
0.0
 71
     9
 72
     5
  1

1001
ACAD
1000
MTEXTBEGIN
1070
    73
1070
     1
1070
    44
1040
1.0
1070
    74
1070
     0
1000
MTEXTEND
  0
MTEXT
  5
5642
330
1A
100
AcDbEntity
  8
SUNPOU
100
AcDbMText
 10
80023.18365048967
 20
70041.18813074978
 30
0.0
 40
10.5
 41
0.0
 71
     9
 72
     5
  1

1001
ACAD
1000
MTEXTBEGIN
1070
    73
1070
     1
1070
    44
1040
1.0
1070
    74
1070
     0
1000
MTEXTEND
  0
MTEXT
  5
5643
330
1A
100
AcDbEntity
  8
SUNPOU
100
AcDbMText
 10
81966.59089719908
 20
68240.13905087176
 30
0.0
 40
3.5
 41
0.0
 71
     9
 72
     5
  1

1001
ACAD
1000
MTEXTBEGIN
1070
    73
1070
     1
1070
    44
1040
1.0
1070
    74
1070
     0
1000
MTEXTEND
  0
MTEXT
  5
5644
330
1A
100
AcDbEntity
  8
SUNPOU
100
AcDbMText
 10
113092.7707298187
 20
110735.0847185291
 30
0.0
 40
10.5
 41
0.0
 71
     9
 72
     5
  1

1001
ACAD
1000
MTEXTBEGIN
1070
    73
1070
     1
1070
    44
1040
1.0
1070
    74
1070
     0
1000
MTEXTEND
  0
MTEXT
  5
5645
330
1A
100
AcDbEntity
  8
SUNPOU
100
AcDbMText
 10
115036.1779765282
 20
108934.0356386511
 30
0.0
 40
3.5
 41
0.0
 71
     9
 72
     5
  1

1001
ACAD
1000
MTEXTBEGIN
1070
    73
1070
     1
1070
    44
1040
1.0
1070
    74
1070
     0
1000
MTEXTEND
  0
MTEXT
  5
5646
330
1A
100
AcDbEntity
  8
SUNPOU
100
AcDbMText
 10
63533.03843561433
 20
56568.24987350415
 30
0.0
 40
10.5
 41
0.0
 71
     9
 72
     5
  1

1001
ACAD
1000
MTEXTBEGIN
1070
    73
1070
     1
1070
    44
1040
1.0
1070
    74
1070
     0
1000
MTEXTEND
  0
MTEXT
  5
5647
330
1A
100
AcDbEntity
  8
SUNPOU
100
AcDbMText
 10
49585.03833523835
 20
37395.85073439196
 30
0.0
 40
3.5
 41
0.0
 71
     7
 72
     5
  1

1001
ACAD
1000
MTEXTBEGIN
1070
    73
1070
     1
1070
    44
1040
1.0
1070
    74
1070
     0
1000
MTEXTEND
  0
MTEXT
  5
5648
330
1A
100
AcDbEntity
  8
SUNPOU
100
AcDbMText
 10
77137.31641337052
 20
70907.11375048141
 30
0.0
 40
10.5
 41
0.0
 71
     9
 72
     5
  1

1001
ACAD
1000
MTEXTBEGIN
1070
    73
1070
     1
1070
    44
1040
1.0
1070
    74
1070
     0
1000
MTEXTEND
  0
MTEXT
  5
5649
330
1A
100
AcDbEntity
  8
SUNPOU
100
AcDbMText
 10
79080.72366007995
 20
69106.06467060339
 30
0.0
 40
3.5
 41
0.0
 71
     9
 72
     5
  1

1001
ACAD
1000
MTEXTBEGIN
1070
    73
1070
     1
1070
    44
1040
1.0
1070
    74
1070
     0
1000
MTEXTEND
  0
MTEXT
  5
564A
330
1A
100
AcDbEntity
  8
SUNPOU
100
AcDbMText
 10
110206.9034926996
 20
111601.0103382607
 30
0.0
 40
10.5
 41
0.0
 71
     9
 72
     5
  1

1001
ACAD
1000
MTEXTBEGIN
1070
    73
1070
     1
1070
    44
1040
1.0
1070
    74
1070
     0
1000
MTEXTEND
  0
MTEXT
  5
564B
330
1A
100
AcDbEntity
  8
SUNPOU
100
AcDbMText
 10
112150.310739409
 20
109799.9612583827
 30
0.0
 40
3.5
 41
0.0
 71
     9
 72
     5
  1

1001
ACAD
1000
MTEXTBEGIN
1070
    73
1070
     1
1070
    44
1040
1.0
1070
    74
1070
     0
1000
MTEXTEND
  0
MTEXT
  5
564C
330
1A
100
AcDbEntity
  8
SUNPOU
100
AcDbMText
 10
108819.1333204968
 20
110677.9087286761
 30
0.0
 40
10.5
 41
0.0
 71
     9
 72
     5
  1

1001
ACAD
1000
MTEXTBEGIN
1070
    73
1070
     1
1070
    44
1040
1.0
1070
    74
1070
     0
1000
MTEXTEND
  0
MTEXT
  5
564D
330
1A
100
AcDbEntity
  8
SUNPOU
100
AcDbMText
 10
110762.5405672062
 20
108876.8596487981
 30
0.0
 40
3.5
 41
0.0
 71
     9
 72
     5
  1

1001
ACAD
1000
MTEXTBEGIN
1070
    73
1070
     1
1070
    44
1040
1.0
1070
    74
1070
     0
1000
MTEXTEND
  0
MTEXT
  5
564E
330
1A
100
AcDbEntity
  8
SUNPOU
100
AcDbMText
 10
76303.05507956816
 20
68695.31179059812
 30
0.0
 40
10.5
 41
0.0
 71
     9
 72
     5
  1

1001
ACAD
1000
MTEXTBEGIN
1070
    73
1070
     1
1070
    44
1040
1.0
1070
    74
1070
     0
1000
MTEXTEND
  0
MTEXT
  5
564F
330
1A
100
AcDbEntity
  8
SUNPOU
100
AcDbMText
 10
79026.36128373271
 20
69099.99348217918
 30
0.0
 40
3.5
 41
0.0
 71
     9
 72
     5
  1

1001
ACAD
1000
MTEXTBEGIN
1070
    73
1070
     1
1070
    44
1040
1.0
1070
    74
1070
     0
1000
MTEXTEND
  0
MTEXT
  5
5650
330
1A
100
AcDbEntity
  8
SUNPOU
100
AcDbMText
 10
78234.00675862522
 20
65938.68764412436
 30
0.0
 40
10.5
 41
0.0
 71
     9
 72
     5
  1

1001
ACAD
1000
MTEXTBEGIN
1070
    73
1070
     1
1070
    44
1040
1.0
1070
    74
1070
     0
1000
MTEXTEND
  0
MTEXT
  5
5651
330
1A
100
AcDbEntity
  8
SUNPOU
100
AcDbMText
 10
80177.41400533465
 20
64137.63856424636
 30
0.0
 40
3.5
 41
0.0
 71
     9
 72
     5
  1

1001
ACAD
1000
MTEXTBEGIN
1070
    73
1070
     1
1070
    44
1040
1.0
1070
    74
1070
     0
1000
MTEXTEND
  0
MTEXT
  5
5652
330
1A
100
AcDbEntity
  8
SUNPOU
100
AcDbMText
 10
80122.50949592123
 20
64024.86668196205
 30
0.0
 40
3.5
 41
0.0
 71
     9
 72
     5
  1

1001
ACAD
1000
MTEXTBEGIN
1070
    73
1070
     1
1070
    44
1040
1.0
1070
    74
1070
     0
1000
MTEXTEND
  0
MTEXT
  5
5653
330
1A
100
AcDbEntity
  8
SUNPOU
100
AcDbMText
 10
79486.58135950133
 20
63213.54544089553
 30
0.0
 40
3.5
 41
0.0
 71
     9
 72
     5
  1

1001
ACAD
1000
MTEXTBEGIN
1070
    73
1070
     1
1070
    44
1040
1.0
1070
    74
1070
     0
1000
MTEXTEND
  0
MTEXT
  5
5654
330
1A
100
AcDbEntity
  8
SUNPOU
100
AcDbMText
 10
79485.3409400806
 20
63213.29746395804
 30
0.0
 40
10.5
 41
0.0
 71
     9
 72
     5
  1

1001
ACAD
1000
MTEXTBEGIN
1070
    73
1070
     1
1070
    44
1040
1.0
1070
    74
1070
     0
1000
MTEXTEND
  0
MTEXT
  5
5655
330
1A
100
AcDbEntity
  8
SUNPOU
100
AcDbMText
 10
85473.63363627567
 20
80747.76348077064
 30
0.0
 40
10.5
 41
0.0
 71
     9
 72
     5
  1

1001
ACAD
1000
MTEXTBEGIN
1070
    73
1070
     1
1070
    44
1040
1.0
1070
    74
1070
     0
1000
MTEXTEND
  0
MTEXT
  5
5656
330
1A
100
AcDbEntity
  8
SUNPOU
100
AcDbMText
 10
94195.80120219368
 20
88163.59801230809
 30
0.0
 40
10.5
 41
0.0
 71
     9
 72
     5
  1

1001
ACAD
1000
MTEXTBEGIN
1070
    73
1070
     1
1070
    44
1040
1.0
1070
    74
1070
     0
1000
MTEXTEND
  0
MTEXT
  5
5657
330
1A
100
AcDbEntity
  8
SUNPOU
100
AcDbMText
 10
113149.5599195236
 20
105630.1740648001
 30
0.0
 40
10.5
 41
0.0
 71
     9
 72
     5
  1

1001
ACAD
1000
MTEXTBEGIN
1070
    73
1070
     1
1070
    44
1040
1.0
1070
    74
1070
     0
1000
MTEXTEND
  0
MTEXT
  5
5658
330
1A
100
AcDbEntity
  8
SUNPOU
100
AcDbMText
 10
115092.967166233
 20
103829.1249849221
 30
0.0
 40
3.5
 41
0.0
 71
     9
 72
     5
  1

1001
ACAD
1000
MTEXTBEGIN
1070
    73
1070
     1
1070
    44
1040
1.0
1070
    74
1070
     0
1000
MTEXTEND
  0
MTEXT
  5
5659
330
1A
100
AcDbEntity
  8
SUNPOU
100
AcDbMText
 10
146219.1469988527
 20
146324.0706525794
 30
0.0
 40
10.5
 41
0.0
 71
     9
 72
     5
  1

1001
ACAD
1000
MTEXTBEGIN
1070
    73
1070
     1
1070
    44
1040
1.0
1070
    74
1070
     0
1000
MTEXTEND
  0
MTEXT
  5
565A
330
1A
100
AcDbEntity
  8
SUNPOU
100
AcDbMText
 10
148162.5542455621
 20
144523.0215727014
 30
0.0
 40
3.5
 41
0.0
 71
     9
 72
     5
  1

1001
ACAD
1000
MTEXTBEGIN
1070
    73
1070
     1
1070
    44
1040
1.0
1070
    74
1070
     0
1000
MTEXTEND
  0
MTEXT
  5
565B
330
1A
100
AcDbEntity
  8
SUNPOU
100
AcDbMText
 10
96659.41470464833
 20
92157.23580755453
 30
0.0
 40
10.5
 41
0.0
 71
     9
 72
     5
  1

1001
ACAD
1000
MTEXTBEGIN
1070
    73
1070
     1
1070
    44
1040
1.0
1070
    74
1070
     0
1000
MTEXTEND
  0
MTEXT
  5
565C
330
1A
100
AcDbEntity
  8
SUNPOU
100
AcDbMText
 10
82711.41460427234
 20
72984.83666844234
 30
0.0
 40
3.5
 41
0.0
 71
     7
 72
     5
  1

1001
ACAD
1000
MTEXTBEGIN
1070
    73
1070
     1
1070
    44
1040
1.0
1070
    74
1070
     0
1000
MTEXTEND
  0
MTEXT
  5
565D
330
1A
100
AcDbEntity
  8
SUNPOU
100
AcDbMText
 10
63696.58400126548
 20
60746.98539926055
 30
0.0
 40
10.5
 41
0.0
 71
     7
 72
     5
  1

1001
ACAD
1000
MTEXTBEGIN
1070
    73
1070
     1
1070
    44
1040
1.0
1070
    74
1070
     0
1000
MTEXTEND
  0
MTEXT
  5
565E
330
1A
100
AcDbEntity
  8
SUNPOU
100
AcDbMText
 10
51239.35573631738
 20
44902.05382116213
 30
0.0
 40
35.0
 41
0.0
 71
     9
 72
     5
  1

1001
ACAD
1000
MTEXTBEGIN
1070
    73
1070
     1
1070
    44
1040
1.0
1070
    74
1070
     0
1000
MTEXTEND
  0
MTEXT
  5
565F
330
1A
100
AcDbEntity
  8
SUNPOU
100
AcDbMText
 10
50147.84079389233
 20
45510.82923121084
 30
0.0
 40
350.0000004171781
 41
0.0
 71
     7
 72
     5
  1

1001
ACAD
1000
MTEXTBEGIN
1070
    73
1070
     1
1070
    44
1040
1.0
1070
    74
1070
     0
1000
MTEXTEND
  0
MTEXT
  5
5660
330
1A
100
AcDbEntity
  8
0
100
AcDbMText
 10
56191.79155183523
 20
43490.75159334705
 30
0.0
 40
8.0
 41
0.0
 71
     7
 72
     5
  1

1001
ACAD
1000
MTEXTBEGIN
1070
    73
1070
     1
1070
    44
1040
1.0
1070
    74
1070
     0
1000
MTEXTEND
  0
MTEXT
  5
5661
330
1A
100
AcDbEntity
  8
0
100
AcDbMText
 10
58477.14924173013
 20
44461.54188809812
 30
0.0
 40
8.0
 41
0.0
 71
     7
 72
     5
  1

1001
ACAD
1000
MTEXTBEGIN
1070
    73
1070
     1
1070
    44
1040
1.0
1070
    74
1070
     0
1000
MTEXTEND
  0
MTEXT
  5
5662
330
1A
100
AcDbEntity
  8
SUNPOU
100
AcDbMText
 10
61143.04626241227
 20
53973.65328047324
 30
0.0
 40
10.5
 41
0.0
 71
     1
 72
     5
  1

1001
ACAD
1000
MTEXTBEGIN
1070
    73
1070
     1
1070
    44
1040
1.0
1070
    74
1070
     0
1000
MTEXTEND
  0
MTEXT
  5
5663
330
1A
100
AcDbEntity
  8
SUNPOU
100
AcDbMText
 10
53212.12306647634
 20
53026.86014656028
 30
0.0
 40
10.5
 41
0.0
 71
     7
 72
     5
  1

1001
ACAD
1000
MTEXTBEGIN
1070
    73
1070
     1
1070
    44
1040
1.0
1070
    74
1070
     0
1000
MTEXTEND
  0
MTEXT
  5
5664
330
1A
100
AcDbEntity
  8
SUNPOU
100
AcDbMText
 10
56161.1067309891
 20
57927.53621840312
 30
0.0
 40
10.5
 41
0.0
 71
     7
 72
     5
  1

1001
ACAD
1000
MTEXTBEGIN
1070
    73
1070
     1
1070
    44
1040
1.0
1070
    74
1070
     0
1000
MTEXTEND
  0
MTEXT
  5
5665
330
1A
100
AcDbEntity
  8
SUNPOU
100
AcDbMText
 10
60670.18485893966
 20
60363.8369660232
 30
0.0
 40
10.5
 41
0.0
 71
     7
 72
     5
  1

1001
ACAD
1000
MTEXTBEGIN
1070
    73
1070
     1
1070
    44
1040
1.0
1070
    74
1070
     0
1000
MTEXTEND
  0
MTEXT
  5
5666
330
1A
100
AcDbEntity
  8
SUNPOU
100
AcDbMText
 10
44271.02274570799
 20
39361.43311641212
 30
0.0
 40
10.5
 41
0.0
 71
     7
 72
     5
  1

1001
ACAD
1000
MTEXTBEGIN
1070
    73
1070
     1
1070
    44
1040
1.0
1070
    74
1070
     0
1000
MTEXTEND
  0
MTEXT
  5
5667
330
1A
100
AcDbEntity
  8
SUNPOU
100
AcDbMText
 10
95462.54117960824
 20
85034.41368006038
 30
0.0
 40
10.5
 41
0.0
 71
     9
 72
     5
  1

1001
ACAD
1000
MTEXTBEGIN
1070
    73
1070
     1
1070
    44
1040
1.0
1070
    74
1070
     0
1000
MTEXTEND
  0
MTEXT
  5
5668
330
1A
100
AcDbEntity
  8
SUNPOU
100
AcDbMText
 10
104184.7087455262
 20
92450.24821159784
 30
0.0
 40
10.5
 41
0.0
 71
     9
 72
     5
  1

1001
ACAD
1000
MTEXTBEGIN
1070
    73
1070
     1
1070
    44
1040
1.0
1070
    74
1070
     0
1000
MTEXTEND
  0
MTEXT
  5
5669
330
1A
100
AcDbEntity
  8
SUNPOU
100
AcDbMText
 10
123138.4674628562
 20
109916.8242640898
 30
0.0
 40
10.5
 41
0.0
 71
     9
 72
     5
  1

1001
ACAD
1000
MTEXTBEGIN
1070
    73
1070
     1
1070
    44
1040
1.0
1070
    74
1070
     0
1000
MTEXTEND
  0
MTEXT
  5
566A
330
1A
100
AcDbEntity
  8
SUNPOU
100
AcDbMText
 10
125081.8747095656
 20
108115.7751842118
 30
0.0
 40
3.5
 41
0.0
 71
     9
 72
     5
  1

1001
ACAD
1000
MTEXTBEGIN
1070
    73
1070
     1
1070
    44
1040
1.0
1070
    74
1070
     0
1000
MTEXTEND
  0
MTEXT
  5
566B
330
1A
100
AcDbEntity
  8
SUNPOU
100
AcDbMText
 10
156208.0545421853
 20
150610.7208518691
 30
0.0
 40
10.5
 41
0.0
 71
     9
 72
     5
  1

1001
ACAD
1000
MTEXTBEGIN
1070
    73
1070
     1
1070
    44
1040
1.0
1070
    74
1070
     0
1000
MTEXTEND
  0
MTEXT
  5
566C
330
1A
100
AcDbEntity
  8
SUNPOU
100
AcDbMText
 10
158151.4617888947
 20
148809.6717719911
 30
0.0
 40
3.5
 41
0.0
 71
     9
 72
     5
  1

1001
ACAD
1000
MTEXTBEGIN
1070
    73
1070
     1
1070
    44
1040
1.0
1070
    74
1070
     0
1000
MTEXTEND
  0
MTEXT
  5
566D
330
1A
100
AcDbEntity
  8
SUNPOU
100
AcDbMText
 10
106648.3222479809
 20
96443.88600684427
 30
0.0
 40
10.5
 41
0.0
 71
     9
 72
     5
  1

1001
ACAD
1000
MTEXTBEGIN
1070
    73
1070
     1
1070
    44
1040
1.0
1070
    74
1070
     0
1000
MTEXTEND
  0
MTEXT
  5
566E
330
1A
100
AcDbEntity
  8
SUNPOU
100
AcDbMText
 10
92700.3221476049
 20
77271.48686773207
 30
0.0
 40
3.5
 41
0.0
 71
     7
 72
     5
  1

1001
ACAD
1000
MTEXTBEGIN
1070
    73
1070
     1
1070
    44
1040
1.0
1070
    74
1070
     0
1000
MTEXTEND
  0
MTEXT
  5
566F
330
1A
100
AcDbEntity
  8
SUNPOU
100
AcDbMText
 10
73685.49154459806
 20
65033.63559855027
 30
0.0
 40
10.5
 41
0.0
 71
     7
 72
     5
  1

1001
ACAD
1000
MTEXTBEGIN
1070
    73
1070
     1
1070
    44
1040
1.0
1070
    74
1070
     0
1000
MTEXTEND
  0
MTEXT
  5
5670
330
1A
100
AcDbEntity
  8
SUNPOU
100
AcDbMText
 10
61228.26327964995
 20
49188.70402045185
 30
0.0
 40
35.0
 41
0.0
 71
     9
 72
     5
  1

1001
ACAD
1000
MTEXTBEGIN
1070
    73
1070
     1
1070
    44
1040
1.0
1070
    74
1070
     0
1000
MTEXTEND
  0
MTEXT
  5
5671
330
1A
100
AcDbEntity
  8
SUNPOU
100
AcDbMText
 10
60136.74833722491
 20
49797.47943050056
 30
0.0
 40
350.0000004171781
 41
0.0
 71
     7
 72
     5
  1

1001
ACAD
1000
MTEXTBEGIN
1070
    73
1070
     1
1070
    44
1040
1.0
1070
    74
1070
     0
1000
MTEXTEND
  0
MTEXT
  5
5672
330
1A
100
AcDbEntity
  8
0
100
AcDbMText
 10
66180.69909516782
 20
47777.40179263678
 30
0.0
 40
8.0
 41
0.0
 71
     7
 72
     5
  1

1001
ACAD
1000
MTEXTBEGIN
1070
    73
1070
     1
1070
    44
1040
1.0
1070
    74
1070
     0
1000
MTEXTEND
  0
MTEXT
  5
5673
330
1A
100
AcDbEntity
  8
0
100
AcDbMText
 10
68466.05678506271
 20
48748.19208738784
 30
0.0
 40
8.0
 41
0.0
 71
     7
 72
     5
  1

1001
ACAD
1000
MTEXTBEGIN
1070
    73
1070
     1
1070
    44
1040
1.0
1070
    74
1070
     0
1000
MTEXTEND
  0
MTEXT
  5
5674
330
1A
100
AcDbEntity
  8
SUNPOU
100
AcDbMText
 10
71131.95380574485
 20
58260.30347976296
 30
0.0
 40
10.5
 41
0.0
 71
     1
 72
     5
  1

1001
ACAD
1000
MTEXTBEGIN
1070
    73
1070
     1
1070
    44
1040
1.0
1070
    74
1070
     0
1000
MTEXTEND
  0
MTEXT
  5
5675
330
1A
100
AcDbEntity
  8
SUNPOU
100
AcDbMText
 10
63201.03060980891
 20
57313.51034585002
 30
0.0
 40
10.5
 41
0.0
 71
     7
 72
     5
  1

1001
ACAD
1000
MTEXTBEGIN
1070
    73
1070
     1
1070
    44
1040
1.0
1070
    74
1070
     0
1000
MTEXTEND
  0
MTEXT
  5
5676
330
1A
100
AcDbEntity
  8
SUNPOU
100
AcDbMText
 10
66150.01427432169
 20
62214.18641769286
 30
0.0
 40
10.5
 41
0.0
 71
     7
 72
     5
  1

1001
ACAD
1000
MTEXTBEGIN
1070
    73
1070
     1
1070
    44
1040
1.0
1070
    74
1070
     0
1000
MTEXTEND
  0
MTEXT
  5
5677
330
1A
100
AcDbEntity
  8
SUNPOU
100
AcDbMText
 10
70659.09240227225
 20
64650.48716531294
 30
0.0
 40
10.5
 41
0.0
 71
     7
 72
     5
  1

1001
ACAD
1000
MTEXTBEGIN
1070
    73
1070
     1
1070
    44
1040
1.0
1070
    74
1070
     0
1000
MTEXTEND
  0
MTEXT
  5
5678
330
1A
100
AcDbEntity
  8
SUNPOU
100
AcDbMText
 10
54259.93028904056
 20
43648.08331570185
 30
0.0
 40
10.5
 41
0.0
 71
     7
 72
     5
  1

1001
ACAD
1000
MTEXTBEGIN
1070
    73
1070
     1
1070
    44
1040
1.0
1070
    74
1070
     0
1000
MTEXTEND
  0
MTEXT
  5
5679
330
1A
100
AcDbEntity
  8
SUNPOU
100
AcDbMText
 10
56070.69320041551
 20
49975.4973031804
 30
0.0
 40
10.5
 41
0.0
 71
     9
 72
     5
  1

1001
ACAD
1000
MTEXTBEGIN
1070
    73
1070
     1
1070
    44
1040
1.0
1070
    74
1070
     0
1000
MTEXTEND
  0
MTEXT
  5
567A
330
1A
100
AcDbEntity
  8
SUNPOU
100
AcDbMText
 10
64792.86076633348
 20
57391.33183471788
 30
0.0
 40
10.5
 41
0.0
 71
     9
 72
     5
  1

1001
ACAD
1000
MTEXTBEGIN
1070
    73
1070
     1
1070
    44
1040
1.0
1070
    74
1070
     0
1000
MTEXTEND
  0
MTEXT
  5
567B
330
1A
100
AcDbEntity
  8
SUNPOU
100
AcDbMText
 10
83746.61948366345
 20
74857.90788720994
 30
0.0
 40
10.5
 41
0.0
 71
     9
 72
     5
  1

1001
ACAD
1000
MTEXTBEGIN
1070
    73
1070
     1
1070
    44
1040
1.0
1070
    74
1070
     0
1000
MTEXTEND
  0
MTEXT
  5
567C
330
1A
100
AcDbEntity
  8
SUNPOU
100
AcDbMText
 10
85690.02673037287
 20
73056.85880733192
 30
0.0
 40
3.5
 41
0.0
 71
     9
 72
     5
  1

1001
ACAD
1000
MTEXTBEGIN
1070
    73
1070
     1
1070
    44
1040
1.0
1070
    74
1070
     0
1000
MTEXTEND
  0
MTEXT
  5
567D
330
1A
100
AcDbEntity
  8
SUNPOU
100
AcDbMText
 10
116816.2065629925
 20
115551.8044749892
 30
0.0
 40
10.5
 41
0.0
 71
     9
 72
     5
  1

1001
ACAD
1000
MTEXTBEGIN
1070
    73
1070
     1
1070
    44
1040
1.0
1070
    74
1070
     0
1000
MTEXTEND
  0
MTEXT
  5
567E
330
1A
100
AcDbEntity
  8
SUNPOU
100
AcDbMText
 10
118759.613809702
 20
113750.7553951112
 30
0.0
 40
3.5
 41
0.0
 71
     9
 72
     5
  1

1001
ACAD
1000
MTEXTBEGIN
1070
    73
1070
     1
1070
    44
1040
1.0
1070
    74
1070
     0
1000
MTEXTEND
  0
MTEXT
  5
567F
330
1A
100
AcDbEntity
  8
SUNPOU
100
AcDbMText
 10
67256.47426878814
 20
61384.96962996432
 30
0.0
 40
10.5
 41
0.0
 71
     9
 72
     5
  1

1001
ACAD
1000
MTEXTBEGIN
1070
    73
1070
     1
1070
    44
1040
1.0
1070
    74
1070
     0
1000
MTEXTEND
  0
MTEXT
  5
5680
330
1A
100
AcDbEntity
  8
SUNPOU
100
AcDbMText
 10
53308.47416841216
 20
42212.57049085211
 30
0.0
 40
3.5
 41
0.0
 71
     7
 72
     5
  1

1001
ACAD
1000
MTEXTBEGIN
1070
    73
1070
     1
1070
    44
1040
1.0
1070
    74
1070
     0
1000
MTEXTEND
  0
MTEXT
  5
5681
330
1A
100
AcDbEntity
  8
SUNPOU
100
AcDbMText
 10
67000.82485118274
 20
51571.63371187345
 30
0.0
 40
10.5
 41
0.0
 71
     9
 72
     5
  1

1001
ACAD
1000
MTEXTBEGIN
1070
    73
1070
     1
1070
    44
1040
1.0
1070
    74
1070
     0
1000
MTEXTEND
  0
MTEXT
  5
5682
330
1A
100
AcDbEntity
  8
SUNPOU
100
AcDbMText
 10
75722.99241710071
 20
58987.46824341094
 30
0.0
 40
10.5
 41
0.0
 71
     9
 72
     5
  1

1001
ACAD
1000
MTEXTBEGIN
1070
    73
1070
     1
1070
    44
1040
1.0
1070
    74
1070
     0
1000
MTEXTEND
  0
MTEXT
  5
5683
330
1A
100
AcDbEntity
  8
SUNPOU
100
AcDbMText
 10
94676.75113443068
 20
76454.04429590299
 30
0.0
 40
10.5
 41
0.0
 71
     9
 72
     5
  1

1001
ACAD
1000
MTEXTBEGIN
1070
    73
1070
     1
1070
    44
1040
1.0
1070
    74
1070
     0
1000
MTEXTEND
  0
MTEXT
  5
5684
330
1A
100
AcDbEntity
  8
SUNPOU
100
AcDbMText
 10
96620.1583811401
 20
74652.99521602498
 30
0.0
 40
3.5
 41
0.0
 71
     9
 72
     5
  1

1001
ACAD
1000
MTEXTBEGIN
1070
    73
1070
     1
1070
    44
1040
1.0
1070
    74
1070
     0
1000
MTEXTEND
  0
MTEXT
  5
5685
330
1A
100
AcDbEntity
  8
SUNPOU
100
AcDbMText
 10
127746.3382137598
 20
117147.9408836823
 30
0.0
 40
10.5
 41
0.0
 71
     9
 72
     5
  1

1001
ACAD
1000
MTEXTBEGIN
1070
    73
1070
     1
1070
    44
1040
1.0
1070
    74
1070
     0
1000
MTEXTEND
  0
MTEXT
  5
5686
330
1A
100
AcDbEntity
  8
SUNPOU
100
AcDbMText
 10
129689.7454604692
 20
115346.8918038043
 30
0.0
 40
3.5
 41
0.0
 71
     9
 72
     5
  1

1001
ACAD
1000
MTEXTBEGIN
1070
    73
1070
     1
1070
    44
1040
1.0
1070
    74
1070
     0
1000
MTEXTEND
  0
MTEXT
  5
5687
330
1A
100
AcDbEntity
  8
SUNPOU
100
AcDbMText
 10
78186.60591955537
 20
62981.10603865738
 30
0.0
 40
10.5
 41
0.0
 71
     9
 72
     5
  1

1001
ACAD
1000
MTEXTBEGIN
1070
    73
1070
     1
1070
    44
1040
1.0
1070
    74
1070
     0
1000
MTEXTEND
  0
MTEXT
  5
5688
330
1A
100
AcDbEntity
  8
SUNPOU
100
AcDbMText
 10
64238.60581917939
 20
43808.70689954517
 30
0.0
 40
3.5
 41
0.0
 71
     7
 72
     5
  1

1001
ACAD
1000
MTEXTBEGIN
1070
    73
1070
     1
1070
    44
1040
1.0
1070
    74
1070
     0
1000
MTEXTEND
  0
MTEXT
  5
5689
330
1A
100
AcDbEntity
  8
SUNPOU
100
AcDbMText
 10
33428.13481137435
 20
32770.04710035564
 30
0.0
 40
10.5
 41
0.0
 71
     9
 72
     5
  1

1001
ACAD
1000
MTEXTBEGIN
1070
    73
1070
     1
1070
    44
1040
1.0
1070
    74
1070
     0
1000
MTEXTEND
  0
MTEXT
  5
568A
330
1A
100
AcDbEntity
  8
SUNPOU
100
AcDbMText
 10
52381.89352870432
 20
50236.62315284769
 30
0.0
 40
10.5
 41
0.0
 71
     9
 72
     5
  1

1001
ACAD
1000
MTEXTBEGIN
1070
    73
1070
     1
1070
    44
1040
1.0
1070
    74
1070
     0
1000
MTEXTEND
  0
MTEXT
  5
568B
330
1A
100
AcDbEntity
  8
SUNPOU
100
AcDbMText
 10
54325.30077541374
 20
48435.57407296968
 30
0.0
 40
3.5
 41
0.0
 71
     9
 72
     5
  1

1001
ACAD
1000
MTEXTBEGIN
1070
    73
1070
     1
1070
    44
1040
1.0
1070
    74
1070
     0
1000
MTEXTEND
  0
MTEXT
  5
568C
330
1A
100
AcDbEntity
  8
SUNPOU
100
AcDbMText
 10
85451.48060803343
 20
90930.51974062703
 30
0.0
 40
10.5
 41
0.0
 71
     9
 72
     5
  1

1001
ACAD
1000
MTEXTBEGIN
1070
    73
1070
     1
1070
    44
1040
1.0
1070
    74
1070
     0
1000
MTEXTEND
  0
MTEXT
  5
568D
330
1A
100
AcDbEntity
  8
SUNPOU
100
AcDbMText
 10
87394.88785474286
 20
89129.47066074901
 30
0.0
 40
3.5
 41
0.0
 71
     9
 72
     5
  1

1001
ACAD
1000
MTEXTBEGIN
1070
    73
1070
     1
1070
    44
1040
1.0
1070
    74
1070
     0
1000
MTEXTEND
  0
MTEXT
  5
568E
330
1A
100
AcDbEntity
  8
SUNPOU
100
AcDbMText
 10
35891.74831382901
 20
36763.68489560208
 30
0.0
 40
10.5
 41
0.0
 71
     9
 72
     5
  1

1001
ACAD
1000
MTEXTBEGIN
1070
    73
1070
     1
1070
    44
1040
1.0
1070
    74
1070
     0
1000
MTEXTEND
  0
MTEXT
  5
568F
330
1A
100
AcDbEntity
  8
SUNPOU
100
AcDbMText
 10
21943.74821345303
 20
17591.28575648986
 30
0.0
 40
3.5
 41
0.0
 71
     7
 72
     5
  1

1001
ACAD
1000
MTEXTBEGIN
1070
    73
1070
     1
1070
    44
1040
1.0
1070
    74
1070
     0
1000
MTEXTEND
  0
SPLINE
  5
12F12
330
1A
100
AcDbEntity
  8
ZISSEN1
100
AcDbSpline
210
0.0
220
0.0
230
1.0
 70
     8
 71
     3
 72
    11
 73
     7
 74
     0
 42
0.0000000001
 43
0.0000000001
 40
0.0
 40
0.0
 40
0.0
 40
0.0
 40
1.035359831098126
 40
2.124756255457386
 40
3.034498925728201
 40
3.194294832498857
 40
3.194294832498857
 40
3.194294832498857
 40
3.194294832498857
 10
-1695.96901333549
 20
1644.134382150961
 30
0.0
 10
-1694.641675105972
 20
1644.411611030007
 30
0.0
 10
-1694.027063201496
 20
1644.980537674885
 30
0.0
 10
-1693.031597053805
 20
1643.670064448975
 30
0.0
 10
-1692.584790940722
 20
1644.708462612738
 30
0.0
 10
-1692.309574830496
 20
1644.805014082686
 30
0.0
 10
-1691.622005916932
 20
1644.811272166703
 30
0.0
  0
SPLINE
  5
12F13
330
1A
100
AcDbEntity
  8
ZISSEN1
100
AcDbSpline
210
0.0
220
0.0
230
1.0
 70
     8
 71
     3
 72
    11
 73
     7
 74
     0
 42
0.0000000001
 43
0.0000000001
 40
0.0
 40
0.0
 40
0.0
 40
0.0
 40
1.035359831098126
 40
2.124756255457386
 40
3.034498925728201
 40
3.194294832498857
 40
3.194294832498857
 40
3.194294832498857
 40
3.194294832498857
 10
-1696.025899920788
 20
1713.691569685878
 30
0.0
 10
-1694.69856169127
 20
1713.968798564924
 30
0.0
 10
-1694.083949786793
 20
1714.537725209802
 30
0.0
 10
-1693.088483639102
 20
1713.227251983892
 30
0.0
 10
-1692.64167752602
 20
1714.265650147655
 30
0.0
 10
-1692.366461415794
 20
1714.362201617603
 30
0.0
 10
-1691.678892502229
 20
1714.36845970162
 30
0.0
  0
DIMENSION
  5
12F15
330
1A
100
AcDbEntity
  8
SUNPOU
100
AcDbDimension
  2
*D0
 10
-1692.753443941049
 20
1648.984645629014
 30
0.0
 11
-1657.753442441049
 21
1651.734645629014
 31
0.0
 70
    32
  1
CE-26等装着時約70
  3
標準スタイル
100
AcDbAlignedDimension
 13
-1622.753440941049
 23
1665.56049213777
 33
0.0
 14
-1692.753443941049
 24
1648.929826406589
 34
0.0
100
AcDbRotatedDimension
1001
ACAD
1000
DSTYLE
1002
{
1070
   340
1005
10
1070
    40
1040
1.0
1002
}
  0
DIMENSION
  5
12F16
330
1A
100
AcDbEntity
  8
SUNPOU
100
AcDbDimension
  2
*D1
 10
-1720.853429941049
 20
1648.929826406589
 30
0.0
 11
-1712.753438441049
 21
1651.679826406589
 31
0.0
 70
    32
  3
標準スタイル
100
AcDbAlignedDimension
 13
-1704.653446941049
 23
1656.58752213777
 33
0.0
 14
-1720.853429941049
 24
1669.74834213777
 34
0.0
100
AcDbRotatedDimension
1001
ACAD
1000
DSTYLE
1002
{
1070
   340
1005
10
1070
    40
1040
1.0
1002
}
  0
HATCH
  5
12F17
330
1A
100
AcDbEntity
  8
ZISSEN1
100
AcDbHatch
 10
0.0
 20
0.0
 30
0.0
210
0.0
220
0.0
230
1.0
  2
ANSI31
 70
     0
 71
     0
 91
        3
 92
        7
 72
     0
 73
     1
 93
        4
 10
-1692.753252482216
 20
1703.041609650431
 10
-1694.553252482216
 20
1703.041609650431
 10
-1694.553252482216
 20
1682.791609650431
 10
-1692.753252482216
 20
1682.791609650431
 97
        0
 92
        7
 72
     0
 73
     1
 93
        4
 10
-1692.753252482216
 20
1682.791609650431
 10
-1694.553252482216
 20
1682.791609650431
 10
-1694.553252482216
 20
1671.291599650431
 10
-1692.753252482216
 20
1671.291599650431
 97
        0
 92
        7
 72
     0
 73
     1
 93
        4
 10
-1692.753252482216
 20
1671.291599650431
 10
-1694.553252482216
 20
1671.291599650431
 10
-1694.553252482216
 20
1651.041609650431
 10
-1692.753252482216
 20
1651.041609650431
 97
        0
 75
     0
 76
     1
 52
0.0
 41
1.0
 77
     0
 78
     1
 53
45.0
 43
177.2967615177835
 44
83.74160965043165
 45
-2.245064030267287
 46
2.245064030267288
 79
     0
 47
0.1265602924529019
 98
        3
 10
-1694.017936443027
 20
1689.837601724119
 10
-1693.764669351932
 20
1677.687813195191
 10
-1693.384770275718
 20
1667.436428370761
  0
LINE
  5
12F18
330
1A
100
AcDbEntity
  8
ZISSEN1
  6
CONTINUOUS
 62
     7
100
AcDbLine
 10
-1704.653446941049
 20
1656.58752213777
 30
0.0
 11
-1704.653446941049
 21
1708.58752213777
 31
0.0
  0
LINE
  5
12F19
330
1A
100
AcDbEntity
  8
ZISSEN1
  6
CONTINUOUS
 62
     7
100
AcDbLine
 10
-1703.053444941049
 20
1656.58752213777
 30
0.0
 11
-1703.053444941049
 21
1708.58752213777
 31
0.0
  0
LINE
  5
12F1A
330
1A
100
AcDbEntity
  8
ZISSEN1
  6
CONTINUOUS
 62
     7
100
AcDbLine
 10
-1694.553443941049
 20
1644.476635030666
 30
0.0
 11
-1694.553443941049
 21
1714.064545580555
 31
0.0
  0
LINE
  5
12F1B
330
1A
100
AcDbEntity
  8
ZISSEN1
  6
CONTINUOUS
 62
     7
100
AcDbLine
 10
-1692.753443941049
 20
1644.344962409948
 30
0.0
 11
-1692.753443941049
 21
1714.012577993072
 31
0.0
  0
DIMENSION
  5
12F1C
330
1A
100
AcDbEntity
  8
SUNPOU
100
AcDbDimension
  2
*D2
 10
-1692.753443941049
 20
1640.314319111223
 30
0.0
 11
-1677.586777274383
 21
1643.064319111223
 31
0.0
 70
    32
  1
MAX1.8
  3
標準スタイル
100
AcDbAlignedDimension
 13
-1694.553443941049
 23
1644.476635030666
 33
0.0
 14
-1692.753443941049
 24
1644.344962409948
 34
0.0
100
AcDbRotatedDimension
1001
ACAD
1000
DSTYLE
1002
{
1070
   340
1005
10
1070
    40
1040
1.0
1002
}
  0
LINE
  5
12F1D
330
1A
100
AcDbEntity
  8
ZISSEN1
100
AcDbLine
 10
-1692.753252482216
 20
1649.280862998269
 30
0.0
 11
-1694.553252482216
 21
1647.480862998268
 31
0.0
  0
DIMENSION
  5
12F1E
330
1A
100
AcDbEntity
  8
SUNPOU
100
AcDbDimension
  2
*D3
 10
-1704.653446941049
 20
1648.929826406589
 30
0.0
 11
-1703.423024863878
 21
1645.210473560411
 31
0.0
 70
   160
  1
t1.6
  3
標準スタイル
100
AcDbAlignedDimension
 13
-1703.053444941049
 23
1648.929826406589
 33
0.0
 14
-1704.653446941049
 24
1656.58752213777
 34
0.0
100
AcDbRotatedDimension
1001
ACAD
1000
DSTYLE
1002
{
1070
   287
1070
     5
1070
   340
1005
10
1070
    40
1040
1.0
1070
   279
1070
     2
1002
}
  0
DIMENSION
  5
12F1F
330
1A
100
AcDbEntity
  8
SUNPOU
100
AcDbDimension
  2
*D4
 10
-1694.553443941049
 20
1648.929826406589
 30
0.0
 11
-1687.053443941049
 21
1651.679826406589
 31
0.0
 70
    32
  3
標準スタイル
100
AcDbAlignedDimension
 13
-1703.053444941049
 23
1656.58752213777
 33
0.0
 14
-1694.553443941049
 24
1648.929826406589
 34
0.0
100
AcDbRotatedDimension
1001
ACAD
1000
DSTYLE
1002
{
1070
   340
1005
10
1070
    40
1040
1.0
1002
}
  0
LINE
  5
12F20
330
1A
100
AcDbEntity
  8
ZISSEN1
  6
CONTINUOUS
 62
     7
100
AcDbLine
 10
-1704.653449941049
 20
1656.58752213777
 30
0.0
 11
-1703.053444941049
 21
1656.58752213777
 31
0.0
  0
MTEXT
  5
12F21
330
1A
100
AcDbEntity
  8
ZISSEN1
100
AcDbMText
 10
-1872.591457180787
 20
1994.63360397579
 30
0.0
 40
5.0
 41
108.331376707366
 71
     1
 72
     5
  1
CB-13　　No.SS0001f60
1001
ACAD
1000
MTEXTBEGIN
1070
    73
1070
     1
1070
    44
1040
1.0
1070
    74
1070
     0
1000
MTEXTEND
1000
MTEXTBEGIN
1070
    73
1070
     1
1070
    44
1040
1.0
1070
    74
1070
     0
1000
MTEXTEND
  0
LINE
  5
12F22
330
1A
100
AcDbEntity
  8
ZISSEN1
  6
CONTINUOUS
 62
     7
100
AcDbLine
 10
-1552.503429941049
 20
1952.44834213777
 30
0.0
 11
-1552.503429941049
 21
1958.58752213777
 31
0.0
  0
ARC
  5
12F23
330
1A
100
AcDbEntity
  8
SOUZOUSEN
100
AcDbCircle
 10
-1459.410810956273
 20
1960.493278180007
 30
0.0
 40
6.25
100
AcDbArc
 50
126.8698976458414
 51
233.1301023541585
  0
DIMENSION
  5
12F24
330
1A
100
AcDbEntity
  8
SUNPOU
100
AcDbDimension
  2
*D5
 10
-1606.741563646915
 20
1939.28752213777
 30
0.0
 11
-1609.491563646916
 21
1965.287517637769
 31
0.0
 70
    32
  3
標準スタイル
100
AcDbAlignedDimension
 13
-1620.410519941051
 23
1991.28751313777
 33
0.0
 14
-1620.410519941051
 24
1939.28752213777
 34
0.0
 50
90.0
100
AcDbRotatedDimension
1001
ACAD
1000
DSTYLE
1002
{
1070
   340
1005
10
1070
    40
1040
1.0
1002
}
  0
LINE
  5
12F25
330
1A
100
AcDbEntity
  8
ZISSEN1
100
AcDbLine
 10
-1644.103299941048
 20
1950.43751213777
 30
0.0
 11
-1644.103299941048
 21
1958.58751213777
 31
0.0
  0
LINE
  5
12F26
330
1A
100
AcDbEntity
  8
ZISSEN1
100
AcDbLine
 10
-1644.103299941048
 20
1950.43751213777
 30
0.0
 11
-1644.103299941048
 21
1958.58751213777
 31
0.0
  0
LINE
  5
12F27
330
1A
100
AcDbEntity
  8
ZISSEN1
100
AcDbLine
 10
-1624.863269941048
 20
1950.43751213777
 30
0.0
 11
-1624.863269941048
 21
1958.58751213777
 31
0.0
  0
LINE
  5
12F28
330
1A
100
AcDbEntity
  8
ZISSEN1
100
AcDbLine
 10
-1682.583359941049
 20
1950.43751213777
 30
0.0
 11
-1682.583359941049
 21
1958.58751213777
 31
0.0
  0
LINE
  5
12F29
330
1A
100
AcDbEntity
  8
ZISSEN1
100
AcDbLine
 10
-1663.343329941047
 20
1950.43751213777
 30
0.0
 11
-1663.343329941047
 21
1958.58751213777
 31
0.0
  0
LINE
  5
12F2A
330
1A
100
AcDbEntity
  8
ZISSEN1
100
AcDbLine
 10
-1663.343329941047
 20
1950.43751213777
 30
0.0
 11
-1663.343329941047
 21
1958.58751213777
 31
0.0
  0
LINE
  5
12F2B
330
1A
100
AcDbEntity
  8
ZISSEN1
100
AcDbLine
 10
-1721.063419941048
 20
1950.43751213777
 30
0.0
 11
-1721.063419941048
 21
1958.58751213777
 31
0.0
  0
LINE
  5
12F2C
330
1A
100
AcDbEntity
  8
ZISSEN1
100
AcDbLine
 10
-1701.823389941049
 20
1950.43751213777
 30
0.0
 11
-1701.823389941049
 21
1958.58751213777
 31
0.0
  0
LINE
  5
12F2D
330
1A
100
AcDbEntity
  8
ZISSEN1
100
AcDbLine
 10
-1701.823389941049
 20
1950.43751213777
 30
0.0
 11
-1701.823389941049
 21
1958.58751213777
 31
0.0
  0
LINE
  5
12F2E
330
1A
100
AcDbEntity
  8
ZISSEN1
  6
CONTINUOUS
 62
     7
100
AcDbLine
 10
-1536.303446941049
 20
1942.29833813777
 30
0.0
 11
-1536.303446941049
 21
1958.59833213777
 31
0.0
  0
LINE
  5
12F2F
330
1A
100
AcDbEntity
  8
ZISSEN1
  6
CONTINUOUS
 62
     7
100
AcDbLine
 10
-1534.703444941049
 20
1939.28752213777
 30
0.0
 11
-1534.703444941049
 21
1991.28752213777
 31
0.0
  0
LINE
  5
12F30
330
1A
100
AcDbEntity
  8
ZISSEN1
  6
CONTINUOUS
 62
     7
100
AcDbLine
 10
-1536.303446941049
 20
1939.28752213777
 30
0.0
 11
-1536.303446941049
 21
1991.28752213777
 31
0.0
  0
LINE
  5
12F31
330
1A
100
AcDbEntity
  8
ZISSEN1
100
AcDbLine
 10
-1619.703409941051
 20
1990.580404137768
 30
0.0
 11
-1619.703409941051
 21
1939.99463213777
 31
0.0
  0
LINE
  5
12F32
330
1A
100
AcDbEntity
  8
ZISSEN1
100
AcDbLine
 10
-1722.703429941049
 20
1990.580404137768
 30
0.0
 11
-1722.703429941049
 21
1939.994632137771
 31
0.0
  0
LINE
  5
12F33
330
1A
100
AcDbEntity
  8
ZISSEN1
100
AcDbLine
 10
-1546.403429941049
 20
1666.28752213777
 30
0.0
 11
-1430.403429941049
 21
1666.28752213777
 31
0.0
  0
LINE
  5
12F34
330
1A
100
AcDbEntity
  8
ZISSEN1
100
AcDbLine
 10
-1508.850027644953
 20
1726.28752213777
 30
0.0
 11
-1546.403429941049
 21
1726.28752213777
 31
0.0
  0
LINE
  5
12F35
330
1A
100
AcDbEntity
  8
SOUZOUSEN
100
AcDbLine
 10
-1671.203429941049
 20
1772.03752213777
 30
0.0
 11
-1638.203429941049
 21
1772.03752213777
 31
0.0
  0
LINE
  5
12F36
330
1A
100
AcDbEntity
  8
SOUZOUSEN
100
AcDbLine
 10
-1671.203429941049
 20
1778.53752213777
 30
0.0
 11
-1636.703429941049
 21
1778.53752213777
 31
0.0
  0
LINE
  5
12F37
330
1A
100
AcDbEntity
  8
ZISSEN1
100
AcDbLine
 10
-1671.203429941049
 20
1778.28752213777
 30
0.0
 11
-1637.203429941049
 21
1778.28752213777
 31
0.0
  0
LINE
  5
12F38
330
1A
100
AcDbEntity
  8
ZISSEN1
100
AcDbLine
 10
-1671.203429941049
 20
1772.28752213777
 30
0.0
 11
-1638.703429941049
 21
1772.28752213777
 31
0.0
  0
MTEXT
  5
12F39
330
1A
100
AcDbEntity
  8
ZISSEN1
 62
     0
100
AcDbMText
 10
-1693.555439057607
 20
1728.150801471623
 30
0.0
 40
3.5
 41
69.28756164429046
 71
     5
 72
     5
  1
パネルに取り付けた状態
1001
ACAD
1000
MTEXTBEGIN
1070
    73
1070
     1
1070
    44
1040
1.0
1070
    74
1070
     0
1000
MTEXTEND
1000
MTEXTBEGIN
1070
    73
1070
     1
1070
    44
1040
1.0
1070
    74
1070
     0
1000
MTEXTEND
1000
MTEXTBEGIN
1070
    73
1070
     1
1070
    44
1040
1.0
1070
    74
1070
     0
1000
MTEXTEND
  0
LINE
  5
12F3A
330
1A
100
AcDbEntity
  8
SOUZOUSEN
100
AcDbLine
 10
-1665.053429941049
 20
1685.58754213777
 30
0.0
 11
-1675.053429941049
 21
1685.58754213777
 31
0.0
  0
LINE
  5
12F3B
330
1A
100
AcDbEntity
  8
SOUZOUSEN
100
AcDbLine
 10
-1654.053430941049
 20
1688.33752213777
 30
0.0
 11
-1690.253443941049
 21
1688.33752213777
 31
0.0
  0
LINE
  5
12F3C
330
1A
100
AcDbEntity
  8
SOUZOUSEN
100
AcDbLine
 10
-1665.053429941049
 20
1679.58751213777
 30
0.0
 11
-1675.053429941049
 21
1679.58751213777
 31
0.0
  0
LINE
  5
12F3D
330
1A
100
AcDbEntity
  8
SOUZOUSEN
100
AcDbLine
 10
-1654.053430941049
 20
1676.83751213777
 30
0.0
 11
-1690.253443941049
 21
1676.837512137771
 31
0.0
  0
LINE
  5
12F3F
330
1A
100
AcDbEntity
  8
SOUZOUSEN
100
AcDbLine
 10
-1713.70338994105
 20
1781.03752213777
 30
0.0
 11
-1628.70345994105
 21
1781.03752213777
 31
0.0
  0
LINE
  5
12F40
330
1A
100
AcDbEntity
  8
SOUZOUSEN
100
AcDbLine
 10
-1713.70338994105
 20
1769.53751213777
 30
0.0
 11
-1628.70345994105
 21
1769.53751213777
 31
0.0
  0
LINE
  5
12F41
330
1A
100
AcDbEntity
  8
ZISSEN1
100
AcDbLine
 10
-1620.410519941051
 20
1749.287522137769
 30
0.0
 11
-1721.996319941049
 21
1749.28752213777
 31
0.0
  0
LINE
  5
12F42
330
1A
100
AcDbEntity
  8
ZISSEN1
100
AcDbLine
 10
-1721.996319941049
 20
1801.28751313777
 30
0.0
 11
-1620.410519941051
 21
1801.28751313777
 31
0.0
  0
LINE
  5
12F43
330
1A
100
AcDbEntity
  8
ZISSEN1
  6
CONTINUOUS
 62
     7
100
AcDbLine
 10
-1704.653446941049
 20
1689.28752213777
 30
0.0
 11
-1720.856396000463
 21
1689.28752213777
 31
0.0
  0
LINE
  5
12F44
330
1A
100
AcDbEntity
  8
ZISSEN1
  6
CONTINUOUS
 62
     7
100
AcDbLine
 10
-1718.653448941049
 20
1697.43752213777
 30
0.0
 11
-1704.653446941049
 21
1697.43752213777
 31
0.0
  0
LINE
  5
12F45
330
1A
100
AcDbEntity
  8
ZISSEN1
  6
CONTINUOUS
 62
     7
100
AcDbLine
 10
-1718.653448941049
 20
1667.73752213777
 30
0.0
 11
-1704.653446941049
 21
1667.73752213777
 31
0.0
  0
LINE
  5
12F46
330
1A
100
AcDbEntity
  8
ZISSEN1
  6
CONTINUOUS
 62
     7
100
AcDbLine
 10
-1704.585876941049
 20
1675.88752213777
 30
0.0
 11
-1720.853429941049
 21
1675.88752213777
 31
0.0
  0
LINE
  5
12F47
330
1A
100
AcDbEntity
  8
ZISSEN1
  6
CONTINUOUS
 62
     7
100
AcDbLine
 10
-1720.856396000463
 20
1689.28752213777
 30
0.0
 11
-1720.856396000463
 21
1695.43752213777
 31
0.0
  0
LINE
  5
12F48
330
1A
100
AcDbEntity
  8
ZISSEN1
  6
CONTINUOUS
 62
     7
100
AcDbLine
 10
-1720.853429941049
 20
1669.74834213777
 30
0.0
 11
-1720.853429941049
 21
1675.88752213777
 31
0.0
  0
LINE
  5
12F49
330
1A
100
AcDbEntity
  8
ZISSEN1
  6
CONTINUOUS
 62
     7
100
AcDbLine
 10
-1718.653448941049
 20
1667.73752213777
 30
0.0
 11
-1720.853429941049
 21
1669.74834213777
 31
0.0
  0
LINE
  5
12F4A
330
1A
100
AcDbEntity
  8
ZISSEN1
  6
CONTINUOUS
 62
     7
100
AcDbLine
 10
-1718.653448941049
 20
1697.43752213777
 30
0.0
 11
-1720.856396000463
 21
1695.43752213777
 31
0.0
  0
LINE
  5
12F4C
330
1A
100
AcDbEntity
  8
ZISSEN1
100
AcDbLine
 10
-1692.753443941049
 20
1711.762577993072
 30
0.0
 11
-1692.753252482216
 21
1684.56058644366
 31
0.0
  0
LINE
  5
12F4D
330
1A
100
AcDbEntity
  8
ZISSEN1
100
AcDbLine
 10
-1692.753443941049
 20
1682.58752213777
 30
0.0
 11
-1692.753443941049
 21
1714.012577993072
 31
0.0
  0
LINE
  5
12F4E
330
1A
100
AcDbEntity
  8
ZISSEN1
  6
CONTINUOUS
 62
     7
100
AcDbLine
 10
-1704.653446941049
 20
1705.59832213777
 30
0.0
 11
-1704.653446941049
 21
1689.29834213777
 31
0.0
  0
LINE
  5
12F4F
330
1A
100
AcDbEntity
  8
ZISSEN1
100
AcDbLine
 10
-1689.053443941049
 20
1679.33752213777
 30
0.0
 11
-1692.753443941049
 21
1679.33752213777
 31
0.0
  0
LINE
  5
12F50
330
1A
100
AcDbEntity
  8
ZISSEN1
100
AcDbLine
 10
-1692.753443941049
 20
1685.83752213777
 30
0.0
 11
-1689.053443941049
 21
1685.83752213777
 31
0.0
  0
LINE
  5
12F56
330
1A
100
AcDbEntity
  8
ZISSEN1
  6
CONTINUOUS
 62
     7
100
AcDbLine
 10
-1694.553443941049
 20
1687.83752213777
 30
0.0
 11
-1703.053429941049
 21
1687.83752213777
 31
0.0
  0
LINE
  5
12F57
330
1A
100
AcDbEntity
  8
ZISSEN1
  6
CONTINUOUS
 62
     7
100
AcDbLine
 10
-1704.653446941049
 20
1659.59833813777
 30
0.0
 11
-1704.653446941049
 21
1675.89833213777
 31
0.0
  0
LINE
  5
12F58
330
1A
100
AcDbEntity
  8
ZISSEN1
  6
CONTINUOUS
 62
     7
100
AcDbLine
 10
-1704.653446941049
 20
1657.29462213777
 30
0.0
 11
-1703.053444941049
 21
1657.29462213777
 31
0.0
  0
LINE
  5
12F59
330
1A
100
AcDbEntity
  8
ZISSEN1
  6
CONTINUOUS
 62
     7
100
AcDbLine
 10
-1711.153442941049
 20
1659.58752213777
 30
0.0
 11
-1704.653446941049
 21
1659.58752213777
 31
0.0
  0
LINE
  5
12F5A
330
1A
100
AcDbEntity
  8
ZISSEN1
  6
CONTINUOUS
 62
     7
100
AcDbLine
 10
-1713.153446941049
 20
1661.58752213777
 30
0.0
 11
-1713.153446941049
 21
1667.73752213777
 31
0.0
  0
LINE
  5
12F5B
330
1A
100
AcDbEntity
  8
ZISSEN1
  6
CONTINUOUS
 62
     7
100
AcDbLine
 10
-1711.153442941049
 20
1659.58752213777
 30
0.0
 11
-1713.153446941049
 21
1661.58752213777
 31
0.0
  0
LINE
  5
12F5C
330
1A
100
AcDbEntity
  8
ZISSEN1
  6
CONTINUOUS
 62
     7
100
AcDbLine
 10
-1694.553443941049
 20
1677.33752213777
 30
0.0
 11
-1703.053429941049
 21
1677.33752213777
 31
0.0
  0
LINE
  5
12F5D
330
1A
100
AcDbEntity
  8
ZISSEN1
100
AcDbLine
 10
-1696.853443941049
 20
1677.33752213777
 30
0.0
 11
-1696.853443941049
 21
1687.83752213777
 31
0.0
  0
LINE
  5
12F5E
330
1A
100
AcDbEntity
  8
ZISSEN1
  6
CONTINUOUS
 62
     7
100
AcDbLine
 10
-1703.053429941049
 20
1676.83751213777
 30
0.0
 11
-1703.053429941049
 21
1688.33752213777
 31
0.0
  0
LINE
  5
12F5F
330
1A
100
AcDbEntity
  8
ZISSEN1
100
AcDbLine
 10
-1687.953443941049
 20
1682.58752213777
 30
0.0
 11
-1687.953443941049
 21
1683.88752213777
 31
0.0
  0
LINE
  5
12F60
330
1A
100
AcDbEntity
  8
KAKURESEN1
100
AcDbLine
 10
-1691.953443941049
 20
1683.68752213777
 30
0.0
 11
-1687.953443941049
 21
1683.68752213777
 31
0.0
  0
LINE
  5
12F61
330
1A
100
AcDbEntity
  8
KAKURESEN1
100
AcDbLine
 10
-1691.953443941049
 20
1681.48752213777
 30
0.0
 11
-1687.953443941049
 21
1681.48752213777
 31
0.0
  0
LINE
  5
12F62
330
1A
100
AcDbEntity
  8
KAKURESEN1
100
AcDbLine
 10
-1691.953443941049
 20
1681.28752213777
 30
0.0
 11
-1687.953443941049
 21
1681.28752213777
 31
0.0
  0
LINE
  5
12F63
330
1A
100
AcDbEntity
  8
KAKURESEN1
100
AcDbLine
 10
-1691.953443941049
 20
1683.88752213777
 30
0.0
 11
-1687.953443941049
 21
1683.88752213777
 31
0.0
  0
LINE
  5
12F64
330
1A
100
AcDbEntity
  8
SOUZOUSEN
100
AcDbLine
 10
-1687.953443941049
 20
1681.08752213777
 30
0.0
 11
-1675.053429941049
 21
1681.08752213777
 31
0.0
  0
LINE
  5
12F65
330
1A
100
AcDbEntity
  8
SOUZOUSEN
100
AcDbLine
 10
-1687.953443941049
 20
1684.08752213777
 30
0.0
 11
-1675.053429941049
 21
1684.08752213777
 31
0.0
  0
LINE
  5
12F66
330
1A
100
AcDbEntity
  8
SOUZOUSEN
100
AcDbLine
 10
-1689.053443941049
 20
1684.83752213777
 30
0.0
 11
-1689.053443941049
 21
1680.33752213777
 31
0.0
  0
LINE
  5
12F67
330
1A
100
AcDbEntity
  8
ZISSEN1
100
AcDbLine
 10
-1687.953443941049
 20
1684.83752213777
 30
0.0
 11
-1687.953443941049
 21
1684.83752213777
 31
0.0
  0
LINE
  5
12F68
330
1A
100
AcDbEntity
  8
ZISSEN1
100
AcDbLine
 10
-1687.953443941049
 20
1680.33752213777
 30
0.0
 11
-1691.953443941049
 21
1680.33752213777
 31
0.0
  0
LINE
  5
12F69
330
1A
100
AcDbEntity
  8
ZISSEN1
100
AcDbLine
 10
-1687.953443941049
 20
1684.83752213777
 30
0.0
 11
-1687.953443941049
 21
1680.33752213777
 31
0.0
  0
LINE
  5
12F6A
330
1A
100
AcDbEntity
  8
ZISSEN1
100
AcDbLine
 10
-1691.953443941049
 20
1684.83752213777
 30
0.0
 11
-1687.953443941049
 21
1684.83752213777
 31
0.0
  0
LINE
  5
12F6B
330
1A
100
AcDbEntity
  8
ZISSEN1
100
AcDbLine
 10
-1691.953443941049
 20
1682.58752213777
 30
0.0
 11
-1691.953443941049
 21
1684.83752213777
 31
0.0
  0
LINE
  5
12F6C
330
1A
100
AcDbEntity
  8
ZISSEN1
100
AcDbLine
 10
-1691.953443941049
 20
1682.58752213777
 30
0.0
 11
-1691.953443941049
 21
1684.83752213777
 31
0.0
  0
LINE
  5
12F6D
330
1A
100
AcDbEntity
  8
ZISSEN1
100
AcDbLine
 10
-1691.953443941049
 20
1682.58752213777
 30
0.0
 11
-1691.953443941049
 21
1684.83752213777
 31
0.0
  0
LINE
  5
12F6E
330
1A
100
AcDbEntity
  8
ZISSEN1
100
AcDbLine
 10
-1692.753443941049
 20
1682.58752213777
 30
0.0
 11
-1692.753443941049
 21
1685.58752213777
 31
0.0
  0
LINE
  5
12F6F
330
1A
100
AcDbEntity
  8
ZISSEN1
100
AcDbLine
 10
-1691.953443941049
 20
1679.58752213777
 30
0.0
 11
-1692.753443941049
 21
1679.58752213777
 31
0.0
  0
LINE
  5
12F70
330
1A
100
AcDbEntity
  8
ZISSEN1
100
AcDbLine
 10
-1691.953443941049
 20
1685.58752213777
 30
0.0
 11
-1691.953443941049
 21
1679.58752213777
 31
0.0
  0
LINE
  5
12F71
330
1A
100
AcDbEntity
  8
ZISSEN1
100
AcDbLine
 10
-1692.753443941049
 20
1685.58752213777
 30
0.0
 11
-1691.953443941049
 21
1685.58752213777
 31
0.0
  0
LINE
  5
12F72
330
1A
100
AcDbEntity
  8
ZISSEN1
100
AcDbLine
 10
-1692.753443941049
 20
1682.58752213777
 30
0.0
 11
-1692.753443941049
 21
1685.58752213777
 31
0.0
  0
LINE
  5
12F73
330
1A
100
AcDbEntity
  8
ZISSEN1
100
AcDbLine
 10
-1687.953443941049
 20
1682.58752213777
 30
0.0
 11
-1691.953443941049
 21
1682.58752213777
 31
0.0
  0
LINE
  5
12F75
330
1A
100
AcDbEntity
  8
SOUZOUSEN
100
AcDbLine
 10
-1675.053429941049
 20
1688.33752213777
 30
0.0
 11
-1675.053429941049
 21
1676.83751213777
 31
0.0
  0
LINE
  5
12F76
330
1A
100
AcDbEntity
  8
ZISSEN1
100
AcDbLine
 10
-1692.753252482216
 20
1712.104927543618
 30
0.0
 11
-1694.553252482216
 21
1710.304927543618
 31
0.0
  0
LINE
  5
12F77
330
1A
100
AcDbEntity
  8
ZISSEN1
100
AcDbLine
 10
-1692.753252482216
 20
1707.54546439789
 30
0.0
 11
-1694.553252482216
 21
1705.74546439789
 31
0.0
  0
LINE
  5
12F78
330
1A
100
AcDbEntity
  8
ZISSEN1
  6
CONTINUOUS
 62
     7
100
AcDbLine
 10
-1704.653446941049
 20
1708.58752213777
 30
0.0
 11
-1703.053438941049
 21
1708.58752213777
 31
0.0
  0
LINE
  5
12F79
330
1A
100
AcDbEntity
  8
ZISSEN1
  6
CONTINUOUS
 62
     7
100
AcDbLine
 10
-1704.653446941049
 20
1707.88042213777
 30
0.0
 11
-1703.053444941049
 21
1707.88042213777
 31
0.0
  0
LINE
  5
12F7A
330
1A
100
AcDbEntity
  8
ZISSEN1
  6
CONTINUOUS
 62
     7
100
AcDbLine
 10
-1711.153442941049
 20
1705.58752213777
 30
0.0
 11
-1704.653446941049
 21
1705.58752213777
 31
0.0
  0
LINE
  5
12F7B
330
1A
100
AcDbEntity
  8
ZISSEN1
  6
CONTINUOUS
 62
     7
100
AcDbLine
 10
-1713.153446941049
 20
1703.58752213777
 30
0.0
 11
-1713.153446941049
 21
1697.43752213777
 31
0.0
  0
LINE
  5
12F7C
330
1A
100
AcDbEntity
  8
ZISSEN1
  6
CONTINUOUS
 62
     7
100
AcDbLine
 10
-1711.153442941049
 20
1705.58752213777
 30
0.0
 11
-1713.153446941049
 21
1703.58752213777
 31
0.0
  0
LINE
  5
12F7D
330
1A
100
AcDbEntity
  8
ZISSEN1
100
AcDbLine
 10
-1692.753443941049
 20
1714.012577993072
 30
0.0
 11
-1692.753443941049
 21
1711.762577993072
 31
0.0
  0
LINE
  5
12F7E
330
1A
100
AcDbEntity
  8
ZISSEN1
100
AcDbLine
 10
-1722.703429941049
 20
1800.580404137767
 30
0.0
 11
-1722.703429941049
 21
1749.99463213777
 31
0.0
  0
LINE
  5
12F7F
330
1A
100
AcDbEntity
  8
ZISSEN1
100
AcDbLine
 10
-1722.703429941049
 20
1749.99463213777
 30
0.0
 11
-1721.996319941049
 21
1749.28752213777
 31
0.0
  0
CIRCLE
  5
12F80
330
1A
100
AcDbEntity
  8
ZISSEN1
100
AcDbCircle
 10
-1719.203429941049
 20
1775.28752213777
 30
0.0
 40
1.649999999999999
  0
LINE
  5
12F81
330
1A
100
AcDbEntity
  8
ZISSEN1
100
AcDbLine
 10
-1721.996319941049
 20
1801.28751313777
 30
0.0
 11
-1722.703429941049
 21
1800.580404137767
 31
0.0
  0
LINE
  5
12F82
330
1A
100
AcDbEntity
  8
SOUZOUSEN
100
AcDbLine
 10
-1713.70338994105
 20
1773.180326845826
 30
0.0
 11
-1713.70338994105
 21
1769.53751213777
 31
0.0
  0
LINE
  5
12F83
330
1A
100
AcDbEntity
  8
SOUZOUSEN
100
AcDbLine
 10
-1701.203429941049
 20
1769.53751213777
 30
0.0
 11
-1701.203429941049
 21
1781.03752213777
 31
0.0
  0
LINE
  5
12F84
330
1A
100
AcDbEntity
  8
SOUZOUSEN
100
AcDbLine
 10
-1671.203429941049
 20
1772.03752213777
 30
0.0
 11
-1704.203429941049
 21
1772.03752213777
 31
0.0
  0
LINE
  5
12F85
330
1A
100
AcDbEntity
  8
SOUZOUSEN
100
AcDbLine
 10
-1671.203429941049
 20
1778.53752213777
 30
0.0
 11
-1705.703429941049
 21
1778.53752213777
 31
0.0
  0
LINE
  5
12F86
330
1A
100
AcDbEntity
  8
ZISSEN1
100
AcDbLine
 10
-1671.203429941049
 20
1778.28752213777
 30
0.0
 11
-1705.203429941049
 21
1778.28752213777
 31
0.0
  0
LINE
  5
12F87
330
1A
100
AcDbEntity
  8
ZISSEN1
100
AcDbLine
 10
-1671.203429941049
 20
1772.28752213777
 30
0.0
 11
-1703.703429941049
 21
1772.28752213777
 31
0.0
  0
CIRCLE
  5
12F88
330
1A
100
AcDbEntity
  8
SOUZOUSEN
100
AcDbCircle
 10
-1710.303429941049
 20
1775.28752213777
 30
0.0
 40
4.0
  0
LINE
  5
12F89
330
1A
100
AcDbEntity
  8
SOUZOUSEN
100
AcDbLine
 10
-1705.703429941049
 20
1778.53752213777
 30
0.0
 11
-1704.203429941049
 21
1772.03752213777
 31
0.0
  0
LINE
  5
12F8A
330
1A
100
AcDbEntity
  8
ZISSEN1
100
AcDbLine
 10
-1705.203429941049
 20
1778.28752213777
 30
0.0
 11
-1703.703429941049
 21
1772.28752213777
 31
0.0
  0
LINE
  5
12F8B
330
1A
100
AcDbEntity
  8
ZISSEN1
100
AcDbLine
 10
-1712.553429941049
 20
1775.28752213777
 30
0.0
 11
-1711.894420198719
 21
1776.878512395439
 31
0.0
  0
LINE
  5
12F8C
330
1A
100
AcDbEntity
  8
ZISSEN1
100
AcDbLine
 10
-1711.894420198719
 20
1773.6965318801
 30
0.0
 11
-1712.553429941049
 21
1775.28752213777
 31
0.0
  0
LINE
  5
12F8D
330
1A
100
AcDbEntity
  8
ZISSEN1
100
AcDbLine
 10
-1710.303429941049
 20
1773.03752213777
 30
0.0
 11
-1711.894420198719
 21
1773.6965318801
 31
0.0
  0
LINE
  5
12F8E
330
1A
100
AcDbEntity
  8
ZISSEN1
100
AcDbLine
 10
-1708.71243968338
 20
1773.6965318801
 30
0.0
 11
-1710.303429941049
 21
1773.03752213777
 31
0.0
  0
LINE
  5
12F8F
330
1A
100
AcDbEntity
  8
ZISSEN1
100
AcDbLine
 10
-1708.053429941049
 20
1775.28752213777
 30
0.0
 11
-1708.71243968338
 21
1773.6965318801
 31
0.0
  0
LINE
  5
12F90
330
1A
100
AcDbEntity
  8
ZISSEN1
100
AcDbLine
 10
-1708.712439683379
 20
1776.87851239544
 30
0.0
 11
-1708.053429941049
 21
1775.28752213777
 31
0.0
  0
LINE
  5
12F91
330
1A
100
AcDbEntity
  8
ZISSEN1
100
AcDbLine
 10
-1710.303429941049
 20
1777.53752213777
 30
0.0
 11
-1708.712439683379
 21
1776.87851239544
 31
0.0
  0
LINE
  5
12F92
330
1A
100
AcDbEntity
  8
ZISSEN1
100
AcDbLine
 10
-1711.894420198719
 20
1776.878512395439
 30
0.0
 11
-1710.303429941049
 21
1777.53752213777
 31
0.0
  0
CIRCLE
  5
12F93
330
1A
100
AcDbEntity
  8
SAISEN
100
AcDbCircle
 10
-1710.303429941049
 20
1775.28752213777
 30
0.0
 40
1.3
  0
CIRCLE
  5
12F94
330
1A
100
AcDbEntity
  8
ZISSEN1
100
AcDbCircle
 10
-1710.303429941049
 20
1775.28752213777
 30
0.0
 40
1.1
  0
LINE
  5
12F95
330
1A
100
AcDbEntity
  8
SOUZOUSEN
100
AcDbLine
 10
-1713.70338994105
 20
1781.03752213777
 30
0.0
 11
-1713.70338994105
 21
1777.394717429714
 31
0.0
  0
ARC
  5
12F98
330
1A
100
AcDbEntity
  8
SOUZOUSEN
100
AcDbCircle
 10
-1627.75344094105
 20
1682.58752233777
 30
0.0
 40
4.9999998
100
AcDbArc
 50
0.0
 51
90.0
  0
LINE
  5
12F99
330
1A
100
AcDbEntity
  8
SOUZOUSEN
100
AcDbLine
 10
-1627.75344094105
 20
1687.58752213777
 30
0.0
 11
-1654.053430941049
 21
1687.58752213777
 31
0.0
  0
LINE
  5
12F9A
330
1A
100
AcDbEntity
  8
SOUZOUSEN
100
AcDbLine
 10
-1635.75344094105
 20
1677.58752213777
 30
0.0
 11
-1654.053430941049
 21
1677.58752213777
 31
0.0
  0
LINE
  5
12F9B
330
1A
100
AcDbEntity
  8
SOUZOUSEN
100
AcDbLine
 10
-1651.053429941049
 20
1686.58753213777
 30
0.0
 11
-1665.053429941049
 21
1686.58753213777
 31
0.0
  0
LINE
  5
12F9C
330
1A
100
AcDbEntity
  8
SOUZOUSEN
100
AcDbLine
 10
-1654.053430941049
 20
1686.58753213777
 30
0.0
 11
-1654.053430941049
 21
1688.33752213777
 31
0.0
  0
LINE
  5
12F9D
330
1A
100
AcDbEntity
  8
SOUZOUSEN
100
AcDbLine
 10
-1651.053429941049
 20
1678.58750213777
 30
0.0
 11
-1665.053429941049
 21
1678.58750213777
 31
0.0
  0
LINE
  5
12F9E
330
1A
100
AcDbEntity
  8
SOUZOUSEN
100
AcDbLine
 10
-1654.053430941049
 20
1676.83751213777
 30
0.0
 11
-1654.053430941049
 21
1678.58750213777
 31
0.0
  0
LINE
  5
12F9F
330
1A
100
AcDbEntity
  8
SOUZOUSEN
100
AcDbLine
 10
-1665.05342994105
 20
1686.58753213777
 30
0.0
 11
-1665.053429941049
 21
1678.58750213777
 31
0.0
  0
LINE
  5
12FA0
330
1A
100
AcDbEntity
  8
SOUZOUSEN
100
AcDbLine
 10
-1651.053429941049
 20
1686.58753213777
 30
0.0
 11
-1651.053429941049
 21
1678.58750213777
 31
0.0
  0
LINE
  5
12FA1
330
1A
100
AcDbEntity
  8
SOUZOUSEN
100
AcDbLine
 10
-1622.75344114105
 20
1682.58752233777
 30
0.0
 11
-1622.753440941049
 21
1665.56049213777
 31
0.0
  0
LINE
  5
12FA2
330
1A
100
AcDbEntity
  8
SOUZOUSEN
100
AcDbLine
 10
-1632.75344094105
 20
1674.58752213777
 30
0.0
 11
-1632.75344094105
 21
1665.56049213777
 31
0.0
  0
ARC
  5
12FA3
330
1A
100
AcDbEntity
  8
SOUZOUSEN
100
AcDbCircle
 10
-1635.75344094105
 20
1674.58752213777
 30
0.0
 40
3.0
100
AcDbArc
 50
0.0
 51
90.0
  0
LINE
  5
12FA4
330
1A
100
AcDbEntity
  8
ZISSEN1
100
AcDbLine
 10
-1546.403429941049
 20
1726.28752213777
 30
0.0
 11
-1546.403429941049
 21
1666.28752213777
 31
0.0
  0
CIRCLE
  5
12FA5
330
1A
100
AcDbEntity
  8
ZISSEN1
100
AcDbCircle
 10
-1623.203429941048
 20
1775.28752213777
 30
0.0
 40
1.649999999999999
  0
LINE
  5
12FA6
330
1A
100
AcDbEntity
  8
SOUZOUSEN
100
AcDbLine
 10
-1628.70345994105
 20
1773.18034298091
 30
0.0
 11
-1628.70345994105
 21
1769.53751213777
 31
0.0
  0
LINE
  5
12FA7
330
1A
100
AcDbEntity
  8
SOUZOUSEN
100
AcDbLine
 10
-1641.203429941051
 20
1769.53751213777
 30
0.0
 11
-1641.203429941051
 21
1781.03752213777
 31
0.0
  0
CIRCLE
  5
12FA8
330
1A
100
AcDbEntity
  8
SOUZOUSEN
100
AcDbCircle
 10
-1632.103429941049
 20
1775.28752213777
 30
0.0
 40
4.0
  0
CIRCLE
  5
12FA9
330
1A
100
AcDbEntity
  8
ZISSEN1
100
AcDbCircle
 10
-1632.103429941049
 20
1775.28752213777
 30
0.0
 40
1.1
  0
CIRCLE
  5
12FAA
330
1A
100
AcDbEntity
  8
SAISEN
100
AcDbCircle
 10
-1632.103429941049
 20
1775.28752213777
 30
0.0
 40
1.3
  0
LINE
  5
12FAB
330
1A
100
AcDbEntity
  8
ZISSEN1
100
AcDbLine
 10
-1633.694420198719
 20
1776.878512395439
 30
0.0
 11
-1632.103429941049
 21
1777.53752213777
 31
0.0
  0
LINE
  5
12FAC
330
1A
100
AcDbEntity
  8
ZISSEN1
100
AcDbLine
 10
-1632.103429941049
 20
1777.53752213777
 30
0.0
 11
-1630.512439683379
 21
1776.87851239544
 31
0.0
  0
LINE
  5
12FAD
330
1A
100
AcDbEntity
  8
ZISSEN1
100
AcDbLine
 10
-1630.512439683379
 20
1776.87851239544
 30
0.0
 11
-1629.853429941049
 21
1775.28752213777
 31
0.0
  0
LINE
  5
12FAE
330
1A
100
AcDbEntity
  8
ZISSEN1
100
AcDbLine
 10
-1629.853429941049
 20
1775.28752213777
 30
0.0
 11
-1630.512439683379
 21
1773.6965318801
 31
0.0
  0
LINE
  5
12FAF
330
1A
100
AcDbEntity
  8
ZISSEN1
100
AcDbLine
 10
-1630.512439683379
 20
1773.6965318801
 30
0.0
 11
-1632.103429941049
 21
1773.03752213777
 31
0.0
  0
LINE
  5
12FB0
330
1A
100
AcDbEntity
  8
ZISSEN1
100
AcDbLine
 10
-1632.103429941049
 20
1773.03752213777
 30
0.0
 11
-1633.694420198719
 21
1773.6965318801
 31
0.0
  0
LINE
  5
12FB1
330
1A
100
AcDbEntity
  8
ZISSEN1
100
AcDbLine
 10
-1633.694420198719
 20
1773.6965318801
 30
0.0
 11
-1634.353429941049
 21
1775.28752213777
 31
0.0
  0
LINE
  5
12FB2
330
1A
100
AcDbEntity
  8
ZISSEN1
100
AcDbLine
 10
-1634.353429941049
 20
1775.28752213777
 30
0.0
 11
-1633.694420198719
 21
1776.878512395439
 31
0.0
  0
LINE
  5
12FB3
330
1A
100
AcDbEntity
  8
ZISSEN1
100
AcDbLine
 10
-1637.203429941049
 20
1778.28752213777
 30
0.0
 11
-1638.703429941049
 21
1772.28752213777
 31
0.0
  0
LINE
  5
12FB4
330
1A
100
AcDbEntity
  8
SOUZOUSEN
100
AcDbLine
 10
-1636.703429941049
 20
1778.53752213777
 30
0.0
 11
-1638.203429941049
 21
1772.03752213777
 31
0.0
  0
LINE
  5
12FB5
330
1A
100
AcDbEntity
  8
SOUZOUSEN
100
AcDbLine
 10
-1628.70345994105
 20
1781.03752213777
 30
0.0
 11
-1628.70345994105
 21
1777.394701294629
 31
0.0
  0
LINE
  5
12FB6
330
1A
100
AcDbEntity
  8
ZISSEN1
100
AcDbLine
 10
-1619.703409941051
 20
1800.580404137767
 30
0.0
 11
-1619.703409941051
 21
1749.994632137769
 31
0.0
  0
LINE
  5
12FB7
330
1A
100
AcDbEntity
  8
ZISSEN1
100
AcDbLine
 10
-1620.410519941051
 20
1749.287522137769
 30
0.0
 11
-1619.703409941051
 21
1749.994632137769
 31
0.0
  0
LINE
  5
12FB8
330
1A
100
AcDbEntity
  8
ZISSEN1
100
AcDbLine
 10
-1620.410519941051
 20
1801.28751313777
 30
0.0
 11
-1619.703409941051
 21
1800.580404137767
 31
0.0
  0
LINE
  5
12FB9
330
1A
100
AcDbEntity
  8
ZISSEN1
100
AcDbLine
 10
-1705.203429941049
 20
1873.687522746851
 30
0.0
 11
-1637.203429941049
 21
1873.687522746851
 31
0.0
  0
ARC
  5
12FBA
330
1A
100
AcDbEntity
  8
SOUZOUSEN
100
AcDbCircle
 10
-1666.203429941049
 20
1828.03752213777
 30
0.0
 40
6.25
100
AcDbArc
 50
216.8698976458414
 51
323.1301023541585
  0
LINE
  5
12FBB
330
1A
100
AcDbEntity
  8
ZISSEN1
100
AcDbLine
 10
-1713.303429941049
 20
1879.187522746851
 30
0.0
 11
-1629.103429941049
 21
1879.187522746851
 31
0.0
  0
LINE
  5
12FBC
330
1A
100
AcDbEntity
  8
ZISSEN1
100
AcDbLine
 10
-1661.583339941047
 20
1950.43751213777
 30
0.0
 11
-1682.583359941049
 21
1950.43751213777
 31
0.0
  0
LINE
  5
12FBD
330
1A
100
AcDbEntity
  8
ZISSEN1
100
AcDbLine
 10
-1661.583339941047
 20
1942.28752213777
 30
0.0
 11
-1680.823369941049
 21
1942.28752213777
 31
0.0
  0
LINE
  5
12FBE
330
1A
100
AcDbEntity
  8
ZISSEN1
100
AcDbLine
 10
-1722.703429941049
 20
1887.68752213777
 30
0.0
 11
-1619.703429941049
 21
1887.68752213777
 31
0.0
  0
LINE
  5
12FBF
330
1A
100
AcDbEntity
  8
ZISSEN1
100
AcDbLine
 10
-1722.703429941049
 20
1889.28752213777
 30
0.0
 11
-1619.703429941049
 21
1889.28752213777
 31
0.0
  0
LINE
  5
12FC0
330
1A
100
AcDbEntity
  8
ZISSEN1
100
AcDbLine
 10
-1719.303429941049
 20
1897.78752213777
 30
0.0
 11
-1623.103279941048
 21
1897.78752213777
 31
0.0
  0
LINE
  5
12FC1
330
1A
100
AcDbEntity
  8
ZISSEN1
100
AcDbLine
 10
-1621.353431217203
 20
1905.48752213777
 30
0.0
 11
-1721.063429941049
 21
1905.48752213777
 31
0.0
  0
LINE
  5
12FC2
330
1A
100
AcDbEntity
  8
SOUZOUSEN
100
AcDbLine
 10
-1641.20345994105
 20
1838.68752213777
 30
0.0
 11
-1701.203459941049
 21
1838.68752213777
 31
0.0
  0
LINE
  5
12FC3
330
1A
100
AcDbEntity
  8
ZISSEN1
100
AcDbLine
 10
-1620.410519941051
 20
1939.28752213777
 30
0.0
 11
-1721.99631994105
 21
1939.28752213777
 31
0.0
  0
LINE
  5
12FC5
330
1A
100
AcDbEntity
  8
SOUZOUSEN
100
AcDbLine
 10
-1713.703429941049
 20
1859.687502137768
 30
0.0
 11
-1713.703429041445
 21
1876.687522746851
 31
0.0
  0
LINE
  5
12FC6
330
1A
100
AcDbEntity
  8
SOUZOUSEN
100
AcDbLine
 10
-1714.303419941047
 20
1835.68752213777
 30
0.0
 11
-1714.303419941047
 21
1849.68752213777
 31
0.0
  0
LINE
  5
12FC7
330
1A
100
AcDbEntity
  8
SOUZOUSEN
100
AcDbLine
 10
-1706.303429941049
 20
1835.68752213777
 30
0.0
 11
-1706.303429941049
 21
1849.68752213777
 31
0.0
  0
LINE
  5
12FC8
330
1A
100
AcDbEntity
  8
SOUZOUSEN
100
AcDbLine
 10
-1701.203459941049
 20
1838.68752213777
 30
0.0
 11
-1701.203459941049
 21
1859.68752213777
 31
0.0
  0
LINE
  5
12FC9
330
1A
100
AcDbEntity
  8
SOUZOUSEN
100
AcDbLine
 10
-1706.303429941049
 20
1835.68752213777
 30
0.0
 11
-1714.303419941047
 21
1835.68752213777
 31
0.0
  0
ARC
  5
12FCA
330
1A
100
AcDbEntity
  8
SOUZOUSEN
100
AcDbCircle
 10
-1676.203429941049
 20
1820.53752213777
 30
0.0
 40
6.25
100
AcDbArc
 50
36.86989764584142
 51
143.1301023541585
  0
LINE
  5
12FCB
330
1A
100
AcDbEntity
  8
SOUZOUSEN
100
AcDbLine
 10
-1676.203429941049
 20
1826.78752213777
 30
0.0
 11
-1676.203429941049
 21
1838.68752213777
 31
0.0
  0
LINE
  5
12FCC
330
1A
100
AcDbEntity
  8
ZISSEN1
100
AcDbLine
 10
-1707.303429941049
 20
1879.187522746851
 30
0.0
 11
-1707.303429941049
 21
1878.387522746851
 31
0.0
  0
LINE
  5
12FCD
330
1A
100
AcDbEntity
  8
ZISSEN1
100
AcDbLine
 10
-1707.303429941049
 20
1878.387522746851
 30
0.0
 11
-1713.303429941049
 21
1878.387522746851
 31
0.0
  0
LINE
  5
12FCE
330
1A
100
AcDbEntity
  8
ZISSEN1
100
AcDbLine
 10
-1713.303429941049
 20
1878.387522746851
 30
0.0
 11
-1713.303429941049
 21
1879.187522746851
 31
0.0
  0
LINE
  5
12FCF
330
1A
100
AcDbEntity
  8
ZISSEN1
100
AcDbLine
 10
-1710.303429941049
 20
1878.387522746851
 30
0.0
 11
-1708.053429941049
 21
1878.387522746851
 31
0.0
  0
LINE
  5
12FD0
330
1A
100
AcDbEntity
  8
ZISSEN1
100
AcDbLine
 10
-1710.303429941049
 20
1878.387522746851
 30
0.0
 11
-1708.053429941049
 21
1878.387522746851
 31
0.0
  0
LINE
  5
12FD1
330
1A
100
AcDbEntity
  8
ZISSEN1
100
AcDbLine
 10
-1710.303429941049
 20
1878.387522746851
 30
0.0
 11
-1708.053429941049
 21
1878.387522746851
 31
0.0
  0
LINE
  5
12FD2
330
1A
100
AcDbEntity
  8
SOUZOUSEN
100
AcDbLine
 10
-1705.703429941049
 20
1879.187522746851
 30
0.0
 11
-1705.703429941049
 21
1873.637522746851
 31
0.0
  0
LINE
  5
12FD3
330
1A
100
AcDbEntity
  8
SOUZOUSEN
100
AcDbLine
 10
-1708.803429941049
 20
1873.687522746851
 30
0.0
 11
-1708.803429941049
 21
1859.68752213777
 31
0.0
  0
LINE
  5
12FD4
330
1A
100
AcDbEntity
  8
SOUZOUSEN
100
AcDbLine
 10
-1711.803429941049
 20
1873.687522746851
 30
0.0
 11
-1711.803429941049
 21
1859.68752213777
 31
0.0
  0
LINE
  5
12FD5
330
1A
100
AcDbEntity
  8
KAKURESEN1
100
AcDbLine
 10
-1709.003429941049
 20
1877.587522746851
 30
0.0
 11
-1709.003429941049
 21
1873.687522746851
 31
0.0
  0
LINE
  5
12FD6
330
1A
100
AcDbEntity
  8
KAKURESEN1
100
AcDbLine
 10
-1709.203429941049
 20
1877.587522746851
 30
0.0
 11
-1709.203429941049
 21
1873.687522746851
 31
0.0
  0
LINE
  5
12FD7
330
1A
100
AcDbEntity
  8
KAKURESEN1
100
AcDbLine
 10
-1711.403429941049
 20
1877.587522746851
 30
0.0
 11
-1711.403429941049
 21
1873.687522746851
 31
0.0
  0
LINE
  5
12FD8
330
1A
100
AcDbEntity
  8
KAKURESEN1
100
AcDbLine
 10
-1711.603429941049
 20
1877.587522746851
 30
0.0
 11
-1711.603429941049
 21
1873.687522746851
 31
0.0
  0
LINE
  5
12FD9
330
1A
100
AcDbEntity
  8
ZISSEN1
  6
CONTINUOUS
100
AcDbLine
 10
-1710.303429941049
 20
1873.687522746851
 30
0.0
 11
-1710.303429941049
 21
1877.587522746851
 31
0.0
  0
LINE
  5
12FDA
330
1A
100
AcDbEntity
  8
ZISSEN1
100
AcDbLine
 10
-1708.063429941049
 20
1877.587522746851
 30
0.0
 11
-1708.063429941049
 21
1873.687522746851
 31
0.0
  0
LINE
  5
12FDB
330
1A
100
AcDbEntity
  8
ZISSEN1
100
AcDbLine
 10
-1712.563429941049
 20
1873.687522746851
 30
0.0
 11
-1712.563429941049
 21
1877.587522746851
 31
0.0
  0
LINE
  5
12FDC
330
1A
100
AcDbEntity
  8
ZISSEN1
100
AcDbLine
 10
-1710.303429941049
 20
1877.587522746851
 30
0.0
 11
-1708.053429941049
 21
1877.587522746851
 31
0.0
  0
LINE
  5
12FDD
330
1A
100
AcDbEntity
  8
ZISSEN1
100
AcDbLine
 10
-1710.303429941049
 20
1877.587522746851
 30
0.0
 11
-1708.053429941049
 21
1877.587522746851
 31
0.0
  0
LINE
  5
12FDE
330
1A
100
AcDbEntity
  8
ZISSEN1
100
AcDbLine
 10
-1710.303429941049
 20
1877.587522746851
 30
0.0
 11
-1708.053429941049
 21
1877.587522746851
 31
0.0
  0
LINE
  5
12FDF
330
1A
100
AcDbEntity
  8
ZISSEN1
100
AcDbLine
 10
-1710.303429941049
 20
1878.387522746851
 30
0.0
 11
-1707.303429941049
 21
1878.387522746851
 31
0.0
  0
LINE
  5
12FE0
330
1A
100
AcDbEntity
  8
ZISSEN1
100
AcDbLine
 10
-1713.303429941049
 20
1877.587522746851
 30
0.0
 11
-1713.303429941049
 21
1878.387522746851
 31
0.0
  0
LINE
  5
12FE1
330
1A
100
AcDbEntity
  8
ZISSEN1
100
AcDbLine
 10
-1707.303429941049
 20
1878.387522746851
 30
0.0
 11
-1707.303429941049
 21
1877.587522746851
 31
0.0
  0
LINE
  5
12FE2
330
1A
100
AcDbEntity
  8
ZISSEN1
100
AcDbLine
 10
-1713.303429941049
 20
1878.387522746851
 30
0.0
 11
-1707.303429941049
 21
1878.387522746851
 31
0.0
  0
LINE
  5
12FE3
330
1A
100
AcDbEntity
  8
ZISSEN1
100
AcDbLine
 10
-1707.303429941049
 20
1877.587522746851
 30
0.0
 11
-1713.303429941049
 21
1877.587522746851
 31
0.0
  0
LINE
  5
12FE5
330
1A
100
AcDbEntity
  8
SOUZOUSEN
100
AcDbLine
 10
-1713.303469941049
 20
1849.68752213777
 30
0.0
 11
-1713.303469941049
 21
1859.68752213777
 31
0.0
  0
LINE
  5
12FE6
330
1A
100
AcDbEntity
  8
SOUZOUSEN
100
AcDbLine
 10
-1707.303449941048
 20
1849.68752213777
 30
0.0
 11
-1707.303449941048
 21
1859.68752213777
 31
0.0
  0
LINE
  5
12FE7
330
1A
100
AcDbEntity
  8
SOUZOUSEN
100
AcDbLine
 10
-1706.303489941049
 20
1849.68752213777
 30
0.0
 11
-1714.303419941047
 21
1849.68752213777
 31
0.0
  0
LINE
  5
12FE8
330
1A
100
AcDbEntity
  8
SOUZOUSEN
100
AcDbLine
 10
-1701.203459941049
 20
1859.68752213777
 30
0.0
 11
-1713.703429941049
 21
1859.68752213777
 31
0.0
  0
LINE
  5
12FE9
330
1A
100
AcDbEntity
  8
ZISSEN1
100
AcDbLine
 10
-1700.063399941048
 20
1950.43751213777
 30
0.0
 11
-1721.063419941048
 21
1950.43751213777
 31
0.0
  0
LINE
  5
12FEA
330
1A
100
AcDbEntity
  8
ZISSEN1
100
AcDbLine
 10
-1700.063399941048
 20
1942.28752213777
 30
0.0
 11
-1719.303429941049
 21
1942.28752213777
 31
0.0
  0
LINE
  5
12FEB
330
1A
100
AcDbEntity
  8
ZISSEN1
100
AcDbLine
 10
-1722.703429941049
 20
1887.68752213777
 30
0.0
 11
-1722.703429941049
 21
1889.28752213777
 31
0.0
  0
LINE
  5
12FEC
330
1A
100
AcDbEntity
  8
ZISSEN1
100
AcDbLine
 10
-1721.996319941048
 20
1887.68752213777
 30
0.0
 11
-1721.996319941048
 21
1889.28752213777
 31
0.0
  0
LINE
  5
12FED
330
1A
100
AcDbEntity
  8
ZISSEN1
100
AcDbLine
 10
-1719.303429941049
 20
1897.78752213777
 30
0.0
 11
-1719.303429941049
 21
1889.28752213777
 31
0.0
  0
LINE
  5
12FEE
330
1A
100
AcDbEntity
  8
ZISSEN1
100
AcDbLine
 10
-1721.063429941049
 20
1889.28752213777
 30
0.0
 11
-1721.063429941049
 21
1905.48752213777
 31
0.0
  0
LINE
  5
12FEF
330
1A
100
AcDbEntity
  8
ZISSEN1
100
AcDbLine
 10
-1719.303429941049
 20
1942.28752213777
 30
0.0
 11
-1719.303429941049
 21
1950.43751213777
 31
0.0
  0
LINE
  5
12FF0
330
1A
100
AcDbEntity
  8
ZISSEN1
100
AcDbLine
 10
-1722.703429941049
 20
1939.99463213777
 30
0.0
 11
-1721.996319941049
 21
1939.28752213777
 31
0.0
  0
LINE
  5
12FF1
330
1A
100
AcDbEntity
  8
ZISSEN1
100
AcDbLine
 10
-1700.06339994105
 20
1897.78752213777
 30
0.0
 11
-1700.06339994105
 21
1889.28752213777
 31
0.0
  0
LINE
  5
12FF2
330
1A
100
AcDbEntity
  8
ZISSEN1
100
AcDbLine
 10
-1701.823399941049
 20
1897.78752213777
 30
0.0
 11
-1701.823399941049
 21
1905.48752213777
 31
0.0
  0
LINE
  5
12FF3
330
1A
100
AcDbEntity
  8
ZISSEN1
100
AcDbLine
 10
-1680.82336994105
 20
1897.78752213777
 30
0.0
 11
-1680.82336994105
 21
1889.28752213777
 31
0.0
  0
LINE
  5
12FF4
330
1A
100
AcDbEntity
  8
ZISSEN1
100
AcDbLine
 10
-1682.58336994105
 20
1897.78752213777
 30
0.0
 11
-1682.58336994105
 21
1905.48752213777
 31
0.0
  0
LINE
  5
12FF5
330
1A
100
AcDbEntity
  8
ZISSEN1
100
AcDbLine
 10
-1680.823369941049
 20
1950.43751213777
 30
0.0
 11
-1701.823389941049
 21
1950.43751213777
 31
0.0
  0
LINE
  5
12FF6
330
1A
100
AcDbEntity
  8
ZISSEN1
100
AcDbLine
 10
-1680.823369941049
 20
1942.28752213777
 30
0.0
 11
-1700.063399941048
 21
1942.28752213777
 31
0.0
  0
LINE
  5
12FF7
330
1A
100
AcDbEntity
  8
ZISSEN1
100
AcDbLine
 10
-1700.063399941048
 20
1942.28752213777
 30
0.0
 11
-1700.063399941048
 21
1950.43751213777
 31
0.0
  0
LINE
  5
12FF8
330
1A
100
AcDbEntity
  8
ZISSEN1
100
AcDbLine
 10
-1700.063399941048
 20
1942.28752213777
 30
0.0
 11
-1700.063399941048
 21
1950.43751213777
 31
0.0
  0
LINE
  5
12FF9
330
1A
100
AcDbEntity
  8
ZISSEN1
100
AcDbLine
 10
-1680.823369941049
 20
1942.28752213777
 30
0.0
 11
-1680.823369941049
 21
1950.43751213777
 31
0.0
  0
LINE
  5
12FFA
330
1A
100
AcDbEntity
  8
ZISSEN1
100
AcDbLine
 10
-1680.823369941049
 20
1942.28752213777
 30
0.0
 11
-1680.823369941049
 21
1950.43751213777
 31
0.0
  0
LINE
  5
12FFB
330
1A
100
AcDbEntity
  8
SOUZOUSEN
100
AcDbLine
 10
-1628.703429941049
 20
1859.687502137768
 30
0.0
 11
-1628.703429941049
 21
1876.687522746851
 31
0.0
  0
LINE
  5
12FFC
330
1A
100
AcDbEntity
  8
SOUZOUSEN
100
AcDbLine
 10
-1628.103429941049
 20
1835.68752213777
 30
0.0
 11
-1628.103429941049
 21
1849.68752213777
 31
0.0
  0
LINE
  5
12FFD
330
1A
100
AcDbEntity
  8
SOUZOUSEN
100
AcDbLine
 10
-1636.10342994105
 20
1835.68752213777
 30
0.0
 11
-1636.10342994105
 21
1849.68752213777
 31
0.0
  0
LINE
  5
12FFE
330
1A
100
AcDbEntity
  8
SOUZOUSEN
100
AcDbLine
 10
-1641.20345994105
 20
1838.68752213777
 30
0.0
 11
-1641.20345994105
 21
1859.687502137768
 31
0.0
  0
LINE
  5
12FFF
330
1A
100
AcDbEntity
  8
SOUZOUSEN
100
AcDbLine
 10
-1666.203429941049
 20
1821.78752213777
 30
0.0
 11
-1666.203429941049
 21
1838.68752213777
 31
0.0
  0
LINE
  5
13000
330
1A
100
AcDbEntity
  8
SOUZOUSEN
100
AcDbLine
 10
-1628.103429941049
 20
1835.68752213777
 30
0.0
 11
-1636.10342994105
 21
1835.68752213777
 31
0.0
  0
LINE
  5
13002
330
1A
100
AcDbEntity
  8
ZISSEN1
100
AcDbLine
 10
-1629.103429941049
 20
1877.587522746851
 30
0.0
 11
-1635.103429941049
 21
1877.587522746851
 31
0.0
  0
LINE
  5
13003
330
1A
100
AcDbEntity
  8
ZISSEN1
100
AcDbLine
 10
-1635.103429941049
 20
1878.387522746851
 30
0.0
 11
-1629.103429941049
 21
1878.387522746851
 31
0.0
  0
LINE
  5
13004
330
1A
100
AcDbEntity
  8
ZISSEN1
100
AcDbLine
 10
-1629.103429941049
 20
1878.387522746851
 30
0.0
 11
-1629.103429941049
 21
1877.587522746851
 31
0.0
  0
LINE
  5
13005
330
1A
100
AcDbEntity
  8
ZISSEN1
100
AcDbLine
 10
-1635.103429941049
 20
1877.587522746851
 30
0.0
 11
-1635.103429941049
 21
1878.387522746851
 31
0.0
  0
LINE
  5
13006
330
1A
100
AcDbEntity
  8
ZISSEN1
100
AcDbLine
 10
-1632.103429941049
 20
1878.387522746851
 30
0.0
 11
-1629.103429941049
 21
1878.387522746851
 31
0.0
  0
LINE
  5
13007
330
1A
100
AcDbEntity
  8
ZISSEN1
100
AcDbLine
 10
-1632.103429941049
 20
1877.587522746851
 30
0.0
 11
-1629.853429941049
 21
1877.587522746851
 31
0.0
  0
LINE
  5
13008
330
1A
100
AcDbEntity
  8
ZISSEN1
100
AcDbLine
 10
-1632.103429941049
 20
1877.587522746851
 30
0.0
 11
-1629.853429941049
 21
1877.587522746851
 31
0.0
  0
LINE
  5
13009
330
1A
100
AcDbEntity
  8
ZISSEN1
100
AcDbLine
 10
-1632.103429941049
 20
1877.587522746851
 30
0.0
 11
-1629.853429941049
 21
1877.587522746851
 31
0.0
  0
LINE
  5
1300A
330
1A
100
AcDbEntity
  8
ZISSEN1
100
AcDbLine
 10
-1634.363429941049
 20
1873.687522746851
 30
0.0
 11
-1634.363429941049
 21
1877.587522746851
 31
0.0
  0
LINE
  5
1300B
330
1A
100
AcDbEntity
  8
ZISSEN1
100
AcDbLine
 10
-1629.863429941049
 20
1877.587522746851
 30
0.0
 11
-1629.863429941049
 21
1873.687522746851
 31
0.0
  0
LINE
  5
1300C
330
1A
100
AcDbEntity
  8
ZISSEN1
  6
CONTINUOUS
100
AcDbLine
 10
-1632.103429941049
 20
1873.587522746851
 30
0.0
 11
-1632.103429941049
 21
1877.587522746851
 31
0.0
  0
LINE
  5
1300D
330
1A
100
AcDbEntity
  8
KAKURESEN1
100
AcDbLine
 10
-1633.403429941049
 20
1877.587522746851
 30
0.0
 11
-1633.403429941049
 21
1873.687522746851
 31
0.0
  0
LINE
  5
1300E
330
1A
100
AcDbEntity
  8
KAKURESEN1
100
AcDbLine
 10
-1633.203429941049
 20
1877.587522746851
 30
0.0
 11
-1633.203429941049
 21
1873.687522746851
 31
0.0
  0
LINE
  5
1300F
330
1A
100
AcDbEntity
  8
KAKURESEN1
100
AcDbLine
 10
-1630.803429941049
 20
1877.587522746851
 30
0.0
 11
-1630.803429941049
 21
1873.687522746851
 31
0.0
  0
LINE
  5
13010
330
1A
100
AcDbEntity
  8
SOUZOUSEN
100
AcDbLine
 10
-1633.603429941049
 20
1873.687522746851
 30
0.0
 11
-1633.603429941049
 21
1859.68752213777
 31
0.0
  0
LINE
  5
13011
330
1A
100
AcDbEntity
  8
SOUZOUSEN
100
AcDbLine
 10
-1630.603429941049
 20
1873.687522746851
 30
0.0
 11
-1630.603429941049
 21
1859.68752213777
 31
0.0
  0
LINE
  5
13012
330
1A
100
AcDbEntity
  8
ZISSEN1
100
AcDbLine
 10
-1632.103429941049
 20
1878.387522746851
 30
0.0
 11
-1629.853429941049
 21
1878.387522746851
 31
0.0
  0
LINE
  5
13013
330
1A
100
AcDbEntity
  8
ZISSEN1
100
AcDbLine
 10
-1632.103429941049
 20
1878.387522746851
 30
0.0
 11
-1629.853429941049
 21
1878.387522746851
 31
0.0
  0
LINE
  5
13014
330
1A
100
AcDbEntity
  8
ZISSEN1
100
AcDbLine
 10
-1632.103429941049
 20
1878.387522746851
 30
0.0
 11
-1629.853429941049
 21
1878.387522746851
 31
0.0
  0
LINE
  5
13015
330
1A
100
AcDbEntity
  8
ZISSEN1
100
AcDbLine
 10
-1635.103429941049
 20
1878.387522746851
 30
0.0
 11
-1635.103429941049
 21
1879.187522746851
 31
0.0
  0
LINE
  5
13016
330
1A
100
AcDbEntity
  8
ZISSEN1
100
AcDbLine
 10
-1629.103429941049
 20
1878.387522746851
 30
0.0
 11
-1635.103429941049
 21
1878.387522746851
 31
0.0
  0
LINE
  5
13017
330
1A
100
AcDbEntity
  8
ZISSEN1
100
AcDbLine
 10
-1629.103429941049
 20
1879.187522746851
 30
0.0
 11
-1629.103429941049
 21
1878.387522746851
 31
0.0
  0
LINE
  5
13018
330
1A
100
AcDbEntity
  8
KAKURESEN1
100
AcDbLine
 10
-1631.003429941049
 20
1877.587522746851
 30
0.0
 11
-1631.003429941049
 21
1873.687522746851
 31
0.0
  0
LINE
  5
13019
330
1A
100
AcDbEntity
  8
SOUZOUSEN
100
AcDbLine
 10
-1636.703429941049
 20
1879.187522746851
 30
0.0
 11
-1636.703429941049
 21
1873.637522746851
 31
0.0
  0
LINE
  5
1301A
330
1A
100
AcDbEntity
  8
SOUZOUSEN
100
AcDbLine
 10
-1635.103429941049
 20
1849.68752213777
 30
0.0
 11
-1635.103429941049
 21
1859.68752213777
 31
0.0
  0
LINE
  5
1301B
330
1A
100
AcDbEntity
  8
SOUZOUSEN
100
AcDbLine
 10
-1629.103459941049
 20
1849.68752213777
 30
0.0
 11
-1629.103459941049
 21
1859.68752213777
 31
0.0
  0
LINE
  5
1301C
330
1A
100
AcDbEntity
  8
SOUZOUSEN
100
AcDbLine
 10
-1628.103429941049
 20
1849.68752213777
 30
0.0
 11
-1636.10342994105
 21
1849.68752213777
 31
0.0
  0
LINE
  5
1301D
330
1A
100
AcDbEntity
  8
SOUZOUSEN
100
AcDbLine
 10
-1628.703429941049
 20
1859.68752213777
 30
0.0
 11
-1641.20345994105
 21
1859.68752213777
 31
0.0
  0
LINE
  5
1301E
330
1A
100
AcDbEntity
  8
ZISSEN1
100
AcDbLine
 10
-1661.583339941048
 20
1897.78752213777
 30
0.0
 11
-1661.583339941048
 21
1889.28752213777
 31
0.0
  0
LINE
  5
1301F
330
1A
100
AcDbEntity
  8
ZISSEN1
100
AcDbLine
 10
-1663.343339941048
 20
1897.78752213777
 30
0.0
 11
-1663.343339941048
 21
1905.48752213777
 31
0.0
  0
LINE
  5
13020
330
1A
100
AcDbEntity
  8
ZISSEN1
100
AcDbLine
 10
-1642.343309941049
 20
1897.78752213777
 30
0.0
 11
-1642.343309941049
 21
1889.28752213777
 31
0.0
  0
LINE
  5
13021
330
1A
100
AcDbEntity
  8
ZISSEN1
100
AcDbLine
 10
-1644.103309941048
 20
1897.78752213777
 30
0.0
 11
-1644.103309941048
 21
1905.48752213777
 31
0.0
  0
LINE
  5
13022
330
1A
100
AcDbEntity
  8
ZISSEN1
100
AcDbLine
 10
-1623.103279941048
 20
1897.78752213777
 30
0.0
 11
-1623.103279941048
 21
1889.28752213777
 31
0.0
  0
LINE
  5
13023
330
1A
100
AcDbEntity
  8
ZISSEN1
100
AcDbLine
 10
-1624.518529941049
 20
1897.78752213777
 30
0.0
 11
-1624.518529941049
 21
1905.48752213777
 31
0.0
  0
LINE
  5
13024
330
1A
100
AcDbEntity
  8
ZISSEN1
100
AcDbLine
 10
-1642.343309941047
 20
1950.43751213777
 30
0.0
 11
-1663.343329941047
 21
1950.43751213777
 31
0.0
  0
LINE
  5
13025
330
1A
100
AcDbEntity
  8
ZISSEN1
100
AcDbLine
 10
-1642.343309941047
 20
1942.28752213777
 30
0.0
 11
-1661.583339941047
 21
1942.28752213777
 31
0.0
  0
LINE
  5
13026
330
1A
100
AcDbEntity
  8
ZISSEN1
100
AcDbLine
 10
-1661.583339941047
 20
1942.28752213777
 30
0.0
 11
-1661.583339941047
 21
1950.43751213777
 31
0.0
  0
LINE
  5
13027
330
1A
100
AcDbEntity
  8
ZISSEN1
100
AcDbLine
 10
-1661.583339941047
 20
1942.28752213777
 30
0.0
 11
-1661.583339941047
 21
1950.43751213777
 31
0.0
  0
LINE
  5
13028
330
1A
100
AcDbEntity
  8
ZISSEN1
100
AcDbLine
 10
-1623.103279941048
 20
1950.43751213777
 30
0.0
 11
-1644.103299941048
 21
1950.43751213777
 31
0.0
  0
LINE
  5
13029
330
1A
100
AcDbEntity
  8
ZISSEN1
100
AcDbLine
 10
-1623.103279941048
 20
1942.28752213777
 30
0.0
 11
-1642.343309941047
 21
1942.28752213777
 31
0.0
  0
LINE
  5
1302A
330
1A
100
AcDbEntity
  8
ZISSEN1
100
AcDbLine
 10
-1642.343309941047
 20
1942.28752213777
 30
0.0
 11
-1642.343309941047
 21
1950.43751213777
 31
0.0
  0
LINE
  5
1302B
330
1A
100
AcDbEntity
  8
ZISSEN1
100
AcDbLine
 10
-1642.343309941047
 20
1942.28752213777
 30
0.0
 11
-1642.343309941047
 21
1950.43751213777
 31
0.0
  0
LINE
  5
1302C
330
1A
100
AcDbEntity
  8
ZISSEN1
100
AcDbLine
 10
-1623.103279941048
 20
1942.28752213777
 30
0.0
 11
-1623.103279941048
 21
1950.43751213777
 31
0.0
  0
LINE
  5
1302D
330
1A
100
AcDbEntity
  8
ZISSEN1
100
AcDbLine
 10
-1621.353431217203
 20
1889.287522662273
 30
0.0
 11
-1621.353431217203
 21
1905.487522662273
 31
0.0
  0
LINE
  5
1302E
330
1A
100
AcDbEntity
  8
ZISSEN1
100
AcDbLine
 10
-1619.703409941051
 20
1887.68752213777
 30
0.0
 11
-1619.703409941051
 21
1889.28752213777
 31
0.0
  0
LINE
  5
1302F
330
1A
100
AcDbEntity
  8
ZISSEN1
100
AcDbLine
 10
-1620.41051994105
 20
1887.68752213777
 30
0.0
 11
-1620.41051994105
 21
1889.28752213777
 31
0.0
  0
LINE
  5
13030
330
1A
100
AcDbEntity
  8
ZISSEN1
100
AcDbLine
 10
-1620.410519941051
 20
1939.28752213777
 30
0.0
 11
-1619.703409941051
 21
1939.99463213777
 31
0.0
  0
DIMENSION
  5
13031
330
1A
100
AcDbEntity
  8
SUNPOU
100
AcDbDimension
  2
*D6
 10
-1437.936424267639
 20
1697.88752213777
 30
0.0
 11
-1437.936424267639
 21
1685.079188804436
 31
0.0
 70
   160
  1
8.4±0.1
  3
標準スタイル
100
AcDbAlignedDimension
 13
-1458.403429941049
 23
1706.28752213777
 33
0.0
 14
-1458.403429941049
 24
1697.88752213777
 34
0.0
 50
90.0
100
AcDbRotatedDimension
1001
ACAD
1000
DSTYLE
1002
{
1070
   340
1005
10
1070
    40
1040
1.0
1002
}
  0
LINE
  5
13032
330
1A
100
AcDbEntity
  8
ZISSEN1
100
AcDbLine
 10
-1430.403429941049
 20
1726.28752213777
 30
0.0
 11
-1474.850027644953
 21
1726.28752213777
 31
0.0
  0
MTEXT
  5
13033
330
1A
100
AcDbEntity
  8
SUNPOU
100
AcDbMText
 10
-1504.464314314005
 20
1714.548781849756
 30
0.0
 40
3.5
 41
29.12249650549779
 71
     5
 72
     5
  1
2-φ3.7±0.1
1001
ACAD
1000
MTEXTBEGIN
1070
    73
1070
     1
1070
    44
1040
1.0
1070
    74
1070
     0
1000
MTEXTEND
1000
MTEXTBEGIN
1070
    73
1070
     1
1070
    44
1040
1.0
1070
    74
1070
     0
1000
MTEXTEND
1000
MTEXTBEGIN
1070
    73
1070
     1
1070
    44
1040
1.0
1070
    74
1070
     0
1000
MTEXTEND
  0
LINE
  5
13034
330
1A
100
AcDbEntity
  8
CL1
100
AcDbLine
 10
-1537.703429941049
 20
1702.08752213777
 30
0.0
 11
-1449.503429941049
 21
1702.08752213777
 31
0.0
  0
DIMENSION
  5
13035
330
1A
100
AcDbEntity
  8
SUNPOU
100
AcDbDimension
  2
*D7
 10
-1458.803429941049
 20
1684.944377859686
 30
0.0
 11
-1493.403429941049
 21
1684.944377859686
 31
0.0
 70
   160
  1
69.6±0.1
  3
標準スタイル
100
AcDbAlignedDimension
 13
-1528.403429941049
 23
1697.88752213777
 33
0.0
 14
-1458.803429941049
 24
1697.88752213777
 34
0.0
100
AcDbRotatedDimension
1001
ACAD
1000
DSTYLE
1002
{
1070
   340
1005
10
1070
    40
1040
1.0
1002
}
  0
DIMENSION
  5
13036
330
1A
100
AcDbEntity
  8
SUNPOU
100
AcDbDimension
  2
*D8
 10
-1454.503429941049
 20
1674.190082372055
 30
0.0
 11
-1493.603429941049
 21
1674.190082372055
 31
0.0
 70
   160
  1
78.2±0.1
  3
標準スタイル
100
AcDbAlignedDimension
 13
-1532.703429941049
 23
1702.08752213777
 33
0.0
 14
-1454.503429941049
 24
1702.08752213777
 34
0.0
100
AcDbRotatedDimension
1001
ACAD
1000
DSTYLE
1002
{
1070
   340
1005
10
1070
    40
1040
1.0
1002
}
  0
LINE
  5
13037
330
1A
100
AcDbEntity
  8
ZISSEN1
100
AcDbLine
 10
-1528.403429941049
 20
1706.28752213777
 30
0.0
 11
-1458.803429941049
 21
1706.28752213777
 31
0.0
  0
LINE
  5
13038
330
1A
100
AcDbEntity
  8
ZISSEN1
100
AcDbLine
 10
-1528.403429941049
 20
1697.88752213777
 30
0.0
 11
-1458.803429941049
 21
1697.88752213777
 31
0.0
  0
MTEXT
  5
13039
330
1A
100
AcDbEntity
  8
ZISSEN1
100
AcDbMText
 10
-1491.850027644953
 20
1726.512147373612
 30
0.0
 40
3.5
 41
34.0
 71
     5
 72
     5
  1
パネル取付寸法
1001
ACAD
1000
MTEXTBEGIN
1070
    73
1070
     1
1070
    44
1040
1.0
1070
    74
1070
     0
1000
MTEXTEND
1000
MTEXTBEGIN
1070
    73
1070
     1
1070
    44
1040
1.0
1070
    74
1070
     0
1000
MTEXTEND
1000
MTEXTBEGIN
1070
    73
1070
     1
1070
    44
1040
1.0
1070
    74
1070
     0
1000
MTEXTEND
  0
LINE
  5
1303A
330
1A
100
AcDbEntity
  8
SUNPOU
100
AcDbLine
 10
-1524.732979566555
 20
1714.271571300653
 30
0.0
 11
-1518.403429941049
 21
1714.271571300653
 31
0.0
1001
ACAD
1000
DSTYLE
1002
{
1070
     5
1000

1070
    77
1070
     0
1070
   147
1040
1.0
1070
   342
1005
0
1002
}
  0
LINE
  5
1303B
330
1A
100
AcDbEntity
  8
SUNPOU
100
AcDbLine
 10
-1531.061110776075
 20
1704.598057491108
 30
0.0
 11
-1524.732979566555
 21
1714.271571300653
 31
0.0
1001
ACAD
1000
DSTYLE
1002
{
1070
     5
1000

1070
    77
1070
     0
1070
   147
1040
1.0
1070
   342
1005
0
1002
}
  0
SOLID
  5
1303C
330
1A
100
AcDbEntity
  8
SUNPOU
100
AcDbTrace
 10
-1530.642688217185
 20
1704.324337630279
 30
0.0
 11
-1532.703429941049
 21
1702.08752213777
 31
0.0
 12
-1531.479533334964
 22
1704.871777351937
 32
0.0
 13
-1531.479533334964
 23
1704.871777351937
 33
0.0
1001
ACAD
1000
DSTYLE
1002
{
1070
     5
1000

1070
    77
1070
     0
1070
   147
1040
1.0
1070
   342
1005
0
1002
}
  0
LINE
  5
1303D
330
1A
100
AcDbEntity
  8
CL1
100
AcDbLine
 10
-1532.703429941049
 20
1709.28752213777
 30
0.0
 11
-1532.703429941049
 21
1697.88752213777
 31
0.0
  0
CIRCLE
  5
1303E
330
1A
100
AcDbEntity
  8
ZISSEN1
100
AcDbCircle
 10
-1532.703429941049
 20
1702.08752213777
 30
0.0
 40
1.85
  0
LINE
  5
1303F
330
1A
100
AcDbEntity
  8
ZISSEN1
100
AcDbLine
 10
-1528.403429941049
 20
1697.88752213777
 30
0.0
 11
-1528.403429941049
 21
1706.28752213777
 31
0.0
  0
LINE
  5
13040
330
1A
100
AcDbEntity
  8
CL1
100
AcDbLine
 10
-1493.603429941049
 20
1711.28752213777
 30
0.0
 11
-1493.603429941049
 21
1692.88752213777
 31
0.0
  0
LINE
  5
13041
330
1A
100
AcDbEntity
  8
CL1
100
AcDbLine
 10
-1454.503429941049
 20
1709.28752213777
 30
0.0
 11
-1454.503429941049
 21
1697.88752213777
 31
0.0
  0
CIRCLE
  5
13042
330
1A
100
AcDbEntity
  8
ZISSEN1
100
AcDbCircle
 10
-1454.503429941049
 20
1702.08752213777
 30
0.0
 40
1.85
  0
LINE
  5
13043
330
1A
100
AcDbEntity
  8
ZISSEN1
100
AcDbLine
 10
-1458.803429941049
 20
1697.88752213777
 30
0.0
 11
-1458.803429941049
 21
1706.28752213777
 31
0.0
  0
LINE
  5
13044
330
1A
100
AcDbEntity
  8
ZISSEN1
100
AcDbLine
 10
-1430.403429941049
 20
1726.28752213777
 30
0.0
 11
-1430.403429941049
 21
1666.28752213777
 31
0.0
  0
LINE
  5
13045
330
1A
100
AcDbEntity
  8
ZISSEN1
  6
CONTINUOUS
 62
     7
100
AcDbLine
 10
-1550.303448941049
 20
1950.43752213777
 30
0.0
 11
-1552.503429941049
 21
1952.44834213777
 31
0.0
  0
LINE
  5
13046
330
1A
100
AcDbEntity
  8
ZISSEN1
  6
CONTINUOUS
 62
     7
100
AcDbLine
 10
-1542.803442941049
 20
1942.28752213777
 30
0.0
 11
-1544.803446941049
 21
1944.28752213777
 31
0.0
  0
LINE
  5
13047
330
1A
100
AcDbEntity
  8
ZISSEN1
  6
CONTINUOUS
 62
     7
100
AcDbLine
 10
-1536.303446941049
 20
1939.99462213777
 30
0.0
 11
-1534.703444941049
 21
1939.99462213777
 31
0.0
  0
LINE
  5
13048
330
1A
100
AcDbEntity
  8
ZISSEN1
  6
CONTINUOUS
 62
     7
100
AcDbLine
 10
-1542.803442941049
 20
1942.28752213777
 30
0.0
 11
-1536.303446941049
 21
1942.28752213777
 31
0.0
  0
LINE
  5
13049
330
1A
100
AcDbEntity
  8
ZISSEN1
  6
CONTINUOUS
 62
     7
100
AcDbLine
 10
-1550.303448941049
 20
1950.43752213777
 30
0.0
 11
-1536.303446941049
 21
1950.43752213777
 31
0.0
  0
LINE
  5
1304A
330
1A
100
AcDbEntity
  8
ZISSEN1
  6
CONTINUOUS
 62
     7
100
AcDbLine
 10
-1544.803446941049
 20
1944.28752213777
 30
0.0
 11
-1544.803446941049
 21
1950.43752213777
 31
0.0
  0
LINE
  5
1304B
330
1A
100
AcDbEntity
  8
ZISSEN1
  6
CONTINUOUS
 62
     7
100
AcDbLine
 10
-1536.303449941049
 20
1939.28752213777
 30
0.0
 11
-1534.703444941049
 21
1939.28752213777
 31
0.0
  0
LINE
  5
1304E
330
1A
100
AcDbEntity
  8
ZISSEN1
100
AcDbLine
 10
-1663.343329941047
 20
1958.58751213777
 30
0.0
 11
-1682.583359941049
 21
1958.58751213777
 31
0.0
  0
LINE
  5
1304F
330
1A
100
AcDbEntity
  8
ZISSEN1
100
AcDbLine
 10
-1659.833489941051
 20
1971.98752213777
 30
0.0
 11
-1679.07351994105
 21
1971.98752213777
 31
0.0
  0
LINE
  5
13050
330
1A
100
AcDbEntity
  8
ZISSEN1
100
AcDbLine
 10
-1659.833489941051
 20
1980.13752213777
 30
0.0
 11
-1680.83350994105
 21
1980.13752213777
 31
0.0
  0
LINE
  5
13051
330
1A
100
AcDbEntity
  8
ZISSEN1
100
AcDbLine
 10
-1661.593479941051
 20
1988.28751613777
 30
0.0
 11
-1680.83350994105
 21
1988.28751613777
 31
0.0
  0
LINE
  5
13052
330
1A
100
AcDbEntity
  8
ZISSEN1
100
AcDbLine
 10
-1721.996319941049
 20
1991.28751313777
 30
0.0
 11
-1620.410519941051
 21
1991.28751313777
 31
0.0
  0
LINE
  5
13056
330
1A
100
AcDbEntity
  8
ZISSEN1
100
AcDbLine
 10
-1701.823389941049
 20
1958.58751213777
 30
0.0
 11
-1721.063419941048
 21
1958.58751213777
 31
0.0
  0
LINE
  5
13057
330
1A
100
AcDbEntity
  8
ZISSEN1
100
AcDbLine
 10
-1698.313549941051
 20
1971.98752213777
 30
0.0
 11
-1717.55357994105
 21
1971.98752213777
 31
0.0
  0
LINE
  5
13058
330
1A
100
AcDbEntity
  8
ZISSEN1
100
AcDbLine
 10
-1698.313549941051
 20
1980.13752213777
 30
0.0
 11
-1719.31356994105
 21
1980.13752213777
 31
0.0
  0
LINE
  5
13059
330
1A
100
AcDbEntity
  8
ZISSEN1
100
AcDbLine
 10
-1700.07353994105
 20
1988.28751613777
 30
0.0
 11
-1719.31356994105
 21
1988.28751613777
 31
0.0
  0
CIRCLE
  5
1305A
330
1A
100
AcDbEntity
  8
ZISSEN1
100
AcDbCircle
 10
-1719.203429941051
 20
1965.28752213777
 30
0.0
 40
1.649999999999999
  0
LINE
  5
1305B
330
1A
100
AcDbEntity
  8
ZISSEN1
100
AcDbLine
 10
-1719.31356994105
 20
1980.13752213777
 30
0.0
 11
-1719.31356994105
 21
1988.28751613777
 31
0.0
  0
LINE
  5
1305C
330
1A
100
AcDbEntity
  8
ZISSEN1
100
AcDbLine
 10
-1721.996319941049
 20
1991.28751313777
 30
0.0
 11
-1722.703429941049
 21
1990.580404137768
 31
0.0
  0
LINE
  5
1305D
330
1A
100
AcDbEntity
  8
ZISSEN1
100
AcDbLine
 10
-1717.55357994105
 20
1971.98752213777
 30
0.0
 11
-1717.55357994105
 21
1980.13752213777
 31
0.0
  0
LINE
  5
1305E
330
1A
100
AcDbEntity
  8
ZISSEN1
100
AcDbLine
 10
-1682.583359941049
 20
1958.58751213777
 30
0.0
 11
-1701.823389941049
 21
1958.58751213777
 31
0.0
  0
LINE
  5
1305F
330
1A
100
AcDbEntity
  8
ZISSEN1
100
AcDbLine
 10
-1679.07351994105
 20
1971.98752213777
 30
0.0
 11
-1698.313549941051
 21
1971.98752213777
 31
0.0
  0
LINE
  5
13060
330
1A
100
AcDbEntity
  8
ZISSEN1
100
AcDbLine
 10
-1679.07351994105
 20
1980.13752213777
 30
0.0
 11
-1700.07353994105
 21
1980.13752213777
 31
0.0
  0
LINE
  5
13061
330
1A
100
AcDbEntity
  8
ZISSEN1
100
AcDbLine
 10
-1680.83350994105
 20
1988.28751613777
 30
0.0
 11
-1700.07353994105
 21
1988.28751613777
 31
0.0
  0
LINE
  5
13063
330
1A
100
AcDbEntity
  8
ZISSEN1
100
AcDbLine
 10
-1700.07353994105
 20
1980.13752213777
 30
0.0
 11
-1700.07353994105
 21
1988.28751613777
 31
0.0
  0
LINE
  5
13064
330
1A
100
AcDbEntity
  8
ZISSEN1
100
AcDbLine
 10
-1700.07353994105
 20
1980.13752213777
 30
0.0
 11
-1700.07353994105
 21
1988.28751613777
 31
0.0
  0
LINE
  5
13065
330
1A
100
AcDbEntity
  8
ZISSEN1
100
AcDbLine
 10
-1698.313549941051
 20
1971.98752213777
 30
0.0
 11
-1698.313549941051
 21
1980.13752213777
 31
0.0
  0
LINE
  5
13066
330
1A
100
AcDbEntity
  8
ZISSEN1
100
AcDbLine
 10
-1698.313549941051
 20
1971.98752213777
 30
0.0
 11
-1698.313549941051
 21
1980.13752213777
 31
0.0
  0
CIRCLE
  5
13068
330
1A
100
AcDbEntity
  8
ZISSEN1
100
AcDbCircle
 10
-1710.303419941049
 20
1965.28752213777
 30
0.0
 40
1.85
  0
LINE
  5
13069
330
1A
100
AcDbEntity
  8
ZISSEN1
100
AcDbLine
 10
-1680.83350994105
 20
1980.13752213777
 30
0.0
 11
-1680.83350994105
 21
1988.28751613777
 31
0.0
  0
LINE
  5
1306A
330
1A
100
AcDbEntity
  8
ZISSEN1
100
AcDbLine
 10
-1680.83350994105
 20
1980.13752213777
 30
0.0
 11
-1680.83350994105
 21
1988.28751613777
 31
0.0
  0
LINE
  5
1306B
330
1A
100
AcDbEntity
  8
ZISSEN1
100
AcDbLine
 10
-1679.07351994105
 20
1971.98752213777
 30
0.0
 11
-1679.07351994105
 21
1980.13752213777
 31
0.0
  0
LINE
  5
1306C
330
1A
100
AcDbEntity
  8
ZISSEN1
100
AcDbLine
 10
-1679.07351994105
 20
1971.98752213777
 30
0.0
 11
-1679.07351994105
 21
1980.13752213777
 31
0.0
  0
CIRCLE
  5
1306D
330
1A
100
AcDbEntity
  8
ZISSEN1
100
AcDbCircle
 10
-1623.203429941049
 20
1965.28752213777
 30
0.0
 40
1.649999999999999
  0
LINE
  5
1306E
330
1A
100
AcDbEntity
  8
ZISSEN1
100
AcDbLine
 10
-1621.353429941049
 20
1971.98752213777
 30
0.0
 11
-1640.59345994105
 21
1971.98752213777
 31
0.0
  0
LINE
  5
1306F
330
1A
100
AcDbEntity
  8
ZISSEN1
100
AcDbLine
 10
-1621.353429941049
 20
1980.13752213777
 30
0.0
 11
-1642.353449941051
 21
1980.13752213777
 31
0.0
  0
LINE
  5
13070
330
1A
100
AcDbEntity
  8
ZISSEN1
100
AcDbLine
 10
-1644.103299941048
 20
1958.58751213777
 30
0.0
 11
-1663.343329941047
 21
1958.58751213777
 31
0.0
  0
LINE
  5
13071
330
1A
100
AcDbEntity
  8
ZISSEN1
100
AcDbLine
 10
-1640.59345994105
 20
1971.98752213777
 30
0.0
 11
-1659.833489941051
 21
1971.98752213777
 31
0.0
  0
LINE
  5
13072
330
1A
100
AcDbEntity
  8
ZISSEN1
100
AcDbLine
 10
-1640.59345994105
 20
1980.13752213777
 30
0.0
 11
-1661.593479941051
 21
1980.13752213777
 31
0.0
  0
LINE
  5
13073
330
1A
100
AcDbEntity
  8
ZISSEN1
100
AcDbLine
 10
-1642.353449941051
 20
1988.28751613777
 30
0.0
 11
-1661.593479941051
 21
1988.28751613777
 31
0.0
  0
LINE
  5
13074
330
1A
100
AcDbEntity
  8
ZISSEN1
100
AcDbLine
 10
-1661.593479941051
 20
1980.13752213777
 30
0.0
 11
-1661.593479941051
 21
1988.28751613777
 31
0.0
  0
LINE
  5
13075
330
1A
100
AcDbEntity
  8
ZISSEN1
100
AcDbLine
 10
-1661.593479941051
 20
1980.13752213777
 30
0.0
 11
-1661.593479941051
 21
1988.28751613777
 31
0.0
  0
LINE
  5
13076
330
1A
100
AcDbEntity
  8
ZISSEN1
100
AcDbLine
 10
-1659.833489941051
 20
1971.98752213777
 30
0.0
 11
-1659.833489941051
 21
1980.13752213777
 31
0.0
  0
LINE
  5
13077
330
1A
100
AcDbEntity
  8
ZISSEN1
100
AcDbLine
 10
-1659.833489941051
 20
1971.98752213777
 30
0.0
 11
-1659.833489941051
 21
1980.13752213777
 31
0.0
  0
LINE
  5
13078
330
1A
100
AcDbEntity
  8
ZISSEN1
100
AcDbLine
 10
-1624.863269941048
 20
1958.58751213777
 30
0.0
 11
-1644.103299941048
 21
1958.58751213777
 31
0.0
  0
CIRCLE
  5
1307B
330
1A
100
AcDbEntity
  8
ZISSEN1
100
AcDbCircle
 10
-1632.10342994105
 20
1965.28752213777
 30
0.0
 40
1.85
  0
LINE
  5
1307C
330
1A
100
AcDbEntity
  8
ZISSEN1
100
AcDbLine
 10
-1623.113419941051
 20
1980.13752213777
 30
0.0
 11
-1623.113419941051
 21
1988.28751613777
 31
0.0
  0
LINE
  5
1307D
330
1A
100
AcDbEntity
  8
ZISSEN1
100
AcDbLine
 10
-1642.353449941051
 20
1980.13752213777
 30
0.0
 11
-1642.353449941051
 21
1988.28751613777
 31
0.0
  0
LINE
  5
1307E
330
1A
100
AcDbEntity
  8
ZISSEN1
100
AcDbLine
 10
-1642.353449941051
 20
1980.13752213777
 30
0.0
 11
-1642.353449941051
 21
1988.28751613777
 31
0.0
  0
LINE
  5
1307F
330
1A
100
AcDbEntity
  8
ZISSEN1
100
AcDbLine
 10
-1623.113419941051
 20
1988.28751613777
 30
0.0
 11
-1642.353449941051
 21
1988.28751613777
 31
0.0
  0
LINE
  5
13080
330
1A
100
AcDbEntity
  8
ZISSEN1
100
AcDbLine
 10
-1640.59345994105
 20
1971.98752213777
 30
0.0
 11
-1640.59345994105
 21
1980.13752213777
 31
0.0
  0
LINE
  5
13081
330
1A
100
AcDbEntity
  8
ZISSEN1
100
AcDbLine
 10
-1640.59345994105
 20
1971.98752213777
 30
0.0
 11
-1640.59345994105
 21
1980.13752213777
 31
0.0
  0
LINE
  5
13082
330
1A
100
AcDbEntity
  8
ZISSEN1
100
AcDbLine
 10
-1620.410519941051
 20
1991.28751313777
 30
0.0
 11
-1619.703409941051
 21
1990.580404137768
 31
0.0
  0
LINE
  5
13083
330
1A
100
AcDbEntity
  8
ZISSEN1
100
AcDbLine
 10
-1621.353429941049
 20
1971.98752213777
 30
0.0
 11
-1621.353429941049
 21
1980.13752213777
 31
0.0
  0
LINE
  5
13084
330
1A
100
AcDbEntity
  8
SOUZOUSEN
100
AcDbLine
 10
-1465.65742385295
 20
1960.28754213777
 30
0.0
 11
-1485.703430941049
 21
1960.28754213777
 31
0.0
  0
LINE
  5
13085
330
1A
100
AcDbEntity
  8
SOUZOUSEN
100
AcDbLine
 10
-1460.664198059597
 20
1970.28754213777
 30
0.0
 11
-1485.703430941049
 21
1970.28754213777
 31
0.0
  0
LINE
  5
13087
330
1A
100
AcDbEntity
  8
SOUZOUSEN
100
AcDbLine
 10
-1485.703430941049
 20
1959.53751213777
 30
0.0
 11
-1523.703443941049
 21
1959.53751213777
 31
0.0
  0
LINE
  5
13088
330
1A
100
AcDbEntity
  8
SOUZOUSEN
100
AcDbLine
 10
-1485.703430941049
 20
1971.037522137771
 30
0.0
 11
-1523.703443941049
 21
1971.03752213777
 31
0.0
  0
LINE
  5
13089
330
1A
100
AcDbEntity
  8
ZISSEN1
  6
CONTINUOUS
 62
     7
100
AcDbLine
 10
-1536.303446941049
 20
1971.98752213777
 30
0.0
 11
-1552.503429941049
 21
1971.98752213777
 31
0.0
  0
LINE
  5
1308A
330
1A
100
AcDbEntity
  8
ZISSEN1
  6
CONTINUOUS
 62
     7
100
AcDbLine
 10
-1550.303448941049
 20
1980.13752213777
 30
0.0
 11
-1552.503429941049
 21
1978.13752213777
 31
0.0
  0
LINE
  5
1308B
330
1A
100
AcDbEntity
  8
ZISSEN1
  6
CONTINUOUS
 62
     7
100
AcDbLine
 10
-1536.303446941049
 20
1958.58752213777
 30
0.0
 11
-1552.503429941049
 21
1958.58752213777
 31
0.0
  0
LINE
  5
1308C
330
1A
100
AcDbEntity
  8
ZISSEN1
  6
CONTINUOUS
 62
     7
100
AcDbLine
 10
-1552.503429941049
 20
1971.98752213777
 30
0.0
 11
-1552.503429941049
 21
1978.13752213777
 31
0.0
  0
LINE
  5
1308D
330
1A
100
AcDbEntity
  8
ZISSEN1
  6
CONTINUOUS
 62
     7
100
AcDbLine
 10
-1542.803442941049
 20
1988.28752213777
 30
0.0
 11
-1544.803446941049
 21
1986.28752213777
 31
0.0
  0
LINE
  5
1308E
330
1A
100
AcDbEntity
  8
ZISSEN1
  6
CONTINUOUS
 62
     7
100
AcDbLine
 10
-1542.803442941049
 20
1988.28752213777
 30
0.0
 11
-1536.303446941049
 21
1988.28752213777
 31
0.0
  0
LINE
  5
1308F
330
1A
100
AcDbEntity
  8
ZISSEN1
  6
CONTINUOUS
 62
     7
100
AcDbLine
 10
-1536.303446941049
 20
1990.58042213777
 30
0.0
 11
-1534.703444941049
 21
1990.58042213777
 31
0.0
  0
LINE
  5
13090
330
1A
100
AcDbEntity
  8
ZISSEN1
  6
CONTINUOUS
 62
     7
100
AcDbLine
 10
-1536.303446941049
 20
1991.28752213777
 30
0.0
 11
-1534.703438941049
 21
1991.28752213777
 31
0.0
  0
LINE
  5
13091
330
1A
100
AcDbEntity
  8
ZISSEN1
  6
CONTINUOUS
 62
     7
100
AcDbLine
 10
-1550.303448941049
 20
1980.13752213777
 30
0.0
 11
-1536.303446941049
 21
1980.13752213777
 31
0.0
  0
LINE
  5
13092
330
1A
100
AcDbEntity
  8
ZISSEN1
  6
CONTINUOUS
 62
     7
100
AcDbLine
 10
-1526.203443941049
 20
1960.03754213777
 30
0.0
 11
-1534.703429941049
 21
1960.03754213777
 31
0.0
  0
LINE
  5
13093
330
1A
100
AcDbEntity
  8
ZISSEN1
  6
CONTINUOUS
 62
     7
100
AcDbLine
 10
-1536.303446941049
 20
1988.29832213777
 30
0.0
 11
-1536.303446941049
 21
1971.99834213777
 31
0.0
  0
LINE
  5
13094
330
1A
100
AcDbEntity
  8
ZISSEN1
  6
CONTINUOUS
 62
     7
100
AcDbLine
 10
-1544.803446941049
 20
1986.28752213777
 30
0.0
 11
-1544.803446941049
 21
1980.13752213777
 31
0.0
  0
LINE
  5
13095
330
1A
100
AcDbEntity
  8
ZISSEN1
  6
CONTINUOUS
 62
     7
100
AcDbLine
 10
-1526.203443941049
 20
1970.53754213777
 30
0.0
 11
-1534.703444941049
 21
1970.53754213777
 31
0.0
  0
LINE
  5
13096
330
1A
100
AcDbEntity
  8
ZISSEN1
  6
CONTINUOUS
 62
     7
100
AcDbLine
 10
-1534.703429941049
 20
1959.53751213777
 30
0.0
 11
-1534.703429941049
 21
1971.03752213777
 31
0.0
  0
LINE
  5
13097
330
1A
100
AcDbEntity
  8
SOUZOUSEN
100
AcDbLine
 10
-1496.703429941049
 20
1968.28754213777
 30
0.0
 11
-1506.703429941049
 21
1968.28754213777
 31
0.0
  0
LINE
  5
13098
330
1A
100
AcDbEntity
  8
SOUZOUSEN
100
AcDbLine
 10
-1496.703429941049
 20
1962.28751213777
 30
0.0
 11
-1506.703429941049
 21
1962.28751213777
 31
0.0
  0
LINE
  5
13099
330
1A
100
AcDbEntity
  8
ZISSEN1
  6
CONTINUOUS
100
AcDbLine
 10
-1520.703443941049
 20
1965.28754213777
 30
0.0
 11
-1524.603443941049
 21
1965.28754213777
 31
0.0
  0
LINE
  5
1309A
330
1A
100
AcDbEntity
  8
ZISSEN1
100
AcDbLine
 10
-1520.703443941049
 20
1962.03754213777
 30
0.0
 11
-1526.203443941049
 21
1962.03754213777
 31
0.0
  0
LINE
  5
1309B
330
1A
100
AcDbEntity
  8
ZISSEN1
100
AcDbLine
 10
-1520.703443941049
 20
1968.537542137769
 30
0.0
 11
-1520.703443941049
 21
1962.03754213777
 31
0.0
  0
LINE
  5
1309C
330
1A
100
AcDbEntity
  8
ZISSEN1
100
AcDbLine
 10
-1526.203443941049
 20
1968.537542137769
 30
0.0
 11
-1520.703443941049
 21
1968.537542137769
 31
0.0
  0
LINE
  5
1309D
330
1A
100
AcDbEntity
  8
SOUZOUSEN
100
AcDbLine
 10
-1526.203443941049
 20
1965.28754213777
 30
0.0
 11
-1526.203443941049
 21
1968.537542137769
 31
0.0
  0
LINE
  5
1309E
330
1A
100
AcDbEntity
  8
ZISSEN1
100
AcDbLine
 10
-1520.703443941049
 20
1967.52754213777
 30
0.0
 11
-1520.703443941049
 21
1963.027542137769
 31
0.0
  0
LINE
  5
1309F
330
1A
100
AcDbEntity
  8
ZISSEN1
100
AcDbLine
 10
-1525.403443941049
 20
1962.28754213777
 30
0.0
 11
-1525.403443941049
 21
1968.28754213777
 31
0.0
  0
LINE
  5
130A0
330
1A
100
AcDbEntity
  8
ZISSEN1
100
AcDbLine
 10
-1525.403443941049
 20
1968.28754213777
 30
0.0
 11
-1524.603443941049
 21
1968.28754213777
 31
0.0
  0
LINE
  5
130A1
330
1A
100
AcDbEntity
  8
ZISSEN1
100
AcDbLine
 10
-1524.603443941049
 20
1962.28754213777
 30
0.0
 11
-1525.403443941049
 21
1962.28754213777
 31
0.0
  0
LINE
  5
130A2
330
1A
100
AcDbEntity
  8
ZISSEN1
100
AcDbLine
 10
-1525.403443941049
 20
1965.28754213777
 30
0.0
 11
-1525.403443941049
 21
1968.28754213777
 31
0.0
  0
LINE
  5
130A3
330
1A
100
AcDbEntity
  8
ZISSEN1
100
AcDbLine
 10
-1524.603443941049
 20
1965.28754213777
 30
0.0
 11
-1524.603443941049
 21
1967.53754213777
 31
0.0
  0
LINE
  5
130A4
330
1A
100
AcDbEntity
  8
ZISSEN1
100
AcDbLine
 10
-1524.603443941049
 20
1965.28754213777
 30
0.0
 11
-1524.603443941049
 21
1967.53754213777
 31
0.0
  0
LINE
  5
130A5
330
1A
100
AcDbEntity
  8
SOUZOUSEN
100
AcDbLine
 10
-1524.603443941049
 20
1965.28754213777
 30
0.0
 11
-1524.603443941049
 21
1967.53754213777
 31
0.0
  0
LINE
  5
130A6
330
1A
100
AcDbEntity
  8
ZISSEN1
100
AcDbLine
 10
-1520.703443941049
 20
1963.027542137769
 30
0.0
 11
-1524.603443941049
 21
1963.027542137769
 31
0.0
  0
LINE
  5
130A7
330
1A
100
AcDbEntity
  8
ZISSEN1
100
AcDbLine
 10
-1524.603443941049
 20
1967.52754213777
 30
0.0
 11
-1520.703443941049
 21
1967.52754213777
 31
0.0
  0
LINE
  5
130A8
330
1A
100
AcDbEntity
  8
KAKURESEN1
100
AcDbLine
 10
-1524.603443941049
 20
1963.98754213777
 30
0.0
 11
-1520.703443941049
 21
1963.98754213777
 31
0.0
  0
LINE
  5
130A9
330
1A
100
AcDbEntity
  8
KAKURESEN1
100
AcDbLine
 10
-1524.603443941049
 20
1964.18754213777
 30
0.0
 11
-1520.703443941049
 21
1964.18754213777
 31
0.0
  0
LINE
  5
130AA
330
1A
100
AcDbEntity
  8
KAKURESEN1
100
AcDbLine
 10
-1524.603443941049
 20
1966.38754213777
 30
0.0
 11
-1520.703443941049
 21
1966.38754213777
 31
0.0
  0
LINE
  5
130AB
330
1A
100
AcDbEntity
  8
KAKURESEN1
100
AcDbLine
 10
-1524.603443941049
 20
1966.58754213777
 30
0.0
 11
-1520.703443941049
 21
1966.58754213777
 31
0.0
  0
LINE
  5
130AC
330
1A
100
AcDbEntity
  8
SOUZOUSEN
100
AcDbLine
 10
-1520.703443941049
 20
1963.78754213777
 30
0.0
 11
-1506.703443331968
 21
1963.78754213777
 31
0.0
  0
LINE
  5
130AD
330
1A
100
AcDbEntity
  8
SOUZOUSEN
100
AcDbLine
 10
-1520.703443941049
 20
1966.78754213777
 30
0.0
 11
-1506.703443331968
 21
1966.78754213777
 31
0.0
  0
LINE
  5
130AE
330
1A
100
AcDbEntity
  8
ZISSEN1
100
AcDbLine
 10
-1525.403443941049
 20
1965.28754213777
 30
0.0
 11
-1525.403443941049
 21
1967.53754213777
 31
0.0
  0
LINE
  5
130AF
330
1A
100
AcDbEntity
  8
ZISSEN1
100
AcDbLine
 10
-1525.403443941049
 20
1965.28754213777
 30
0.0
 11
-1525.403443941049
 21
1967.53754213777
 31
0.0
  0
LINE
  5
130B0
330
1A
100
AcDbEntity
  8
ZISSEN1
100
AcDbLine
 10
-1525.403443941049
 20
1965.28754213777
 30
0.0
 11
-1525.403443941049
 21
1967.53754213777
 31
0.0
  0
LINE
  5
130B1
330
1A
100
AcDbEntity
  8
ZISSEN1
100
AcDbLine
 10
-1525.403443941049
 20
1962.28754213777
 30
0.0
 11
-1526.203443941049
 21
1962.28754213777
 31
0.0
  0
LINE
  5
130B2
330
1A
100
AcDbEntity
  8
ZISSEN1
100
AcDbLine
 10
-1525.403443941049
 20
1968.28754213777
 30
0.0
 11
-1525.403443941049
 21
1962.28754213777
 31
0.0
  0
LINE
  5
130B3
330
1A
100
AcDbEntity
  8
ZISSEN1
100
AcDbLine
 10
-1526.203443941049
 20
1968.28754213777
 30
0.0
 11
-1525.403443941049
 21
1968.28754213777
 31
0.0
  0
LINE
  5
130B4
330
1A
100
AcDbEntity
  8
ZISSEN1
100
AcDbLine
 10
-1524.603443941049
 20
1968.28754213777
 30
0.0
 11
-1524.603443941049
 21
1962.28754213777
 31
0.0
  0
LINE
  5
130B5
330
1A
100
AcDbEntity
  8
SOUZOUSEN
100
AcDbLine
 10
-1506.703429941049
 20
1971.037522137771
 30
0.0
 11
-1506.703429941049
 21
1959.53751213777
 31
0.0
  0
LINE
  5
130B6
330
1A
100
AcDbEntity
  8
ZISSEN1
  6
CONTINUOUS
 62
     7
100
AcDbLine
 10
-1526.203443941049
 20
1960.03754213777
 30
0.0
 11
-1526.203443941049
 21
1970.53754213777
 31
0.0
  0
LINE
  5
130B7
330
1A
100
AcDbEntity
  8
SOUZOUSEN
100
AcDbLine
 10
-1496.703429941049
 20
1969.28753213777
 30
0.0
 11
-1496.703429941049
 21
1961.28750213777
 31
0.0
  0
LINE
  5
130B8
330
1A
100
AcDbEntity
  8
SOUZOUSEN
100
AcDbLine
 10
-1482.703429941049
 20
1969.28753213777
 30
0.0
 11
-1482.703429941049
 21
1961.28750213777
 31
0.0
  0
LINE
  5
130B9
330
1A
100
AcDbEntity
  8
SOUZOUSEN
100
AcDbLine
 10
-1482.703429941049
 20
1961.28750213777
 30
0.0
 11
-1496.703429941049
 21
1961.28750213777
 31
0.0
  0
LINE
  5
130BA
330
1A
100
AcDbEntity
  8
SOUZOUSEN
100
AcDbLine
 10
-1485.703430941049
 20
1959.53751213777
 30
0.0
 11
-1485.703430941049
 21
1961.28750213777
 31
0.0
  0
LINE
  5
130BB
330
1A
100
AcDbEntity
  8
SOUZOUSEN
100
AcDbLine
 10
-1482.703429941049
 20
1969.28753213777
 30
0.0
 11
-1496.703429941049
 21
1969.28753213777
 31
0.0
  0
LINE
  5
130BC
330
1A
100
AcDbEntity
  8
SOUZOUSEN
100
AcDbLine
 10
-1485.703430941049
 20
1969.28753213777
 30
0.0
 11
-1485.703430941049
 21
1971.03752213777
 31
0.0
  0
ARC
  5
130BD
330
1A
100
AcDbEntity
  8
SOUZOUSEN
100
AcDbCircle
 10
-1466.910810956273
 20
1970.493278180008
 30
0.0
 40
6.25
100
AcDbArc
 50
306.8698976458414
 51
53.13010235415858
  0
LINE
  5
131FF
330
1A
100
AcDbEntity
  8
ZISSEN1
100
AcDbLine
 10
-1712.563429941049
 20
1873.687522746851
 30
0.0
 11
-1708.063429941049
 21
1873.687522746851
 31
0.0
  0
LINE
  5
13200
330
1A
100
AcDbEntity
  8
ZISSEN1
100
AcDbLine
 10
-1634.363429941049
 20
1873.687522746851
 30
0.0
 11
-1629.863429941049
 21
1873.687522746851
 31
0.0
  0
LINE
  5
1320E
330
1A
100
AcDbEntity
  8
SOUZOUSEN
100
AcDbLine
 10
-1713.703429041445
 20
1876.687522746851
 30
0.0
 11
-1628.703429941049
 21
1876.687522746851
 31
0.0
  0
LINE
  5
1320F
330
1A
100
AcDbEntity
  8
ZISSEN1
100
AcDbLine
 10
-1713.303429941049
 20
1887.68752213777
 30
0.0
 11
-1713.303429941049
 21
1879.187522746851
 31
0.0
  0
LINE
  5
13210
330
1A
100
AcDbEntity
  8
ZISSEN1
100
AcDbLine
 10
-1629.103429941049
 20
1887.68752213777
 30
0.0
 11
-1629.103429941049
 21
1879.187522746851
 31
0.0
  0
CIRCLE
  5
13214
330
1A
100
AcDbEntity
  8
SOUZOUSEN
100
AcDbCircle
 10
-1671.203429941049
 20
1775.28752213777
 30
0.0
 40
5.0
  0
LINE
  5
1323C
330
1A
100
AcDbEntity
  8
ZISSEN1
100
AcDbLine
 10
-1689.053443941049
 20
1685.83752213777
 30
0.0
 11
-1689.053443941049
 21
1684.83752213777
 31
0.0
  0
LINE
  5
1323D
330
1A
100
AcDbEntity
  8
ZISSEN1
100
AcDbLine
 10
-1689.053443941049
 20
1679.33752213777
 30
0.0
 11
-1689.053443941049
 21
1680.33752213777
 31
0.0
  0
LINE
  5
13240
330
1A
100
AcDbEntity
  8
SOUZOUSEN
100
AcDbLine
 10
-1692.753261469816
 20
1685.83752213777
 30
0.0
 11
-1694.553443941049
 21
1685.83752213777
 31
0.0
  0
LINE
  5
13241
330
1A
100
AcDbEntity
  8
SOUZOUSEN
100
AcDbLine
 10
-1692.753443941049
 20
1679.33752213777
 30
0.0
 11
-1694.553443941049
 21
1679.33752213777
 31
0.0
  0
LINE
  5
13244
330
1A
100
AcDbEntity
  8
SOUZOUSEN
100
AcDbLine
 10
-1690.253443941049
 20
1688.33752213777
 30
0.0
 11
-1690.253443941049
 21
1676.837512137771
 31
0.0
  0
LINE
  5
13245
330
1A
100
AcDbEntity
  8
SOUZOUSEN
100
AcDbLine
 10
-1523.703443941049
 20
1959.53751213777
 30
0.0
 11
-1523.703443941049
 21
1971.03752213777
 31
0.0
  0
LINE
  5
13246
330
1A
100
AcDbEntity
  8
ZISSEN1
  6
CONTINUOUS
 62
     7
100
AcDbLine
 10
-1528.503443941049
 20
1960.03754213777
 30
0.0
 11
-1528.503443941049
 21
1970.53754213777
 31
0.0
  0
LINE
  5
1324B
330
1A
100
AcDbEntity
  8
ZISSEN1
100
AcDbLine
 10
-1705.203429941049
 20
1879.187522746851
 30
0.0
 11
-1705.203429941049
 21
1873.687522746851
 31
0.0
  0
LINE
  5
1324C
330
1A
100
AcDbEntity
  8
ZISSEN1
100
AcDbLine
 10
-1637.203429941049
 20
1879.187522746851
 30
0.0
 11
-1637.203429941049
 21
1873.687522746851
 31
0.0
  0
LINE
  5
1324E
330
1A
100
AcDbEntity
  8
SOUZOUSEN
100
AcDbLine
 10
-1705.703429941049
 20
1873.687522746851
 30
0.0
 11
-1705.703429941049
 21
1873.687522746851
 31
0.0
  0
LINE
  5
13254
330
1A
100
AcDbEntity
  8
SOUZOUSEN
100
AcDbLine
 10
-1713.703429202845
 20
1873.637522746851
 30
0.0
 11
-1628.703429941049
 21
1873.637522746851
 31
0.0
  0
DIMENSION
  5
13270
330
1A
100
AcDbEntity
  8
SUNPOU
100
AcDbDimension
  2
*D9
 10
-1710.303429941049
 20
1811.660581193797
 30
0.0
 11
-1716.503429941049
 21
1814.410581193797
 31
0.0
 70
    32
  3
標準スタイル
100
AcDbAlignedDimension
 13
-1722.703429941049
 23
1800.580404137767
 33
0.0
 14
-1710.303429941049
 24
1778.03752213777
 34
0.0
100
AcDbRotatedDimension
1001
ACAD
1000
DSTYLE
1002
{
1070
   340
1005
10
1070
    40
1040
1.0
1002
}
  0
DIMENSION
  5
1327D
330
1A
100
AcDbEntity
  8
SUNPOU
100
AcDbDimension
  2
*D10
 10
-1632.103429941049
 20
1811.660581193797
 30
0.0
 11
-1671.203429941049
 21
1814.410581193797
 31
0.0
 70
    32
  3
標準スタイル
100
AcDbAlignedDimension
 13
-1710.303429941049
 23
1778.03752213777
 33
0.0
 14
-1632.103429941049
 24
1778.03752213777
 34
0.0
100
AcDbRotatedDimension
1001
ACAD
1000
DSTYLE
1002
{
1070
   340
1005
10
1070
    40
1040
1.0
1002
}
  0
DIMENSION
  5
13297
330
1A
100
AcDbEntity
  8
SUNPOU
100
AcDbDimension
  2
*D11
 10
-1619.703409941051
 20
2004.352179717625
 30
0.0
 11
-1671.20341994105
 21
2007.102179717625
 31
0.0
 70
    32
  3
標準スタイル
100
AcDbAlignedDimension
 13
-1722.703429941049
 23
1990.580404137768
 33
0.0
 14
-1619.703409941051
 24
1990.580404137768
 34
0.0
100
AcDbRotatedDimension
1001
ACAD
1000
DSTYLE
1002
{
1070
   340
1005
10
1070
    40
1040
1.0
1002
}
  0
LINE
  5
1332C
330
1A
100
AcDbEntity
  8
ZISSEN1
100
AcDbLine
 10
-1671.203429941049
 20
1780.53752213777
 30
0.0
 11
-1629.103429941049
 21
1780.53752213777
 31
0.0
  0
LINE
  5
1332D
330
1A
100
AcDbEntity
  8
ZISSEN1
100
AcDbLine
 10
-1629.103429941049
 20
1780.53752213777
 30
0.0
 11
-1629.103429941049
 21
1770.03752213777
 31
0.0
  0
LINE
  5
1332E
330
1A
100
AcDbEntity
  8
ZISSEN1
100
AcDbLine
 10
-1629.103429941049
 20
1770.03752213777
 30
0.0
 11
-1713.303429941049
 21
1770.03752213777
 31
0.0
  0
LINE
  5
1332F
330
1A
100
AcDbEntity
  8
ZISSEN1
100
AcDbLine
 10
-1713.303429941049
 20
1770.03752213777
 30
0.0
 11
-1713.303429941049
 21
1780.53752213777
 31
0.0
  0
LINE
  5
13330
330
1A
100
AcDbEntity
  8
ZISSEN1
100
AcDbLine
 10
-1713.303429941049
 20
1780.53752213777
 30
0.0
 11
-1671.203429941049
 21
1780.53752213777
 31
0.0
  0
LINE
  5
1333A
102
{ACAD_REACTORS
330
1335B
102
}
330
1A
100
AcDbEntity
  8
CL1
100
AcDbLine
 10
-1710.303429941049
 20
1775.28752213777
 30
0.0
 11
-1713.303429941049
 21
1775.28752213777
 31
0.0
  0
LINE
  5
1333B
330
1A
100
AcDbEntity
  8
CL1
100
AcDbLine
 10
-1713.303429941049
 20
1775.28752213777
 30
0.0
 11
-1710.303429941049
 21
1775.28752213777
 31
0.0
  0
LINE
  5
1333C
102
{ACAD_REACTORS
330
1335B
102
}
330
1A
100
AcDbEntity
  8
CL1
100
AcDbLine
 10
-1710.303429941049
 20
1775.28752213777
 30
0.0
 11
-1707.40147267625
 21
1775.28752213777
 31
0.0
  0
LINE
  5
1333D
330
1A
100
AcDbEntity
  8
CL1
100
AcDbLine
 10
-1710.303429941049
 20
1775.28752213777
 30
0.0
 11
-1710.303429941049
 21
1772.324364612
 31
0.0
  0
LINE
  5
1333E
102
{ACAD_REACTORS
330
1335B
102
}
330
1A
100
AcDbEntity
  8
CL1
100
AcDbLine
 10
-1710.303429941049
 20
1772.324364612
 30
0.0
 11
-1710.303429941049
 21
1775.28752213777
 31
0.0
  0
LINE
  5
1333F
102
{ACAD_REACTORS
330
1335B
102
}
330
1A
100
AcDbEntity
  8
CL1
100
AcDbLine
 10
-1710.303429941049
 20
1775.28752213777
 30
0.0
 11
-1710.303429941049
 21
1778.03752213777
 31
0.0
  0
LINE
  5
1335C
102
{ACAD_REACTORS
330
13360
102
}
330
1A
100
AcDbEntity
  8
CL1
100
AcDbLine
 10
-1632.103429941049
 20
1775.28752213777
 30
0.0
 11
-1632.103429941049
 21
1778.03752213777
 31
0.0
  0
LINE
  5
1335D
102
{ACAD_REACTORS
330
13360
102
}
330
1A
100
AcDbEntity
  8
CL1
100
AcDbLine
 10
-1632.103429941049
 20
1775.28752213777
 30
0.0
 11
-1629.20147267625
 21
1775.28752213777
 31
0.0
  0
LINE
  5
1335E
102
{ACAD_REACTORS
330
13360
102
}
330
1A
100
AcDbEntity
  8
CL1
100
AcDbLine
 10
-1632.103429941049
 20
1775.28752213777
 30
0.0
 11
-1635.103429941049
 21
1775.28752213777
 31
0.0
  0
LINE
  5
1335F
102
{ACAD_REACTORS
330
13360
102
}
330
1A
100
AcDbEntity
  8
CL1
100
AcDbLine
 10
-1632.103429941049
 20
1772.324364612
 30
0.0
 11
-1632.103429941049
 21
1775.28752213777
 31
0.0
  0
LINE
  5
13370
102
{ACAD_REACTORS
330
13379
102
}
330
1A
100
AcDbEntity
  8
ZISSEN1
100
AcDbLine
 10
-1536.303446941049
 20
1967.13752213777
 30
0.0
 11
-1538.303446941049
 21
1967.13752213777
 31
0.0
  0
LINE
  5
13371
102
{ACAD_REACTORS
330
13379
102
}
330
1A
100
AcDbEntity
  8
ZISSEN1
100
AcDbLine
 10
-1539.303446941049
 20
1966.13752213777
 30
0.0
 11
-1539.303446941049
 21
1964.437522137769
 31
0.0
  0
LINE
  5
13372
102
{ACAD_REACTORS
330
13379
102
}
330
1A
100
AcDbEntity
  8
ZISSEN1
100
AcDbLine
 10
-1538.303446941049
 20
1963.43752213777
 30
0.0
 11
-1536.303446941049
 21
1963.43752213777
 31
0.0
  0
LINE
  5
13374
102
{ACAD_REACTORS
330
13379
102
}
330
1A
100
AcDbEntity
  8
ZISSEN1
100
AcDbLine
 10
-1537.103446941049
 20
1967.13752213777
 30
0.0
 11
-1537.103446941049
 21
1963.43752213777
 31
0.0
  0
ARC
  5
13377
102
{ACAD_REACTORS
330
13379
102
}
330
1A
100
AcDbEntity
  8
ZISSEN1
100
AcDbCircle
 10
-1538.303446941049
 20
1966.13752213777
 30
0.0
 40
1.0
100
AcDbArc
 50
90.0
 51
180.0000000000035
  0
ARC
  5
13378
102
{ACAD_REACTORS
330
13379
102
}
330
1A
100
AcDbEntity
  8
ZISSEN1
100
AcDbCircle
 10
-1538.303446941049
 20
1964.437522137769
 30
0.0
 40
1.0
100
AcDbArc
 50
180.0
 51
270.0000000000043
  0
ARC
  5
1337A
102
{ACAD_REACTORS
330
13380
330
13383
102
}
330
1A
100
AcDbEntity
  8
ZISSEN1
100
AcDbCircle
 10
-1706.653446941049
 20
1681.737522137769
 30
0.0
 40
1.0
100
AcDbArc
 50
180.0
 51
270.0000000000043
  0
LINE
  5
1337B
102
{ACAD_REACTORS
330
13380
330
13383
102
}
330
1A
100
AcDbEntity
  8
ZISSEN1
100
AcDbLine
 10
-1706.653446941049
 20
1680.737522137769
 30
0.0
 11
-1704.653446941049
 21
1680.73752213777
 31
0.0
  0
LINE
  5
1337C
102
{ACAD_REACTORS
330
13380
330
13383
102
}
330
1A
100
AcDbEntity
  8
ZISSEN1
100
AcDbLine
 10
-1707.653446941049
 20
1683.43752213777
 30
0.0
 11
-1707.653446941049
 21
1681.737522137769
 31
0.0
  0
LINE
  5
1337D
102
{ACAD_REACTORS
330
13380
330
13383
102
}
330
1A
100
AcDbEntity
  8
ZISSEN1
100
AcDbLine
 10
-1704.653446941049
 20
1684.43752213777
 30
0.0
 11
-1706.653446941049
 21
1684.43752213777
 31
0.0
  0
ARC
  5
1337E
102
{ACAD_REACTORS
330
13380
330
13383
102
}
330
1A
100
AcDbEntity
  8
ZISSEN1
100
AcDbCircle
 10
-1706.653446941049
 20
1683.43752213777
 30
0.0
 40
1.0
100
AcDbArc
 50
90.0
 51
180.0000000000035
  0
LINE
  5
1337F
102
{ACAD_REACTORS
330
13380
330
13383
102
}
330
1A
100
AcDbEntity
  8
ZISSEN1
100
AcDbLine
 10
-1705.453446941049
 20
1684.43752213777
 30
0.0
 11
-1705.453446941049
 21
1680.73752213777
 31
0.0
  0
LINE
  5
13382
102
{ACAD_REACTORS
330
13383
102
}
330
1A
100
AcDbEntity
  8
ZISSEN1
100
AcDbLine
 10
-1704.653446941049
 20
1684.43752213777
 30
0.0
 11
-1704.653446941049
 21
1680.73752213777
 31
0.0
  0
LEADER
  5
133A9
330
1A
100
AcDbEntity
  8
ZISSEN1
100
AcDbLeader
  3
標準スタイル
 76
     3
 10
-1687.953443941049
 20
1684.83752213777
 30
0.0
 10
-1680.753696620464
 20
1695.949837713311
 30
0.0
 10
-1673.178966868561
 20
1696.008652761918
 30
0.0
1001
ACAD
1000
DSTYLE
1002
{
1070
     5
1000

1070
    77
1070
     0
1070
   147
1040
1.0
1002
}
  0
MTEXT
  5
133AB
330
1A
100
AcDbEntity
  8
ZISSEN1
100
AcDbMText
 10
-1668.776187796978
 20
1698.260155164602
 30
0.0
 40
3.5
 41
52.1422
 71
     1
 72
     5
  1
{\C1;コネクタ付属ビス}
1001
ACAD
1000
MTEXTBEGIN
1070
    73
1070
     1
1070
    44
1040
1.0
1070
    74
1070
     0
1000
MTEXTEND
  0
MTEXT
  5
133AD
330
1A
100
AcDbEntity
  8
ZISSEN1
100
AcDbMText
 10
-1662.773380884439
 20
1711.664013978914
 30
0.0
 40
3.5
 41
30.0
 71
     1
 72
     5
  1
{\C1; 1.0mm以下}
1001
ACAD
1000
MTEXTBEGIN
1070
    73
1070
     1
1070
    44
1040
1.0
1070
    74
1070
     0
1000
MTEXTEND
  0
MTEXT
  5
133AF
330
1A
100
AcDbEntity
  8
ZISSEN1
100
AcDbMText
 10
-1660.761828329569
 20
1723.154159885601
 30
0.0
 40
3.5
 41
65.3978
 71
     1
 72
     5
  1
{\C1;パネル厚とワッシャー数}
1001
ACAD
1000
MTEXTBEGIN
1070
    73
1070
     1
1070
    44
1040
1.0
1070
    74
1070
     0
1000
MTEXTEND
  0
MTEXT
  5
133FD
330
1A
100
AcDbEntity
  8
ZISSEN1
100
AcDbMText
 10
-1662.657112841456
 20
1716.771193362336
 30
0.0
 40
3.5
 41
30.0
 71
     1
 72
     5
  1
{\C1; パネル厚}
1001
ACAD
1000
MTEXTBEGIN
1070
    73
1070
     1
1070
    44
1040
1.0
1070
    74
1070
     0
1000
MTEXTEND
  0
MTEXT
  5
133FF
330
1A
100
AcDbEntity
  8
ZISSEN1
100
AcDbMText
 10
-1632.288943467186
 20
1716.887365853702
 30
0.0
 40
3.5
 41
71.3609
 71
     1
 72
     5
  1
{\C1; コネクタ付属ワッシャーの使用数}
1001
ACAD
1000
MTEXTBEGIN
1070
    73
1070
     1
1070
    44
1040
1.0
1070
    74
1070
     0
1000
MTEXTEND
  0
MTEXT
  5
13402
330
1A
100
AcDbEntity
  8
ZISSEN1
100
AcDbMText
 10
-1632.297236832252
 20
1711.880136461222
 30
0.0
 40
3.5
 41
28.8424
 71
     1
 72
     5
  1
{\C1; 各2枚}
1001
ACAD
1000
MTEXTBEGIN
1070
    73
1070
     1
1070
    44
1040
1.0
1070
    74
1070
     0
1000
MTEXTEND
  0
MTEXT
  5
13416
330
1A
100
AcDbEntity
  8
ZISSEN1
100
AcDbMText
 10
-1662.773380884439
 20
1706.575169971735
 30
0.0
 40
3.5
 41
30.0
 71
     1
 72
     5
  1
{\C1; 1.0～1.8mm}
1001
ACAD
1000
MTEXTBEGIN
1070
    73
1070
     1
1070
    44
1040
1.0
1070
    74
1070
     0
1000
MTEXTEND
  0
MTEXT
  5
13418
330
1A
100
AcDbEntity
  8
ZISSEN1
100
AcDbMText
 10
-1632.297236832252
 20
1706.939910816468
 30
0.0
 40
3.5
 41
34.50039999999999
 71
     1
 72
     5
  1
{\C1; 各1枚　}
1001
ACAD
1000
MTEXTBEGIN
1070
    73
1070
     1
1070
    44
1040
1.0
1070
    74
1070
     0
1000
MTEXTEND
  0
LWPOLYLINE
  5
1341F
330
1A
100
AcDbEntity
  8
ZISSEN1
100
AcDbPolyline
 90
        4
 70
     1
 43
0.0
 10
-1662.773380884439
 20
1717.36523344624
 10
-1557.773380884439
 20
1717.36523344624
 10
-1557.773380884439
 20
1712.36523344624
 10
-1662.773380884439
 20
1712.36523344624
  0
LWPOLYLINE
  5
13420
330
1A
100
AcDbEntity
  8
ZISSEN1
100
AcDbPolyline
 90
        4
 70
     1
 43
0.0
 10
-1662.773380884439
 20
1712.36523344624
 10
-1557.773380884439
 20
1712.36523344624
 10
-1557.773380884439
 20
1707.365233446239
 10
-1662.773380884439
 20
1707.365233446239
  0
LWPOLYLINE
  5
13421
330
1A
100
AcDbEntity
  8
ZISSEN1
100
AcDbPolyline
 90
        4
 70
     1
 43
0.0
 10
-1662.773380884439
 20
1707.365233446239
 10
-1557.773380884439
 20
1707.365233446239
 10
-1557.773380884439
 20
1702.36523344624
 10
-1662.773380884439
 20
1702.36523344624
  0
LINE
  5
13422
330
1A
100
AcDbEntity
  8
ZISSEN1
100
AcDbLine
 10
-1632.773380884439
 20
1717.36523344624
 30
0.0
 11
-1632.773380884439
 21
1702.36523344624
 31
0.0
  0
LEADER
  5
13426
330
1A
100
AcDbEntity
  8
ZISSEN1
100
AcDbLeader
  3
標準スタイル
 76
     3
 10
-1691.953443941049
 20
1685.430255463963
 30
0.0
 10
-1668.556250104318
 20
1721.196435113293
 30
0.0
 10
-1660.761828329569
 20
1721.196435113293
 30
0.0
1001
ACAD
1000
DSTYLE
1002
{
1070
     5
1000

1070
    77
1070
     0
1070
   147
1040
1.0
1002
}
  0
VIEWPORT
  5
5D8F
330
5D8E
100
AcDbEntity
 67
     1
  8
0
100
AcDbViewport
 10
267.3401264428921
 20
157.7019814109404
 30
0.0
 40
641.2744254752041
 41
314.237268371582
 68
     1
 69
     1
1001
ACAD
1000
MVIEW
1002
{
1070
    16
1010
0.0
1020
0.0
1030
0.0
1010
0.0
1020
0.0
1030
1.0
1040
0.0
1040
314.237268371582
1040
267.3401264428921
1040
157.7019814109404
1040
50.0
1040
0.0
1040
0.0
1070
     0
1070
   100
1070
     1
1070
     0
1070
     0
1070
     0
1070
     0
1070
     0
1040
0.0
1040
0.0
1040
0.0
1040
1.0
1040
1.0
1040
10.0
1040
10.0
1070
     0
1002
{
1002
}
1002
}
  0
VIEWPORT
  5
6001
330
5D8E
100
AcDbEntity
 67
     1
  8
ZISSEN1
100
AcDbViewport
 10
221.7861955525412
 20
157.6960273330388
 30
0.0
 40
385.4999999999997
 41
259.9999999999999
 68
     2
 69
     2
1001
ACAD
1000
MVIEW
1002
{
1070
    16
1010
0.0
1020
0.0
1030
0.0
1010
0.0
1020
0.0
1030
1.0
1040
0.0
1040
519.9999995027595
1040
-1593.621865737575
1040
1823.375035433383
1040
50.0
1040
0.0
1040
0.0
1070
     0
1070
   100
1070
     1
1070
     0
1070
     0
1070
     0
1070
     0
1070
     0
1040
0.0
1040
0.0
1040
0.0
1040
1.0
1040
1.0
1040
10.0
1040
10.0
1070
     0
1002
{
1002
}
1002
}
  0
TEXT
  5
12C0E
330
5D8E
100
AcDbEntity
 67
     1
  8
SUNPOU
 62
     0
100
AcDbText
 10
369.7804635405202
 20
44.45106598157519
 30
0.0
 40
3.5
  1
縮尺 1/2
  7
ゴシック体
100
AcDbText
  0
ENDSEC
  0
SECTION
  2
OBJECTS
  0
DICTIONARY
  5
C
330
0
100
AcDbDictionary
  3
ACAD_GROUP
350
D
  3
ACAD_LAYOUT
350
5C7D
  3
ACAD_MLINESTYLE
350
E
  3
ACAD_PLOTSETTINGS
350
5C7E
  3
ACAD_PLOTSTYLENAME
350
5C7B
  3
ACADDIM
350
13424
  3
DWGPROPS
350
134AD
  3
ACDBHEADERROUNDTRIPXREC
350
134AE
  0
DICTIONARY
  5
134CE
330
1A
100
AcDbDictionary
280
     1
  3
ACAD_LAYOUTSELFREF
360
134CF
  0
DICTIONARY
  5
134D0
330
5D8E
100
AcDbDictionary
280
     1
  3
ACAD_LAYOUTSELFREF
360
134D1
  0
DICTIONARY
  5
D
102
{ACAD_REACTORS
330
C
102
}
330
C
100
AcDbDictionary
  3
*A1
350
477D
  3
*A2
350
4C15
  3
*A3
350
4C16
  3
*A4
350
477E
  3
*A5
350
4C17
  3
*A6
350
477F
  3
*A7
350
4780
  3
*A8
350
4781
  3
*A9
350
4C0E
  3
*A10
350
4C0F
  3
*A11
350
1335B
  3
*A12
350
13379
  3
*A13
350
13360
  3
*A14
350
13380
  3
*A15
350
4C10
  3
*A16
350
13383
  3
*A17
350
4C11
  3
*A18
350
4C12
  3
*A19
350
4C13
  3
*A20
350
4C14
  0
DICTIONARY
  5
5C7D
102
{ACAD_REACTORS
330
C
102
}
330
C
100
AcDbDictionary
  0
DICTIONARY
  5
E
102
{ACAD_REACTORS
330
C
102
}
330
C
100
AcDbDictionary
  3
STANDARD
350
13
  0
DICTIONARY
  5
5C7E
102
{ACAD_REACTORS
330
C
102
}
330
C
100
AcDbDictionary
  0
ACDBDICTIONARYWDFLT
  5
5C7B
102
{ACAD_REACTORS
330
C
102
}
330
C
100
AcDbDictionary
281
     1
  3
Normal
350
5C7C
100
AcDbDictionaryWithDefault
340
5C7C
  0
XRECORD
  5
13424
102
{ACAD_REACTORS
330
C
102
}
330
C
100
AcDbXrecord
 90
   990106
  3

 60
     0
 61
     0
 62
     1
 63
     3
 64
     0
 65
     0
 66
     0
 67
     3
 68
     1
 69
     0
 70
     0
 71
     0
 72
     0
 40
0.0
170
     0
  0
XRECORD
  5
134AD
102
{ACAD_REACTORS
330
C
102
}
330
C
100
AcDbXrecord
  1
DWGPROPS COOKIE
  2

  3

  4

  6

  7

  8

  9

300
=
301
=
302
=
303
=
304
=
305
=
306
=
307
=
308
=
309
=
 40
1.589787511574074
 41
2450495.493631365
 42
2454488.6366239
  1

 90
        0
  0
DICTIONARY
  5
134AE
102
{ACAD_REACTORS
330
C
102
}
330
C
100
AcDbDictionary
  3
TSTACKALIGN
350
134AF
  3
TSTACKSIZE
350
134B0
  3
HYPERLINKBASE
350
134B1
  3
STYLESHEET
350
134B2
  3
LAYOUTDICT
350
134B3
  3
PLOTSETDICT
350
134B4
  3
PLOTSTYLNAMDICT
350
134B5
  3
LWETCUNION
350
134B6
  3
INSUNITS
350
134B7
  3
CEPSNTYPE
350
134B8
  3
FINGERPRINTGUID
350
134B9
  3
VERSIONGUID
350
134BA
  3
PSVPSCALE
350
134BB
  3
PUCSORTHOREF
350
134BC
  3
PUCSORTHOVIEW
350
134BD
  3
PUCSBASE
350
134BE
  3
PUCSORGTOP
350
134BF
  3
PUCSORGBOTTOM
350
134C0
  3
PUCSORGLEFT
350
134C1
  3
PUCSORGRIGHT
350
134C2
  3
PUCSORGFRONT
350
134C3
  3
PUCSORGBACK
350
134C4
  3
UCSORTHOREF
350
134C5
  3
UCSORTHOVIEW
350
134C6
  3
UCSBASE
350
134C7
  3
UCSORGTOP
350
134C8
  3
UCSORGBOTTOM
350
134C9
  3
UCSORGLEFT
350
134CA
  3
UCSORGRIGHT
350
134CB
  3
UCSORGFRONT
350
134CC
  3
UCSORGBACK
350
134CD
  0
XRECORD
  5
134CF
102
{ACAD_REACTORS
330
134CE
102
}
330
134CE
100
AcDbXrecord
340
1A
  0
XRECORD
  5
134D1
102
{ACAD_REACTORS
330
134D0
102
}
330
134D0
100
AcDbXrecord
340
5D8E
  0
GROUP
  5
477D
102
{ACAD_REACTORS
330
D
102
}
330
D
100
AcDbGroup
300

 70
     1
 71
     1
  0
GROUP
  5
4C15
102
{ACAD_REACTORS
330
D
102
}
330
D
100
AcDbGroup
300

 70
     1
 71
     1
  0
GROUP
  5
4C16
102
{ACAD_REACTORS
330
D
102
}
330
D
100
AcDbGroup
300

 70
     1
 71
     1
  0
GROUP
  5
477E
102
{ACAD_REACTORS
330
D
102
}
330
D
100
AcDbGroup
300

 70
     1
 71
     1
  0
GROUP
  5
4C17
102
{ACAD_REACTORS
330
D
102
}
330
D
100
AcDbGroup
300

 70
     1
 71
     1
  0
GROUP
  5
477F
102
{ACAD_REACTORS
330
D
102
}
330
D
100
AcDbGroup
300

 70
     1
 71
     1
  0
GROUP
  5
4780
102
{ACAD_REACTORS
330
D
102
}
330
D
100
AcDbGroup
300

 70
     1
 71
     1
  0
GROUP
  5
4781
102
{ACAD_REACTORS
330
D
102
}
330
D
100
AcDbGroup
300

 70
     1
 71
     1
  0
GROUP
  5
4C0E
102
{ACAD_REACTORS
330
D
102
}
330
D
100
AcDbGroup
300

 70
     1
 71
     1
  0
GROUP
  5
4C0F
102
{ACAD_REACTORS
330
D
102
}
330
D
100
AcDbGroup
300

 70
     1
 71
     1
  0
GROUP
  5
1335B
102
{ACAD_REACTORS
330
D
102
}
330
D
100
AcDbGroup
300

 70
     1
 71
     1
340
1333C
340
1333A
340
1333F
340
1333E
  0
GROUP
  5
13379
102
{ACAD_REACTORS
330
D
102
}
330
D
100
AcDbGroup
300

 70
     1
 71
     1
340
13372
340
13371
340
13378
340
13370
340
13377
340
13374
  0
GROUP
  5
13360
102
{ACAD_REACTORS
330
D
102
}
330
D
100
AcDbGroup
300

 70
     1
 71
     1
340
1335D
340
1335E
340
1335C
340
1335F
  0
GROUP
  5
13380
102
{ACAD_REACTORS
330
D
102
}
330
D
100
AcDbGroup
300

 70
     1
 71
     1
340
1337B
340
1337C
340
1337A
340
1337D
340
1337E
340
1337F
  0
GROUP
  5
4C10
102
{ACAD_REACTORS
330
D
102
}
330
D
100
AcDbGroup
300

 70
     1
 71
     1
  0
GROUP
  5
13383
102
{ACAD_REACTORS
330
D
102
}
330
D
100
AcDbGroup
300

 70
     1
 71
     1
340
13382
340
1337F
340
1337E
340
1337D
340
1337C
340
1337B
340
1337A
  0
GROUP
  5
4C11
102
{ACAD_REACTORS
330
D
102
}
330
D
100
AcDbGroup
300

 70
     1
 71
     1
  0
GROUP
  5
4C12
102
{ACAD_REACTORS
330
D
102
}
330
D
100
AcDbGroup
300

 70
     1
 71
     1
  0
GROUP
  5
4C13
102
{ACAD_REACTORS
330
D
102
}
330
D
100
AcDbGroup
300

 70
     1
 71
     1
  0
GROUP
  5
4C14
102
{ACAD_REACTORS
330
D
102
}
330
D
100
AcDbGroup
300

 70
     1
 71
     1
  0
MLINESTYLE
  5
13
102
{ACAD_REACTORS
330
E
102
}
330
E
100
AcDbMlineStyle
  2
STANDARD
 70
     0
  3

 62
     0
 51
90.0
 52
90.0
 71
     2
 49
0.5
 62
   256
  6
BYLAYER
 49
-0.5
 62
   256
  6
BYLAYER
  0
ACDBPLACEHOLDER
  5
5C7C
102
{ACAD_REACTORS
330
5C7B
102
}
330
5C7B
100
AcDbPlaceHolder
280
     0
  0
XRECORD
  5
134AF
102
{ACAD_REACTORS
330
134AE
102
}
330
134AE
100
AcDbXrecord
 90
        1
  0
XRECORD
  5
134B0
102
{ACAD_REACTORS
330
134AE
102
}
330
134AE
100
AcDbXrecord
 90
       70
  0
XRECORD
  5
134B1
102
{ACAD_REACTORS
330
134AE
102
}
330
134AE
100
AcDbXrecord
  1

  0
XRECORD
  5
134B2
102
{ACAD_REACTORS
330
134AE
102
}
330
134AE
100
AcDbXrecord
  1

  0
XRECORD
  5
134B3
102
{ACAD_REACTORS
330
134AE
102
}
330
134AE
100
AcDbXrecord
340
5C7D
  0
XRECORD
  5
134B4
102
{ACAD_REACTORS
330
134AE
102
}
330
134AE
100
AcDbXrecord
340
5C7E
  0
XRECORD
  5
134B5
102
{ACAD_REACTORS
330
134AE
102
}
330
134AE
100
AcDbXrecord
340
5C7B
  0
XRECORD
  5
134B6
102
{ACAD_REACTORS
330
134AE
102
}
330
134AE
100
AcDbXrecord
 90
    10781
  0
XRECORD
  5
134B7
102
{ACAD_REACTORS
330
134AE
102
}
330
134AE
100
AcDbXrecord
 90
        0
  0
XRECORD
  5
134B8
102
{ACAD_REACTORS
330
134AE
102
}
330
134AE
100
AcDbXrecord
 90
        0
  0
XRECORD
  5
134B9
102
{ACAD_REACTORS
330
134AE
102
}
330
134AE
100
AcDbXrecord
  1
{225A7F0D-DA29-11D8-946A-0000E2416295}
  0
XRECORD
  5
134BA
102
{ACAD_REACTORS
330
134AE
102
}
330
134AE
100
AcDbXrecord
  1
{3B98AD9A-30DB-4F0F-8EBF-985F936BCD83}
  0
XRECORD
  5
134BB
102
{ACAD_REACTORS
330
134AE
102
}
330
134AE
100
AcDbXrecord
 40
0.0
  0
XRECORD
  5
134BC
102
{ACAD_REACTORS
330
134AE
102
}
330
134AE
100
AcDbXrecord
340
0
  0
XRECORD
  5
134BD
102
{ACAD_REACTORS
330
134AE
102
}
330
134AE
100
AcDbXrecord
 70
     0
  0
XRECORD
  5
134BE
102
{ACAD_REACTORS
330
134AE
102
}
330
134AE
100
AcDbXrecord
340
0
  0
XRECORD
  5
134BF
102
{ACAD_REACTORS
330
134AE
102
}
330
134AE
100
AcDbXrecord
 10
0.0
 20
0.0
 30
0.0
  0
XRECORD
  5
134C0
102
{ACAD_REACTORS
330
134AE
102
}
330
134AE
100
AcDbXrecord
 10
0.0
 20
0.0
 30
0.0
  0
XRECORD
  5
134C1
102
{ACAD_REACTORS
330
134AE
102
}
330
134AE
100
AcDbXrecord
 10
0.0
 20
0.0
 30
0.0
  0
XRECORD
  5
134C2
102
{ACAD_REACTORS
330
134AE
102
}
330
134AE
100
AcDbXrecord
 10
0.0
 20
0.0
 30
0.0
  0
XRECORD
  5
134C3
102
{ACAD_REACTORS
330
134AE
102
}
330
134AE
100
AcDbXrecord
 10
0.0
 20
0.0
 30
0.0
  0
XRECORD
  5
134C4
102
{ACAD_REACTORS
330
134AE
102
}
330
134AE
100
AcDbXrecord
 10
0.0
 20
0.0
 30
0.0
  0
XRECORD
  5
134C5
102
{ACAD_REACTORS
330
134AE
102
}
330
134AE
100
AcDbXrecord
340
0
  0
XRECORD
  5
134C6
102
{ACAD_REACTORS
330
134AE
102
}
330
134AE
100
AcDbXrecord
 70
     0
  0
XRECORD
  5
134C7
102
{ACAD_REACTORS
330
134AE
102
}
330
134AE
100
AcDbXrecord
340
0
  0
XRECORD
  5
134C8
102
{ACAD_REACTORS
330
134AE
102
}
330
134AE
100
AcDbXrecord
 10
0.0
 20
0.0
 30
0.0
  0
XRECORD
  5
134C9
102
{ACAD_REACTORS
330
134AE
102
}
330
134AE
100
AcDbXrecord
 10
0.0
 20
0.0
 30
0.0
  0
XRECORD
  5
134CA
102
{ACAD_REACTORS
330
134AE
102
}
330
134AE
100
AcDbXrecord
 10
0.0
 20
0.0
 30
0.0
  0
XRECORD
  5
134CB
102
{ACAD_REACTORS
330
134AE
102
}
330
134AE
100
AcDbXrecord
 10
0.0
 20
0.0
 30
0.0
  0
XRECORD
  5
134CC
102
{ACAD_REACTORS
330
134AE
102
}
330
134AE
100
AcDbXrecord
 10
0.0
 20
0.0
 30
0.0
  0
XRECORD
  5
134CD
102
{ACAD_REACTORS
330
134AE
102
}
330
134AE
100
AcDbXrecord
 10
0.0
 20
0.0
 30
0.0
  0
ENDSEC
  0
EOF
