  0
SECTION
  2
HEADER
  9
$ACADVER
  1
AC1014
  9
$ACADMAINTVER
 70
     9
  9
$DWGCODEPAGE
  3
ANSI_932
  9
$INSBASE
 10
0.0
 20
0.0
 30
0.0
  9
$EXTMIN
 10
-1517.724057575766
 20
1280.0
 30
0.0
  9
$EXTMAX
 10
-1158.688050615595
 20
1667.406361436091
 30
0.0
  9
$LIMMIN
 10
0.0
 20
0.0
  9
$LIMMAX
 10
420.0
 20
297.0
  9
$ORTHOMODE
 70
     1
  9
$REGENMODE
 70
     1
  9
$FILLMODE
 70
     1
  9
$QTEXTMODE
 70
     0
  9
$MIRRTEXT
 70
     1
  9
$DRAGMODE
 70
     2
  9
$LTSCALE
 40
1.0
  9
$OSMODE
 70
    37
  9
$ATTMODE
 70
     1
  9
$TEXTSIZE
 40
2.5
  9
$TRACEWID
 40
1.0
  9
$TEXTSTYLE
  7
ゴシック体
  9
$CLAYER
  8
ZISSEN1
  9
$CELTYPE
  6
BYLAYER
  9
$CECOLOR
 62
   256
  9
$CELTSCALE
 40
1.0
  9
$DELOBJ
 70
     1
  9
$DISPSILH
 70
     0
  9
$DIMSCALE
 40
0.0
  9
$DIMASZ
 40
3.0
  9
$DIMEXO
 40
0.5
  9
$DIMDLI
 40
0.5
  9
$DIMRND
 40
0.0
  9
$DIMDLE
 40
0.0
  9
$DIMEXE
 40
0.5
  9
$DIMTP
 40
0.0
  9
$DIMTM
 40
0.0
  9
$DIMTXT
 40
3.5
  9
$DIMCEN
 40
0.0
  9
$DIMTSZ
 40
0.0
  9
$DIMTOL
 70
     0
  9
$DIMLIM
 70
     0
  9
$DIMTIH
 70
     0
  9
$DIMTOH
 70
     0
  9
$DIMSE1
 70
     0
  9
$DIMSE2
 70
     0
  9
$DIMTAD
 70
     1
  9
$DIMZIN
 70
     8
  9
$DIMBLK
  1

  9
$DIMASO
 70
     1
  9
$DIMSHO
 70
     1
  9
$DIMPOST
  1

  9
$DIMAPOST
  1

  9
$DIMALT
 70
     0
  9
$DIMALTD
 70
     2
  9
$DIMALTF
 40
25.4
  9
$DIMLFAC
 40
1.0
  9
$DIMTOFL
 70
     1
  9
$DIMTVP
 40
0.0
  9
$DIMTIX
 70
     0
  9
$DIMSOXD
 70
     0
  9
$DIMSAH
 70
     0
  9
$DIMBLK1
  1

  9
$DIMBLK2
  1

  9
$DIMSTYLE
  2
標準スタイル
  9
$DIMCLRD
 70
     1
  9
$DIMCLRE
 70
     1
  9
$DIMCLRT
 70
     1
  9
$DIMTFAC
 40
1.0
  9
$DIMGAP
 40
1.0
  9
$DIMJUST
 70
     0
  9
$DIMSD1
 70
     0
  9
$DIMSD2
 70
     0
  9
$DIMTOLJ
 70
     1
  9
$DIMTZIN
 70
     8
  9
$DIMALTZ
 70
     0
  9
$DIMALTTZ
 70
     0
  9
$DIMFIT
 70
     3
  9
$DIMUPT
 70
     0
  9
$DIMUNIT
 70
     2
  9
$DIMDEC
 70
     2
  9
$DIMTDEC
 70
     2
  9
$DIMALTU
 70
     2
  9
$DIMALTTD
 70
     2
  9
$DIMTXSTY
  7
ゴシック体
  9
$DIMAUNIT
 70
     0
  9
$LUNITS
 70
     2
  9
$LUPREC
 70
     4
  9
$SKETCHINC
 40
1.0
  9
$FILLETRAD
 40
1.75
  9
$AUNITS
 70
     0
  9
$AUPREC
 70
     0
  9
$MENU
  1
.
  9
$ELEVATION
 40
0.0
  9
$PELEVATION
 40
0.0
  9
$THICKNESS
 40
0.0
  9
$LIMCHECK
 70
     0
  9
$BLIPMODE
 70
     0
  9
$CHAMFERA
 40
0.5
  9
$CHAMFERB
 40
0.5
  9
$CHAMFERC
 40
2.0
  9
$CHAMFERD
 40
0.7853981633974483
  9
$SKPOLY
 70
     0
  9
$TDCREATE
 40
2450495.493631365
  9
$TDUPDATE
 40
2454337.396356516
  9
$TDINDWG
 40
2.1921681597
  9
$TDUSRTIMER
 40
2.1921681597
  9
$USRTIMER
 70
     1
  9
$ANGBASE
 50
0.0
  9
$ANGDIR
 70
     0
  9
$PDMODE
 70
    99
  9
$PDSIZE
 40
0.0
  9
$PLINEWID
 40
0.0
  9
$COORDS
 70
     1
  9
$SPLFRAME
 70
     0
  9
$SPLINETYPE
 70
     6
  9
$SPLINESEGS
 70
     8
  9
$ATTDIA
 70
     0
  9
$ATTREQ
 70
     1
  9
$HANDLING
 70
 10241
  9
$HANDSEED
  5
11E2D
  9
$SURFTAB1
 70
     6
  9
$SURFTAB2
 70
     6
  9
$SURFTYPE
 70
     6
  9
$SURFU
 70
     6
  9
$SURFV
 70
     6
  9
$UCSNAME
  2

  9
$UCSORG
 10
0.0
 20
0.0
 30
0.0
  9
$UCSXDIR
 10
1.0
 20
0.0
 30
0.0
  9
$UCSYDIR
 10
0.0
 20
1.0
 30
0.0
  9
$PUCSNAME
  2

  9
$PUCSORG
 10
0.0
 20
0.0
 30
0.0
  9
$PUCSXDIR
 10
1.0
 20
0.0
 30
0.0
  9
$PUCSYDIR
 10
0.0
 20
1.0
 30
0.0
  9
$USERI1
 70
     0
  9
$USERI2
 70
     0
  9
$USERI3
 70
     0
  9
$USERI4
 70
     0
  9
$USERI5
 70
     0
  9
$USERR1
 40
0.0
  9
$USERR2
 40
0.0
  9
$USERR3
 40
0.0
  9
$USERR4
 40
0.0
  9
$USERR5
 40
0.0
  9
$WORLDVIEW
 70
     1
  9
$SHADEDGE
 70
     3
  9
$SHADEDIF
 70
    70
  9
$TILEMODE
 70
     0
  9
$MAXACTVP
 70
    16
  9
$PINSBASE
 10
0.0
 20
0.0
 30
0.0
  9
$PLIMCHECK
 70
     0
  9
$PEXTMIN
 10
29.03619555254135
 20
27.69602733303884
 30
0.0
  9
$PEXTMAX
 10
414.5361955525411
 20
287.6960273330388
 30
0.0
  9
$PLIMMIN
 10
15.15433780389673
 20
13.80781516542163
  9
$PLIMMAX
 10
435.1009930773342
 20
310.8184658001872
  9
$UNITMODE
 70
     0
  9
$VISRETAIN
 70
     0
  9
$PLINEGEN
 70
     0
  9
$PSLTSCALE
 70
     1
  9
$TREEDEPTH
 70
  3020
  9
$PICKSTYLE
 70
     1
  9
$CMLSTYLE
  2
STANDARD
  9
$CMLJUST
 70
     0
  9
$CMLSCALE
 40
1.0
  9
$PROXYGRAPHICS
 70
     1
  9
$MEASUREMENT
 70
     1
  0
ENDSEC
  0
SECTION
  2
CLASSES
  0
CLASS
  1
LWPOLYLINE
  2
AcDbPolyline
  3
AutoCAD 2000
 90
        0
280
     0
281
     1
  0
CLASS
  1
HATCH
  2
AcDbHatch
  3
AutoCAD 2000
 90
        0
280
     0
281
     1
  0
CLASS
  1
ACDBDICTIONARYWDFLT
  2
AcDbDictionaryWithDefault
  3
AutoCAD 2000
 90
        0
280
     0
281
     0
  0
CLASS
  1
ACDBPLACEHOLDER
  2
AcDbPlaceHolder
  3
AutoCAD 2000
 90
        0
280
     0
281
     0
  0
CLASS
  1
LAYOUT
  2
AcDbLayout
  3
AutoCAD 2000
 90
        0
280
     0
281
     0
  0
CLASS
  1
DICTIONARYVAR
  2
AcDbDictionaryVar
  3
AutoCAD 2000
 90
        0
280
     0
281
     0
  0
CLASS
  1
LONG_TRANSACTION
  2
AcDbLongTransaction
  3
AutoCAD 2000
 90
        0
280
     0
281
     0
  0
CLASS
  1
LWPOLYLINE
  2
AcDbPolyline
  3
AutoCAD 2000
 90
        0
280
     0
281
     1
  0
CLASS
  1
HATCH
  2
AcDbHatch
  3
AutoCAD 2000
 90
        0
280
     0
281
     1
  0
CLASS
  1
XRECORD
  2
AcDbXrecord
  3
AutoCAD 2000
 90
        0
280
     0
281
     0
  0
ENDSEC
  0
SECTION
  2
TABLES
  0
TABLE
  2
VPORT
  5
8
330
0
100
AcDbSymbolTable
 70
     1
  0
VPORT
  5
11DE4
330
8
100
AcDbSymbolTableRecord
100
AcDbViewportTableRecord
  2
*ACTIVE
 70
     0
 10
0.0
 20
0.0
 11
1.0
 21
1.0
 12
-1323.938774886403
 22
1471.480562082781
 13
0.0
 23
0.0
 14
5.0
 24
5.0
 15
0.0
 25
0.0
 16
0.0
 26
0.0
 36
1.0
 17
0.0
 27
0.0
 37
0.0
 40
421.8230820045446
 41
1.709909909909909
 42
50.0
 43
0.0
 44
0.0
 50
0.0
 51
0.0
 71
     0
 72
   100
 73
     1
 74
     0
 75
     0
 76
     1
 77
     0
 78
     0
  0
ENDTAB
  0
TABLE
  2
LTYPE
  5
5
330
0
100
AcDbSymbolTable
 70
     4
  0
LTYPE
  5
14
330
5
100
AcDbSymbolTableRecord
100
AcDbLinetypeTableRecord
  2
BYBLOCK
 70
     0
  3

 72
    65
 73
     0
 40
0.0
  0
LTYPE
  5
15
330
5
100
AcDbSymbolTableRecord
100
AcDbLinetypeTableRecord
  2
BYLAYER
 70
     0
  3

 72
    65
 73
     0
 40
0.0
  0
LTYPE
  5
16
330
5
100
AcDbSymbolTableRecord
100
AcDbLinetypeTableRecord
  2
CONTINUOUS
 70
     0
  3
Solid line
 72
    65
 73
     0
 40
0.0
  0
LTYPE
  5
329
330
5
100
AcDbSymbolTableRecord
100
AcDbLinetypeTableRecord
  2
DASHEDX2
 70
     0
  3
____  ____  ____  ____  ____  ____  ____  ____ 
 72
    65
 73
     2
 40
1.5
 49
1.0
 74
     0
 49
-0.5
 74
     0
  0
LTYPE
  5
1956
330
5
100
AcDbSymbolTableRecord
100
AcDbLinetypeTableRecord
  2
CENTERX2
 70
     0
  3
________  __  ________  __  ________  __  _____
 72
    65
 73
     4
 40
4.0
 49
2.5
 74
     0
 49
-0.5
 74
     0
 49
0.5
 74
     0
 49
-0.5
 74
     0
  0
LTYPE
  5
1958
330
5
100
AcDbSymbolTableRecord
100
AcDbLinetypeTableRecord
  2
PHANTOMX2
 70
     0
  3
____________    ____    ____    ____________   
 72
    65
 73
     6
 40
5.0
 49
2.5
 74
     0
 49
-0.5
 74
     0
 49
0.5
 74
     0
 49
-0.5
 74
     0
 49
0.5
 74
     0
 49
-0.5
 74
     0
  0
ENDTAB
  0
TABLE
  2
LAYER
  5
2
330
0
100
AcDbSymbolTable
 70
     8
  0
LAYER
  5
F
330
2
100
AcDbSymbolTableRecord
100
AcDbLayerTableRecord
  2
0
 70
     0
 62
     7
  6
CONTINUOUS
  0
LAYER
  5
18F
330
2
100
AcDbSymbolTableRecord
100
AcDbLayerTableRecord
  2
ZISSEN1
 70
     0
 62
     7
  6
CONTINUOUS
  0
LAYER
  5
529
330
2
100
AcDbSymbolTableRecord
100
AcDbLayerTableRecord
  2
SUNPOU
 70
     0
 62
     1
  6
CONTINUOUS
  0
LAYER
  5
1959
330
2
100
AcDbSymbolTableRecord
100
AcDbLayerTableRecord
  2
KAKURESEN1
 70
     0
 62
     3
  6
DASHEDX2
  0
LAYER
  5
195A
330
2
100
AcDbSymbolTableRecord
100
AcDbLayerTableRecord
  2
CL1
 70
     0
 62
   210
  6
CENTERX2
  0
LAYER
  5
195C
330
2
100
AcDbSymbolTableRecord
100
AcDbLayerTableRecord
  2
SOUZOUSEN
 70
     0
 62
     5
  6
PHANTOMX2
  0
LAYER
  5
3A9B
330
2
100
AcDbSymbolTableRecord
100
AcDbLayerTableRecord
  2
DEFPOINTS
 70
     0
 62
     7
  6
CONTINUOUS
  0
LAYER
  5
116EA
330
2
100
AcDbSymbolTableRecord
100
AcDbLayerTableRecord
  2
SAISEN
 70
     0
 62
     1
  6
CONTINUOUS
  0
ENDTAB
  0
TABLE
  2
STYLE
  5
3
330
0
100
AcDbSymbolTable
 70
     2
  0
STYLE
  5
10
330
3
100
AcDbSymbolTableRecord
100
AcDbTextStyleTableRecord
  2
STANDARD
 70
     0
 40
0.0
 41
1.0
 50
0.0
 71
     0
 42
3.0
  3
txt
  4
BigFont
  0
STYLE
  5
1960
330
3
100
AcDbSymbolTableRecord
100
AcDbTextStyleTableRecord
  2
ゴシック体
 70
     0
 40
0.0
 41
1.0
 50
0.0
 71
     0
 42
2.5
  3
MS Gothic.ttf
  4

1001
ACAD
1000
MS Gothic
1071
    32817
  0
ENDTAB
  0
TABLE
  2
VIEW
  5
6
330
0
100
AcDbSymbolTable
 70
     0
  0
ENDTAB
  0
TABLE
  2
UCS
  5
7
330
0
100
AcDbSymbolTable
 70
     0
  0
ENDTAB
  0
TABLE
  2
APPID
  5
9
330
0
100
AcDbSymbolTable
 70
     5
  0
APPID
  5
11
330
9
100
AcDbSymbolTableRecord
100
AcDbRegAppTableRecord
  2
ACAD
 70
     0
  0
APPID
  5
4005
330
9
100
AcDbSymbolTableRecord
100
AcDbRegAppTableRecord
  2
CONTENTTABDATA
 70
     0
  0
APPID
  5
4006
330
9
100
AcDbSymbolTableRecord
100
AcDbRegAppTableRecord
  2
CONTENTCURRENTTAB
 70
     0
  0
APPID
  5
477B
330
9
100
AcDbSymbolTableRecord
100
AcDbRegAppTableRecord
  2
CONTENTBLOCKDESCRIPTION
 70
     0
  0
APPID
  5
477C
330
9
100
AcDbSymbolTableRecord
100
AcDbRegAppTableRecord
  2
CONTENTBLOCKICON
 70
     0
  0
ENDTAB
  0
TABLE
  2
DIMSTYLE
  5
A
330
0
100
AcDbSymbolTable
 70
     3
  0
DIMSTYLE
105
1D
330
A
100
AcDbSymbolTableRecord
100
AcDbDimStyleTableRecord
  2
STANDARD
 70
     0
  3

  4

  5

  6

  7

 40
1.0
 41
0.18
 42
0.0625
 43
0.38
 44
0.18
 45
0.0
 46
0.0
 47
0.0
 48
0.0
140
0.18
141
0.09
142
0.0
143
25.4
144
1.0
145
0.0
146
1.0
147
0.09
 71
     0
 72
     0
 73
     1
 74
     1
 75
     0
 76
     0
 77
     0
 78
     0
170
     0
171
     2
172
     0
173
     0
174
     0
175
     0
176
     0
177
     0
178
     0
270
     2
271
     4
272
     4
273
     2
274
     2
340
10
275
     0
280
     0
281
     0
282
     0
283
     1
284
     0
285
     0
286
     0
287
     3
288
     0
  0
DIMSTYLE
105
52E
102
{ACAD_REACTORS
330
10D6A
330
10CF1
330
11091
330
110A0
330
11101
330
1114B
330
1115A
330
11167
330
11248
330
11255
330
112D7
330
11300
330
11CBF
330
11CCC
102
}
330
A
100
AcDbSymbolTableRecord
100
AcDbDimStyleTableRecord
  2
標準スタイル
 70
     0
  3

  4

  5

  6

  7

 40
0.0
 41
3.0
 42
0.5
 43
0.5
 44
0.5
 45
0.0
 46
0.0
 47
0.0
 48
0.0
140
3.5
141
0.0
142
0.0
143
25.4
144
1.0
145
0.0
146
1.0
147
1.0
 71
     0
 72
     0
 73
     0
 74
     0
 75
     0
 76
     0
 77
     1
 78
     8
170
     0
171
     2
172
     1
173
     0
174
     0
175
     0
176
     1
177
     1
178
     1
270
     2
271
     2
272
     2
273
     2
274
     2
340
1960
275
     0
280
     0
281
     0
282
     0
283
     1
284
     8
285
     0
286
     0
287
     3
288
     0
  0
DIMSTYLE
105
1962
102
{ACAD_REACTORS
330
10EF7
330
10EF8
102
}
330
A
100
AcDbSymbolTableRecord
100
AcDbDimStyleTableRecord
  2
公差付き寸法
 70
     0
  3

  4

  5

  6

  7

 40
0.0
 41
3.0
 42
0.5
 43
0.5
 44
0.5
 45
0.0
 46
0.0
 47
0.2
 48
0.2
140
3.5
141
0.0
142
0.0
143
25.4
144
1.0
145
0.0
146
0.7
147
1.0
 71
     1
 72
     0
 73
     0
 74
     0
 75
     0
 76
     0
 77
     1
 78
     8
170
     0
171
     2
172
     1
173
     0
174
     0
175
     0
176
     0
177
     0
178
     0
270
     2
271
     2
272
     2
273
     2
274
     2
340
10
275
     0
280
     0
281
     0
282
     0
283
     2
284
     8
285
     0
286
     0
287
     3
288
     0
  0
ENDTAB
  0
TABLE
  2
BLOCK_RECORD
  5
1
330
0
100
AcDbSymbolTable
 70
    49
  0
BLOCK_RECORD
  5
1A
102
{ACAD_XDICTIONARY
360
11E0A
102
}
330
1
100
AcDbSymbolTableRecord
100
AcDbBlockTableRecord
  2
*MODEL_SPACE
  0
BLOCK_RECORD
  5
5D8E
102
{ACAD_XDICTIONARY
360
11E0C
102
}
330
1
100
AcDbSymbolTableRecord
100
AcDbBlockTableRecord
  2
*PAPER_SPACE
  0
BLOCK_RECORD
  5
10CF2
330
1
100
AcDbSymbolTableRecord
100
AcDbBlockTableRecord
  2
*D0
  0
BLOCK_RECORD
  5
10D6B
330
1
100
AcDbSymbolTableRecord
100
AcDbBlockTableRecord
  2
*D1
  0
BLOCK_RECORD
  5
10F01
330
1
100
AcDbSymbolTableRecord
100
AcDbBlockTableRecord
  2
*D2
  0
BLOCK_RECORD
  5
10F0D
330
1
100
AcDbSymbolTableRecord
100
AcDbBlockTableRecord
  2
*D3
  0
BLOCK_RECORD
  5
11092
330
1
100
AcDbSymbolTableRecord
100
AcDbBlockTableRecord
  2
*D4
  0
BLOCK_RECORD
  5
110A1
330
1
100
AcDbSymbolTableRecord
100
AcDbBlockTableRecord
  2
*D5
  0
BLOCK_RECORD
  5
11102
330
1
100
AcDbSymbolTableRecord
100
AcDbBlockTableRecord
  2
*D6
  0
BLOCK_RECORD
  5
1114C
330
1
100
AcDbSymbolTableRecord
100
AcDbBlockTableRecord
  2
*D7
  0
BLOCK_RECORD
  5
1115B
330
1
100
AcDbSymbolTableRecord
100
AcDbBlockTableRecord
  2
*D8
  0
BLOCK_RECORD
  5
11168
330
1
100
AcDbSymbolTableRecord
100
AcDbBlockTableRecord
  2
*D9
  0
BLOCK_RECORD
  5
11249
330
1
100
AcDbSymbolTableRecord
100
AcDbBlockTableRecord
  2
*D10
  0
BLOCK_RECORD
  5
11256
330
1
100
AcDbSymbolTableRecord
100
AcDbBlockTableRecord
  2
*D11
  0
BLOCK_RECORD
  5
112D8
330
1
100
AcDbSymbolTableRecord
100
AcDbBlockTableRecord
  2
*D12
  0
BLOCK_RECORD
  5
11301
330
1
100
AcDbSymbolTableRecord
100
AcDbBlockTableRecord
  2
*D13
  0
BLOCK_RECORD
  5
11CC0
330
1
100
AcDbSymbolTableRecord
100
AcDbBlockTableRecord
  2
*D32
  0
BLOCK_RECORD
  5
11CCD
330
1
100
AcDbSymbolTableRecord
100
AcDbBlockTableRecord
  2
*D33
  0
ENDTAB
  0
ENDSEC
  0
SECTION
  2
BLOCKS
  0
BLOCK
  5
1B
330
1A
100
AcDbEntity
  8
0
100
AcDbBlockBegin
  2
*MODEL_SPACE
 70
     0
 10
0.0
 20
0.0
 30
0.0
  3
*MODEL_SPACE
  1

  0
ENDBLK
  5
1C
330
1A
100
AcDbEntity
  8
0
100
AcDbBlockEnd
  0
BLOCK
  5
5E60
330
5D8E
100
AcDbEntity
 67
     1
  8
0
100
AcDbBlockBegin
  2
*PAPER_SPACE
 70
     0
 10
0.0
 20
0.0
 30
0.0
  3
*PAPER_SPACE
  1

  0
ENDBLK
  5
5E61
330
5D8E
100
AcDbEntity
 67
     1
  8
0
100
AcDbBlockEnd
  0
BLOCK
  5
10CFC
330
10CF2
100
AcDbEntity
  8
0
100
AcDbBlockBegin
  2
*D0
 70
     1
 10
0.0
 20
0.0
 30
0.0
  3
*D0
  1

  0
LINE
  5
11048
330
10CF2
100
AcDbEntity
  8
SUNPOU
 62
     1
100
AcDbLine
 10
-1399.5
 20
1652.0
 30
0.0
 11
-1410.312182741116
 21
1652.0
 31
0.0
  0
LINE
  5
11049
330
10CF2
100
AcDbEntity
  8
SUNPOU
 62
     1
100
AcDbLine
 10
-1399.5
 20
1600.0
 30
0.0
 11
-1410.312182741116
 21
1600.0
 31
0.0
  0
LINE
  5
1104A
330
10CF2
100
AcDbEntity
  8
SUNPOU
 62
     1
100
AcDbLine
 10
-1409.812182741116
 20
1649.0
 30
0.0
 11
-1409.812182741116
 21
1603.0
 31
0.0
  0
SOLID
  5
1104B
330
10CF2
100
AcDbEntity
  8
SUNPOU
 62
     1
100
AcDbTrace
 10
-1410.312182741116
 20
1649.0
 30
0.0
 11
-1409.312182741116
 21
1649.0
 31
0.0
 12
-1409.812182741116
 22
1652.0
 32
0.0
 13
-1409.812182741116
 23
1652.0
 33
0.0
  0
SOLID
  5
1104C
330
10CF2
100
AcDbEntity
  8
SUNPOU
 62
     1
100
AcDbTrace
 10
-1410.312182741116
 20
1603.0
 30
0.0
 11
-1409.312182741116
 21
1603.0
 31
0.0
 12
-1409.812182741116
 22
1600.0
 32
0.0
 13
-1409.812182741116
 23
1600.0
 33
0.0
  0
MTEXT
  5
1104D
330
10CF2
100
AcDbEntity
  8
SUNPOU
 62
     1
100
AcDbMText
 10
-1412.562182741117
 20
1625.999999999999
 30
0.0
 40
3.5
 41
0.0
 71
     5
 72
     1
  1
\A1;52
  7
ゴシック体
 11
0.0000000000000001
 21
1.0
 31
0.0
1001
ACAD
1000
MTEXTBEGIN
1070
    73
1070
     1
1070
    44
1040
1.0
1070
    74
1070
     0
1000
MTEXTEND
  0
POINT
  5
1104E
330
10CF2
100
AcDbEntity
  8
DEFPOINTS
 62
     0
100
AcDbPoint
 10
-1399.0
 20
1652.0
 30
0.0
  0
POINT
  5
1104F
330
10CF2
100
AcDbEntity
  8
DEFPOINTS
 62
     0
100
AcDbPoint
 10
-1399.0
 20
1600.0
 30
0.0
  0
POINT
  5
11050
330
10CF2
100
AcDbEntity
  8
DEFPOINTS
 62
     0
100
AcDbPoint
 10
-1409.812182741116
 20
1600.0
 30
0.0
  0
ENDBLK
  5
10CFD
330
10CF2
100
AcDbEntity
  8
0
100
AcDbBlockEnd
  0
BLOCK
  5
10D75
330
10D6B
100
AcDbEntity
  8
0
100
AcDbBlockBegin
  2
*D1
 70
     1
 10
0.0
 20
0.0
 30
0.0
  3
*D1
  1

  0
LINE
  5
11110
330
10D6B
100
AcDbEntity
  8
SUNPOU
 62
     1
100
AcDbLine
 10
-1400.0
 20
1600.5
 30
0.0
 11
-1400.0
 21
1590.188931864453
 31
0.0
  0
LINE
  5
11111
330
10D6B
100
AcDbEntity
  8
SUNPOU
 62
     1
100
AcDbLine
 10
-1287.0
 20
1600.5
 30
0.0
 11
-1287.0
 21
1590.188931864453
 31
0.0
  0
LINE
  5
11112
330
10D6B
100
AcDbEntity
  8
SUNPOU
 62
     1
100
AcDbLine
 10
-1397.0
 20
1590.688931864453
 30
0.0
 11
-1290.0
 21
1590.688931864453
 31
0.0
  0
SOLID
  5
11113
330
10D6B
100
AcDbEntity
  8
SUNPOU
 62
     1
100
AcDbTrace
 10
-1397.0
 20
1591.188931864453
 30
0.0
 11
-1397.0
 21
1590.188931864453
 31
0.0
 12
-1400.0
 22
1590.688931864453
 32
0.0
 13
-1400.0
 23
1590.688931864453
 33
0.0
  0
SOLID
  5
11114
330
10D6B
100
AcDbEntity
  8
SUNPOU
 62
     1
100
AcDbTrace
 10
-1290.0
 20
1591.188931864453
 30
0.0
 11
-1290.0
 21
1590.188931864453
 31
0.0
 12
-1287.0
 22
1590.688931864453
 32
0.0
 13
-1287.0
 23
1590.688931864453
 33
0.0
  0
MTEXT
  5
11115
330
10D6B
100
AcDbEntity
  8
SUNPOU
 62
     1
100
AcDbMText
 10
-1350.0000015
 20
1593.438931864453
 30
0.0
 40
3.5
 41
0.0
 71
     5
 72
     1
  1
\A1;113
  7
ゴシック体
1001
ACAD
1000
MTEXTBEGIN
1070
    73
1070
     1
1070
    44
1040
1.0
1070
    74
1070
     0
1000
MTEXTEND
  0
POINT
  5
11116
330
10D6B
100
AcDbEntity
  8
DEFPOINTS
 62
     0
100
AcDbPoint
 10
-1400.0
 20
1601.0
 30
0.0
  0
POINT
  5
11117
330
10D6B
100
AcDbEntity
  8
DEFPOINTS
 62
     0
100
AcDbPoint
 10
-1287.0
 20
1601.0
 30
0.0
  0
POINT
  5
11118
330
10D6B
100
AcDbEntity
  8
DEFPOINTS
 62
     0
100
AcDbPoint
 10
-1287.0
 20
1590.688931864453
 30
0.0
  0
ENDBLK
  5
10D76
330
10D6B
100
AcDbEntity
  8
0
100
AcDbBlockEnd
  0
BLOCK
  5
10F0B
330
10F01
100
AcDbEntity
  8
0
100
AcDbBlockBegin
  2
*D2
 70
     1
 10
0.0
 20
0.0
 30
0.0
  3
*D2
  1

  0
LINE
  5
11625
330
10F01
100
AcDbEntity
  8
SUNPOU
 62
     0
100
AcDbLine
 10
-1394.499999999999
 20
1340.0
 30
0.0
 11
-1275.554420069669
 21
1340.0
 31
0.0
  0
LINE
  5
11626
330
10F01
100
AcDbEntity
  8
SUNPOU
 62
     0
100
AcDbLine
 10
-1289.5
 20
1296.0
 30
0.0
 11
-1275.554420069669
 21
1296.0
 31
0.0
  0
LINE
  5
11627
330
10F01
100
AcDbEntity
  8
SUNPOU
 62
     0
100
AcDbLine
 10
-1276.054420069669
 20
1337.0
 30
0.0
 11
-1276.054420069669
 21
1299.0
 31
0.0
  0
SOLID
  5
11628
330
10F01
100
AcDbEntity
  8
SUNPOU
 62
     0
100
AcDbTrace
 10
-1276.554420069669
 20
1337.0
 30
0.0
 11
-1275.554420069669
 21
1337.0
 31
0.0
 12
-1276.054420069669
 22
1340.0
 32
0.0
 13
-1276.054420069669
 23
1340.0
 33
0.0
  0
SOLID
  5
11629
330
10F01
100
AcDbEntity
  8
SUNPOU
 62
     0
100
AcDbTrace
 10
-1276.554420069669
 20
1299.0
 30
0.0
 11
-1275.554420069669
 21
1299.0
 31
0.0
 12
-1276.054420069669
 22
1296.0
 32
0.0
 13
-1276.054420069669
 23
1296.0
 33
0.0
  0
MTEXT
  5
1162A
330
10F01
100
AcDbEntity
  8
SUNPOU
 62
     0
100
AcDbMText
 10
-1278.804420069669
 20
1317.999999999999
 30
0.0
 40
3.5
 41
0.0
 71
     5
 72
     1
  1
\A2;44{\H2.450000;±0.2}
  7
ゴシック体
 11
0.0000000000000001
 21
1.0
 31
0.0
1001
ACAD
1000
MTEXTBEGIN
1070
    73
1070
     1
1070
    44
1040
1.0
1070
    74
1070
     0
1000
MTEXTEND
  0
POINT
  5
1162B
330
10F01
100
AcDbEntity
  8
DEFPOINTS
 62
     0
100
AcDbPoint
 10
-1394.999999999999
 20
1340.0
 30
0.0
  0
POINT
  5
1162C
330
10F01
100
AcDbEntity
  8
DEFPOINTS
 62
     0
100
AcDbPoint
 10
-1290.0
 20
1296.0
 30
0.0
  0
POINT
  5
1162D
330
10F01
100
AcDbEntity
  8
DEFPOINTS
 62
     0
100
AcDbPoint
 10
-1276.054420069669
 20
1296.0
 30
0.0
  0
ENDBLK
  5
10F0C
330
10F01
100
AcDbEntity
  8
0
100
AcDbBlockEnd
  0
BLOCK
  5
10F17
330
10F0D
100
AcDbEntity
  8
0
100
AcDbBlockBegin
  2
*D3
 70
     1
 10
0.0
 20
0.0
 30
0.0
  3
*D3
  1

  0
LINE
  5
1161C
330
10F0D
100
AcDbEntity
  8
SUNPOU
 62
     0
100
AcDbLine
 10
-1290.0
 20
1296.499999999999
 30
0.0
 11
-1290.0
 21
1352.033573026156
 31
0.0
  0
LINE
  5
1161D
330
10F0D
100
AcDbEntity
  8
SUNPOU
 62
     0
100
AcDbLine
 10
-1394.999999999999
 20
1340.5
 30
0.0
 11
-1394.999999999999
 21
1352.033573026156
 31
0.0
  0
LINE
  5
1161E
330
10F0D
100
AcDbEntity
  8
SUNPOU
 62
     0
100
AcDbLine
 10
-1293.0
 20
1351.533573026157
 30
0.0
 11
-1391.999999999999
 21
1351.533573026157
 31
0.0
  0
SOLID
  5
1161F
330
10F0D
100
AcDbEntity
  8
SUNPOU
 62
     0
100
AcDbTrace
 10
-1293.0
 20
1352.033573026156
 30
0.0
 11
-1293.0
 21
1351.033573026156
 31
0.0
 12
-1290.0
 22
1351.533573026157
 32
0.0
 13
-1290.0
 23
1351.533573026157
 33
0.0
  0
SOLID
  5
11620
330
10F0D
100
AcDbEntity
  8
SUNPOU
 62
     0
100
AcDbTrace
 10
-1391.999999999999
 20
1352.033573026156
 30
0.0
 11
-1391.999999999999
 21
1351.033573026156
 31
0.0
 12
-1394.999999999999
 22
1351.533573026157
 32
0.0
 13
-1394.999999999999
 23
1351.533573026157
 33
0.0
  0
MTEXT
  5
11621
330
10F0D
100
AcDbEntity
  8
SUNPOU
 62
     0
100
AcDbMText
 10
-1342.5
 20
1354.283573026156
 30
0.0
 40
3.5
 41
0.0
 71
     5
 72
     1
  1
\A2;105{\H2.450000;±0.2}
  7
ゴシック体
1001
ACAD
1000
MTEXTBEGIN
1070
    73
1070
     1
1070
    44
1040
1.0
1070
    74
1070
     0
1000
MTEXTEND
  0
POINT
  5
11622
330
10F0D
100
AcDbEntity
  8
DEFPOINTS
 62
     0
100
AcDbPoint
 10
-1290.0
 20
1296.0
 30
0.0
  0
POINT
  5
11623
330
10F0D
100
AcDbEntity
  8
DEFPOINTS
 62
     0
100
AcDbPoint
 10
-1394.999999999999
 20
1340.0
 30
0.0
  0
POINT
  5
11624
330
10F0D
100
AcDbEntity
  8
DEFPOINTS
 62
     0
100
AcDbPoint
 10
-1394.999999999999
 20
1351.533573026157
 30
0.0
  0
ENDBLK
  5
10F18
330
10F0D
100
AcDbEntity
  8
0
100
AcDbBlockEnd
  0
BLOCK
  5
1109E
330
11092
100
AcDbEntity
  8
0
100
AcDbBlockBegin
  2
*D4
 70
     1
 10
0.0
 20
0.0
 30
0.0
  3
*D4
  1

  0
LINE
  5
111A9
330
11092
100
AcDbEntity
  8
SUNPOU
 62
     1
100
AcDbLine
 10
-1400.0
 20
1651.5
 30
0.0
 11
-1400.0
 21
1662.997731994467
 31
0.0
  0
LINE
  5
111AA
330
11092
100
AcDbEntity
  8
SUNPOU
 62
     1
100
AcDbLine
 10
-1396.0
 20
1653.5
 30
0.0
 11
-1396.0
 21
1662.997731994467
 31
0.0
  0
LINE
  5
111AB
330
11092
100
AcDbEntity
  8
SUNPOU
 62
     1
100
AcDbLine
 10
-1403.0
 20
1662.497731994467
 30
0.0
 11
-1406.0
 21
1662.497731994467
 31
0.0
  0
LINE
  5
111AC
330
11092
100
AcDbEntity
  8
SUNPOU
 62
     1
100
AcDbLine
 10
-1393.0
 20
1662.497731994467
 30
0.0
 11
-1390.0
 21
1662.497731994467
 31
0.0
  0
LINE
  5
111AD
330
11092
100
AcDbEntity
  8
SUNPOU
 62
     1
100
AcDbLine
 10
-1400.0
 20
1662.497731994467
 30
0.0
 11
-1396.0
 21
1662.497731994467
 31
0.0
  0
SOLID
  5
111AE
330
11092
100
AcDbEntity
  8
SUNPOU
 62
     1
100
AcDbTrace
 10
-1403.0
 20
1662.997731994467
 30
0.0
 11
-1403.0
 21
1661.997731994467
 31
0.0
 12
-1400.0
 22
1662.497731994467
 32
0.0
 13
-1400.0
 23
1662.497731994467
 33
0.0
  0
SOLID
  5
111AF
330
11092
100
AcDbEntity
  8
SUNPOU
 62
     1
100
AcDbTrace
 10
-1393.0
 20
1662.997731994467
 30
0.0
 11
-1393.0
 21
1661.997731994467
 31
0.0
 12
-1396.0
 22
1662.497731994467
 32
0.0
 13
-1396.0
 23
1662.497731994467
 33
0.0
  0
MTEXT
  5
111B0
330
11092
100
AcDbEntity
  8
SUNPOU
 62
     1
100
AcDbMText
 10
-1398.0
 20
1665.247731994467
 30
0.0
 40
3.5
 41
0.0
 71
     5
 72
     1
  1
\A1;4
  7
ゴシック体
1001
ACAD
1000
MTEXTBEGIN
1070
    73
1070
     1
1070
    44
1040
1.0
1070
    74
1070
     0
1000
MTEXTEND
  0
POINT
  5
111B1
330
11092
100
AcDbEntity
  8
DEFPOINTS
 62
     0
100
AcDbPoint
 10
-1400.0
 20
1651.0
 30
0.0
  0
POINT
  5
111B2
330
11092
100
AcDbEntity
  8
DEFPOINTS
 62
     0
100
AcDbPoint
 10
-1396.0
 20
1653.0
 30
0.0
  0
POINT
  5
111B3
330
11092
100
AcDbEntity
  8
DEFPOINTS
 62
     0
100
AcDbPoint
 10
-1396.0
 20
1662.497731994467
 30
0.0
  0
ENDBLK
  5
1109F
330
11092
100
AcDbEntity
  8
0
100
AcDbBlockEnd
  0
BLOCK
  5
110AB
330
110A1
100
AcDbEntity
  8
0
100
AcDbBlockBegin
  2
*D5
 70
     1
 10
0.0
 20
0.0
 30
0.0
  3
*D5
  1

  0
LINE
  5
1168B
330
110A1
100
AcDbEntity
  8
SUNPOU
 62
     1
100
AcDbLine
 10
-1396.0
 20
1653.5
 30
0.0
 11
-1396.0
 21
1662.997731994467
 31
0.0
  0
LINE
  5
1168C
330
110A1
100
AcDbEntity
  8
SUNPOU
 62
     1
100
AcDbLine
 10
-1291.0
 20
1609.499999999999
 30
0.0
 11
-1291.0
 21
1662.997731994467
 31
0.0
  0
LINE
  5
1168D
330
110A1
100
AcDbEntity
  8
SUNPOU
 62
     1
100
AcDbLine
 10
-1393.0
 20
1662.497731994467
 30
0.0
 11
-1294.0
 21
1662.497731994467
 31
0.0
  0
SOLID
  5
1168E
330
110A1
100
AcDbEntity
  8
SUNPOU
 62
     1
100
AcDbTrace
 10
-1393.0
 20
1662.997731994467
 30
0.0
 11
-1393.0
 21
1661.997731994467
 31
0.0
 12
-1396.0
 22
1662.497731994467
 32
0.0
 13
-1396.0
 23
1662.497731994467
 33
0.0
  0
SOLID
  5
1168F
330
110A1
100
AcDbEntity
  8
SUNPOU
 62
     1
100
AcDbTrace
 10
-1294.0
 20
1662.997731994467
 30
0.0
 11
-1294.0
 21
1661.997731994467
 31
0.0
 12
-1291.0
 22
1662.497731994467
 32
0.0
 13
-1291.0
 23
1662.497731994467
 33
0.0
  0
MTEXT
  5
11690
330
110A1
100
AcDbEntity
  8
SUNPOU
 62
     1
100
AcDbMText
 10
-1345.5
 20
1665.247731994467
 30
0.0
 40
3.5
 41
0.0
 71
     5
 72
     1
  1
\A1;105
  7
ゴシック体
1001
ACAD
1000
MTEXTBEGIN
1070
    73
1070
     1
1070
    44
1040
1.0
1070
    74
1070
     0
1000
MTEXTEND
  0
POINT
  5
11691
330
110A1
100
AcDbEntity
  8
DEFPOINTS
 62
     0
100
AcDbPoint
 10
-1396.0
 20
1653.0
 30
0.0
  0
POINT
  5
11692
330
110A1
100
AcDbEntity
  8
DEFPOINTS
 62
     0
100
AcDbPoint
 10
-1291.0
 20
1609.0
 30
0.0
  0
POINT
  5
11693
330
110A1
100
AcDbEntity
  8
DEFPOINTS
 62
     0
100
AcDbPoint
 10
-1291.0
 20
1662.497731994467
 30
0.0
  0
ENDBLK
  5
110AC
330
110A1
100
AcDbEntity
  8
0
100
AcDbBlockEnd
  0
BLOCK
  5
1110E
330
11102
100
AcDbEntity
  8
0
100
AcDbBlockBegin
  2
*D6
 70
     1
 10
0.0
 20
0.0
 30
0.0
  3
*D6
  1

  0
LINE
  5
1119E
330
11102
100
AcDbEntity
  8
SUNPOU
 62
     1
100
AcDbLine
 10
-1291.0
 20
1652.499999999999
 30
0.0
 11
-1291.0
 21
1662.997731994467
 31
0.0
  0
LINE
  5
1119F
330
11102
100
AcDbEntity
  8
SUNPOU
 62
     1
100
AcDbLine
 10
-1287.0
 20
1651.5
 30
0.0
 11
-1287.0
 21
1662.997731994467
 31
0.0
  0
LINE
  5
111A0
330
11102
100
AcDbEntity
  8
SUNPOU
 62
     1
100
AcDbLine
 10
-1294.0
 20
1662.497731994467
 30
0.0
 11
-1297.0
 21
1662.497731994467
 31
0.0
  0
LINE
  5
111A1
330
11102
100
AcDbEntity
  8
SUNPOU
 62
     1
100
AcDbLine
 10
-1284.0
 20
1662.497731994467
 30
0.0
 11
-1281.0
 21
1662.497731994467
 31
0.0
  0
LINE
  5
111A2
330
11102
100
AcDbEntity
  8
SUNPOU
 62
     1
100
AcDbLine
 10
-1291.0
 20
1662.497731994467
 30
0.0
 11
-1287.0
 21
1662.497731994467
 31
0.0
  0
SOLID
  5
111A3
330
11102
100
AcDbEntity
  8
SUNPOU
 62
     1
100
AcDbTrace
 10
-1294.0
 20
1662.997731994467
 30
0.0
 11
-1294.0
 21
1661.997731994467
 31
0.0
 12
-1291.0
 22
1662.497731994467
 32
0.0
 13
-1291.0
 23
1662.497731994467
 33
0.0
  0
SOLID
  5
111A4
330
11102
100
AcDbEntity
  8
SUNPOU
 62
     1
100
AcDbTrace
 10
-1284.0
 20
1662.997731994467
 30
0.0
 11
-1284.0
 21
1661.997731994467
 31
0.0
 12
-1287.0
 22
1662.497731994467
 32
0.0
 13
-1287.0
 23
1662.497731994467
 33
0.0
  0
MTEXT
  5
111A5
330
11102
100
AcDbEntity
  8
SUNPOU
 62
     1
100
AcDbMText
 10
-1289.0
 20
1665.247731994467
 30
0.0
 40
3.5
 41
0.0
 71
     5
 72
     1
  1
\A1;4
  7
ゴシック体
1001
ACAD
1000
MTEXTBEGIN
1070
    73
1070
     1
1070
    44
1040
1.0
1070
    74
1070
     0
1000
MTEXTEND
  0
POINT
  5
111A6
330
11102
100
AcDbEntity
  8
DEFPOINTS
 62
     0
100
AcDbPoint
 10
-1291.0
 20
1652.0
 30
0.0
  0
POINT
  5
111A7
330
11102
100
AcDbEntity
  8
DEFPOINTS
 62
     0
100
AcDbPoint
 10
-1287.0
 20
1651.0
 30
0.0
  0
POINT
  5
111A8
330
11102
100
AcDbEntity
  8
DEFPOINTS
 62
     0
100
AcDbPoint
 10
-1287.0
 20
1662.497731994467
 30
0.0
  0
ENDBLK
  5
1110F
330
11102
100
AcDbEntity
  8
0
100
AcDbBlockEnd
  0
BLOCK
  5
11158
330
1114C
100
AcDbEntity
  8
0
100
AcDbBlockBegin
  2
*D7
 70
     1
 10
0.0
 20
0.0
 30
0.0
  3
*D7
  1

  0
LINE
  5
1118A
330
1114C
100
AcDbEntity
  8
SUNPOU
 62
     1
100
AcDbLine
 10
-1287.5
 20
1600.0
 30
0.0
 11
-1279.994619160554
 21
1600.0
 31
0.0
  0
LINE
  5
1118B
330
1114C
100
AcDbEntity
  8
SUNPOU
 62
     1
100
AcDbLine
 10
-1285.5
 20
1604.0
 30
0.0
 11
-1279.994619160554
 21
1604.0
 31
0.0
  0
LINE
  5
1118C
330
1114C
100
AcDbEntity
  8
SUNPOU
 62
     1
100
AcDbLine
 10
-1280.494619160554
 20
1597.0
 30
0.0
 11
-1280.494619160554
 21
1594.0
 31
0.0
  0
LINE
  5
1118D
330
1114C
100
AcDbEntity
  8
SUNPOU
 62
     1
100
AcDbLine
 10
-1280.494619160554
 20
1607.0
 30
0.0
 11
-1280.494619160554
 21
1610.0
 31
0.0
  0
LINE
  5
1118E
330
1114C
100
AcDbEntity
  8
SUNPOU
 62
     1
100
AcDbLine
 10
-1280.494619160554
 20
1600.0
 30
0.0
 11
-1280.494619160554
 21
1604.0
 31
0.0
  0
SOLID
  5
1118F
330
1114C
100
AcDbEntity
  8
SUNPOU
 62
     1
100
AcDbTrace
 10
-1280.994619160554
 20
1597.0
 30
0.0
 11
-1279.994619160554
 21
1597.0
 31
0.0
 12
-1280.494619160554
 22
1600.0
 32
0.0
 13
-1280.494619160554
 23
1600.0
 33
0.0
  0
SOLID
  5
11190
330
1114C
100
AcDbEntity
  8
SUNPOU
 62
     1
100
AcDbTrace
 10
-1280.994619160554
 20
1607.0
 30
0.0
 11
-1279.994619160554
 21
1607.0
 31
0.0
 12
-1280.494619160554
 22
1604.0
 32
0.0
 13
-1280.494619160554
 23
1604.0
 33
0.0
  0
MTEXT
  5
11191
330
1114C
100
AcDbEntity
  8
SUNPOU
 62
     1
100
AcDbMText
 10
-1283.244619160554
 20
1602.0
 30
0.0
 40
3.5
 41
0.0
 71
     5
 72
     1
  1
\A1;4
  7
ゴシック体
 11
0.0000000000000001
 21
1.0
 31
0.0
1001
ACAD
1000
MTEXTBEGIN
1070
    73
1070
     1
1070
    44
1040
1.0
1070
    74
1070
     0
1000
MTEXTEND
  0
POINT
  5
11192
330
1114C
100
AcDbEntity
  8
DEFPOINTS
 62
     0
100
AcDbPoint
 10
-1288.0
 20
1600.0
 30
0.0
  0
POINT
  5
11193
330
1114C
100
AcDbEntity
  8
DEFPOINTS
 62
     0
100
AcDbPoint
 10
-1286.0
 20
1604.0
 30
0.0
  0
POINT
  5
11194
330
1114C
100
AcDbEntity
  8
DEFPOINTS
 62
     0
100
AcDbPoint
 10
-1280.494619160554
 20
1604.0
 30
0.0
  0
ENDBLK
  5
11159
330
1114C
100
AcDbEntity
  8
0
100
AcDbBlockEnd
  0
BLOCK
  5
11165
330
1115B
100
AcDbEntity
  8
0
100
AcDbBlockBegin
  2
*D8
 70
     1
 10
0.0
 20
0.0
 30
0.0
  3
*D8
  1

  0
LINE
  5
11E0E
330
1115B
100
AcDbEntity
  8
SUNPOU
 62
     1
100
AcDbLine
 10
-1285.5
 20
1604.0
 30
0.0
 11
-1279.994619160554
 21
1604.0
 31
0.0
  0
LINE
  5
11E0F
330
1115B
100
AcDbEntity
  8
SUNPOU
 62
     1
100
AcDbLine
 10
-1390.5
 20
1648.0
 30
0.0
 11
-1279.994619160554
 21
1648.0
 31
0.0
  0
LINE
  5
11E10
330
1115B
100
AcDbEntity
  8
SUNPOU
 62
     1
100
AcDbLine
 10
-1280.494619160554
 20
1607.0
 30
0.0
 11
-1280.494619160554
 21
1645.0
 31
0.0
  0
SOLID
  5
11E11
330
1115B
100
AcDbEntity
  8
SUNPOU
 62
     1
100
AcDbTrace
 10
-1280.994619160554
 20
1607.0
 30
0.0
 11
-1279.994619160554
 21
1607.0
 31
0.0
 12
-1280.494619160554
 22
1604.0
 32
0.0
 13
-1280.494619160554
 23
1604.0
 33
0.0
  0
SOLID
  5
11E12
330
1115B
100
AcDbEntity
  8
SUNPOU
 62
     1
100
AcDbTrace
 10
-1280.994619160554
 20
1645.0
 30
0.0
 11
-1279.994619160554
 21
1645.0
 31
0.0
 12
-1280.494619160554
 22
1648.0
 32
0.0
 13
-1280.494619160554
 23
1648.0
 33
0.0
  0
MTEXT
  5
11E13
330
1115B
100
AcDbEntity
  8
SUNPOU
 62
     1
100
AcDbMText
 10
-1283.244619160554
 20
1625.999999999999
 30
0.0
 40
3.5
 41
0.0
 71
     5
 72
     1
  1
\A1;44
  7
ゴシック体
 11
0.0000000000000001
 21
1.0
 31
0.0
  0
POINT
  5
11E14
330
1115B
100
AcDbEntity
  8
DEFPOINTS
 62
     0
100
AcDbPoint
 10
-1286.0
 20
1604.0
 30
0.0
  0
POINT
  5
11E15
330
1115B
100
AcDbEntity
  8
DEFPOINTS
 62
     0
100
AcDbPoint
 10
-1391.0
 20
1648.0
 30
0.0
  0
POINT
  5
11E16
330
1115B
100
AcDbEntity
  8
DEFPOINTS
 62
     0
100
AcDbPoint
 10
-1280.494619160554
 20
1648.0
 30
0.0
  0
ENDBLK
  5
11166
330
1115B
100
AcDbEntity
  8
0
100
AcDbBlockEnd
  0
BLOCK
  5
11174
330
11168
100
AcDbEntity
  8
0
100
AcDbBlockBegin
  2
*D9
 70
     1
 10
0.0
 20
0.0
 30
0.0
  3
*D9
  1

  0
LINE
  5
11E17
330
11168
100
AcDbEntity
  8
SUNPOU
 62
     1
100
AcDbLine
 10
-1390.5
 20
1648.0
 30
0.0
 11
-1279.994619160554
 21
1648.0
 31
0.0
  0
LINE
  5
11E18
330
11168
100
AcDbEntity
  8
SUNPOU
 62
     1
100
AcDbLine
 10
-1287.5
 20
1652.0
 30
0.0
 11
-1279.994619160554
 21
1652.0
 31
0.0
  0
LINE
  5
11E19
330
11168
100
AcDbEntity
  8
SUNPOU
 62
     1
100
AcDbLine
 10
-1280.494619160554
 20
1645.0
 30
0.0
 11
-1280.494619160554
 21
1642.0
 31
0.0
  0
LINE
  5
11E1A
330
11168
100
AcDbEntity
  8
SUNPOU
 62
     1
100
AcDbLine
 10
-1280.494619160554
 20
1655.0
 30
0.0
 11
-1280.494619160554
 21
1658.0
 31
0.0
  0
LINE
  5
11E1B
330
11168
100
AcDbEntity
  8
SUNPOU
 62
     1
100
AcDbLine
 10
-1280.494619160554
 20
1648.0
 30
0.0
 11
-1280.494619160554
 21
1652.0
 31
0.0
  0
SOLID
  5
11E1C
330
11168
100
AcDbEntity
  8
SUNPOU
 62
     1
100
AcDbTrace
 10
-1280.994619160554
 20
1645.0
 30
0.0
 11
-1279.994619160554
 21
1645.0
 31
0.0
 12
-1280.494619160554
 22
1648.0
 32
0.0
 13
-1280.494619160554
 23
1648.0
 33
0.0
  0
SOLID
  5
11E1D
330
11168
100
AcDbEntity
  8
SUNPOU
 62
     1
100
AcDbTrace
 10
-1280.994619160554
 20
1655.0
 30
0.0
 11
-1279.994619160554
 21
1655.0
 31
0.0
 12
-1280.494619160554
 22
1652.0
 32
0.0
 13
-1280.494619160554
 23
1652.0
 33
0.0
  0
MTEXT
  5
11E1E
330
11168
100
AcDbEntity
  8
SUNPOU
 62
     1
100
AcDbMText
 10
-1283.244619160554
 20
1649.999999999999
 30
0.0
 40
3.5
 41
0.0
 71
     5
 72
     1
  1
\A1;4
  7
ゴシック体
 11
0.0000000000000001
 21
1.0
 31
0.0
  0
POINT
  5
11E1F
330
11168
100
AcDbEntity
  8
DEFPOINTS
 62
     0
100
AcDbPoint
 10
-1391.0
 20
1648.0
 30
0.0
  0
POINT
  5
11E20
330
11168
100
AcDbEntity
  8
DEFPOINTS
 62
     0
100
AcDbPoint
 10
-1288.0
 20
1652.0
 30
0.0
  0
POINT
  5
11E21
330
11168
100
AcDbEntity
  8
DEFPOINTS
 62
     0
100
AcDbPoint
 10
-1280.494619160554
 20
1652.0
 30
0.0
  0
ENDBLK
  5
11175
330
11168
100
AcDbEntity
  8
0
100
AcDbBlockEnd
  0
BLOCK
  5
11253
330
11249
100
AcDbEntity
  8
0
100
AcDbBlockBegin
  2
*D10
 70
     1
 10
0.0
 20
0.0
 30
0.0
  3
*D10
  1

  0
LINE
  5
1169F
330
11249
100
AcDbEntity
  8
SUNPOU
 62
     1
100
AcDbLine
 10
-1170.0
 20
1599.5
 30
0.0
 11
-1170.0
 21
1582.179422254721
 31
0.0
  0
LINE
  5
116A0
330
11249
100
AcDbEntity
  8
SUNPOU
 62
     1
100
AcDbLine
 10
-1165.0
 20
1609.254279754652
 30
0.0
 11
-1165.0
 21
1582.179422254721
 31
0.0
  0
LINE
  5
116A1
330
11249
100
AcDbEntity
  8
SUNPOU
 62
     1
100
AcDbLine
 10
-1173.0
 20
1582.679422254721
 30
0.0
 11
-1176.0
 21
1582.679422254721
 31
0.0
  0
LINE
  5
116A2
330
11249
100
AcDbEntity
  8
SUNPOU
 62
     1
100
AcDbLine
 10
-1162.0
 20
1582.679422254721
 30
0.0
 11
-1159.0
 21
1582.679422254721
 31
0.0
  0
LINE
  5
116A3
330
11249
100
AcDbEntity
  8
SUNPOU
 62
     1
100
AcDbLine
 10
-1170.0
 20
1582.679422254721
 30
0.0
 11
-1165.0
 21
1582.679422254721
 31
0.0
  0
SOLID
  5
116A4
330
11249
100
AcDbEntity
  8
SUNPOU
 62
     1
100
AcDbTrace
 10
-1173.0
 20
1583.179422254721
 30
0.0
 11
-1173.0
 21
1582.179422254721
 31
0.0
 12
-1170.0
 22
1582.679422254721
 32
0.0
 13
-1170.0
 23
1582.679422254721
 33
0.0
  0
SOLID
  5
116A5
330
11249
100
AcDbEntity
  8
SUNPOU
 62
     1
100
AcDbTrace
 10
-1162.0
 20
1583.179422254721
 30
0.0
 11
-1162.0
 21
1582.179422254721
 31
0.0
 12
-1165.0
 22
1582.679422254721
 32
0.0
 13
-1165.0
 23
1582.679422254721
 33
0.0
  0
MTEXT
  5
116A6
330
11249
100
AcDbEntity
  8
SUNPOU
 62
     1
100
AcDbMText
 10
-1167.5
 20
1585.429422254721
 30
0.0
 40
3.5
 41
0.0
 71
     5
 72
     1
  1
\A1;5
  7
ゴシック体
1001
ACAD
1000
MTEXTBEGIN
1070
    73
1070
     1
1070
    44
1040
1.0
1070
    74
1070
     0
1000
MTEXTEND
  0
POINT
  5
116A7
330
11249
100
AcDbEntity
  8
DEFPOINTS
 62
     0
100
AcDbPoint
 10
-1170.0
 20
1600.0
 30
0.0
  0
POINT
  5
116A8
330
11249
100
AcDbEntity
  8
DEFPOINTS
 62
     0
100
AcDbPoint
 10
-1165.0
 20
1609.754279754652
 30
0.0
  0
POINT
  5
116A9
330
11249
100
AcDbEntity
  8
DEFPOINTS
 62
     0
100
AcDbPoint
 10
-1165.0
 20
1582.679422254721
 30
0.0
  0
ENDBLK
  5
11254
330
11249
100
AcDbEntity
  8
0
100
AcDbBlockEnd
  0
BLOCK
  5
11260
330
11256
100
AcDbEntity
  8
0
100
AcDbBlockBegin
  2
*D11
 70
     1
 10
0.0
 20
0.0
 30
0.0
  3
*D11
  1

  0
LINE
  5
116AA
330
11256
100
AcDbEntity
  8
SUNPOU
 62
     1
100
AcDbLine
 10
-1194.0
 20
1643.9
 30
0.0
 11
-1194.0
 21
1582.179422254721
 31
0.0
  0
LINE
  5
116AB
330
11256
100
AcDbEntity
  8
SUNPOU
 62
     1
100
AcDbLine
 10
-1170.0
 20
1599.5
 30
0.0
 11
-1170.0
 21
1582.179422254721
 31
0.0
  0
LINE
  5
116AC
330
11256
100
AcDbEntity
  8
SUNPOU
 62
     1
100
AcDbLine
 10
-1191.0
 20
1582.679422254721
 30
0.0
 11
-1173.0
 21
1582.679422254721
 31
0.0
  0
SOLID
  5
116AD
330
11256
100
AcDbEntity
  8
SUNPOU
 62
     1
100
AcDbTrace
 10
-1191.0
 20
1583.179422254721
 30
0.0
 11
-1191.0
 21
1582.179422254721
 31
0.0
 12
-1194.0
 22
1582.679422254721
 32
0.0
 13
-1194.0
 23
1582.679422254721
 33
0.0
  0
SOLID
  5
116AE
330
11256
100
AcDbEntity
  8
SUNPOU
 62
     1
100
AcDbTrace
 10
-1173.0
 20
1583.179422254721
 30
0.0
 11
-1173.0
 21
1582.179422254721
 31
0.0
 12
-1170.0
 22
1582.679422254721
 32
0.0
 13
-1170.0
 23
1582.679422254721
 33
0.0
  0
MTEXT
  5
116AF
330
11256
100
AcDbEntity
  8
SUNPOU
 62
     1
100
AcDbMText
 10
-1182.0
 20
1585.429422254721
 30
0.0
 40
3.5
 41
0.0
 71
     5
 72
     1
  1
\A1;24
  7
ゴシック体
1001
ACAD
1000
MTEXTBEGIN
1070
    73
1070
     1
1070
    44
1040
1.0
1070
    74
1070
     0
1000
MTEXTEND
  0
POINT
  5
116B0
330
11256
100
AcDbEntity
  8
DEFPOINTS
 62
     0
100
AcDbPoint
 10
-1194.0
 20
1644.4
 30
0.0
  0
POINT
  5
116B1
330
11256
100
AcDbEntity
  8
DEFPOINTS
 62
     0
100
AcDbPoint
 10
-1170.0
 20
1600.0
 30
0.0
  0
POINT
  5
116B2
330
11256
100
AcDbEntity
  8
DEFPOINTS
 62
     0
100
AcDbPoint
 10
-1170.0
 20
1582.679422254721
 30
0.0
  0
ENDBLK
  5
11261
330
11256
100
AcDbEntity
  8
0
100
AcDbBlockEnd
  0
BLOCK
  5
112E7
330
112D8
100
AcDbEntity
  8
0
100
AcDbBlockBegin
  2
*D12
 70
     1
 10
0.0
 20
0.0
 30
0.0
  3
*D12
  1

  0
LINE
  5
11E22
330
112D8
100
AcDbEntity
  8
SUNPOU
 62
     1
100
AcDbLine
 10
-1170.0
 20
1599.5
 30
0.0
 11
-1170.0
 21
1592.300198852982
 31
0.0
  0
LINE
  5
11E23
330
112D8
100
AcDbEntity
  8
SUNPOU
 62
     1
100
AcDbLine
 10
-1171.99999
 20
1599.8
 30
0.0
 11
-1171.99999
 21
1592.300198852982
 31
0.0
  0
LINE
  5
11E24
330
112D8
100
AcDbEntity
  8
SUNPOU
 62
     1
100
AcDbLine
 10
-1168.0
 20
1592.800198852982
 30
0.0
 11
-1166.0
 21
1592.800198852982
 31
0.0
  0
LINE
  5
11E25
330
112D8
100
AcDbEntity
  8
SUNPOU
 62
     1
100
AcDbLine
 10
-1173.99999
 20
1592.800198852982
 30
0.0
 11
-1175.999989999999
 21
1592.800198852982
 31
0.0
  0
MTEXT
  5
11E26
330
112D8
100
AcDbEntity
  8
SUNPOU
 62
     1
100
AcDbMText
 10
-1171.139855077199
 20
1596.426389528578
 30
0.0
 40
3.5
 41
0.0
 71
     5
 72
     1
  1
\A1;2
  7
ゴシック体
  0
LINE
  5
11E27
330
112D8
100
AcDbEntity
  8
SUNPOU
 62
     1
100
AcDbLine
 10
-1170.0
 20
1592.800198852982
 30
0.0
 11
-1171.99999
 21
1592.800198852982
 31
0.0
  0
SOLID
  5
11E28
330
112D8
100
AcDbEntity
  8
SUNPOU
 62
     1
100
AcDbTrace
 10
-1168.0
 20
1593.133532186315
 30
0.0
 11
-1168.0
 21
1592.466865519648
 31
0.0
 12
-1170.0
 22
1592.800198852982
 32
0.0
 13
-1170.0
 23
1592.800198852982
 33
0.0
  0
SOLID
  5
11E29
330
112D8
100
AcDbEntity
  8
SUNPOU
 62
     1
100
AcDbTrace
 10
-1173.99999
 20
1593.133532186315
 30
0.0
 11
-1173.99999
 21
1592.466865519648
 31
0.0
 12
-1171.99999
 22
1592.800198852982
 32
0.0
 13
-1171.99999
 23
1592.800198852982
 33
0.0
  0
POINT
  5
11E2A
330
112D8
100
AcDbEntity
  8
DEFPOINTS
 62
     0
100
AcDbPoint
 10
-1170.0
 20
1600.0
 30
0.0
  0
POINT
  5
11E2B
330
112D8
100
AcDbEntity
  8
DEFPOINTS
 62
     0
100
AcDbPoint
 10
-1171.99999
 20
1600.3
 30
0.0
  0
POINT
  5
11E2C
330
112D8
100
AcDbEntity
  8
DEFPOINTS
 62
     0
100
AcDbPoint
 10
-1171.99999
 20
1592.800198852982
 30
0.0
  0
ENDBLK
  5
112E8
330
112D8
100
AcDbEntity
  8
0
100
AcDbBlockEnd
  0
BLOCK
  5
1130B
330
11301
100
AcDbEntity
  8
0
100
AcDbBlockBegin
  2
*D13
 70
     1
 10
0.0
 20
0.0
 30
0.0
  3
*D13
  1

  0
LINE
  5
116B3
330
11301
100
AcDbEntity
  8
SUNPOU
 62
     1
100
AcDbLine
 10
-1260.000003999999
 20
1620.092580275681
 30
0.0
 11
-1260.000003999999
 21
1564.200547625372
 31
0.0
  0
LINE
  5
116B4
330
11301
100
AcDbEntity
  8
SUNPOU
 62
     1
100
AcDbLine
 10
-1170.0
 20
1599.5
 30
0.0
 11
-1170.0
 21
1564.200547625372
 31
0.0
  0
LINE
  5
116B5
330
11301
100
AcDbEntity
  8
SUNPOU
 62
     1
100
AcDbLine
 10
-1257.000003999999
 20
1564.700547625372
 30
0.0
 11
-1173.0
 21
1564.700547625372
 31
0.0
  0
SOLID
  5
116B6
330
11301
100
AcDbEntity
  8
SUNPOU
 62
     1
100
AcDbTrace
 10
-1257.000003999999
 20
1565.200547625372
 30
0.0
 11
-1257.000003999999
 21
1564.200547625372
 31
0.0
 12
-1260.000003999999
 22
1564.700547625372
 32
0.0
 13
-1260.000003999999
 23
1564.700547625372
 33
0.0
  0
SOLID
  5
116B7
330
11301
100
AcDbEntity
  8
SUNPOU
 62
     1
100
AcDbTrace
 10
-1173.0
 20
1565.200547625372
 30
0.0
 11
-1173.0
 21
1564.200547625372
 31
0.0
 12
-1170.0
 22
1564.700547625372
 32
0.0
 13
-1170.0
 23
1564.700547625372
 33
0.0
  0
MTEXT
  5
116B8
330
11301
100
AcDbEntity
  8
SUNPOU
 62
     1
100
AcDbMText
 10
-1215.000002
 20
1567.868060315727
 30
0.0
 40
3.5
 41
0.0
 71
     5
 72
     1
  1
\A1;CE-26等装着時　約90
  7
ゴシック体
1001
ACAD
1000
MTEXTBEGIN
1070
    73
1070
     1
1070
    44
1040
1.0
1070
    74
1070
     0
1000
MTEXTEND
  0
POINT
  5
116B9
330
11301
100
AcDbEntity
  8
DEFPOINTS
 62
     0
100
AcDbPoint
 10
-1260.000003999999
 20
1620.592580275681
 30
0.0
  0
POINT
  5
116BA
330
11301
100
AcDbEntity
  8
DEFPOINTS
 62
     0
100
AcDbPoint
 10
-1170.0
 20
1600.0
 30
0.0
  0
POINT
  5
116BB
330
11301
100
AcDbEntity
  8
DEFPOINTS
 62
     0
100
AcDbPoint
 10
-1170.0
 20
1564.700547625372
 30
0.0
  0
ENDBLK
  5
1130C
330
11301
100
AcDbEntity
  8
0
100
AcDbBlockEnd
  0
BLOCK
  5
11CCA
330
11CC0
100
AcDbEntity
  8
0
100
AcDbBlockBegin
  2
*D32
 70
     1
 10
0.0
 20
0.0
 30
0.0
  3
*D32
  1

  0
LINE
  5
11CC1
330
11CC0
100
AcDbEntity
  8
SUNPOU
 62
     1
100
AcDbLine
 10
-1313.5
 20
1438.5
 30
0.0
 11
-1313.5
 21
1403.703806065547
 31
0.0
  0
LINE
  5
11CC2
330
11CC0
100
AcDbEntity
  8
SUNPOU
 62
     1
100
AcDbLine
 10
-1373.499999999999
 20
1438.5
 30
0.0
 11
-1373.499999999999
 21
1403.703806065547
 31
0.0
  0
LINE
  5
11CC3
330
11CC0
100
AcDbEntity
  8
SUNPOU
 62
     1
100
AcDbLine
 10
-1316.5
 20
1404.203806065547
 30
0.0
 11
-1370.5
 21
1404.203806065547
 31
0.0
  0
SOLID
  5
11CC4
330
11CC0
100
AcDbEntity
  8
SUNPOU
 62
     1
100
AcDbTrace
 10
-1316.5
 20
1404.703806065547
 30
0.0
 11
-1316.5
 21
1403.703806065547
 31
0.0
 12
-1313.5
 22
1404.203806065547
 32
0.0
 13
-1313.5
 23
1404.203806065547
 33
0.0
  0
SOLID
  5
11CC5
330
11CC0
100
AcDbEntity
  8
SUNPOU
 62
     1
100
AcDbTrace
 10
-1370.5
 20
1404.703806065547
 30
0.0
 11
-1370.5
 21
1403.703806065547
 31
0.0
 12
-1373.499999999999
 22
1404.203806065547
 32
0.0
 13
-1373.499999999999
 23
1404.203806065547
 33
0.0
  0
MTEXT
  5
11CC6
330
11CC0
100
AcDbEntity
  8
SUNPOU
 62
     1
100
AcDbMText
 10
-1343.5
 20
1406.953806065547
 30
0.0
 40
3.5
 41
0.0
 71
     5
 72
     1
  1
\A1;60
  7
ゴシック体
1001
ACAD
1000
MTEXTBEGIN
1070
    73
1070
     1
1070
    44
1040
1.0
1070
    74
1070
     0
1000
MTEXTEND
  0
POINT
  5
11CC7
330
11CC0
100
AcDbEntity
  8
DEFPOINTS
 62
     0
100
AcDbPoint
 10
-1313.5
 20
1439.0
 30
0.0
  0
POINT
  5
11CC8
330
11CC0
100
AcDbEntity
  8
DEFPOINTS
 62
     0
100
AcDbPoint
 10
-1373.499999999999
 20
1439.0
 30
0.0
  0
POINT
  5
11CC9
330
11CC0
100
AcDbEntity
  8
DEFPOINTS
 62
     0
100
AcDbPoint
 10
-1373.499999999999
 20
1404.203806065547
 30
0.0
  0
ENDBLK
  5
11CCB
330
11CC0
100
AcDbEntity
  8
0
100
AcDbBlockEnd
  0
BLOCK
  5
11CD7
330
11CCD
100
AcDbEntity
  8
0
100
AcDbBlockBegin
  2
*D33
 70
     1
 10
0.0
 20
0.0
 30
0.0
  3
*D33
  1

  0
LINE
  5
11CCE
330
11CCD
100
AcDbEntity
  8
SUNPOU
 62
     1
100
AcDbLine
 10
-1344.0
 20
1454.0
 30
0.0
 11
-1409.960655336894
 21
1454.0
 31
0.0
  0
LINE
  5
11CCF
330
11CCD
100
AcDbEntity
  8
SUNPOU
 62
     1
100
AcDbLine
 10
-1344.0
 20
1424.0
 30
0.0
 11
-1409.960655336894
 21
1424.0
 31
0.0
  0
LINE
  5
11CD0
330
11CCD
100
AcDbEntity
  8
SUNPOU
 62
     1
100
AcDbLine
 10
-1409.460655336894
 20
1451.0
 30
0.0
 11
-1409.460655336894
 21
1427.0
 31
0.0
  0
SOLID
  5
11CD1
330
11CCD
100
AcDbEntity
  8
SUNPOU
 62
     1
100
AcDbTrace
 10
-1409.960655336894
 20
1451.0
 30
0.0
 11
-1408.960655336894
 21
1451.0
 31
0.0
 12
-1409.460655336894
 22
1454.0
 32
0.0
 13
-1409.460655336894
 23
1454.0
 33
0.0
  0
SOLID
  5
11CD2
330
11CCD
100
AcDbEntity
  8
SUNPOU
 62
     1
100
AcDbTrace
 10
-1409.960655336894
 20
1427.0
 30
0.0
 11
-1408.960655336894
 21
1427.0
 31
0.0
 12
-1409.460655336894
 22
1424.0
 32
0.0
 13
-1409.460655336894
 23
1424.0
 33
0.0
  0
MTEXT
  5
11CD3
330
11CCD
100
AcDbEntity
  8
SUNPOU
 62
     1
100
AcDbMText
 10
-1412.210655336894
 20
1439.0
 30
0.0
 40
3.5
 41
0.0
 71
     5
 72
     1
  1
\A1;30
  7
ゴシック体
 11
0.0000000000000001
 21
1.0
 31
0.0
1001
ACAD
1000
MTEXTBEGIN
1070
    73
1070
     1
1070
    44
1040
1.0
1070
    74
1070
     0
1000
MTEXTEND
  0
POINT
  5
11CD4
330
11CCD
100
AcDbEntity
  8
DEFPOINTS
 62
     0
100
AcDbPoint
 10
-1343.5
 20
1454.0
 30
0.0
  0
POINT
  5
11CD5
330
11CCD
100
AcDbEntity
  8
DEFPOINTS
 62
     0
100
AcDbPoint
 10
-1343.5
 20
1424.0
 30
0.0
  0
POINT
  5
11CD6
330
11CCD
100
AcDbEntity
  8
DEFPOINTS
 62
     0
100
AcDbPoint
 10
-1409.460655336894
 20
1424.0
 30
0.0
  0
ENDBLK
  5
11CD8
330
11CCD
100
AcDbEntity
  8
0
100
AcDbBlockEnd
  0
ENDSEC
  0
SECTION
  2
ENTITIES
  0
MTEXT
  5
5084
330
1A
100
AcDbEntity
  8
0
100
AcDbMText
 10
1985.239088685435
 20
-948.5420423450428
 30
0.0
 40
8.0
 41
0.0
 71
     7
 72
     5
  1

1001
ACAD
1000
MTEXTBEGIN
1070
    73
1070
     1
1070
    44
1040
1.0
1070
    74
1070
     0
1000
MTEXTEND
  0
MTEXT
  5
5085
330
1A
100
AcDbEntity
  8
0
100
AcDbMText
 10
4270.596778580329
 20
22.24825240601649
 30
0.0
 40
8.0
 41
0.0
 71
     7
 72
     5
  1

1001
ACAD
1000
MTEXTBEGIN
1070
    73
1070
     1
1070
    44
1040
1.0
1070
    74
1070
     0
1000
MTEXTEND
  0
MTEXT
  5
5343
330
1A
100
AcDbEntity
  8
SUNPOU
100
AcDbMText
 10
6936.493799262471
 20
9534.359644781135
 30
0.0
 40
10.5
 41
0.0
 71
     1
 72
     5
  1

1001
ACAD
1000
MTEXTBEGIN
1070
    73
1070
     1
1070
    44
1040
1.0
1070
    74
1070
     0
1000
MTEXTEND
  0
MTEXT
  5
544F
330
1A
100
AcDbEntity
  8
0
100
AcDbMText
 10
16317.2832773148
 20
12833.35428897674
 30
0.0
 40
8.0
 41
0.0
 71
     7
 72
     5
  1

1001
ACAD
1000
MTEXTBEGIN
1070
    73
1070
     1
1070
    44
1040
1.0
1070
    74
1070
     0
1000
MTEXTEND
  0
MTEXT
  5
5450
330
1A
100
AcDbEntity
  8
0
100
AcDbMText
 10
18602.64096720969
 20
13804.1445837278
 30
0.0
 40
8.0
 41
0.0
 71
     7
 72
     5
  1

1001
ACAD
1000
MTEXTBEGIN
1070
    73
1070
     1
1070
    44
1040
1.0
1070
    74
1070
     0
1000
MTEXTEND
  0
MTEXT
  5
5451
330
1A
100
AcDbEntity
  8
SUNPOU
100
AcDbMText
 10
21268.53798789184
 20
23316.25597610292
 30
0.0
 40
10.5
 41
0.0
 71
     1
 72
     5
  1

1001
ACAD
1000
MTEXTBEGIN
1070
    73
1070
     1
1070
    44
1040
1.0
1070
    74
1070
     0
1000
MTEXTEND
  0
MTEXT
  5
5452
330
1A
100
AcDbEntity
  8
SUNPOU
100
AcDbMText
 10
13337.6147919559
 20
22369.46284218996
 30
0.0
 40
10.5
 41
0.0
 71
     7
 72
     5
  1

1001
ACAD
1000
MTEXTBEGIN
1070
    73
1070
     1
1070
    44
1040
1.0
1070
    74
1070
     0
1000
MTEXTEND
  0
MTEXT
  5
5453
330
1A
100
AcDbEntity
  8
SUNPOU
100
AcDbMText
 10
16286.59845646867
 20
27270.13891403281
 30
0.0
 40
10.5
 41
0.0
 71
     7
 72
     5
  1

1001
ACAD
1000
MTEXTBEGIN
1070
    73
1070
     1
1070
    44
1040
1.0
1070
    74
1070
     0
1000
MTEXTEND
  0
MTEXT
  5
5454
330
1A
100
AcDbEntity
  8
SUNPOU
100
AcDbMText
 10
20795.67658441924
 20
29706.43966165288
 30
0.0
 40
10.5
 41
0.0
 71
     7
 72
     5
  1

1001
ACAD
1000
MTEXTBEGIN
1070
    73
1070
     1
1070
    44
1040
1.0
1070
    74
1070
     0
1000
MTEXTEND
  0
MTEXT
  5
5455
330
1A
100
AcDbEntity
  8
0
100
AcDbMText
 10
16611.93789220314
 20
14707.52144344448
 30
0.0
 40
8.0
 41
0.0
 71
     7
 72
     5
  1

1001
ACAD
1000
MTEXTBEGIN
1070
    73
1070
     1
1070
    44
1040
1.0
1070
    74
1070
     0
1000
MTEXTEND
  0
MTEXT
  5
5456
330
1A
100
AcDbEntity
  8
0
100
AcDbMText
 10
18897.29558209804
 20
15678.31173819554
 30
0.0
 40
8.0
 41
0.0
 71
     7
 72
     5
  1

1001
ACAD
1000
MTEXTBEGIN
1070
    73
1070
     1
1070
    44
1040
1.0
1070
    74
1070
     0
1000
MTEXTEND
  0
MTEXT
  5
5457
330
1A
100
AcDbEntity
  8
SUNPOU
100
AcDbMText
 10
21563.19260278019
 20
25190.42313057066
 30
0.0
 40
10.5
 41
0.0
 71
     1
 72
     5
  1

1001
ACAD
1000
MTEXTBEGIN
1070
    73
1070
     1
1070
    44
1040
1.0
1070
    74
1070
     0
1000
MTEXTEND
  0
MTEXT
  5
5458
330
1A
100
AcDbEntity
  8
SUNPOU
100
AcDbMText
 10
13632.26940684426
 20
24243.6299966577
 30
0.0
 40
10.5
 41
0.0
 71
     7
 72
     5
  1

1001
ACAD
1000
MTEXTBEGIN
1070
    73
1070
     1
1070
    44
1040
1.0
1070
    74
1070
     0
1000
MTEXTEND
  0
MTEXT
  5
5459
330
1A
100
AcDbEntity
  8
SUNPOU
100
AcDbMText
 10
16581.25307135702
 20
29144.30606850055
 30
0.0
 40
10.5
 41
0.0
 71
     7
 72
     5
  1

1001
ACAD
1000
MTEXTBEGIN
1070
    73
1070
     1
1070
    44
1040
1.0
1070
    74
1070
     0
1000
MTEXTEND
  0
MTEXT
  5
545A
330
1A
100
AcDbEntity
  8
SUNPOU
100
AcDbMText
 10
21090.33119930759
 20
31580.60681612062
 30
0.0
 40
10.5
 41
0.0
 71
     7
 72
     5
  1

1001
ACAD
1000
MTEXTBEGIN
1070
    73
1070
     1
1070
    44
1040
1.0
1070
    74
1070
     0
1000
MTEXTEND
  0
MTEXT
  5
545B
330
1A
100
AcDbEntity
  8
0
100
AcDbMText
 10
22871.60517627167
 20
23974.88367124799
 30
0.0
 40
8.0
 41
0.0
 71
     7
 72
     5
  1

1001
ACAD
1000
MTEXTBEGIN
1070
    73
1070
     1
1070
    44
1040
1.0
1070
    74
1070
     0
1000
MTEXTEND
  0
MTEXT
  5
545C
330
1A
100
AcDbEntity
  8
0
100
AcDbMText
 10
25156.96286616657
 20
24945.67396599906
 30
0.0
 40
8.0
 41
0.0
 71
     7
 72
     5
  1

1001
ACAD
1000
MTEXTBEGIN
1070
    73
1070
     1
1070
    44
1040
1.0
1070
    74
1070
     0
1000
MTEXTEND
  0
MTEXT
  5
545D
330
1A
100
AcDbEntity
  8
SUNPOU
100
AcDbMText
 10
27822.85988684871
 20
34457.78535837418
 30
0.0
 40
10.5
 41
0.0
 71
     1
 72
     5
  1

1001
ACAD
1000
MTEXTBEGIN
1070
    73
1070
     1
1070
    44
1040
1.0
1070
    74
1070
     0
1000
MTEXTEND
  0
MTEXT
  5
545E
330
1A
100
AcDbEntity
  8
SUNPOU
100
AcDbMText
 10
19891.93669091278
 20
33510.99222446122
 30
0.0
 40
10.5
 41
0.0
 71
     7
 72
     5
  1

1001
ACAD
1000
MTEXTBEGIN
1070
    73
1070
     1
1070
    44
1040
1.0
1070
    74
1070
     0
1000
MTEXTEND
  0
MTEXT
  5
545F
330
1A
100
AcDbEntity
  8
SUNPOU
100
AcDbMText
 10
22840.92035542555
 20
38411.66829630407
 30
0.0
 40
10.5
 41
0.0
 71
     7
 72
     5
  1

1001
ACAD
1000
MTEXTBEGIN
1070
    73
1070
     1
1070
    44
1040
1.0
1070
    74
1070
     0
1000
MTEXTEND
  0
MTEXT
  5
5460
330
1A
100
AcDbEntity
  8
SUNPOU
100
AcDbMText
 10
27349.99848337611
 20
40847.96904392415
 30
0.0
 40
10.5
 41
0.0
 71
     7
 72
     5
  1

1001
ACAD
1000
MTEXTBEGIN
1070
    73
1070
     1
1070
    44
1040
1.0
1070
    74
1070
     0
1000
MTEXTEND
  0
MTEXT
  5
55B7
330
1A
100
AcDbEntity
  8
SUNPOU
100
AcDbMText
 10
67424.23923338197
 20
64463.86602884816
 30
0.0
 40
10.5
 41
0.0
 71
     9
 72
     5
  1

1001
ACAD
1000
MTEXTBEGIN
1070
    73
1070
     1
1070
    44
1040
1.0
1070
    74
1070
     0
1000
MTEXTEND
  0
MTEXT
  5
55B8
330
1A
100
AcDbEntity
  8
SUNPOU
100
AcDbMText
 10
76146.40679929998
 20
71879.70056038563
 30
0.0
 40
10.5
 41
0.0
 71
     9
 72
     5
  1

1001
ACAD
1000
MTEXTBEGIN
1070
    73
1070
     1
1070
    44
1040
1.0
1070
    74
1070
     0
1000
MTEXTEND
  0
MTEXT
  5
55B9
330
1A
100
AcDbEntity
  8
SUNPOU
100
AcDbMText
 10
95100.16551662994
 20
89346.27661287766
 30
0.0
 40
10.5
 41
0.0
 71
     9
 72
     5
  1

1001
ACAD
1000
MTEXTBEGIN
1070
    73
1070
     1
1070
    44
1040
1.0
1070
    74
1070
     0
1000
MTEXTEND
  0
MTEXT
  5
55BA
330
1A
100
AcDbEntity
  8
SUNPOU
100
AcDbMText
 10
97043.57276333936
 20
87545.22753299966
 30
0.0
 40
3.5
 41
0.0
 71
     9
 72
     5
  1

1001
ACAD
1000
MTEXTBEGIN
1070
    73
1070
     1
1070
    44
1040
1.0
1070
    74
1070
     0
1000
MTEXTEND
  0
MTEXT
  5
55BB
330
1A
100
AcDbEntity
  8
SUNPOU
100
AcDbMText
 10
128169.752595959
 20
130040.1732006569
 30
0.0
 40
10.5
 41
0.0
 71
     9
 72
     5
  1

1001
ACAD
1000
MTEXTBEGIN
1070
    73
1070
     1
1070
    44
1040
1.0
1070
    74
1070
     0
1000
MTEXTEND
  0
MTEXT
  5
55BC
330
1A
100
AcDbEntity
  8
SUNPOU
100
AcDbMText
 10
130113.1598426684
 20
128239.1241207789
 30
0.0
 40
3.5
 41
0.0
 71
     9
 72
     5
  1

1001
ACAD
1000
MTEXTBEGIN
1070
    73
1070
     1
1070
    44
1040
1.0
1070
    74
1070
     0
1000
MTEXTEND
  0
MTEXT
  5
55BD
330
1A
100
AcDbEntity
  8
SUNPOU
100
AcDbMText
 10
78610.02030175463
 20
75873.33835563206
 30
0.0
 40
10.5
 41
0.0
 71
     9
 72
     5
  1

1001
ACAD
1000
MTEXTBEGIN
1070
    73
1070
     1
1070
    44
1040
1.0
1070
    74
1070
     0
1000
MTEXTEND
  0
MTEXT
  5
55BE
330
1A
100
AcDbEntity
  8
SUNPOU
100
AcDbMText
 10
64662.02020137863
 20
56700.93921651987
 30
0.0
 40
3.5
 41
0.0
 71
     7
 72
     5
  1

1001
ACAD
1000
MTEXTBEGIN
1070
    73
1070
     1
1070
    44
1040
1.0
1070
    74
1070
     0
1000
MTEXTEND
  0
MTEXT
  5
55BF
330
1A
100
AcDbEntity
  8
SUNPOU
100
AcDbMText
 10
45647.18959837178
 20
44463.08794733807
 30
0.0
 40
10.5
 41
0.0
 71
     7
 72
     5
  1

1001
ACAD
1000
MTEXTBEGIN
1070
    73
1070
     1
1070
    44
1040
1.0
1070
    74
1070
     0
1000
MTEXTEND
  0
MTEXT
  5
55C0
330
1A
100
AcDbEntity
  8
SUNPOU
100
AcDbMText
 10
33189.96133342368
 20
28618.15636923965
 30
0.0
 40
35.0
 41
0.0
 71
     9
 72
     5
  1

1001
ACAD
1000
MTEXTBEGIN
1070
    73
1070
     1
1070
    44
1040
1.0
1070
    74
1070
     0
1000
MTEXTEND
  0
MTEXT
  5
55C1
330
1A
100
AcDbEntity
  8
SUNPOU
100
AcDbMText
 10
32098.44639099864
 20
29226.93177928835
 30
0.0
 40
350.0000004171781
 41
0.0
 71
     7
 72
     5
  1

1001
ACAD
1000
MTEXTBEGIN
1070
    73
1070
     1
1070
    44
1040
1.0
1070
    74
1070
     0
1000
MTEXTEND
  0
MTEXT
  5
55C2
330
1A
100
AcDbEntity
  8
0
100
AcDbMText
 10
38142.39714894154
 20
27206.85414142458
 30
0.0
 40
8.0
 41
0.0
 71
     7
 72
     5
  1

1001
ACAD
1000
MTEXTBEGIN
1070
    73
1070
     1
1070
    44
1040
1.0
1070
    74
1070
     0
1000
MTEXTEND
  0
MTEXT
  5
55C3
330
1A
100
AcDbEntity
  8
0
100
AcDbMText
 10
40427.75483883644
 20
28177.64443617564
 30
0.0
 40
8.0
 41
0.0
 71
     7
 72
     5
  1

1001
ACAD
1000
MTEXTBEGIN
1070
    73
1070
     1
1070
    44
1040
1.0
1070
    74
1070
     0
1000
MTEXTEND
  0
MTEXT
  5
55C4
330
1A
100
AcDbEntity
  8
SUNPOU
100
AcDbMText
 10
43093.65185951858
 20
37689.75582855077
 30
0.0
 40
10.5
 41
0.0
 71
     1
 72
     5
  1

1001
ACAD
1000
MTEXTBEGIN
1070
    73
1070
     1
1070
    44
1040
1.0
1070
    74
1070
     0
1000
MTEXTEND
  0
MTEXT
  5
55C5
330
1A
100
AcDbEntity
  8
SUNPOU
100
AcDbMText
 10
35162.72866358265
 20
36742.96269463781
 30
0.0
 40
10.5
 41
0.0
 71
     7
 72
     5
  1

1001
ACAD
1000
MTEXTBEGIN
1070
    73
1070
     1
1070
    44
1040
1.0
1070
    74
1070
     0
1000
MTEXTEND
  0
MTEXT
  5
55C6
330
1A
100
AcDbEntity
  8
SUNPOU
100
AcDbMText
 10
38111.71232809542
 20
41643.63876648066
 30
0.0
 40
10.5
 41
0.0
 71
     7
 72
     5
  1

1001
ACAD
1000
MTEXTBEGIN
1070
    73
1070
     1
1070
    44
1040
1.0
1070
    74
1070
     0
1000
MTEXTEND
  0
MTEXT
  5
55C7
330
1A
100
AcDbEntity
  8
SUNPOU
100
AcDbMText
 10
42620.79045604597
 20
44079.93951410074
 30
0.0
 40
10.5
 41
0.0
 71
     7
 72
     5
  1

1001
ACAD
1000
MTEXTBEGIN
1070
    73
1070
     1
1070
    44
1040
1.0
1070
    74
1070
     0
1000
MTEXTEND
  0
MTEXT
  5
55C8
330
1A
100
AcDbEntity
  8
SUNPOU
100
AcDbMText
 10
26221.62834281429
 20
23077.53566448964
 30
0.0
 40
10.5
 41
0.0
 71
     7
 72
     5
  1

1001
ACAD
1000
MTEXTBEGIN
1070
    73
1070
     1
1070
    44
1040
1.0
1070
    74
1070
     0
1000
MTEXTEND
  0
MTEXT
  5
55C9
330
1A
100
AcDbEntity
  8
SUNPOU
100
AcDbMText
 10
77413.14677671455
 20
68750.51622813789
 30
0.0
 40
10.5
 41
0.0
 71
     9
 72
     5
  1

1001
ACAD
1000
MTEXTBEGIN
1070
    73
1070
     1
1070
    44
1040
1.0
1070
    74
1070
     0
1000
MTEXTEND
  0
MTEXT
  5
55CA
330
1A
100
AcDbEntity
  8
SUNPOU
100
AcDbMText
 10
86135.31434263256
 20
76166.35075967536
 30
0.0
 40
10.5
 41
0.0
 71
     9
 72
     5
  1

1001
ACAD
1000
MTEXTBEGIN
1070
    73
1070
     1
1070
    44
1040
1.0
1070
    74
1070
     0
1000
MTEXTEND
  0
MTEXT
  5
55CB
330
1A
100
AcDbEntity
  8
SUNPOU
100
AcDbMText
 10
105089.0730599625
 20
93632.92681216739
 30
0.0
 40
10.5
 41
0.0
 71
     9
 72
     5
  1

1001
ACAD
1000
MTEXTBEGIN
1070
    73
1070
     1
1070
    44
1040
1.0
1070
    74
1070
     0
1000
MTEXTEND
  0
MTEXT
  5
55CC
330
1A
100
AcDbEntity
  8
SUNPOU
100
AcDbMText
 10
107032.4803066719
 20
91831.8777322894
 30
0.0
 40
3.5
 41
0.0
 71
     9
 72
     5
  1

1001
ACAD
1000
MTEXTBEGIN
1070
    73
1070
     1
1070
    44
1040
1.0
1070
    74
1070
     0
1000
MTEXTEND
  0
MTEXT
  5
55CD
330
1A
100
AcDbEntity
  8
SUNPOU
100
AcDbMText
 10
138158.6601392916
 20
134326.8233999467
 30
0.0
 40
10.5
 41
0.0
 71
     9
 72
     5
  1

1001
ACAD
1000
MTEXTBEGIN
1070
    73
1070
     1
1070
    44
1040
1.0
1070
    74
1070
     0
1000
MTEXTEND
  0
MTEXT
  5
55CE
330
1A
100
AcDbEntity
  8
SUNPOU
100
AcDbMText
 10
140102.067386001
 20
132525.7743200686
 30
0.0
 40
3.5
 41
0.0
 71
     9
 72
     5
  1

1001
ACAD
1000
MTEXTBEGIN
1070
    73
1070
     1
1070
    44
1040
1.0
1070
    74
1070
     0
1000
MTEXTEND
  0
MTEXT
  5
55CF
330
1A
100
AcDbEntity
  8
SUNPOU
100
AcDbMText
 10
88598.92784508721
 20
80159.98855492179
 30
0.0
 40
10.5
 41
0.0
 71
     9
 72
     5
  1

1001
ACAD
1000
MTEXTBEGIN
1070
    73
1070
     1
1070
    44
1040
1.0
1070
    74
1070
     0
1000
MTEXTEND
  0
MTEXT
  5
55D0
330
1A
100
AcDbEntity
  8
SUNPOU
100
AcDbMText
 10
74650.92774471121
 20
60987.5894158096
 30
0.0
 40
3.5
 41
0.0
 71
     7
 72
     5
  1

1001
ACAD
1000
MTEXTBEGIN
1070
    73
1070
     1
1070
    44
1040
1.0
1070
    74
1070
     0
1000
MTEXTEND
  0
MTEXT
  5
55D1
330
1A
100
AcDbEntity
  8
SUNPOU
100
AcDbMText
 10
55636.09714170436
 20
48749.73814662781
 30
0.0
 40
10.5
 41
0.0
 71
     7
 72
     5
  1

1001
ACAD
1000
MTEXTBEGIN
1070
    73
1070
     1
1070
    44
1040
1.0
1070
    74
1070
     0
1000
MTEXTEND
  0
MTEXT
  5
55D2
330
1A
100
AcDbEntity
  8
SUNPOU
100
AcDbMText
 10
43178.86887675626
 20
32904.80656852938
 30
0.0
 40
35.0
 41
0.0
 71
     9
 72
     5
  1

1001
ACAD
1000
MTEXTBEGIN
1070
    73
1070
     1
1070
    44
1040
1.0
1070
    74
1070
     0
1000
MTEXTEND
  0
MTEXT
  5
55D3
330
1A
100
AcDbEntity
  8
SUNPOU
100
AcDbMText
 10
42087.35393433121
 20
33513.58197857809
 30
0.0
 40
350.0000004171781
 41
0.0
 71
     7
 72
     5
  1

1001
ACAD
1000
MTEXTBEGIN
1070
    73
1070
     1
1070
    44
1040
1.0
1070
    74
1070
     0
1000
MTEXTEND
  0
MTEXT
  5
55D4
330
1A
100
AcDbEntity
  8
0
100
AcDbMText
 10
48131.30469227412
 20
31493.50434071431
 30
0.0
 40
8.0
 41
0.0
 71
     7
 72
     5
  1

1001
ACAD
1000
MTEXTBEGIN
1070
    73
1070
     1
1070
    44
1040
1.0
1070
    74
1070
     0
1000
MTEXTEND
  0
MTEXT
  5
55D5
330
1A
100
AcDbEntity
  8
0
100
AcDbMText
 10
50416.66238216901
 20
32464.29463546537
 30
0.0
 40
8.0
 41
0.0
 71
     7
 72
     5
  1

1001
ACAD
1000
MTEXTBEGIN
1070
    73
1070
     1
1070
    44
1040
1.0
1070
    74
1070
     0
1000
MTEXTEND
  0
MTEXT
  5
55D6
330
1A
100
AcDbEntity
  8
SUNPOU
100
AcDbMText
 10
53082.55940285115
 20
41976.4060278405
 30
0.0
 40
10.5
 41
0.0
 71
     1
 72
     5
  1

1001
ACAD
1000
MTEXTBEGIN
1070
    73
1070
     1
1070
    44
1040
1.0
1070
    74
1070
     0
1000
MTEXTEND
  0
MTEXT
  5
55D7
330
1A
100
AcDbEntity
  8
SUNPOU
100
AcDbMText
 10
45151.63620691522
 20
41029.61289392755
 30
0.0
 40
10.5
 41
0.0
 71
     7
 72
     5
  1

1001
ACAD
1000
MTEXTBEGIN
1070
    73
1070
     1
1070
    44
1040
1.0
1070
    74
1070
     0
1000
MTEXTEND
  0
MTEXT
  5
55D8
330
1A
100
AcDbEntity
  8
SUNPOU
100
AcDbMText
 10
48100.61987142798
 20
45930.28896577039
 30
0.0
 40
10.5
 41
0.0
 71
     7
 72
     5
  1

1001
ACAD
1000
MTEXTBEGIN
1070
    73
1070
     1
1070
    44
1040
1.0
1070
    74
1070
     0
1000
MTEXTEND
  0
MTEXT
  5
55D9
330
1A
100
AcDbEntity
  8
SUNPOU
100
AcDbMText
 10
52609.69799937854
 20
48366.58971339046
 30
0.0
 40
10.5
 41
0.0
 71
     7
 72
     5
  1

1001
ACAD
1000
MTEXTBEGIN
1070
    73
1070
     1
1070
    44
1040
1.0
1070
    74
1070
     0
1000
MTEXTEND
  0
MTEXT
  5
55DA
330
1A
100
AcDbEntity
  8
SUNPOU
100
AcDbMText
 10
36210.53588614687
 20
27364.18586377937
 30
0.0
 40
10.5
 41
0.0
 71
     7
 72
     5
  1

1001
ACAD
1000
MTEXTBEGIN
1070
    73
1070
     1
1070
    44
1040
1.0
1070
    74
1070
     0
1000
MTEXTEND
  0
MTEXT
  5
55DB
330
1A
100
AcDbEntity
  8
SUNPOU
100
AcDbMText
 10
38021.29879752181
 20
33691.59985125794
 30
0.0
 40
10.5
 41
0.0
 71
     9
 72
     5
  1

1001
ACAD
1000
MTEXTBEGIN
1070
    73
1070
     1
1070
    44
1040
1.0
1070
    74
1070
     0
1000
MTEXTEND
  0
MTEXT
  5
55DC
330
1A
100
AcDbEntity
  8
SUNPOU
100
AcDbMText
 10
46743.46636343979
 20
41107.43438279541
 30
0.0
 40
10.5
 41
0.0
 71
     9
 72
     5
  1

1001
ACAD
1000
MTEXTBEGIN
1070
    73
1070
     1
1070
    44
1040
1.0
1070
    74
1070
     0
1000
MTEXTEND
  0
MTEXT
  5
55DD
330
1A
100
AcDbEntity
  8
SUNPOU
100
AcDbMText
 10
65697.22508076975
 20
58574.01043528746
 30
0.0
 40
10.5
 41
0.0
 71
     9
 72
     5
  1

1001
ACAD
1000
MTEXTBEGIN
1070
    73
1070
     1
1070
    44
1040
1.0
1070
    74
1070
     0
1000
MTEXTEND
  0
MTEXT
  5
55DE
330
1A
100
AcDbEntity
  8
SUNPOU
100
AcDbMText
 10
67640.63232747917
 20
56772.96135540945
 30
0.0
 40
3.5
 41
0.0
 71
     9
 72
     5
  1

1001
ACAD
1000
MTEXTBEGIN
1070
    73
1070
     1
1070
    44
1040
1.0
1070
    74
1070
     0
1000
MTEXTEND
  0
MTEXT
  5
55DF
330
1A
100
AcDbEntity
  8
SUNPOU
100
AcDbMText
 10
98766.81216009888
 20
99267.9070230668
 30
0.0
 40
10.5
 41
0.0
 71
     9
 72
     5
  1

1001
ACAD
1000
MTEXTBEGIN
1070
    73
1070
     1
1070
    44
1040
1.0
1070
    74
1070
     0
1000
MTEXTEND
  0
MTEXT
  5
55E0
330
1A
100
AcDbEntity
  8
SUNPOU
100
AcDbMText
 10
100710.2194068083
 20
97466.85794318878
 30
0.0
 40
3.5
 41
0.0
 71
     9
 72
     5
  1

1001
ACAD
1000
MTEXTBEGIN
1070
    73
1070
     1
1070
    44
1040
1.0
1070
    74
1070
     0
1000
MTEXTEND
  0
MTEXT
  5
55E1
330
1A
100
AcDbEntity
  8
SUNPOU
100
AcDbMText
 10
49207.07986589444
 20
45101.07217804185
 30
0.0
 40
10.5
 41
0.0
 71
     9
 72
     5
  1

1001
ACAD
1000
MTEXTBEGIN
1070
    73
1070
     1
1070
    44
1040
1.0
1070
    74
1070
     0
1000
MTEXTEND
  0
MTEXT
  5
55E2
330
1A
100
AcDbEntity
  8
SUNPOU
100
AcDbMText
 10
35259.07976551845
 20
25928.67303892964
 30
0.0
 40
3.5
 41
0.0
 71
     7
 72
     5
  1

1001
ACAD
1000
MTEXTBEGIN
1070
    73
1070
     1
1070
    44
1040
1.0
1070
    74
1070
     0
1000
MTEXTEND
  0
MTEXT
  5
55E3
330
1A
100
AcDbEntity
  8
SUNPOU
100
AcDbMText
 10
48951.43044828905
 20
35287.73625995099
 30
0.0
 40
10.5
 41
0.0
 71
     9
 72
     5
  1

1001
ACAD
1000
MTEXTBEGIN
1070
    73
1070
     1
1070
    44
1040
1.0
1070
    74
1070
     0
1000
MTEXTEND
  0
MTEXT
  5
55E4
330
1A
100
AcDbEntity
  8
SUNPOU
100
AcDbMText
 10
57673.59801420702
 20
42703.57079148847
 30
0.0
 40
10.5
 41
0.0
 71
     9
 72
     5
  1

1001
ACAD
1000
MTEXTBEGIN
1070
    73
1070
     1
1070
    44
1040
1.0
1070
    74
1070
     0
1000
MTEXTEND
  0
MTEXT
  5
55E5
330
1A
100
AcDbEntity
  8
SUNPOU
100
AcDbMText
 10
76627.35673153699
 20
60170.14684398051
 30
0.0
 40
10.5
 41
0.0
 71
     9
 72
     5
  1

1001
ACAD
1000
MTEXTBEGIN
1070
    73
1070
     1
1070
    44
1040
1.0
1070
    74
1070
     0
1000
MTEXTEND
  0
MTEXT
  5
55E6
330
1A
100
AcDbEntity
  8
SUNPOU
100
AcDbMText
 10
78570.76397824641
 20
58369.09776410251
 30
0.0
 40
3.5
 41
0.0
 71
     9
 72
     5
  1

1001
ACAD
1000
MTEXTBEGIN
1070
    73
1070
     1
1070
    44
1040
1.0
1070
    74
1070
     0
1000
MTEXTEND
  0
MTEXT
  5
55E7
330
1A
100
AcDbEntity
  8
SUNPOU
100
AcDbMText
 10
109696.9438108661
 20
100864.0434317598
 30
0.0
 40
10.5
 41
0.0
 71
     9
 72
     5
  1

1001
ACAD
1000
MTEXTBEGIN
1070
    73
1070
     1
1070
    44
1040
1.0
1070
    74
1070
     0
1000
MTEXTEND
  0
MTEXT
  5
55E8
330
1A
100
AcDbEntity
  8
SUNPOU
100
AcDbMText
 10
111640.3510575755
 20
99062.99435188183
 30
0.0
 40
3.5
 41
0.0
 71
     9
 72
     5
  1

1001
ACAD
1000
MTEXTBEGIN
1070
    73
1070
     1
1070
    44
1040
1.0
1070
    74
1070
     0
1000
MTEXTEND
  0
MTEXT
  5
55E9
330
1A
100
AcDbEntity
  8
SUNPOU
100
AcDbMText
 10
60137.21151666167
 20
46697.20858673491
 30
0.0
 40
10.5
 41
0.0
 71
     9
 72
     5
  1

1001
ACAD
1000
MTEXTBEGIN
1070
    73
1070
     1
1070
    44
1040
1.0
1070
    74
1070
     0
1000
MTEXTEND
  0
MTEXT
  5
55EA
330
1A
100
AcDbEntity
  8
SUNPOU
100
AcDbMText
 10
46189.21141628568
 20
27524.80944762269
 30
0.0
 40
3.5
 41
0.0
 71
     7
 72
     5
  1

1001
ACAD
1000
MTEXTBEGIN
1070
    73
1070
     1
1070
    44
1040
1.0
1070
    74
1070
     0
1000
MTEXTEND
  0
MTEXT
  5
55EB
330
1A
100
AcDbEntity
  8
SUNPOU
100
AcDbMText
 10
45007.68847015541
 20
38269.57947701874
 30
0.0
 40
10.5
 41
0.0
 71
     9
 72
     5
  1

1001
ACAD
1000
MTEXTBEGIN
1070
    73
1070
     1
1070
    44
1040
1.0
1070
    74
1070
     0
1000
MTEXTEND
  0
MTEXT
  5
55EC
330
1A
100
AcDbEntity
  8
SUNPOU
100
AcDbMText
 10
63961.44718748539
 20
55736.15552951081
 30
0.0
 40
10.5
 41
0.0
 71
     9
 72
     5
  1

1001
ACAD
1000
MTEXTBEGIN
1070
    73
1070
     1
1070
    44
1040
1.0
1070
    74
1070
     0
1000
MTEXTEND
  0
MTEXT
  5
55ED
330
1A
100
AcDbEntity
  8
SUNPOU
100
AcDbMText
 10
65904.85443419479
 20
53935.10644963279
 30
0.0
 40
3.5
 41
0.0
 71
     9
 72
     5
  1

1001
ACAD
1000
MTEXTBEGIN
1070
    73
1070
     1
1070
    44
1040
1.0
1070
    74
1070
     0
1000
MTEXTEND
  0
MTEXT
  5
55EE
330
1A
100
AcDbEntity
  8
SUNPOU
100
AcDbMText
 10
97031.03426681451
 20
96430.05211729015
 30
0.0
 40
10.5
 41
0.0
 71
     9
 72
     5
  1

1001
ACAD
1000
MTEXTBEGIN
1070
    73
1070
     1
1070
    44
1040
1.0
1070
    74
1070
     0
1000
MTEXTEND
  0
MTEXT
  5
55EF
330
1A
100
AcDbEntity
  8
SUNPOU
100
AcDbMText
 10
98974.44151352393
 20
94629.00303741212
 30
0.0
 40
3.5
 41
0.0
 71
     9
 72
     5
  1

1001
ACAD
1000
MTEXTBEGIN
1070
    73
1070
     1
1070
    44
1040
1.0
1070
    74
1070
     0
1000
MTEXTEND
  0
MTEXT
  5
55F0
330
1A
100
AcDbEntity
  8
SUNPOU
100
AcDbMText
 10
47471.30197261006
 20
42263.21727226519
 30
0.0
 40
10.5
 41
0.0
 71
     9
 72
     5
  1

1001
ACAD
1000
MTEXTBEGIN
1070
    73
1070
     1
1070
    44
1040
1.0
1070
    74
1070
     0
1000
MTEXTEND
  0
MTEXT
  5
55F1
330
1A
100
AcDbEntity
  8
SUNPOU
100
AcDbMText
 10
33523.30187223408
 20
23090.81813315298
 30
0.0
 40
3.5
 41
0.0
 71
     7
 72
     5
  1

1001
ACAD
1000
MTEXTBEGIN
1070
    73
1070
     1
1070
    44
1040
1.0
1070
    74
1070
     0
1000
MTEXTEND
  0
MTEXT
  5
55F2
330
1A
100
AcDbEntity
  8
SUNPOU
100
AcDbMText
 10
57959.46254102503
 20
50038.08111611015
 30
0.0
 40
10.5
 41
0.0
 71
     9
 72
     5
  1

1001
ACAD
1000
MTEXTBEGIN
1070
    73
1070
     1
1070
    44
1040
1.0
1070
    74
1070
     0
1000
MTEXTEND
  0
MTEXT
  5
55F3
330
1A
100
AcDbEntity
  8
SUNPOU
100
AcDbMText
 10
76913.22125835503
 20
67504.65716860222
 30
0.0
 40
10.5
 41
0.0
 71
     9
 72
     5
  1

1001
ACAD
1000
MTEXTBEGIN
1070
    73
1070
     1
1070
    44
1040
1.0
1070
    74
1070
     0
1000
MTEXTEND
  0
MTEXT
  5
55F4
330
1A
100
AcDbEntity
  8
SUNPOU
100
AcDbMText
 10
78856.62850506443
 20
65703.6080887242
 30
0.0
 40
3.5
 41
0.0
 71
     9
 72
     5
  1

1001
ACAD
1000
MTEXTBEGIN
1070
    73
1070
     1
1070
    44
1040
1.0
1070
    74
1070
     0
1000
MTEXTEND
  0
MTEXT
  5
55F5
330
1A
100
AcDbEntity
  8
SUNPOU
100
AcDbMText
 10
109982.8083376841
 20
108198.5537563815
 30
0.0
 40
10.5
 41
0.0
 71
     9
 72
     5
  1

1001
ACAD
1000
MTEXTBEGIN
1070
    73
1070
     1
1070
    44
1040
1.0
1070
    74
1070
     0
1000
MTEXTEND
  0
MTEXT
  5
55F6
330
1A
100
AcDbEntity
  8
SUNPOU
100
AcDbMText
 10
111926.2155843935
 20
106397.5046765035
 30
0.0
 40
3.5
 41
0.0
 71
     9
 72
     5
  1

1001
ACAD
1000
MTEXTBEGIN
1070
    73
1070
     1
1070
    44
1040
1.0
1070
    74
1070
     0
1000
MTEXTEND
  0
MTEXT
  5
55F7
330
1A
100
AcDbEntity
  8
SUNPOU
100
AcDbMText
 10
60423.07604347968
 20
54031.71891135659
 30
0.0
 40
10.5
 41
0.0
 71
     9
 72
     5
  1

1001
ACAD
1000
MTEXTBEGIN
1070
    73
1070
     1
1070
    44
1040
1.0
1070
    74
1070
     0
1000
MTEXTEND
  0
MTEXT
  5
55F8
330
1A
100
AcDbEntity
  8
SUNPOU
100
AcDbMText
 10
46475.07594310369
 20
34859.3197722444
 30
0.0
 40
3.5
 41
0.0
 71
     7
 72
     5
  1

1001
ACAD
1000
MTEXTBEGIN
1070
    73
1070
     1
1070
    44
1040
1.0
1070
    74
1070
     0
1000
MTEXTEND
  0
MTEXT
  5
55F9
330
1A
100
AcDbEntity
  8
SUNPOU
100
AcDbMText
 10
74027.35402123588
 20
68370.58278833383
 30
0.0
 40
10.5
 41
0.0
 71
     9
 72
     5
  1

1001
ACAD
1000
MTEXTBEGIN
1070
    73
1070
     1
1070
    44
1040
1.0
1070
    74
1070
     0
1000
MTEXTEND
  0
MTEXT
  5
55FA
330
1A
100
AcDbEntity
  8
SUNPOU
100
AcDbMText
 10
75970.7612679453
 20
66569.53370845583
 30
0.0
 40
3.5
 41
0.0
 71
     9
 72
     5
  1

1001
ACAD
1000
MTEXTBEGIN
1070
    73
1070
     1
1070
    44
1040
1.0
1070
    74
1070
     0
1000
MTEXTEND
  0
MTEXT
  5
55FB
330
1A
100
AcDbEntity
  8
SUNPOU
100
AcDbMText
 10
107096.941100565
 20
109064.4793761132
 30
0.0
 40
10.5
 41
0.0
 71
     9
 72
     5
  1

1001
ACAD
1000
MTEXTBEGIN
1070
    73
1070
     1
1070
    44
1040
1.0
1070
    74
1070
     0
1000
MTEXTEND
  0
MTEXT
  5
55FC
330
1A
100
AcDbEntity
  8
SUNPOU
100
AcDbMText
 10
109040.3483472744
 20
107263.4302962351
 30
0.0
 40
3.5
 41
0.0
 71
     9
 72
     5
  1

1001
ACAD
1000
MTEXTBEGIN
1070
    73
1070
     1
1070
    44
1040
1.0
1070
    74
1070
     0
1000
MTEXTEND
  0
MTEXT
  5
55FD
330
1A
100
AcDbEntity
  8
SUNPOU
100
AcDbMText
 10
105709.1709283621
 20
108141.3777665285
 30
0.0
 40
10.5
 41
0.0
 71
     9
 72
     5
  1

1001
ACAD
1000
MTEXTBEGIN
1070
    73
1070
     1
1070
    44
1040
1.0
1070
    74
1070
     0
1000
MTEXTEND
  0
MTEXT
  5
55FE
330
1A
100
AcDbEntity
  8
SUNPOU
100
AcDbMText
 10
107652.5781750715
 20
106340.3286866505
 30
0.0
 40
3.5
 41
0.0
 71
     9
 72
     5
  1

1001
ACAD
1000
MTEXTBEGIN
1070
    73
1070
     1
1070
    44
1040
1.0
1070
    74
1070
     0
1000
MTEXTEND
  0
MTEXT
  5
55FF
330
1A
100
AcDbEntity
  8
SUNPOU
100
AcDbMText
 10
73193.09268743351
 20
66158.78082845056
 30
0.0
 40
10.5
 41
0.0
 71
     9
 72
     5
  1

1001
ACAD
1000
MTEXTBEGIN
1070
    73
1070
     1
1070
    44
1040
1.0
1070
    74
1070
     0
1000
MTEXTEND
  0
MTEXT
  5
5600
330
1A
100
AcDbEntity
  8
SUNPOU
100
AcDbMText
 10
75916.39889159806
 20
66563.46252003162
 30
0.0
 40
3.5
 41
0.0
 71
     9
 72
     5
  1

1001
ACAD
1000
MTEXTBEGIN
1070
    73
1070
     1
1070
    44
1040
1.0
1070
    74
1070
     0
1000
MTEXTEND
  0
MTEXT
  5
5601
330
1A
100
AcDbEntity
  8
SUNPOU
100
AcDbMText
 10
75124.04436649058
 20
63402.1566819768
 30
0.0
 40
10.5
 41
0.0
 71
     9
 72
     5
  1

1001
ACAD
1000
MTEXTBEGIN
1070
    73
1070
     1
1070
    44
1040
1.0
1070
    74
1070
     0
1000
MTEXTEND
  0
MTEXT
  5
5602
330
1A
100
AcDbEntity
  8
SUNPOU
100
AcDbMText
 10
77067.4516132
 20
61601.1076020988
 30
0.0
 40
3.5
 41
0.0
 71
     9
 72
     5
  1

1001
ACAD
1000
MTEXTBEGIN
1070
    73
1070
     1
1070
    44
1040
1.0
1070
    74
1070
     0
1000
MTEXTEND
  0
MTEXT
  5
5603
330
1A
100
AcDbEntity
  8
SUNPOU
100
AcDbMText
 10
77012.54710378659
 20
61488.33571981449
 30
0.0
 40
3.5
 41
0.0
 71
     9
 72
     5
  1

1001
ACAD
1000
MTEXTBEGIN
1070
    73
1070
     1
1070
    44
1040
1.0
1070
    74
1070
     0
1000
MTEXTEND
  0
MTEXT
  5
5604
330
1A
100
AcDbEntity
  8
SUNPOU
100
AcDbMText
 10
76376.61896736668
 20
60677.01447874797
 30
0.0
 40
3.5
 41
0.0
 71
     9
 72
     5
  1

1001
ACAD
1000
MTEXTBEGIN
1070
    73
1070
     1
1070
    44
1040
1.0
1070
    74
1070
     0
1000
MTEXTEND
  0
MTEXT
  5
5605
330
1A
100
AcDbEntity
  8
SUNPOU
100
AcDbMText
 10
76375.37854794595
 20
60676.76650181047
 30
0.0
 40
10.5
 41
0.0
 71
     9
 72
     5
  1

1001
ACAD
1000
MTEXTBEGIN
1070
    73
1070
     1
1070
    44
1040
1.0
1070
    74
1070
     0
1000
MTEXTEND
  0
MTEXT
  5
5606
330
1A
100
AcDbEntity
  8
SUNPOU
100
AcDbMText
 10
84709.93991079748
 20
78034.0328293557
 30
0.0
 40
10.5
 41
0.0
 71
     9
 72
     5
  1

1001
ACAD
1000
MTEXTBEGIN
1070
    73
1070
     1
1070
    44
1040
1.0
1070
    74
1070
     0
1000
MTEXTEND
  0
MTEXT
  5
5607
330
1A
100
AcDbEntity
  8
SUNPOU
100
AcDbMText
 10
93432.10747671548
 20
85449.86736089315
 30
0.0
 40
10.5
 41
0.0
 71
     9
 72
     5
  1

1001
ACAD
1000
MTEXTBEGIN
1070
    73
1070
     1
1070
    44
1040
1.0
1070
    74
1070
     0
1000
MTEXTEND
  0
MTEXT
  5
5608
330
1A
100
AcDbEntity
  8
SUNPOU
100
AcDbMText
 10
112385.8661940454
 20
102916.4434133851
 30
0.0
 40
10.5
 41
0.0
 71
     9
 72
     5
  1

1001
ACAD
1000
MTEXTBEGIN
1070
    73
1070
     1
1070
    44
1040
1.0
1070
    74
1070
     0
1000
MTEXTEND
  0
MTEXT
  5
5609
330
1A
100
AcDbEntity
  8
SUNPOU
100
AcDbMText
 10
114329.2734407548
 20
101115.3943335072
 30
0.0
 40
3.5
 41
0.0
 71
     9
 72
     5
  1

1001
ACAD
1000
MTEXTBEGIN
1070
    73
1070
     1
1070
    44
1040
1.0
1070
    74
1070
     0
1000
MTEXTEND
  0
MTEXT
  5
560A
330
1A
100
AcDbEntity
  8
SUNPOU
100
AcDbMText
 10
145455.4532733745
 20
143610.3400011645
 30
0.0
 40
10.5
 41
0.0
 71
     9
 72
     5
  1

1001
ACAD
1000
MTEXTBEGIN
1070
    73
1070
     1
1070
    44
1040
1.0
1070
    74
1070
     0
1000
MTEXTEND
  0
MTEXT
  5
560B
330
1A
100
AcDbEntity
  8
SUNPOU
100
AcDbMText
 10
147398.8605200839
 20
141809.2909212864
 30
0.0
 40
3.5
 41
0.0
 71
     9
 72
     5
  1

1001
ACAD
1000
MTEXTBEGIN
1070
    73
1070
     1
1070
    44
1040
1.0
1070
    74
1070
     0
1000
MTEXTEND
  0
MTEXT
  5
560C
330
1A
100
AcDbEntity
  8
SUNPOU
100
AcDbMText
 10
95895.72097917013
 20
89443.5051561396
 30
0.0
 40
10.5
 41
0.0
 71
     9
 72
     5
  1

1001
ACAD
1000
MTEXTBEGIN
1070
    73
1070
     1
1070
    44
1040
1.0
1070
    74
1070
     0
1000
MTEXTEND
  0
MTEXT
  5
560D
330
1A
100
AcDbEntity
  8
SUNPOU
100
AcDbMText
 10
81947.72087879414
 20
70271.1060170274
 30
0.0
 40
3.5
 41
0.0
 71
     7
 72
     5
  1

1001
ACAD
1000
MTEXTBEGIN
1070
    73
1070
     1
1070
    44
1040
1.0
1070
    74
1070
     0
1000
MTEXTEND
  0
MTEXT
  5
560E
330
1A
100
AcDbEntity
  8
SUNPOU
100
AcDbMText
 10
62932.89027578729
 20
58033.25474784561
 30
0.0
 40
10.5
 41
0.0
 71
     7
 72
     5
  1

1001
ACAD
1000
MTEXTBEGIN
1070
    73
1070
     1
1070
    44
1040
1.0
1070
    74
1070
     0
1000
MTEXTEND
  0
MTEXT
  5
560F
330
1A
100
AcDbEntity
  8
SUNPOU
100
AcDbMText
 10
50475.66201083918
 20
42188.32316974719
 30
0.0
 40
35.0
 41
0.0
 71
     9
 72
     5
  1

1001
ACAD
1000
MTEXTBEGIN
1070
    73
1070
     1
1070
    44
1040
1.0
1070
    74
1070
     0
1000
MTEXTEND
  0
MTEXT
  5
5610
330
1A
100
AcDbEntity
  8
SUNPOU
100
AcDbMText
 10
49384.14706841413
 20
42797.0985797959
 30
0.0
 40
350.0000004171781
 41
0.0
 71
     7
 72
     5
  1

1001
ACAD
1000
MTEXTBEGIN
1070
    73
1070
     1
1070
    44
1040
1.0
1070
    74
1070
     0
1000
MTEXTEND
  0
MTEXT
  5
5611
330
1A
100
AcDbEntity
  8
0
100
AcDbMText
 10
55428.09782635704
 20
40777.02094193211
 30
0.0
 40
8.0
 41
0.0
 71
     7
 72
     5
  1

1001
ACAD
1000
MTEXTBEGIN
1070
    73
1070
     1
1070
    44
1040
1.0
1070
    74
1070
     0
1000
MTEXTEND
  0
MTEXT
  5
5612
330
1A
100
AcDbEntity
  8
0
100
AcDbMText
 10
57713.45551625194
 20
41747.81123668317
 30
0.0
 40
8.0
 41
0.0
 71
     7
 72
     5
  1

1001
ACAD
1000
MTEXTBEGIN
1070
    73
1070
     1
1070
    44
1040
1.0
1070
    74
1070
     0
1000
MTEXTEND
  0
MTEXT
  5
5613
330
1A
100
AcDbEntity
  8
SUNPOU
100
AcDbMText
 10
60379.35253693408
 20
51259.9226290583
 30
0.0
 40
10.5
 41
0.0
 71
     1
 72
     5
  1

1001
ACAD
1000
MTEXTBEGIN
1070
    73
1070
     1
1070
    44
1040
1.0
1070
    74
1070
     0
1000
MTEXTEND
  0
MTEXT
  5
5614
330
1A
100
AcDbEntity
  8
SUNPOU
100
AcDbMText
 10
52448.42934099814
 20
50313.12949514535
 30
0.0
 40
10.5
 41
0.0
 71
     7
 72
     5
  1

1001
ACAD
1000
MTEXTBEGIN
1070
    73
1070
     1
1070
    44
1040
1.0
1070
    74
1070
     0
1000
MTEXTEND
  0
MTEXT
  5
5615
330
1A
100
AcDbEntity
  8
SUNPOU
100
AcDbMText
 10
55397.41300551091
 20
55213.80556698819
 30
0.0
 40
10.5
 41
0.0
 71
     7
 72
     5
  1

1001
ACAD
1000
MTEXTBEGIN
1070
    73
1070
     1
1070
    44
1040
1.0
1070
    74
1070
     0
1000
MTEXTEND
  0
MTEXT
  5
5616
330
1A
100
AcDbEntity
  8
SUNPOU
100
AcDbMText
 10
59906.49113346147
 20
57650.10631460826
 30
0.0
 40
10.5
 41
0.0
 71
     7
 72
     5
  1

1001
ACAD
1000
MTEXTBEGIN
1070
    73
1070
     1
1070
    44
1040
1.0
1070
    74
1070
     0
1000
MTEXTEND
  0
MTEXT
  5
5617
330
1A
100
AcDbEntity
  8
SUNPOU
100
AcDbMText
 10
43507.32902022979
 20
36647.70246499718
 30
0.0
 40
10.5
 41
0.0
 71
     7
 72
     5
  1

1001
ACAD
1000
MTEXTBEGIN
1070
    73
1070
     1
1070
    44
1040
1.0
1070
    74
1070
     0
1000
MTEXTEND
  0
MTEXT
  5
5618
330
1A
100
AcDbEntity
  8
SUNPOU
100
AcDbMText
 10
94698.84745413006
 20
82320.68302864542
 30
0.0
 40
10.5
 41
0.0
 71
     9
 72
     5
  1

1001
ACAD
1000
MTEXTBEGIN
1070
    73
1070
     1
1070
    44
1040
1.0
1070
    74
1070
     0
1000
MTEXTEND
  0
MTEXT
  5
5619
330
1A
100
AcDbEntity
  8
SUNPOU
100
AcDbMText
 10
103421.015020048
 20
89736.5175601829
 30
0.0
 40
10.5
 41
0.0
 71
     9
 72
     5
  1

1001
ACAD
1000
MTEXTBEGIN
1070
    73
1070
     1
1070
    44
1040
1.0
1070
    74
1070
     0
1000
MTEXTEND
  0
MTEXT
  5
561A
330
1A
100
AcDbEntity
  8
SUNPOU
100
AcDbMText
 10
122374.773737378
 20
107203.0936126749
 30
0.0
 40
10.5
 41
0.0
 71
     9
 72
     5
  1

1001
ACAD
1000
MTEXTBEGIN
1070
    73
1070
     1
1070
    44
1040
1.0
1070
    74
1070
     0
1000
MTEXTEND
  0
MTEXT
  5
561B
330
1A
100
AcDbEntity
  8
SUNPOU
100
AcDbMText
 10
124318.1809840874
 20
105402.0445327969
 30
0.0
 40
3.5
 41
0.0
 71
     9
 72
     5
  1

1001
ACAD
1000
MTEXTBEGIN
1070
    73
1070
     1
1070
    44
1040
1.0
1070
    74
1070
     0
1000
MTEXTEND
  0
MTEXT
  5
561C
330
1A
100
AcDbEntity
  8
SUNPOU
100
AcDbMText
 10
155444.3608167071
 20
147896.9902004542
 30
0.0
 40
10.5
 41
0.0
 71
     9
 72
     5
  1

1001
ACAD
1000
MTEXTBEGIN
1070
    73
1070
     1
1070
    44
1040
1.0
1070
    74
1070
     0
1000
MTEXTEND
  0
MTEXT
  5
561D
330
1A
100
AcDbEntity
  8
SUNPOU
100
AcDbMText
 10
157387.7680634165
 20
146095.9411205762
 30
0.0
 40
3.5
 41
0.0
 71
     9
 72
     5
  1

1001
ACAD
1000
MTEXTBEGIN
1070
    73
1070
     1
1070
    44
1040
1.0
1070
    74
1070
     0
1000
MTEXTEND
  0
MTEXT
  5
561E
330
1A
100
AcDbEntity
  8
SUNPOU
100
AcDbMText
 10
105884.6285225027
 20
93730.15535542933
 30
0.0
 40
10.5
 41
0.0
 71
     9
 72
     5
  1

1001
ACAD
1000
MTEXTBEGIN
1070
    73
1070
     1
1070
    44
1040
1.0
1070
    74
1070
     0
1000
MTEXTEND
  0
MTEXT
  5
561F
330
1A
100
AcDbEntity
  8
SUNPOU
100
AcDbMText
 10
91936.6284221267
 20
74557.75621631714
 30
0.0
 40
3.5
 41
0.0
 71
     7
 72
     5
  1

1001
ACAD
1000
MTEXTBEGIN
1070
    73
1070
     1
1070
    44
1040
1.0
1070
    74
1070
     0
1000
MTEXTEND
  0
MTEXT
  5
5620
330
1A
100
AcDbEntity
  8
SUNPOU
100
AcDbMText
 10
72921.79781911986
 20
62319.90494713533
 30
0.0
 40
10.5
 41
0.0
 71
     7
 72
     5
  1

1001
ACAD
1000
MTEXTBEGIN
1070
    73
1070
     1
1070
    44
1040
1.0
1070
    74
1070
     0
1000
MTEXTEND
  0
MTEXT
  5
5621
330
1A
100
AcDbEntity
  8
SUNPOU
100
AcDbMText
 10
60464.56955417175
 20
46474.97336903692
 30
0.0
 40
35.0
 41
0.0
 71
     9
 72
     5
  1

1001
ACAD
1000
MTEXTBEGIN
1070
    73
1070
     1
1070
    44
1040
1.0
1070
    74
1070
     0
1000
MTEXTEND
  0
MTEXT
  5
5622
330
1A
100
AcDbEntity
  8
SUNPOU
100
AcDbMText
 10
59373.05461174672
 20
47083.74877908562
 30
0.0
 40
350.0000004171781
 41
0.0
 71
     7
 72
     5
  1

1001
ACAD
1000
MTEXTBEGIN
1070
    73
1070
     1
1070
    44
1040
1.0
1070
    74
1070
     0
1000
MTEXTEND
  0
MTEXT
  5
5623
330
1A
100
AcDbEntity
  8
0
100
AcDbMText
 10
65417.00536968962
 20
45063.67114122186
 30
0.0
 40
8.0
 41
0.0
 71
     7
 72
     5
  1

1001
ACAD
1000
MTEXTBEGIN
1070
    73
1070
     1
1070
    44
1040
1.0
1070
    74
1070
     0
1000
MTEXTEND
  0
MTEXT
  5
5624
330
1A
100
AcDbEntity
  8
0
100
AcDbMText
 10
67702.36305958452
 20
46034.46143597292
 30
0.0
 40
8.0
 41
0.0
 71
     7
 72
     5
  1

1001
ACAD
1000
MTEXTBEGIN
1070
    73
1070
     1
1070
    44
1040
1.0
1070
    74
1070
     0
1000
MTEXTEND
  0
MTEXT
  5
5625
330
1A
100
AcDbEntity
  8
SUNPOU
100
AcDbMText
 10
70368.26008026666
 20
55546.57282834803
 30
0.0
 40
10.5
 41
0.0
 71
     1
 72
     5
  1

1001
ACAD
1000
MTEXTBEGIN
1070
    73
1070
     1
1070
    44
1040
1.0
1070
    74
1070
     0
1000
MTEXTEND
  0
MTEXT
  5
5626
330
1A
100
AcDbEntity
  8
SUNPOU
100
AcDbMText
 10
62437.33688433072
 20
54599.77969443508
 30
0.0
 40
10.5
 41
0.0
 71
     7
 72
     5
  1

1001
ACAD
1000
MTEXTBEGIN
1070
    73
1070
     1
1070
    44
1040
1.0
1070
    74
1070
     0
1000
MTEXTEND
  0
MTEXT
  5
5627
330
1A
100
AcDbEntity
  8
SUNPOU
100
AcDbMText
 10
65386.32054884349
 20
59500.45576627792
 30
0.0
 40
10.5
 41
0.0
 71
     7
 72
     5
  1

1001
ACAD
1000
MTEXTBEGIN
1070
    73
1070
     1
1070
    44
1040
1.0
1070
    74
1070
     0
1000
MTEXTEND
  0
MTEXT
  5
5628
330
1A
100
AcDbEntity
  8
SUNPOU
100
AcDbMText
 10
69895.39867679405
 20
61936.756513898
 30
0.0
 40
10.5
 41
0.0
 71
     7
 72
     5
  1

1001
ACAD
1000
MTEXTBEGIN
1070
    73
1070
     1
1070
    44
1040
1.0
1070
    74
1070
     0
1000
MTEXTEND
  0
MTEXT
  5
5629
330
1A
100
AcDbEntity
  8
SUNPOU
100
AcDbMText
 10
53496.23656356237
 20
40934.35266428691
 30
0.0
 40
10.5
 41
0.0
 71
     7
 72
     5
  1

1001
ACAD
1000
MTEXTBEGIN
1070
    73
1070
     1
1070
    44
1040
1.0
1070
    74
1070
     0
1000
MTEXTEND
  0
MTEXT
  5
562A
330
1A
100
AcDbEntity
  8
SUNPOU
100
AcDbMText
 10
55306.99947493731
 20
47261.76665176547
 30
0.0
 40
10.5
 41
0.0
 71
     9
 72
     5
  1

1001
ACAD
1000
MTEXTBEGIN
1070
    73
1070
     1
1070
    44
1040
1.0
1070
    74
1070
     0
1000
MTEXTEND
  0
MTEXT
  5
562B
330
1A
100
AcDbEntity
  8
SUNPOU
100
AcDbMText
 10
64029.16704085528
 20
54677.60118330295
 30
0.0
 40
10.5
 41
0.0
 71
     9
 72
     5
  1

1001
ACAD
1000
MTEXTBEGIN
1070
    73
1070
     1
1070
    44
1040
1.0
1070
    74
1070
     0
1000
MTEXTEND
  0
MTEXT
  5
562C
330
1A
100
AcDbEntity
  8
SUNPOU
100
AcDbMText
 10
82982.92575818527
 20
72144.17723579499
 30
0.0
 40
10.5
 41
0.0
 71
     9
 72
     5
  1

1001
ACAD
1000
MTEXTBEGIN
1070
    73
1070
     1
1070
    44
1040
1.0
1070
    74
1070
     0
1000
MTEXTEND
  0
MTEXT
  5
562D
330
1A
100
AcDbEntity
  8
SUNPOU
100
AcDbMText
 10
84926.33300489467
 20
70343.12815591698
 30
0.0
 40
3.5
 41
0.0
 71
     9
 72
     5
  1

1001
ACAD
1000
MTEXTBEGIN
1070
    73
1070
     1
1070
    44
1040
1.0
1070
    74
1070
     0
1000
MTEXTEND
  0
MTEXT
  5
562E
330
1A
100
AcDbEntity
  8
SUNPOU
100
AcDbMText
 10
116052.5128375143
 20
112838.0738235743
 30
0.0
 40
10.5
 41
0.0
 71
     9
 72
     5
  1

1001
ACAD
1000
MTEXTBEGIN
1070
    73
1070
     1
1070
    44
1040
1.0
1070
    74
1070
     0
1000
MTEXTEND
  0
MTEXT
  5
562F
330
1A
100
AcDbEntity
  8
SUNPOU
100
AcDbMText
 10
117995.9200842238
 20
111037.0247436963
 30
0.0
 40
3.5
 41
0.0
 71
     9
 72
     5
  1

1001
ACAD
1000
MTEXTBEGIN
1070
    73
1070
     1
1070
    44
1040
1.0
1070
    74
1070
     0
1000
MTEXTEND
  0
MTEXT
  5
5630
330
1A
100
AcDbEntity
  8
SUNPOU
100
AcDbMText
 10
66492.78054330994
 20
58671.23897854939
 30
0.0
 40
10.5
 41
0.0
 71
     9
 72
     5
  1

1001
ACAD
1000
MTEXTBEGIN
1070
    73
1070
     1
1070
    44
1040
1.0
1070
    74
1070
     0
1000
MTEXTEND
  0
MTEXT
  5
5631
330
1A
100
AcDbEntity
  8
SUNPOU
100
AcDbMText
 10
52544.78044293396
 20
39498.83983943717
 30
0.0
 40
3.5
 41
0.0
 71
     7
 72
     5
  1

1001
ACAD
1000
MTEXTBEGIN
1070
    73
1070
     1
1070
    44
1040
1.0
1070
    74
1070
     0
1000
MTEXTEND
  0
MTEXT
  5
5632
330
1A
100
AcDbEntity
  8
SUNPOU
100
AcDbMText
 10
66237.13112570454
 20
48857.90306045851
 30
0.0
 40
10.5
 41
0.0
 71
     9
 72
     5
  1

1001
ACAD
1000
MTEXTBEGIN
1070
    73
1070
     1
1070
    44
1040
1.0
1070
    74
1070
     0
1000
MTEXTEND
  0
MTEXT
  5
5633
330
1A
100
AcDbEntity
  8
SUNPOU
100
AcDbMText
 10
74959.29869162252
 20
56273.737591996
 30
0.0
 40
10.5
 41
0.0
 71
     9
 72
     5
  1

1001
ACAD
1000
MTEXTBEGIN
1070
    73
1070
     1
1070
    44
1040
1.0
1070
    74
1070
     0
1000
MTEXTEND
  0
MTEXT
  5
5634
330
1A
100
AcDbEntity
  8
SUNPOU
100
AcDbMText
 10
93913.0574089525
 20
73740.31364448805
 30
0.0
 40
10.5
 41
0.0
 71
     9
 72
     5
  1

1001
ACAD
1000
MTEXTBEGIN
1070
    73
1070
     1
1070
    44
1040
1.0
1070
    74
1070
     0
1000
MTEXTEND
  0
MTEXT
  5
5635
330
1A
100
AcDbEntity
  8
SUNPOU
100
AcDbMText
 10
95856.46465566192
 20
71939.26456461004
 30
0.0
 40
3.5
 41
0.0
 71
     9
 72
     5
  1

1001
ACAD
1000
MTEXTBEGIN
1070
    73
1070
     1
1070
    44
1040
1.0
1070
    74
1070
     0
1000
MTEXTEND
  0
MTEXT
  5
5636
330
1A
100
AcDbEntity
  8
SUNPOU
100
AcDbMText
 10
126982.6444882816
 20
114434.2102322673
 30
0.0
 40
10.5
 41
0.0
 71
     9
 72
     5
  1

1001
ACAD
1000
MTEXTBEGIN
1070
    73
1070
     1
1070
    44
1040
1.0
1070
    74
1070
     0
1000
MTEXTEND
  0
MTEXT
  5
5637
330
1A
100
AcDbEntity
  8
SUNPOU
100
AcDbMText
 10
128926.051734991
 20
112633.1611523893
 30
0.0
 40
3.5
 41
0.0
 71
     9
 72
     5
  1

1001
ACAD
1000
MTEXTBEGIN
1070
    73
1070
     1
1070
    44
1040
1.0
1070
    74
1070
     0
1000
MTEXTEND
  0
MTEXT
  5
5638
330
1A
100
AcDbEntity
  8
SUNPOU
100
AcDbMText
 10
77422.91219407717
 20
60267.37538724244
 30
0.0
 40
10.5
 41
0.0
 71
     9
 72
     5
  1

1001
ACAD
1000
MTEXTBEGIN
1070
    73
1070
     1
1070
    44
1040
1.0
1070
    74
1070
     0
1000
MTEXTEND
  0
MTEXT
  5
5639
330
1A
100
AcDbEntity
  8
SUNPOU
100
AcDbMText
 10
63474.91209370119
 20
41094.97624813023
 30
0.0
 40
3.5
 41
0.0
 71
     7
 72
     5
  1

1001
ACAD
1000
MTEXTBEGIN
1070
    73
1070
     1
1070
    44
1040
1.0
1070
    74
1070
     0
1000
MTEXTEND
  0
MTEXT
  5
563A
330
1A
100
AcDbEntity
  8
SUNPOU
100
AcDbMText
 10
48117.65086229006
 20
40806.11043916631
 30
0.0
 40
10.5
 41
0.0
 71
     9
 72
     5
  1

1001
ACAD
1000
MTEXTBEGIN
1070
    73
1070
     1
1070
    44
1040
1.0
1070
    74
1070
     0
1000
MTEXTEND
  0
MTEXT
  5
563B
330
1A
100
AcDbEntity
  8
SUNPOU
100
AcDbMText
 10
67071.40957962004
 20
58272.68649165837
 30
0.0
 40
10.5
 41
0.0
 71
     9
 72
     5
  1

1001
ACAD
1000
MTEXTBEGIN
1070
    73
1070
     1
1070
    44
1040
1.0
1070
    74
1070
     0
1000
MTEXTEND
  0
MTEXT
  5
563C
330
1A
100
AcDbEntity
  8
SUNPOU
100
AcDbMText
 10
69014.81682632945
 20
56471.63741178035
 30
0.0
 40
3.5
 41
0.0
 71
     9
 72
     5
  1

1001
ACAD
1000
MTEXTBEGIN
1070
    73
1070
     1
1070
    44
1040
1.0
1070
    74
1070
     0
1000
MTEXTEND
  0
MTEXT
  5
563D
330
1A
100
AcDbEntity
  8
SUNPOU
100
AcDbMText
 10
100140.9966589491
 20
98966.58307943772
 30
0.0
 40
10.5
 41
0.0
 71
     9
 72
     5
  1

1001
ACAD
1000
MTEXTBEGIN
1070
    73
1070
     1
1070
    44
1040
1.0
1070
    74
1070
     0
1000
MTEXTEND
  0
MTEXT
  5
563E
330
1A
100
AcDbEntity
  8
SUNPOU
100
AcDbMText
 10
102084.4039056586
 20
97165.53399955969
 30
0.0
 40
3.5
 41
0.0
 71
     9
 72
     5
  1

1001
ACAD
1000
MTEXTBEGIN
1070
    73
1070
     1
1070
    44
1040
1.0
1070
    74
1070
     0
1000
MTEXTEND
  0
MTEXT
  5
563F
330
1A
100
AcDbEntity
  8
SUNPOU
100
AcDbMText
 10
50581.26436474472
 20
44799.74823441275
 30
0.0
 40
10.5
 41
0.0
 71
     9
 72
     5
  1

1001
ACAD
1000
MTEXTBEGIN
1070
    73
1070
     1
1070
    44
1040
1.0
1070
    74
1070
     0
1000
MTEXTEND
  0
MTEXT
  5
5640
330
1A
100
AcDbEntity
  8
SUNPOU
100
AcDbMText
 10
36633.26426436873
 20
25627.34909530054
 30
0.0
 40
3.5
 41
0.0
 71
     7
 72
     5
  1

1001
ACAD
1000
MTEXTBEGIN
1070
    73
1070
     1
1070
    44
1040
1.0
1070
    74
1070
     0
1000
MTEXTEND
  0
MTEXT
  5
5641
330
1A
100
AcDbEntity
  8
SUNPOU
100
AcDbMText
 10
61069.42493315968
 20
52574.61207825771
 30
0.0
 40
10.5
 41
0.0
 71
     9
 72
     5
  1

1001
ACAD
1000
MTEXTBEGIN
1070
    73
1070
     1
1070
    44
1040
1.0
1070
    74
1070
     0
1000
MTEXTEND
  0
MTEXT
  5
5642
330
1A
100
AcDbEntity
  8
SUNPOU
100
AcDbMText
 10
80023.18365048967
 20
70041.18813074978
 30
0.0
 40
10.5
 41
0.0
 71
     9
 72
     5
  1

1001
ACAD
1000
MTEXTBEGIN
1070
    73
1070
     1
1070
    44
1040
1.0
1070
    74
1070
     0
1000
MTEXTEND
  0
MTEXT
  5
5643
330
1A
100
AcDbEntity
  8
SUNPOU
100
AcDbMText
 10
81966.59089719908
 20
68240.13905087176
 30
0.0
 40
3.5
 41
0.0
 71
     9
 72
     5
  1

1001
ACAD
1000
MTEXTBEGIN
1070
    73
1070
     1
1070
    44
1040
1.0
1070
    74
1070
     0
1000
MTEXTEND
  0
MTEXT
  5
5644
330
1A
100
AcDbEntity
  8
SUNPOU
100
AcDbMText
 10
113092.7707298187
 20
110735.0847185291
 30
0.0
 40
10.5
 41
0.0
 71
     9
 72
     5
  1

1001
ACAD
1000
MTEXTBEGIN
1070
    73
1070
     1
1070
    44
1040
1.0
1070
    74
1070
     0
1000
MTEXTEND
  0
MTEXT
  5
5645
330
1A
100
AcDbEntity
  8
SUNPOU
100
AcDbMText
 10
115036.1779765282
 20
108934.0356386511
 30
0.0
 40
3.5
 41
0.0
 71
     9
 72
     5
  1

1001
ACAD
1000
MTEXTBEGIN
1070
    73
1070
     1
1070
    44
1040
1.0
1070
    74
1070
     0
1000
MTEXTEND
  0
MTEXT
  5
5646
330
1A
100
AcDbEntity
  8
SUNPOU
100
AcDbMText
 10
63533.03843561433
 20
56568.24987350415
 30
0.0
 40
10.5
 41
0.0
 71
     9
 72
     5
  1

1001
ACAD
1000
MTEXTBEGIN
1070
    73
1070
     1
1070
    44
1040
1.0
1070
    74
1070
     0
1000
MTEXTEND
  0
MTEXT
  5
5647
330
1A
100
AcDbEntity
  8
SUNPOU
100
AcDbMText
 10
49585.03833523835
 20
37395.85073439196
 30
0.0
 40
3.5
 41
0.0
 71
     7
 72
     5
  1

1001
ACAD
1000
MTEXTBEGIN
1070
    73
1070
     1
1070
    44
1040
1.0
1070
    74
1070
     0
1000
MTEXTEND
  0
MTEXT
  5
5648
330
1A
100
AcDbEntity
  8
SUNPOU
100
AcDbMText
 10
77137.31641337052
 20
70907.11375048141
 30
0.0
 40
10.5
 41
0.0
 71
     9
 72
     5
  1

1001
ACAD
1000
MTEXTBEGIN
1070
    73
1070
     1
1070
    44
1040
1.0
1070
    74
1070
     0
1000
MTEXTEND
  0
MTEXT
  5
5649
330
1A
100
AcDbEntity
  8
SUNPOU
100
AcDbMText
 10
79080.72366007995
 20
69106.06467060339
 30
0.0
 40
3.5
 41
0.0
 71
     9
 72
     5
  1

1001
ACAD
1000
MTEXTBEGIN
1070
    73
1070
     1
1070
    44
1040
1.0
1070
    74
1070
     0
1000
MTEXTEND
  0
MTEXT
  5
564A
330
1A
100
AcDbEntity
  8
SUNPOU
100
AcDbMText
 10
110206.9034926996
 20
111601.0103382607
 30
0.0
 40
10.5
 41
0.0
 71
     9
 72
     5
  1

1001
ACAD
1000
MTEXTBEGIN
1070
    73
1070
     1
1070
    44
1040
1.0
1070
    74
1070
     0
1000
MTEXTEND
  0
MTEXT
  5
564B
330
1A
100
AcDbEntity
  8
SUNPOU
100
AcDbMText
 10
112150.310739409
 20
109799.9612583827
 30
0.0
 40
3.5
 41
0.0
 71
     9
 72
     5
  1

1001
ACAD
1000
MTEXTBEGIN
1070
    73
1070
     1
1070
    44
1040
1.0
1070
    74
1070
     0
1000
MTEXTEND
  0
MTEXT
  5
564C
330
1A
100
AcDbEntity
  8
SUNPOU
100
AcDbMText
 10
108819.1333204968
 20
110677.9087286761
 30
0.0
 40
10.5
 41
0.0
 71
     9
 72
     5
  1

1001
ACAD
1000
MTEXTBEGIN
1070
    73
1070
     1
1070
    44
1040
1.0
1070
    74
1070
     0
1000
MTEXTEND
  0
MTEXT
  5
564D
330
1A
100
AcDbEntity
  8
SUNPOU
100
AcDbMText
 10
110762.5405672062
 20
108876.8596487981
 30
0.0
 40
3.5
 41
0.0
 71
     9
 72
     5
  1

1001
ACAD
1000
MTEXTBEGIN
1070
    73
1070
     1
1070
    44
1040
1.0
1070
    74
1070
     0
1000
MTEXTEND
  0
MTEXT
  5
564E
330
1A
100
AcDbEntity
  8
SUNPOU
100
AcDbMText
 10
76303.05507956816
 20
68695.31179059812
 30
0.0
 40
10.5
 41
0.0
 71
     9
 72
     5
  1

1001
ACAD
1000
MTEXTBEGIN
1070
    73
1070
     1
1070
    44
1040
1.0
1070
    74
1070
     0
1000
MTEXTEND
  0
MTEXT
  5
564F
330
1A
100
AcDbEntity
  8
SUNPOU
100
AcDbMText
 10
79026.36128373271
 20
69099.99348217918
 30
0.0
 40
3.5
 41
0.0
 71
     9
 72
     5
  1

1001
ACAD
1000
MTEXTBEGIN
1070
    73
1070
     1
1070
    44
1040
1.0
1070
    74
1070
     0
1000
MTEXTEND
  0
MTEXT
  5
5650
330
1A
100
AcDbEntity
  8
SUNPOU
100
AcDbMText
 10
78234.00675862522
 20
65938.68764412436
 30
0.0
 40
10.5
 41
0.0
 71
     9
 72
     5
  1

1001
ACAD
1000
MTEXTBEGIN
1070
    73
1070
     1
1070
    44
1040
1.0
1070
    74
1070
     0
1000
MTEXTEND
  0
MTEXT
  5
5651
330
1A
100
AcDbEntity
  8
SUNPOU
100
AcDbMText
 10
80177.41400533465
 20
64137.63856424636
 30
0.0
 40
3.5
 41
0.0
 71
     9
 72
     5
  1

1001
ACAD
1000
MTEXTBEGIN
1070
    73
1070
     1
1070
    44
1040
1.0
1070
    74
1070
     0
1000
MTEXTEND
  0
MTEXT
  5
5652
330
1A
100
AcDbEntity
  8
SUNPOU
100
AcDbMText
 10
80122.50949592123
 20
64024.86668196205
 30
0.0
 40
3.5
 41
0.0
 71
     9
 72
     5
  1

1001
ACAD
1000
MTEXTBEGIN
1070
    73
1070
     1
1070
    44
1040
1.0
1070
    74
1070
     0
1000
MTEXTEND
  0
MTEXT
  5
5653
330
1A
100
AcDbEntity
  8
SUNPOU
100
AcDbMText
 10
79486.58135950133
 20
63213.54544089553
 30
0.0
 40
3.5
 41
0.0
 71
     9
 72
     5
  1

1001
ACAD
1000
MTEXTBEGIN
1070
    73
1070
     1
1070
    44
1040
1.0
1070
    74
1070
     0
1000
MTEXTEND
  0
MTEXT
  5
5654
330
1A
100
AcDbEntity
  8
SUNPOU
100
AcDbMText
 10
79485.3409400806
 20
63213.29746395804
 30
0.0
 40
10.5
 41
0.0
 71
     9
 72
     5
  1

1001
ACAD
1000
MTEXTBEGIN
1070
    73
1070
     1
1070
    44
1040
1.0
1070
    74
1070
     0
1000
MTEXTEND
  0
MTEXT
  5
5655
330
1A
100
AcDbEntity
  8
SUNPOU
100
AcDbMText
 10
85473.63363627567
 20
80747.76348077064
 30
0.0
 40
10.5
 41
0.0
 71
     9
 72
     5
  1

1001
ACAD
1000
MTEXTBEGIN
1070
    73
1070
     1
1070
    44
1040
1.0
1070
    74
1070
     0
1000
MTEXTEND
  0
MTEXT
  5
5656
330
1A
100
AcDbEntity
  8
SUNPOU
100
AcDbMText
 10
94195.80120219368
 20
88163.59801230809
 30
0.0
 40
10.5
 41
0.0
 71
     9
 72
     5
  1

1001
ACAD
1000
MTEXTBEGIN
1070
    73
1070
     1
1070
    44
1040
1.0
1070
    74
1070
     0
1000
MTEXTEND
  0
MTEXT
  5
5657
330
1A
100
AcDbEntity
  8
SUNPOU
100
AcDbMText
 10
113149.5599195236
 20
105630.1740648001
 30
0.0
 40
10.5
 41
0.0
 71
     9
 72
     5
  1

1001
ACAD
1000
MTEXTBEGIN
1070
    73
1070
     1
1070
    44
1040
1.0
1070
    74
1070
     0
1000
MTEXTEND
  0
MTEXT
  5
5658
330
1A
100
AcDbEntity
  8
SUNPOU
100
AcDbMText
 10
115092.967166233
 20
103829.1249849221
 30
0.0
 40
3.5
 41
0.0
 71
     9
 72
     5
  1

1001
ACAD
1000
MTEXTBEGIN
1070
    73
1070
     1
1070
    44
1040
1.0
1070
    74
1070
     0
1000
MTEXTEND
  0
MTEXT
  5
5659
330
1A
100
AcDbEntity
  8
SUNPOU
100
AcDbMText
 10
146219.1469988527
 20
146324.0706525794
 30
0.0
 40
10.5
 41
0.0
 71
     9
 72
     5
  1

1001
ACAD
1000
MTEXTBEGIN
1070
    73
1070
     1
1070
    44
1040
1.0
1070
    74
1070
     0
1000
MTEXTEND
  0
MTEXT
  5
565A
330
1A
100
AcDbEntity
  8
SUNPOU
100
AcDbMText
 10
148162.5542455621
 20
144523.0215727014
 30
0.0
 40
3.5
 41
0.0
 71
     9
 72
     5
  1

1001
ACAD
1000
MTEXTBEGIN
1070
    73
1070
     1
1070
    44
1040
1.0
1070
    74
1070
     0
1000
MTEXTEND
  0
MTEXT
  5
565B
330
1A
100
AcDbEntity
  8
SUNPOU
100
AcDbMText
 10
96659.41470464833
 20
92157.23580755453
 30
0.0
 40
10.5
 41
0.0
 71
     9
 72
     5
  1

1001
ACAD
1000
MTEXTBEGIN
1070
    73
1070
     1
1070
    44
1040
1.0
1070
    74
1070
     0
1000
MTEXTEND
  0
MTEXT
  5
565C
330
1A
100
AcDbEntity
  8
SUNPOU
100
AcDbMText
 10
82711.41460427234
 20
72984.83666844234
 30
0.0
 40
3.5
 41
0.0
 71
     7
 72
     5
  1

1001
ACAD
1000
MTEXTBEGIN
1070
    73
1070
     1
1070
    44
1040
1.0
1070
    74
1070
     0
1000
MTEXTEND
  0
MTEXT
  5
565D
330
1A
100
AcDbEntity
  8
SUNPOU
100
AcDbMText
 10
63696.58400126548
 20
60746.98539926055
 30
0.0
 40
10.5
 41
0.0
 71
     7
 72
     5
  1

1001
ACAD
1000
MTEXTBEGIN
1070
    73
1070
     1
1070
    44
1040
1.0
1070
    74
1070
     0
1000
MTEXTEND
  0
MTEXT
  5
565E
330
1A
100
AcDbEntity
  8
SUNPOU
100
AcDbMText
 10
51239.35573631738
 20
44902.05382116213
 30
0.0
 40
35.0
 41
0.0
 71
     9
 72
     5
  1

1001
ACAD
1000
MTEXTBEGIN
1070
    73
1070
     1
1070
    44
1040
1.0
1070
    74
1070
     0
1000
MTEXTEND
  0
MTEXT
  5
565F
330
1A
100
AcDbEntity
  8
SUNPOU
100
AcDbMText
 10
50147.84079389233
 20
45510.82923121084
 30
0.0
 40
350.0000004171781
 41
0.0
 71
     7
 72
     5
  1

1001
ACAD
1000
MTEXTBEGIN
1070
    73
1070
     1
1070
    44
1040
1.0
1070
    74
1070
     0
1000
MTEXTEND
  0
MTEXT
  5
5660
330
1A
100
AcDbEntity
  8
0
100
AcDbMText
 10
56191.79155183523
 20
43490.75159334705
 30
0.0
 40
8.0
 41
0.0
 71
     7
 72
     5
  1

1001
ACAD
1000
MTEXTBEGIN
1070
    73
1070
     1
1070
    44
1040
1.0
1070
    74
1070
     0
1000
MTEXTEND
  0
MTEXT
  5
5661
330
1A
100
AcDbEntity
  8
0
100
AcDbMText
 10
58477.14924173013
 20
44461.54188809812
 30
0.0
 40
8.0
 41
0.0
 71
     7
 72
     5
  1

1001
ACAD
1000
MTEXTBEGIN
1070
    73
1070
     1
1070
    44
1040
1.0
1070
    74
1070
     0
1000
MTEXTEND
  0
MTEXT
  5
5662
330
1A
100
AcDbEntity
  8
SUNPOU
100
AcDbMText
 10
61143.04626241227
 20
53973.65328047324
 30
0.0
 40
10.5
 41
0.0
 71
     1
 72
     5
  1

1001
ACAD
1000
MTEXTBEGIN
1070
    73
1070
     1
1070
    44
1040
1.0
1070
    74
1070
     0
1000
MTEXTEND
  0
MTEXT
  5
5663
330
1A
100
AcDbEntity
  8
SUNPOU
100
AcDbMText
 10
53212.12306647634
 20
53026.86014656028
 30
0.0
 40
10.5
 41
0.0
 71
     7
 72
     5
  1

1001
ACAD
1000
MTEXTBEGIN
1070
    73
1070
     1
1070
    44
1040
1.0
1070
    74
1070
     0
1000
MTEXTEND
  0
MTEXT
  5
5664
330
1A
100
AcDbEntity
  8
SUNPOU
100
AcDbMText
 10
56161.1067309891
 20
57927.53621840312
 30
0.0
 40
10.5
 41
0.0
 71
     7
 72
     5
  1

1001
ACAD
1000
MTEXTBEGIN
1070
    73
1070
     1
1070
    44
1040
1.0
1070
    74
1070
     0
1000
MTEXTEND
  0
MTEXT
  5
5665
330
1A
100
AcDbEntity
  8
SUNPOU
100
AcDbMText
 10
60670.18485893966
 20
60363.8369660232
 30
0.0
 40
10.5
 41
0.0
 71
     7
 72
     5
  1

1001
ACAD
1000
MTEXTBEGIN
1070
    73
1070
     1
1070
    44
1040
1.0
1070
    74
1070
     0
1000
MTEXTEND
  0
MTEXT
  5
5666
330
1A
100
AcDbEntity
  8
SUNPOU
100
AcDbMText
 10
44271.02274570799
 20
39361.43311641212
 30
0.0
 40
10.5
 41
0.0
 71
     7
 72
     5
  1

1001
ACAD
1000
MTEXTBEGIN
1070
    73
1070
     1
1070
    44
1040
1.0
1070
    74
1070
     0
1000
MTEXTEND
  0
MTEXT
  5
5667
330
1A
100
AcDbEntity
  8
SUNPOU
100
AcDbMText
 10
95462.54117960824
 20
85034.41368006038
 30
0.0
 40
10.5
 41
0.0
 71
     9
 72
     5
  1

1001
ACAD
1000
MTEXTBEGIN
1070
    73
1070
     1
1070
    44
1040
1.0
1070
    74
1070
     0
1000
MTEXTEND
  0
MTEXT
  5
5668
330
1A
100
AcDbEntity
  8
SUNPOU
100
AcDbMText
 10
104184.7087455262
 20
92450.24821159784
 30
0.0
 40
10.5
 41
0.0
 71
     9
 72
     5
  1

1001
ACAD
1000
MTEXTBEGIN
1070
    73
1070
     1
1070
    44
1040
1.0
1070
    74
1070
     0
1000
MTEXTEND
  0
MTEXT
  5
5669
330
1A
100
AcDbEntity
  8
SUNPOU
100
AcDbMText
 10
123138.4674628562
 20
109916.8242640898
 30
0.0
 40
10.5
 41
0.0
 71
     9
 72
     5
  1

1001
ACAD
1000
MTEXTBEGIN
1070
    73
1070
     1
1070
    44
1040
1.0
1070
    74
1070
     0
1000
MTEXTEND
  0
MTEXT
  5
566A
330
1A
100
AcDbEntity
  8
SUNPOU
100
AcDbMText
 10
125081.8747095656
 20
108115.7751842118
 30
0.0
 40
3.5
 41
0.0
 71
     9
 72
     5
  1

1001
ACAD
1000
MTEXTBEGIN
1070
    73
1070
     1
1070
    44
1040
1.0
1070
    74
1070
     0
1000
MTEXTEND
  0
MTEXT
  5
566B
330
1A
100
AcDbEntity
  8
SUNPOU
100
AcDbMText
 10
156208.0545421853
 20
150610.7208518691
 30
0.0
 40
10.5
 41
0.0
 71
     9
 72
     5
  1

1001
ACAD
1000
MTEXTBEGIN
1070
    73
1070
     1
1070
    44
1040
1.0
1070
    74
1070
     0
1000
MTEXTEND
  0
MTEXT
  5
566C
330
1A
100
AcDbEntity
  8
SUNPOU
100
AcDbMText
 10
158151.4617888947
 20
148809.6717719911
 30
0.0
 40
3.5
 41
0.0
 71
     9
 72
     5
  1

1001
ACAD
1000
MTEXTBEGIN
1070
    73
1070
     1
1070
    44
1040
1.0
1070
    74
1070
     0
1000
MTEXTEND
  0
MTEXT
  5
566D
330
1A
100
AcDbEntity
  8
SUNPOU
100
AcDbMText
 10
106648.3222479809
 20
96443.88600684427
 30
0.0
 40
10.5
 41
0.0
 71
     9
 72
     5
  1

1001
ACAD
1000
MTEXTBEGIN
1070
    73
1070
     1
1070
    44
1040
1.0
1070
    74
1070
     0
1000
MTEXTEND
  0
MTEXT
  5
566E
330
1A
100
AcDbEntity
  8
SUNPOU
100
AcDbMText
 10
92700.3221476049
 20
77271.48686773207
 30
0.0
 40
3.5
 41
0.0
 71
     7
 72
     5
  1

1001
ACAD
1000
MTEXTBEGIN
1070
    73
1070
     1
1070
    44
1040
1.0
1070
    74
1070
     0
1000
MTEXTEND
  0
MTEXT
  5
566F
330
1A
100
AcDbEntity
  8
SUNPOU
100
AcDbMText
 10
73685.49154459806
 20
65033.63559855027
 30
0.0
 40
10.5
 41
0.0
 71
     7
 72
     5
  1

1001
ACAD
1000
MTEXTBEGIN
1070
    73
1070
     1
1070
    44
1040
1.0
1070
    74
1070
     0
1000
MTEXTEND
  0
MTEXT
  5
5670
330
1A
100
AcDbEntity
  8
SUNPOU
100
AcDbMText
 10
61228.26327964995
 20
49188.70402045185
 30
0.0
 40
35.0
 41
0.0
 71
     9
 72
     5
  1

1001
ACAD
1000
MTEXTBEGIN
1070
    73
1070
     1
1070
    44
1040
1.0
1070
    74
1070
     0
1000
MTEXTEND
  0
MTEXT
  5
5671
330
1A
100
AcDbEntity
  8
SUNPOU
100
AcDbMText
 10
60136.74833722491
 20
49797.47943050056
 30
0.0
 40
350.0000004171781
 41
0.0
 71
     7
 72
     5
  1

1001
ACAD
1000
MTEXTBEGIN
1070
    73
1070
     1
1070
    44
1040
1.0
1070
    74
1070
     0
1000
MTEXTEND
  0
MTEXT
  5
5672
330
1A
100
AcDbEntity
  8
0
100
AcDbMText
 10
66180.69909516782
 20
47777.40179263678
 30
0.0
 40
8.0
 41
0.0
 71
     7
 72
     5
  1

1001
ACAD
1000
MTEXTBEGIN
1070
    73
1070
     1
1070
    44
1040
1.0
1070
    74
1070
     0
1000
MTEXTEND
  0
MTEXT
  5
5673
330
1A
100
AcDbEntity
  8
0
100
AcDbMText
 10
68466.05678506271
 20
48748.19208738784
 30
0.0
 40
8.0
 41
0.0
 71
     7
 72
     5
  1

1001
ACAD
1000
MTEXTBEGIN
1070
    73
1070
     1
1070
    44
1040
1.0
1070
    74
1070
     0
1000
MTEXTEND
  0
MTEXT
  5
5674
330
1A
100
AcDbEntity
  8
SUNPOU
100
AcDbMText
 10
71131.95380574485
 20
58260.30347976296
 30
0.0
 40
10.5
 41
0.0
 71
     1
 72
     5
  1

1001
ACAD
1000
MTEXTBEGIN
1070
    73
1070
     1
1070
    44
1040
1.0
1070
    74
1070
     0
1000
MTEXTEND
  0
MTEXT
  5
5675
330
1A
100
AcDbEntity
  8
SUNPOU
100
AcDbMText
 10
63201.03060980891
 20
57313.51034585002
 30
0.0
 40
10.5
 41
0.0
 71
     7
 72
     5
  1

1001
ACAD
1000
MTEXTBEGIN
1070
    73
1070
     1
1070
    44
1040
1.0
1070
    74
1070
     0
1000
MTEXTEND
  0
MTEXT
  5
5676
330
1A
100
AcDbEntity
  8
SUNPOU
100
AcDbMText
 10
66150.01427432169
 20
62214.18641769286
 30
0.0
 40
10.5
 41
0.0
 71
     7
 72
     5
  1

1001
ACAD
1000
MTEXTBEGIN
1070
    73
1070
     1
1070
    44
1040
1.0
1070
    74
1070
     0
1000
MTEXTEND
  0
MTEXT
  5
5677
330
1A
100
AcDbEntity
  8
SUNPOU
100
AcDbMText
 10
70659.09240227225
 20
64650.48716531294
 30
0.0
 40
10.5
 41
0.0
 71
     7
 72
     5
  1

1001
ACAD
1000
MTEXTBEGIN
1070
    73
1070
     1
1070
    44
1040
1.0
1070
    74
1070
     0
1000
MTEXTEND
  0
MTEXT
  5
5678
330
1A
100
AcDbEntity
  8
SUNPOU
100
AcDbMText
 10
54259.93028904056
 20
43648.08331570185
 30
0.0
 40
10.5
 41
0.0
 71
     7
 72
     5
  1

1001
ACAD
1000
MTEXTBEGIN
1070
    73
1070
     1
1070
    44
1040
1.0
1070
    74
1070
     0
1000
MTEXTEND
  0
MTEXT
  5
5679
330
1A
100
AcDbEntity
  8
SUNPOU
100
AcDbMText
 10
56070.69320041551
 20
49975.4973031804
 30
0.0
 40
10.5
 41
0.0
 71
     9
 72
     5
  1

1001
ACAD
1000
MTEXTBEGIN
1070
    73
1070
     1
1070
    44
1040
1.0
1070
    74
1070
     0
1000
MTEXTEND
  0
MTEXT
  5
567A
330
1A
100
AcDbEntity
  8
SUNPOU
100
AcDbMText
 10
64792.86076633348
 20
57391.33183471788
 30
0.0
 40
10.5
 41
0.0
 71
     9
 72
     5
  1

1001
ACAD
1000
MTEXTBEGIN
1070
    73
1070
     1
1070
    44
1040
1.0
1070
    74
1070
     0
1000
MTEXTEND
  0
MTEXT
  5
567B
330
1A
100
AcDbEntity
  8
SUNPOU
100
AcDbMText
 10
83746.61948366345
 20
74857.90788720994
 30
0.0
 40
10.5
 41
0.0
 71
     9
 72
     5
  1

1001
ACAD
1000
MTEXTBEGIN
1070
    73
1070
     1
1070
    44
1040
1.0
1070
    74
1070
     0
1000
MTEXTEND
  0
MTEXT
  5
567C
330
1A
100
AcDbEntity
  8
SUNPOU
100
AcDbMText
 10
85690.02673037287
 20
73056.85880733192
 30
0.0
 40
3.5
 41
0.0
 71
     9
 72
     5
  1

1001
ACAD
1000
MTEXTBEGIN
1070
    73
1070
     1
1070
    44
1040
1.0
1070
    74
1070
     0
1000
MTEXTEND
  0
MTEXT
  5
567D
330
1A
100
AcDbEntity
  8
SUNPOU
100
AcDbMText
 10
116816.2065629925
 20
115551.8044749892
 30
0.0
 40
10.5
 41
0.0
 71
     9
 72
     5
  1

1001
ACAD
1000
MTEXTBEGIN
1070
    73
1070
     1
1070
    44
1040
1.0
1070
    74
1070
     0
1000
MTEXTEND
  0
MTEXT
  5
567E
330
1A
100
AcDbEntity
  8
SUNPOU
100
AcDbMText
 10
118759.613809702
 20
113750.7553951112
 30
0.0
 40
3.5
 41
0.0
 71
     9
 72
     5
  1

1001
ACAD
1000
MTEXTBEGIN
1070
    73
1070
     1
1070
    44
1040
1.0
1070
    74
1070
     0
1000
MTEXTEND
  0
MTEXT
  5
567F
330
1A
100
AcDbEntity
  8
SUNPOU
100
AcDbMText
 10
67256.47426878814
 20
61384.96962996432
 30
0.0
 40
10.5
 41
0.0
 71
     9
 72
     5
  1

1001
ACAD
1000
MTEXTBEGIN
1070
    73
1070
     1
1070
    44
1040
1.0
1070
    74
1070
     0
1000
MTEXTEND
  0
MTEXT
  5
5680
330
1A
100
AcDbEntity
  8
SUNPOU
100
AcDbMText
 10
53308.47416841216
 20
42212.57049085211
 30
0.0
 40
3.5
 41
0.0
 71
     7
 72
     5
  1

1001
ACAD
1000
MTEXTBEGIN
1070
    73
1070
     1
1070
    44
1040
1.0
1070
    74
1070
     0
1000
MTEXTEND
  0
MTEXT
  5
5681
330
1A
100
AcDbEntity
  8
SUNPOU
100
AcDbMText
 10
67000.82485118274
 20
51571.63371187345
 30
0.0
 40
10.5
 41
0.0
 71
     9
 72
     5
  1

1001
ACAD
1000
MTEXTBEGIN
1070
    73
1070
     1
1070
    44
1040
1.0
1070
    74
1070
     0
1000
MTEXTEND
  0
MTEXT
  5
5682
330
1A
100
AcDbEntity
  8
SUNPOU
100
AcDbMText
 10
75722.99241710071
 20
58987.46824341094
 30
0.0
 40
10.5
 41
0.0
 71
     9
 72
     5
  1

1001
ACAD
1000
MTEXTBEGIN
1070
    73
1070
     1
1070
    44
1040
1.0
1070
    74
1070
     0
1000
MTEXTEND
  0
MTEXT
  5
5683
330
1A
100
AcDbEntity
  8
SUNPOU
100
AcDbMText
 10
94676.75113443068
 20
76454.04429590299
 30
0.0
 40
10.5
 41
0.0
 71
     9
 72
     5
  1

1001
ACAD
1000
MTEXTBEGIN
1070
    73
1070
     1
1070
    44
1040
1.0
1070
    74
1070
     0
1000
MTEXTEND
  0
MTEXT
  5
5684
330
1A
100
AcDbEntity
  8
SUNPOU
100
AcDbMText
 10
96620.1583811401
 20
74652.99521602498
 30
0.0
 40
3.5
 41
0.0
 71
     9
 72
     5
  1

1001
ACAD
1000
MTEXTBEGIN
1070
    73
1070
     1
1070
    44
1040
1.0
1070
    74
1070
     0
1000
MTEXTEND
  0
MTEXT
  5
5685
330
1A
100
AcDbEntity
  8
SUNPOU
100
AcDbMText
 10
127746.3382137598
 20
117147.9408836823
 30
0.0
 40
10.5
 41
0.0
 71
     9
 72
     5
  1

1001
ACAD
1000
MTEXTBEGIN
1070
    73
1070
     1
1070
    44
1040
1.0
1070
    74
1070
     0
1000
MTEXTEND
  0
MTEXT
  5
5686
330
1A
100
AcDbEntity
  8
SUNPOU
100
AcDbMText
 10
129689.7454604692
 20
115346.8918038043
 30
0.0
 40
3.5
 41
0.0
 71
     9
 72
     5
  1

1001
ACAD
1000
MTEXTBEGIN
1070
    73
1070
     1
1070
    44
1040
1.0
1070
    74
1070
     0
1000
MTEXTEND
  0
MTEXT
  5
5687
330
1A
100
AcDbEntity
  8
SUNPOU
100
AcDbMText
 10
78186.60591955537
 20
62981.10603865738
 30
0.0
 40
10.5
 41
0.0
 71
     9
 72
     5
  1

1001
ACAD
1000
MTEXTBEGIN
1070
    73
1070
     1
1070
    44
1040
1.0
1070
    74
1070
     0
1000
MTEXTEND
  0
MTEXT
  5
5688
330
1A
100
AcDbEntity
  8
SUNPOU
100
AcDbMText
 10
64238.60581917939
 20
43808.70689954517
 30
0.0
 40
3.5
 41
0.0
 71
     7
 72
     5
  1

1001
ACAD
1000
MTEXTBEGIN
1070
    73
1070
     1
1070
    44
1040
1.0
1070
    74
1070
     0
1000
MTEXTEND
  0
MTEXT
  5
5689
330
1A
100
AcDbEntity
  8
SUNPOU
100
AcDbMText
 10
33428.13481137435
 20
32770.04710035564
 30
0.0
 40
10.5
 41
0.0
 71
     9
 72
     5
  1

1001
ACAD
1000
MTEXTBEGIN
1070
    73
1070
     1
1070
    44
1040
1.0
1070
    74
1070
     0
1000
MTEXTEND
  0
MTEXT
  5
568A
330
1A
100
AcDbEntity
  8
SUNPOU
100
AcDbMText
 10
52381.89352870432
 20
50236.62315284769
 30
0.0
 40
10.5
 41
0.0
 71
     9
 72
     5
  1

1001
ACAD
1000
MTEXTBEGIN
1070
    73
1070
     1
1070
    44
1040
1.0
1070
    74
1070
     0
1000
MTEXTEND
  0
MTEXT
  5
568B
330
1A
100
AcDbEntity
  8
SUNPOU
100
AcDbMText
 10
54325.30077541374
 20
48435.57407296968
 30
0.0
 40
3.5
 41
0.0
 71
     9
 72
     5
  1

1001
ACAD
1000
MTEXTBEGIN
1070
    73
1070
     1
1070
    44
1040
1.0
1070
    74
1070
     0
1000
MTEXTEND
  0
MTEXT
  5
568C
330
1A
100
AcDbEntity
  8
SUNPOU
100
AcDbMText
 10
85451.48060803343
 20
90930.51974062703
 30
0.0
 40
10.5
 41
0.0
 71
     9
 72
     5
  1

1001
ACAD
1000
MTEXTBEGIN
1070
    73
1070
     1
1070
    44
1040
1.0
1070
    74
1070
     0
1000
MTEXTEND
  0
MTEXT
  5
568D
330
1A
100
AcDbEntity
  8
SUNPOU
100
AcDbMText
 10
87394.88785474286
 20
89129.47066074901
 30
0.0
 40
3.5
 41
0.0
 71
     9
 72
     5
  1

1001
ACAD
1000
MTEXTBEGIN
1070
    73
1070
     1
1070
    44
1040
1.0
1070
    74
1070
     0
1000
MTEXTEND
  0
MTEXT
  5
568E
330
1A
100
AcDbEntity
  8
SUNPOU
100
AcDbMText
 10
35891.74831382901
 20
36763.68489560208
 30
0.0
 40
10.5
 41
0.0
 71
     9
 72
     5
  1

1001
ACAD
1000
MTEXTBEGIN
1070
    73
1070
     1
1070
    44
1040
1.0
1070
    74
1070
     0
1000
MTEXTEND
  0
MTEXT
  5
568F
330
1A
100
AcDbEntity
  8
SUNPOU
100
AcDbMText
 10
21943.74821345303
 20
17591.28575648986
 30
0.0
 40
3.5
 41
0.0
 71
     7
 72
     5
  1

1001
ACAD
1000
MTEXTBEGIN
1070
    73
1070
     1
1070
    44
1040
1.0
1070
    74
1070
     0
1000
MTEXTEND
  0
LINE
  5
107E5
330
1A
100
AcDbEntity
  8
ZISSEN1
100
AcDbLine
 10
-1341.827078
 20
1498.599997
 30
0.0
 11
-1349.427088
 21
1498.599997
 31
0.0
  0
LINE
  5
107E6
330
1A
100
AcDbEntity
  8
ZISSEN1
100
AcDbLine
 10
-1400.0
 20
1498.599997
 30
0.0
 11
-1287.0
 21
1498.599997
 31
0.0
  0
LINE
  5
107E7
330
1A
100
AcDbEntity
  8
ZISSEN1
100
AcDbLine
 10
-1400.0
 20
1496.999996
 30
0.0
 11
-1287.0
 21
1496.999996
 31
0.0
  0
LINE
  5
107E8
330
1A
100
AcDbEntity
  8
ZISSEN1
100
AcDbLine
 10
-1369.000011
 20
1543.600016819548
 30
0.0
 11
-1309.8
 21
1543.600016819548
 31
0.0
  0
LINE
  5
107E9
330
1A
100
AcDbEntity
  8
ZISSEN1
100
AcDbLine
 10
-1400.0
 20
1491.999998
 30
0.0
 11
-1287.0
 21
1491.999998
 31
0.0
  0
LINE
  5
107EA
330
1A
100
AcDbEntity
  8
ZISSEN1
100
AcDbLine
 10
-1400.0
 20
1490.0
 30
0.0
 11
-1287.0
 21
1490.0
 31
0.0
  0
LINE
  5
107EB
330
1A
100
AcDbEntity
  8
ZISSEN1
100
AcDbLine
 10
-1381.499999999999
 20
1523.600006819548
 30
0.0
 11
-1381.499999999999
 21
1510.099999999999
 31
0.0
  0
LINE
  5
107EC
330
1A
100
AcDbEntity
  8
ZISSEN1
100
AcDbLine
 10
-1390.242117999999
 20
1498.599997
 30
0.0
 11
-1365.782108
 21
1498.599997
 31
0.0
  0
LINE
  5
107EE
330
1A
100
AcDbEntity
  8
ZISSEN1
100
AcDbLine
 10
-1377.387067999999
 20
1498.599997
 30
0.0
 11
-1384.987088
 21
1498.599997
 31
0.0
  0
LINE
  5
107F0
330
1A
100
AcDbEntity
  8
ZISSEN1
100
AcDbLine
 10
-1393.299997
 20
1496.999996
 30
0.0
 11
-1393.299997
 21
1491.999998
 31
0.0
  0
LINE
  5
107F1
330
1A
100
AcDbEntity
  8
ZISSEN1
100
AcDbLine
 10
-1399.700004
 20
1496.999996
 30
0.0
 11
-1399.700004
 21
1491.999998
 31
0.0
  0
LINE
  5
107F2
330
1A
100
AcDbEntity
  8
ZISSEN1
100
AcDbLine
 10
-1399.0
 20
1491.999998
 30
0.0
 11
-1399.0
 21
1490.0
 31
0.0
  0
LINE
  5
107F3
330
1A
100
AcDbEntity
  8
ZISSEN1
100
AcDbLine
 10
-1400.0
 20
1491.999998
 30
0.0
 11
-1400.0
 21
1490.0
 31
0.0
  0
LINE
  5
107F4
330
1A
100
AcDbEntity
  8
ZISSEN1
100
AcDbLine
 10
-1399.0
 20
1496.999996
 30
0.0
 11
-1399.0
 21
1498.599997
 31
0.0
  0
LINE
  5
107F5
330
1A
100
AcDbEntity
  8
ZISSEN1
100
AcDbLine
 10
-1400.0
 20
1496.999996
 30
0.0
 11
-1400.0
 21
1498.599997
 31
0.0
  0
LINE
  5
107FB
330
1A
100
AcDbEntity
  8
ZISSEN1
100
AcDbLine
 10
-1390.0
 20
1510.099979
 30
0.0
 11
-1345.5
 21
1510.099979
 31
0.0
  0
LINE
  5
107FC
330
1A
100
AcDbEntity
  8
ZISSEN1
100
AcDbLine
 10
-1359.607078
 20
1498.599997
 30
0.0
 11
-1367.207088
 21
1498.599997
 31
0.0
  0
LINE
  5
107FE
330
1A
100
AcDbEntity
  8
ZISSEN1
100
AcDbLine
 10
-1369.767088
 20
1498.599997
 30
0.0
 11
-1377.367118
 21
1498.599997
 31
0.0
  0
LINE
  5
107FF
330
1A
100
AcDbEntity
  8
ZISSEN1
100
AcDbLine
 10
-1364.7
 20
1510.099979
 30
0.0
 11
-1364.7
 21
1498.599997
 31
0.0
  0
LINE
  5
10800
330
1A
100
AcDbEntity
  8
ZISSEN1
100
AcDbLine
 10
-1389.499999999999
 20
1498.599997
 30
0.0
 11
-1389.499999999999
 21
1510.099979
 31
0.0
  0
LINE
  5
10802
330
1A
100
AcDbEntity
  8
ZISSEN1
100
AcDbLine
 10
-1377.099999999999
 20
1510.099979
 30
0.0
 11
-1377.099999999999
 21
1498.599997
 31
0.0
  0
LINE
  5
10803
330
1A
100
AcDbEntity
  8
ZISSEN1
100
AcDbLine
 10
-1351.987098
 20
1498.599997
 30
0.0
 11
-1359.587118
 21
1498.599997
 31
0.0
  0
LINE
  5
10806
330
1A
100
AcDbEntity
  8
ZISSEN1
100
AcDbLine
 10
-1369.000011
 20
1543.600016819548
 30
0.0
 11
-1369.000011
 21
1523.600006819548
 31
0.0
  0
LINE
  5
10807
330
1A
100
AcDbEntity
  8
ZISSEN1
100
AcDbLine
 10
-1374.8
 20
1543.600016819548
 30
0.0
 11
-1374.8
 21
1535.19
 31
0.0
  0
LINE
  5
10808
330
1A
100
AcDbEntity
  8
ZISSEN1
100
AcDbLine
 10
-1382.2
 20
1543.600016819548
 30
0.0
 11
-1382.2
 21
1535.19
 31
0.0
  0
LINE
  5
10809
330
1A
100
AcDbEntity
  8
ZISSEN1
100
AcDbLine
 10
-1375.5
 20
1535.19
 30
0.0
 11
-1375.5
 21
1523.599996819548
 31
0.0
  0
LINE
  5
1080A
330
1A
100
AcDbEntity
  8
ZISSEN1
100
AcDbLine
 10
-1381.499999999999
 20
1535.19
 30
0.0
 11
-1381.499999999999
 21
1523.599996819548
 31
0.0
  0
LINE
  5
1080B
330
1A
100
AcDbEntity
  8
ZISSEN1
100
AcDbLine
 10
-1381.499999999999
 20
1523.599996819548
 30
0.0
 11
-1369.000011
 21
1523.599996819548
 31
0.0
  0
LINE
  5
1080D
330
1A
100
AcDbEntity
  8
ZISSEN1
100
AcDbLine
 10
-1374.8
 20
1535.19
 30
0.0
 11
-1382.2
 21
1535.19
 31
0.0
  0
LINE
  5
1080E
330
1A
100
AcDbEntity
  8
ZISSEN1
100
AcDbLine
 10
-1382.2
 20
1543.600016819548
 30
0.0
 11
-1374.8
 21
1543.600016819548
 31
0.0
  0
LINE
  5
1080F
330
1A
100
AcDbEntity
  8
ZISSEN1
100
AcDbLine
 10
-1297.299999999999
 20
1523.600006819548
 30
0.0
 11
-1297.299999999999
 21
1510.099973051952
 31
0.0
  0
LINE
  5
10812
330
1A
100
AcDbEntity
  8
ZISSEN1
100
AcDbLine
 10
-1331.647087999999
 20
1510.099979
 30
0.0
 11
-1345.5
 21
1510.099979
 31
0.0
  0
LINE
  5
10813
330
1A
100
AcDbEntity
  8
ZISSEN1
100
AcDbLine
 10
-1324.047078
 20
1498.599997
 30
0.0
 11
-1331.647087999999
 21
1498.599997
 31
0.0
  0
LINE
  5
10816
330
1A
100
AcDbEntity
  8
ZISSEN1
100
AcDbLine
 10
-1331.8
 20
1498.599997
 30
0.0
 11
-1331.8
 21
1510.099979
 31
0.0
  0
LINE
  5
10818
330
1A
100
AcDbEntity
  8
ZISSEN1
100
AcDbLine
 10
-1334.207088
 20
1498.599997
 30
0.0
 11
-1341.807108
 21
1498.599997
 31
0.0
  0
LINE
  5
1081B
330
1A
100
AcDbEntity
  8
ZISSEN1
100
AcDbLine
 10
-1297.0
 20
1510.099973
 30
0.0
 11
-1297.0
 21
1498.599985
 31
0.0
  0
LINE
  5
1081C
330
1A
100
AcDbEntity
  8
ZISSEN1
100
AcDbLine
 10
-1314.4
 20
1498.599985
 30
0.0
 11
-1314.4
 21
1510.099973
 31
0.0
  0
LINE
  5
1081E
330
1A
100
AcDbEntity
  8
ZISSEN1
100
AcDbLine
 10
-1316.427108
 20
1498.599985
 30
0.0
 11
-1324.027108
 21
1498.599985
 31
0.0
  0
LINE
  5
1081F
330
1A
100
AcDbEntity
  8
ZISSEN1
100
AcDbLine
 10
-1331.647087999999
 20
1510.099979
 30
0.0
 11
-1297.0
 21
1510.099973
 31
0.0
  0
LINE
  5
10821
330
1A
100
AcDbEntity
  8
ZISSEN1
100
AcDbLine
 10
-1287.3
 20
1496.999996
 30
0.0
 11
-1287.3
 21
1491.999998
 31
0.0
  0
LINE
  5
10822
330
1A
100
AcDbEntity
  8
ZISSEN1
100
AcDbLine
 10
-1293.7
 20
1496.999996
 30
0.0
 11
-1293.7
 21
1491.999998
 31
0.0
  0
LINE
  5
10823
330
1A
100
AcDbEntity
  8
ZISSEN1
100
AcDbLine
 10
-1288.0
 20
1491.999985
 30
0.0
 11
-1288.0
 21
1490.0
 31
0.0
  0
LINE
  5
10824
330
1A
100
AcDbEntity
  8
ZISSEN1
100
AcDbLine
 10
-1287.0
 20
1491.999998
 30
0.0
 11
-1287.0
 21
1490.0
 31
0.0
  0
LINE
  5
10825
330
1A
100
AcDbEntity
  8
ZISSEN1
100
AcDbLine
 10
-1396.350009999999
 20
1507.099997
 30
0.0
 11
-1398.0
 21
1503.100015
 31
0.0
  0
LINE
  5
10826
330
1A
100
AcDbEntity
  8
ZISSEN1
100
AcDbLine
 10
-1392.350009999999
 20
1507.099997
 30
0.0
 11
-1390.70001
 21
1503.100015
 31
0.0
  0
LINE
  5
10827
330
1A
100
AcDbEntity
  8
ZISSEN1
100
AcDbLine
 10
-1390.70001
 20
1498.599999999999
 30
0.0
 11
-1398.0
 21
1498.599999999999
 31
0.0
  0
LINE
  5
10828
330
1A
100
AcDbEntity
  8
ZISSEN1
100
AcDbLine
 10
-1398.0
 20
1503.100015
 30
0.0
 11
-1398.0
 21
1498.599999999999
 31
0.0
  0
LINE
  5
10829
330
1A
100
AcDbEntity
  8
ZISSEN1
100
AcDbLine
 10
-1295.0
 20
1496.999996
 30
0.0
 11
-1295.0
 21
1498.599997
 31
0.0
  0
LINE
  5
1082A
330
1A
100
AcDbEntity
  8
ZISSEN1
100
AcDbLine
 10
-1287.0
 20
1496.999996
 30
0.0
 11
-1287.0
 21
1498.599997
 31
0.0
  0
LINE
  5
1082B
330
1A
100
AcDbEntity
  8
ZISSEN1
100
AcDbLine
 10
-1390.70001
 20
1503.100015
 30
0.0
 11
-1390.70001
 21
1498.599999999999
 31
0.0
  0
LINE
  5
1082C
330
1A
100
AcDbEntity
  8
ZISSEN1
100
AcDbLine
 10
-1392.350009999999
 20
1507.099997
 30
0.0
 11
-1396.350009999999
 21
1507.099997
 31
0.0
  0
LINE
  5
1082E
330
1A
100
AcDbEntity
  8
ZISSEN1
100
AcDbLine
 10
-1309.8
 20
1523.599996819548
 30
0.0
 11
-1297.299999999999
 21
1523.600006819548
 31
0.0
  0
LINE
  5
1082F
330
1A
100
AcDbEntity
  8
ZISSEN1
100
AcDbLine
 10
-1303.6
 20
1535.19
 30
0.0
 11
-1296.599999999999
 21
1535.19
 31
0.0
  0
LINE
  5
10830
330
1A
100
AcDbEntity
  8
ZISSEN1
100
AcDbLine
 10
-1303.6
 20
1543.600016819548
 30
0.0
 11
-1296.599999999999
 21
1543.600016819548
 31
0.0
  0
LINE
  5
10831
330
1A
100
AcDbEntity
  8
ZISSEN1
100
AcDbLine
 10
-1309.8
 20
1543.600016819548
 30
0.0
 11
-1309.8
 21
1523.599996819548
 31
0.0
  0
LINE
  5
10832
330
1A
100
AcDbEntity
  8
ZISSEN1
100
AcDbLine
 10
-1303.6
 20
1543.600016819548
 30
0.0
 11
-1303.6
 21
1535.19
 31
0.0
  0
LINE
  5
10833
330
1A
100
AcDbEntity
  8
ZISSEN1
100
AcDbLine
 10
-1296.599999999999
 20
1543.600016819548
 30
0.0
 11
-1296.599999999999
 21
1535.19
 31
0.0
  0
LINE
  5
10834
330
1A
100
AcDbEntity
  8
ZISSEN1
100
AcDbLine
 10
-1297.299999999999
 20
1535.19
 30
0.0
 11
-1297.299999999999
 21
1523.600006819548
 31
0.0
  0
LINE
  5
10835
330
1A
100
AcDbEntity
  8
ZISSEN1
100
AcDbLine
 10
-1302.900031
 20
1535.19
 30
0.0
 11
-1302.900031
 21
1523.599996819548
 31
0.0
  0
CIRCLE
  5
10838
330
1A
100
AcDbEntity
  8
ZISSEN1
100
AcDbCircle
 10
-1300.3
 20
1646.0
 30
0.0
 40
3.7
  0
CIRCLE
  5
10839
330
1A
100
AcDbEntity
  8
ZISSEN1
100
AcDbCircle
 10
-1378.5
 20
1646.0
 30
0.0
 40
3.7
  0
LINE
  5
1083A
330
1A
100
AcDbEntity
  8
ZISSEN1
100
AcDbLine
 10
-1369.000022
 20
1640.5
 30
0.0
 11
-1369.000022
 21
1652.00002
 31
0.0
  0
LINE
  5
1083B
330
1A
100
AcDbEntity
  8
ZISSEN1
100
AcDbLine
 10
-1309.8
 20
1640.5
 30
0.0
 11
-1309.8
 21
1652.00002
 31
0.0
  0
LINE
  5
1083C
330
1A
100
AcDbEntity
  8
ZISSEN1
100
AcDbLine
 10
-1381.499999999999
 20
1652.00002
 30
0.0
 11
-1381.499999999999
 21
1640.5
 31
0.0
  0
LINE
  5
1083D
330
1A
100
AcDbEntity
  8
ZISSEN1
100
AcDbLine
 10
-1297.299999999999
 20
1652.00002
 30
0.0
 11
-1297.299999999999
 21
1640.5
 31
0.0
  0
LINE
  5
10846
330
1A
100
AcDbEntity
  8
ZISSEN1
100
AcDbLine
 10
-1381.499999999999
 20
1640.5
 30
0.0
 11
-1297.299999999999
 21
1640.5
 31
0.0
  0
LINE
  5
10847
330
1A
100
AcDbEntity
  8
ZISSEN1
100
AcDbLine
 10
-1399.0
 20
1600.0
 30
0.0
 11
-1288.0
 21
1600.0
 31
0.0
  0
LINE
  5
1084B
330
1A
100
AcDbEntity
  8
ZISSEN1
100
AcDbLine
 10
-1400.0
 20
1651.0
 30
0.0
 11
-1400.0
 21
1601.0
 31
0.0
  0
LINE
  5
1086A
330
1A
100
AcDbEntity
  8
ZISSEN1
100
AcDbLine
 10
-1352.299999317774
 20
1607.59998970193
 30
0.0
 11
-1389.499999999999
 21
1607.619723535821
 31
0.0
  0
LINE
  5
1086E
330
1A
100
AcDbEntity
  8
ZISSEN1
100
AcDbLine
 10
-1377.099999999999
 20
1607.6
 30
0.0
 11
-1377.099999999999
 21
1600.0
 31
0.0
  0
LINE
  5
10871
330
1A
100
AcDbEntity
  8
ZISSEN1
100
AcDbLine
 10
-1389.499999999999
 20
1607.6
 30
0.0
 11
-1389.499999999999
 21
1600.0
 31
0.0
  0
LINE
  5
10876
330
1A
100
AcDbEntity
  8
ZISSEN1
100
AcDbLine
 10
-1287.0
 20
1651.0
 30
0.0
 11
-1287.0
 21
1601.0
 31
0.0
  0
LINE
  5
108A3
330
1A
100
AcDbEntity
  8
ZISSEN1
100
AcDbLine
 10
-1381.499999999999
 20
1652.00002
 30
0.0
 11
-1296.500022
 21
1652.00002
 31
0.0
  0
LINE
  5
108A4
330
1A
100
AcDbEntity
  8
ZISSEN1
100
AcDbLine
 10
-1399.0
 20
1652.0
 30
0.0
 11
-1288.0
 21
1652.0
 31
0.0
  0
LINE
  5
108BA
330
1A
100
AcDbEntity
  8
ZISSEN1
100
AcDbLine
 10
-1314.39996
 20
1600.0
 30
0.0
 11
-1331.8
 21
1600.0
 31
0.0
  0
LINE
  5
108BB
330
1A
100
AcDbEntity
  8
ZISSEN1
100
AcDbLine
 10
-1314.39996
 20
1607.599979999999
 30
0.0
 11
-1349.199999317775
 21
1607.59998970193
 31
0.0
  0
LINE
  5
108BC
330
1A
100
AcDbEntity
  8
ZISSEN1
100
AcDbLine
 10
-1314.39996
 20
1607.599979999999
 30
0.0
 11
-1314.39996
 21
1600.0
 31
0.0
  0
LINE
  5
108BD
330
1A
100
AcDbEntity
  8
ZISSEN1
100
AcDbLine
 10
-1331.8
 20
1607.599979999999
 30
0.0
 11
-1331.8
 21
1600.0
 31
0.0
  0
LINE
  5
108C3
330
1A
100
AcDbEntity
  8
ZISSEN1
100
AcDbLine
 10
-1176.99998
 20
1652.0
 30
0.0
 11
-1176.99998
 21
1600.0
 31
0.0
  0
LINE
  5
108C4
330
1A
100
AcDbEntity
  8
ZISSEN1
100
AcDbLine
 10
-1178.6
 20
1652.0
 30
0.0
 11
-1178.6
 21
1600.0
 31
0.0
  0
LINE
  5
108C5
330
1A
100
AcDbEntity
  8
ZISSEN1
100
AcDbLine
 10
-1215.189989999999
 20
1649.49325
 30
0.0
 11
-1215.189989999999
 21
1642.25001
 31
0.0
  0
LINE
  5
108C6
330
1A
100
AcDbEntity
  8
ZISSEN1
100
AcDbLine
 10
-1203.599979999999
 20
1652.00001
 30
0.0
 11
-1203.599979999999
 21
1640.5
 31
0.0
  0
LINE
  5
108C7
330
1A
100
AcDbEntity
  8
ZISSEN1
100
AcDbLine
 10
-1189.0
 20
1652.00001
 30
0.0
 11
-1189.0
 21
1640.999999999999
 31
0.0
  0
LINE
  5
108C8
330
1A
100
AcDbEntity
  8
ZISSEN1
100
AcDbLine
 10
-1223.6
 20
1649.49325
 30
0.0
 11
-1223.6
 21
1640.5
 31
0.0
  0
LINE
  5
108C9
330
1A
100
AcDbEntity
  8
ZISSEN1
100
AcDbLine
 10
-1171.99999
 20
1652.0
 30
0.0
 11
-1171.99999
 21
1600.0
 31
0.0
  0
LINE
  5
108CA
330
1A
100
AcDbEntity
  8
ZISSEN1
100
AcDbLine
 10
-1170.0
 20
1652.0
 30
0.0
 11
-1170.0
 21
1600.0
 31
0.0
  0
LINE
  5
108CB
330
1A
100
AcDbEntity
  8
ZISSEN1
100
AcDbLine
 10
-1223.6
 20
1640.5
 30
0.0
 11
-1190.09997
 21
1640.5
 31
0.0
  0
LINE
  5
108CC
330
1A
100
AcDbEntity
  8
ZISSEN1
100
AcDbLine
 10
-1223.6
 20
1642.25001
 30
0.0
 11
-1215.189989999999
 21
1642.25001
 31
0.0
  0
LINE
  5
108CF
330
1A
100
AcDbEntity
  8
ZISSEN1
100
AcDbLine
 10
-1178.6
 20
1615.557
 30
0.0
 11
-1178.6
 21
1603.557
 31
0.0
  0
LINE
  5
108D1
330
1A
100
AcDbEntity
  8
ZISSEN1
100
AcDbLine
 10
-1176.99998
 20
1600.5
 30
0.0
 11
-1178.6
 21
1600.5
 31
0.0
  0
LINE
  5
108D2
330
1A
100
AcDbEntity
  8
ZISSEN1
100
AcDbLine
 10
-1176.99998
 20
1600.0
 30
0.0
 11
-1178.6
 21
1600.0
 31
0.0
  0
LINE
  5
108D6
330
1A
100
AcDbEntity
  8
ZISSEN1
100
AcDbLine
 10
-1171.99999
 20
1600.0
 30
0.0
 11
-1170.0
 21
1600.0
 31
0.0
  0
LINE
  5
108D7
330
1A
100
AcDbEntity
  8
ZISSEN1
100
AcDbLine
 10
-1171.99999
 20
1601.0
 30
0.0
 11
-1170.0
 21
1601.0
 31
0.0
  0
LINE
  5
108D8
330
1A
100
AcDbEntity
  8
ZISSEN1
100
AcDbLine
 10
-1176.99998
 20
1600.3
 30
0.0
 11
-1171.99999
 21
1600.3
 31
0.0
  0
LINE
  5
108D9
330
1A
100
AcDbEntity
  8
ZISSEN1
100
AcDbLine
 10
-1176.99998
 20
1606.69999
 30
0.0
 11
-1171.99999
 21
1606.69999
 31
0.0
  0
LINE
  5
108DA
330
1A
100
AcDbEntity
  8
ZISSEN1
100
AcDbLine
 10
-1190.10000012329
 20
1620.000000140358
 30
0.0
 11
-1190.09997
 21
1627.6
 31
0.0
  0
LINE
  5
108DB
330
1A
100
AcDbEntity
  8
ZISSEN1
100
AcDbLine
 10
-1178.6
 20
1623.161999999999
 30
0.0
 11
-1178.6
 21
1650.562
 31
0.0
  0
LINE
  5
108DC
330
1A
100
AcDbEntity
  8
ZISSEN1
100
AcDbLine
 10
-1178.6
 20
1628.20198
 30
0.0
 11
-1178.6
 21
1650.60201
 31
0.0
  0
LINE
  5
108DD
330
1A
100
AcDbEntity
  8
ZISSEN1
100
AcDbLine
 10
-1190.09997
 20
1630.0
 30
0.0
 11
-1190.09997
 21
1641.0
 31
0.0
  0
LINE
  5
108E6
330
1A
100
AcDbEntity
  8
ZISSEN1
100
AcDbLine
 10
-1190.09997
 20
1627.6
 30
0.0
 11
-1178.6
 21
1627.6
 31
0.0
  0
LINE
  5
108E7
330
1A
100
AcDbEntity
  8
ZISSEN1
100
AcDbLine
 10
-1190.09997
 20
1630.0
 30
0.0
 11
-1178.6
 21
1630.0
 31
0.0
  0
LINE
  5
108EA
330
1A
100
AcDbEntity
  8
ZISSEN1
100
AcDbLine
 10
-1178.6
 20
1608.0
 30
0.0
 11
-1176.99998
 21
1608.0
 31
0.0
  0
LINE
  5
108ED
330
1A
100
AcDbEntity
  8
ZISSEN1
100
AcDbLine
 10
-1190.09997
 20
1641.0
 30
0.0
 11
-1178.6
 21
1641.0
 31
0.0
  0
LINE
  5
108F1
330
1A
100
AcDbEntity
  8
ZISSEN1
100
AcDbLine
 10
-1223.6
 20
1652.00001
 30
0.0
 11
-1184.70001
 21
1652.00001
 31
0.0
  0
LINE
  5
108F2
330
1A
100
AcDbEntity
  8
ZISSEN1
100
AcDbLine
 10
-1215.189989999999
 20
1649.24999
 30
0.0
 11
-1203.599979999999
 21
1649.24999
 31
0.0
  0
LINE
  5
108F3
330
1A
100
AcDbEntity
  8
ZISSEN1
100
AcDbLine
 10
-1215.189989999999
 20
1643.250019999999
 30
0.0
 11
-1203.599979999999
 21
1643.250019999999
 31
0.0
  0
LINE
  5
108F4
330
1A
100
AcDbEntity
  8
ZISSEN1
100
AcDbLine
 10
-1223.6
 20
1650.24999
 30
0.0
 11
-1215.189989999999
 21
1650.24999
 31
0.0
  0
LINE
  5
108F5
330
1A
100
AcDbEntity
  8
ZISSEN1
100
AcDbLine
 10
-1223.6
 20
1651.99998
 30
0.0
 11
-1223.6
 21
1649.49325
 31
0.0
  0
LINE
  5
108F6
330
1A
100
AcDbEntity
  8
ZISSEN1
100
AcDbLine
 10
-1215.189989999999
 20
1649.49325
 30
0.0
 11
-1215.189989999999
 21
1650.24999
 31
0.0
  0
LINE
  5
108F9
330
1A
100
AcDbEntity
  8
ZISSEN1
100
AcDbLine
 10
-1184.70001
 20
1652.00001
 30
0.0
 11
-1178.6
 21
1652.00001
 31
0.0
  0
LINE
  5
108FC
330
1A
100
AcDbEntity
  8
ZISSEN1
100
AcDbLine
 10
-1176.99998
 20
1651.292869999999
 30
0.0
 11
-1178.6
 21
1651.292869999999
 31
0.0
  0
LINE
  5
108FD
330
1A
100
AcDbEntity
  8
ZISSEN1
100
AcDbLine
 10
-1176.99998
 20
1652.0
 30
0.0
 11
-1178.6
 21
1652.0
 31
0.0
  0
LINE
  5
108FF
330
1A
100
AcDbEntity
  8
ZISSEN1
100
AcDbLine
 10
-1171.99999
 20
1651.292869999999
 30
0.0
 11
-1170.0
 21
1651.292869999999
 31
0.0
  0
LINE
  5
10900
330
1A
100
AcDbEntity
  8
ZISSEN1
100
AcDbLine
 10
-1176.99998
 20
1645.299969999999
 30
0.0
 11
-1171.99999
 21
1645.299969999999
 31
0.0
  0
LINE
  5
10901
330
1A
100
AcDbEntity
  8
ZISSEN1
100
AcDbLine
 10
-1171.99999
 20
1652.0
 30
0.0
 11
-1170.0
 21
1652.0
 31
0.0
  0
LINE
  5
10902
330
1A
100
AcDbEntity
  8
ZISSEN1
100
AcDbLine
 10
-1176.99998
 20
1651.69998
 30
0.0
 11
-1171.99999
 21
1651.69998
 31
0.0
  0
MTEXT
  5
1092B
330
1A
100
AcDbEntity
  8
ZISSEN1
100
AcDbMText
 10
-1517.470250469167
 20
1651.393989696536
 30
0.0
 40
5.0
 41
90.3852
 71
     1
 72
     5
  1
CB-26A/6C No.SS0001f56
  7
ゴシック体
1001
ACAD
1000
MTEXTBEGIN
1070
    73
1070
     1
1070
    44
1040
1.0
1070
    74
1070
     0
1000
MTEXTEND
  0
LINE
  5
10941
330
1A
100
AcDbEntity
  8
KAKURESEN1
100
AcDbLine
 10
-1376.5
 20
1485.0
 30
0.0
 11
-1370.5
 21
1485.0
 31
0.0
  0
LINE
  5
10942
330
1A
100
AcDbEntity
  8
ZISSEN1
100
AcDbLine
 10
-1376.5
 20
1478.0
 30
0.0
 11
-1370.5
 21
1478.0
 31
0.0
  0
LINE
  5
10943
330
1A
100
AcDbEntity
  8
ZISSEN1
100
AcDbLine
 10
-1376.5
 20
1478.0
 30
0.0
 11
-1376.5
 21
1490.0
 31
0.0
  0
LINE
  5
10944
330
1A
100
AcDbEntity
  8
ZISSEN1
100
AcDbLine
 10
-1370.5
 20
1478.0
 30
0.0
 11
-1370.5
 21
1490.0
 31
0.0
  0
LINE
  5
10945
330
1A
100
AcDbEntity
  8
KAKURESEN1
100
AcDbLine
 10
-1310.5
 20
1485.0
 30
0.0
 11
-1316.5
 21
1485.0
 31
0.0
  0
LINE
  5
10946
330
1A
100
AcDbEntity
  8
ZISSEN1
100
AcDbLine
 10
-1316.5
 20
1478.0
 30
0.0
 11
-1310.5
 21
1478.0
 31
0.0
  0
LINE
  5
10947
330
1A
100
AcDbEntity
  8
ZISSEN1
100
AcDbLine
 10
-1316.5
 20
1478.0
 30
0.0
 11
-1316.5
 21
1490.0
 31
0.0
  0
LINE
  5
10948
330
1A
100
AcDbEntity
  8
ZISSEN1
100
AcDbLine
 10
-1310.5
 20
1478.0
 30
0.0
 11
-1310.5
 21
1490.0
 31
0.0
  0
LINE
  5
10AD5
330
1A
100
AcDbEntity
  8
ZISSEN1
100
AcDbLine
 10
-1165.0
 20
1609.754279754652
 30
0.0
 11
-1165.0
 21
1623.922339754652
 31
0.0
  0
LINE
  5
10AD6
330
1A
100
AcDbEntity
  8
ZISSEN1
100
AcDbLine
 10
-1170.0
 20
1640.470519754652
 30
0.0
 11
-1170.0
 21
1611.537229754652
 31
0.0
  0
LINE
  5
10AD7
330
1A
100
AcDbEntity
  8
ZISSEN1
100
AcDbLine
 10
-1160.432039999999
 20
1608.361019754652
 30
0.0
 11
-1159.8516
 21
1607.925699754652
 31
0.0
  0
LINE
  5
10AD8
330
1A
100
AcDbEntity
  8
ZISSEN1
100
AcDbLine
 10
-1159.8516
 20
1607.925699754652
 30
0.0
 11
-1159.27115
 21
1607.345249754652
 31
0.0
  0
LINE
  5
10AD9
330
1A
100
AcDbEntity
  8
ZISSEN1
100
AcDbLine
 10
-1159.27115
 20
1607.345249754652
 30
0.0
 11
-1159.27115
 21
1606.619689754652
 31
0.0
  0
LINE
  5
10ADA
330
1A
100
AcDbEntity
  8
ZISSEN1
100
AcDbLine
 10
-1159.27115
 20
1606.619689754652
 30
0.0
 11
-1159.27115
 21
1606.474589754652
 31
0.0
  0
LINE
  5
10ADB
330
1A
100
AcDbEntity
  8
ZISSEN1
100
AcDbLine
 10
-1158.980909999999
 20
1605.894119754652
 30
0.0
 11
-1159.12603
 21
1606.619689754652
 31
0.0
  0
LINE
  5
10ADC
330
1A
100
AcDbEntity
  8
ZISSEN1
100
AcDbLine
 10
-1159.12603
 20
1606.619689754652
 30
0.0
 11
-1159.27115
 21
1606.764789754652
 31
0.0
  0
ARC
  5
10ADD
330
1A
100
AcDbEntity
  8
ZISSEN1
100
AcDbCircle
 10
-1160.667649999999
 20
1606.047179754652
 30
0.0
 40
0.3902874
100
AcDbArc
 50
280.0000000000061
 51
89.99998400000361
  0
LINE
  5
10ADE
330
1A
100
AcDbEntity
  8
ZISSEN1
100
AcDbLine
 10
-1163.963529999999
 20
1607.998619754652
 30
0.0
 11
-1163.796529999999
 21
1608.621819754652
 31
0.0
  0
LINE
  5
10ADF
330
1A
100
AcDbEntity
  8
ZISSEN1
100
AcDbLine
 10
-1163.769609999999
 20
1608.651239754652
 30
0.0
 11
-1163.334259999999
 21
1608.651239754652
 31
0.0
  0
LINE
  5
10AE0
330
1A
100
AcDbEntity
  8
ZISSEN1
100
AcDbLine
 10
-1163.334259999999
 20
1608.651239754652
 30
0.0
 11
-1162.75382
 21
1608.651239754652
 31
0.0
  0
LINE
  5
10AE1
330
1A
100
AcDbEntity
  8
ZISSEN1
100
AcDbLine
 10
-1162.75382
 20
1608.651239754652
 30
0.0
 11
-1162.17337
 21
1608.651239754652
 31
0.0
  0
LINE
  5
10AE2
330
1A
100
AcDbEntity
  8
ZISSEN1
100
AcDbLine
 10
-1162.17337
 20
1608.651239754652
 30
0.0
 11
-1161.592929999999
 21
1608.651239754652
 31
0.0
  0
LINE
  5
10AE3
330
1A
100
AcDbEntity
  8
ZISSEN1
100
AcDbLine
 10
-1161.592929999999
 20
1608.651239754652
 30
0.0
 11
-1161.012489999999
 21
1608.651239754652
 31
0.0
  0
LINE
  5
10AE4
330
1A
100
AcDbEntity
  8
ZISSEN1
100
AcDbLine
 10
-1165.212459999999
 20
1607.998619754652
 30
0.0
 11
-1167.324599999999
 21
1608.564559754652
 31
0.0
  0
LINE
  5
10AE5
330
1A
100
AcDbEntity
  8
ZISSEN1
100
AcDbLine
 10
-1165.417979999999
 20
1606.437469754652
 30
0.0
 11
-1167.832719999999
 21
1607.084479754652
 31
0.0
  0
LINE
  5
10AE6
330
1A
100
AcDbEntity
  8
ZISSEN1
100
AcDbLine
 10
-1165.867499999999
 20
1609.251629754652
 30
0.0
 11
-1167.05521
 21
1609.569859754652
 31
0.0
  0
ARC
  5
10AE7
330
1A
100
AcDbEntity
  8
ZISSEN1
100
AcDbCircle
 10
-1165.813077742024
 20
1610.157612034448
 30
0.0
 40
0.9076190514201122
100
AcDbArc
 50
266.5601747232178
 51
333.6160029145768
  0
ARC
  5
10AE8
330
1A
100
AcDbEntity
  8
ZISSEN1
100
AcDbCircle
 10
-1167.189919999999
 20
1609.067209754652
 30
0.0
 40
0.5203829000000001
100
AcDbArc
 50
75.00000000000555
 51
254.9999800000044
  0
LINE
  5
10AE9
330
1A
100
AcDbEntity
  8
ZISSEN1
100
AcDbLine
 10
-1165.212459999999
 20
1607.998619754652
 30
0.0
 11
-1163.963529999999
 21
1607.998619754652
 31
0.0
  0
LINE
  5
10AEA
330
1A
100
AcDbEntity
  8
ZISSEN1
100
AcDbLine
 10
-1163.859479999999
 20
1605.088029754652
 30
0.0
 11
-1160.599879999999
 21
1605.662839754652
 31
0.0
  0
LINE
  5
10AEB
330
1A
100
AcDbEntity
  8
ZISSEN1
100
AcDbLine
 10
-1165.417979999999
 20
1606.437469754652
 30
0.0
 11
-1160.667649999999
 21
1606.437469754652
 31
0.0
  0
LINE
  5
10AEC
330
1A
100
AcDbEntity
  8
ZISSEN1
100
AcDbLine
 10
-1161.012489999999
 20
1608.651239754652
 30
0.0
 11
-1160.432039999999
 21
1608.361019754652
 31
0.0
  0
LINE
  5
10AED
330
1A
100
AcDbEntity
  8
ZISSEN1
100
AcDbLine
 10
-1169.375509999999
 20
1610.288299754652
 30
0.0
 11
-1169.375509999999
 21
1609.095099754652
 31
0.0
  0
ARC
  5
10AEE
330
1A
100
AcDbEntity
  8
ZISSEN1
100
AcDbCircle
 10
-1170.93665
 20
1610.288299754652
 30
0.0
 40
1.5611496
100
AcDbArc
 50
0.0
 51
53.1301869999975
  0
ARC
  5
10AEF
330
1A
100
AcDbEntity
  8
ZISSEN1
100
AcDbCircle
 10
-1167.293989999999
 20
1609.095099754652
 30
0.0
 40
2.081532899999999
100
AcDbArc
 50
180.0
 51
255.0000000000055
  0
ARC
  5
10AF0
330
1A
100
AcDbEntity
  8
ZISSEN1
100
AcDbCircle
 10
-1163.23499
 20
1604.564079754652
 30
0.0
 40
0.6244598000000002
100
AcDbArc
 50
179.9999799999979
 51
279.9999500000018
  0
LINE
  5
10AF1
330
1A
100
AcDbEntity
  8
ZISSEN1
100
AcDbLine
 10
-1160.257919999999
 20
1604.454929754652
 30
0.0
 11
-1163.12656
 21
1603.949119754652
 31
0.0
  0
LINE
  5
10AF2
330
1A
100
AcDbEntity
  8
ZISSEN1
100
AcDbLine
 10
-1163.859479999999
 20
1604.564079754652
 30
0.0
 11
-1163.859479999999
 21
1606.437469754652
 31
0.0
  0
ARC
  5
10AF3
330
1A
100
AcDbEntity
  8
ZISSEN1
100
AcDbCircle
 10
-1160.528989999999
 20
1605.992349754652
 30
0.0
 40
1.5611496
100
AcDbArc
 50
280.0000000000061
 51
0.0
  0
LINE
  5
10AF4
330
1A
100
AcDbEntity
  8
ZISSEN1
100
AcDbLine
 10
-1158.980909999999
 20
1645.944929754652
 30
0.0
 11
-1158.967839999999
 21
1646.015419754652
 31
0.0
  0
ARC
  5
10AF5
330
1A
100
AcDbEntity
  8
ZISSEN1
100
AcDbCircle
 10
-1160.528989999999
 20
1646.015419754652
 30
0.0
 40
1.5611496
100
AcDbArc
 50
0.0
 51
79.99998400000435
  0
LINE
  5
10AF6
330
1A
100
AcDbEntity
  8
ZISSEN1
100
AcDbLine
 10
-1160.577139999999
 20
1643.187799754652
 30
0.0
 11
-1159.996699999999
 21
1643.332929754652
 31
0.0
  0
LINE
  5
10AF7
330
1A
100
AcDbEntity
  8
ZISSEN1
100
AcDbLine
 10
-1159.996699999999
 20
1643.332929754652
 30
0.0
 11
-1159.416249999999
 21
1643.768249754652
 31
0.0
  0
LINE
  5
10AF8
330
1A
100
AcDbEntity
  8
ZISSEN1
100
AcDbLine
 10
-1159.416249999999
 20
1643.768249754652
 30
0.0
 11
-1158.980909999999
 21
1644.493819754652
 31
0.0
  0
LINE
  5
10AF9
330
1A
100
AcDbEntity
  8
ZISSEN1
100
AcDbLine
 10
-1158.980909999999
 20
1644.493819754652
 30
0.0
 11
-1158.980909999999
 21
1645.074259754652
 31
0.0
  0
LINE
  5
10AFA
330
1A
100
AcDbEntity
  8
ZISSEN1
100
AcDbLine
 10
-1158.83581
 20
1645.364479754652
 30
0.0
 11
-1159.416249999999
 21
1645.074259754652
 31
0.0
  0
LINE
  5
10AFB
330
1A
100
AcDbEntity
  8
ZISSEN1
100
AcDbLine
 10
-1159.416249999999
 20
1645.074259754652
 30
0.0
 11
-1159.12603
 21
1645.074259754652
 31
0.0
  0
LINE
  5
10AFC
330
1A
100
AcDbEntity
  8
ZISSEN1
100
AcDbLine
 10
-1158.980909999999
 20
1645.944929754652
 30
0.0
 11
-1158.83581
 21
1645.364479754652
 31
0.0
  0
ARC
  5
10AFD
330
1A
100
AcDbEntity
  8
ZISSEN1
100
AcDbCircle
 10
-1160.667649999999
 20
1645.960559754652
 30
0.0
 40
0.3902874
100
AcDbArc
 50
270.0
 51
79.99998400000435
  0
ARC
  5
10AFE
330
1A
100
AcDbEntity
  8
ZISSEN1
100
AcDbCircle
 10
-1163.23499
 20
1647.443669754652
 30
0.0
 40
0.6244598000000002
100
AcDbArc
 50
80.00002999999519
 51
180.0
  0
LINE
  5
10AFF
330
1A
100
AcDbEntity
  8
ZISSEN1
100
AcDbLine
 10
-1163.963529999999
 20
1644.009129754652
 30
0.0
 11
-1163.796529999999
 21
1643.385949754652
 31
0.0
  0
LINE
  5
10B00
330
1A
100
AcDbEntity
  8
ZISSEN1
100
AcDbLine
 10
-1163.479359999999
 20
1643.187799754652
 30
0.0
 11
-1162.898919999999
 21
1643.187799754652
 31
0.0
  0
LINE
  5
10B01
330
1A
100
AcDbEntity
  8
ZISSEN1
100
AcDbLine
 10
-1162.898919999999
 20
1643.187799754652
 30
0.0
 11
-1162.318469999999
 21
1643.187799754652
 31
0.0
  0
LINE
  5
10B02
330
1A
100
AcDbEntity
  8
ZISSEN1
100
AcDbLine
 10
-1162.318469999999
 20
1643.187799754652
 30
0.0
 11
-1161.73803
 21
1643.187799754652
 31
0.0
  0
LINE
  5
10B03
330
1A
100
AcDbEntity
  8
ZISSEN1
100
AcDbLine
 10
-1161.73803
 20
1643.187799754652
 30
0.0
 11
-1161.15758
 21
1643.187799754652
 31
0.0
  0
LINE
  5
10B04
330
1A
100
AcDbEntity
  8
ZISSEN1
100
AcDbLine
 10
-1163.91471
 20
1643.478029754652
 30
0.0
 11
-1163.479359999999
 21
1643.187799754652
 31
0.0
  0
LINE
  5
10B05
330
1A
100
AcDbEntity
  8
ZISSEN1
100
AcDbLine
 10
-1163.479359999999
 20
1643.187799754652
 30
0.0
 11
-1163.796529999999
 21
1643.385949754652
 31
0.0
  0
LINE
  5
10B06
330
1A
100
AcDbEntity
  8
ZISSEN1
100
AcDbLine
 10
-1165.417979999999
 20
1645.570279754652
 30
0.0
 11
-1167.832719999999
 21
1644.923249754652
 31
0.0
  0
LINE
  5
10B07
330
1A
100
AcDbEntity
  8
ZISSEN1
100
AcDbLine
 10
-1165.867499999999
 20
1642.756139754652
 30
0.0
 11
-1167.05521
 21
1642.437889754652
 31
0.0
  0
LINE
  5
10B08
330
1A
100
AcDbEntity
  8
ZISSEN1
100
AcDbLine
 10
-1165.212459999999
 20
1644.009129754652
 30
0.0
 11
-1167.324599999999
 21
1643.443189754652
 31
0.0
  0
ARC
  5
10B09
330
1A
100
AcDbEntity
  8
ZISSEN1
100
AcDbCircle
 10
-1165.81307794499
 20
1641.850137190283
 30
0.0
 40
0.9076193597038257
100
AcDbArc
 50
26.38400748477671
 51
93.43980017489508
  0
ARC
  5
10B0A
330
1A
100
AcDbEntity
  8
ZISSEN1
100
AcDbCircle
 10
-1167.189919999999
 20
1642.940539754652
 30
0.0
 40
0.5203829000000001
100
AcDbArc
 50
104.9999999999944
 51
284.9999799999934
  0
LINE
  5
10B0B
330
1A
100
AcDbEntity
  8
ZISSEN1
100
AcDbLine
 10
-1165.212459999999
 20
1644.009129754652
 30
0.0
 11
-1163.963529999999
 21
1644.009129754652
 31
0.0
  0
LINE
  5
10B0C
330
1A
100
AcDbEntity
  8
ZISSEN1
100
AcDbLine
 10
-1163.859479999999
 20
1647.443669754652
 30
0.0
 11
-1163.859479999999
 21
1645.570279754652
 31
0.0
  0
LINE
  5
10B0D
330
1A
100
AcDbEntity
  8
ZISSEN1
100
AcDbLine
 10
-1163.859479999999
 20
1646.919689754652
 30
0.0
 11
-1160.599879999999
 21
1646.344939754652
 31
0.0
  0
LINE
  5
10B0E
330
1A
100
AcDbEntity
  8
ZISSEN1
100
AcDbLine
 10
-1165.417979999999
 20
1645.570279754652
 30
0.0
 11
-1160.667649999999
 21
1645.570279754652
 31
0.0
  0
LINE
  5
10B0F
330
1A
100
AcDbEntity
  8
ZISSEN1
100
AcDbLine
 10
-1160.257919999999
 20
1647.552809754652
 30
0.0
 11
-1163.12656
 21
1648.058629754652
 31
0.0
  0
LINE
  5
10B10
330
1A
100
AcDbEntity
  8
ZISSEN1
100
AcDbLine
 10
-1161.15758
 20
1643.187799754652
 30
0.0
 11
-1160.577139999999
 21
1643.187799754652
 31
0.0
  0
LINE
  5
10B11
330
1A
100
AcDbEntity
  8
ZISSEN1
100
AcDbLine
 10
-1169.375509999999
 20
1641.719449754652
 30
0.0
 11
-1169.375509999999
 21
1642.912649754652
 31
0.0
  0
ARC
  5
10B12
330
1A
100
AcDbEntity
  8
ZISSEN1
100
AcDbCircle
 10
-1170.93665
 20
1641.719449754652
 30
0.0
 40
1.5611496
100
AcDbArc
 50
306.8697900000027
 51
0.0
  0
ARC
  5
10B13
330
1A
100
AcDbEntity
  8
ZISSEN1
100
AcDbCircle
 10
-1167.293989999999
 20
1642.912649754652
 30
0.0
 40
2.081532899999999
100
AcDbArc
 50
104.9999799999933
 51
180.0
  0
LINE
  5
10B14
330
1A
100
AcDbEntity
  8
ZISSEN1
100
AcDbLine
 10
-1165.0
 20
1623.922339754652
 30
0.0
 11
-1165.524669999999
 21
1623.922339754652
 31
0.0
  0
LINE
  5
10B15
330
1A
100
AcDbEntity
  8
ZISSEN1
100
AcDbLine
 10
-1165.0
 20
1628.085409754652
 30
0.0
 11
-1165.524669999999
 21
1628.085409754652
 31
0.0
  0
ARC
  5
10B16
330
1A
100
AcDbEntity
  8
ZISSEN1
100
AcDbCircle
 10
-1162.91535
 20
1626.003869754652
 30
0.0
 40
3.337886599999547
100
AcDbArc
 50
141.4199000000032
 51
218.5800700000168
  0
LINE
  5
10B1B
330
1A
100
AcDbEntity
  8
ZISSEN1
100
AcDbLine
 10
-1165.0
 20
1628.085409754652
 30
0.0
 11
-1165.0
 21
1642.253469754652
 31
0.0
  0
LINE
  5
10B72
330
1A
100
AcDbEntity
  8
CL1
100
AcDbLine
 10
-1162.22045
 20
1626.0
 30
0.0
 11
-1170.0
 21
1626.0
 31
0.0
  0
LINE
  5
10BF1
330
1A
100
AcDbEntity
  8
SOUZOUSEN
100
AcDbLine
 10
-1327.4
 20
1580.000003999999
 30
0.0
 11
-1313.742580275682
 21
1580.000003999999
 31
0.0
  0
LINE
  5
10BF7
330
1A
100
AcDbEntity
  8
SOUZOUSEN
100
AcDbLine
 10
-1336.4
 20
1564.000003999999
 30
0.0
 11
-1336.4
 21
1543.600003999999
 31
0.0
  0
LINE
  5
10BF9
330
1A
100
AcDbEntity
  8
SOUZOUSEN
100
AcDbLine
 10
-1342.4
 20
1565.000003999999
 30
0.0
 11
-1342.4
 21
1543.600003999999
 31
0.0
  0
LINE
  5
10BFB
330
1A
100
AcDbEntity
  8
SOUZOUSEN
100
AcDbLine
 10
-1326.4
 20
1574.000003999999
 30
0.0
 11
-1313.574363329034
 21
1574.000003999999
 31
0.0
  0
ARC
  5
10C0F
330
1A
100
AcDbEntity
  8
SOUZOUSEN
100
AcDbCircle
 10
-1327.4
 20
1565.000003999999
 30
0.0
 40
15.0
100
AcDbArc
 50
89.99999999999976
 51
180.0000000000011
  0
ARC
  5
10C13
330
1A
100
AcDbEntity
  8
SOUZOUSEN
100
AcDbCircle
 10
-1326.4
 20
1564.000003999999
 30
0.0
 40
10.0
100
AcDbArc
 50
90.0
 51
180.0
  0
DIMENSION
  5
10CF1
330
1A
100
AcDbEntity
  8
SUNPOU
100
AcDbDimension
  2
*D0
 10
-1409.812182741116
 20
1600.0
 30
0.0
 11
-1412.562182741117
 21
1625.999999999999
 31
0.0
 70
    32
  3
標準スタイル
100
AcDbAlignedDimension
 13
-1399.0
 23
1652.0
 33
0.0
 14
-1399.0
 24
1600.0
 34
0.0
 50
90.0
100
AcDbRotatedDimension
1001
ACAD
1000
DSTYLE
1002
{
1070
    40
1040
1.0
1002
}
  0
DIMENSION
  5
10D6A
330
1A
100
AcDbEntity
  8
SUNPOU
100
AcDbDimension
  2
*D1
 10
-1287.0
 20
1590.688931864453
 30
0.0
 11
-1350.0000015
 21
1590.688931864453
 31
0.0
 70
   160
  3
標準スタイル
100
AcDbAlignedDimension
 13
-1400.0
 23
1601.0
 33
0.0
 14
-1287.0
 24
1601.0
 34
0.0
100
AcDbRotatedDimension
1001
ACAD
1000
DSTYLE
1002
{
1070
    40
1040
1.0
1002
}
  0
MTEXT
  5
10EF6
330
1A
100
AcDbEntity
  8
SUNPOU
100
AcDbMText
 10
-1306.550559043269
 20
1305.398370906091
 30
0.0
 40
3.5
 41
10.26244825209355
 71
     1
 72
     5
  1
2-M3
  7
ゴシック体
1001
ACAD
1000
MTEXTBEGIN
1070
    73
1070
     1
1070
    44
1040
1.0
1070
    74
1070
     0
1000
MTEXTEND
1000
MTEXTBEGIN
1070
    73
1070
     1
1070
    44
1040
1.0
1070
    74
1070
     0
1000
MTEXTEND
  0
DIMENSION
  5
10EF7
330
1A
100
AcDbEntity
  8
SUNPOU
100
AcDbDimension
  2
*D2
 10
-1276.054420069669
 20
1296.0
 30
0.0
 11
-1276.054420069669
 21
1317.999999999999
 31
0.0
 70
   160
  3
公差付き寸法
100
AcDbAlignedDimension
 13
-1394.999999999999
 23
1340.0
 33
0.0
 14
-1290.0
 24
1296.0
 34
0.0
 50
270.0
100
AcDbRotatedDimension
1001
ACAD
1000
DSTYLE
1002
{
1070
    73
1070
     0
1070
   280
1070
     0
1070
    77
1070
     1
1070
   340
1005
1960
1070
    40
1040
1.0
1002
}
  0
DIMENSION
  5
10EF8
330
1A
100
AcDbEntity
  8
SUNPOU
100
AcDbDimension
  2
*D3
 10
-1394.999999999999
 20
1351.533573026157
 30
0.0
 11
-1342.5
 21
1354.283573026156
 31
0.0
 70
    32
  3
公差付き寸法
100
AcDbAlignedDimension
 13
-1290.0
 23
1296.0
 33
0.0
 14
-1394.999999999999
 24
1340.0
 34
0.0
100
AcDbRotatedDimension
1001
ACAD
1000
DSTYLE
1002
{
1070
   340
1005
1960
1070
    40
1040
1.0
1002
}
  0
LEADER
  5
10EF9
330
1A
100
AcDbEntity
  8
SUNPOU
100
AcDbLeader
  3
標準スタイル
 76
     3
 10
-1290.0
 20
1296.0
 30
0.0
 10
-1296.43420863283
 20
1301.159117342412
 30
0.0
 10
-1307.401835911432
 20
1301.159117342412
 30
0.0
211
-1.0
221
-0.0000000000000004
231
0.0
210
0.0
220
0.0
230
-1.0
1001
ACAD
1000
DSTYLE
1002
{
1070
     5
1000

1070
    77
1070
     0
1070
   147
1040
1.0
1070
   342
1005
0
1002
}
  0
LINE
  5
10EFA
330
1A
100
AcDbEntity
  8
CL1
100
AcDbLine
 10
-1394.999999999999
 20
1342.999996999999
 30
0.0
 11
-1394.999999999999
 21
1337.000002
 31
0.0
  0
CIRCLE
  5
10EFB
330
1A
100
AcDbEntity
  8
ZISSEN1
100
AcDbCircle
 10
-1394.999999999999
 20
1340.0
 30
0.0
 40
1.5
  0
MTEXT
  5
10EFD
330
1A
100
AcDbEntity
  8
SUNPOU
100
AcDbMText
 10
-1330.0
 20
1365.0
 30
0.0
 40
3.5
 41
34.0
 71
     5
 72
     5
  1
取付穴加工寸法
  7
ゴシック体
1001
ACAD
1000
MTEXTBEGIN
1070
    73
1070
     1
1070
    44
1040
1.0
1070
    74
1070
     0
1000
MTEXTEND
1000
MTEXTBEGIN
1070
    73
1070
     1
1070
    44
1040
1.0
1070
    74
1070
     0
1000
MTEXTEND
  0
CIRCLE
  5
10EFE
330
1A
100
AcDbEntity
  8
ZISSEN1
100
AcDbCircle
 10
-1290.0
 20
1296.0
 30
0.0
 40
1.5
  0
LINE
  5
10EFF
330
1A
100
AcDbEntity
  8
CL1
100
AcDbLine
 10
-1286.999989999999
 20
1296.0
 30
0.0
 11
-1293.0
 21
1296.0
 31
0.0
  0
LINE
  5
10F00
330
1A
100
AcDbEntity
  8
CL1
100
AcDbLine
 10
-1398.0
 20
1340.0
 30
0.0
 11
-1392.000005
 21
1340.0
 31
0.0
  0
LINE
  5
10F33
330
1A
100
AcDbEntity
  8
ZISSEN1
100
AcDbLine
 10
-1364.7
 20
1607.6
 30
0.0
 11
-1364.7
 21
1600.0
 31
0.0
  0
LINE
  5
10F47
330
1A
100
AcDbEntity
  8
ZISSEN1
100
AcDbLine
 10
-1352.299999317774
 20
1617.599989278331
 30
0.0
 11
-1389.499999999999
 21
1617.620009576399
 31
0.0
  0
LINE
  5
10F48
330
1A
100
AcDbEntity
  8
ZISSEN1
100
AcDbLine
 10
-1352.299999317774
 20
1609.999999278331
 30
0.0
 11
-1389.499999999999
 21
1610.0200195764
 31
0.0
  0
LINE
  5
10F49
330
1A
100
AcDbEntity
  8
ZISSEN1
100
AcDbLine
 10
-1389.499999999999
 20
1617.599999999999
 30
0.0
 11
-1389.499999999999
 21
1610.0
 31
0.0
  0
LINE
  5
10F4C
330
1A
100
AcDbEntity
  8
ZISSEN1
100
AcDbLine
 10
-1377.099999999999
 20
1617.599999999999
 30
0.0
 11
-1377.099999999999
 21
1610.0
 31
0.0
  0
LINE
  5
10F4D
330
1A
100
AcDbEntity
  8
ZISSEN1
100
AcDbLine
 10
-1364.7
 20
1617.599999999999
 30
0.0
 11
-1364.7
 21
1610.0
 31
0.0
  0
LINE
  5
10F5B
330
1A
100
AcDbEntity
  8
ZISSEN1
100
AcDbLine
 10
-1398.000000525063
 20
1607.499999999999
 30
0.0
 11
-1390.699990525062
 21
1607.499999999999
 31
0.0
  0
LINE
  5
10F5C
330
1A
100
AcDbEntity
  8
ZISSEN1
100
AcDbLine
 10
-1398.000000525063
 20
1617.610010159878
 30
0.0
 11
-1390.699990525062
 21
1617.610010159878
 31
0.0
  0
LINE
  5
10F5D
330
1A
100
AcDbEntity
  8
ZISSEN1
100
AcDbLine
 10
-1396.350010525063
 20
1607.499999999999
 30
0.0
 11
-1396.350010525063
 21
1617.610010159878
 31
0.0
  0
LINE
  5
10F5E
330
1A
100
AcDbEntity
  8
ZISSEN1
100
AcDbLine
 10
-1398.000000525063
 20
1607.499999999999
 30
0.0
 11
-1398.000000525063
 21
1617.610010159878
 31
0.0
  0
LINE
  5
10F5F
330
1A
100
AcDbEntity
  8
ZISSEN1
100
AcDbLine
 10
-1390.699990525062
 20
1607.499999999999
 30
0.0
 11
-1390.699990525062
 21
1617.610010159878
 31
0.0
  0
LINE
  5
10F60
330
1A
100
AcDbEntity
  8
ZISSEN1
100
AcDbLine
 10
-1392.350010525063
 20
1607.499999999999
 30
0.0
 11
-1392.350010525063
 21
1617.610010159878
 31
0.0
  0
LINE
  5
10F6B
330
1A
100
AcDbEntity
  8
ZISSEN1
100
AcDbLine
 10
-1390.000000525063
 20
1638.5
 30
0.0
 11
-1382.699990525063
 21
1638.5
 31
0.0
  0
LINE
  5
10F6C
330
1A
100
AcDbEntity
  8
ZISSEN1
100
AcDbLine
 10
-1390.000000525063
 20
1649.500010159879
 30
0.0
 11
-1382.699990525063
 21
1649.500010159879
 31
0.0
  0
LINE
  5
10F6D
330
1A
100
AcDbEntity
  8
ZISSEN1
100
AcDbLine
 10
-1388.350010525063
 20
1638.5
 30
0.0
 11
-1388.350010525063
 21
1649.500010159879
 31
0.0
  0
LINE
  5
10F6E
330
1A
100
AcDbEntity
  8
ZISSEN1
100
AcDbLine
 10
-1390.000000525063
 20
1638.5
 30
0.0
 11
-1390.000000525063
 21
1649.500010159879
 31
0.0
  0
LINE
  5
10F6F
330
1A
100
AcDbEntity
  8
ZISSEN1
100
AcDbLine
 10
-1382.699990525063
 20
1638.5
 30
0.0
 11
-1382.699990525063
 21
1649.500010159879
 31
0.0
  0
LINE
  5
10F70
330
1A
100
AcDbEntity
  8
ZISSEN1
100
AcDbLine
 10
-1384.350010525063
 20
1638.5
 30
0.0
 11
-1384.350010525063
 21
1649.500010159879
 31
0.0
  0
LINE
  5
10FB2
330
1A
100
AcDbEntity
  8
ZISSEN1
100
AcDbLine
 10
-1296.999919956836
 20
1599.9999995764
 30
0.0
 11
-1314.399959956836
 21
1599.9999995764
 31
0.0
  0
LINE
  5
10FB3
330
1A
100
AcDbEntity
  8
ZISSEN1
100
AcDbLine
 10
-1297.0
 20
1607.5999795764
 30
0.0
 11
-1314.399959956836
 21
1607.5999795764
 31
0.0
  0
LINE
  5
10FB4
330
1A
100
AcDbEntity
  8
ZISSEN1
100
AcDbLine
 10
-1314.399959956836
 20
1607.5999795764
 30
0.0
 11
-1314.399959956836
 21
1599.9999995764
 31
0.0
  0
LINE
  5
10FB5
330
1A
100
AcDbEntity
  8
ZISSEN1
100
AcDbLine
 10
-1297.0
 20
1607.5999795764
 30
0.0
 11
-1297.0
 21
1599.9999995764
 31
0.0
  0
LINE
  5
10FC3
330
1A
100
AcDbEntity
  8
ZISSEN1
100
AcDbLine
 10
-1297.0
 20
1617.599980002666
 30
0.0
 11
-1314.399959913673
 21
1617.599980002666
 31
0.0
  0
LINE
  5
10FC4
330
1A
100
AcDbEntity
  8
ZISSEN1
100
AcDbLine
 10
-1297.0
 20
1610.000000002666
 30
0.0
 11
-1314.399959913673
 21
1610.000000002666
 31
0.0
  0
LINE
  5
10FC5
330
1A
100
AcDbEntity
  8
ZISSEN1
100
AcDbLine
 10
-1314.399959956836
 20
1610.000000426266
 30
0.0
 11
-1349.199999317775
 21
1609.999999278331
 31
0.0
  0
LINE
  5
10FC6
330
1A
100
AcDbEntity
  8
ZISSEN1
100
AcDbLine
 10
-1314.399959956836
 20
1617.599980426266
 30
0.0
 11
-1349.199999317775
 21
1617.599989278331
 31
0.0
  0
LINE
  5
10FC7
330
1A
100
AcDbEntity
  8
ZISSEN1
100
AcDbLine
 10
-1331.799999956836
 20
1617.599980426266
 30
0.0
 11
-1331.799999956836
 21
1610.000000426266
 31
0.0
  0
LINE
  5
10FC8
330
1A
100
AcDbEntity
  8
ZISSEN1
100
AcDbLine
 10
-1314.399959913673
 20
1617.599980002666
 30
0.0
 11
-1314.399959913673
 21
1610.000000002666
 31
0.0
  0
LINE
  5
10FC9
330
1A
100
AcDbEntity
  8
ZISSEN1
100
AcDbLine
 10
-1314.399959956836
 20
1617.599980426266
 30
0.0
 11
-1314.399959956836
 21
1610.000000426266
 31
0.0
  0
LINE
  5
10FCA
330
1A
100
AcDbEntity
  8
ZISSEN1
100
AcDbLine
 10
-1297.0
 20
1617.599980002666
 30
0.0
 11
-1297.0
 21
1610.000000002666
 31
0.0
  0
LINE
  5
10FD4
330
1A
100
AcDbEntity
  8
ZISSEN1
100
AcDbLine
 10
-1317.8
 20
1627.6
 30
0.0
 11
-1399.999998891114
 21
1627.599990377629
 31
0.0
  0
LINE
  5
10FD5
330
1A
100
AcDbEntity
  8
ZISSEN1
100
AcDbLine
 10
-1317.8
 20
1620.0
 30
0.0
 11
-1399.999999688071
 21
1619.999999838437
 31
0.0
  0
LINE
  5
10FD6
330
1A
100
AcDbEntity
  8
ZISSEN1
100
AcDbLine
 10
-1399.99999920034
 20
1627.599990262037
 30
0.0
 11
-1399.99999920034
 21
1620.000000262037
 31
0.0
  0
LINE
  5
10FD7
330
1A
100
AcDbEntity
  8
ZISSEN1
100
AcDbLine
 10
-1345.2
 20
1627.6
 30
0.0
 11
-1345.2
 21
1620.0
 31
0.0
  0
LINE
  5
10FE3
330
1A
100
AcDbEntity
  8
ZISSEN1
100
AcDbLine
 10
-1372.6
 20
1627.6
 30
0.0
 11
-1372.6
 21
1620.0
 31
0.0
  0
LINE
  5
10FE4
330
1A
100
AcDbEntity
  8
ZISSEN1
100
AcDbLine
 10
-1317.8
 20
1627.6
 30
0.0
 11
-1317.8
 21
1620.0
 31
0.0
  0
LINE
  5
10FF4
330
1A
100
AcDbEntity
  8
ZISSEN1
100
AcDbLine
 10
-1317.8
 20
1630.0
 30
0.0
 11
-1399.999999703279
 21
1629.999999705062
 31
0.0
  0
LINE
  5
10FF5
330
1A
100
AcDbEntity
  8
ZISSEN1
100
AcDbLine
 10
-1317.8
 20
1637.599999999999
 30
0.0
 11
-1399.999998906322
 21
1637.599990244254
 31
0.0
  0
LINE
  5
10FF6
330
1A
100
AcDbEntity
  8
ZISSEN1
100
AcDbLine
 10
-1399.999999215548
 20
1637.599990128662
 30
0.0
 11
-1399.999999215548
 21
1630.000000128662
 31
0.0
  0
LINE
  5
10FF7
330
1A
100
AcDbEntity
  8
ZISSEN1
100
AcDbLine
 10
-1345.2
 20
1637.599999999999
 30
0.0
 11
-1345.2
 21
1630.0
 31
0.0
  0
LINE
  5
10FF8
330
1A
100
AcDbEntity
  8
ZISSEN1
100
AcDbLine
 10
-1372.6
 20
1637.599999999999
 30
0.0
 11
-1372.6
 21
1630.0
 31
0.0
  0
LINE
  5
10FF9
330
1A
100
AcDbEntity
  8
ZISSEN1
100
AcDbLine
 10
-1317.8
 20
1637.599999999999
 30
0.0
 11
-1317.8
 21
1630.0
 31
0.0
  0
LINE
  5
11004
330
1A
100
AcDbEntity
  8
ZISSEN1
100
AcDbLine
 10
-1296.999959914347
 20
1620.000000149112
 30
0.0
 11
-1314.399999914347
 21
1620.000000149112
 31
0.0
  0
LINE
  5
11005
330
1A
100
AcDbEntity
  8
ZISSEN1
100
AcDbLine
 10
-1296.999959914347
 20
1627.599980149113
 30
0.0
 11
-1314.399999914347
 21
1627.599980149113
 31
0.0
  0
LINE
  5
11006
330
1A
100
AcDbEntity
  8
ZISSEN1
100
AcDbLine
 10
-1314.39999995751
 20
1627.599980572712
 30
0.0
 11
-1314.39999995751
 21
1620.000000572712
 31
0.0
  0
LINE
  5
11007
330
1A
100
AcDbEntity
  8
ZISSEN1
100
AcDbLine
 10
-1314.399999914347
 20
1627.599980149113
 30
0.0
 11
-1314.399999914347
 21
1620.000000149112
 31
0.0
  0
LINE
  5
11008
330
1A
100
AcDbEntity
  8
ZISSEN1
100
AcDbLine
 10
-1296.999959914347
 20
1627.599980149113
 30
0.0
 11
-1296.999959914347
 21
1620.000000149112
 31
0.0
  0
LINE
  5
1100A
330
1A
100
AcDbEntity
  8
ZISSEN1
100
AcDbLine
 10
-1399.5
 20
1644.0
 30
0.0
 11
-1392.0
 21
1644.0
 31
0.0
  0
LINE
  5
1100B
330
1A
100
AcDbEntity
  8
ZISSEN1
100
AcDbLine
 10
-1392.0
 20
1644.0
 30
0.0
 11
-1392.0
 21
1651.5
 31
0.0
  0
LINE
  5
11013
330
1A
100
AcDbEntity
  8
ZISSEN1
100
AcDbLine
 10
-1294.99999996434
 20
1600.5
 30
0.0
 11
-1294.99999996434
 21
1608.000000384868
 31
0.0
  0
LINE
  5
1101A
330
1A
100
AcDbEntity
  8
ZISSEN1
100
AcDbLine
 10
-1295.000000015207
 20
1608.000000384868
 30
0.0
 11
-1287.5
 21
1608.000000384868
 31
0.0
  0
LINE
  5
11022
330
1A
100
AcDbEntity
  8
ZISSEN1
100
AcDbLine
 10
-1294.599999999999
 20
1631.099999961268
 30
0.0
 11
-1294.599999999999
 21
1641.0
 31
0.0
  0
LINE
  5
11023
330
1A
100
AcDbEntity
  8
ZISSEN1
100
AcDbLine
 10
-1294.599999999999
 20
1641.0
 30
0.0
 11
-1287.0
 21
1641.0
 31
0.0
  0
LINE
  5
1102A
330
1A
100
AcDbEntity
  8
ZISSEN1
100
AcDbLine
 10
-1294.599999999999
 20
1631.100000175123
 30
0.0
 11
-1287.000000218007
 21
1631.100000175123
 31
0.0
  0
LINE
  5
1102B
330
1A
100
AcDbEntity
  8
CL1
100
AcDbLine
 10
-1396.0
 20
1653.0
 30
0.0
 11
-1396.0
 21
1643.0
 31
0.0
  0
LINE
  5
1102C
330
1A
100
AcDbEntity
  8
CL1
100
AcDbLine
 10
-1291.0
 20
1609.0
 30
0.0
 11
-1291.0
 21
1599.0
 31
0.0
  0
LINE
  5
1102D
330
1A
100
AcDbEntity
  8
CL1
100
AcDbLine
 10
-1296.0
 20
1604.0
 30
0.0
 11
-1286.0
 21
1604.0
 31
0.0
  0
LINE
  5
11030
330
1A
100
AcDbEntity
  8
CL1
100
AcDbLine
 10
-1401.0
 20
1648.0
 30
0.0
 11
-1391.0
 21
1648.0
 31
0.0
  0
LINE
  5
11034
330
1A
100
AcDbEntity
  8
ZISSEN1
100
AcDbLine
 10
-1400.0
 20
1601.0
 30
0.0
 11
-1399.0
 21
1600.0
 31
0.0
  0
LINE
  5
11035
330
1A
100
AcDbEntity
  8
ZISSEN1
100
AcDbLine
 10
-1400.0
 20
1651.0
 30
0.0
 11
-1399.0
 21
1652.0
 31
0.0
  0
LINE
  5
1105A
330
1A
100
AcDbEntity
  8
ZISSEN1
100
AcDbLine
 10
-1287.0
 20
1601.0
 30
0.0
 11
-1288.0
 21
1600.0
 31
0.0
  0
LINE
  5
1105B
330
1A
100
AcDbEntity
  8
ZISSEN1
100
AcDbLine
 10
-1288.0
 20
1652.0
 30
0.0
 11
-1287.0
 21
1651.0
 31
0.0
  0
DIMENSION
  5
11091
330
1A
100
AcDbEntity
  8
SUNPOU
100
AcDbDimension
  2
*D4
 10
-1396.0
 20
1662.497731994467
 30
0.0
 11
-1398.0
 21
1665.247731994467
 31
0.0
 70
    32
  3
標準スタイル
100
AcDbAlignedDimension
 13
-1400.0
 23
1651.0
 33
0.0
 14
-1396.0
 24
1653.0
 34
0.0
100
AcDbRotatedDimension
1001
ACAD
1000
DSTYLE
1002
{
1070
    40
1040
1.0
1002
}
  0
DIMENSION
  5
110A0
330
1A
100
AcDbEntity
  8
SUNPOU
100
AcDbDimension
  2
*D5
 10
-1291.0
 20
1662.497731994467
 30
0.0
 11
-1345.5
 21
1662.497731994467
 31
0.0
 70
   160
  3
標準スタイル
100
AcDbAlignedDimension
 13
-1396.0
 23
1653.0
 33
0.0
 14
-1291.0
 24
1609.0
 34
0.0
100
AcDbRotatedDimension
1001
ACAD
1000
DSTYLE
1002
{
1070
    40
1040
1.0
1002
}
  0
DIMENSION
  5
11101
330
1A
100
AcDbEntity
  8
SUNPOU
100
AcDbDimension
  2
*D6
 10
-1287.0
 20
1662.497731994467
 30
0.0
 11
-1289.0
 21
1665.247731994467
 31
0.0
 70
    32
  3
標準スタイル
100
AcDbAlignedDimension
 13
-1291.0
 23
1652.0
 33
0.0
 14
-1287.0
 24
1651.0
 34
0.0
100
AcDbRotatedDimension
1001
ACAD
1000
DSTYLE
1002
{
1070
    40
1040
1.0
1002
}
  0
DIMENSION
  5
1114B
330
1A
100
AcDbEntity
  8
SUNPOU
100
AcDbDimension
  2
*D7
 10
-1280.494619160554
 20
1604.0
 30
0.0
 11
-1283.244619160554
 21
1602.0
 31
0.0
 70
    32
  3
標準スタイル
100
AcDbAlignedDimension
 13
-1288.0
 23
1600.0
 33
0.0
 14
-1286.0
 24
1604.0
 34
0.0
 50
90.0
100
AcDbRotatedDimension
1001
ACAD
1000
DSTYLE
1002
{
1070
    40
1040
1.0
1002
}
  0
DIMENSION
  5
1115A
330
1A
100
AcDbEntity
  8
SUNPOU
100
AcDbDimension
  2
*D8
 10
-1280.494619160554
 20
1648.0
 30
0.0
 11
-1283.244619160554
 21
1625.999999999999
 31
0.0
 70
    32
  3
標準スタイル
100
AcDbAlignedDimension
 13
-1286.0
 23
1604.0
 33
0.0
 14
-1391.0
 24
1648.0
 34
0.0
 50
90.0
100
AcDbRotatedDimension
1001
ACAD
1000
DSTYLE
1002
{
1070
   287
1070
     4
1070
    40
1040
1.0
1070
   279
1070
     1
1002
}
  0
DIMENSION
  5
11167
330
1A
100
AcDbEntity
  8
SUNPOU
100
AcDbDimension
  2
*D9
 10
-1280.494619160554
 20
1652.0
 30
0.0
 11
-1283.244619160554
 21
1649.999999999999
 31
0.0
 70
    32
  3
標準スタイル
100
AcDbAlignedDimension
 13
-1391.0
 23
1648.0
 33
0.0
 14
-1288.0
 24
1652.0
 34
0.0
 50
90.0
100
AcDbRotatedDimension
1001
ACAD
1000
DSTYLE
1002
{
1070
   287
1070
     4
1070
    40
1040
1.0
1070
   279
1070
     1
1002
}
  0
MTEXT
  5
111C5
330
1A
100
AcDbEntity
  8
SUNPOU
100
AcDbMText
 10
-1334.248803074322
 20
1598.885554651299
 30
0.0
 40
3.5
 41
34.70690244111465
 71
     1
 72
     5
  1
2-φ3.5(取付穴)
  7
ゴシック体
1001
ACAD
1000
MTEXTBEGIN
1070
    73
1070
     1
1070
    44
1040
1.0
1070
    74
1070
     0
1000
MTEXTEND
1000
MTEXTBEGIN
1070
    73
1070
     1
1070
    44
1040
1.0
1070
    74
1070
     0
1000
MTEXTEND
  0
LEADER
  5
111C8
330
1A
100
AcDbEntity
  8
SUNPOU
100
AcDbLeader
  3
標準スタイル
 76
     3
 10
-1290.999999567958
 20
1604.000001208968
 30
0.0
 10
-1299.254888171339
 20
1594.658252962767
 30
0.0
 10
-1333.592158487121
 20
1594.65824060061
 30
0.0
211
-0.9999999999999353
221
-0.0000003600215482
231
0.0
1001
ACAD
1000
DSTYLE
1002
{
1070
     5
1000

1070
    77
1070
     0
1070
   147
1040
1.0
1070
   342
1005
0
1002
}
  0
CIRCLE
  5
111CF
330
1A
100
AcDbEntity
  8
ZISSEN1
100
AcDbCircle
 10
-1291.0
 20
1604.0
 30
0.0
 40
1.749999899999999
  0
CIRCLE
  5
111D6
330
1A
100
AcDbEntity
  8
ZISSEN1
100
AcDbCircle
 10
-1396.0
 20
1648.0
 30
0.0
 40
1.749999899999999
  0
LINE
  5
111D8
330
1A
100
AcDbEntity
  8
CL1
100
AcDbLine
 10
-1169.999970830309
 20
1627.565019754652
 30
0.0
 11
-1170.0
 21
1624.249999999999
 31
0.0
  0
LINE
  5
111E7
330
1A
100
AcDbEntity
  8
ZISSEN1
100
AcDbLine
 10
-1190.10000012329
 20
1600.000000140358
 30
0.0
 11
-1178.60003012329
 21
1600.000000140358
 31
0.0
  0
LINE
  5
111ED
330
1A
100
AcDbEntity
  8
ZISSEN1
100
AcDbLine
 10
-1190.10000012329
 20
1607.600000140358
 30
0.0
 11
-1178.60003012329
 21
1607.600000140358
 31
0.0
  0
LINE
  5
111F3
330
1A
100
AcDbEntity
  8
ZISSEN1
100
AcDbLine
 10
-1190.10000012329
 20
1610.000000140359
 30
0.0
 11
-1178.60003012329
 21
1610.000000140359
 31
0.0
  0
LINE
  5
111F9
330
1A
100
AcDbEntity
  8
ZISSEN1
100
AcDbLine
 10
-1190.10000012329
 20
1617.600000140358
 30
0.0
 11
-1178.60003012329
 21
1617.600000140358
 31
0.0
  0
LINE
  5
11205
330
1A
100
AcDbEntity
  8
ZISSEN1
100
AcDbLine
 10
-1187.10000012329
 20
1617.610000140359
 30
0.0
 11
-1178.6
 21
1617.610000140359
 31
0.0
  0
LINE
  5
1120B
330
1A
100
AcDbEntity
  8
ZISSEN1
100
AcDbLine
 10
-1190.10000012329
 20
1620.000000140358
 30
0.0
 11
-1178.60003012329
 21
1620.000000140358
 31
0.0
  0
LINE
  5
11212
330
1A
100
AcDbEntity
  8
ZISSEN1
100
AcDbLine
 10
-1190.10000012329
 20
1631.099999586804
 30
0.0
 11
-1178.60003012329
 21
1631.099999586804
 31
0.0
  0
LINE
  5
11219
330
1A
100
AcDbEntity
  8
ZISSEN1
100
AcDbLine
 10
-1190.100000347833
 20
1610.000000147342
 30
0.0
 11
-1190.099970224543
 21
1617.600000006983
 31
0.0
  0
LINE
  5
1121F
330
1A
100
AcDbEntity
  8
ZISSEN1
100
AcDbLine
 10
-1190.100000347833
 20
1600.000000147342
 30
0.0
 11
-1190.099970224543
 21
1607.600000006983
 31
0.0
  0
LINE
  5
11222
330
1A
100
AcDbEntity
  8
ZISSEN1
100
AcDbLine
 10
-1187.10000012329
 20
1617.610000140359
 30
0.0
 11
-1187.10000012329
 21
1617.599999999999
 31
0.0
  0
LINE
  5
11230
330
1A
100
AcDbEntity
  8
ZISSEN1
100
AcDbLine
 10
-1194.000000313689
 20
1648.10000040767
 30
0.0
 11
-1194.0
 21
1644.4
 31
0.0
  0
LINE
  5
11231
330
1A
100
AcDbEntity
  8
ZISSEN1
100
AcDbLine
 10
-1194.0
 20
1644.4
 30
0.0
 11
-1189.0
 21
1644.4
 31
0.0
  0
LINE
  5
1123A
330
1A
100
AcDbEntity
  8
ZISSEN1
100
AcDbLine
 10
-1194.000000313689
 20
1648.10000040767
 30
0.0
 11
-1189.000000313689
 21
1648.10000040767
 31
0.0
  0
DIMENSION
  5
11248
330
1A
100
AcDbEntity
  8
SUNPOU
100
AcDbDimension
  2
*D10
 10
-1165.0
 20
1582.679422254721
 30
0.0
 11
-1167.5
 21
1585.429422254721
 31
0.0
 70
    32
  3
標準スタイル
100
AcDbAlignedDimension
 13
-1170.0
 23
1600.0
 33
0.0
 14
-1165.0
 24
1609.754279754652
 34
0.0
100
AcDbRotatedDimension
1001
ACAD
1000
DSTYLE
1002
{
1070
    40
1040
1.0
1002
}
  0
DIMENSION
  5
11255
330
1A
100
AcDbEntity
  8
SUNPOU
100
AcDbDimension
  2
*D11
 10
-1170.0
 20
1582.679422254721
 30
0.0
 11
-1182.0
 21
1585.429422254721
 31
0.0
 70
    32
  3
標準スタイル
100
AcDbAlignedDimension
 13
-1194.0
 23
1644.4
 33
0.0
 14
-1170.0
 24
1600.0
 34
0.0
100
AcDbRotatedDimension
1001
ACAD
1000
DSTYLE
1002
{
1070
    40
1040
1.0
1002
}
  0
DIMENSION
  5
112D7
330
1A
100
AcDbEntity
  8
SUNPOU
100
AcDbDimension
  2
*D12
 10
-1171.99999
 20
1592.800198852982
 30
0.0
 11
-1171.139855077199
 21
1593.676389528578
 31
0.0
 70
   160
  3
標準スタイル
100
AcDbAlignedDimension
 13
-1170.0
 23
1600.0
 33
0.0
 14
-1171.99999
 24
1600.3
 34
0.0
100
AcDbRotatedDimension
1001
ACAD
1000
DSTYLE
1002
{
1070
   287
1070
     4
1070
    41
1040
2.0
1070
     6
1000

1070
   173
1070
     1
1070
     7
1000

1070
    40
1040
1.0
1070
   279
1070
     1
1002
}
  0
LINE
  5
112F4
330
1A
100
AcDbEntity
  8
SOUZOUSEN
100
AcDbLine
 10
-1245.000004
 20
1649.249999999999
 30
0.0
 11
-1223.6
 21
1649.25
 31
0.0
  0
LINE
  5
112F5
330
1A
100
AcDbEntity
  8
SOUZOUSEN
100
AcDbLine
 10
-1244.000004
 20
1643.249999999999
 30
0.0
 11
-1223.6
 21
1643.25
 31
0.0
  0
ARC
  5
112F6
330
1A
100
AcDbEntity
  8
SOUZOUSEN
100
AcDbCircle
 10
-1244.000003999999
 20
1633.249999999999
 30
0.0
 40
10.0
100
AcDbArc
 50
90.00000000000255
 51
180.0000000000025
  0
LINE
  5
112F7
330
1A
100
AcDbEntity
  8
SOUZOUSEN
100
AcDbLine
 10
-1260.000003999999
 20
1634.249999999999
 30
0.0
 11
-1260.000003999999
 21
1620.592580275681
 31
0.0
  0
ARC
  5
112F8
330
1A
100
AcDbEntity
  8
SOUZOUSEN
100
AcDbCircle
 10
-1245.000004
 20
1634.249999999999
 30
0.0
 40
15.0
100
AcDbArc
 50
90.00000000000255
 51
180.0000000000025
  0
LINE
  5
112F9
330
1A
100
AcDbEntity
  8
SOUZOUSEN
100
AcDbLine
 10
-1254.000003999999
 20
1633.249999999998
 30
0.0
 11
-1254.000003999999
 21
1620.424363329032
 31
0.0
  0
DIMENSION
  5
11300
330
1A
100
AcDbEntity
  8
SUNPOU
100
AcDbDimension
  2
*D13
 10
-1170.0
 20
1564.700547625372
 30
0.0
 11
-1215.000002
 21
1567.868060315727
 31
0.0
 70
    32
  1
CE-26等装着時　約90
  3
標準スタイル
100
AcDbAlignedDimension
 13
-1260.000003999999
 23
1620.592580275681
 33
0.0
 14
-1170.0
 24
1600.0
 34
0.0
100
AcDbRotatedDimension
1001
ACAD
1000
DSTYLE
1002
{
1070
    40
1040
1.0
1002
}
  0
LINE
  5
1139C
330
1A
100
AcDbEntity
  8
ZISSEN1
100
AcDbLine
 10
-1400.0
 20
1643.499999999999
 30
0.0
 11
-1399.5
 21
1644.0
 31
0.0
  0
LINE
  5
1139D
330
1A
100
AcDbEntity
  8
ZISSEN1
100
AcDbLine
 10
-1392.0
 20
1651.5
 30
0.0
 11
-1391.5
 21
1652.0
 31
0.0
  0
LINE
  5
1139E
330
1A
100
AcDbEntity
  8
ZISSEN1
100
AcDbLine
 10
-1287.5
 20
1608.000000384868
 30
0.0
 11
-1287.0
 21
1608.500000384868
 31
0.0
  0
LINE
  5
1139F
330
1A
100
AcDbEntity
  8
ZISSEN1
100
AcDbLine
 10
-1294.99999996434
 20
1600.5
 30
0.0
 11
-1295.49999996434
 21
1600.0
 31
0.0
  0
LINE
  5
113E2
330
1A
100
AcDbEntity
  8
ZISSEN1
100
AcDbLine
 10
-1400.000000040776
 20
1498.599997721809
 30
0.0
 11
-1400.000000040776
 21
1510.099979721809
 31
0.0
  0
LINE
  5
113E3
330
1A
100
AcDbEntity
  8
ZISSEN1
100
AcDbLine
 10
-1400.000000040776
 20
1510.099979721809
 30
0.0
 11
-1390.0
 21
1510.099979
 31
0.0
  0
LINE
  5
113ED
330
1A
100
AcDbEntity
  8
ZISSEN1
100
AcDbLine
 10
-1294.599999999999
 20
1510.099986377535
 30
0.0
 11
-1294.599999999999
 21
1498.599998377535
 31
0.0
  0
LINE
  5
113F3
330
1A
100
AcDbEntity
  8
ZISSEN1
100
AcDbLine
 10
-1286.999999177751
 20
1510.099983377536
 30
0.0
 11
-1286.999999177751
 21
1498.599995377535
 31
0.0
  0
LINE
  5
113F4
330
1A
100
AcDbEntity
  8
ZISSEN1
100
AcDbLine
 10
-1294.599999999999
 20
1510.099986377535
 30
0.0
 11
-1286.999999177751
 21
1510.099983377536
 31
0.0
  0
LINE
  5
113FB
330
1A
100
AcDbEntity
  8
ZISSEN1
100
AcDbLine
 10
-1287.499998859788
 20
1497.000001817748
 30
0.0
 11
-1287.499998859788
 21
1498.600002817748
 31
0.0
  0
LINE
  5
11401
330
1A
100
AcDbEntity
  8
ZISSEN1
100
AcDbLine
 10
-1295.499998859788
 20
1497.000001817748
 30
0.0
 11
-1295.499998859788
 21
1498.600002817748
 31
0.0
  0
LINE
  5
11408
330
1A
100
AcDbEntity
  8
ZISSEN1
100
AcDbLine
 10
-1176.999982629932
 20
1608.500002399453
 30
0.0
 11
-1178.600002629932
 21
1608.500002399453
 31
0.0
  0
LINE
  5
11411
330
1A
100
AcDbEntity
  8
ZISSEN1
100
AcDbLine
 10
-1400.0
 20
1465.0
 30
0.0
 11
-1287.0
 21
1465.0
 31
0.0
  0
LINE
  5
11412
330
1A
100
AcDbEntity
  8
ZISSEN1
100
AcDbLine
 10
-1287.0
 20
1413.0
 30
0.0
 11
-1286.999999076
 21
1437.2499990545
 31
0.0
  0
LINE
  5
11413
330
1A
100
AcDbEntity
  8
ZISSEN1
100
AcDbLine
 10
-1400.0
 20
1413.0
 30
0.0
 11
-1287.0
 21
1413.0
 31
0.0
  0
LINE
  5
11414
330
1A
100
AcDbEntity
  8
ZISSEN1
100
AcDbLine
 10
-1400.0
 20
1413.0
 30
0.0
 11
-1400.0
 21
1437.25
 31
0.0
  0
LINE
  5
1141D
330
1A
100
AcDbEntity
  8
ZISSEN1
100
AcDbLine
 10
-1376.5
 20
1418.0
 30
0.0
 11
-1370.5
 21
1418.0
 31
0.0
  0
LINE
  5
1141E
330
1A
100
AcDbEntity
  8
ZISSEN1
100
AcDbLine
 10
-1370.5
 20
1418.0
 30
0.0
 11
-1370.5
 21
1460.0
 31
0.0
  0
LINE
  5
1141F
330
1A
100
AcDbEntity
  8
ZISSEN1
100
AcDbLine
 10
-1370.5
 20
1460.0
 30
0.0
 11
-1376.5
 21
1460.0
 31
0.0
  0
LINE
  5
11420
330
1A
100
AcDbEntity
  8
ZISSEN1
100
AcDbLine
 10
-1376.5
 20
1460.0
 30
0.0
 11
-1376.5
 21
1418.0
 31
0.0
  0
LINE
  5
11421
330
1A
100
AcDbEntity
  8
ZISSEN1
100
AcDbLine
 10
-1316.500000937525
 20
1417.999997279778
 30
0.0
 11
-1310.500000937525
 21
1417.999997279778
 31
0.0
  0
LINE
  5
11422
330
1A
100
AcDbEntity
  8
ZISSEN1
100
AcDbLine
 10
-1310.500000937525
 20
1417.999997279778
 30
0.0
 11
-1310.500000937525
 21
1459.999997279778
 31
0.0
  0
LINE
  5
11423
330
1A
100
AcDbEntity
  8
ZISSEN1
100
AcDbLine
 10
-1310.500000937525
 20
1459.999997279778
 30
0.0
 11
-1316.500000937525
 21
1459.999997279778
 31
0.0
  0
LINE
  5
11424
330
1A
100
AcDbEntity
  8
ZISSEN1
100
AcDbLine
 10
-1316.500000937525
 20
1459.999997279778
 30
0.0
 11
-1316.500000937525
 21
1417.999997279778
 31
0.0
  0
LINE
  5
11426
330
1A
100
AcDbEntity
  8
ZISSEN1
100
AcDbLine
 10
-1400.0
 20
1437.25
 30
0.0
 11
-1392.5
 21
1437.25
 31
0.0
  0
LINE
  5
11427
330
1A
100
AcDbEntity
  8
ZISSEN1
100
AcDbLine
 10
-1390.75
 20
1439.0
 30
0.0
 11
-1390.75
 21
1439.0
 31
0.0
  0
LINE
  5
11428
330
1A
100
AcDbEntity
  8
ZISSEN1
100
AcDbLine
 10
-1392.5
 20
1440.75
 30
0.0
 11
-1400.0
 21
1440.75
 31
0.0
  0
ARC
  5
1142A
330
1A
100
AcDbEntity
  8
ZISSEN1
100
AcDbCircle
 10
-1392.5
 20
1439.0
 30
0.0
 40
1.75
100
AcDbArc
 50
0.0
 51
90.0
  0
ARC
  5
1142B
330
1A
100
AcDbEntity
  8
ZISSEN1
100
AcDbCircle
 10
-1392.5
 20
1439.0
 30
0.0
 40
1.75
100
AcDbArc
 50
270.0
 51
0.0
  0
LINE
  5
11436
330
1A
100
AcDbEntity
  8
ZISSEN1
100
AcDbLine
 10
-1296.249999076
 20
1438.9999990545
 30
0.0
 11
-1296.249999076
 21
1438.9999990545
 31
0.0
  0
LINE
  5
11437
330
1A
100
AcDbEntity
  8
ZISSEN1
100
AcDbLine
 10
-1286.999999076
 20
1437.2499990545
 30
0.0
 11
-1294.499999076
 21
1437.2499990545
 31
0.0
  0
ARC
  5
11438
330
1A
100
AcDbEntity
  8
ZISSEN1
100
AcDbCircle
 10
-1294.499999076
 20
1438.9999990545
 30
0.0
 40
1.75
100
AcDbArc
 50
180.0
 51
270.0
  0
LINE
  5
11439
330
1A
100
AcDbEntity
  8
ZISSEN1
100
AcDbLine
 10
-1294.499999076
 20
1440.7499990545
 30
0.0
 11
-1286.999999076
 21
1440.7499990545
 31
0.0
  0
ARC
  5
1143A
330
1A
100
AcDbEntity
  8
ZISSEN1
100
AcDbCircle
 10
-1294.499999076
 20
1438.9999990545
 30
0.0
 40
1.75
100
AcDbArc
 50
90.0
 51
180.0
  0
LINE
  5
11441
330
1A
100
AcDbEntity
  8
ZISSEN1
100
AcDbLine
 10
-1286.999994878429
 20
1440.74999614777
 30
0.0
 11
-1286.99999395443
 21
1464.99999520227
 31
0.0
  0
LINE
  5
11448
330
1A
100
AcDbEntity
  8
ZISSEN1
100
AcDbLine
 10
-1400.000000923999
 20
1440.74999709327
 30
0.0
 11
-1400.000000923999
 21
1464.99999709327
 31
0.0
  0
LINE
  5
11449
330
1A
100
AcDbEntity
  8
CL1
100
AcDbLine
 10
-1402.0
 20
1439.0
 30
0.0
 11
-1285.0
 21
1439.0
 31
0.0
  0
CIRCLE
  5
1144A
330
1A
100
AcDbEntity
  8
ZISSEN1
100
AcDbCircle
 10
-1396.0
 20
1417.0
 30
0.0
 40
1.75
  0
CIRCLE
  5
11451
330
1A
100
AcDbEntity
  8
ZISSEN1
100
AcDbCircle
 10
-1291.0
 20
1461.0
 30
0.0
 40
1.75
  0
LINE
  5
1146C
330
1A
100
AcDbEntity
  8
CL1
100
AcDbLine
 10
-1343.5
 20
1411.0
 30
0.0
 11
-1343.5
 21
1467.0
 31
0.0
  0
MTEXT
  5
114A5
330
1A
100
AcDbEntity
  8
SUNPOU
100
AcDbMText
 10
-1367.436987528004
 20
1477.568683144505
 30
0.0
 40
2.5
 41
41.08219064468054
 71
     1
 72
     5
  1
マウンティングフット\P取り付け穴(M3タップ×４)
  7
ゴシック体
1001
ACAD
1000
MTEXTBEGIN
1070
    73
1070
     1
1070
    44
1040
1.0
1070
    74
1070
     0
1000
MTEXTEND
  0
LINE
  5
114AA
330
1A
100
AcDbEntity
  8
CL1
100
AcDbLine
 10
-1392.5
 20
1442.0
 30
0.0
 11
-1392.5
 21
1436.0
 31
0.0
  0
LINE
  5
114B1
330
1A
100
AcDbEntity
  8
CL1
100
AcDbLine
 10
-1294.499996029851
 20
1442.000000768985
 30
0.0
 11
-1294.499996029851
 21
1436.000000768984
 31
0.0
  0
LINE
  5
11511
330
1A
100
AcDbEntity
  8
ZISSEN1
100
AcDbLine
 10
-1370.5
 20
1455.0
 30
0.0
 11
-1376.5
 21
1455.0
 31
0.0
  0
LINE
  5
11518
330
1A
100
AcDbEntity
  8
ZISSEN1
100
AcDbLine
 10
-1370.500000937525
 20
1423.000002886603
 30
0.0
 11
-1376.500000937525
 21
1423.000002886603
 31
0.0
  0
LINE
  5
11520
330
1A
100
AcDbEntity
  8
ZISSEN1
100
AcDbLine
 10
-1310.500000937525
 20
1454.999997466286
 30
0.0
 11
-1316.500000937525
 21
1454.999997466286
 31
0.0
  0
LINE
  5
11521
330
1A
100
AcDbEntity
  8
ZISSEN1
100
AcDbLine
 10
-1310.50000187505
 20
1423.000000352889
 30
0.0
 11
-1316.50000187505
 21
1423.000000352889
 31
0.0
  0
LINE
  5
11558
330
1A
100
AcDbEntity
  8
CL1
100
AcDbLine
 10
-1211.999997680162
 20
1380.500002556667
 30
0.0
 11
-1211.999997680162
 21
1497.500002556667
 31
0.0
  0
LINE
  5
11559
330
1A
100
AcDbEntity
  8
ZISSEN1
100
AcDbLine
 10
-1237.999997680162
 20
1382.500002556667
 30
0.0
 11
-1237.999997680162
 21
1495.500002556666
 31
0.0
  0
LINE
  5
1155C
330
1A
100
AcDbEntity
  8
ZISSEN1
100
AcDbLine
 10
-1185.999997680162
 20
1382.500002556667
 30
0.0
 11
-1185.999997680162
 21
1495.500002556666
 31
0.0
  0
LINE
  5
11562
330
1A
100
AcDbEntity
  8
ZISSEN1
100
AcDbLine
 10
-1213.749994773433
 20
1382.500001632667
 30
0.0
 11
-1237.999994773433
 21
1382.500001632667
 31
0.0
  0
LINE
  5
11564
330
1A
100
AcDbEntity
  8
CL1
100
AcDbLine
 10
-1214.999997680162
 20
1390.000002556667
 30
0.0
 11
-1208.999997680162
 21
1390.000002556667
 31
0.0
  0
CIRCLE
  5
11567
330
1A
100
AcDbEntity
  8
ZISSEN1
100
AcDbCircle
 10
-1189.999997680163
 20
1386.500002556666
 30
0.0
 40
1.75
  0
LINE
  5
11568
330
1A
100
AcDbEntity
  8
ZISSEN1
100
AcDbLine
 10
-1185.999997680162
 20
1382.500002556667
 30
0.0
 11
-1210.249997680162
 21
1382.500002556667
 31
0.0
  0
LINE
  5
11569
330
1A
100
AcDbEntity
  8
ZISSEN1
100
AcDbLine
 10
-1211.999997680162
 20
1391.750002556666
 30
0.0
 11
-1211.999997680162
 21
1391.750002556666
 31
0.0
  0
LINE
  5
1156A
330
1A
100
AcDbEntity
  8
ZISSEN1
100
AcDbLine
 10
-1210.249997680162
 20
1382.500002556667
 30
0.0
 11
-1210.249997680162
 21
1390.000002556667
 31
0.0
  0
ARC
  5
1156B
330
1A
100
AcDbEntity
  8
ZISSEN1
100
AcDbCircle
 10
-1211.999997680162
 20
1390.000002556667
 30
0.0
 40
1.75
100
AcDbArc
 50
0.0
 51
90.0
  0
LINE
  5
1156C
330
1A
100
AcDbEntity
  8
ZISSEN1
100
AcDbLine
 10
-1213.749997680162
 20
1390.000002556667
 30
0.0
 11
-1213.749997680162
 21
1382.500002556667
 31
0.0
  0
ARC
  5
1156D
330
1A
100
AcDbEntity
  8
ZISSEN1
100
AcDbCircle
 10
-1211.999997680162
 20
1390.000002556667
 30
0.0
 40
1.75
100
AcDbArc
 50
90.0
 51
180.0
  0
LINE
  5
11570
330
1A
100
AcDbEntity
  8
CL1
100
AcDbLine
 10
-1183.999997680162
 20
1439.000002556666
 30
0.0
 11
-1239.999997680162
 21
1439.000002556666
 31
0.0
  0
LINE
  5
11577
330
1A
100
AcDbEntity
  8
ZISSEN1
100
AcDbLine
 10
-1213.749993827933
 20
1495.500007678237
 30
0.0
 11
-1237.999992882433
 21
1495.500008602236
 31
0.0
  0
LINE
  5
11579
330
1A
100
AcDbEntity
  8
CL1
100
AcDbLine
 10
-1214.999998449147
 20
1488.000006526815
 30
0.0
 11
-1208.999998449147
 21
1488.000006526815
 31
0.0
  0
LINE
  5
1157C
330
1A
100
AcDbEntity
  8
ZISSEN1
100
AcDbLine
 10
-1185.999997680162
 20
1495.500002556666
 30
0.0
 11
-1210.249996734663
 21
1495.500003480666
 31
0.0
  0
LINE
  5
1157D
330
1A
100
AcDbEntity
  8
ZISSEN1
100
AcDbLine
 10
-1211.999996734663
 20
1486.250003480666
 30
0.0
 11
-1211.999996734663
 21
1486.250003480666
 31
0.0
  0
ARC
  5
1157E
330
1A
100
AcDbEntity
  8
ZISSEN1
100
AcDbCircle
 10
-1211.999996734663
 20
1488.000003480666
 30
0.0
 40
1.75
100
AcDbArc
 50
270.0
 51
0.0
  0
ARC
  5
1157F
330
1A
100
AcDbEntity
  8
ZISSEN1
100
AcDbCircle
 10
-1211.999996734663
 20
1488.000003480666
 30
0.0
 40
1.75
100
AcDbArc
 50
180.0
 51
270.0
  0
LINE
  5
11580
330
1A
100
AcDbEntity
  8
ZISSEN1
100
AcDbLine
 10
-1210.249996734663
 20
1495.500003480666
 30
0.0
 11
-1210.249996734663
 21
1488.000003480666
 31
0.0
  0
LINE
  5
11581
330
1A
100
AcDbEntity
  8
ZISSEN1
100
AcDbLine
 10
-1213.749996734662
 20
1488.000003480666
 30
0.0
 11
-1213.749996734662
 21
1495.500003480666
 31
0.0
  0
CIRCLE
  5
11582
330
1A
100
AcDbEntity
  8
ZISSEN1
100
AcDbCircle
 10
-1233.999997680163
 20
1491.500002556667
 30
0.0
 40
1.75
  0
LINE
  5
11583
330
1A
100
AcDbEntity
  8
ZISSEN1
100
AcDbLine
 10
-1249.999999062474
 20
1370.500002720221
 30
0.0
 11
-1173.999999062474
 21
1370.500002720221
 31
0.0
  0
LINE
  5
11584
330
1A
100
AcDbEntity
  8
ZISSEN1
100
AcDbLine
 10
-1173.999999062474
 20
1370.500002720221
 30
0.0
 11
-1173.999999062474
 21
1503.500002720221
 31
0.0
  0
LINE
  5
11585
330
1A
100
AcDbEntity
  8
ZISSEN1
100
AcDbLine
 10
-1237.999999062474
 20
1503.500002720221
 30
0.0
 11
-1249.999999062474
 21
1503.500002720221
 31
0.0
  0
LINE
  5
11586
330
1A
100
AcDbEntity
  8
ZISSEN1
100
AcDbLine
 10
-1249.999999062474
 20
1503.500002720221
 30
0.0
 11
-1249.999999062474
 21
1370.500002720221
 31
0.0
  0
MTEXT
  5
11587
330
1A
100
AcDbEntity
  8
ZISSEN1
100
AcDbMText
 10
-1237.023237077685
 20
1506.041888792272
 30
0.0
 40
2.5
 41
49.4632
 71
     1
 72
     5
  1
\U+25CF下図のように90°向きを変えて\P　使用する事が可能です。
  7
ゴシック体
1001
ACAD
1000
MTEXTBEGIN
1070
    73
1070
     1
1070
    44
1040
1.0
1070
    74
1070
     0
1000
MTEXTEND
  0
LINE
  5
11596
330
1A
100
AcDbEntity
  8
ZISSEN1
100
AcDbLine
 10
-1173.999999062474
 20
1503.500002720221
 30
0.0
 11
-1186.999999062474
 21
1503.500002720221
 31
0.0
  0
LINE
  5
115A2
330
1A
100
AcDbEntity
  8
ZISSEN1
100
AcDbLine
 10
-1224.000000937525
 20
1423.000002886603
 30
0.0
 11
-1230.000000937525
 21
1423.000002886603
 31
0.0
  0
LINE
  5
115A3
330
1A
100
AcDbEntity
  8
ZISSEN1
100
AcDbLine
 10
-1224.0
 20
1455.0
 30
0.0
 11
-1230.0
 21
1455.0
 31
0.0
  0
LINE
  5
115A4
330
1A
100
AcDbEntity
  8
ZISSEN1
100
AcDbLine
 10
-1224.0
 20
1460.0
 30
0.0
 11
-1230.0
 21
1460.0
 31
0.0
  0
LINE
  5
115A5
330
1A
100
AcDbEntity
  8
ZISSEN1
100
AcDbLine
 10
-1230.0
 20
1418.0
 30
0.0
 11
-1224.0
 21
1418.0
 31
0.0
  0
LINE
  5
115A6
330
1A
100
AcDbEntity
  8
ZISSEN1
100
AcDbLine
 10
-1230.0
 20
1460.0
 30
0.0
 11
-1230.0
 21
1418.0
 31
0.0
  0
LINE
  5
115A7
330
1A
100
AcDbEntity
  8
ZISSEN1
100
AcDbLine
 10
-1224.0
 20
1418.0
 30
0.0
 11
-1224.0
 21
1460.0
 31
0.0
  0
LINE
  5
115B2
330
1A
100
AcDbEntity
  8
ZISSEN1
100
AcDbLine
 10
-1194.000000937525
 20
1423.000002886603
 30
0.0
 11
-1200.000000937525
 21
1423.000002886603
 31
0.0
  0
LINE
  5
115B3
330
1A
100
AcDbEntity
  8
ZISSEN1
100
AcDbLine
 10
-1194.0
 20
1455.0
 30
0.0
 11
-1200.0
 21
1455.0
 31
0.0
  0
LINE
  5
115B4
330
1A
100
AcDbEntity
  8
ZISSEN1
100
AcDbLine
 10
-1194.0
 20
1460.0
 30
0.0
 11
-1200.0
 21
1460.0
 31
0.0
  0
LINE
  5
115B5
330
1A
100
AcDbEntity
  8
ZISSEN1
100
AcDbLine
 10
-1200.0
 20
1418.0
 30
0.0
 11
-1194.0
 21
1418.0
 31
0.0
  0
LINE
  5
115B6
330
1A
100
AcDbEntity
  8
ZISSEN1
100
AcDbLine
 10
-1200.0
 20
1460.0
 30
0.0
 11
-1200.0
 21
1418.0
 31
0.0
  0
LINE
  5
115B7
330
1A
100
AcDbEntity
  8
ZISSEN1
100
AcDbLine
 10
-1194.0
 20
1418.0
 30
0.0
 11
-1194.0
 21
1460.0
 31
0.0
  0
LINE
  5
1160E
330
1A
100
AcDbEntity
  8
ZISSEN1
100
AcDbLine
 10
-1410.0
 20
1280.0
 30
0.0
 11
-1250.0
 21
1280.0
 31
0.0
  0
LINE
  5
1160F
330
1A
100
AcDbEntity
  8
ZISSEN1
100
AcDbLine
 10
-1250.0
 20
1280.0
 30
0.0
 11
-1250.0
 21
1365.0
 31
0.0
  0
LINE
  5
11610
330
1A
100
AcDbEntity
  8
ZISSEN1
100
AcDbLine
 10
-1347.0
 20
1365.0
 30
0.0
 11
-1410.0
 21
1365.0
 31
0.0
  0
LINE
  5
11611
330
1A
100
AcDbEntity
  8
ZISSEN1
100
AcDbLine
 10
-1410.0
 20
1365.0
 30
0.0
 11
-1410.0
 21
1280.0
 31
0.0
  0
LINE
  5
11618
330
1A
100
AcDbEntity
  8
ZISSEN1
100
AcDbLine
 10
-1250.0
 20
1365.0
 30
0.0
 11
-1313.0
 21
1365.0
 31
0.0
  0
LINE
  5
1163E
330
1A
100
AcDbEntity
  8
ZISSEN1
100
AcDbLine
 10
-1352.299999317774
 20
1617.599999999999
 30
0.0
 11
-1352.299999317774
 21
1610.0
 31
0.0
  0
LINE
  5
1163F
330
1A
100
AcDbEntity
  8
ZISSEN1
100
AcDbLine
 10
-1352.299999317774
 20
1607.6
 30
0.0
 11
-1352.299999317774
 21
1600.0
 31
0.0
  0
LINE
  5
11646
330
1A
100
AcDbEntity
  8
ZISSEN1
100
AcDbLine
 10
-1349.199999317775
 20
1617.599989278331
 30
0.0
 11
-1349.199999317775
 21
1609.999999278331
 31
0.0
  0
LINE
  5
11647
330
1A
100
AcDbEntity
  8
ZISSEN1
100
AcDbLine
 10
-1349.199999317775
 20
1607.59998970193
 30
0.0
 11
-1349.199999317775
 21
1599.99999970193
 31
0.0
  0
LINE
  5
1164F
330
1A
100
AcDbEntity
  8
ZISSEN1
100
AcDbLine
 10
-1349.199999368444
 20
1498.600000253159
 30
0.0
 11
-1349.199999368444
 21
1510.09998225316
 31
0.0
  0
LINE
  5
11655
330
1A
100
AcDbEntity
  8
ZISSEN1
100
AcDbLine
 10
-1352.299999368445
 20
1498.600000253159
 30
0.0
 11
-1352.299999368445
 21
1510.09998225316
 31
0.0
  0
LEADER
  5
11676
330
1A
100
AcDbEntity
  8
ZISSEN1
100
AcDbLeader
  3
標準スタイル
 76
     2
 10
-1314.474671723806
 20
1440.140182016527
 30
0.0
 10
-1340.0
 20
1470.0
 30
0.0
1001
ACAD
1000
DSTYLE
1002
{
1070
     5
1000

1070
    77
1070
     0
1070
   147
1040
1.0
1002
}
  0
LEADER
  5
11677
330
1A
100
AcDbEntity
  8
ZISSEN1
100
AcDbLeader
  3
標準スタイル
 76
     2
 10
-1343.12603046209
 20
1455.709575030443
 30
0.0
 10
-1340.0
 20
1470.0
 30
0.0
1001
ACAD
1000
DSTYLE
1002
{
1070
     5
1000

1070
    77
1070
     0
1070
   147
1040
1.0
1002
}
  0
ARC
  5
1171A
102
{ACAD_REACTORS
330
11855
102
}
330
1A
100
AcDbEntity
  8
ZISSEN1
100
AcDbCircle
 10
-1373.499999999999
 20
1439.0
 30
0.0
 40
2.0
100
AcDbArc
 50
60.00000000000272
 51
119.6196366667142
  0
ARC
  5
1171B
102
{ACAD_REACTORS
330
11855
102
}
330
1A
100
AcDbEntity
  8
ZISSEN1
100
AcDbCircle
 10
-1373.499999999999
 20
1439.0
 30
0.0
 40
2.0
100
AcDbArc
 50
240.0000000000139
 51
300.3803633332944
  0
CIRCLE
  5
1171C
102
{ACAD_REACTORS
330
11855
102
}
330
1A
100
AcDbEntity
  8
SAISEN
100
AcDbCircle
 10
-1373.499999999999
 20
1439.0
 30
0.0
 40
1.5
  0
CIRCLE
  5
1171D
102
{ACAD_REACTORS
330
11855
102
}
330
1A
100
AcDbEntity
  8
ZISSEN1
100
AcDbCircle
 10
-1373.499999999999
 20
1439.0
 30
0.0
 40
1.0
  0
ARC
  5
1171E
102
{ACAD_REACTORS
330
11855
102
}
330
1A
100
AcDbEntity
  8
ZISSEN1
100
AcDbCircle
 10
-1373.499999999999
 20
1439.0
 30
0.0
 40
2.0
100
AcDbArc
 50
149.3411817027459
 51
209.9999999999859
  0
ARC
  5
1171F
102
{ACAD_REACTORS
330
11855
102
}
330
1A
100
AcDbEntity
  8
ZISSEN1
100
AcDbCircle
 10
-1373.499999999999
 20
1439.0
 30
0.0
 40
2.0
100
AcDbArc
 50
330.6588182972494
 51
29.99999999999729
  0
ARC
  5
1174A
102
{ACAD_REACTORS
330
118D9
102
}
330
1A
100
AcDbEntity
  8
ZISSEN1
100
AcDbCircle
 10
-1211.995885892901
 20
1408.995963450758
 30
0.0
 40
2.0
100
AcDbArc
 50
60.00000000000272
 51
119.6196366667142
  0
ARC
  5
1174B
102
{ACAD_REACTORS
330
118D9
102
}
330
1A
100
AcDbEntity
  8
ZISSEN1
100
AcDbCircle
 10
-1211.995885892901
 20
1408.995963450758
 30
0.0
 40
2.0
100
AcDbArc
 50
240.0000000000139
 51
300.3803633332944
  0
CIRCLE
  5
1174C
102
{ACAD_REACTORS
330
118D9
102
}
330
1A
100
AcDbEntity
  8
SAISEN
100
AcDbCircle
 10
-1211.999997680162
 20
1409.000002556666
 30
0.0
 40
1.5
  0
CIRCLE
  5
1174D
102
{ACAD_REACTORS
330
118D9
102
}
330
1A
100
AcDbEntity
  8
ZISSEN1
100
AcDbCircle
 10
-1211.999997680162
 20
1409.000002556666
 30
0.0
 40
1.0
  0
ARC
  5
1174E
102
{ACAD_REACTORS
330
118D9
102
}
330
1A
100
AcDbEntity
  8
ZISSEN1
100
AcDbCircle
 10
-1211.995885892901
 20
1408.995963450758
 30
0.0
 40
2.0
100
AcDbArc
 50
149.3411817027459
 51
209.9999999999859
  0
ARC
  5
1174F
102
{ACAD_REACTORS
330
118D9
102
}
330
1A
100
AcDbEntity
  8
ZISSEN1
100
AcDbCircle
 10
-1211.995885892901
 20
1408.995963450758
 30
0.0
 40
2.0
100
AcDbArc
 50
330.6588182972494
 51
29.99999999999729
  0
LINE
  5
11AC9
330
1A
100
AcDbEntity
  8
KAKURESEN1
100
AcDbLine
 10
-1165.899153150915
 20
1627.499999999999
 30
0.0
 11
-1171.99999
 21
1627.499999999999
 31
0.0
  0
LINE
  5
11ACD
330
1A
100
AcDbEntity
  8
KAKURESEN1
100
AcDbLine
 10
-1165.89525985023
 20
1624.5
 30
0.0
 11
-1171.99999
 21
1624.5
 31
0.0
  0
LINE
  5
11B0E
330
1A
100
AcDbEntity
  8
KAKURESEN1
100
AcDbLine
 10
-1166.101132712107
 20
1627.0
 30
0.0
 11
-1171.99999
 21
1627.0
 31
0.0
  0
LINE
  5
11B0F
330
1A
100
AcDbEntity
  8
KAKURESEN1
100
AcDbLine
 10
-1165.899153150915
 20
1627.499999999999
 30
0.0
 11
-1171.99999
 21
1627.499999999999
 31
0.0
  0
LINE
  5
11B11
330
1A
100
AcDbEntity
  8
KAKURESEN1
100
AcDbLine
 10
-1165.89525985023
 20
1624.5
 30
0.0
 11
-1171.99999
 21
1624.5
 31
0.0
  0
LINE
  5
11B56
330
1A
100
AcDbEntity
  8
KAKURESEN1
100
AcDbLine
 10
-1171.99999
 20
1625.0
 30
0.0
 11
-1166.253234356813
 21
1625.0
 31
0.0
  0
LINE
  5
11B57
330
1A
100
AcDbEntity
  8
KAKURESEN1
100
AcDbLine
 10
-1171.99999
 20
1627.0
 30
0.0
 11
-1166.253234356813
 21
1627.0
 31
0.0
  0
LINE
  5
11B58
330
1A
100
AcDbEntity
  8
KAKURESEN1
100
AcDbLine
 10
-1171.99999
 20
1627.499999999999
 30
0.0
 11
-1166.253234356813
 21
1627.499999999999
 31
0.0
  0
LINE
  5
11B59
330
1A
100
AcDbEntity
  8
KAKURESEN1
100
AcDbLine
 10
-1171.99999
 20
1624.5
 30
0.0
 11
-1166.253234356813
 21
1624.5
 31
0.0
  0
ARC
  5
11C0C
102
{ACAD_REACTORS
330
11C12
102
}
330
1A
100
AcDbEntity
  8
ZISSEN1
100
AcDbCircle
 10
-1313.5
 20
1439.0
 30
0.0
 40
2.0
100
AcDbArc
 50
60.00000000000272
 51
119.6196366667142
  0
ARC
  5
11C0D
102
{ACAD_REACTORS
330
11C12
102
}
330
1A
100
AcDbEntity
  8
ZISSEN1
100
AcDbCircle
 10
-1313.5
 20
1439.0
 30
0.0
 40
2.0
100
AcDbArc
 50
240.0000000000139
 51
300.3803633332944
  0
CIRCLE
  5
11C0E
102
{ACAD_REACTORS
330
11C12
102
}
330
1A
100
AcDbEntity
  8
SAISEN
100
AcDbCircle
 10
-1313.5
 20
1439.0
 30
0.0
 40
1.5
  0
CIRCLE
  5
11C0F
102
{ACAD_REACTORS
330
11C12
102
}
330
1A
100
AcDbEntity
  8
ZISSEN1
100
AcDbCircle
 10
-1313.5
 20
1439.0
 30
0.0
 40
1.0
  0
ARC
  5
11C10
102
{ACAD_REACTORS
330
11C12
102
}
330
1A
100
AcDbEntity
  8
ZISSEN1
100
AcDbCircle
 10
-1313.5
 20
1439.0
 30
0.0
 40
2.0
100
AcDbArc
 50
149.3411817027459
 51
209.9999999999859
  0
ARC
  5
11C11
102
{ACAD_REACTORS
330
11C12
102
}
330
1A
100
AcDbEntity
  8
ZISSEN1
100
AcDbCircle
 10
-1313.5
 20
1439.0
 30
0.0
 40
2.0
100
AcDbArc
 50
330.6588182972494
 51
29.99999999999729
  0
ARC
  5
11C13
102
{ACAD_REACTORS
330
11C19
102
}
330
1A
100
AcDbEntity
  8
ZISSEN1
100
AcDbCircle
 10
-1343.5
 20
1454.0
 30
0.0
 40
2.0
100
AcDbArc
 50
60.00000000000272
 51
119.6196366667142
  0
ARC
  5
11C14
102
{ACAD_REACTORS
330
11C19
102
}
330
1A
100
AcDbEntity
  8
ZISSEN1
100
AcDbCircle
 10
-1343.5
 20
1454.0
 30
0.0
 40
2.0
100
AcDbArc
 50
240.0000000000139
 51
300.3803633332944
  0
CIRCLE
  5
11C15
102
{ACAD_REACTORS
330
11C19
102
}
330
1A
100
AcDbEntity
  8
SAISEN
100
AcDbCircle
 10
-1343.5
 20
1454.0
 30
0.0
 40
1.5
  0
CIRCLE
  5
11C16
102
{ACAD_REACTORS
330
11C19
102
}
330
1A
100
AcDbEntity
  8
ZISSEN1
100
AcDbCircle
 10
-1343.5
 20
1454.0
 30
0.0
 40
1.0
  0
ARC
  5
11C17
102
{ACAD_REACTORS
330
11C19
102
}
330
1A
100
AcDbEntity
  8
ZISSEN1
100
AcDbCircle
 10
-1343.5
 20
1454.0
 30
0.0
 40
2.0
100
AcDbArc
 50
149.3411817027459
 51
209.9999999999859
  0
ARC
  5
11C18
102
{ACAD_REACTORS
330
11C19
102
}
330
1A
100
AcDbEntity
  8
ZISSEN1
100
AcDbCircle
 10
-1343.5
 20
1454.0
 30
0.0
 40
2.0
100
AcDbArc
 50
330.6588182972494
 51
29.99999999999729
  0
ARC
  5
11C1A
102
{ACAD_REACTORS
330
11C20
102
}
330
1A
100
AcDbEntity
  8
ZISSEN1
100
AcDbCircle
 10
-1343.5
 20
1424.0
 30
0.0
 40
2.0
100
AcDbArc
 50
60.00000000000272
 51
119.6196366667142
  0
ARC
  5
11C1B
102
{ACAD_REACTORS
330
11C20
102
}
330
1A
100
AcDbEntity
  8
ZISSEN1
100
AcDbCircle
 10
-1343.5
 20
1424.0
 30
0.0
 40
2.0
100
AcDbArc
 50
240.0000000000139
 51
300.3803633332944
  0
CIRCLE
  5
11C1C
102
{ACAD_REACTORS
330
11C20
102
}
330
1A
100
AcDbEntity
  8
SAISEN
100
AcDbCircle
 10
-1343.5
 20
1424.0
 30
0.0
 40
1.5
  0
CIRCLE
  5
11C1D
102
{ACAD_REACTORS
330
11C20
102
}
330
1A
100
AcDbEntity
  8
ZISSEN1
100
AcDbCircle
 10
-1343.5
 20
1424.0
 30
0.0
 40
1.0
  0
ARC
  5
11C1E
102
{ACAD_REACTORS
330
11C20
102
}
330
1A
100
AcDbEntity
  8
ZISSEN1
100
AcDbCircle
 10
-1343.5
 20
1424.0
 30
0.0
 40
2.0
100
AcDbArc
 50
149.3411817027459
 51
209.9999999999859
  0
ARC
  5
11C1F
102
{ACAD_REACTORS
330
11C20
102
}
330
1A
100
AcDbEntity
  8
ZISSEN1
100
AcDbCircle
 10
-1343.5
 20
1424.0
 30
0.0
 40
2.0
100
AcDbArc
 50
330.6588182972494
 51
29.99999999999729
  0
ARC
  5
11C28
102
{ACAD_REACTORS
330
11C2E
102
}
330
1A
100
AcDbEntity
  8
ZISSEN1
100
AcDbCircle
 10
-1211.995885892901
 20
1468.995960894091
 30
0.0
 40
2.0
100
AcDbArc
 50
330.6588182972494
 51
29.99999999999729
  0
CIRCLE
  5
11C29
102
{ACAD_REACTORS
330
11C2E
102
}
330
1A
100
AcDbEntity
  8
ZISSEN1
100
AcDbCircle
 10
-1211.999997680162
 20
1469.0
 30
0.0
 40
1.0
  0
CIRCLE
  5
11C2A
102
{ACAD_REACTORS
330
11C2E
102
}
330
1A
100
AcDbEntity
  8
SAISEN
100
AcDbCircle
 10
-1211.999997680162
 20
1469.0
 30
0.0
 40
1.5
  0
ARC
  5
11C2B
102
{ACAD_REACTORS
330
11C2E
102
}
330
1A
100
AcDbEntity
  8
ZISSEN1
100
AcDbCircle
 10
-1211.995885892901
 20
1468.995960894091
 30
0.0
 40
2.0
100
AcDbArc
 50
240.0000000000139
 51
300.3803633332944
  0
ARC
  5
11C2C
102
{ACAD_REACTORS
330
11C2E
102
}
330
1A
100
AcDbEntity
  8
ZISSEN1
100
AcDbCircle
 10
-1211.995885892901
 20
1468.995960894091
 30
0.0
 40
2.0
100
AcDbArc
 50
60.00000000000272
 51
119.6196366667142
  0
ARC
  5
11C2D
102
{ACAD_REACTORS
330
11C2E
102
}
330
1A
100
AcDbEntity
  8
ZISSEN1
100
AcDbCircle
 10
-1211.995885892901
 20
1468.995960894091
 30
0.0
 40
2.0
100
AcDbArc
 50
149.3411817027459
 51
209.9999999999859
  0
ARC
  5
11C2F
102
{ACAD_REACTORS
330
11C35
102
}
330
1A
100
AcDbEntity
  8
ZISSEN1
100
AcDbCircle
 10
-1196.995885892901
 20
1438.995958337424
 30
0.0
 40
2.0
100
AcDbArc
 50
60.00000000000272
 51
119.6196366667142
  0
ARC
  5
11C30
102
{ACAD_REACTORS
330
11C35
102
}
330
1A
100
AcDbEntity
  8
ZISSEN1
100
AcDbCircle
 10
-1196.995885892901
 20
1438.995958337424
 30
0.0
 40
2.0
100
AcDbArc
 50
240.0000000000139
 51
300.3803633332944
  0
CIRCLE
  5
11C31
102
{ACAD_REACTORS
330
11C35
102
}
330
1A
100
AcDbEntity
  8
SAISEN
100
AcDbCircle
 10
-1196.999997680162
 20
1438.999997443333
 30
0.0
 40
1.5
  0
CIRCLE
  5
11C32
102
{ACAD_REACTORS
330
11C35
102
}
330
1A
100
AcDbEntity
  8
ZISSEN1
100
AcDbCircle
 10
-1196.999997680162
 20
1438.999997443333
 30
0.0
 40
1.0
  0
ARC
  5
11C33
102
{ACAD_REACTORS
330
11C35
102
}
330
1A
100
AcDbEntity
  8
ZISSEN1
100
AcDbCircle
 10
-1196.995885892901
 20
1438.995958337424
 30
0.0
 40
2.0
100
AcDbArc
 50
149.3411817027459
 51
209.9999999999859
  0
ARC
  5
11C34
102
{ACAD_REACTORS
330
11C35
102
}
330
1A
100
AcDbEntity
  8
ZISSEN1
100
AcDbCircle
 10
-1196.995885892901
 20
1438.995958337424
 30
0.0
 40
2.0
100
AcDbArc
 50
330.6588182972494
 51
29.99999999999729
  0
ARC
  5
11C36
102
{ACAD_REACTORS
330
11C3C
102
}
330
1A
100
AcDbEntity
  8
ZISSEN1
100
AcDbCircle
 10
-1226.995885892901
 20
1438.995960894091
 30
0.0
 40
2.0
100
AcDbArc
 50
60.00000000000272
 51
119.6196366667142
  0
ARC
  5
11C37
102
{ACAD_REACTORS
330
11C3C
102
}
330
1A
100
AcDbEntity
  8
ZISSEN1
100
AcDbCircle
 10
-1226.995885892901
 20
1438.995960894091
 30
0.0
 40
2.0
100
AcDbArc
 50
240.0000000000139
 51
300.3803633332944
  0
CIRCLE
  5
11C38
102
{ACAD_REACTORS
330
11C3C
102
}
330
1A
100
AcDbEntity
  8
SAISEN
100
AcDbCircle
 10
-1226.999997680162
 20
1439.0
 30
0.0
 40
1.5
  0
CIRCLE
  5
11C39
102
{ACAD_REACTORS
330
11C3C
102
}
330
1A
100
AcDbEntity
  8
ZISSEN1
100
AcDbCircle
 10
-1226.999997680162
 20
1439.0
 30
0.0
 40
1.0
  0
ARC
  5
11C3A
102
{ACAD_REACTORS
330
11C3C
102
}
330
1A
100
AcDbEntity
  8
ZISSEN1
100
AcDbCircle
 10
-1226.995885892901
 20
1438.995960894091
 30
0.0
 40
2.0
100
AcDbArc
 50
149.3411817027459
 51
209.9999999999859
  0
ARC
  5
11C3B
102
{ACAD_REACTORS
330
11C3C
102
}
330
1A
100
AcDbEntity
  8
ZISSEN1
100
AcDbCircle
 10
-1226.995885892901
 20
1438.995960894091
 30
0.0
 40
2.0
100
AcDbArc
 50
330.6588182972494
 51
29.99999999999729
  0
DIMENSION
  5
11CBF
330
1A
100
AcDbEntity
  8
SUNPOU
100
AcDbDimension
  2
*D32
 10
-1373.499999999999
 20
1404.203806065547
 30
0.0
 11
-1343.5
 21
1406.953806065547
 31
0.0
 70
    32
  3
標準スタイル
100
AcDbAlignedDimension
 13
-1313.5
 23
1439.0
 33
0.0
 14
-1373.499999999999
 24
1439.0
 34
0.0
100
AcDbRotatedDimension
1001
ACAD
1000
DSTYLE
1002
{
1070
    40
1040
1.0
1002
}
  0
DIMENSION
  5
11CCC
330
1A
100
AcDbEntity
  8
SUNPOU
100
AcDbDimension
  2
*D33
 10
-1409.460655336894
 20
1424.0
 30
0.0
 11
-1412.210655336894
 21
1439.0
 31
0.0
 70
    32
  3
標準スタイル
100
AcDbAlignedDimension
 13
-1343.5
 23
1454.0
 33
0.0
 14
-1343.5
 24
1424.0
 34
0.0
 50
90.0
100
AcDbRotatedDimension
1001
ACAD
1000
DSTYLE
1002
{
1070
    40
1040
1.0
1002
}
  0
LINE
  5
11D8C
330
1A
100
AcDbEntity
  8
KAKURESEN1
100
AcDbLine
 10
-1171.99999
 20
1627.0
 30
0.0
 11
-1166.101132712107
 21
1627.0
 31
0.0
  0
VIEWPORT
  5
5D8F
330
5D8E
100
AcDbEntity
 67
     1
  8
0
100
AcDbViewport
 10
279.0401827176467
 20
151.8357620894385
 30
0.0
 40
605.0040902936236
 41
296.4640801738215
 68
     1
 69
     1
1001
ACAD
1000
MVIEW
1002
{
1070
    16
1010
0.0
1020
0.0
1030
0.0
1010
0.0
1020
0.0
1030
1.0
1040
0.0
1040
296.4640801738215
1040
279.0401827176467
1040
151.8357620894385
1040
50.0
1040
0.0
1040
0.0
1070
     0
1070
   100
1070
     1
1070
     0
1070
     0
1070
     0
1070
     0
1070
     0
1040
0.0
1040
0.0
1040
0.0
1040
1.0
1040
1.0
1040
10.0
1040
10.0
1070
     0
1002
{
1002
}
1002
}
  0
VIEWPORT
  5
6001
330
5D8E
100
AcDbEntity
 67
     1
  8
ZISSEN1
100
AcDbViewport
 10
221.7861955525412
 20
157.6960273330388
 30
0.0
 40
385.4999999999997
 41
259.9999999999999
 68
     2
 69
     2
1001
ACAD
1000
MVIEW
1002
{
1070
    16
1010
0.0
1020
0.0
1030
0.0
1010
0.0
1020
0.0
1030
1.0
1040
0.0
1040
519.9999999999999
1040
-1316.582705414907
1040
1470.646083486224
1040
50.0
1040
0.0
1040
0.0
1070
     0
1070
   100
1070
     1
1070
     0
1070
     0
1070
     0
1070
     0
1070
     0
1040
0.0
1040
0.0
1040
0.0
1040
1.0
1040
1.0
1040
10.0
1040
10.0
1070
     0
1002
{
1002
}
1002
}
  0
TEXT
  5
716F
330
5D8E
100
AcDbEntity
 67
     1
  8
SUNPOU
 62
     0
100
AcDbText
 10
374.1863124306944
 20
60.86794705907585
 30
0.0
 40
3.5
  1
縮尺 1/2
  7
ゴシック体
100
AcDbText
  0
ENDSEC
  0
SECTION
  2
OBJECTS
  0
DICTIONARY
  5
C
330
0
100
AcDbDictionary
  3
ACAD_GROUP
350
D
  3
ACAD_LAYOUT
350
5C7D
  3
ACAD_MLINESTYLE
350
E
  3
ACAD_PLOTSETTINGS
350
5C7E
  3
ACAD_PLOTSTYLENAME
350
5C7B
  3
ACDBVARIABLEDICTIONARY
350
117FD
  3
DWGPROPS
350
5E8E
  3
ACDBHEADERROUNDTRIPXREC
350
11DEA
  0
DICTIONARY
  5
11E0A
330
1A
100
AcDbDictionary
280
     1
  3
ACAD_LAYOUTSELFREF
360
11E0B
  0
DICTIONARY
  5
11E0C
330
5D8E
100
AcDbDictionary
280
     1
  3
ACAD_LAYOUTSELFREF
360
11E0D
  0
DICTIONARY
  5
D
102
{ACAD_REACTORS
330
C
102
}
330
C
100
AcDbDictionary
  3
*A1
350
477D
  3
*A2
350
11984
  3
*A3
350
1199F
  3
*A4
350
477E
  3
*A5
350
4C11
  3
*A6
350
4C12
  3
*A7
350
4C13
  3
*A8
350
4C14
  3
*A9
350
4C15
  3
*A10
350
4C16
  3
*A11
350
4C17
  3
*A12
350
11855
  3
*A13
350
477F
  3
*A14
350
4780
  3
*A15
350
4781
  3
*A16
350
4C0E
  3
*A17
350
4C0F
  3
*A18
350
11811
  3
*A19
350
11839
  3
*A20
350
11C02
  3
*A21
350
11C12
  3
*A22
350
11C19
  3
*A23
350
11896
  3
*A24
350
11C20
  3
*A25
350
11C27
  3
*A26
350
11C2E
  3
*A27
350
11C35
  3
*A28
350
11C3C
  3
*A29
350
11D6D
  3
*A30
350
4C10
  3
*A31
350
118BC
  3
*A32
350
118D9
  3
*A33
350
1191B
  3
*A34
350
11929
  3
*A35
350
11950
  0
DICTIONARY
  5
5C7D
102
{ACAD_REACTORS
330
C
102
}
330
C
100
AcDbDictionary
  0
DICTIONARY
  5
E
102
{ACAD_REACTORS
330
C
102
}
330
C
100
AcDbDictionary
  3
STANDARD
350
13
  0
DICTIONARY
  5
5C7E
102
{ACAD_REACTORS
330
C
102
}
330
C
100
AcDbDictionary
  0
ACDBDICTIONARYWDFLT
  5
5C7B
102
{ACAD_REACTORS
330
C
102
}
330
C
100
AcDbDictionary
281
     1
  3
Normal
350
5C7C
100
AcDbDictionaryWithDefault
340
5C7C
  0
DICTIONARY
  5
117FD
102
{ACAD_REACTORS
330
C
102
}
330
C
100
AcDbDictionary
  3
INDEXCTL
350
117FE
  0
XRECORD
  5
5E8E
102
{ACAD_REACTORS
330
C
102
}
330
C
100
AcDbXrecord
  1
DWGPROPS COOKIE
  2

  3

  4

  6

  7

  8

  9

300
=
301
=
302
=
303
=
304
=
305
=
306
=
307
=
308
=
309
=
 40
0.586753587962963
 41
2450495.493631365
 42
2453208.662277431
  1

 90
        0
  0
DICTIONARY
  5
11DEA
102
{ACAD_REACTORS
330
C
102
}
330
C
100
AcDbDictionary
  3
TSTACKALIGN
350
11DEB
  3
TSTACKSIZE
350
11DEC
  3
HYPERLINKBASE
350
11DED
  3
STYLESHEET
350
11DEE
  3
LAYOUTDICT
350
11DEF
  3
PLOTSETDICT
350
11DF0
  3
PLOTSTYLNAMDICT
350
11DF1
  3
LWETCUNION
350
11DF2
  3
INSUNITS
350
11DF3
  3
CEPSNTYPE
350
11DF4
  3
FINGERPRINTGUID
350
11DF5
  3
VERSIONGUID
350
11DF6
  3
PSVPSCALE
350
11DF7
  3
PUCSORTHOREF
350
11DF8
  3
PUCSORTHOVIEW
350
11DF9
  3
PUCSBASE
350
11DFA
  3
PUCSORGTOP
350
11DFB
  3
PUCSORGBOTTOM
350
11DFC
  3
PUCSORGLEFT
350
11DFD
  3
PUCSORGRIGHT
350
11DFE
  3
PUCSORGFRONT
350
11DFF
  3
PUCSORGBACK
350
11E00
  3
UCSORTHOREF
350
11E01
  3
UCSORTHOVIEW
350
11E02
  3
UCSBASE
350
11E03
  3
UCSORGTOP
350
11E04
  3
UCSORGBOTTOM
350
11E05
  3
UCSORGLEFT
350
11E06
  3
UCSORGRIGHT
350
11E07
  3
UCSORGFRONT
350
11E08
  3
UCSORGBACK
350
11E09
  0
XRECORD
  5
11E0B
102
{ACAD_REACTORS
330
11E0A
102
}
330
11E0A
100
AcDbXrecord
340
1A
  0
XRECORD
  5
11E0D
102
{ACAD_REACTORS
330
11E0C
102
}
330
11E0C
100
AcDbXrecord
340
5D8E
  0
GROUP
  5
477D
102
{ACAD_REACTORS
330
D
102
}
330
D
100
AcDbGroup
300

 70
     1
 71
     1
  0
GROUP
  5
11984
102
{ACAD_REACTORS
330
D
102
}
330
D
100
AcDbGroup
300

 70
     1
 71
     1
  0
GROUP
  5
1199F
102
{ACAD_REACTORS
330
D
102
}
330
D
100
AcDbGroup
300

 70
     1
 71
     1
  0
GROUP
  5
477E
102
{ACAD_REACTORS
330
D
102
}
330
D
100
AcDbGroup
300

 70
     1
 71
     1
  0
GROUP
  5
4C11
102
{ACAD_REACTORS
330
D
102
}
330
D
100
AcDbGroup
300

 70
     1
 71
     1
  0
GROUP
  5
4C12
102
{ACAD_REACTORS
330
D
102
}
330
D
100
AcDbGroup
300

 70
     1
 71
     1
  0
GROUP
  5
4C13
102
{ACAD_REACTORS
330
D
102
}
330
D
100
AcDbGroup
300

 70
     1
 71
     1
  0
GROUP
  5
4C14
102
{ACAD_REACTORS
330
D
102
}
330
D
100
AcDbGroup
300

 70
     1
 71
     1
  0
GROUP
  5
4C15
102
{ACAD_REACTORS
330
D
102
}
330
D
100
AcDbGroup
300

 70
     1
 71
     1
  0
GROUP
  5
4C16
102
{ACAD_REACTORS
330
D
102
}
330
D
100
AcDbGroup
300

 70
     1
 71
     1
  0
GROUP
  5
4C17
102
{ACAD_REACTORS
330
D
102
}
330
D
100
AcDbGroup
300

 70
     1
 71
     1
  0
GROUP
  5
11855
102
{ACAD_REACTORS
330
D
102
}
330
D
100
AcDbGroup
300

 70
     1
 71
     1
340
1171F
340
1171E
340
1171D
340
1171C
340
1171B
340
1171A
  0
GROUP
  5
477F
102
{ACAD_REACTORS
330
D
102
}
330
D
100
AcDbGroup
300

 70
     1
 71
     1
  0
GROUP
  5
4780
102
{ACAD_REACTORS
330
D
102
}
330
D
100
AcDbGroup
300

 70
     1
 71
     1
  0
GROUP
  5
4781
102
{ACAD_REACTORS
330
D
102
}
330
D
100
AcDbGroup
300

 70
     1
 71
     1
  0
GROUP
  5
4C0E
102
{ACAD_REACTORS
330
D
102
}
330
D
100
AcDbGroup
300

 70
     1
 71
     1
  0
GROUP
  5
4C0F
102
{ACAD_REACTORS
330
D
102
}
330
D
100
AcDbGroup
300

 70
     1
 71
     1
  0
GROUP
  5
11811
102
{ACAD_REACTORS
330
D
102
}
330
D
100
AcDbGroup
300

 70
     1
 71
     1
  0
GROUP
  5
11839
102
{ACAD_REACTORS
330
D
102
}
330
D
100
AcDbGroup
300

 70
     1
 71
     1
  0
GROUP
  5
11C02
102
{ACAD_REACTORS
330
D
102
}
330
D
100
AcDbGroup
300

 70
     1
 71
     1
  0
GROUP
  5
11C12
102
{ACAD_REACTORS
330
D
102
}
330
D
100
AcDbGroup
300

 70
     1
 71
     1
340
11C11
340
11C10
340
11C0F
340
11C0E
340
11C0D
340
11C0C
  0
GROUP
  5
11C19
102
{ACAD_REACTORS
330
D
102
}
330
D
100
AcDbGroup
300

 70
     1
 71
     1
340
11C18
340
11C17
340
11C16
340
11C15
340
11C14
340
11C13
  0
GROUP
  5
11896
102
{ACAD_REACTORS
330
D
102
}
330
D
100
AcDbGroup
300

 70
     1
 71
     1
  0
GROUP
  5
11C20
102
{ACAD_REACTORS
330
D
102
}
330
D
100
AcDbGroup
300

 70
     1
 71
     1
340
11C1F
340
11C1E
340
11C1D
340
11C1C
340
11C1B
340
11C1A
  0
GROUP
  5
11C27
102
{ACAD_REACTORS
330
D
102
}
330
D
100
AcDbGroup
300

 70
     1
 71
     1
  0
GROUP
  5
11C2E
102
{ACAD_REACTORS
330
D
102
}
330
D
100
AcDbGroup
300

 70
     1
 71
     1
340
11C29
340
11C2A
340
11C2B
340
11C2C
340
11C28
340
11C2D
  0
GROUP
  5
11C35
102
{ACAD_REACTORS
330
D
102
}
330
D
100
AcDbGroup
300

 70
     1
 71
     1
340
11C32
340
11C31
340
11C30
340
11C2F
340
11C34
340
11C33
  0
GROUP
  5
11C3C
102
{ACAD_REACTORS
330
D
102
}
330
D
100
AcDbGroup
300

 70
     1
 71
     1
340
11C39
340
11C38
340
11C37
340
11C36
340
11C3B
340
11C3A
  0
GROUP
  5
11D6D
102
{ACAD_REACTORS
330
D
102
}
330
D
100
AcDbGroup
300

 70
     1
 71
     1
  0
GROUP
  5
4C10
102
{ACAD_REACTORS
330
D
102
}
330
D
100
AcDbGroup
300

 70
     1
 71
     1
  0
GROUP
  5
118BC
102
{ACAD_REACTORS
330
D
102
}
330
D
100
AcDbGroup
300

 70
     1
 71
     1
  0
GROUP
  5
118D9
102
{ACAD_REACTORS
330
D
102
}
330
D
100
AcDbGroup
300

 70
     1
 71
     1
340
1174D
340
1174C
340
1174B
340
1174A
340
1174F
340
1174E
  0
GROUP
  5
1191B
102
{ACAD_REACTORS
330
D
102
}
330
D
100
AcDbGroup
300

 70
     1
 71
     1
  0
GROUP
  5
11929
102
{ACAD_REACTORS
330
D
102
}
330
D
100
AcDbGroup
300

 70
     1
 71
     1
  0
GROUP
  5
11950
102
{ACAD_REACTORS
330
D
102
}
330
D
100
AcDbGroup
300

 70
     1
 71
     1
  0
MLINESTYLE
  5
13
102
{ACAD_REACTORS
330
E
102
}
330
E
100
AcDbMlineStyle
  2
STANDARD
 70
     0
  3

 62
     0
 51
90.0
 52
90.0
 71
     2
 49
0.5
 62
   256
  6
BYLAYER
 49
-0.5
 62
   256
  6
BYLAYER
  0
ACDBPLACEHOLDER
  5
5C7C
102
{ACAD_REACTORS
330
5C7B
102
}
330
5C7B
100
AcDbPlaceHolder
280
     0
  0
DICTIONARYVAR
  5
117FE
102
{ACAD_REACTORS
330
117FD
102
}
330
117FD
100
DictionaryVariables
280
     0
  1
-1
  0
XRECORD
  5
11DEB
102
{ACAD_REACTORS
330
11DEA
102
}
330
11DEA
100
AcDbXrecord
 90
        1
  0
XRECORD
  5
11DEC
102
{ACAD_REACTORS
330
11DEA
102
}
330
11DEA
100
AcDbXrecord
 90
       70
  0
XRECORD
  5
11DED
102
{ACAD_REACTORS
330
11DEA
102
}
330
11DEA
100
AcDbXrecord
  1

  0
XRECORD
  5
11DEE
102
{ACAD_REACTORS
330
11DEA
102
}
330
11DEA
100
AcDbXrecord
  1

  0
XRECORD
  5
11DEF
102
{ACAD_REACTORS
330
11DEA
102
}
330
11DEA
100
AcDbXrecord
340
5C7D
  0
XRECORD
  5
11DF0
102
{ACAD_REACTORS
330
11DEA
102
}
330
11DEA
100
AcDbXrecord
340
5C7E
  0
XRECORD
  5
11DF1
102
{ACAD_REACTORS
330
11DEA
102
}
330
11DEA
100
AcDbXrecord
340
5C7B
  0
XRECORD
  5
11DF2
102
{ACAD_REACTORS
330
11DEA
102
}
330
11DEA
100
AcDbXrecord
 90
    10781
  0
XRECORD
  5
11DF3
102
{ACAD_REACTORS
330
11DEA
102
}
330
11DEA
100
AcDbXrecord
 90
        0
  0
XRECORD
  5
11DF4
102
{ACAD_REACTORS
330
11DEA
102
}
330
11DEA
100
AcDbXrecord
 90
        0
  0
XRECORD
  5
11DF5
102
{ACAD_REACTORS
330
11DEA
102
}
330
11DEA
100
AcDbXrecord
  1
{225A7F0D-DA29-11D8-946A-0000E2416295}
  0
XRECORD
  5
11DF6
102
{ACAD_REACTORS
330
11DEA
102
}
330
11DEA
100
AcDbXrecord
  1
{F3B1E757-7040-4403-8E9D-B67E9202711A}
  0
XRECORD
  5
11DF7
102
{ACAD_REACTORS
330
11DEA
102
}
330
11DEA
100
AcDbXrecord
 40
0.0
  0
XRECORD
  5
11DF8
102
{ACAD_REACTORS
330
11DEA
102
}
330
11DEA
100
AcDbXrecord
340
0
  0
XRECORD
  5
11DF9
102
{ACAD_REACTORS
330
11DEA
102
}
330
11DEA
100
AcDbXrecord
 70
     0
  0
XRECORD
  5
11DFA
102
{ACAD_REACTORS
330
11DEA
102
}
330
11DEA
100
AcDbXrecord
340
0
  0
XRECORD
  5
11DFB
102
{ACAD_REACTORS
330
11DEA
102
}
330
11DEA
100
AcDbXrecord
 10
0.0
 20
0.0
 30
0.0
  0
XRECORD
  5
11DFC
102
{ACAD_REACTORS
330
11DEA
102
}
330
11DEA
100
AcDbXrecord
 10
0.0
 20
0.0
 30
0.0
  0
XRECORD
  5
11DFD
102
{ACAD_REACTORS
330
11DEA
102
}
330
11DEA
100
AcDbXrecord
 10
0.0
 20
0.0
 30
0.0
  0
XRECORD
  5
11DFE
102
{ACAD_REACTORS
330
11DEA
102
}
330
11DEA
100
AcDbXrecord
 10
0.0
 20
0.0
 30
0.0
  0
XRECORD
  5
11DFF
102
{ACAD_REACTORS
330
11DEA
102
}
330
11DEA
100
AcDbXrecord
 10
0.0
 20
0.0
 30
0.0
  0
XRECORD
  5
11E00
102
{ACAD_REACTORS
330
11DEA
102
}
330
11DEA
100
AcDbXrecord
 10
0.0
 20
0.0
 30
0.0
  0
XRECORD
  5
11E01
102
{ACAD_REACTORS
330
11DEA
102
}
330
11DEA
100
AcDbXrecord
340
0
  0
XRECORD
  5
11E02
102
{ACAD_REACTORS
330
11DEA
102
}
330
11DEA
100
AcDbXrecord
 70
     0
  0
XRECORD
  5
11E03
102
{ACAD_REACTORS
330
11DEA
102
}
330
11DEA
100
AcDbXrecord
340
0
  0
XRECORD
  5
11E04
102
{ACAD_REACTORS
330
11DEA
102
}
330
11DEA
100
AcDbXrecord
 10
0.0
 20
0.0
 30
0.0
  0
XRECORD
  5
11E05
102
{ACAD_REACTORS
330
11DEA
102
}
330
11DEA
100
AcDbXrecord
 10
0.0
 20
0.0
 30
0.0
  0
XRECORD
  5
11E06
102
{ACAD_REACTORS
330
11DEA
102
}
330
11DEA
100
AcDbXrecord
 10
0.0
 20
0.0
 30
0.0
  0
XRECORD
  5
11E07
102
{ACAD_REACTORS
330
11DEA
102
}
330
11DEA
100
AcDbXrecord
 10
0.0
 20
0.0
 30
0.0
  0
XRECORD
  5
11E08
102
{ACAD_REACTORS
330
11DEA
102
}
330
11DEA
100
AcDbXrecord
 10
0.0
 20
0.0
 30
0.0
  0
XRECORD
  5
11E09
102
{ACAD_REACTORS
330
11DEA
102
}
330
11DEA
100
AcDbXrecord
 10
0.0
 20
0.0
 30
0.0
  0
ENDSEC
  0
EOF
