  0
SECTION
  2
HEADER
  9
$ACADVER
  1
AC1014
  9
$ACADMAINTVER
 70
     9
  9
$DWGCODEPAGE
  3
ANSI_932
  9
$INSBASE
 10
0.0
 20
0.0
 30
0.0
  9
$EXTMIN
 10
-1195.704680951616
 20
974.6879003921677
 30
0.0
  9
$EXTMAX
 10
-895.4219332122939
 20
1152.720719580012
 30
0.0
  9
$LIMMIN
 10
0.0
 20
0.0
  9
$LIMMAX
 10
420.0
 20
297.0
  9
$ORTHOMODE
 70
     1
  9
$REGENMODE
 70
     1
  9
$FILLMODE
 70
     1
  9
$QTEXTMODE
 70
     0
  9
$MIRRTEXT
 70
     1
  9
$DRAGMODE
 70
     2
  9
$LTSCALE
 40
1.0
  9
$OSMODE
 70
    37
  9
$ATTMODE
 70
     1
  9
$TEXTSIZE
 40
2.5
  9
$TRACEWID
 40
1.0
  9
$TEXTSTYLE
  7
ゴシック体
  9
$CLAYER
  8
CL1
  9
$CELTYPE
  6
BYLAYER
  9
$CECOLOR
 62
   256
  9
$CELTSCALE
 40
1.0
  9
$DELOBJ
 70
     1
  9
$DISPSILH
 70
     0
  9
$DIMSCALE
 40
0.0
  9
$DIMASZ
 40
3.0
  9
$DIMEXO
 40
0.5
  9
$DIMDLI
 40
0.5
  9
$DIMRND
 40
0.0
  9
$DIMDLE
 40
0.0
  9
$DIMEXE
 40
0.5
  9
$DIMTP
 40
0.0
  9
$DIMTM
 40
0.0
  9
$DIMTXT
 40
3.5
  9
$DIMCEN
 40
0.0
  9
$DIMTSZ
 40
0.0
  9
$DIMTOL
 70
     0
  9
$DIMLIM
 70
     0
  9
$DIMTIH
 70
     0
  9
$DIMTOH
 70
     0
  9
$DIMSE1
 70
     0
  9
$DIMSE2
 70
     0
  9
$DIMTAD
 70
     1
  9
$DIMZIN
 70
     8
  9
$DIMBLK
  1

  9
$DIMASO
 70
     1
  9
$DIMSHO
 70
     1
  9
$DIMPOST
  1

  9
$DIMAPOST
  1

  9
$DIMALT
 70
     0
  9
$DIMALTD
 70
     2
  9
$DIMALTF
 40
25.4
  9
$DIMLFAC
 40
1.0
  9
$DIMTOFL
 70
     1
  9
$DIMTVP
 40
0.0
  9
$DIMTIX
 70
     0
  9
$DIMSOXD
 70
     0
  9
$DIMSAH
 70
     0
  9
$DIMBLK1
  1

  9
$DIMBLK2
  1

  9
$DIMSTYLE
  2
標準スタイル
  9
$DIMCLRD
 70
     1
  9
$DIMCLRE
 70
     1
  9
$DIMCLRT
 70
     1
  9
$DIMTFAC
 40
1.0
  9
$DIMGAP
 40
1.0
  9
$DIMJUST
 70
     0
  9
$DIMSD1
 70
     0
  9
$DIMSD2
 70
     0
  9
$DIMTOLJ
 70
     1
  9
$DIMTZIN
 70
     8
  9
$DIMALTZ
 70
     0
  9
$DIMALTTZ
 70
     0
  9
$DIMFIT
 70
     3
  9
$DIMUPT
 70
     0
  9
$DIMUNIT
 70
     2
  9
$DIMDEC
 70
     2
  9
$DIMTDEC
 70
     2
  9
$DIMALTU
 70
     2
  9
$DIMALTTD
 70
     2
  9
$DIMTXSTY
  7
STANDARD
  9
$DIMAUNIT
 70
     0
  9
$LUNITS
 70
     2
  9
$LUPREC
 70
     4
  9
$SKETCHINC
 40
1.0
  9
$FILLETRAD
 40
1.5
  9
$AUNITS
 70
     0
  9
$AUPREC
 70
     0
  9
$MENU
  1
.
  9
$ELEVATION
 40
0.0
  9
$PELEVATION
 40
0.0
  9
$THICKNESS
 40
0.0
  9
$LIMCHECK
 70
     0
  9
$BLIPMODE
 70
     0
  9
$CHAMFERA
 40
1.0
  9
$CHAMFERB
 40
1.0
  9
$CHAMFERC
 40
2.0
  9
$CHAMFERD
 40
0.7853981633974483
  9
$SKPOLY
 70
     0
  9
$TDCREATE
 40
2450495.493631365
  9
$TDUPDATE
 40
2453999.417671111
  9
$TDINDWG
 40
3.2661004745
  9
$TDUSRTIMER
 40
3.2660997801
  9
$USRTIMER
 70
     1
  9
$ANGBASE
 50
0.0
  9
$ANGDIR
 70
     0
  9
$PDMODE
 70
    99
  9
$PDSIZE
 40
0.0
  9
$PLINEWID
 40
0.0
  9
$COORDS
 70
     1
  9
$SPLFRAME
 70
     0
  9
$SPLINETYPE
 70
     6
  9
$SPLINESEGS
 70
     8
  9
$ATTDIA
 70
     0
  9
$ATTREQ
 70
     1
  9
$HANDLING
 70
 10241
  9
$HANDSEED
  5
19384
  9
$SURFTAB1
 70
     6
  9
$SURFTAB2
 70
     6
  9
$SURFTYPE
 70
     6
  9
$SURFU
 70
     6
  9
$SURFV
 70
     6
  9
$UCSNAME
  2

  9
$UCSORG
 10
0.0
 20
0.0
 30
0.0
  9
$UCSXDIR
 10
1.0
 20
0.0
 30
0.0
  9
$UCSYDIR
 10
0.0
 20
1.0
 30
0.0
  9
$PUCSNAME
  2

  9
$PUCSORG
 10
0.0
 20
0.0
 30
0.0
  9
$PUCSXDIR
 10
1.0
 20
0.0
 30
0.0
  9
$PUCSYDIR
 10
0.0
 20
1.0
 30
0.0
  9
$USERI1
 70
     0
  9
$USERI2
 70
     0
  9
$USERI3
 70
     0
  9
$USERI4
 70
     0
  9
$USERI5
 70
     0
  9
$USERR1
 40
0.0
  9
$USERR2
 40
0.0
  9
$USERR3
 40
0.0
  9
$USERR4
 40
0.0
  9
$USERR5
 40
0.0
  9
$WORLDVIEW
 70
     1
  9
$SHADEDGE
 70
     3
  9
$SHADEDIF
 70
    70
  9
$TILEMODE
 70
     1
  9
$MAXACTVP
 70
    16
  9
$PINSBASE
 10
0.0
 20
0.0
 30
0.0
  9
$PLIMCHECK
 70
     0
  9
$PEXTMIN
 10
29.03619555254135
 20
27.69602733303884
 30
0.0
  9
$PEXTMAX
 10
414.5361955525411
 20
287.6960273330388
 30
0.0
  9
$PLIMMIN
 10
15.15433780389673
 20
13.80781516542163
  9
$PLIMMAX
 10
435.1009930773342
 20
310.8184658001872
  9
$UNITMODE
 70
     0
  9
$VISRETAIN
 70
     0
  9
$PLINEGEN
 70
     0
  9
$PSLTSCALE
 70
     1
  9
$TREEDEPTH
 70
  3020
  9
$PICKSTYLE
 70
     1
  9
$CMLSTYLE
  2
STANDARD
  9
$CMLJUST
 70
     0
  9
$CMLSCALE
 40
1.0
  9
$PROXYGRAPHICS
 70
     1
  9
$MEASUREMENT
 70
     0
  0
ENDSEC
  0
SECTION
  2
CLASSES
  0
CLASS
  1
LWPOLYLINE
  2
AcDbPolyline
  3
AutoCAD 2000
 90
        0
280
     0
281
     1
  0
CLASS
  1
HATCH
  2
AcDbHatch
  3
AutoCAD 2000
 90
        0
280
     0
281
     1
  0
CLASS
  1
ACDBDICTIONARYWDFLT
  2
AcDbDictionaryWithDefault
  3
AutoCAD 2000
 90
        0
280
     0
281
     0
  0
CLASS
  1
ACDBPLACEHOLDER
  2
AcDbPlaceHolder
  3
AutoCAD 2000
 90
        0
280
     0
281
     0
  0
CLASS
  1
LAYOUT
  2
AcDbLayout
  3
AutoCAD 2000
 90
        0
280
     0
281
     0
  0
CLASS
  1
DICTIONARYVAR
  2
AcDbDictionaryVar
  3
AutoCAD 2000
 90
        0
280
     0
281
     0
  0
CLASS
  1
LONG_TRANSACTION
  2
AcDbLongTransaction
  3
AutoCAD 2000
 90
        0
280
     0
281
     0
  0
CLASS
  1
LWPOLYLINE
  2
AcDbPolyline
  3
AutoCAD 2000
 90
        0
280
     0
281
     1
  0
CLASS
  1
HATCH
  2
AcDbHatch
  3
AutoCAD 2000
 90
        0
280
     0
281
     1
  0
CLASS
  1
XRECORD
  2
AcDbXrecord
  3
AutoCAD 2000
 90
        0
280
     0
281
     0
  0
CLASS
  1
LONG_TRANSACTION
  2
AcDbLongTransaction
  3
AutoCAD 2000
 90
        0
280
     0
281
     0
  0
CLASS
  1
LWPOLYLINE
  2
AcDbPolyline
  3
AutoCAD 2000
 90
        0
280
     0
281
     1
  0
CLASS
  1
HATCH
  2
AcDbHatch
  3
AutoCAD 2000
 90
        0
280
     0
281
     1
  0
CLASS
  1
XRECORD
  2
AcDbXrecord
  3
AutoCAD 2000
 90
        0
280
     0
281
     0
  0
ENDSEC
  0
SECTION
  2
TABLES
  0
TABLE
  2
VPORT
  5
8
330
0
100
AcDbSymbolTable
 70
     2
  0
VPORT
  5
19361
330
8
100
AcDbSymbolTableRecord
100
AcDbViewportTableRecord
  2
*ACTIVE
 70
     0
 10
0.0
 20
0.0
 11
1.0
 21
1.0
 12
-967.1098414921141
 22
1058.549787216644
 13
0.0
 23
0.0
 14
5.0
 24
5.0
 15
0.0
 25
0.0
 16
0.0
 26
0.0
 36
1.0
 17
0.0
 27
0.0
 37
0.0
 40
227.0133137586323
 41
2.192560175054704
 42
50.0
 43
0.0
 44
0.0
 50
0.0
 51
0.0
 71
     0
 72
   100
 73
     1
 74
     0
 75
     0
 76
     0
 77
     0
 78
     0
  0
ENDTAB
  0
TABLE
  2
LTYPE
  5
5
330
0
100
AcDbSymbolTable
 70
     2
  0
LTYPE
  5
14
330
5
100
AcDbSymbolTableRecord
100
AcDbLinetypeTableRecord
  2
BYBLOCK
 70
     0
  3

 72
    65
 73
     0
 40
0.0
  0
LTYPE
  5
15
330
5
100
AcDbSymbolTableRecord
100
AcDbLinetypeTableRecord
  2
BYLAYER
 70
     0
  3

 72
    65
 73
     0
 40
0.0
  0
LTYPE
  5
16
330
5
100
AcDbSymbolTableRecord
100
AcDbLinetypeTableRecord
  2
CONTINUOUS
 70
     0
  3
Solid line
 72
    65
 73
     0
 40
0.0
  0
LTYPE
  5
1956
330
5
100
AcDbSymbolTableRecord
100
AcDbLinetypeTableRecord
  2
CENTERX2
 70
     0
  3
________  __  ________  __  ________  __  _____
 72
    65
 73
     4
 40
4.0
 49
2.5
 74
     0
 49
-0.5
 74
     0
 49
0.5
 74
     0
 49
-0.5
 74
     0
  0
ENDTAB
  0
TABLE
  2
LAYER
  5
2
330
0
100
AcDbSymbolTable
 70
     5
  0
LAYER
  5
F
330
2
100
AcDbSymbolTableRecord
100
AcDbLayerTableRecord
  2
0
 70
     0
 62
     7
  6
CONTINUOUS
  0
LAYER
  5
18F
330
2
100
AcDbSymbolTableRecord
100
AcDbLayerTableRecord
  2
ZISSEN1
 70
     0
 62
     7
  6
CONTINUOUS
  0
LAYER
  5
529
330
2
100
AcDbSymbolTableRecord
100
AcDbLayerTableRecord
  2
SUNPOU
 70
     0
 62
     1
  6
CONTINUOUS
  0
LAYER
  5
195A
330
2
100
AcDbSymbolTableRecord
100
AcDbLayerTableRecord
  2
CL1
 70
     0
 62
   210
  6
CENTERX2
  0
LAYER
  5
3A9B
330
2
100
AcDbSymbolTableRecord
100
AcDbLayerTableRecord
  2
DEFPOINTS
 70
     0
 62
     7
  6
CONTINUOUS
  0
ENDTAB
  0
TABLE
  2
STYLE
  5
3
330
0
100
AcDbSymbolTable
 70
     2
  0
STYLE
  5
10
330
3
100
AcDbSymbolTableRecord
100
AcDbTextStyleTableRecord
  2
STANDARD
 70
     0
 40
0.0
 41
1.0
 50
0.0
 71
     0
 42
3.0
  3
txt
  4
BigFont
  0
STYLE
  5
1960
330
3
100
AcDbSymbolTableRecord
100
AcDbTextStyleTableRecord
  2
ゴシック体
 70
     0
 40
0.0
 41
1.0
 50
0.0
 71
     0
 42
2.5
  3
MS Gothic.ttf
  4

1001
ACAD
1000
MS Gothic
1071
    32817
  0
ENDTAB
  0
TABLE
  2
VIEW
  5
6
330
0
100
AcDbSymbolTable
 70
     0
  0
ENDTAB
  0
TABLE
  2
UCS
  5
7
330
0
100
AcDbSymbolTable
 70
     0
  0
ENDTAB
  0
TABLE
  2
APPID
  5
9
330
0
100
AcDbSymbolTable
 70
     5
  0
APPID
  5
11
330
9
100
AcDbSymbolTableRecord
100
AcDbRegAppTableRecord
  2
ACAD
 70
     0
  0
APPID
  5
4005
330
9
100
AcDbSymbolTableRecord
100
AcDbRegAppTableRecord
  2
CONTENTTABDATA
 70
     0
  0
APPID
  5
4006
330
9
100
AcDbSymbolTableRecord
100
AcDbRegAppTableRecord
  2
CONTENTCURRENTTAB
 70
     0
  0
APPID
  5
477B
330
9
100
AcDbSymbolTableRecord
100
AcDbRegAppTableRecord
  2
CONTENTBLOCKDESCRIPTION
 70
     0
  0
APPID
  5
477C
330
9
100
AcDbSymbolTableRecord
100
AcDbRegAppTableRecord
  2
CONTENTBLOCKICON
 70
     0
  0
ENDTAB
  0
TABLE
  2
DIMSTYLE
  5
A
330
0
100
AcDbSymbolTable
 70
     2
  0
DIMSTYLE
105
1D
330
A
100
AcDbSymbolTableRecord
100
AcDbDimStyleTableRecord
  2
STANDARD
 70
     0
  3

  4

  5

  6

  7

 40
1.0
 41
0.18
 42
0.0625
 43
0.38
 44
0.18
 45
0.0
 46
0.0
 47
0.0
 48
0.0
140
0.18
141
0.09
142
0.0
143
25.4
144
1.0
145
0.0
146
1.0
147
0.09
 71
     0
 72
     0
 73
     1
 74
     1
 75
     0
 76
     0
 77
     0
 78
     0
170
     0
171
     2
172
     0
173
     0
174
     0
175
     0
176
     0
177
     0
178
     0
270
     2
271
     4
272
     4
273
     2
274
     2
340
10
275
     0
280
     0
281
     0
282
     0
283
     1
284
     0
285
     0
286
     0
287
     3
288
     0
  0
DIMSTYLE
105
52E
102
{ACAD_REACTORS
330
18CAC
330
18CB8
330
18CEC
330
18CF5
330
18CF7
330
18CF8
330
18D51
330
18D52
330
18D5F
330
18D6B
330
18D6F
330
18D9F
330
1905E
330
19074
102
}
330
A
100
AcDbSymbolTableRecord
100
AcDbDimStyleTableRecord
  2
標準スタイル
 70
     0
  3

  4

  5

  6

  7

 40
0.0
 41
3.0
 42
0.5
 43
0.5
 44
0.5
 45
0.0
 46
0.0
 47
0.0
 48
0.0
140
3.5
141
0.0
142
0.0
143
25.4
144
1.0
145
0.0
146
1.0
147
1.0
 71
     0
 72
     0
 73
     0
 74
     0
 75
     0
 76
     0
 77
     1
 78
     8
170
     0
171
     2
172
     1
173
     0
174
     0
175
     0
176
     1
177
     1
178
     1
270
     2
271
     2
272
     2
273
     2
274
     2
340
10
275
     0
280
     0
281
     0
282
     0
283
     1
284
     8
285
     0
286
     0
287
     3
288
     0
  0
ENDTAB
  0
TABLE
  2
BLOCK_RECORD
  5
1
330
0
100
AcDbSymbolTable
 70
    14
  0
BLOCK_RECORD
  5
1A
102
{ACAD_XDICTIONARY
360
19352
102
}
330
1
100
AcDbSymbolTableRecord
100
AcDbBlockTableRecord
  2
*MODEL_SPACE
  0
BLOCK_RECORD
  5
15176
102
{ACAD_XDICTIONARY
360
19354
102
}
330
1
100
AcDbSymbolTableRecord
100
AcDbBlockTableRecord
  2
*PAPER_SPACE
  0
BLOCK_RECORD
  5
18DB5
330
1
100
AcDbSymbolTableRecord
100
AcDbBlockTableRecord
  2
*D0
  0
BLOCK_RECORD
  5
18DC1
330
1
100
AcDbSymbolTableRecord
100
AcDbBlockTableRecord
  2
*D1
  0
BLOCK_RECORD
  5
18DDD
330
1
100
AcDbSymbolTableRecord
100
AcDbBlockTableRecord
  2
*D2
  0
BLOCK_RECORD
  5
18DEB
330
1
100
AcDbSymbolTableRecord
100
AcDbBlockTableRecord
  2
*D3
  0
BLOCK_RECORD
  5
18DF7
330
1
100
AcDbSymbolTableRecord
100
AcDbBlockTableRecord
  2
*D4
  0
BLOCK_RECORD
  5
18E03
330
1
100
AcDbSymbolTableRecord
100
AcDbBlockTableRecord
  2
*D5
  0
BLOCK_RECORD
  5
18E0F
330
1
100
AcDbSymbolTableRecord
100
AcDbBlockTableRecord
  2
*D6
  0
BLOCK_RECORD
  5
18E1B
330
1
100
AcDbSymbolTableRecord
100
AcDbBlockTableRecord
  2
*D7
  0
BLOCK_RECORD
  5
18E27
330
1
100
AcDbSymbolTableRecord
100
AcDbBlockTableRecord
  2
*D8
  0
BLOCK_RECORD
  5
18E33
330
1
100
AcDbSymbolTableRecord
100
AcDbBlockTableRecord
  2
*D9
  0
BLOCK_RECORD
  5
18E41
330
1
100
AcDbSymbolTableRecord
100
AcDbBlockTableRecord
  2
*D10
  0
BLOCK_RECORD
  5
18E4D
330
1
100
AcDbSymbolTableRecord
100
AcDbBlockTableRecord
  2
*D11
  0
BLOCK_RECORD
  5
1905F
330
1
100
AcDbSymbolTableRecord
100
AcDbBlockTableRecord
  2
*D12
  0
BLOCK_RECORD
  5
19075
330
1
100
AcDbSymbolTableRecord
100
AcDbBlockTableRecord
  2
*D13
  0
ENDTAB
  0
ENDSEC
  0
SECTION
  2
BLOCKS
  0
BLOCK
  5
1B
330
1A
100
AcDbEntity
  8
0
100
AcDbBlockBegin
  2
*MODEL_SPACE
 70
     0
 10
0.0
 20
0.0
 30
0.0
  3
*MODEL_SPACE
  1

  0
ENDBLK
  5
1C
330
1A
100
AcDbEntity
  8
0
100
AcDbBlockEnd
  0
BLOCK
  5
1517A
330
15176
100
AcDbEntity
 67
     1
  8
0
100
AcDbBlockBegin
  2
*PAPER_SPACE
 70
     0
 10
0.0
 20
0.0
 30
0.0
  3
*PAPER_SPACE
  1

  0
ENDBLK
  5
1517B
330
15176
100
AcDbEntity
 67
     1
  8
0
100
AcDbBlockEnd
  0
BLOCK
  5
18DBF
330
18DB5
100
AcDbEntity
  8
0
100
AcDbBlockBegin
  2
*D0
 70
     1
 10
0.0
 20
0.0
 30
0.0
  3
*D0
  1

  0
LINE
  5
19105
330
18DB5
100
AcDbEntity
  8
SUNPOU
 62
     1
100
AcDbLine
 10
-1065.0
 20
1000.707109
 30
0.0
 11
-1065.0
 21
976.9656643910423
 31
0.0
  0
LINE
  5
19106
330
18DB5
100
AcDbEntity
  8
SUNPOU
 62
     1
100
AcDbLine
 10
-1037.000029999999
 20
1014.299999999999
 30
0.0
 11
-1037.000029999999
 21
976.9656643910423
 31
0.0
  0
LINE
  5
19107
330
18DB5
100
AcDbEntity
  8
SUNPOU
 62
     1
100
AcDbLine
 10
-1062.0
 20
977.4656643910423
 30
0.0
 11
-1040.00003
 21
977.4656643910423
 31
0.0
  0
SOLID
  5
19108
330
18DB5
100
AcDbEntity
  8
SUNPOU
 62
     1
100
AcDbTrace
 10
-1062.0
 20
977.9656643910426
 30
0.0
 11
-1062.0
 21
976.9656643910423
 31
0.0
 12
-1065.0
 22
977.4656643910423
 32
0.0
 13
-1065.0
 23
977.4656643910423
 33
0.0
  0
SOLID
  5
19109
330
18DB5
100
AcDbEntity
  8
SUNPOU
 62
     1
100
AcDbTrace
 10
-1040.00003
 20
977.9656643910426
 30
0.0
 11
-1040.00003
 21
976.9656643910423
 31
0.0
 12
-1037.000029999999
 22
977.4656643910423
 32
0.0
 13
-1037.000029999999
 23
977.4656643910423
 33
0.0
  0
MTEXT
  5
1910A
330
18DB5
100
AcDbEntity
  8
SUNPOU
 62
     1
100
AcDbMText
 10
-1051.164609057398
 20
980.2156643910423
 30
0.0
 40
3.5
 41
0.0
 71
     5
 72
     1
  1
\A1;(28)
1001
ACAD
1000
MTEXTBEGIN
1070
    73
1070
     1
1070
    44
1040
1.0
1070
    74
1070
     0
1000
MTEXTEND
1000
MTEXTBEGIN
1070
    73
1070
     1
1070
    44
1040
1.0
1070
    74
1070
     0
1000
MTEXTEND
  0
POINT
  5
1910B
330
18DB5
100
AcDbEntity
  8
DEFPOINTS
 62
     0
100
AcDbPoint
 10
-1065.0
 20
1001.207108999999
 30
0.0
  0
POINT
  5
1910C
330
18DB5
100
AcDbEntity
  8
DEFPOINTS
 62
     0
100
AcDbPoint
 10
-1037.000029999999
 20
1014.799999999999
 30
0.0
  0
POINT
  5
1910D
330
18DB5
100
AcDbEntity
  8
DEFPOINTS
 62
     0
100
AcDbPoint
 10
-1037.000029999999
 20
977.4656643910423
 30
0.0
  0
ENDBLK
  5
18DC0
330
18DB5
100
AcDbEntity
  8
0
100
AcDbBlockEnd
  0
BLOCK
  5
18DCD
330
18DC1
100
AcDbEntity
  8
0
100
AcDbBlockBegin
  2
*D1
 70
     1
 10
0.0
 20
0.0
 30
0.0
  3
*D1
  1

  0
LINE
  5
1910E
330
18DC1
100
AcDbEntity
  8
SUNPOU
 62
     1
100
AcDbLine
 10
-1040.499999999998
 20
1003.499998
 30
0.0
 11
-1025.547567732802
 21
1003.499998
 31
0.0
  0
LINE
  5
1910F
330
18DC1
100
AcDbEntity
  8
SUNPOU
 62
     1
100
AcDbLine
 10
-1040.499999999998
 20
1000.5
 30
0.0
 11
-1025.547567732802
 21
1000.5
 31
0.0
  0
LINE
  5
19110
330
18DC1
100
AcDbEntity
  8
SUNPOU
 62
     1
100
AcDbLine
 10
-1026.047567732802
 20
1006.499998
 30
0.0
 11
-1026.047567732802
 21
1009.499998
 31
0.0
  0
LINE
  5
19111
330
18DC1
100
AcDbEntity
  8
SUNPOU
 62
     1
100
AcDbLine
 10
-1026.047567732802
 20
997.4999999999999
 30
0.0
 11
-1026.047567732802
 21
990.1666666666667
 31
0.0
  0
LINE
  5
19112
330
18DC1
100
AcDbEntity
  8
SUNPOU
 62
     1
100
AcDbLine
 10
-1026.047567732802
 20
1003.499998
 30
0.0
 11
-1026.047567732802
 21
1000.5
 31
0.0
  0
SOLID
  5
19113
330
18DC1
100
AcDbEntity
  8
SUNPOU
 62
     1
100
AcDbTrace
 10
-1026.547567732801
 20
1006.499998
 30
0.0
 11
-1025.547567732802
 21
1006.499998
 31
0.0
 12
-1026.047567732802
 22
1003.499998
 32
0.0
 13
-1026.047567732802
 23
1003.499998
 33
0.0
  0
SOLID
  5
19114
330
18DC1
100
AcDbEntity
  8
SUNPOU
 62
     1
100
AcDbTrace
 10
-1026.547567732801
 20
997.4999999999999
 30
0.0
 11
-1025.547567732802
 21
997.4999999999999
 31
0.0
 12
-1026.047567732802
 22
1000.5
 32
0.0
 13
-1026.047567732802
 23
1000.5
 33
0.0
  0
MTEXT
  5
19115
330
18DC1
100
AcDbEntity
  8
SUNPOU
 62
     1
100
AcDbMText
 10
-1028.797567732802
 20
992.3333333333332
 30
0.0
 40
3.5
 41
0.0
 71
     5
 72
     1
  1
\A1;3
 11
0.0000000000000001
 21
1.0
 31
0.0
1001
ACAD
1000
MTEXTBEGIN
1070
    73
1070
     1
1070
    44
1040
1.0
1070
    74
1070
     0
1000
MTEXTEND
1000
MTEXTBEGIN
1070
    73
1070
     1
1070
    44
1040
1.0
1070
    74
1070
     0
1000
MTEXTEND
  0
POINT
  5
19116
330
18DC1
100
AcDbEntity
  8
DEFPOINTS
 62
     0
100
AcDbPoint
 10
-1041.0
 20
1003.499998
 30
0.0
  0
POINT
  5
19117
330
18DC1
100
AcDbEntity
  8
DEFPOINTS
 62
     0
100
AcDbPoint
 10
-1041.0
 20
1000.5
 30
0.0
  0
POINT
  5
19118
330
18DC1
100
AcDbEntity
  8
DEFPOINTS
 62
     0
100
AcDbPoint
 10
-1026.047567732802
 20
1000.5
 30
0.0
  0
ENDBLK
  5
18DCE
330
18DC1
100
AcDbEntity
  8
0
100
AcDbBlockEnd
  0
BLOCK
  5
18DE9
330
18DDD
100
AcDbEntity
  8
0
100
AcDbBlockBegin
  2
*D2
 70
     1
 10
0.0
 20
0.0
 30
0.0
  3
*D2
  1

  0
LINE
  5
19124
330
18DDD
100
AcDbEntity
  8
SUNPOU
 62
     1
100
AcDbLine
 10
-917.4373224854159
 20
1129.25027380028
 30
0.0
 11
-908.7290411161097
 21
1129.25027380028
 31
0.0
  0
LINE
  5
19125
330
18DDD
100
AcDbEntity
  8
SUNPOU
 62
     1
100
AcDbLine
 10
-917.4373224854159
 20
1125.75028380028
 30
0.0
 11
-908.7290411161097
 21
1125.75028380028
 31
0.0
  0
LINE
  5
19126
330
18DDD
100
AcDbEntity
  8
SUNPOU
 62
     1
100
AcDbLine
 10
-909.2290411161098
 20
1132.25027380028
 30
0.0
 11
-909.2290411161098
 21
1135.25027380028
 31
0.0
  0
LINE
  5
19127
330
18DDD
100
AcDbEntity
  8
SUNPOU
 62
     1
100
AcDbLine
 10
-909.2290411161098
 20
1122.75028380028
 30
0.0
 11
-909.2290411161098
 21
1110.75028380028
 31
0.0
  0
LINE
  5
19128
330
18DDD
100
AcDbEntity
  8
SUNPOU
 62
     1
100
AcDbLine
 10
-909.2290411161098
 20
1129.25027380028
 30
0.0
 11
-909.2290411161098
 21
1125.75028380028
 31
0.0
  0
SOLID
  5
19129
330
18DDD
100
AcDbEntity
  8
SUNPOU
 62
     1
100
AcDbTrace
 10
-909.7290411161097
 20
1132.25027380028
 30
0.0
 11
-908.7290411161097
 21
1132.25027380028
 31
0.0
 12
-909.2290411161098
 22
1129.25027380028
 32
0.0
 13
-909.2290411161098
 23
1129.25027380028
 33
0.0
  0
SOLID
  5
1912A
330
18DDD
100
AcDbEntity
  8
SUNPOU
 62
     1
100
AcDbTrace
 10
-909.7290411161097
 20
1122.75028380028
 30
0.0
 11
-908.7290411161097
 21
1122.75028380028
 31
0.0
 12
-909.2290411161098
 22
1125.75028380028
 32
0.0
 13
-909.2290411161098
 23
1125.75028380028
 33
0.0
  0
MTEXT
  5
1912B
330
18DDD
100
AcDbEntity
  8
SUNPOU
 62
     1
100
AcDbMText
 10
-911.9790411161099
 20
1115.25028380028
 30
0.0
 40
3.5
 41
0.0
 71
     5
 72
     1
  1
\A1;3.5
 11
0.0000000000000001
 21
1.0
 31
0.0
1001
ACAD
1000
MTEXTBEGIN
1070
    73
1070
     1
1070
    44
1040
1.0
1070
    74
1070
     0
1000
MTEXTEND
1000
MTEXTBEGIN
1070
    73
1070
     1
1070
    44
1040
1.0
1070
    74
1070
     0
1000
MTEXTEND
  0
POINT
  5
1912C
330
18DDD
100
AcDbEntity
  8
DEFPOINTS
 62
     0
100
AcDbPoint
 10
-917.937322485416
 20
1129.25027380028
 30
0.0
  0
POINT
  5
1912D
330
18DDD
100
AcDbEntity
  8
DEFPOINTS
 62
     0
100
AcDbPoint
 10
-917.937322485416
 20
1125.75028380028
 30
0.0
  0
POINT
  5
1912E
330
18DDD
100
AcDbEntity
  8
DEFPOINTS
 62
     0
100
AcDbPoint
 10
-909.2290411161098
 20
1125.75028380028
 30
0.0
  0
ENDBLK
  5
18DEA
330
18DDD
100
AcDbEntity
  8
0
100
AcDbBlockEnd
  0
BLOCK
  5
18DF5
330
18DEB
100
AcDbEntity
  8
0
100
AcDbBlockBegin
  2
*D3
 70
     1
 10
0.0
 20
0.0
 30
0.0
  3
*D3
  1

  0
LINE
  5
1912F
330
18DEB
100
AcDbEntity
  8
SUNPOU
 62
     1
100
AcDbLine
 10
-1004.000019999998
 20
1014.299999999999
 30
0.0
 11
-1004.000019999998
 21
974.6879003921677
 31
0.0
  0
LINE
  5
19130
330
18DEB
100
AcDbEntity
  8
SUNPOU
 62
     1
100
AcDbLine
 10
-917.0
 20
999.5
 30
0.0
 11
-917.0
 21
974.6879003921677
 31
0.0
  0
LINE
  5
19131
330
18DEB
100
AcDbEntity
  8
SUNPOU
 62
     1
100
AcDbLine
 10
-1001.000019999999
 20
975.1879003921676
 30
0.0
 11
-920.0
 21
975.1879003921676
 31
0.0
  0
SOLID
  5
19132
330
18DEB
100
AcDbEntity
  8
SUNPOU
 62
     1
100
AcDbTrace
 10
-1001.000019999999
 20
975.6879003921676
 30
0.0
 11
-1001.000019999999
 21
974.6879003921677
 31
0.0
 12
-1004.000019999998
 22
975.1879003921676
 32
0.0
 13
-1004.000019999998
 23
975.1879003921676
 33
0.0
  0
SOLID
  5
19133
330
18DEB
100
AcDbEntity
  8
SUNPOU
 62
     1
100
AcDbTrace
 10
-920.0
 20
975.6879003921676
 30
0.0
 11
-920.0
 21
974.6879003921677
 31
0.0
 12
-917.0
 22
975.1879003921676
 32
0.0
 13
-917.0
 23
975.1879003921676
 33
0.0
  0
MTEXT
  5
19134
330
18DEB
100
AcDbEntity
  8
SUNPOU
 62
     1
100
AcDbMText
 10
-960.5000099999998
 20
977.9379003921675
 30
0.0
 40
3.5
 41
0.0
 71
     5
 72
     1
  1
\A1;(87)
1001
ACAD
1000
MTEXTBEGIN
1070
    73
1070
     1
1070
    44
1040
1.0
1070
    74
1070
     0
1000
MTEXTEND
1000
MTEXTBEGIN
1070
    73
1070
     1
1070
    44
1040
1.0
1070
    74
1070
     0
1000
MTEXTEND
  0
POINT
  5
19135
330
18DEB
100
AcDbEntity
  8
DEFPOINTS
 62
     0
100
AcDbPoint
 10
-1004.000019999998
 20
1014.799999999999
 30
0.0
  0
POINT
  5
19136
330
18DEB
100
AcDbEntity
  8
DEFPOINTS
 62
     0
100
AcDbPoint
 10
-917.0
 20
1000.0
 30
0.0
  0
POINT
  5
19137
330
18DEB
100
AcDbEntity
  8
DEFPOINTS
 62
     0
100
AcDbPoint
 10
-917.0
 20
975.1879003921676
 30
0.0
  0
ENDBLK
  5
18DF6
330
18DEB
100
AcDbEntity
  8
0
100
AcDbBlockEnd
  0
BLOCK
  5
18E01
330
18DF7
100
AcDbEntity
  8
0
100
AcDbBlockBegin
  2
*D4
 70
     1
 10
0.0
 20
0.0
 30
0.0
  3
*D4
  1

  0
LINE
  5
19138
330
18DF7
100
AcDbEntity
  8
SUNPOU
 62
     1
100
AcDbLine
 10
-995.25
 20
1069.7
 30
0.0
 11
-995.25
 21
1094.083099622315
 31
0.0
  0
LINE
  5
19139
330
18DF7
100
AcDbEntity
  8
SUNPOU
 62
     1
100
AcDbLine
 10
-921.75001
 20
1070.29287
 30
0.0
 11
-921.75001
 21
1094.083099622315
 31
0.0
  0
LINE
  5
1913A
330
18DF7
100
AcDbEntity
  8
SUNPOU
 62
     1
100
AcDbLine
 10
-992.2499999999999
 20
1093.583099622315
 30
0.0
 11
-924.7500099999999
 21
1093.583099622315
 31
0.0
  0
SOLID
  5
1913B
330
18DF7
100
AcDbEntity
  8
SUNPOU
 62
     1
100
AcDbTrace
 10
-992.2499999999999
 20
1094.083099622315
 30
0.0
 11
-992.2499999999999
 21
1093.083099622315
 31
0.0
 12
-995.25
 22
1093.583099622315
 32
0.0
 13
-995.25
 23
1093.583099622315
 33
0.0
  0
SOLID
  5
1913C
330
18DF7
100
AcDbEntity
  8
SUNPOU
 62
     1
100
AcDbTrace
 10
-924.7500099999999
 20
1094.083099622315
 30
0.0
 11
-924.7500099999999
 21
1093.083099622315
 31
0.0
 12
-921.75001
 22
1093.583099622315
 32
0.0
 13
-921.75001
 23
1093.583099622315
 33
0.0
  0
MTEXT
  5
1913D
330
18DF7
100
AcDbEntity
  8
SUNPOU
 62
     1
100
AcDbMText
 10
-958.5000049999999
 20
1096.333099622315
 30
0.0
 40
3.5
 41
0.0
 71
     5
 72
     1
  1
\A1;73.5
1001
ACAD
1000
MTEXTBEGIN
1070
    73
1070
     1
1070
    44
1040
1.0
1070
    74
1070
     0
1000
MTEXTEND
1000
MTEXTBEGIN
1070
    73
1070
     1
1070
    44
1040
1.0
1070
    74
1070
     0
1000
MTEXTEND
  0
POINT
  5
1913E
330
18DF7
100
AcDbEntity
  8
DEFPOINTS
 62
     0
100
AcDbPoint
 10
-995.25
 20
1069.2
 30
0.0
  0
POINT
  5
1913F
330
18DF7
100
AcDbEntity
  8
DEFPOINTS
 62
     0
100
AcDbPoint
 10
-921.75001
 20
1069.79287
 30
0.0
  0
POINT
  5
19140
330
18DF7
100
AcDbEntity
  8
DEFPOINTS
 62
     0
100
AcDbPoint
 10
-921.75001
 20
1093.583099622315
 30
0.0
  0
ENDBLK
  5
18E02
330
18DF7
100
AcDbEntity
  8
0
100
AcDbBlockEnd
  0
BLOCK
  5
18E0D
330
18E03
100
AcDbEntity
  8
0
100
AcDbBlockBegin
  2
*D5
 70
     1
 10
0.0
 20
0.0
 30
0.0
  3
*D5
  1

  0
LINE
  5
19141
330
18E03
100
AcDbEntity
  8
SUNPOU
 62
     1
100
AcDbLine
 10
-1000.0
 20
1000.0
 30
0.0
 11
-1000.0
 21
987.172915975108
 31
0.0
  0
LINE
  5
19142
330
18E03
100
AcDbEntity
  8
SUNPOU
 62
     1
100
AcDbLine
 10
-917.0
 20
1000.0
 30
0.0
 11
-917.0
 21
987.172915975108
 31
0.0
  0
LINE
  5
19143
330
18E03
100
AcDbEntity
  8
SUNPOU
 62
     1
100
AcDbLine
 10
-997.0
 20
987.672915975108
 30
0.0
 11
-920.0
 21
987.672915975108
 31
0.0
  0
SOLID
  5
19144
330
18E03
100
AcDbEntity
  8
SUNPOU
 62
     1
100
AcDbTrace
 10
-997.0
 20
988.1729159751079
 30
0.0
 11
-997.0
 21
987.172915975108
 31
0.0
 12
-1000.0
 22
987.672915975108
 32
0.0
 13
-1000.0
 23
987.672915975108
 33
0.0
  0
SOLID
  5
19145
330
18E03
100
AcDbEntity
  8
SUNPOU
 62
     1
100
AcDbTrace
 10
-920.0
 20
988.1729159751079
 30
0.0
 11
-920.0
 21
987.172915975108
 31
0.0
 12
-917.0
 22
987.672915975108
 32
0.0
 13
-917.0
 23
987.672915975108
 33
0.0
  0
MTEXT
  5
19146
330
18E03
100
AcDbEntity
  8
SUNPOU
 62
     1
100
AcDbMText
 10
-958.5
 20
990.422915975108
 30
0.0
 40
3.5
 41
0.0
 71
     5
 72
     1
  1
\A1;83
1001
ACAD
1000
MTEXTBEGIN
1070
    73
1070
     1
1070
    44
1040
1.0
1070
    74
1070
     0
1000
MTEXTEND
1000
MTEXTBEGIN
1070
    73
1070
     1
1070
    44
1040
1.0
1070
    74
1070
     0
1000
MTEXTEND
  0
POINT
  5
19147
330
18E03
100
AcDbEntity
  8
DEFPOINTS
 62
     0
100
AcDbPoint
 10
-1000.0
 20
1000.5
 30
0.0
  0
POINT
  5
19148
330
18E03
100
AcDbEntity
  8
DEFPOINTS
 62
     0
100
AcDbPoint
 10
-917.0
 20
1000.5
 30
0.0
  0
POINT
  5
19149
330
18E03
100
AcDbEntity
  8
DEFPOINTS
 62
     0
100
AcDbPoint
 10
-917.0
 20
987.672915975108
 30
0.0
  0
ENDBLK
  5
18E0E
330
18E03
100
AcDbEntity
  8
0
100
AcDbBlockEnd
  0
BLOCK
  5
18E19
330
18E0F
100
AcDbEntity
  8
0
100
AcDbBlockBegin
  2
*D6
 70
     1
 10
0.0
 20
0.0
 30
0.0
  3
*D6
  1

  0
LINE
  5
19224
330
18E0F
100
AcDbEntity
  8
SUNPOU
 62
     1
100
AcDbLine
 10
-929.7
 20
1078.00001
 30
0.0
 11
-895.4219332122939
 21
1078.00001
 31
0.0
  0
LINE
  5
19225
330
18E0F
100
AcDbEntity
  8
SUNPOU
 62
     1
100
AcDbLine
 10
-916.0
 20
1000.5
 30
0.0
 11
-895.4219332122939
 21
1000.5
 31
0.0
  0
LINE
  5
19226
330
18E0F
100
AcDbEntity
  8
SUNPOU
 62
     1
100
AcDbLine
 10
-895.9219332122939
 20
1075.000009999999
 30
0.0
 11
-895.9219332122939
 21
1003.5
 31
0.0
  0
SOLID
  5
19227
330
18E0F
100
AcDbEntity
  8
SUNPOU
 62
     1
100
AcDbTrace
 10
-896.4219332122937
 20
1075.000009999999
 30
0.0
 11
-895.4219332122939
 21
1075.000009999999
 31
0.0
 12
-895.9219332122939
 22
1078.00001
 32
0.0
 13
-895.9219332122939
 23
1078.00001
 33
0.0
  0
SOLID
  5
19228
330
18E0F
100
AcDbEntity
  8
SUNPOU
 62
     1
100
AcDbTrace
 10
-896.4219332122937
 20
1003.5
 30
0.0
 11
-895.4219332122939
 21
1003.5
 31
0.0
 12
-895.9219332122939
 22
1000.5
 32
0.0
 13
-895.9219332122939
 23
1000.5
 33
0.0
  0
MTEXT
  5
19229
330
18E0F
100
AcDbEntity
  8
SUNPOU
 62
     1
100
AcDbMText
 10
-898.6719332122939
 20
1039.250004999999
 30
0.0
 40
3.5
 41
0.0
 71
     5
 72
     1
  1
\A1;(77.5)
 11
0.0000000000000001
 21
1.0
 31
0.0
1001
ACAD
1000
MTEXTBEGIN
1070
    73
1070
     1
1070
    44
1040
1.0
1070
    74
1070
     0
1000
MTEXTEND
1000
MTEXTBEGIN
1070
    73
1070
     1
1070
    44
1040
1.0
1070
    74
1070
     0
1000
MTEXTEND
  0
POINT
  5
1922A
330
18E0F
100
AcDbEntity
  8
DEFPOINTS
 62
     0
100
AcDbPoint
 10
-930.2000000000001
 20
1078.00001
 30
0.0
  0
POINT
  5
1922B
330
18E0F
100
AcDbEntity
  8
DEFPOINTS
 62
     0
100
AcDbPoint
 10
-916.5
 20
1000.5
 30
0.0
  0
POINT
  5
1922C
330
18E0F
100
AcDbEntity
  8
DEFPOINTS
 62
     0
100
AcDbPoint
 10
-895.9219332122939
 20
1000.5
 30
0.0
  0
ENDBLK
  5
18E1A
330
18E0F
100
AcDbEntity
  8
0
100
AcDbBlockEnd
  0
BLOCK
  5
18E25
330
18E1B
100
AcDbEntity
  8
0
100
AcDbBlockBegin
  2
*D7
 70
     1
 10
0.0
 20
0.0
 30
0.0
  3
*D7
  1

  0
LINE
  5
19153
330
18E1B
100
AcDbEntity
  8
SUNPOU
 62
     1
100
AcDbLine
 10
-916.5
 20
1000.5
 30
0.0
 11
-907.7917186306939
 21
1000.5
 31
0.0
  0
LINE
  5
19154
330
18E1B
100
AcDbEntity
  8
SUNPOU
 62
     1
100
AcDbLine
 10
-921.9571199999998
 20
1070.5
 30
0.0
 11
-907.7917186306939
 21
1070.5
 31
0.0
  0
LINE
  5
19155
330
18E1B
100
AcDbEntity
  8
SUNPOU
 62
     1
100
AcDbLine
 10
-908.2917186306938
 20
1003.5
 30
0.0
 11
-908.2917186306938
 21
1067.5
 31
0.0
  0
SOLID
  5
19156
330
18E1B
100
AcDbEntity
  8
SUNPOU
 62
     1
100
AcDbTrace
 10
-908.7917186306938
 20
1003.5
 30
0.0
 11
-907.7917186306939
 21
1003.5
 31
0.0
 12
-908.2917186306938
 22
1000.5
 32
0.0
 13
-908.2917186306938
 23
1000.5
 33
0.0
  0
SOLID
  5
19157
330
18E1B
100
AcDbEntity
  8
SUNPOU
 62
     1
100
AcDbTrace
 10
-908.7917186306938
 20
1067.5
 30
0.0
 11
-907.7917186306939
 21
1067.5
 31
0.0
 12
-908.2917186306938
 22
1070.5
 32
0.0
 13
-908.2917186306938
 23
1070.5
 33
0.0
  0
MTEXT
  5
19158
330
18E1B
100
AcDbEntity
  8
SUNPOU
 62
     1
100
AcDbMText
 10
-911.0417186306939
 20
1035.5
 30
0.0
 40
3.5
 41
0.0
 71
     5
 72
     1
  1
\A1;70
 11
0.0000000000000001
 21
1.0
 31
0.0
1001
ACAD
1000
MTEXTBEGIN
1070
    73
1070
     1
1070
    44
1040
1.0
1070
    74
1070
     0
1000
MTEXTEND
1000
MTEXTBEGIN
1070
    73
1070
     1
1070
    44
1040
1.0
1070
    74
1070
     0
1000
MTEXTEND
  0
POINT
  5
19159
330
18E1B
100
AcDbEntity
  8
DEFPOINTS
 62
     0
100
AcDbPoint
 10
-917.0
 20
1000.5
 30
0.0
  0
POINT
  5
1915A
330
18E1B
100
AcDbEntity
  8
DEFPOINTS
 62
     0
100
AcDbPoint
 10
-922.4571199999999
 20
1070.5
 30
0.0
  0
POINT
  5
1915B
330
18E1B
100
AcDbEntity
  8
DEFPOINTS
 62
     0
100
AcDbPoint
 10
-908.2917186306938
 20
1070.5
 30
0.0
  0
ENDBLK
  5
18E26
330
18E1B
100
AcDbEntity
  8
0
100
AcDbBlockEnd
  0
BLOCK
  5
18E31
330
18E27
100
AcDbEntity
  8
0
100
AcDbBlockBegin
  2
*D8
 70
     1
 10
0.0
 20
0.0
 30
0.0
  3
*D8
  1

  0
LINE
  5
1915C
330
18E27
100
AcDbEntity
  8
SUNPOU
 62
     1
100
AcDbLine
 10
-997.9373424854159
 20
1131.500359250332
 30
0.0
 11
-997.9373424854159
 21
1148.720719580013
 31
0.0
  0
LINE
  5
1915D
330
18E27
100
AcDbEntity
  8
SUNPOU
 62
     1
100
AcDbLine
 10
-920.9355986015891
 20
1131.00022589664
 30
0.0
 11
-920.9355986015891
 21
1148.720719580013
 31
0.0
  0
LINE
  5
1915E
330
18E27
100
AcDbEntity
  8
SUNPOU
 62
     1
100
AcDbLine
 10
-994.9373424854158
 20
1148.220719580012
 30
0.0
 11
-923.9355986015892
 21
1148.220719580012
 31
0.0
  0
SOLID
  5
1915F
330
18E27
100
AcDbEntity
  8
SUNPOU
 62
     1
100
AcDbTrace
 10
-994.9373424854158
 20
1148.720719580013
 30
0.0
 11
-994.9373424854158
 21
1147.720719580012
 31
0.0
 12
-997.9373424854159
 22
1148.220719580012
 32
0.0
 13
-997.9373424854159
 23
1148.220719580012
 33
0.0
  0
SOLID
  5
19160
330
18E27
100
AcDbEntity
  8
SUNPOU
 62
     1
100
AcDbTrace
 10
-923.9355986015892
 20
1148.720719580013
 30
0.0
 11
-923.9355986015892
 21
1147.720719580012
 31
0.0
 12
-920.9355986015891
 22
1148.220719580012
 32
0.0
 13
-920.9355986015891
 23
1148.220719580012
 33
0.0
  0
MTEXT
  5
19161
330
18E27
100
AcDbEntity
  8
SUNPOU
 62
     1
100
AcDbMText
 10
-959.4364705435022
 20
1150.970719580012
 30
0.0
 40
3.5
 41
0.0
 71
     5
 72
     1
  1
\A1;77
1001
ACAD
1000
MTEXTBEGIN
1070
    73
1070
     1
1070
    44
1040
1.0
1070
    74
1070
     0
1000
MTEXTEND
1000
MTEXTBEGIN
1070
    73
1070
     1
1070
    44
1040
1.0
1070
    74
1070
     0
1000
MTEXTEND
  0
POINT
  5
19162
330
18E27
100
AcDbEntity
  8
DEFPOINTS
 62
     0
100
AcDbPoint
 10
-997.9373424854159
 20
1131.000359250331
 30
0.0
  0
POINT
  5
19163
330
18E27
100
AcDbEntity
  8
DEFPOINTS
 62
     0
100
AcDbPoint
 10
-920.9355986015891
 20
1130.500225896639
 30
0.0
  0
POINT
  5
19164
330
18E27
100
AcDbEntity
  8
DEFPOINTS
 62
     0
100
AcDbPoint
 10
-920.9355986015891
 20
1148.220719580012
 30
0.0
  0
ENDBLK
  5
18E32
330
18E27
100
AcDbEntity
  8
0
100
AcDbBlockEnd
  0
BLOCK
  5
18E3F
330
18E33
100
AcDbEntity
  8
0
100
AcDbBlockBegin
  2
*D9
 70
     1
 10
0.0
 20
0.0
 30
0.0
  3
*D9
  1

  0
LINE
  5
19165
330
18E33
100
AcDbEntity
  8
SUNPOU
 62
     1
100
AcDbLine
 10
-1000.937322485416
 20
1137.793239250332
 30
0.0
 11
-1000.937322485416
 21
1148.720719580013
 31
0.0
  0
LINE
  5
19166
330
18E33
100
AcDbEntity
  8
SUNPOU
 62
     1
100
AcDbLine
 10
-997.9373424854159
 20
1131.000359250331
 30
0.0
 11
-997.9373424854159
 21
1148.720719580013
 31
0.0
  0
LINE
  5
19167
330
18E33
100
AcDbEntity
  8
SUNPOU
 62
     1
100
AcDbLine
 10
-994.9373424854158
 20
1148.220719580012
 30
0.0
 11
-991.9373424854159
 21
1148.220719580012
 31
0.0
  0
LINE
  5
19168
330
18E33
100
AcDbEntity
  8
SUNPOU
 62
     1
100
AcDbLine
 10
-1003.937322485416
 20
1148.220719580012
 30
0.0
 11
-1011.270655818748
 21
1148.220719580012
 31
0.0
  0
LINE
  5
19169
330
18E33
100
AcDbEntity
  8
SUNPOU
 62
     1
100
AcDbLine
 10
-997.9373424854159
 20
1148.220719580012
 30
0.0
 11
-1000.937322485416
 21
1148.220719580012
 31
0.0
  0
SOLID
  5
1916A
330
18E33
100
AcDbEntity
  8
SUNPOU
 62
     1
100
AcDbTrace
 10
-994.9373424854158
 20
1148.720719580013
 30
0.0
 11
-994.9373424854158
 21
1147.720719580012
 31
0.0
 12
-997.9373424854159
 22
1148.220719580012
 32
0.0
 13
-997.9373424854159
 23
1148.220719580012
 33
0.0
  0
SOLID
  5
1916B
330
18E33
100
AcDbEntity
  8
SUNPOU
 62
     1
100
AcDbTrace
 10
-1003.937322485416
 20
1148.720719580013
 30
0.0
 11
-1003.937322485416
 21
1147.720719580012
 31
0.0
 12
-1000.937322485416
 22
1148.220719580012
 32
0.0
 13
-1000.937322485416
 23
1148.220719580012
 33
0.0
  0
MTEXT
  5
1916C
330
18E33
100
AcDbEntity
  8
SUNPOU
 62
     1
100
AcDbMText
 10
-1009.103989152082
 20
1150.970719580012
 30
0.0
 40
3.5
 41
0.0
 71
     5
 72
     1
  1
\A1;3
1001
ACAD
1000
MTEXTBEGIN
1070
    73
1070
     1
1070
    44
1040
1.0
1070
    74
1070
     0
1000
MTEXTEND
1000
MTEXTBEGIN
1070
    73
1070
     1
1070
    44
1040
1.0
1070
    74
1070
     0
1000
MTEXTEND
  0
POINT
  5
1916D
330
18E33
100
AcDbEntity
  8
DEFPOINTS
 62
     0
100
AcDbPoint
 10
-1000.937322485416
 20
1137.293239250332
 30
0.0
  0
POINT
  5
1916E
330
18E33
100
AcDbEntity
  8
DEFPOINTS
 62
     0
100
AcDbPoint
 10
-997.9373424854159
 20
1130.500359250331
 30
0.0
  0
POINT
  5
1916F
330
18E33
100
AcDbEntity
  8
DEFPOINTS
 62
     0
100
AcDbPoint
 10
-997.9373424854159
 20
1148.220719580012
 30
0.0
  0
ENDBLK
  5
18E40
330
18E33
100
AcDbEntity
  8
0
100
AcDbBlockEnd
  0
BLOCK
  5
18E4B
330
18E41
100
AcDbEntity
  8
0
100
AcDbBlockBegin
  2
*D10
 70
     1
 10
0.0
 20
0.0
 30
0.0
  3
*D10
  1

  0
LINE
  5
19170
330
18E41
100
AcDbEntity
  8
SUNPOU
 62
     1
100
AcDbLine
 10
-996.6873224854159
 20
1141.000379250332
 30
0.0
 11
-1010.503545347016
 21
1141.000379250332
 31
0.0
  0
LINE
  5
19171
330
18E41
100
AcDbEntity
  8
SUNPOU
 62
     1
100
AcDbLine
 10
-1001.437337485364
 20
1127.500349250294
 30
0.0
 11
-1010.503545347016
 21
1127.500349250294
 31
0.0
  0
LINE
  5
19172
330
18E41
100
AcDbEntity
  8
SUNPOU
 62
     1
100
AcDbLine
 10
-1010.003545347015
 20
1138.000379250332
 30
0.0
 11
-1010.003545347015
 21
1130.500349250294
 31
0.0
  0
SOLID
  5
19173
330
18E41
100
AcDbEntity
  8
SUNPOU
 62
     1
100
AcDbTrace
 10
-1010.503545347016
 20
1138.000379250332
 30
0.0
 11
-1009.503545347015
 21
1138.000379250332
 31
0.0
 12
-1010.003545347015
 22
1141.000379250332
 32
0.0
 13
-1010.003545347015
 23
1141.000379250332
 33
0.0
  0
SOLID
  5
19174
330
18E41
100
AcDbEntity
  8
SUNPOU
 62
     1
100
AcDbTrace
 10
-1010.503545347016
 20
1130.500349250294
 30
0.0
 11
-1009.503545347015
 21
1130.500349250294
 31
0.0
 12
-1010.003545347015
 22
1127.500349250294
 32
0.0
 13
-1010.003545347015
 23
1127.500349250294
 33
0.0
  0
MTEXT
  5
19175
330
18E41
100
AcDbEntity
  8
SUNPOU
 62
     1
100
AcDbMText
 10
-1012.753545347016
 20
1134.250364250313
 30
0.0
 40
3.5
 41
0.0
 71
     5
 72
     1
  1
\A1;13.5
 11
0.0000000000000001
 21
1.0
 31
0.0
1001
ACAD
1000
MTEXTBEGIN
1070
    73
1070
     1
1070
    44
1040
1.0
1070
    74
1070
     0
1000
MTEXTEND
1000
MTEXTBEGIN
1070
    73
1070
     1
1070
    44
1040
1.0
1070
    74
1070
     0
1000
MTEXTEND
  0
POINT
  5
19176
330
18E41
100
AcDbEntity
  8
DEFPOINTS
 62
     0
100
AcDbPoint
 10
-996.1873224854159
 20
1141.000379250332
 30
0.0
  0
POINT
  5
19177
330
18E41
100
AcDbEntity
  8
DEFPOINTS
 62
     0
100
AcDbPoint
 10
-1000.937337485365
 20
1127.500349250294
 30
0.0
  0
POINT
  5
19178
330
18E41
100
AcDbEntity
  8
DEFPOINTS
 62
     0
100
AcDbPoint
 10
-1010.003545347015
 20
1127.500349250294
 30
0.0
  0
ENDBLK
  5
18E4C
330
18E41
100
AcDbEntity
  8
0
100
AcDbBlockEnd
  0
BLOCK
  5
18E59
330
18E4D
100
AcDbEntity
  8
0
100
AcDbBlockBegin
  2
*D11
 70
     1
 10
0.0
 20
0.0
 30
0.0
  3
*D11
  1

  0
LINE
  5
19179
330
18E4D
100
AcDbEntity
  8
SUNPOU
 62
     1
100
AcDbLine
 10
-920.9355986015891
 20
1131.00022589664
 30
0.0
 11
-920.9355986015891
 21
1148.720719580013
 31
0.0
  0
LINE
  5
1917A
330
18E4D
100
AcDbEntity
  8
SUNPOU
 62
     1
100
AcDbLine
 10
-917.937322485416
 20
1137.793239250332
 30
0.0
 11
-917.937322485416
 21
1148.720719580013
 31
0.0
  0
LINE
  5
1917B
330
18E4D
100
AcDbEntity
  8
SUNPOU
 62
     1
100
AcDbLine
 10
-923.9355986015892
 20
1148.220719580012
 30
0.0
 11
-926.9355986015892
 21
1148.220719580012
 31
0.0
  0
LINE
  5
1917C
330
18E4D
100
AcDbEntity
  8
SUNPOU
 62
     1
100
AcDbLine
 10
-914.9373224854159
 20
1148.220719580012
 30
0.0
 11
-907.6039891520826
 21
1148.220719580012
 31
0.0
  0
LINE
  5
1917D
330
18E4D
100
AcDbEntity
  8
SUNPOU
 62
     1
100
AcDbLine
 10
-920.9355986015891
 20
1148.220719580012
 30
0.0
 11
-917.937322485416
 21
1148.220719580012
 31
0.0
  0
SOLID
  5
1917E
330
18E4D
100
AcDbEntity
  8
SUNPOU
 62
     1
100
AcDbTrace
 10
-923.9355986015892
 20
1148.720719580013
 30
0.0
 11
-923.9355986015892
 21
1147.720719580012
 31
0.0
 12
-920.9355986015891
 22
1148.220719580012
 32
0.0
 13
-920.9355986015891
 23
1148.220719580012
 33
0.0
  0
SOLID
  5
1917F
330
18E4D
100
AcDbEntity
  8
SUNPOU
 62
     1
100
AcDbTrace
 10
-914.9373224854159
 20
1148.720719580013
 30
0.0
 11
-914.9373224854159
 21
1147.720719580012
 31
0.0
 12
-917.937322485416
 22
1148.220719580012
 32
0.0
 13
-917.937322485416
 23
1148.220719580012
 33
0.0
  0
MTEXT
  5
19180
330
18E4D
100
AcDbEntity
  8
SUNPOU
 62
     1
100
AcDbMText
 10
-909.7706558187493
 20
1150.970719580012
 30
0.0
 40
3.5
 41
0.0
 71
     5
 72
     1
  1
\A1;3
1001
ACAD
1000
MTEXTBEGIN
1070
    73
1070
     1
1070
    44
1040
1.0
1070
    74
1070
     0
1000
MTEXTEND
1000
MTEXTBEGIN
1070
    73
1070
     1
1070
    44
1040
1.0
1070
    74
1070
     0
1000
MTEXTEND
  0
POINT
  5
19181
330
18E4D
100
AcDbEntity
  8
DEFPOINTS
 62
     0
100
AcDbPoint
 10
-920.9355986015891
 20
1130.500225896639
 30
0.0
  0
POINT
  5
19182
330
18E4D
100
AcDbEntity
  8
DEFPOINTS
 62
     0
100
AcDbPoint
 10
-917.937322485416
 20
1137.293239250332
 30
0.0
  0
POINT
  5
19183
330
18E4D
100
AcDbEntity
  8
DEFPOINTS
 62
     0
100
AcDbPoint
 10
-917.937322485416
 20
1148.220719580012
 30
0.0
  0
ENDBLK
  5
18E5A
330
18E4D
100
AcDbEntity
  8
0
100
AcDbBlockEnd
  0
BLOCK
  5
19069
330
1905F
100
AcDbEntity
  8
0
100
AcDbBlockBegin
  2
*D12
 70
     1
 10
0.0
 20
0.0
 30
0.0
  3
*D12
  1

  0
LINE
  5
19184
330
1905F
100
AcDbEntity
  8
SUNPOU
 62
     1
100
AcDbLine
 10
-995.7499999999999
 20
1141.000379250332
 30
0.0
 11
-1019.730415380202
 21
1141.000379250332
 31
0.0
  0
LINE
  5
19185
330
1905F
100
AcDbEntity
  8
SUNPOU
 62
     1
100
AcDbLine
 10
-1004.499999999999
 20
1115.099999999999
 30
0.0
 11
-1019.730415380202
 21
1115.099999999999
 31
0.0
  0
LINE
  5
19186
330
1905F
100
AcDbEntity
  8
SUNPOU
 62
     1
100
AcDbLine
 10
-1019.230415380202
 20
1138.000379250332
 30
0.0
 11
-1019.230415380202
 21
1118.099999999998
 31
0.0
  0
SOLID
  5
19187
330
1905F
100
AcDbEntity
  8
SUNPOU
 62
     1
100
AcDbTrace
 10
-1019.730415380202
 20
1138.000379250332
 30
0.0
 11
-1018.730415380201
 21
1138.000379250332
 31
0.0
 12
-1019.230415380202
 22
1141.000379250332
 32
0.0
 13
-1019.230415380202
 23
1141.000379250332
 33
0.0
  0
SOLID
  5
19188
330
1905F
100
AcDbEntity
  8
SUNPOU
 62
     1
100
AcDbTrace
 10
-1019.730415380202
 20
1118.099999999998
 30
0.0
 11
-1018.730415380201
 21
1118.099999999998
 31
0.0
 12
-1019.230415380202
 22
1115.099999999999
 32
0.0
 13
-1019.230415380202
 23
1115.099999999999
 33
0.0
  0
MTEXT
  5
19189
330
1905F
100
AcDbEntity
  8
SUNPOU
 62
     1
100
AcDbMText
 10
-1021.980415380202
 20
1128.050189625166
 30
0.0
 40
3.5
 41
0.0
 71
     5
 72
     1
  1
\A1;25.9
 11
0.0000000000000001
 21
1.0
 31
0.0
1001
ACAD
1000
MTEXTBEGIN
1070
    73
1070
     1
1070
    44
1040
1.0
1070
    74
1070
     0
1000
MTEXTEND
1000
MTEXTBEGIN
1070
    73
1070
     1
1070
    44
1040
1.0
1070
    74
1070
     0
1000
MTEXTEND
  0
POINT
  5
1918A
330
1905F
100
AcDbEntity
  8
DEFPOINTS
 62
     0
100
AcDbPoint
 10
-995.25
 20
1141.000379250332
 30
0.0
  0
POINT
  5
1918B
330
1905F
100
AcDbEntity
  8
DEFPOINTS
 62
     0
100
AcDbPoint
 10
-1004.0
 20
1115.099999999999
 30
0.0
  0
POINT
  5
1918C
330
1905F
100
AcDbEntity
  8
DEFPOINTS
 62
     0
100
AcDbPoint
 10
-1019.230415380202
 20
1115.099999999999
 30
0.0
  0
ENDBLK
  5
1906A
330
1905F
100
AcDbEntity
  8
0
100
AcDbBlockEnd
  0
BLOCK
  5
1907F
330
19075
100
AcDbEntity
  8
0
100
AcDbBlockBegin
  2
*D13
 70
     1
 10
0.0
 20
0.0
 30
0.0
  3
*D13
  1

  0
LINE
  5
1918D
330
19075
100
AcDbEntity
  8
SUNPOU
 62
     1
100
AcDbLine
 10
-1065.0
 20
1001.0
 30
0.0
 11
-1065.0
 21
986.6729159751081
 31
0.0
  0
LINE
  5
1918E
330
19075
100
AcDbEntity
  8
SUNPOU
 62
     1
100
AcDbLine
 10
-1039.100029999999
 20
1014.0
 30
0.0
 11
-1039.100029999999
 21
986.6729159751081
 31
0.0
  0
LINE
  5
1918F
330
19075
100
AcDbEntity
  8
SUNPOU
 62
     1
100
AcDbLine
 10
-1062.0
 20
987.172915975108
 30
0.0
 11
-1042.10003
 21
987.172915975108
 31
0.0
  0
SOLID
  5
19190
330
19075
100
AcDbEntity
  8
SUNPOU
 62
     1
100
AcDbTrace
 10
-1062.0
 20
987.672915975108
 30
0.0
 11
-1062.0
 21
986.6729159751081
 31
0.0
 12
-1065.0
 22
987.172915975108
 32
0.0
 13
-1065.0
 23
987.172915975108
 33
0.0
  0
SOLID
  5
19191
330
19075
100
AcDbEntity
  8
SUNPOU
 62
     1
100
AcDbTrace
 10
-1042.10003
 20
987.672915975108
 30
0.0
 11
-1042.10003
 21
986.6729159751081
 31
0.0
 12
-1039.100029999999
 22
987.172915975108
 32
0.0
 13
-1039.100029999999
 23
987.172915975108
 33
0.0
  0
MTEXT
  5
19192
330
19075
100
AcDbEntity
  8
SUNPOU
 62
     1
100
AcDbMText
 10
-1052.050015
 20
989.9229159751079
 30
0.0
 40
3.5
 41
0.0
 71
     5
 72
     1
  1
\A1;25.9
1001
ACAD
1000
MTEXTBEGIN
1070
    73
1070
     1
1070
    44
1040
1.0
1070
    74
1070
     0
1000
MTEXTEND
1000
MTEXTBEGIN
1070
    73
1070
     1
1070
    44
1040
1.0
1070
    74
1070
     0
1000
MTEXTEND
  0
POINT
  5
19193
330
19075
100
AcDbEntity
  8
DEFPOINTS
 62
     0
100
AcDbPoint
 10
-1065.0
 20
1001.499999999998
 30
0.0
  0
POINT
  5
19194
330
19075
100
AcDbEntity
  8
DEFPOINTS
 62
     0
100
AcDbPoint
 10
-1039.100029999999
 20
1014.499999999999
 30
0.0
  0
POINT
  5
19195
330
19075
100
AcDbEntity
  8
DEFPOINTS
 62
     0
100
AcDbPoint
 10
-1039.100029999999
 20
987.172915975108
 30
0.0
  0
ENDBLK
  5
19080
330
19075
100
AcDbEntity
  8
0
100
AcDbBlockEnd
  0
ENDSEC
  0
SECTION
  2
ENTITIES
  0
MTEXT
  5
5084
330
1A
100
AcDbEntity
  8
0
100
AcDbMText
 10
1985.239088685434
 20
-948.5420423450428
 30
0.0
 40
8.0
 41
0.0
 71
     7
 72
     5
  1

1001
ACAD
1000
MTEXTBEGIN
1070
    73
1070
     1
1070
    44
1040
1.0
1070
    74
1070
     0
1000
MTEXTEND
1000
MTEXTBEGIN
1070
    73
1070
     1
1070
    44
1040
1.0
1070
    74
1070
     0
1000
MTEXTEND
  0
MTEXT
  5
5085
330
1A
100
AcDbEntity
  8
0
100
AcDbMText
 10
4270.596778580329
 20
22.24825240601648
 30
0.0
 40
8.0
 41
0.0
 71
     7
 72
     5
  1

1001
ACAD
1000
MTEXTBEGIN
1070
    73
1070
     1
1070
    44
1040
1.0
1070
    74
1070
     0
1000
MTEXTEND
1000
MTEXTBEGIN
1070
    73
1070
     1
1070
    44
1040
1.0
1070
    74
1070
     0
1000
MTEXTEND
  0
MTEXT
  5
5343
330
1A
100
AcDbEntity
  8
SUNPOU
100
AcDbMText
 10
6936.493799262471
 20
9534.359644781137
 30
0.0
 40
10.5
 41
0.0
 71
     1
 72
     5
  1

1001
ACAD
1000
MTEXTBEGIN
1070
    73
1070
     1
1070
    44
1040
1.0
1070
    74
1070
     0
1000
MTEXTEND
1000
MTEXTBEGIN
1070
    73
1070
     1
1070
    44
1040
1.0
1070
    74
1070
     0
1000
MTEXTEND
  0
MTEXT
  5
544F
330
1A
100
AcDbEntity
  8
0
100
AcDbMText
 10
16317.2832773148
 20
12833.35428897674
 30
0.0
 40
8.0
 41
0.0
 71
     7
 72
     5
  1

1001
ACAD
1000
MTEXTBEGIN
1070
    73
1070
     1
1070
    44
1040
1.0
1070
    74
1070
     0
1000
MTEXTEND
1000
MTEXTBEGIN
1070
    73
1070
     1
1070
    44
1040
1.0
1070
    74
1070
     0
1000
MTEXTEND
  0
MTEXT
  5
5450
330
1A
100
AcDbEntity
  8
0
100
AcDbMText
 10
18602.64096720968
 20
13804.1445837278
 30
0.0
 40
8.0
 41
0.0
 71
     7
 72
     5
  1

1001
ACAD
1000
MTEXTBEGIN
1070
    73
1070
     1
1070
    44
1040
1.0
1070
    74
1070
     0
1000
MTEXTEND
1000
MTEXTBEGIN
1070
    73
1070
     1
1070
    44
1040
1.0
1070
    74
1070
     0
1000
MTEXTEND
  0
MTEXT
  5
5451
330
1A
100
AcDbEntity
  8
SUNPOU
100
AcDbMText
 10
21268.53798789184
 20
23316.25597610292
 30
0.0
 40
10.5
 41
0.0
 71
     1
 72
     5
  1

1001
ACAD
1000
MTEXTBEGIN
1070
    73
1070
     1
1070
    44
1040
1.0
1070
    74
1070
     0
1000
MTEXTEND
1000
MTEXTBEGIN
1070
    73
1070
     1
1070
    44
1040
1.0
1070
    74
1070
     0
1000
MTEXTEND
  0
MTEXT
  5
5452
330
1A
100
AcDbEntity
  8
SUNPOU
100
AcDbMText
 10
13337.6147919559
 20
22369.46284218996
 30
0.0
 40
10.5
 41
0.0
 71
     7
 72
     5
  1

1001
ACAD
1000
MTEXTBEGIN
1070
    73
1070
     1
1070
    44
1040
1.0
1070
    74
1070
     0
1000
MTEXTEND
1000
MTEXTBEGIN
1070
    73
1070
     1
1070
    44
1040
1.0
1070
    74
1070
     0
1000
MTEXTEND
  0
MTEXT
  5
5453
330
1A
100
AcDbEntity
  8
SUNPOU
100
AcDbMText
 10
16286.59845646867
 20
27270.1389140328
 30
0.0
 40
10.5
 41
0.0
 71
     7
 72
     5
  1

1001
ACAD
1000
MTEXTBEGIN
1070
    73
1070
     1
1070
    44
1040
1.0
1070
    74
1070
     0
1000
MTEXTEND
1000
MTEXTBEGIN
1070
    73
1070
     1
1070
    44
1040
1.0
1070
    74
1070
     0
1000
MTEXTEND
  0
MTEXT
  5
5454
330
1A
100
AcDbEntity
  8
SUNPOU
100
AcDbMText
 10
20795.67658441924
 20
29706.43966165288
 30
0.0
 40
10.5
 41
0.0
 71
     7
 72
     5
  1

1001
ACAD
1000
MTEXTBEGIN
1070
    73
1070
     1
1070
    44
1040
1.0
1070
    74
1070
     0
1000
MTEXTEND
1000
MTEXTBEGIN
1070
    73
1070
     1
1070
    44
1040
1.0
1070
    74
1070
     0
1000
MTEXTEND
  0
MTEXT
  5
5455
330
1A
100
AcDbEntity
  8
0
100
AcDbMText
 10
16611.93789220313
 20
14707.52144344448
 30
0.0
 40
8.0
 41
0.0
 71
     7
 72
     5
  1

1001
ACAD
1000
MTEXTBEGIN
1070
    73
1070
     1
1070
    44
1040
1.0
1070
    74
1070
     0
1000
MTEXTEND
1000
MTEXTBEGIN
1070
    73
1070
     1
1070
    44
1040
1.0
1070
    74
1070
     0
1000
MTEXTEND
  0
MTEXT
  5
5456
330
1A
100
AcDbEntity
  8
0
100
AcDbMText
 10
18897.29558209803
 20
15678.31173819554
 30
0.0
 40
8.0
 41
0.0
 71
     7
 72
     5
  1

1001
ACAD
1000
MTEXTBEGIN
1070
    73
1070
     1
1070
    44
1040
1.0
1070
    74
1070
     0
1000
MTEXTEND
1000
MTEXTBEGIN
1070
    73
1070
     1
1070
    44
1040
1.0
1070
    74
1070
     0
1000
MTEXTEND
  0
MTEXT
  5
5457
330
1A
100
AcDbEntity
  8
SUNPOU
100
AcDbMText
 10
21563.19260278019
 20
25190.42313057066
 30
0.0
 40
10.5
 41
0.0
 71
     1
 72
     5
  1

1001
ACAD
1000
MTEXTBEGIN
1070
    73
1070
     1
1070
    44
1040
1.0
1070
    74
1070
     0
1000
MTEXTEND
1000
MTEXTBEGIN
1070
    73
1070
     1
1070
    44
1040
1.0
1070
    74
1070
     0
1000
MTEXTEND
  0
MTEXT
  5
5458
330
1A
100
AcDbEntity
  8
SUNPOU
100
AcDbMText
 10
13632.26940684425
 20
24243.6299966577
 30
0.0
 40
10.5
 41
0.0
 71
     7
 72
     5
  1

1001
ACAD
1000
MTEXTBEGIN
1070
    73
1070
     1
1070
    44
1040
1.0
1070
    74
1070
     0
1000
MTEXTEND
1000
MTEXTBEGIN
1070
    73
1070
     1
1070
    44
1040
1.0
1070
    74
1070
     0
1000
MTEXTEND
  0
MTEXT
  5
5459
330
1A
100
AcDbEntity
  8
SUNPOU
100
AcDbMText
 10
16581.25307135702
 20
29144.30606850055
 30
0.0
 40
10.5
 41
0.0
 71
     7
 72
     5
  1

1001
ACAD
1000
MTEXTBEGIN
1070
    73
1070
     1
1070
    44
1040
1.0
1070
    74
1070
     0
1000
MTEXTEND
1000
MTEXTBEGIN
1070
    73
1070
     1
1070
    44
1040
1.0
1070
    74
1070
     0
1000
MTEXTEND
  0
MTEXT
  5
545A
330
1A
100
AcDbEntity
  8
SUNPOU
100
AcDbMText
 10
21090.33119930759
 20
31580.60681612062
 30
0.0
 40
10.5
 41
0.0
 71
     7
 72
     5
  1

1001
ACAD
1000
MTEXTBEGIN
1070
    73
1070
     1
1070
    44
1040
1.0
1070
    74
1070
     0
1000
MTEXTEND
1000
MTEXTBEGIN
1070
    73
1070
     1
1070
    44
1040
1.0
1070
    74
1070
     0
1000
MTEXTEND
  0
MTEXT
  5
545B
330
1A
100
AcDbEntity
  8
0
100
AcDbMText
 10
22871.60517627166
 20
23974.88367124799
 30
0.0
 40
8.0
 41
0.0
 71
     7
 72
     5
  1

1001
ACAD
1000
MTEXTBEGIN
1070
    73
1070
     1
1070
    44
1040
1.0
1070
    74
1070
     0
1000
MTEXTEND
1000
MTEXTBEGIN
1070
    73
1070
     1
1070
    44
1040
1.0
1070
    74
1070
     0
1000
MTEXTEND
  0
MTEXT
  5
545C
330
1A
100
AcDbEntity
  8
0
100
AcDbMText
 10
25156.96286616656
 20
24945.67396599905
 30
0.0
 40
8.0
 41
0.0
 71
     7
 72
     5
  1

1001
ACAD
1000
MTEXTBEGIN
1070
    73
1070
     1
1070
    44
1040
1.0
1070
    74
1070
     0
1000
MTEXTEND
1000
MTEXTBEGIN
1070
    73
1070
     1
1070
    44
1040
1.0
1070
    74
1070
     0
1000
MTEXTEND
  0
MTEXT
  5
545D
330
1A
100
AcDbEntity
  8
SUNPOU
100
AcDbMText
 10
27822.85988684871
 20
34457.78535837418
 30
0.0
 40
10.5
 41
0.0
 71
     1
 72
     5
  1

1001
ACAD
1000
MTEXTBEGIN
1070
    73
1070
     1
1070
    44
1040
1.0
1070
    74
1070
     0
1000
MTEXTEND
1000
MTEXTBEGIN
1070
    73
1070
     1
1070
    44
1040
1.0
1070
    74
1070
     0
1000
MTEXTEND
  0
MTEXT
  5
545E
330
1A
100
AcDbEntity
  8
SUNPOU
100
AcDbMText
 10
19891.93669091278
 20
33510.99222446122
 30
0.0
 40
10.5
 41
0.0
 71
     7
 72
     5
  1

1001
ACAD
1000
MTEXTBEGIN
1070
    73
1070
     1
1070
    44
1040
1.0
1070
    74
1070
     0
1000
MTEXTEND
1000
MTEXTBEGIN
1070
    73
1070
     1
1070
    44
1040
1.0
1070
    74
1070
     0
1000
MTEXTEND
  0
MTEXT
  5
545F
330
1A
100
AcDbEntity
  8
SUNPOU
100
AcDbMText
 10
22840.92035542555
 20
38411.66829630406
 30
0.0
 40
10.5
 41
0.0
 71
     7
 72
     5
  1

1001
ACAD
1000
MTEXTBEGIN
1070
    73
1070
     1
1070
    44
1040
1.0
1070
    74
1070
     0
1000
MTEXTEND
1000
MTEXTBEGIN
1070
    73
1070
     1
1070
    44
1040
1.0
1070
    74
1070
     0
1000
MTEXTEND
  0
MTEXT
  5
5460
330
1A
100
AcDbEntity
  8
SUNPOU
100
AcDbMText
 10
27349.99848337611
 20
40847.96904392415
 30
0.0
 40
10.5
 41
0.0
 71
     7
 72
     5
  1

1001
ACAD
1000
MTEXTBEGIN
1070
    73
1070
     1
1070
    44
1040
1.0
1070
    74
1070
     0
1000
MTEXTEND
1000
MTEXTBEGIN
1070
    73
1070
     1
1070
    44
1040
1.0
1070
    74
1070
     0
1000
MTEXTEND
  0
MTEXT
  5
55B7
330
1A
100
AcDbEntity
  8
SUNPOU
100
AcDbMText
 10
67424.23923338197
 20
64463.86602884816
 30
0.0
 40
10.5
 41
0.0
 71
     9
 72
     5
  1

1001
ACAD
1000
MTEXTBEGIN
1070
    73
1070
     1
1070
    44
1040
1.0
1070
    74
1070
     0
1000
MTEXTEND
1000
MTEXTBEGIN
1070
    73
1070
     1
1070
    44
1040
1.0
1070
    74
1070
     0
1000
MTEXTEND
  0
MTEXT
  5
55B8
330
1A
100
AcDbEntity
  8
SUNPOU
100
AcDbMText
 10
76146.40679929998
 20
71879.70056038563
 30
0.0
 40
10.5
 41
0.0
 71
     9
 72
     5
  1

1001
ACAD
1000
MTEXTBEGIN
1070
    73
1070
     1
1070
    44
1040
1.0
1070
    74
1070
     0
1000
MTEXTEND
1000
MTEXTBEGIN
1070
    73
1070
     1
1070
    44
1040
1.0
1070
    74
1070
     0
1000
MTEXTEND
  0
MTEXT
  5
55B9
330
1A
100
AcDbEntity
  8
SUNPOU
100
AcDbMText
 10
95100.16551662994
 20
89346.27661287766
 30
0.0
 40
10.5
 41
0.0
 71
     9
 72
     5
  1

1001
ACAD
1000
MTEXTBEGIN
1070
    73
1070
     1
1070
    44
1040
1.0
1070
    74
1070
     0
1000
MTEXTEND
1000
MTEXTBEGIN
1070
    73
1070
     1
1070
    44
1040
1.0
1070
    74
1070
     0
1000
MTEXTEND
  0
MTEXT
  5
55BA
330
1A
100
AcDbEntity
  8
SUNPOU
100
AcDbMText
 10
97043.57276333935
 20
87545.22753299966
 30
0.0
 40
3.5
 41
0.0
 71
     9
 72
     5
  1

1001
ACAD
1000
MTEXTBEGIN
1070
    73
1070
     1
1070
    44
1040
1.0
1070
    74
1070
     0
1000
MTEXTEND
1000
MTEXTBEGIN
1070
    73
1070
     1
1070
    44
1040
1.0
1070
    74
1070
     0
1000
MTEXTEND
  0
MTEXT
  5
55BB
330
1A
100
AcDbEntity
  8
SUNPOU
100
AcDbMText
 10
128169.7525959589
 20
130040.1732006569
 30
0.0
 40
10.5
 41
0.0
 71
     9
 72
     5
  1

1001
ACAD
1000
MTEXTBEGIN
1070
    73
1070
     1
1070
    44
1040
1.0
1070
    74
1070
     0
1000
MTEXTEND
1000
MTEXTBEGIN
1070
    73
1070
     1
1070
    44
1040
1.0
1070
    74
1070
     0
1000
MTEXTEND
  0
MTEXT
  5
55BC
330
1A
100
AcDbEntity
  8
SUNPOU
100
AcDbMText
 10
130113.1598426684
 20
128239.1241207789
 30
0.0
 40
3.5
 41
0.0
 71
     9
 72
     5
  1

1001
ACAD
1000
MTEXTBEGIN
1070
    73
1070
     1
1070
    44
1040
1.0
1070
    74
1070
     0
1000
MTEXTEND
1000
MTEXTBEGIN
1070
    73
1070
     1
1070
    44
1040
1.0
1070
    74
1070
     0
1000
MTEXTEND
  0
MTEXT
  5
55BD
330
1A
100
AcDbEntity
  8
SUNPOU
100
AcDbMText
 10
78610.02030175463
 20
75873.33835563206
 30
0.0
 40
10.5
 41
0.0
 71
     9
 72
     5
  1

1001
ACAD
1000
MTEXTBEGIN
1070
    73
1070
     1
1070
    44
1040
1.0
1070
    74
1070
     0
1000
MTEXTEND
1000
MTEXTBEGIN
1070
    73
1070
     1
1070
    44
1040
1.0
1070
    74
1070
     0
1000
MTEXTEND
  0
MTEXT
  5
55BE
330
1A
100
AcDbEntity
  8
SUNPOU
100
AcDbMText
 10
64662.02020137862
 20
56700.93921651987
 30
0.0
 40
3.5
 41
0.0
 71
     7
 72
     5
  1

1001
ACAD
1000
MTEXTBEGIN
1070
    73
1070
     1
1070
    44
1040
1.0
1070
    74
1070
     0
1000
MTEXTEND
1000
MTEXTBEGIN
1070
    73
1070
     1
1070
    44
1040
1.0
1070
    74
1070
     0
1000
MTEXTEND
  0
MTEXT
  5
55BF
330
1A
100
AcDbEntity
  8
SUNPOU
100
AcDbMText
 10
45647.18959837177
 20
44463.08794733806
 30
0.0
 40
10.5
 41
0.0
 71
     7
 72
     5
  1

1001
ACAD
1000
MTEXTBEGIN
1070
    73
1070
     1
1070
    44
1040
1.0
1070
    74
1070
     0
1000
MTEXTEND
1000
MTEXTBEGIN
1070
    73
1070
     1
1070
    44
1040
1.0
1070
    74
1070
     0
1000
MTEXTEND
  0
MTEXT
  5
55C0
330
1A
100
AcDbEntity
  8
SUNPOU
100
AcDbMText
 10
33189.96133342368
 20
28618.15636923965
 30
0.0
 40
35.0
 41
0.0
 71
     9
 72
     5
  1

1001
ACAD
1000
MTEXTBEGIN
1070
    73
1070
     1
1070
    44
1040
1.0
1070
    74
1070
     0
1000
MTEXTEND
1000
MTEXTBEGIN
1070
    73
1070
     1
1070
    44
1040
1.0
1070
    74
1070
     0
1000
MTEXTEND
  0
MTEXT
  5
55C1
330
1A
100
AcDbEntity
  8
SUNPOU
100
AcDbMText
 10
32098.44639099864
 20
29226.93177928834
 30
0.0
 40
350.0000004171781
 41
0.0
 71
     7
 72
     5
  1

1001
ACAD
1000
MTEXTBEGIN
1070
    73
1070
     1
1070
    44
1040
1.0
1070
    74
1070
     0
1000
MTEXTEND
1000
MTEXTBEGIN
1070
    73
1070
     1
1070
    44
1040
1.0
1070
    74
1070
     0
1000
MTEXTEND
  0
MTEXT
  5
55C2
330
1A
100
AcDbEntity
  8
0
100
AcDbMText
 10
38142.39714894154
 20
27206.85414142458
 30
0.0
 40
8.0
 41
0.0
 71
     7
 72
     5
  1

1001
ACAD
1000
MTEXTBEGIN
1070
    73
1070
     1
1070
    44
1040
1.0
1070
    74
1070
     0
1000
MTEXTEND
1000
MTEXTBEGIN
1070
    73
1070
     1
1070
    44
1040
1.0
1070
    74
1070
     0
1000
MTEXTEND
  0
MTEXT
  5
55C3
330
1A
100
AcDbEntity
  8
0
100
AcDbMText
 10
40427.75483883644
 20
28177.64443617564
 30
0.0
 40
8.0
 41
0.0
 71
     7
 72
     5
  1

1001
ACAD
1000
MTEXTBEGIN
1070
    73
1070
     1
1070
    44
1040
1.0
1070
    74
1070
     0
1000
MTEXTEND
1000
MTEXTBEGIN
1070
    73
1070
     1
1070
    44
1040
1.0
1070
    74
1070
     0
1000
MTEXTEND
  0
MTEXT
  5
55C4
330
1A
100
AcDbEntity
  8
SUNPOU
100
AcDbMText
 10
43093.65185951858
 20
37689.75582855077
 30
0.0
 40
10.5
 41
0.0
 71
     1
 72
     5
  1

1001
ACAD
1000
MTEXTBEGIN
1070
    73
1070
     1
1070
    44
1040
1.0
1070
    74
1070
     0
1000
MTEXTEND
1000
MTEXTBEGIN
1070
    73
1070
     1
1070
    44
1040
1.0
1070
    74
1070
     0
1000
MTEXTEND
  0
MTEXT
  5
55C5
330
1A
100
AcDbEntity
  8
SUNPOU
100
AcDbMText
 10
35162.72866358265
 20
36742.96269463781
 30
0.0
 40
10.5
 41
0.0
 71
     7
 72
     5
  1

1001
ACAD
1000
MTEXTBEGIN
1070
    73
1070
     1
1070
    44
1040
1.0
1070
    74
1070
     0
1000
MTEXTEND
1000
MTEXTBEGIN
1070
    73
1070
     1
1070
    44
1040
1.0
1070
    74
1070
     0
1000
MTEXTEND
  0
MTEXT
  5
55C6
330
1A
100
AcDbEntity
  8
SUNPOU
100
AcDbMText
 10
38111.71232809542
 20
41643.63876648065
 30
0.0
 40
10.5
 41
0.0
 71
     7
 72
     5
  1

1001
ACAD
1000
MTEXTBEGIN
1070
    73
1070
     1
1070
    44
1040
1.0
1070
    74
1070
     0
1000
MTEXTEND
1000
MTEXTBEGIN
1070
    73
1070
     1
1070
    44
1040
1.0
1070
    74
1070
     0
1000
MTEXTEND
  0
MTEXT
  5
55C7
330
1A
100
AcDbEntity
  8
SUNPOU
100
AcDbMText
 10
42620.79045604596
 20
44079.93951410074
 30
0.0
 40
10.5
 41
0.0
 71
     7
 72
     5
  1

1001
ACAD
1000
MTEXTBEGIN
1070
    73
1070
     1
1070
    44
1040
1.0
1070
    74
1070
     0
1000
MTEXTEND
1000
MTEXTBEGIN
1070
    73
1070
     1
1070
    44
1040
1.0
1070
    74
1070
     0
1000
MTEXTEND
  0
MTEXT
  5
55C8
330
1A
100
AcDbEntity
  8
SUNPOU
100
AcDbMText
 10
26221.62834281429
 20
23077.53566448964
 30
0.0
 40
10.5
 41
0.0
 71
     7
 72
     5
  1

1001
ACAD
1000
MTEXTBEGIN
1070
    73
1070
     1
1070
    44
1040
1.0
1070
    74
1070
     0
1000
MTEXTEND
1000
MTEXTBEGIN
1070
    73
1070
     1
1070
    44
1040
1.0
1070
    74
1070
     0
1000
MTEXTEND
  0
MTEXT
  5
55C9
330
1A
100
AcDbEntity
  8
SUNPOU
100
AcDbMText
 10
77413.14677671455
 20
68750.51622813789
 30
0.0
 40
10.5
 41
0.0
 71
     9
 72
     5
  1

1001
ACAD
1000
MTEXTBEGIN
1070
    73
1070
     1
1070
    44
1040
1.0
1070
    74
1070
     0
1000
MTEXTEND
1000
MTEXTBEGIN
1070
    73
1070
     1
1070
    44
1040
1.0
1070
    74
1070
     0
1000
MTEXTEND
  0
MTEXT
  5
55CA
330
1A
100
AcDbEntity
  8
SUNPOU
100
AcDbMText
 10
86135.31434263256
 20
76166.35075967536
 30
0.0
 40
10.5
 41
0.0
 71
     9
 72
     5
  1

1001
ACAD
1000
MTEXTBEGIN
1070
    73
1070
     1
1070
    44
1040
1.0
1070
    74
1070
     0
1000
MTEXTEND
1000
MTEXTBEGIN
1070
    73
1070
     1
1070
    44
1040
1.0
1070
    74
1070
     0
1000
MTEXTEND
  0
MTEXT
  5
55CB
330
1A
100
AcDbEntity
  8
SUNPOU
100
AcDbMText
 10
105089.0730599624
 20
93632.92681216739
 30
0.0
 40
10.5
 41
0.0
 71
     9
 72
     5
  1

1001
ACAD
1000
MTEXTBEGIN
1070
    73
1070
     1
1070
    44
1040
1.0
1070
    74
1070
     0
1000
MTEXTEND
1000
MTEXTBEGIN
1070
    73
1070
     1
1070
    44
1040
1.0
1070
    74
1070
     0
1000
MTEXTEND
  0
MTEXT
  5
55CC
330
1A
100
AcDbEntity
  8
SUNPOU
100
AcDbMText
 10
107032.4803066718
 20
91831.87773228938
 30
0.0
 40
3.5
 41
0.0
 71
     9
 72
     5
  1

1001
ACAD
1000
MTEXTBEGIN
1070
    73
1070
     1
1070
    44
1040
1.0
1070
    74
1070
     0
1000
MTEXTEND
1000
MTEXTBEGIN
1070
    73
1070
     1
1070
    44
1040
1.0
1070
    74
1070
     0
1000
MTEXTEND
  0
MTEXT
  5
55CD
330
1A
100
AcDbEntity
  8
SUNPOU
100
AcDbMText
 10
138158.6601392916
 20
134326.8233999467
 30
0.0
 40
10.5
 41
0.0
 71
     9
 72
     5
  1

1001
ACAD
1000
MTEXTBEGIN
1070
    73
1070
     1
1070
    44
1040
1.0
1070
    74
1070
     0
1000
MTEXTEND
1000
MTEXTBEGIN
1070
    73
1070
     1
1070
    44
1040
1.0
1070
    74
1070
     0
1000
MTEXTEND
  0
MTEXT
  5
55CE
330
1A
100
AcDbEntity
  8
SUNPOU
100
AcDbMText
 10
140102.067386001
 20
132525.7743200686
 30
0.0
 40
3.5
 41
0.0
 71
     9
 72
     5
  1

1001
ACAD
1000
MTEXTBEGIN
1070
    73
1070
     1
1070
    44
1040
1.0
1070
    74
1070
     0
1000
MTEXTEND
1000
MTEXTBEGIN
1070
    73
1070
     1
1070
    44
1040
1.0
1070
    74
1070
     0
1000
MTEXTEND
  0
MTEXT
  5
55CF
330
1A
100
AcDbEntity
  8
SUNPOU
100
AcDbMText
 10
88598.92784508721
 20
80159.98855492179
 30
0.0
 40
10.5
 41
0.0
 71
     9
 72
     5
  1

1001
ACAD
1000
MTEXTBEGIN
1070
    73
1070
     1
1070
    44
1040
1.0
1070
    74
1070
     0
1000
MTEXTEND
1000
MTEXTBEGIN
1070
    73
1070
     1
1070
    44
1040
1.0
1070
    74
1070
     0
1000
MTEXTEND
  0
MTEXT
  5
55D0
330
1A
100
AcDbEntity
  8
SUNPOU
100
AcDbMText
 10
74650.92774471121
 20
60987.58941580959
 30
0.0
 40
3.5
 41
0.0
 71
     7
 72
     5
  1

1001
ACAD
1000
MTEXTBEGIN
1070
    73
1070
     1
1070
    44
1040
1.0
1070
    74
1070
     0
1000
MTEXTEND
1000
MTEXTBEGIN
1070
    73
1070
     1
1070
    44
1040
1.0
1070
    74
1070
     0
1000
MTEXTEND
  0
MTEXT
  5
55D1
330
1A
100
AcDbEntity
  8
SUNPOU
100
AcDbMText
 10
55636.09714170436
 20
48749.73814662781
 30
0.0
 40
10.5
 41
0.0
 71
     7
 72
     5
  1

1001
ACAD
1000
MTEXTBEGIN
1070
    73
1070
     1
1070
    44
1040
1.0
1070
    74
1070
     0
1000
MTEXTEND
1000
MTEXTBEGIN
1070
    73
1070
     1
1070
    44
1040
1.0
1070
    74
1070
     0
1000
MTEXTEND
  0
MTEXT
  5
55D2
330
1A
100
AcDbEntity
  8
SUNPOU
100
AcDbMText
 10
43178.86887675626
 20
32904.80656852937
 30
0.0
 40
35.0
 41
0.0
 71
     9
 72
     5
  1

1001
ACAD
1000
MTEXTBEGIN
1070
    73
1070
     1
1070
    44
1040
1.0
1070
    74
1070
     0
1000
MTEXTEND
1000
MTEXTBEGIN
1070
    73
1070
     1
1070
    44
1040
1.0
1070
    74
1070
     0
1000
MTEXTEND
  0
MTEXT
  5
55D3
330
1A
100
AcDbEntity
  8
SUNPOU
100
AcDbMText
 10
42087.3539343312
 20
33513.58197857808
 30
0.0
 40
350.0000004171781
 41
0.0
 71
     7
 72
     5
  1

1001
ACAD
1000
MTEXTBEGIN
1070
    73
1070
     1
1070
    44
1040
1.0
1070
    74
1070
     0
1000
MTEXTEND
1000
MTEXTBEGIN
1070
    73
1070
     1
1070
    44
1040
1.0
1070
    74
1070
     0
1000
MTEXTEND
  0
MTEXT
  5
55D4
330
1A
100
AcDbEntity
  8
0
100
AcDbMText
 10
48131.30469227412
 20
31493.50434071431
 30
0.0
 40
8.0
 41
0.0
 71
     7
 72
     5
  1

1001
ACAD
1000
MTEXTBEGIN
1070
    73
1070
     1
1070
    44
1040
1.0
1070
    74
1070
     0
1000
MTEXTEND
1000
MTEXTBEGIN
1070
    73
1070
     1
1070
    44
1040
1.0
1070
    74
1070
     0
1000
MTEXTEND
  0
MTEXT
  5
55D5
330
1A
100
AcDbEntity
  8
0
100
AcDbMText
 10
50416.66238216901
 20
32464.29463546537
 30
0.0
 40
8.0
 41
0.0
 71
     7
 72
     5
  1

1001
ACAD
1000
MTEXTBEGIN
1070
    73
1070
     1
1070
    44
1040
1.0
1070
    74
1070
     0
1000
MTEXTEND
1000
MTEXTBEGIN
1070
    73
1070
     1
1070
    44
1040
1.0
1070
    74
1070
     0
1000
MTEXTEND
  0
MTEXT
  5
55D6
330
1A
100
AcDbEntity
  8
SUNPOU
100
AcDbMText
 10
53082.55940285115
 20
41976.4060278405
 30
0.0
 40
10.5
 41
0.0
 71
     1
 72
     5
  1

1001
ACAD
1000
MTEXTBEGIN
1070
    73
1070
     1
1070
    44
1040
1.0
1070
    74
1070
     0
1000
MTEXTEND
1000
MTEXTBEGIN
1070
    73
1070
     1
1070
    44
1040
1.0
1070
    74
1070
     0
1000
MTEXTEND
  0
MTEXT
  5
55D7
330
1A
100
AcDbEntity
  8
SUNPOU
100
AcDbMText
 10
45151.63620691521
 20
41029.61289392755
 30
0.0
 40
10.5
 41
0.0
 71
     7
 72
     5
  1

1001
ACAD
1000
MTEXTBEGIN
1070
    73
1070
     1
1070
    44
1040
1.0
1070
    74
1070
     0
1000
MTEXTEND
1000
MTEXTBEGIN
1070
    73
1070
     1
1070
    44
1040
1.0
1070
    74
1070
     0
1000
MTEXTEND
  0
MTEXT
  5
55D8
330
1A
100
AcDbEntity
  8
SUNPOU
100
AcDbMText
 10
48100.61987142798
 20
45930.28896577039
 30
0.0
 40
10.5
 41
0.0
 71
     7
 72
     5
  1

1001
ACAD
1000
MTEXTBEGIN
1070
    73
1070
     1
1070
    44
1040
1.0
1070
    74
1070
     0
1000
MTEXTEND
1000
MTEXTBEGIN
1070
    73
1070
     1
1070
    44
1040
1.0
1070
    74
1070
     0
1000
MTEXTEND
  0
MTEXT
  5
55D9
330
1A
100
AcDbEntity
  8
SUNPOU
100
AcDbMText
 10
52609.69799937853
 20
48366.58971339046
 30
0.0
 40
10.5
 41
0.0
 71
     7
 72
     5
  1

1001
ACAD
1000
MTEXTBEGIN
1070
    73
1070
     1
1070
    44
1040
1.0
1070
    74
1070
     0
1000
MTEXTEND
1000
MTEXTBEGIN
1070
    73
1070
     1
1070
    44
1040
1.0
1070
    74
1070
     0
1000
MTEXTEND
  0
MTEXT
  5
55DA
330
1A
100
AcDbEntity
  8
SUNPOU
100
AcDbMText
 10
36210.53588614687
 20
27364.18586377937
 30
0.0
 40
10.5
 41
0.0
 71
     7
 72
     5
  1

1001
ACAD
1000
MTEXTBEGIN
1070
    73
1070
     1
1070
    44
1040
1.0
1070
    74
1070
     0
1000
MTEXTEND
1000
MTEXTBEGIN
1070
    73
1070
     1
1070
    44
1040
1.0
1070
    74
1070
     0
1000
MTEXTEND
  0
MTEXT
  5
55DB
330
1A
100
AcDbEntity
  8
SUNPOU
100
AcDbMText
 10
38021.29879752181
 20
33691.59985125794
 30
0.0
 40
10.5
 41
0.0
 71
     9
 72
     5
  1

1001
ACAD
1000
MTEXTBEGIN
1070
    73
1070
     1
1070
    44
1040
1.0
1070
    74
1070
     0
1000
MTEXTEND
1000
MTEXTBEGIN
1070
    73
1070
     1
1070
    44
1040
1.0
1070
    74
1070
     0
1000
MTEXTEND
  0
MTEXT
  5
55DC
330
1A
100
AcDbEntity
  8
SUNPOU
100
AcDbMText
 10
46743.46636343979
 20
41107.4343827954
 30
0.0
 40
10.5
 41
0.0
 71
     9
 72
     5
  1

1001
ACAD
1000
MTEXTBEGIN
1070
    73
1070
     1
1070
    44
1040
1.0
1070
    74
1070
     0
1000
MTEXTEND
1000
MTEXTBEGIN
1070
    73
1070
     1
1070
    44
1040
1.0
1070
    74
1070
     0
1000
MTEXTEND
  0
MTEXT
  5
55DD
330
1A
100
AcDbEntity
  8
SUNPOU
100
AcDbMText
 10
65697.22508076974
 20
58574.01043528746
 30
0.0
 40
10.5
 41
0.0
 71
     9
 72
     5
  1

1001
ACAD
1000
MTEXTBEGIN
1070
    73
1070
     1
1070
    44
1040
1.0
1070
    74
1070
     0
1000
MTEXTEND
1000
MTEXTBEGIN
1070
    73
1070
     1
1070
    44
1040
1.0
1070
    74
1070
     0
1000
MTEXTEND
  0
MTEXT
  5
55DE
330
1A
100
AcDbEntity
  8
SUNPOU
100
AcDbMText
 10
67640.63232747917
 20
56772.96135540945
 30
0.0
 40
3.5
 41
0.0
 71
     9
 72
     5
  1

1001
ACAD
1000
MTEXTBEGIN
1070
    73
1070
     1
1070
    44
1040
1.0
1070
    74
1070
     0
1000
MTEXTEND
1000
MTEXTBEGIN
1070
    73
1070
     1
1070
    44
1040
1.0
1070
    74
1070
     0
1000
MTEXTEND
  0
MTEXT
  5
55DF
330
1A
100
AcDbEntity
  8
SUNPOU
100
AcDbMText
 10
98766.81216009886
 20
99267.9070230668
 30
0.0
 40
10.5
 41
0.0
 71
     9
 72
     5
  1

1001
ACAD
1000
MTEXTBEGIN
1070
    73
1070
     1
1070
    44
1040
1.0
1070
    74
1070
     0
1000
MTEXTEND
1000
MTEXTBEGIN
1070
    73
1070
     1
1070
    44
1040
1.0
1070
    74
1070
     0
1000
MTEXTEND
  0
MTEXT
  5
55E0
330
1A
100
AcDbEntity
  8
SUNPOU
100
AcDbMText
 10
100710.2194068083
 20
97466.85794318876
 30
0.0
 40
3.5
 41
0.0
 71
     9
 72
     5
  1

1001
ACAD
1000
MTEXTBEGIN
1070
    73
1070
     1
1070
    44
1040
1.0
1070
    74
1070
     0
1000
MTEXTEND
1000
MTEXTBEGIN
1070
    73
1070
     1
1070
    44
1040
1.0
1070
    74
1070
     0
1000
MTEXTEND
  0
MTEXT
  5
55E1
330
1A
100
AcDbEntity
  8
SUNPOU
100
AcDbMText
 10
49207.07986589443
 20
45101.07217804184
 30
0.0
 40
10.5
 41
0.0
 71
     9
 72
     5
  1

1001
ACAD
1000
MTEXTBEGIN
1070
    73
1070
     1
1070
    44
1040
1.0
1070
    74
1070
     0
1000
MTEXTEND
1000
MTEXTBEGIN
1070
    73
1070
     1
1070
    44
1040
1.0
1070
    74
1070
     0
1000
MTEXTEND
  0
MTEXT
  5
55E2
330
1A
100
AcDbEntity
  8
SUNPOU
100
AcDbMText
 10
35259.07976551845
 20
25928.67303892964
 30
0.0
 40
3.5
 41
0.0
 71
     7
 72
     5
  1

1001
ACAD
1000
MTEXTBEGIN
1070
    73
1070
     1
1070
    44
1040
1.0
1070
    74
1070
     0
1000
MTEXTEND
1000
MTEXTBEGIN
1070
    73
1070
     1
1070
    44
1040
1.0
1070
    74
1070
     0
1000
MTEXTEND
  0
MTEXT
  5
55E3
330
1A
100
AcDbEntity
  8
SUNPOU
100
AcDbMText
 10
48951.43044828905
 20
35287.73625995099
 30
0.0
 40
10.5
 41
0.0
 71
     9
 72
     5
  1

1001
ACAD
1000
MTEXTBEGIN
1070
    73
1070
     1
1070
    44
1040
1.0
1070
    74
1070
     0
1000
MTEXTEND
1000
MTEXTBEGIN
1070
    73
1070
     1
1070
    44
1040
1.0
1070
    74
1070
     0
1000
MTEXTEND
  0
MTEXT
  5
55E4
330
1A
100
AcDbEntity
  8
SUNPOU
100
AcDbMText
 10
57673.59801420702
 20
42703.57079148847
 30
0.0
 40
10.5
 41
0.0
 71
     9
 72
     5
  1

1001
ACAD
1000
MTEXTBEGIN
1070
    73
1070
     1
1070
    44
1040
1.0
1070
    74
1070
     0
1000
MTEXTEND
1000
MTEXTBEGIN
1070
    73
1070
     1
1070
    44
1040
1.0
1070
    74
1070
     0
1000
MTEXTEND
  0
MTEXT
  5
55E5
330
1A
100
AcDbEntity
  8
SUNPOU
100
AcDbMText
 10
76627.35673153699
 20
60170.14684398051
 30
0.0
 40
10.5
 41
0.0
 71
     9
 72
     5
  1

1001
ACAD
1000
MTEXTBEGIN
1070
    73
1070
     1
1070
    44
1040
1.0
1070
    74
1070
     0
1000
MTEXTEND
1000
MTEXTBEGIN
1070
    73
1070
     1
1070
    44
1040
1.0
1070
    74
1070
     0
1000
MTEXTEND
  0
MTEXT
  5
55E6
330
1A
100
AcDbEntity
  8
SUNPOU
100
AcDbMText
 10
78570.76397824641
 20
58369.09776410251
 30
0.0
 40
3.5
 41
0.0
 71
     9
 72
     5
  1

1001
ACAD
1000
MTEXTBEGIN
1070
    73
1070
     1
1070
    44
1040
1.0
1070
    74
1070
     0
1000
MTEXTEND
1000
MTEXTBEGIN
1070
    73
1070
     1
1070
    44
1040
1.0
1070
    74
1070
     0
1000
MTEXTEND
  0
MTEXT
  5
55E7
330
1A
100
AcDbEntity
  8
SUNPOU
100
AcDbMText
 10
109696.943810866
 20
100864.0434317598
 30
0.0
 40
10.5
 41
0.0
 71
     9
 72
     5
  1

1001
ACAD
1000
MTEXTBEGIN
1070
    73
1070
     1
1070
    44
1040
1.0
1070
    74
1070
     0
1000
MTEXTEND
1000
MTEXTBEGIN
1070
    73
1070
     1
1070
    44
1040
1.0
1070
    74
1070
     0
1000
MTEXTEND
  0
MTEXT
  5
55E8
330
1A
100
AcDbEntity
  8
SUNPOU
100
AcDbMText
 10
111640.3510575755
 20
99062.99435188183
 30
0.0
 40
3.5
 41
0.0
 71
     9
 72
     5
  1

1001
ACAD
1000
MTEXTBEGIN
1070
    73
1070
     1
1070
    44
1040
1.0
1070
    74
1070
     0
1000
MTEXTEND
1000
MTEXTBEGIN
1070
    73
1070
     1
1070
    44
1040
1.0
1070
    74
1070
     0
1000
MTEXTEND
  0
MTEXT
  5
55E9
330
1A
100
AcDbEntity
  8
SUNPOU
100
AcDbMText
 10
60137.21151666167
 20
46697.20858673491
 30
0.0
 40
10.5
 41
0.0
 71
     9
 72
     5
  1

1001
ACAD
1000
MTEXTBEGIN
1070
    73
1070
     1
1070
    44
1040
1.0
1070
    74
1070
     0
1000
MTEXTEND
1000
MTEXTBEGIN
1070
    73
1070
     1
1070
    44
1040
1.0
1070
    74
1070
     0
1000
MTEXTEND
  0
MTEXT
  5
55EA
330
1A
100
AcDbEntity
  8
SUNPOU
100
AcDbMText
 10
46189.21141628568
 20
27524.80944762269
 30
0.0
 40
3.5
 41
0.0
 71
     7
 72
     5
  1

1001
ACAD
1000
MTEXTBEGIN
1070
    73
1070
     1
1070
    44
1040
1.0
1070
    74
1070
     0
1000
MTEXTEND
1000
MTEXTBEGIN
1070
    73
1070
     1
1070
    44
1040
1.0
1070
    74
1070
     0
1000
MTEXTEND
  0
MTEXT
  5
55EB
330
1A
100
AcDbEntity
  8
SUNPOU
100
AcDbMText
 10
45007.68847015541
 20
38269.57947701873
 30
0.0
 40
10.5
 41
0.0
 71
     9
 72
     5
  1

1001
ACAD
1000
MTEXTBEGIN
1070
    73
1070
     1
1070
    44
1040
1.0
1070
    74
1070
     0
1000
MTEXTEND
1000
MTEXTBEGIN
1070
    73
1070
     1
1070
    44
1040
1.0
1070
    74
1070
     0
1000
MTEXTEND
  0
MTEXT
  5
55EC
330
1A
100
AcDbEntity
  8
SUNPOU
100
AcDbMText
 10
63961.44718748539
 20
55736.15552951081
 30
0.0
 40
10.5
 41
0.0
 71
     9
 72
     5
  1

1001
ACAD
1000
MTEXTBEGIN
1070
    73
1070
     1
1070
    44
1040
1.0
1070
    74
1070
     0
1000
MTEXTEND
1000
MTEXTBEGIN
1070
    73
1070
     1
1070
    44
1040
1.0
1070
    74
1070
     0
1000
MTEXTEND
  0
MTEXT
  5
55ED
330
1A
100
AcDbEntity
  8
SUNPOU
100
AcDbMText
 10
65904.85443419479
 20
53935.10644963278
 30
0.0
 40
3.5
 41
0.0
 71
     9
 72
     5
  1

1001
ACAD
1000
MTEXTBEGIN
1070
    73
1070
     1
1070
    44
1040
1.0
1070
    74
1070
     0
1000
MTEXTEND
1000
MTEXTBEGIN
1070
    73
1070
     1
1070
    44
1040
1.0
1070
    74
1070
     0
1000
MTEXTEND
  0
MTEXT
  5
55EE
330
1A
100
AcDbEntity
  8
SUNPOU
100
AcDbMText
 10
97031.03426681453
 20
96430.05211729015
 30
0.0
 40
10.5
 41
0.0
 71
     9
 72
     5
  1

1001
ACAD
1000
MTEXTBEGIN
1070
    73
1070
     1
1070
    44
1040
1.0
1070
    74
1070
     0
1000
MTEXTEND
1000
MTEXTBEGIN
1070
    73
1070
     1
1070
    44
1040
1.0
1070
    74
1070
     0
1000
MTEXTEND
  0
MTEXT
  5
55EF
330
1A
100
AcDbEntity
  8
SUNPOU
100
AcDbMText
 10
98974.44151352393
 20
94629.00303741212
 30
0.0
 40
3.5
 41
0.0
 71
     9
 72
     5
  1

1001
ACAD
1000
MTEXTBEGIN
1070
    73
1070
     1
1070
    44
1040
1.0
1070
    74
1070
     0
1000
MTEXTEND
1000
MTEXTBEGIN
1070
    73
1070
     1
1070
    44
1040
1.0
1070
    74
1070
     0
1000
MTEXTEND
  0
MTEXT
  5
55F0
330
1A
100
AcDbEntity
  8
SUNPOU
100
AcDbMText
 10
47471.30197261006
 20
42263.21727226519
 30
0.0
 40
10.5
 41
0.0
 71
     9
 72
     5
  1

1001
ACAD
1000
MTEXTBEGIN
1070
    73
1070
     1
1070
    44
1040
1.0
1070
    74
1070
     0
1000
MTEXTEND
1000
MTEXTBEGIN
1070
    73
1070
     1
1070
    44
1040
1.0
1070
    74
1070
     0
1000
MTEXTEND
  0
MTEXT
  5
55F1
330
1A
100
AcDbEntity
  8
SUNPOU
100
AcDbMText
 10
33523.30187223408
 20
23090.81813315298
 30
0.0
 40
3.5
 41
0.0
 71
     7
 72
     5
  1

1001
ACAD
1000
MTEXTBEGIN
1070
    73
1070
     1
1070
    44
1040
1.0
1070
    74
1070
     0
1000
MTEXTEND
1000
MTEXTBEGIN
1070
    73
1070
     1
1070
    44
1040
1.0
1070
    74
1070
     0
1000
MTEXTEND
  0
MTEXT
  5
55F2
330
1A
100
AcDbEntity
  8
SUNPOU
100
AcDbMText
 10
57959.46254102503
 20
50038.08111611014
 30
0.0
 40
10.5
 41
0.0
 71
     9
 72
     5
  1

1001
ACAD
1000
MTEXTBEGIN
1070
    73
1070
     1
1070
    44
1040
1.0
1070
    74
1070
     0
1000
MTEXTEND
1000
MTEXTBEGIN
1070
    73
1070
     1
1070
    44
1040
1.0
1070
    74
1070
     0
1000
MTEXTEND
  0
MTEXT
  5
55F3
330
1A
100
AcDbEntity
  8
SUNPOU
100
AcDbMText
 10
76913.22125835503
 20
67504.65716860222
 30
0.0
 40
10.5
 41
0.0
 71
     9
 72
     5
  1

1001
ACAD
1000
MTEXTBEGIN
1070
    73
1070
     1
1070
    44
1040
1.0
1070
    74
1070
     0
1000
MTEXTEND
1000
MTEXTBEGIN
1070
    73
1070
     1
1070
    44
1040
1.0
1070
    74
1070
     0
1000
MTEXTEND
  0
MTEXT
  5
55F4
330
1A
100
AcDbEntity
  8
SUNPOU
100
AcDbMText
 10
78856.62850506443
 20
65703.6080887242
 30
0.0
 40
3.5
 41
0.0
 71
     9
 72
     5
  1

1001
ACAD
1000
MTEXTBEGIN
1070
    73
1070
     1
1070
    44
1040
1.0
1070
    74
1070
     0
1000
MTEXTEND
1000
MTEXTBEGIN
1070
    73
1070
     1
1070
    44
1040
1.0
1070
    74
1070
     0
1000
MTEXTEND
  0
MTEXT
  5
55F5
330
1A
100
AcDbEntity
  8
SUNPOU
100
AcDbMText
 10
109982.8083376841
 20
108198.5537563815
 30
0.0
 40
10.5
 41
0.0
 71
     9
 72
     5
  1

1001
ACAD
1000
MTEXTBEGIN
1070
    73
1070
     1
1070
    44
1040
1.0
1070
    74
1070
     0
1000
MTEXTEND
1000
MTEXTBEGIN
1070
    73
1070
     1
1070
    44
1040
1.0
1070
    74
1070
     0
1000
MTEXTEND
  0
MTEXT
  5
55F6
330
1A
100
AcDbEntity
  8
SUNPOU
100
AcDbMText
 10
111926.2155843934
 20
106397.5046765035
 30
0.0
 40
3.5
 41
0.0
 71
     9
 72
     5
  1

1001
ACAD
1000
MTEXTBEGIN
1070
    73
1070
     1
1070
    44
1040
1.0
1070
    74
1070
     0
1000
MTEXTEND
1000
MTEXTBEGIN
1070
    73
1070
     1
1070
    44
1040
1.0
1070
    74
1070
     0
1000
MTEXTEND
  0
MTEXT
  5
55F7
330
1A
100
AcDbEntity
  8
SUNPOU
100
AcDbMText
 10
60423.07604347968
 20
54031.71891135658
 30
0.0
 40
10.5
 41
0.0
 71
     9
 72
     5
  1

1001
ACAD
1000
MTEXTBEGIN
1070
    73
1070
     1
1070
    44
1040
1.0
1070
    74
1070
     0
1000
MTEXTEND
1000
MTEXTBEGIN
1070
    73
1070
     1
1070
    44
1040
1.0
1070
    74
1070
     0
1000
MTEXTEND
  0
MTEXT
  5
55F8
330
1A
100
AcDbEntity
  8
SUNPOU
100
AcDbMText
 10
46475.07594310369
 20
34859.3197722444
 30
0.0
 40
3.5
 41
0.0
 71
     7
 72
     5
  1

1001
ACAD
1000
MTEXTBEGIN
1070
    73
1070
     1
1070
    44
1040
1.0
1070
    74
1070
     0
1000
MTEXTEND
1000
MTEXTBEGIN
1070
    73
1070
     1
1070
    44
1040
1.0
1070
    74
1070
     0
1000
MTEXTEND
  0
MTEXT
  5
55F9
330
1A
100
AcDbEntity
  8
SUNPOU
100
AcDbMText
 10
74027.35402123588
 20
68370.58278833383
 30
0.0
 40
10.5
 41
0.0
 71
     9
 72
     5
  1

1001
ACAD
1000
MTEXTBEGIN
1070
    73
1070
     1
1070
    44
1040
1.0
1070
    74
1070
     0
1000
MTEXTEND
1000
MTEXTBEGIN
1070
    73
1070
     1
1070
    44
1040
1.0
1070
    74
1070
     0
1000
MTEXTEND
  0
MTEXT
  5
55FA
330
1A
100
AcDbEntity
  8
SUNPOU
100
AcDbMText
 10
75970.7612679453
 20
66569.53370845583
 30
0.0
 40
3.5
 41
0.0
 71
     9
 72
     5
  1

1001
ACAD
1000
MTEXTBEGIN
1070
    73
1070
     1
1070
    44
1040
1.0
1070
    74
1070
     0
1000
MTEXTEND
1000
MTEXTBEGIN
1070
    73
1070
     1
1070
    44
1040
1.0
1070
    74
1070
     0
1000
MTEXTEND
  0
MTEXT
  5
55FB
330
1A
100
AcDbEntity
  8
SUNPOU
100
AcDbMText
 10
107096.941100565
 20
109064.4793761132
 30
0.0
 40
10.5
 41
0.0
 71
     9
 72
     5
  1

1001
ACAD
1000
MTEXTBEGIN
1070
    73
1070
     1
1070
    44
1040
1.0
1070
    74
1070
     0
1000
MTEXTEND
1000
MTEXTBEGIN
1070
    73
1070
     1
1070
    44
1040
1.0
1070
    74
1070
     0
1000
MTEXTEND
  0
MTEXT
  5
55FC
330
1A
100
AcDbEntity
  8
SUNPOU
100
AcDbMText
 10
109040.3483472744
 20
107263.430296235
 30
0.0
 40
3.5
 41
0.0
 71
     9
 72
     5
  1

1001
ACAD
1000
MTEXTBEGIN
1070
    73
1070
     1
1070
    44
1040
1.0
1070
    74
1070
     0
1000
MTEXTEND
1000
MTEXTBEGIN
1070
    73
1070
     1
1070
    44
1040
1.0
1070
    74
1070
     0
1000
MTEXTEND
  0
MTEXT
  5
55FD
330
1A
100
AcDbEntity
  8
SUNPOU
100
AcDbMText
 10
105709.1709283621
 20
108141.3777665285
 30
0.0
 40
10.5
 41
0.0
 71
     9
 72
     5
  1

1001
ACAD
1000
MTEXTBEGIN
1070
    73
1070
     1
1070
    44
1040
1.0
1070
    74
1070
     0
1000
MTEXTEND
1000
MTEXTBEGIN
1070
    73
1070
     1
1070
    44
1040
1.0
1070
    74
1070
     0
1000
MTEXTEND
  0
MTEXT
  5
55FE
330
1A
100
AcDbEntity
  8
SUNPOU
100
AcDbMText
 10
107652.5781750715
 20
106340.3286866505
 30
0.0
 40
3.5
 41
0.0
 71
     9
 72
     5
  1

1001
ACAD
1000
MTEXTBEGIN
1070
    73
1070
     1
1070
    44
1040
1.0
1070
    74
1070
     0
1000
MTEXTEND
1000
MTEXTBEGIN
1070
    73
1070
     1
1070
    44
1040
1.0
1070
    74
1070
     0
1000
MTEXTEND
  0
MTEXT
  5
55FF
330
1A
100
AcDbEntity
  8
SUNPOU
100
AcDbMText
 10
73193.09268743351
 20
66158.78082845057
 30
0.0
 40
10.5
 41
0.0
 71
     9
 72
     5
  1

1001
ACAD
1000
MTEXTBEGIN
1070
    73
1070
     1
1070
    44
1040
1.0
1070
    74
1070
     0
1000
MTEXTEND
1000
MTEXTBEGIN
1070
    73
1070
     1
1070
    44
1040
1.0
1070
    74
1070
     0
1000
MTEXTEND
  0
MTEXT
  5
5600
330
1A
100
AcDbEntity
  8
SUNPOU
100
AcDbMText
 10
75916.39889159807
 20
66563.46252003162
 30
0.0
 40
3.5
 41
0.0
 71
     9
 72
     5
  1

1001
ACAD
1000
MTEXTBEGIN
1070
    73
1070
     1
1070
    44
1040
1.0
1070
    74
1070
     0
1000
MTEXTEND
1000
MTEXTBEGIN
1070
    73
1070
     1
1070
    44
1040
1.0
1070
    74
1070
     0
1000
MTEXTEND
  0
MTEXT
  5
5601
330
1A
100
AcDbEntity
  8
SUNPOU
100
AcDbMText
 10
75124.04436649058
 20
63402.1566819768
 30
0.0
 40
10.5
 41
0.0
 71
     9
 72
     5
  1

1001
ACAD
1000
MTEXTBEGIN
1070
    73
1070
     1
1070
    44
1040
1.0
1070
    74
1070
     0
1000
MTEXTEND
1000
MTEXTBEGIN
1070
    73
1070
     1
1070
    44
1040
1.0
1070
    74
1070
     0
1000
MTEXTEND
  0
MTEXT
  5
5602
330
1A
100
AcDbEntity
  8
SUNPOU
100
AcDbMText
 10
77067.4516132
 20
61601.1076020988
 30
0.0
 40
3.5
 41
0.0
 71
     9
 72
     5
  1

1001
ACAD
1000
MTEXTBEGIN
1070
    73
1070
     1
1070
    44
1040
1.0
1070
    74
1070
     0
1000
MTEXTEND
1000
MTEXTBEGIN
1070
    73
1070
     1
1070
    44
1040
1.0
1070
    74
1070
     0
1000
MTEXTEND
  0
MTEXT
  5
5603
330
1A
100
AcDbEntity
  8
SUNPOU
100
AcDbMText
 10
77012.54710378659
 20
61488.33571981449
 30
0.0
 40
3.5
 41
0.0
 71
     9
 72
     5
  1

1001
ACAD
1000
MTEXTBEGIN
1070
    73
1070
     1
1070
    44
1040
1.0
1070
    74
1070
     0
1000
MTEXTEND
1000
MTEXTBEGIN
1070
    73
1070
     1
1070
    44
1040
1.0
1070
    74
1070
     0
1000
MTEXTEND
  0
MTEXT
  5
5604
330
1A
100
AcDbEntity
  8
SUNPOU
100
AcDbMText
 10
76376.61896736668
 20
60677.01447874798
 30
0.0
 40
3.5
 41
0.0
 71
     9
 72
     5
  1

1001
ACAD
1000
MTEXTBEGIN
1070
    73
1070
     1
1070
    44
1040
1.0
1070
    74
1070
     0
1000
MTEXTEND
1000
MTEXTBEGIN
1070
    73
1070
     1
1070
    44
1040
1.0
1070
    74
1070
     0
1000
MTEXTEND
  0
MTEXT
  5
5605
330
1A
100
AcDbEntity
  8
SUNPOU
100
AcDbMText
 10
76375.37854794595
 20
60676.76650181048
 30
0.0
 40
10.5
 41
0.0
 71
     9
 72
     5
  1

1001
ACAD
1000
MTEXTBEGIN
1070
    73
1070
     1
1070
    44
1040
1.0
1070
    74
1070
     0
1000
MTEXTEND
1000
MTEXTBEGIN
1070
    73
1070
     1
1070
    44
1040
1.0
1070
    74
1070
     0
1000
MTEXTEND
  0
MTEXT
  5
5606
330
1A
100
AcDbEntity
  8
SUNPOU
100
AcDbMText
 10
84709.93991079748
 20
78034.0328293557
 30
0.0
 40
10.5
 41
0.0
 71
     9
 72
     5
  1

1001
ACAD
1000
MTEXTBEGIN
1070
    73
1070
     1
1070
    44
1040
1.0
1070
    74
1070
     0
1000
MTEXTEND
1000
MTEXTBEGIN
1070
    73
1070
     1
1070
    44
1040
1.0
1070
    74
1070
     0
1000
MTEXTEND
  0
MTEXT
  5
5607
330
1A
100
AcDbEntity
  8
SUNPOU
100
AcDbMText
 10
93432.10747671546
 20
85449.86736089315
 30
0.0
 40
10.5
 41
0.0
 71
     9
 72
     5
  1

1001
ACAD
1000
MTEXTBEGIN
1070
    73
1070
     1
1070
    44
1040
1.0
1070
    74
1070
     0
1000
MTEXTEND
1000
MTEXTBEGIN
1070
    73
1070
     1
1070
    44
1040
1.0
1070
    74
1070
     0
1000
MTEXTEND
  0
MTEXT
  5
5608
330
1A
100
AcDbEntity
  8
SUNPOU
100
AcDbMText
 10
112385.8661940454
 20
102916.4434133851
 30
0.0
 40
10.5
 41
0.0
 71
     9
 72
     5
  1

1001
ACAD
1000
MTEXTBEGIN
1070
    73
1070
     1
1070
    44
1040
1.0
1070
    74
1070
     0
1000
MTEXTEND
1000
MTEXTBEGIN
1070
    73
1070
     1
1070
    44
1040
1.0
1070
    74
1070
     0
1000
MTEXTEND
  0
MTEXT
  5
5609
330
1A
100
AcDbEntity
  8
SUNPOU
100
AcDbMText
 10
114329.2734407548
 20
101115.3943335072
 30
0.0
 40
3.5
 41
0.0
 71
     9
 72
     5
  1

1001
ACAD
1000
MTEXTBEGIN
1070
    73
1070
     1
1070
    44
1040
1.0
1070
    74
1070
     0
1000
MTEXTEND
1000
MTEXTBEGIN
1070
    73
1070
     1
1070
    44
1040
1.0
1070
    74
1070
     0
1000
MTEXTEND
  0
MTEXT
  5
560A
330
1A
100
AcDbEntity
  8
SUNPOU
100
AcDbMText
 10
145455.4532733745
 20
143610.3400011645
 30
0.0
 40
10.5
 41
0.0
 71
     9
 72
     5
  1

1001
ACAD
1000
MTEXTBEGIN
1070
    73
1070
     1
1070
    44
1040
1.0
1070
    74
1070
     0
1000
MTEXTEND
1000
MTEXTBEGIN
1070
    73
1070
     1
1070
    44
1040
1.0
1070
    74
1070
     0
1000
MTEXTEND
  0
MTEXT
  5
560B
330
1A
100
AcDbEntity
  8
SUNPOU
100
AcDbMText
 10
147398.8605200839
 20
141809.2909212864
 30
0.0
 40
3.5
 41
0.0
 71
     9
 72
     5
  1

1001
ACAD
1000
MTEXTBEGIN
1070
    73
1070
     1
1070
    44
1040
1.0
1070
    74
1070
     0
1000
MTEXTEND
1000
MTEXTBEGIN
1070
    73
1070
     1
1070
    44
1040
1.0
1070
    74
1070
     0
1000
MTEXTEND
  0
MTEXT
  5
560C
330
1A
100
AcDbEntity
  8
SUNPOU
100
AcDbMText
 10
95895.72097917011
 20
89443.50515613962
 30
0.0
 40
10.5
 41
0.0
 71
     9
 72
     5
  1

1001
ACAD
1000
MTEXTBEGIN
1070
    73
1070
     1
1070
    44
1040
1.0
1070
    74
1070
     0
1000
MTEXTEND
1000
MTEXTBEGIN
1070
    73
1070
     1
1070
    44
1040
1.0
1070
    74
1070
     0
1000
MTEXTEND
  0
MTEXT
  5
560D
330
1A
100
AcDbEntity
  8
SUNPOU
100
AcDbMText
 10
81947.72087879414
 20
70271.1060170274
 30
0.0
 40
3.5
 41
0.0
 71
     7
 72
     5
  1

1001
ACAD
1000
MTEXTBEGIN
1070
    73
1070
     1
1070
    44
1040
1.0
1070
    74
1070
     0
1000
MTEXTEND
1000
MTEXTBEGIN
1070
    73
1070
     1
1070
    44
1040
1.0
1070
    74
1070
     0
1000
MTEXTEND
  0
MTEXT
  5
560E
330
1A
100
AcDbEntity
  8
SUNPOU
100
AcDbMText
 10
62932.89027578729
 20
58033.25474784561
 30
0.0
 40
10.5
 41
0.0
 71
     7
 72
     5
  1

1001
ACAD
1000
MTEXTBEGIN
1070
    73
1070
     1
1070
    44
1040
1.0
1070
    74
1070
     0
1000
MTEXTEND
1000
MTEXTBEGIN
1070
    73
1070
     1
1070
    44
1040
1.0
1070
    74
1070
     0
1000
MTEXTEND
  0
MTEXT
  5
560F
330
1A
100
AcDbEntity
  8
SUNPOU
100
AcDbMText
 10
50475.66201083918
 20
42188.32316974718
 30
0.0
 40
35.0
 41
0.0
 71
     9
 72
     5
  1

1001
ACAD
1000
MTEXTBEGIN
1070
    73
1070
     1
1070
    44
1040
1.0
1070
    74
1070
     0
1000
MTEXTEND
1000
MTEXTBEGIN
1070
    73
1070
     1
1070
    44
1040
1.0
1070
    74
1070
     0
1000
MTEXTEND
  0
MTEXT
  5
5610
330
1A
100
AcDbEntity
  8
SUNPOU
100
AcDbMText
 10
49384.14706841413
 20
42797.0985797959
 30
0.0
 40
350.0000004171781
 41
0.0
 71
     7
 72
     5
  1

1001
ACAD
1000
MTEXTBEGIN
1070
    73
1070
     1
1070
    44
1040
1.0
1070
    74
1070
     0
1000
MTEXTEND
1000
MTEXTBEGIN
1070
    73
1070
     1
1070
    44
1040
1.0
1070
    74
1070
     0
1000
MTEXTEND
  0
MTEXT
  5
5611
330
1A
100
AcDbEntity
  8
0
100
AcDbMText
 10
55428.09782635704
 20
40777.0209419321
 30
0.0
 40
8.0
 41
0.0
 71
     7
 72
     5
  1

1001
ACAD
1000
MTEXTBEGIN
1070
    73
1070
     1
1070
    44
1040
1.0
1070
    74
1070
     0
1000
MTEXTEND
1000
MTEXTBEGIN
1070
    73
1070
     1
1070
    44
1040
1.0
1070
    74
1070
     0
1000
MTEXTEND
  0
MTEXT
  5
5612
330
1A
100
AcDbEntity
  8
0
100
AcDbMText
 10
57713.45551625193
 20
41747.81123668316
 30
0.0
 40
8.0
 41
0.0
 71
     7
 72
     5
  1

1001
ACAD
1000
MTEXTBEGIN
1070
    73
1070
     1
1070
    44
1040
1.0
1070
    74
1070
     0
1000
MTEXTEND
1000
MTEXTBEGIN
1070
    73
1070
     1
1070
    44
1040
1.0
1070
    74
1070
     0
1000
MTEXTEND
  0
MTEXT
  5
5613
330
1A
100
AcDbEntity
  8
SUNPOU
100
AcDbMText
 10
60379.35253693407
 20
51259.9226290583
 30
0.0
 40
10.5
 41
0.0
 71
     1
 72
     5
  1

1001
ACAD
1000
MTEXTBEGIN
1070
    73
1070
     1
1070
    44
1040
1.0
1070
    74
1070
     0
1000
MTEXTEND
1000
MTEXTBEGIN
1070
    73
1070
     1
1070
    44
1040
1.0
1070
    74
1070
     0
1000
MTEXTEND
  0
MTEXT
  5
5614
330
1A
100
AcDbEntity
  8
SUNPOU
100
AcDbMText
 10
52448.42934099813
 20
50313.12949514535
 30
0.0
 40
10.5
 41
0.0
 71
     7
 72
     5
  1

1001
ACAD
1000
MTEXTBEGIN
1070
    73
1070
     1
1070
    44
1040
1.0
1070
    74
1070
     0
1000
MTEXTEND
1000
MTEXTBEGIN
1070
    73
1070
     1
1070
    44
1040
1.0
1070
    74
1070
     0
1000
MTEXTEND
  0
MTEXT
  5
5615
330
1A
100
AcDbEntity
  8
SUNPOU
100
AcDbMText
 10
55397.4130055109
 20
55213.80556698819
 30
0.0
 40
10.5
 41
0.0
 71
     7
 72
     5
  1

1001
ACAD
1000
MTEXTBEGIN
1070
    73
1070
     1
1070
    44
1040
1.0
1070
    74
1070
     0
1000
MTEXTEND
1000
MTEXTBEGIN
1070
    73
1070
     1
1070
    44
1040
1.0
1070
    74
1070
     0
1000
MTEXTEND
  0
MTEXT
  5
5616
330
1A
100
AcDbEntity
  8
SUNPOU
100
AcDbMText
 10
59906.49113346147
 20
57650.10631460826
 30
0.0
 40
10.5
 41
0.0
 71
     7
 72
     5
  1

1001
ACAD
1000
MTEXTBEGIN
1070
    73
1070
     1
1070
    44
1040
1.0
1070
    74
1070
     0
1000
MTEXTEND
1000
MTEXTBEGIN
1070
    73
1070
     1
1070
    44
1040
1.0
1070
    74
1070
     0
1000
MTEXTEND
  0
MTEXT
  5
5617
330
1A
100
AcDbEntity
  8
SUNPOU
100
AcDbMText
 10
43507.32902022978
 20
36647.70246499718
 30
0.0
 40
10.5
 41
0.0
 71
     7
 72
     5
  1

1001
ACAD
1000
MTEXTBEGIN
1070
    73
1070
     1
1070
    44
1040
1.0
1070
    74
1070
     0
1000
MTEXTEND
1000
MTEXTBEGIN
1070
    73
1070
     1
1070
    44
1040
1.0
1070
    74
1070
     0
1000
MTEXTEND
  0
MTEXT
  5
5618
330
1A
100
AcDbEntity
  8
SUNPOU
100
AcDbMText
 10
94698.84745413006
 20
82320.68302864544
 30
0.0
 40
10.5
 41
0.0
 71
     9
 72
     5
  1

1001
ACAD
1000
MTEXTBEGIN
1070
    73
1070
     1
1070
    44
1040
1.0
1070
    74
1070
     0
1000
MTEXTEND
1000
MTEXTBEGIN
1070
    73
1070
     1
1070
    44
1040
1.0
1070
    74
1070
     0
1000
MTEXTEND
  0
MTEXT
  5
5619
330
1A
100
AcDbEntity
  8
SUNPOU
100
AcDbMText
 10
103421.015020048
 20
89736.5175601829
 30
0.0
 40
10.5
 41
0.0
 71
     9
 72
     5
  1

1001
ACAD
1000
MTEXTBEGIN
1070
    73
1070
     1
1070
    44
1040
1.0
1070
    74
1070
     0
1000
MTEXTEND
1000
MTEXTBEGIN
1070
    73
1070
     1
1070
    44
1040
1.0
1070
    74
1070
     0
1000
MTEXTEND
  0
MTEXT
  5
561A
330
1A
100
AcDbEntity
  8
SUNPOU
100
AcDbMText
 10
122374.773737378
 20
107203.0936126749
 30
0.0
 40
10.5
 41
0.0
 71
     9
 72
     5
  1

1001
ACAD
1000
MTEXTBEGIN
1070
    73
1070
     1
1070
    44
1040
1.0
1070
    74
1070
     0
1000
MTEXTEND
1000
MTEXTBEGIN
1070
    73
1070
     1
1070
    44
1040
1.0
1070
    74
1070
     0
1000
MTEXTEND
  0
MTEXT
  5
561B
330
1A
100
AcDbEntity
  8
SUNPOU
100
AcDbMText
 10
124318.1809840874
 20
105402.0445327969
 30
0.0
 40
3.5
 41
0.0
 71
     9
 72
     5
  1

1001
ACAD
1000
MTEXTBEGIN
1070
    73
1070
     1
1070
    44
1040
1.0
1070
    74
1070
     0
1000
MTEXTEND
1000
MTEXTBEGIN
1070
    73
1070
     1
1070
    44
1040
1.0
1070
    74
1070
     0
1000
MTEXTEND
  0
MTEXT
  5
561C
330
1A
100
AcDbEntity
  8
SUNPOU
100
AcDbMText
 10
155444.3608167071
 20
147896.9902004542
 30
0.0
 40
10.5
 41
0.0
 71
     9
 72
     5
  1

1001
ACAD
1000
MTEXTBEGIN
1070
    73
1070
     1
1070
    44
1040
1.0
1070
    74
1070
     0
1000
MTEXTEND
1000
MTEXTBEGIN
1070
    73
1070
     1
1070
    44
1040
1.0
1070
    74
1070
     0
1000
MTEXTEND
  0
MTEXT
  5
561D
330
1A
100
AcDbEntity
  8
SUNPOU
100
AcDbMText
 10
157387.7680634165
 20
146095.9411205762
 30
0.0
 40
3.5
 41
0.0
 71
     9
 72
     5
  1

1001
ACAD
1000
MTEXTBEGIN
1070
    73
1070
     1
1070
    44
1040
1.0
1070
    74
1070
     0
1000
MTEXTEND
1000
MTEXTBEGIN
1070
    73
1070
     1
1070
    44
1040
1.0
1070
    74
1070
     0
1000
MTEXTEND
  0
MTEXT
  5
561E
330
1A
100
AcDbEntity
  8
SUNPOU
100
AcDbMText
 10
105884.6285225027
 20
93730.15535542933
 30
0.0
 40
10.5
 41
0.0
 71
     9
 72
     5
  1

1001
ACAD
1000
MTEXTBEGIN
1070
    73
1070
     1
1070
    44
1040
1.0
1070
    74
1070
     0
1000
MTEXTEND
1000
MTEXTBEGIN
1070
    73
1070
     1
1070
    44
1040
1.0
1070
    74
1070
     0
1000
MTEXTEND
  0
MTEXT
  5
561F
330
1A
100
AcDbEntity
  8
SUNPOU
100
AcDbMText
 10
91936.6284221267
 20
74557.75621631714
 30
0.0
 40
3.5
 41
0.0
 71
     7
 72
     5
  1

1001
ACAD
1000
MTEXTBEGIN
1070
    73
1070
     1
1070
    44
1040
1.0
1070
    74
1070
     0
1000
MTEXTEND
1000
MTEXTBEGIN
1070
    73
1070
     1
1070
    44
1040
1.0
1070
    74
1070
     0
1000
MTEXTEND
  0
MTEXT
  5
5620
330
1A
100
AcDbEntity
  8
SUNPOU
100
AcDbMText
 10
72921.79781911986
 20
62319.90494713532
 30
0.0
 40
10.5
 41
0.0
 71
     7
 72
     5
  1

1001
ACAD
1000
MTEXTBEGIN
1070
    73
1070
     1
1070
    44
1040
1.0
1070
    74
1070
     0
1000
MTEXTEND
1000
MTEXTBEGIN
1070
    73
1070
     1
1070
    44
1040
1.0
1070
    74
1070
     0
1000
MTEXTEND
  0
MTEXT
  5
5621
330
1A
100
AcDbEntity
  8
SUNPOU
100
AcDbMText
 10
60464.56955417175
 20
46474.97336903692
 30
0.0
 40
35.0
 41
0.0
 71
     9
 72
     5
  1

1001
ACAD
1000
MTEXTBEGIN
1070
    73
1070
     1
1070
    44
1040
1.0
1070
    74
1070
     0
1000
MTEXTEND
1000
MTEXTBEGIN
1070
    73
1070
     1
1070
    44
1040
1.0
1070
    74
1070
     0
1000
MTEXTEND
  0
MTEXT
  5
5622
330
1A
100
AcDbEntity
  8
SUNPOU
100
AcDbMText
 10
59373.05461174673
 20
47083.74877908561
 30
0.0
 40
350.0000004171781
 41
0.0
 71
     7
 72
     5
  1

1001
ACAD
1000
MTEXTBEGIN
1070
    73
1070
     1
1070
    44
1040
1.0
1070
    74
1070
     0
1000
MTEXTEND
1000
MTEXTBEGIN
1070
    73
1070
     1
1070
    44
1040
1.0
1070
    74
1070
     0
1000
MTEXTEND
  0
MTEXT
  5
5623
330
1A
100
AcDbEntity
  8
0
100
AcDbMText
 10
65417.00536968963
 20
45063.67114122186
 30
0.0
 40
8.0
 41
0.0
 71
     7
 72
     5
  1

1001
ACAD
1000
MTEXTBEGIN
1070
    73
1070
     1
1070
    44
1040
1.0
1070
    74
1070
     0
1000
MTEXTEND
1000
MTEXTBEGIN
1070
    73
1070
     1
1070
    44
1040
1.0
1070
    74
1070
     0
1000
MTEXTEND
  0
MTEXT
  5
5624
330
1A
100
AcDbEntity
  8
0
100
AcDbMText
 10
67702.36305958452
 20
46034.46143597292
 30
0.0
 40
8.0
 41
0.0
 71
     7
 72
     5
  1

1001
ACAD
1000
MTEXTBEGIN
1070
    73
1070
     1
1070
    44
1040
1.0
1070
    74
1070
     0
1000
MTEXTEND
1000
MTEXTBEGIN
1070
    73
1070
     1
1070
    44
1040
1.0
1070
    74
1070
     0
1000
MTEXTEND
  0
MTEXT
  5
5625
330
1A
100
AcDbEntity
  8
SUNPOU
100
AcDbMText
 10
70368.26008026666
 20
55546.57282834803
 30
0.0
 40
10.5
 41
0.0
 71
     1
 72
     5
  1

1001
ACAD
1000
MTEXTBEGIN
1070
    73
1070
     1
1070
    44
1040
1.0
1070
    74
1070
     0
1000
MTEXTEND
1000
MTEXTBEGIN
1070
    73
1070
     1
1070
    44
1040
1.0
1070
    74
1070
     0
1000
MTEXTEND
  0
MTEXT
  5
5626
330
1A
100
AcDbEntity
  8
SUNPOU
100
AcDbMText
 10
62437.33688433072
 20
54599.77969443507
 30
0.0
 40
10.5
 41
0.0
 71
     7
 72
     5
  1

1001
ACAD
1000
MTEXTBEGIN
1070
    73
1070
     1
1070
    44
1040
1.0
1070
    74
1070
     0
1000
MTEXTEND
1000
MTEXTBEGIN
1070
    73
1070
     1
1070
    44
1040
1.0
1070
    74
1070
     0
1000
MTEXTEND
  0
MTEXT
  5
5627
330
1A
100
AcDbEntity
  8
SUNPOU
100
AcDbMText
 10
65386.32054884348
 20
59500.45576627792
 30
0.0
 40
10.5
 41
0.0
 71
     7
 72
     5
  1

1001
ACAD
1000
MTEXTBEGIN
1070
    73
1070
     1
1070
    44
1040
1.0
1070
    74
1070
     0
1000
MTEXTEND
1000
MTEXTBEGIN
1070
    73
1070
     1
1070
    44
1040
1.0
1070
    74
1070
     0
1000
MTEXTEND
  0
MTEXT
  5
5628
330
1A
100
AcDbEntity
  8
SUNPOU
100
AcDbMText
 10
69895.39867679405
 20
61936.756513898
 30
0.0
 40
10.5
 41
0.0
 71
     7
 72
     5
  1

1001
ACAD
1000
MTEXTBEGIN
1070
    73
1070
     1
1070
    44
1040
1.0
1070
    74
1070
     0
1000
MTEXTEND
1000
MTEXTBEGIN
1070
    73
1070
     1
1070
    44
1040
1.0
1070
    74
1070
     0
1000
MTEXTEND
  0
MTEXT
  5
5629
330
1A
100
AcDbEntity
  8
SUNPOU
100
AcDbMText
 10
53496.23656356237
 20
40934.35266428691
 30
0.0
 40
10.5
 41
0.0
 71
     7
 72
     5
  1

1001
ACAD
1000
MTEXTBEGIN
1070
    73
1070
     1
1070
    44
1040
1.0
1070
    74
1070
     0
1000
MTEXTEND
1000
MTEXTBEGIN
1070
    73
1070
     1
1070
    44
1040
1.0
1070
    74
1070
     0
1000
MTEXTEND
  0
MTEXT
  5
562A
330
1A
100
AcDbEntity
  8
SUNPOU
100
AcDbMText
 10
55306.99947493731
 20
47261.76665176546
 30
0.0
 40
10.5
 41
0.0
 71
     9
 72
     5
  1

1001
ACAD
1000
MTEXTBEGIN
1070
    73
1070
     1
1070
    44
1040
1.0
1070
    74
1070
     0
1000
MTEXTEND
1000
MTEXTBEGIN
1070
    73
1070
     1
1070
    44
1040
1.0
1070
    74
1070
     0
1000
MTEXTEND
  0
MTEXT
  5
562B
330
1A
100
AcDbEntity
  8
SUNPOU
100
AcDbMText
 10
64029.16704085527
 20
54677.60118330295
 30
0.0
 40
10.5
 41
0.0
 71
     9
 72
     5
  1

1001
ACAD
1000
MTEXTBEGIN
1070
    73
1070
     1
1070
    44
1040
1.0
1070
    74
1070
     0
1000
MTEXTEND
1000
MTEXTBEGIN
1070
    73
1070
     1
1070
    44
1040
1.0
1070
    74
1070
     0
1000
MTEXTEND
  0
MTEXT
  5
562C
330
1A
100
AcDbEntity
  8
SUNPOU
100
AcDbMText
 10
82982.92575818527
 20
72144.17723579499
 30
0.0
 40
10.5
 41
0.0
 71
     9
 72
     5
  1

1001
ACAD
1000
MTEXTBEGIN
1070
    73
1070
     1
1070
    44
1040
1.0
1070
    74
1070
     0
1000
MTEXTEND
1000
MTEXTBEGIN
1070
    73
1070
     1
1070
    44
1040
1.0
1070
    74
1070
     0
1000
MTEXTEND
  0
MTEXT
  5
562D
330
1A
100
AcDbEntity
  8
SUNPOU
100
AcDbMText
 10
84926.33300489467
 20
70343.12815591697
 30
0.0
 40
3.5
 41
0.0
 71
     9
 72
     5
  1

1001
ACAD
1000
MTEXTBEGIN
1070
    73
1070
     1
1070
    44
1040
1.0
1070
    74
1070
     0
1000
MTEXTEND
1000
MTEXTBEGIN
1070
    73
1070
     1
1070
    44
1040
1.0
1070
    74
1070
     0
1000
MTEXTEND
  0
MTEXT
  5
562E
330
1A
100
AcDbEntity
  8
SUNPOU
100
AcDbMText
 10
116052.5128375142
 20
112838.0738235742
 30
0.0
 40
10.5
 41
0.0
 71
     9
 72
     5
  1

1001
ACAD
1000
MTEXTBEGIN
1070
    73
1070
     1
1070
    44
1040
1.0
1070
    74
1070
     0
1000
MTEXTEND
1000
MTEXTBEGIN
1070
    73
1070
     1
1070
    44
1040
1.0
1070
    74
1070
     0
1000
MTEXTEND
  0
MTEXT
  5
562F
330
1A
100
AcDbEntity
  8
SUNPOU
100
AcDbMText
 10
117995.9200842238
 20
111037.0247436963
 30
0.0
 40
3.5
 41
0.0
 71
     9
 72
     5
  1

1001
ACAD
1000
MTEXTBEGIN
1070
    73
1070
     1
1070
    44
1040
1.0
1070
    74
1070
     0
1000
MTEXTEND
1000
MTEXTBEGIN
1070
    73
1070
     1
1070
    44
1040
1.0
1070
    74
1070
     0
1000
MTEXTEND
  0
MTEXT
  5
5630
330
1A
100
AcDbEntity
  8
SUNPOU
100
AcDbMText
 10
66492.78054330994
 20
58671.23897854939
 30
0.0
 40
10.5
 41
0.0
 71
     9
 72
     5
  1

1001
ACAD
1000
MTEXTBEGIN
1070
    73
1070
     1
1070
    44
1040
1.0
1070
    74
1070
     0
1000
MTEXTEND
1000
MTEXTBEGIN
1070
    73
1070
     1
1070
    44
1040
1.0
1070
    74
1070
     0
1000
MTEXTEND
  0
MTEXT
  5
5631
330
1A
100
AcDbEntity
  8
SUNPOU
100
AcDbMText
 10
52544.78044293397
 20
39498.83983943717
 30
0.0
 40
3.5
 41
0.0
 71
     7
 72
     5
  1

1001
ACAD
1000
MTEXTBEGIN
1070
    73
1070
     1
1070
    44
1040
1.0
1070
    74
1070
     0
1000
MTEXTEND
1000
MTEXTBEGIN
1070
    73
1070
     1
1070
    44
1040
1.0
1070
    74
1070
     0
1000
MTEXTEND
  0
MTEXT
  5
5632
330
1A
100
AcDbEntity
  8
SUNPOU
100
AcDbMText
 10
66237.13112570454
 20
48857.90306045851
 30
0.0
 40
10.5
 41
0.0
 71
     9
 72
     5
  1

1001
ACAD
1000
MTEXTBEGIN
1070
    73
1070
     1
1070
    44
1040
1.0
1070
    74
1070
     0
1000
MTEXTEND
1000
MTEXTBEGIN
1070
    73
1070
     1
1070
    44
1040
1.0
1070
    74
1070
     0
1000
MTEXTEND
  0
MTEXT
  5
5633
330
1A
100
AcDbEntity
  8
SUNPOU
100
AcDbMText
 10
74959.29869162253
 20
56273.73759199599
 30
0.0
 40
10.5
 41
0.0
 71
     9
 72
     5
  1

1001
ACAD
1000
MTEXTBEGIN
1070
    73
1070
     1
1070
    44
1040
1.0
1070
    74
1070
     0
1000
MTEXTEND
1000
MTEXTBEGIN
1070
    73
1070
     1
1070
    44
1040
1.0
1070
    74
1070
     0
1000
MTEXTEND
  0
MTEXT
  5
5634
330
1A
100
AcDbEntity
  8
SUNPOU
100
AcDbMText
 10
93913.0574089525
 20
73740.31364448805
 30
0.0
 40
10.5
 41
0.0
 71
     9
 72
     5
  1

1001
ACAD
1000
MTEXTBEGIN
1070
    73
1070
     1
1070
    44
1040
1.0
1070
    74
1070
     0
1000
MTEXTEND
1000
MTEXTBEGIN
1070
    73
1070
     1
1070
    44
1040
1.0
1070
    74
1070
     0
1000
MTEXTEND
  0
MTEXT
  5
5635
330
1A
100
AcDbEntity
  8
SUNPOU
100
AcDbMText
 10
95856.46465566192
 20
71939.26456461004
 30
0.0
 40
3.5
 41
0.0
 71
     9
 72
     5
  1

1001
ACAD
1000
MTEXTBEGIN
1070
    73
1070
     1
1070
    44
1040
1.0
1070
    74
1070
     0
1000
MTEXTEND
1000
MTEXTBEGIN
1070
    73
1070
     1
1070
    44
1040
1.0
1070
    74
1070
     0
1000
MTEXTEND
  0
MTEXT
  5
5636
330
1A
100
AcDbEntity
  8
SUNPOU
100
AcDbMText
 10
126982.6444882816
 20
114434.2102322673
 30
0.0
 40
10.5
 41
0.0
 71
     9
 72
     5
  1

1001
ACAD
1000
MTEXTBEGIN
1070
    73
1070
     1
1070
    44
1040
1.0
1070
    74
1070
     0
1000
MTEXTEND
1000
MTEXTBEGIN
1070
    73
1070
     1
1070
    44
1040
1.0
1070
    74
1070
     0
1000
MTEXTEND
  0
MTEXT
  5
5637
330
1A
100
AcDbEntity
  8
SUNPOU
100
AcDbMText
 10
128926.051734991
 20
112633.1611523893
 30
0.0
 40
3.5
 41
0.0
 71
     9
 72
     5
  1

1001
ACAD
1000
MTEXTBEGIN
1070
    73
1070
     1
1070
    44
1040
1.0
1070
    74
1070
     0
1000
MTEXTEND
1000
MTEXTBEGIN
1070
    73
1070
     1
1070
    44
1040
1.0
1070
    74
1070
     0
1000
MTEXTEND
  0
MTEXT
  5
5638
330
1A
100
AcDbEntity
  8
SUNPOU
100
AcDbMText
 10
77422.91219407717
 20
60267.37538724244
 30
0.0
 40
10.5
 41
0.0
 71
     9
 72
     5
  1

1001
ACAD
1000
MTEXTBEGIN
1070
    73
1070
     1
1070
    44
1040
1.0
1070
    74
1070
     0
1000
MTEXTEND
1000
MTEXTBEGIN
1070
    73
1070
     1
1070
    44
1040
1.0
1070
    74
1070
     0
1000
MTEXTEND
  0
MTEXT
  5
5639
330
1A
100
AcDbEntity
  8
SUNPOU
100
AcDbMText
 10
63474.91209370119
 20
41094.97624813023
 30
0.0
 40
3.5
 41
0.0
 71
     7
 72
     5
  1

1001
ACAD
1000
MTEXTBEGIN
1070
    73
1070
     1
1070
    44
1040
1.0
1070
    74
1070
     0
1000
MTEXTEND
1000
MTEXTBEGIN
1070
    73
1070
     1
1070
    44
1040
1.0
1070
    74
1070
     0
1000
MTEXTEND
  0
MTEXT
  5
563A
330
1A
100
AcDbEntity
  8
SUNPOU
100
AcDbMText
 10
48117.65086229006
 20
40806.11043916631
 30
0.0
 40
10.5
 41
0.0
 71
     9
 72
     5
  1

1001
ACAD
1000
MTEXTBEGIN
1070
    73
1070
     1
1070
    44
1040
1.0
1070
    74
1070
     0
1000
MTEXTEND
1000
MTEXTBEGIN
1070
    73
1070
     1
1070
    44
1040
1.0
1070
    74
1070
     0
1000
MTEXTEND
  0
MTEXT
  5
563B
330
1A
100
AcDbEntity
  8
SUNPOU
100
AcDbMText
 10
67071.40957962004
 20
58272.68649165838
 30
0.0
 40
10.5
 41
0.0
 71
     9
 72
     5
  1

1001
ACAD
1000
MTEXTBEGIN
1070
    73
1070
     1
1070
    44
1040
1.0
1070
    74
1070
     0
1000
MTEXTEND
1000
MTEXTBEGIN
1070
    73
1070
     1
1070
    44
1040
1.0
1070
    74
1070
     0
1000
MTEXTEND
  0
MTEXT
  5
563C
330
1A
100
AcDbEntity
  8
SUNPOU
100
AcDbMText
 10
69014.81682632945
 20
56471.63741178035
 30
0.0
 40
3.5
 41
0.0
 71
     9
 72
     5
  1

1001
ACAD
1000
MTEXTBEGIN
1070
    73
1070
     1
1070
    44
1040
1.0
1070
    74
1070
     0
1000
MTEXTEND
1000
MTEXTBEGIN
1070
    73
1070
     1
1070
    44
1040
1.0
1070
    74
1070
     0
1000
MTEXTEND
  0
MTEXT
  5
563D
330
1A
100
AcDbEntity
  8
SUNPOU
100
AcDbMText
 10
100140.9966589491
 20
98966.58307943773
 30
0.0
 40
10.5
 41
0.0
 71
     9
 72
     5
  1

1001
ACAD
1000
MTEXTBEGIN
1070
    73
1070
     1
1070
    44
1040
1.0
1070
    74
1070
     0
1000
MTEXTEND
1000
MTEXTBEGIN
1070
    73
1070
     1
1070
    44
1040
1.0
1070
    74
1070
     0
1000
MTEXTEND
  0
MTEXT
  5
563E
330
1A
100
AcDbEntity
  8
SUNPOU
100
AcDbMText
 10
102084.4039056586
 20
97165.53399955968
 30
0.0
 40
3.5
 41
0.0
 71
     9
 72
     5
  1

1001
ACAD
1000
MTEXTBEGIN
1070
    73
1070
     1
1070
    44
1040
1.0
1070
    74
1070
     0
1000
MTEXTEND
1000
MTEXTBEGIN
1070
    73
1070
     1
1070
    44
1040
1.0
1070
    74
1070
     0
1000
MTEXTEND
  0
MTEXT
  5
563F
330
1A
100
AcDbEntity
  8
SUNPOU
100
AcDbMText
 10
50581.26436474472
 20
44799.74823441275
 30
0.0
 40
10.5
 41
0.0
 71
     9
 72
     5
  1

1001
ACAD
1000
MTEXTBEGIN
1070
    73
1070
     1
1070
    44
1040
1.0
1070
    74
1070
     0
1000
MTEXTEND
1000
MTEXTBEGIN
1070
    73
1070
     1
1070
    44
1040
1.0
1070
    74
1070
     0
1000
MTEXTEND
  0
MTEXT
  5
5640
330
1A
100
AcDbEntity
  8
SUNPOU
100
AcDbMText
 10
36633.26426436873
 20
25627.34909530054
 30
0.0
 40
3.5
 41
0.0
 71
     7
 72
     5
  1

1001
ACAD
1000
MTEXTBEGIN
1070
    73
1070
     1
1070
    44
1040
1.0
1070
    74
1070
     0
1000
MTEXTEND
1000
MTEXTBEGIN
1070
    73
1070
     1
1070
    44
1040
1.0
1070
    74
1070
     0
1000
MTEXTEND
  0
MTEXT
  5
5641
330
1A
100
AcDbEntity
  8
SUNPOU
100
AcDbMText
 10
61069.42493315968
 20
52574.61207825771
 30
0.0
 40
10.5
 41
0.0
 71
     9
 72
     5
  1

1001
ACAD
1000
MTEXTBEGIN
1070
    73
1070
     1
1070
    44
1040
1.0
1070
    74
1070
     0
1000
MTEXTEND
1000
MTEXTBEGIN
1070
    73
1070
     1
1070
    44
1040
1.0
1070
    74
1070
     0
1000
MTEXTEND
  0
MTEXT
  5
5642
330
1A
100
AcDbEntity
  8
SUNPOU
100
AcDbMText
 10
80023.18365048967
 20
70041.18813074978
 30
0.0
 40
10.5
 41
0.0
 71
     9
 72
     5
  1

1001
ACAD
1000
MTEXTBEGIN
1070
    73
1070
     1
1070
    44
1040
1.0
1070
    74
1070
     0
1000
MTEXTEND
1000
MTEXTBEGIN
1070
    73
1070
     1
1070
    44
1040
1.0
1070
    74
1070
     0
1000
MTEXTEND
  0
MTEXT
  5
5643
330
1A
100
AcDbEntity
  8
SUNPOU
100
AcDbMText
 10
81966.59089719908
 20
68240.13905087176
 30
0.0
 40
3.5
 41
0.0
 71
     9
 72
     5
  1

1001
ACAD
1000
MTEXTBEGIN
1070
    73
1070
     1
1070
    44
1040
1.0
1070
    74
1070
     0
1000
MTEXTEND
1000
MTEXTBEGIN
1070
    73
1070
     1
1070
    44
1040
1.0
1070
    74
1070
     0
1000
MTEXTEND
  0
MTEXT
  5
5644
330
1A
100
AcDbEntity
  8
SUNPOU
100
AcDbMText
 10
113092.7707298186
 20
110735.0847185291
 30
0.0
 40
10.5
 41
0.0
 71
     9
 72
     5
  1

1001
ACAD
1000
MTEXTBEGIN
1070
    73
1070
     1
1070
    44
1040
1.0
1070
    74
1070
     0
1000
MTEXTEND
1000
MTEXTBEGIN
1070
    73
1070
     1
1070
    44
1040
1.0
1070
    74
1070
     0
1000
MTEXTEND
  0
MTEXT
  5
5645
330
1A
100
AcDbEntity
  8
SUNPOU
100
AcDbMText
 10
115036.1779765282
 20
108934.0356386511
 30
0.0
 40
3.5
 41
0.0
 71
     9
 72
     5
  1

1001
ACAD
1000
MTEXTBEGIN
1070
    73
1070
     1
1070
    44
1040
1.0
1070
    74
1070
     0
1000
MTEXTEND
1000
MTEXTBEGIN
1070
    73
1070
     1
1070
    44
1040
1.0
1070
    74
1070
     0
1000
MTEXTEND
  0
MTEXT
  5
5646
330
1A
100
AcDbEntity
  8
SUNPOU
100
AcDbMText
 10
63533.03843561432
 20
56568.24987350415
 30
0.0
 40
10.5
 41
0.0
 71
     9
 72
     5
  1

1001
ACAD
1000
MTEXTBEGIN
1070
    73
1070
     1
1070
    44
1040
1.0
1070
    74
1070
     0
1000
MTEXTEND
1000
MTEXTBEGIN
1070
    73
1070
     1
1070
    44
1040
1.0
1070
    74
1070
     0
1000
MTEXTEND
  0
MTEXT
  5
5647
330
1A
100
AcDbEntity
  8
SUNPOU
100
AcDbMText
 10
49585.03833523835
 20
37395.85073439196
 30
0.0
 40
3.5
 41
0.0
 71
     7
 72
     5
  1

1001
ACAD
1000
MTEXTBEGIN
1070
    73
1070
     1
1070
    44
1040
1.0
1070
    74
1070
     0
1000
MTEXTEND
1000
MTEXTBEGIN
1070
    73
1070
     1
1070
    44
1040
1.0
1070
    74
1070
     0
1000
MTEXTEND
  0
MTEXT
  5
5648
330
1A
100
AcDbEntity
  8
SUNPOU
100
AcDbMText
 10
77137.31641337052
 20
70907.11375048141
 30
0.0
 40
10.5
 41
0.0
 71
     9
 72
     5
  1

1001
ACAD
1000
MTEXTBEGIN
1070
    73
1070
     1
1070
    44
1040
1.0
1070
    74
1070
     0
1000
MTEXTEND
1000
MTEXTBEGIN
1070
    73
1070
     1
1070
    44
1040
1.0
1070
    74
1070
     0
1000
MTEXTEND
  0
MTEXT
  5
5649
330
1A
100
AcDbEntity
  8
SUNPOU
100
AcDbMText
 10
79080.72366007995
 20
69106.06467060339
 30
0.0
 40
3.5
 41
0.0
 71
     9
 72
     5
  1

1001
ACAD
1000
MTEXTBEGIN
1070
    73
1070
     1
1070
    44
1040
1.0
1070
    74
1070
     0
1000
MTEXTEND
1000
MTEXTBEGIN
1070
    73
1070
     1
1070
    44
1040
1.0
1070
    74
1070
     0
1000
MTEXTEND
  0
MTEXT
  5
564A
330
1A
100
AcDbEntity
  8
SUNPOU
100
AcDbMText
 10
110206.9034926996
 20
111601.0103382607
 30
0.0
 40
10.5
 41
0.0
 71
     9
 72
     5
  1

1001
ACAD
1000
MTEXTBEGIN
1070
    73
1070
     1
1070
    44
1040
1.0
1070
    74
1070
     0
1000
MTEXTEND
1000
MTEXTBEGIN
1070
    73
1070
     1
1070
    44
1040
1.0
1070
    74
1070
     0
1000
MTEXTEND
  0
MTEXT
  5
564B
330
1A
100
AcDbEntity
  8
SUNPOU
100
AcDbMText
 10
112150.310739409
 20
109799.9612583826
 30
0.0
 40
3.5
 41
0.0
 71
     9
 72
     5
  1

1001
ACAD
1000
MTEXTBEGIN
1070
    73
1070
     1
1070
    44
1040
1.0
1070
    74
1070
     0
1000
MTEXTEND
1000
MTEXTBEGIN
1070
    73
1070
     1
1070
    44
1040
1.0
1070
    74
1070
     0
1000
MTEXTEND
  0
MTEXT
  5
564C
330
1A
100
AcDbEntity
  8
SUNPOU
100
AcDbMText
 10
108819.1333204967
 20
110677.9087286761
 30
0.0
 40
10.5
 41
0.0
 71
     9
 72
     5
  1

1001
ACAD
1000
MTEXTBEGIN
1070
    73
1070
     1
1070
    44
1040
1.0
1070
    74
1070
     0
1000
MTEXTEND
1000
MTEXTBEGIN
1070
    73
1070
     1
1070
    44
1040
1.0
1070
    74
1070
     0
1000
MTEXTEND
  0
MTEXT
  5
564D
330
1A
100
AcDbEntity
  8
SUNPOU
100
AcDbMText
 10
110762.5405672062
 20
108876.8596487981
 30
0.0
 40
3.5
 41
0.0
 71
     9
 72
     5
  1

1001
ACAD
1000
MTEXTBEGIN
1070
    73
1070
     1
1070
    44
1040
1.0
1070
    74
1070
     0
1000
MTEXTEND
1000
MTEXTBEGIN
1070
    73
1070
     1
1070
    44
1040
1.0
1070
    74
1070
     0
1000
MTEXTEND
  0
MTEXT
  5
564E
330
1A
100
AcDbEntity
  8
SUNPOU
100
AcDbMText
 10
76303.05507956816
 20
68695.31179059812
 30
0.0
 40
10.5
 41
0.0
 71
     9
 72
     5
  1

1001
ACAD
1000
MTEXTBEGIN
1070
    73
1070
     1
1070
    44
1040
1.0
1070
    74
1070
     0
1000
MTEXTEND
1000
MTEXTBEGIN
1070
    73
1070
     1
1070
    44
1040
1.0
1070
    74
1070
     0
1000
MTEXTEND
  0
MTEXT
  5
564F
330
1A
100
AcDbEntity
  8
SUNPOU
100
AcDbMText
 10
79026.36128373271
 20
69099.99348217918
 30
0.0
 40
3.5
 41
0.0
 71
     9
 72
     5
  1

1001
ACAD
1000
MTEXTBEGIN
1070
    73
1070
     1
1070
    44
1040
1.0
1070
    74
1070
     0
1000
MTEXTEND
1000
MTEXTBEGIN
1070
    73
1070
     1
1070
    44
1040
1.0
1070
    74
1070
     0
1000
MTEXTEND
  0
MTEXT
  5
5650
330
1A
100
AcDbEntity
  8
SUNPOU
100
AcDbMText
 10
78234.00675862522
 20
65938.68764412436
 30
0.0
 40
10.5
 41
0.0
 71
     9
 72
     5
  1

1001
ACAD
1000
MTEXTBEGIN
1070
    73
1070
     1
1070
    44
1040
1.0
1070
    74
1070
     0
1000
MTEXTEND
1000
MTEXTBEGIN
1070
    73
1070
     1
1070
    44
1040
1.0
1070
    74
1070
     0
1000
MTEXTEND
  0
MTEXT
  5
5651
330
1A
100
AcDbEntity
  8
SUNPOU
100
AcDbMText
 10
80177.41400533465
 20
64137.63856424636
 30
0.0
 40
3.5
 41
0.0
 71
     9
 72
     5
  1

1001
ACAD
1000
MTEXTBEGIN
1070
    73
1070
     1
1070
    44
1040
1.0
1070
    74
1070
     0
1000
MTEXTEND
1000
MTEXTBEGIN
1070
    73
1070
     1
1070
    44
1040
1.0
1070
    74
1070
     0
1000
MTEXTEND
  0
MTEXT
  5
5652
330
1A
100
AcDbEntity
  8
SUNPOU
100
AcDbMText
 10
80122.50949592122
 20
64024.86668196204
 30
0.0
 40
3.5
 41
0.0
 71
     9
 72
     5
  1

1001
ACAD
1000
MTEXTBEGIN
1070
    73
1070
     1
1070
    44
1040
1.0
1070
    74
1070
     0
1000
MTEXTEND
1000
MTEXTBEGIN
1070
    73
1070
     1
1070
    44
1040
1.0
1070
    74
1070
     0
1000
MTEXTEND
  0
MTEXT
  5
5653
330
1A
100
AcDbEntity
  8
SUNPOU
100
AcDbMText
 10
79486.58135950133
 20
63213.54544089553
 30
0.0
 40
3.5
 41
0.0
 71
     9
 72
     5
  1

1001
ACAD
1000
MTEXTBEGIN
1070
    73
1070
     1
1070
    44
1040
1.0
1070
    74
1070
     0
1000
MTEXTEND
1000
MTEXTBEGIN
1070
    73
1070
     1
1070
    44
1040
1.0
1070
    74
1070
     0
1000
MTEXTEND
  0
MTEXT
  5
5654
330
1A
100
AcDbEntity
  8
SUNPOU
100
AcDbMText
 10
79485.3409400806
 20
63213.29746395804
 30
0.0
 40
10.5
 41
0.0
 71
     9
 72
     5
  1

1001
ACAD
1000
MTEXTBEGIN
1070
    73
1070
     1
1070
    44
1040
1.0
1070
    74
1070
     0
1000
MTEXTEND
1000
MTEXTBEGIN
1070
    73
1070
     1
1070
    44
1040
1.0
1070
    74
1070
     0
1000
MTEXTEND
  0
MTEXT
  5
5655
330
1A
100
AcDbEntity
  8
SUNPOU
100
AcDbMText
 10
85473.63363627567
 20
80747.76348077064
 30
0.0
 40
10.5
 41
0.0
 71
     9
 72
     5
  1

1001
ACAD
1000
MTEXTBEGIN
1070
    73
1070
     1
1070
    44
1040
1.0
1070
    74
1070
     0
1000
MTEXTEND
1000
MTEXTBEGIN
1070
    73
1070
     1
1070
    44
1040
1.0
1070
    74
1070
     0
1000
MTEXTEND
  0
MTEXT
  5
5656
330
1A
100
AcDbEntity
  8
SUNPOU
100
AcDbMText
 10
94195.80120219368
 20
88163.59801230808
 30
0.0
 40
10.5
 41
0.0
 71
     9
 72
     5
  1

1001
ACAD
1000
MTEXTBEGIN
1070
    73
1070
     1
1070
    44
1040
1.0
1070
    74
1070
     0
1000
MTEXTEND
1000
MTEXTBEGIN
1070
    73
1070
     1
1070
    44
1040
1.0
1070
    74
1070
     0
1000
MTEXTEND
  0
MTEXT
  5
5657
330
1A
100
AcDbEntity
  8
SUNPOU
100
AcDbMText
 10
113149.5599195236
 20
105630.1740648001
 30
0.0
 40
10.5
 41
0.0
 71
     9
 72
     5
  1

1001
ACAD
1000
MTEXTBEGIN
1070
    73
1070
     1
1070
    44
1040
1.0
1070
    74
1070
     0
1000
MTEXTEND
1000
MTEXTBEGIN
1070
    73
1070
     1
1070
    44
1040
1.0
1070
    74
1070
     0
1000
MTEXTEND
  0
MTEXT
  5
5658
330
1A
100
AcDbEntity
  8
SUNPOU
100
AcDbMText
 10
115092.967166233
 20
103829.1249849221
 30
0.0
 40
3.5
 41
0.0
 71
     9
 72
     5
  1

1001
ACAD
1000
MTEXTBEGIN
1070
    73
1070
     1
1070
    44
1040
1.0
1070
    74
1070
     0
1000
MTEXTEND
1000
MTEXTBEGIN
1070
    73
1070
     1
1070
    44
1040
1.0
1070
    74
1070
     0
1000
MTEXTEND
  0
MTEXT
  5
5659
330
1A
100
AcDbEntity
  8
SUNPOU
100
AcDbMText
 10
146219.1469988527
 20
146324.0706525794
 30
0.0
 40
10.5
 41
0.0
 71
     9
 72
     5
  1

1001
ACAD
1000
MTEXTBEGIN
1070
    73
1070
     1
1070
    44
1040
1.0
1070
    74
1070
     0
1000
MTEXTEND
1000
MTEXTBEGIN
1070
    73
1070
     1
1070
    44
1040
1.0
1070
    74
1070
     0
1000
MTEXTEND
  0
MTEXT
  5
565A
330
1A
100
AcDbEntity
  8
SUNPOU
100
AcDbMText
 10
148162.5542455621
 20
144523.0215727014
 30
0.0
 40
3.5
 41
0.0
 71
     9
 72
     5
  1

1001
ACAD
1000
MTEXTBEGIN
1070
    73
1070
     1
1070
    44
1040
1.0
1070
    74
1070
     0
1000
MTEXTEND
1000
MTEXTBEGIN
1070
    73
1070
     1
1070
    44
1040
1.0
1070
    74
1070
     0
1000
MTEXTEND
  0
MTEXT
  5
565B
330
1A
100
AcDbEntity
  8
SUNPOU
100
AcDbMText
 10
96659.41470464833
 20
92157.23580755453
 30
0.0
 40
10.5
 41
0.0
 71
     9
 72
     5
  1

1001
ACAD
1000
MTEXTBEGIN
1070
    73
1070
     1
1070
    44
1040
1.0
1070
    74
1070
     0
1000
MTEXTEND
1000
MTEXTBEGIN
1070
    73
1070
     1
1070
    44
1040
1.0
1070
    74
1070
     0
1000
MTEXTEND
  0
MTEXT
  5
565C
330
1A
100
AcDbEntity
  8
SUNPOU
100
AcDbMText
 10
82711.41460427234
 20
72984.83666844234
 30
0.0
 40
3.5
 41
0.0
 71
     7
 72
     5
  1

1001
ACAD
1000
MTEXTBEGIN
1070
    73
1070
     1
1070
    44
1040
1.0
1070
    74
1070
     0
1000
MTEXTEND
1000
MTEXTBEGIN
1070
    73
1070
     1
1070
    44
1040
1.0
1070
    74
1070
     0
1000
MTEXTEND
  0
MTEXT
  5
565D
330
1A
100
AcDbEntity
  8
SUNPOU
100
AcDbMText
 10
63696.58400126548
 20
60746.98539926055
 30
0.0
 40
10.5
 41
0.0
 71
     7
 72
     5
  1

1001
ACAD
1000
MTEXTBEGIN
1070
    73
1070
     1
1070
    44
1040
1.0
1070
    74
1070
     0
1000
MTEXTEND
1000
MTEXTBEGIN
1070
    73
1070
     1
1070
    44
1040
1.0
1070
    74
1070
     0
1000
MTEXTEND
  0
MTEXT
  5
565E
330
1A
100
AcDbEntity
  8
SUNPOU
100
AcDbMText
 10
51239.35573631738
 20
44902.05382116213
 30
0.0
 40
35.0
 41
0.0
 71
     9
 72
     5
  1

1001
ACAD
1000
MTEXTBEGIN
1070
    73
1070
     1
1070
    44
1040
1.0
1070
    74
1070
     0
1000
MTEXTEND
1000
MTEXTBEGIN
1070
    73
1070
     1
1070
    44
1040
1.0
1070
    74
1070
     0
1000
MTEXTEND
  0
MTEXT
  5
565F
330
1A
100
AcDbEntity
  8
SUNPOU
100
AcDbMText
 10
50147.84079389233
 20
45510.82923121084
 30
0.0
 40
350.0000004171781
 41
0.0
 71
     7
 72
     5
  1

1001
ACAD
1000
MTEXTBEGIN
1070
    73
1070
     1
1070
    44
1040
1.0
1070
    74
1070
     0
1000
MTEXTEND
1000
MTEXTBEGIN
1070
    73
1070
     1
1070
    44
1040
1.0
1070
    74
1070
     0
1000
MTEXTEND
  0
MTEXT
  5
5660
330
1A
100
AcDbEntity
  8
0
100
AcDbMText
 10
56191.79155183523
 20
43490.75159334705
 30
0.0
 40
8.0
 41
0.0
 71
     7
 72
     5
  1

1001
ACAD
1000
MTEXTBEGIN
1070
    73
1070
     1
1070
    44
1040
1.0
1070
    74
1070
     0
1000
MTEXTEND
1000
MTEXTBEGIN
1070
    73
1070
     1
1070
    44
1040
1.0
1070
    74
1070
     0
1000
MTEXTEND
  0
MTEXT
  5
5661
330
1A
100
AcDbEntity
  8
0
100
AcDbMText
 10
58477.14924173012
 20
44461.54188809812
 30
0.0
 40
8.0
 41
0.0
 71
     7
 72
     5
  1

1001
ACAD
1000
MTEXTBEGIN
1070
    73
1070
     1
1070
    44
1040
1.0
1070
    74
1070
     0
1000
MTEXTEND
1000
MTEXTBEGIN
1070
    73
1070
     1
1070
    44
1040
1.0
1070
    74
1070
     0
1000
MTEXTEND
  0
MTEXT
  5
5662
330
1A
100
AcDbEntity
  8
SUNPOU
100
AcDbMText
 10
61143.04626241227
 20
53973.65328047324
 30
0.0
 40
10.5
 41
0.0
 71
     1
 72
     5
  1

1001
ACAD
1000
MTEXTBEGIN
1070
    73
1070
     1
1070
    44
1040
1.0
1070
    74
1070
     0
1000
MTEXTEND
1000
MTEXTBEGIN
1070
    73
1070
     1
1070
    44
1040
1.0
1070
    74
1070
     0
1000
MTEXTEND
  0
MTEXT
  5
5663
330
1A
100
AcDbEntity
  8
SUNPOU
100
AcDbMText
 10
53212.12306647633
 20
53026.86014656028
 30
0.0
 40
10.5
 41
0.0
 71
     7
 72
     5
  1

1001
ACAD
1000
MTEXTBEGIN
1070
    73
1070
     1
1070
    44
1040
1.0
1070
    74
1070
     0
1000
MTEXTEND
1000
MTEXTBEGIN
1070
    73
1070
     1
1070
    44
1040
1.0
1070
    74
1070
     0
1000
MTEXTEND
  0
MTEXT
  5
5664
330
1A
100
AcDbEntity
  8
SUNPOU
100
AcDbMText
 10
56161.10673098909
 20
57927.53621840312
 30
0.0
 40
10.5
 41
0.0
 71
     7
 72
     5
  1

1001
ACAD
1000
MTEXTBEGIN
1070
    73
1070
     1
1070
    44
1040
1.0
1070
    74
1070
     0
1000
MTEXTEND
1000
MTEXTBEGIN
1070
    73
1070
     1
1070
    44
1040
1.0
1070
    74
1070
     0
1000
MTEXTEND
  0
MTEXT
  5
5665
330
1A
100
AcDbEntity
  8
SUNPOU
100
AcDbMText
 10
60670.18485893966
 20
60363.8369660232
 30
0.0
 40
10.5
 41
0.0
 71
     7
 72
     5
  1

1001
ACAD
1000
MTEXTBEGIN
1070
    73
1070
     1
1070
    44
1040
1.0
1070
    74
1070
     0
1000
MTEXTEND
1000
MTEXTBEGIN
1070
    73
1070
     1
1070
    44
1040
1.0
1070
    74
1070
     0
1000
MTEXTEND
  0
MTEXT
  5
5666
330
1A
100
AcDbEntity
  8
SUNPOU
100
AcDbMText
 10
44271.02274570799
 20
39361.43311641211
 30
0.0
 40
10.5
 41
0.0
 71
     7
 72
     5
  1

1001
ACAD
1000
MTEXTBEGIN
1070
    73
1070
     1
1070
    44
1040
1.0
1070
    74
1070
     0
1000
MTEXTEND
1000
MTEXTBEGIN
1070
    73
1070
     1
1070
    44
1040
1.0
1070
    74
1070
     0
1000
MTEXTEND
  0
MTEXT
  5
5667
330
1A
100
AcDbEntity
  8
SUNPOU
100
AcDbMText
 10
95462.54117960824
 20
85034.41368006038
 30
0.0
 40
10.5
 41
0.0
 71
     9
 72
     5
  1

1001
ACAD
1000
MTEXTBEGIN
1070
    73
1070
     1
1070
    44
1040
1.0
1070
    74
1070
     0
1000
MTEXTEND
1000
MTEXTBEGIN
1070
    73
1070
     1
1070
    44
1040
1.0
1070
    74
1070
     0
1000
MTEXTEND
  0
MTEXT
  5
5668
330
1A
100
AcDbEntity
  8
SUNPOU
100
AcDbMText
 10
104184.7087455262
 20
92450.24821159784
 30
0.0
 40
10.5
 41
0.0
 71
     9
 72
     5
  1

1001
ACAD
1000
MTEXTBEGIN
1070
    73
1070
     1
1070
    44
1040
1.0
1070
    74
1070
     0
1000
MTEXTEND
1000
MTEXTBEGIN
1070
    73
1070
     1
1070
    44
1040
1.0
1070
    74
1070
     0
1000
MTEXTEND
  0
MTEXT
  5
5669
330
1A
100
AcDbEntity
  8
SUNPOU
100
AcDbMText
 10
123138.4674628562
 20
109916.8242640898
 30
0.0
 40
10.5
 41
0.0
 71
     9
 72
     5
  1

1001
ACAD
1000
MTEXTBEGIN
1070
    73
1070
     1
1070
    44
1040
1.0
1070
    74
1070
     0
1000
MTEXTEND
1000
MTEXTBEGIN
1070
    73
1070
     1
1070
    44
1040
1.0
1070
    74
1070
     0
1000
MTEXTEND
  0
MTEXT
  5
566A
330
1A
100
AcDbEntity
  8
SUNPOU
100
AcDbMText
 10
125081.8747095656
 20
108115.7751842118
 30
0.0
 40
3.5
 41
0.0
 71
     9
 72
     5
  1

1001
ACAD
1000
MTEXTBEGIN
1070
    73
1070
     1
1070
    44
1040
1.0
1070
    74
1070
     0
1000
MTEXTEND
1000
MTEXTBEGIN
1070
    73
1070
     1
1070
    44
1040
1.0
1070
    74
1070
     0
1000
MTEXTEND
  0
MTEXT
  5
566B
330
1A
100
AcDbEntity
  8
SUNPOU
100
AcDbMText
 10
156208.0545421853
 20
150610.7208518691
 30
0.0
 40
10.5
 41
0.0
 71
     9
 72
     5
  1

1001
ACAD
1000
MTEXTBEGIN
1070
    73
1070
     1
1070
    44
1040
1.0
1070
    74
1070
     0
1000
MTEXTEND
1000
MTEXTBEGIN
1070
    73
1070
     1
1070
    44
1040
1.0
1070
    74
1070
     0
1000
MTEXTEND
  0
MTEXT
  5
566C
330
1A
100
AcDbEntity
  8
SUNPOU
100
AcDbMText
 10
158151.4617888947
 20
148809.6717719911
 30
0.0
 40
3.5
 41
0.0
 71
     9
 72
     5
  1

1001
ACAD
1000
MTEXTBEGIN
1070
    73
1070
     1
1070
    44
1040
1.0
1070
    74
1070
     0
1000
MTEXTEND
1000
MTEXTBEGIN
1070
    73
1070
     1
1070
    44
1040
1.0
1070
    74
1070
     0
1000
MTEXTEND
  0
MTEXT
  5
566D
330
1A
100
AcDbEntity
  8
SUNPOU
100
AcDbMText
 10
106648.3222479809
 20
96443.88600684427
 30
0.0
 40
10.5
 41
0.0
 71
     9
 72
     5
  1

1001
ACAD
1000
MTEXTBEGIN
1070
    73
1070
     1
1070
    44
1040
1.0
1070
    74
1070
     0
1000
MTEXTEND
1000
MTEXTBEGIN
1070
    73
1070
     1
1070
    44
1040
1.0
1070
    74
1070
     0
1000
MTEXTEND
  0
MTEXT
  5
566E
330
1A
100
AcDbEntity
  8
SUNPOU
100
AcDbMText
 10
92700.3221476049
 20
77271.48686773207
 30
0.0
 40
3.5
 41
0.0
 71
     7
 72
     5
  1

1001
ACAD
1000
MTEXTBEGIN
1070
    73
1070
     1
1070
    44
1040
1.0
1070
    74
1070
     0
1000
MTEXTEND
1000
MTEXTBEGIN
1070
    73
1070
     1
1070
    44
1040
1.0
1070
    74
1070
     0
1000
MTEXTEND
  0
MTEXT
  5
566F
330
1A
100
AcDbEntity
  8
SUNPOU
100
AcDbMText
 10
73685.49154459807
 20
65033.63559855027
 30
0.0
 40
10.5
 41
0.0
 71
     7
 72
     5
  1

1001
ACAD
1000
MTEXTBEGIN
1070
    73
1070
     1
1070
    44
1040
1.0
1070
    74
1070
     0
1000
MTEXTEND
1000
MTEXTBEGIN
1070
    73
1070
     1
1070
    44
1040
1.0
1070
    74
1070
     0
1000
MTEXTEND
  0
MTEXT
  5
5670
330
1A
100
AcDbEntity
  8
SUNPOU
100
AcDbMText
 10
61228.26327964995
 20
49188.70402045184
 30
0.0
 40
35.0
 41
0.0
 71
     9
 72
     5
  1

1001
ACAD
1000
MTEXTBEGIN
1070
    73
1070
     1
1070
    44
1040
1.0
1070
    74
1070
     0
1000
MTEXTEND
1000
MTEXTBEGIN
1070
    73
1070
     1
1070
    44
1040
1.0
1070
    74
1070
     0
1000
MTEXTEND
  0
MTEXT
  5
5671
330
1A
100
AcDbEntity
  8
SUNPOU
100
AcDbMText
 10
60136.74833722491
 20
49797.47943050056
 30
0.0
 40
350.0000004171781
 41
0.0
 71
     7
 72
     5
  1

1001
ACAD
1000
MTEXTBEGIN
1070
    73
1070
     1
1070
    44
1040
1.0
1070
    74
1070
     0
1000
MTEXTEND
1000
MTEXTBEGIN
1070
    73
1070
     1
1070
    44
1040
1.0
1070
    74
1070
     0
1000
MTEXTEND
  0
MTEXT
  5
5672
330
1A
100
AcDbEntity
  8
0
100
AcDbMText
 10
66180.69909516782
 20
47777.40179263677
 30
0.0
 40
8.0
 41
0.0
 71
     7
 72
     5
  1

1001
ACAD
1000
MTEXTBEGIN
1070
    73
1070
     1
1070
    44
1040
1.0
1070
    74
1070
     0
1000
MTEXTEND
1000
MTEXTBEGIN
1070
    73
1070
     1
1070
    44
1040
1.0
1070
    74
1070
     0
1000
MTEXTEND
  0
MTEXT
  5
5673
330
1A
100
AcDbEntity
  8
0
100
AcDbMText
 10
68466.05678506271
 20
48748.19208738784
 30
0.0
 40
8.0
 41
0.0
 71
     7
 72
     5
  1

1001
ACAD
1000
MTEXTBEGIN
1070
    73
1070
     1
1070
    44
1040
1.0
1070
    74
1070
     0
1000
MTEXTEND
1000
MTEXTBEGIN
1070
    73
1070
     1
1070
    44
1040
1.0
1070
    74
1070
     0
1000
MTEXTEND
  0
MTEXT
  5
5674
330
1A
100
AcDbEntity
  8
SUNPOU
100
AcDbMText
 10
71131.95380574485
 20
58260.30347976296
 30
0.0
 40
10.5
 41
0.0
 71
     1
 72
     5
  1

1001
ACAD
1000
MTEXTBEGIN
1070
    73
1070
     1
1070
    44
1040
1.0
1070
    74
1070
     0
1000
MTEXTEND
1000
MTEXTBEGIN
1070
    73
1070
     1
1070
    44
1040
1.0
1070
    74
1070
     0
1000
MTEXTEND
  0
MTEXT
  5
5675
330
1A
100
AcDbEntity
  8
SUNPOU
100
AcDbMText
 10
63201.03060980891
 20
57313.51034585003
 30
0.0
 40
10.5
 41
0.0
 71
     7
 72
     5
  1

1001
ACAD
1000
MTEXTBEGIN
1070
    73
1070
     1
1070
    44
1040
1.0
1070
    74
1070
     0
1000
MTEXTEND
1000
MTEXTBEGIN
1070
    73
1070
     1
1070
    44
1040
1.0
1070
    74
1070
     0
1000
MTEXTEND
  0
MTEXT
  5
5676
330
1A
100
AcDbEntity
  8
SUNPOU
100
AcDbMText
 10
66150.01427432169
 20
62214.18641769286
 30
0.0
 40
10.5
 41
0.0
 71
     7
 72
     5
  1

1001
ACAD
1000
MTEXTBEGIN
1070
    73
1070
     1
1070
    44
1040
1.0
1070
    74
1070
     0
1000
MTEXTEND
1000
MTEXTBEGIN
1070
    73
1070
     1
1070
    44
1040
1.0
1070
    74
1070
     0
1000
MTEXTEND
  0
MTEXT
  5
5677
330
1A
100
AcDbEntity
  8
SUNPOU
100
AcDbMText
 10
70659.09240227225
 20
64650.48716531294
 30
0.0
 40
10.5
 41
0.0
 71
     7
 72
     5
  1

1001
ACAD
1000
MTEXTBEGIN
1070
    73
1070
     1
1070
    44
1040
1.0
1070
    74
1070
     0
1000
MTEXTEND
1000
MTEXTBEGIN
1070
    73
1070
     1
1070
    44
1040
1.0
1070
    74
1070
     0
1000
MTEXTEND
  0
MTEXT
  5
5678
330
1A
100
AcDbEntity
  8
SUNPOU
100
AcDbMText
 10
54259.93028904056
 20
43648.08331570185
 30
0.0
 40
10.5
 41
0.0
 71
     7
 72
     5
  1

1001
ACAD
1000
MTEXTBEGIN
1070
    73
1070
     1
1070
    44
1040
1.0
1070
    74
1070
     0
1000
MTEXTEND
1000
MTEXTBEGIN
1070
    73
1070
     1
1070
    44
1040
1.0
1070
    74
1070
     0
1000
MTEXTEND
  0
MTEXT
  5
5679
330
1A
100
AcDbEntity
  8
SUNPOU
100
AcDbMText
 10
56070.69320041551
 20
49975.4973031804
 30
0.0
 40
10.5
 41
0.0
 71
     9
 72
     5
  1

1001
ACAD
1000
MTEXTBEGIN
1070
    73
1070
     1
1070
    44
1040
1.0
1070
    74
1070
     0
1000
MTEXTEND
1000
MTEXTBEGIN
1070
    73
1070
     1
1070
    44
1040
1.0
1070
    74
1070
     0
1000
MTEXTEND
  0
MTEXT
  5
567A
330
1A
100
AcDbEntity
  8
SUNPOU
100
AcDbMText
 10
64792.86076633347
 20
57391.33183471787
 30
0.0
 40
10.5
 41
0.0
 71
     9
 72
     5
  1

1001
ACAD
1000
MTEXTBEGIN
1070
    73
1070
     1
1070
    44
1040
1.0
1070
    74
1070
     0
1000
MTEXTEND
1000
MTEXTBEGIN
1070
    73
1070
     1
1070
    44
1040
1.0
1070
    74
1070
     0
1000
MTEXTEND
  0
MTEXT
  5
567B
330
1A
100
AcDbEntity
  8
SUNPOU
100
AcDbMText
 10
83746.61948366345
 20
74857.90788720994
 30
0.0
 40
10.5
 41
0.0
 71
     9
 72
     5
  1

1001
ACAD
1000
MTEXTBEGIN
1070
    73
1070
     1
1070
    44
1040
1.0
1070
    74
1070
     0
1000
MTEXTEND
1000
MTEXTBEGIN
1070
    73
1070
     1
1070
    44
1040
1.0
1070
    74
1070
     0
1000
MTEXTEND
  0
MTEXT
  5
567C
330
1A
100
AcDbEntity
  8
SUNPOU
100
AcDbMText
 10
85690.02673037287
 20
73056.85880733192
 30
0.0
 40
3.5
 41
0.0
 71
     9
 72
     5
  1

1001
ACAD
1000
MTEXTBEGIN
1070
    73
1070
     1
1070
    44
1040
1.0
1070
    74
1070
     0
1000
MTEXTEND
1000
MTEXTBEGIN
1070
    73
1070
     1
1070
    44
1040
1.0
1070
    74
1070
     0
1000
MTEXTEND
  0
MTEXT
  5
567D
330
1A
100
AcDbEntity
  8
SUNPOU
100
AcDbMText
 10
116816.2065629925
 20
115551.8044749892
 30
0.0
 40
10.5
 41
0.0
 71
     9
 72
     5
  1

1001
ACAD
1000
MTEXTBEGIN
1070
    73
1070
     1
1070
    44
1040
1.0
1070
    74
1070
     0
1000
MTEXTEND
1000
MTEXTBEGIN
1070
    73
1070
     1
1070
    44
1040
1.0
1070
    74
1070
     0
1000
MTEXTEND
  0
MTEXT
  5
567E
330
1A
100
AcDbEntity
  8
SUNPOU
100
AcDbMText
 10
118759.6138097019
 20
113750.7553951111
 30
0.0
 40
3.5
 41
0.0
 71
     9
 72
     5
  1

1001
ACAD
1000
MTEXTBEGIN
1070
    73
1070
     1
1070
    44
1040
1.0
1070
    74
1070
     0
1000
MTEXTEND
1000
MTEXTBEGIN
1070
    73
1070
     1
1070
    44
1040
1.0
1070
    74
1070
     0
1000
MTEXTEND
  0
MTEXT
  5
567F
330
1A
100
AcDbEntity
  8
SUNPOU
100
AcDbMText
 10
67256.47426878814
 20
61384.96962996432
 30
0.0
 40
10.5
 41
0.0
 71
     9
 72
     5
  1

1001
ACAD
1000
MTEXTBEGIN
1070
    73
1070
     1
1070
    44
1040
1.0
1070
    74
1070
     0
1000
MTEXTEND
1000
MTEXTBEGIN
1070
    73
1070
     1
1070
    44
1040
1.0
1070
    74
1070
     0
1000
MTEXTEND
  0
MTEXT
  5
5680
330
1A
100
AcDbEntity
  8
SUNPOU
100
AcDbMText
 10
53308.47416841216
 20
42212.57049085211
 30
0.0
 40
3.5
 41
0.0
 71
     7
 72
     5
  1

1001
ACAD
1000
MTEXTBEGIN
1070
    73
1070
     1
1070
    44
1040
1.0
1070
    74
1070
     0
1000
MTEXTEND
1000
MTEXTBEGIN
1070
    73
1070
     1
1070
    44
1040
1.0
1070
    74
1070
     0
1000
MTEXTEND
  0
MTEXT
  5
5681
330
1A
100
AcDbEntity
  8
SUNPOU
100
AcDbMText
 10
67000.82485118274
 20
51571.63371187344
 30
0.0
 40
10.5
 41
0.0
 71
     9
 72
     5
  1

1001
ACAD
1000
MTEXTBEGIN
1070
    73
1070
     1
1070
    44
1040
1.0
1070
    74
1070
     0
1000
MTEXTEND
1000
MTEXTBEGIN
1070
    73
1070
     1
1070
    44
1040
1.0
1070
    74
1070
     0
1000
MTEXTEND
  0
MTEXT
  5
5682
330
1A
100
AcDbEntity
  8
SUNPOU
100
AcDbMText
 10
75722.99241710071
 20
58987.46824341094
 30
0.0
 40
10.5
 41
0.0
 71
     9
 72
     5
  1

1001
ACAD
1000
MTEXTBEGIN
1070
    73
1070
     1
1070
    44
1040
1.0
1070
    74
1070
     0
1000
MTEXTEND
1000
MTEXTBEGIN
1070
    73
1070
     1
1070
    44
1040
1.0
1070
    74
1070
     0
1000
MTEXTEND
  0
MTEXT
  5
5683
330
1A
100
AcDbEntity
  8
SUNPOU
100
AcDbMText
 10
94676.75113443068
 20
76454.04429590299
 30
0.0
 40
10.5
 41
0.0
 71
     9
 72
     5
  1

1001
ACAD
1000
MTEXTBEGIN
1070
    73
1070
     1
1070
    44
1040
1.0
1070
    74
1070
     0
1000
MTEXTEND
1000
MTEXTBEGIN
1070
    73
1070
     1
1070
    44
1040
1.0
1070
    74
1070
     0
1000
MTEXTEND
  0
MTEXT
  5
5684
330
1A
100
AcDbEntity
  8
SUNPOU
100
AcDbMText
 10
96620.1583811401
 20
74652.99521602497
 30
0.0
 40
3.5
 41
0.0
 71
     9
 72
     5
  1

1001
ACAD
1000
MTEXTBEGIN
1070
    73
1070
     1
1070
    44
1040
1.0
1070
    74
1070
     0
1000
MTEXTEND
1000
MTEXTBEGIN
1070
    73
1070
     1
1070
    44
1040
1.0
1070
    74
1070
     0
1000
MTEXTEND
  0
MTEXT
  5
5685
330
1A
100
AcDbEntity
  8
SUNPOU
100
AcDbMText
 10
127746.3382137598
 20
117147.9408836822
 30
0.0
 40
10.5
 41
0.0
 71
     9
 72
     5
  1

1001
ACAD
1000
MTEXTBEGIN
1070
    73
1070
     1
1070
    44
1040
1.0
1070
    74
1070
     0
1000
MTEXTEND
1000
MTEXTBEGIN
1070
    73
1070
     1
1070
    44
1040
1.0
1070
    74
1070
     0
1000
MTEXTEND
  0
MTEXT
  5
5686
330
1A
100
AcDbEntity
  8
SUNPOU
100
AcDbMText
 10
129689.7454604692
 20
115346.8918038042
 30
0.0
 40
3.5
 41
0.0
 71
     9
 72
     5
  1

1001
ACAD
1000
MTEXTBEGIN
1070
    73
1070
     1
1070
    44
1040
1.0
1070
    74
1070
     0
1000
MTEXTEND
1000
MTEXTBEGIN
1070
    73
1070
     1
1070
    44
1040
1.0
1070
    74
1070
     0
1000
MTEXTEND
  0
MTEXT
  5
5687
330
1A
100
AcDbEntity
  8
SUNPOU
100
AcDbMText
 10
78186.60591955537
 20
62981.10603865737
 30
0.0
 40
10.5
 41
0.0
 71
     9
 72
     5
  1

1001
ACAD
1000
MTEXTBEGIN
1070
    73
1070
     1
1070
    44
1040
1.0
1070
    74
1070
     0
1000
MTEXTEND
1000
MTEXTBEGIN
1070
    73
1070
     1
1070
    44
1040
1.0
1070
    74
1070
     0
1000
MTEXTEND
  0
MTEXT
  5
5688
330
1A
100
AcDbEntity
  8
SUNPOU
100
AcDbMText
 10
64238.60581917939
 20
43808.70689954517
 30
0.0
 40
3.5
 41
0.0
 71
     7
 72
     5
  1

1001
ACAD
1000
MTEXTBEGIN
1070
    73
1070
     1
1070
    44
1040
1.0
1070
    74
1070
     0
1000
MTEXTEND
1000
MTEXTBEGIN
1070
    73
1070
     1
1070
    44
1040
1.0
1070
    74
1070
     0
1000
MTEXTEND
  0
MTEXT
  5
5689
330
1A
100
AcDbEntity
  8
SUNPOU
100
AcDbMText
 10
33428.13481137435
 20
32770.04710035563
 30
0.0
 40
10.5
 41
0.0
 71
     9
 72
     5
  1

1001
ACAD
1000
MTEXTBEGIN
1070
    73
1070
     1
1070
    44
1040
1.0
1070
    74
1070
     0
1000
MTEXTEND
1000
MTEXTBEGIN
1070
    73
1070
     1
1070
    44
1040
1.0
1070
    74
1070
     0
1000
MTEXTEND
  0
MTEXT
  5
568A
330
1A
100
AcDbEntity
  8
SUNPOU
100
AcDbMText
 10
52381.89352870431
 20
50236.62315284768
 30
0.0
 40
10.5
 41
0.0
 71
     9
 72
     5
  1

1001
ACAD
1000
MTEXTBEGIN
1070
    73
1070
     1
1070
    44
1040
1.0
1070
    74
1070
     0
1000
MTEXTEND
1000
MTEXTBEGIN
1070
    73
1070
     1
1070
    44
1040
1.0
1070
    74
1070
     0
1000
MTEXTEND
  0
MTEXT
  5
568B
330
1A
100
AcDbEntity
  8
SUNPOU
100
AcDbMText
 10
54325.30077541374
 20
48435.57407296968
 30
0.0
 40
3.5
 41
0.0
 71
     9
 72
     5
  1

1001
ACAD
1000
MTEXTBEGIN
1070
    73
1070
     1
1070
    44
1040
1.0
1070
    74
1070
     0
1000
MTEXTEND
1000
MTEXTBEGIN
1070
    73
1070
     1
1070
    44
1040
1.0
1070
    74
1070
     0
1000
MTEXTEND
  0
MTEXT
  5
568C
330
1A
100
AcDbEntity
  8
SUNPOU
100
AcDbMText
 10
85451.48060803342
 20
90930.51974062703
 30
0.0
 40
10.5
 41
0.0
 71
     9
 72
     5
  1

1001
ACAD
1000
MTEXTBEGIN
1070
    73
1070
     1
1070
    44
1040
1.0
1070
    74
1070
     0
1000
MTEXTEND
1000
MTEXTBEGIN
1070
    73
1070
     1
1070
    44
1040
1.0
1070
    74
1070
     0
1000
MTEXTEND
  0
MTEXT
  5
568D
330
1A
100
AcDbEntity
  8
SUNPOU
100
AcDbMText
 10
87394.88785474286
 20
89129.47066074901
 30
0.0
 40
3.5
 41
0.0
 71
     9
 72
     5
  1

1001
ACAD
1000
MTEXTBEGIN
1070
    73
1070
     1
1070
    44
1040
1.0
1070
    74
1070
     0
1000
MTEXTEND
1000
MTEXTBEGIN
1070
    73
1070
     1
1070
    44
1040
1.0
1070
    74
1070
     0
1000
MTEXTEND
  0
MTEXT
  5
568E
330
1A
100
AcDbEntity
  8
SUNPOU
100
AcDbMText
 10
35891.74831382901
 20
36763.68489560208
 30
0.0
 40
10.5
 41
0.0
 71
     9
 72
     5
  1

1001
ACAD
1000
MTEXTBEGIN
1070
    73
1070
     1
1070
    44
1040
1.0
1070
    74
1070
     0
1000
MTEXTEND
1000
MTEXTBEGIN
1070
    73
1070
     1
1070
    44
1040
1.0
1070
    74
1070
     0
1000
MTEXTEND
  0
MTEXT
  5
568F
330
1A
100
AcDbEntity
  8
SUNPOU
100
AcDbMText
 10
21943.74821345303
 20
17591.28575648985
 30
0.0
 40
3.5
 41
0.0
 71
     7
 72
     5
  1

1001
ACAD
1000
MTEXTBEGIN
1070
    73
1070
     1
1070
    44
1040
1.0
1070
    74
1070
     0
1000
MTEXTEND
1000
MTEXTBEGIN
1070
    73
1070
     1
1070
    44
1040
1.0
1070
    74
1070
     0
1000
MTEXTEND
  0
MTEXT
  5
18026
330
1A
100
AcDbEntity
  8
ZISSEN1
100
AcDbMText
 10
-1195.704680951616
 20
1133.086097029661
 30
0.0
 40
5.0
 41
113.6565
 71
     1
 72
     5
  1
VDB-5432A　　No.SS0001f49
1001
ACAD
1000
MTEXTBEGIN
1070
    73
1070
     1
1070
    44
1040
1.0
1070
    74
1070
     0
1000
MTEXTEND
1000
MTEXTBEGIN
1070
    73
1070
     1
1070
    44
1040
1.0
1070
    74
1070
     0
1000
MTEXTEND
  0
LINE
  5
18CA2
330
1A
100
AcDbEntity
  8
ZISSEN1
100
AcDbLine
 10
-1039.1
 20
1037.5
 30
0.0
 11
-1039.1
 21
1064.9
 31
0.0
  0
LINE
  5
18CA3
330
1A
100
AcDbEntity
  8
ZISSEN1
100
AcDbLine
 10
-1037.000029999999
 20
1037.5
 30
0.0
 11
-1037.000029999999
 21
1064.9
 31
0.0
  0
LINE
  5
18CA4
330
1A
100
AcDbEntity
  8
ZISSEN1
100
AcDbLine
 10
-1049.200029999998
 20
1056.599999999999
 30
0.0
 11
-1049.200029999998
 21
1049.80001
 31
0.0
  0
LINE
  5
18CA5
330
1A
100
AcDbEntity
  8
ZISSEN1
100
AcDbLine
 10
-1057.40001
 20
1055.4
 30
0.0
 11
-1057.40001
 21
1048.600009999999
 31
0.0
  0
LINE
  5
18CA6
330
1A
100
AcDbEntity
  8
ZISSEN1
100
AcDbLine
 10
-1062.000019999999
 20
1003.499998
 30
0.0
 11
-1062.000019999999
 21
1070.799999999999
 31
0.0
  0
LINE
  5
18CA7
330
1A
100
AcDbEntity
  8
ZISSEN1
100
AcDbLine
 10
-1059.000009999998
 20
1003.499998
 30
0.0
 11
-1059.000009999998
 21
1070.799999999999
 31
0.0
  0
LINE
  5
18CA8
330
1A
100
AcDbEntity
  8
ZISSEN1
100
AcDbLine
 10
-1057.40001
 20
1003.499998
 30
0.0
 11
-1057.40001
 21
1066.5
 31
0.0
  0
LINE
  5
18CA9
330
1A
100
AcDbEntity
  8
ZISSEN1
100
AcDbLine
 10
-1045.800029999998
 20
1011.5
 30
0.0
 11
-1045.800029999998
 21
1066.2
 31
0.0
  0
LINE
  5
18CAA
330
1A
100
AcDbEntity
  8
ZISSEN1
100
AcDbLine
 10
-1047.40003
 20
1011.5
 30
0.0
 11
-1047.40003
 21
1070.799999999999
 31
0.0
  0
LINE
  5
18CAB
330
1A
100
AcDbEntity
  8
ZISSEN1
100
AcDbLine
 10
-1065.0
 20
1001.499999999998
 30
0.0
 11
-1065.0
 21
1070.799999999999
 31
0.0
  0
DIMENSION
  5
18CAC
330
1A
100
AcDbEntity
  8
SUNPOU
100
AcDbDimension
  2
*D0
 10
-1037.000029999999
 20
977.4656643910423
 30
0.0
 11
-1051.164609057398
 21
977.4656643910423
 31
0.0
 70
   160
  1
(28)
  3
標準スタイル
100
AcDbAlignedDimension
 13
-1065.0
 23
1001.207108999999
 33
0.0
 14
-1037.000029999999
 24
1014.799999999999
 34
0.0
100
AcDbRotatedDimension
1001
ACAD
1000
DSTYLE
1002
{
1070
    40
1040
1.0
1002
}
  0
LINE
  5
18CAD
330
1A
100
AcDbEntity
  8
ZISSEN1
100
AcDbLine
 10
-1049.200029999998
 20
1049.80001
 30
0.0
 11
-1057.40001
 21
1049.80001
 31
0.0
  0
LINE
  5
18CAE
330
1A
100
AcDbEntity
  8
ZISSEN1
100
AcDbLine
 10
-1041.0
 20
1003.499998
 30
0.0
 11
-1062.000019999999
 21
1003.499998
 31
0.0
  0
LINE
  5
18CAF
330
1A
100
AcDbEntity
  8
ZISSEN1
100
AcDbLine
 10
-1064.0
 20
1000.499999999999
 30
0.0
 11
-1041.0
 21
1000.5
 31
0.0
  0
LINE
  5
18CB0
330
1A
100
AcDbEntity
  8
ZISSEN1
100
AcDbLine
 10
-1047.40003
 20
1019.7
 30
0.0
 11
-1057.40001
 21
1019.7
 31
0.0
  0
LINE
  5
18CB1
330
1A
100
AcDbEntity
  8
ZISSEN1
100
AcDbLine
 10
-1047.40003
 20
1014.70001
 30
0.0
 11
-1057.40001
 21
1014.70001
 31
0.0
  0
LINE
  5
18CB2
330
1A
100
AcDbEntity
  8
ZISSEN1
100
AcDbLine
 10
-1053.25
 20
1003.499998
 30
0.0
 11
-1053.25
 21
1000.5
 31
0.0
  0
LINE
  5
18CB3
330
1A
100
AcDbEntity
  8
ZISSEN1
100
AcDbLine
 10
-1062.000019999999
 20
1003.499998
 30
0.0
 11
-1062.000019999999
 21
1000.5
 31
0.0
  0
LINE
  5
18CB4
330
1A
100
AcDbEntity
  8
ZISSEN1
100
AcDbLine
 10
-1061.500019999999
 20
1000.5
 30
0.0
 11
-1061.500019999999
 21
1003.499998
 31
0.0
  0
LINE
  5
18CB6
330
1A
100
AcDbEntity
  8
ZISSEN1
100
AcDbLine
 10
-1039.100029999999
 20
1036.90001
 30
0.0
 11
-1039.100029999999
 21
1014.499999999999
 31
0.0
  0
LINE
  5
18CB7
330
1A
100
AcDbEntity
  8
ZISSEN1
100
AcDbLine
 10
-1037.000029999999
 20
1014.499999999999
 30
0.0
 11
-1037.000029999999
 21
1036.90001
 31
0.0
  0
DIMENSION
  5
18CB8
330
1A
100
AcDbEntity
  8
SUNPOU
100
AcDbDimension
  2
*D1
 10
-1026.047567732802
 20
1000.5
 30
0.0
 11
-1028.797567732802
 21
992.3333333333332
 31
0.0
 70
    32
  3
標準スタイル
100
AcDbAlignedDimension
 13
-1041.0
 23
1003.499998
 33
0.0
 14
-1041.0
 24
1000.5
 34
0.0
 50
90.0
100
AcDbRotatedDimension
1001
ACAD
1000
DSTYLE
1002
{
1070
    40
1040
1.0
1002
}
  0
LINE
  5
18CB9
330
1A
100
AcDbEntity
  8
ZISSEN1
100
AcDbLine
 10
-1039.100029999999
 20
1014.499999999999
 30
0.0
 11
-1037.000029999999
 21
1014.499999999999
 31
0.0
  0
LINE
  5
18CBA
330
1A
100
AcDbEntity
  8
ZISSEN1
100
AcDbLine
 10
-1045.800029999998
 20
1011.5
 30
0.0
 11
-1047.40003
 21
1011.5
 31
0.0
  0
LINE
  5
18CBB
330
1A
100
AcDbEntity
  8
ZISSEN1
100
AcDbLine
 10
-1045.800029999998
 20
1012.499999999999
 30
0.0
 11
-1047.40003
 21
1012.499999999999
 31
0.0
  0
LINE
  5
18CBC
330
1A
100
AcDbEntity
  8
ZISSEN1
100
AcDbLine
 10
-1039.100029999999
 20
1014.499999999999
 30
0.0
 11
-1045.800029999998
 21
1014.499999999999
 31
0.0
  0
LINE
  5
18CBD
330
1A
100
AcDbEntity
  8
ZISSEN1
100
AcDbLine
 10
-1041.0
 20
1007.500011
 30
0.0
 11
-1041.0
 21
1010.5
 31
0.0
  0
LINE
  5
18CBF
330
1A
100
AcDbEntity
  8
ZISSEN1
100
AcDbLine
 10
-1041.0
 20
1000.5
 30
0.0
 11
-1041.0
 21
1003.499998
 31
0.0
  0
LINE
  5
18CC0
330
1A
100
AcDbEntity
  8
ZISSEN1
100
AcDbLine
 10
-1041.5
 20
1000.5
 30
0.0
 11
-1041.5
 21
1003.499998
 31
0.0
  0
LINE
  5
18CC1
330
1A
100
AcDbEntity
  8
ZISSEN1
100
AcDbLine
 10
-1041.5
 20
1003.499998
 30
0.0
 11
-1041.5
 21
1007.500011
 31
0.0
  0
LINE
  5
18CC2
330
1A
100
AcDbEntity
  8
ZISSEN1
100
AcDbLine
 10
-1051.99998
 20
1007.500011
 30
0.0
 11
-1051.99998
 21
1010.5
 31
0.0
  0
LINE
  5
18CC3
330
1A
100
AcDbEntity
  8
ZISSEN1
100
AcDbLine
 10
-1049.75001
 20
1003.499998
 30
0.0
 11
-1049.75001
 21
1000.5
 31
0.0
  0
LINE
  5
18CC4
330
1A
100
AcDbEntity
  8
ZISSEN1
100
AcDbLine
 10
-1052.0
 20
1003.499998
 30
0.0
 11
-1052.0
 21
1007.500011
 31
0.0
  0
LINE
  5
18CC5
330
1A
100
AcDbEntity
  8
CL1
100
AcDbLine
 10
-1051.50001
 20
1006.499994999999
 30
0.0
 11
-1051.50001
 21
997.5000030000003
 31
0.0
  0
LINE
  5
18CC6
330
1A
100
AcDbEntity
  8
ZISSEN1
100
AcDbLine
 10
-1041.0
 20
1007.500011
 30
0.0
 11
-1051.99998
 21
1007.500011
 31
0.0
  0
LINE
  5
18CC7
330
1A
100
AcDbEntity
  8
ZISSEN1
100
AcDbLine
 10
-1041.11553
 20
1010.5
 30
0.0
 11
-1051.99998
 21
1010.5
 31
0.0
  0
LINE
  5
18CC8
330
1A
100
AcDbEntity
  8
ZISSEN1
100
AcDbLine
 10
-1039.100029999999
 20
1036.90001
 30
0.0
 11
-1037.000029999999
 21
1036.90001
 31
0.0
  0
LINE
  5
18CC9
330
1A
100
AcDbEntity
  8
ZISSEN1
100
AcDbLine
 10
-1039.100029999999
 20
1037.5
 30
0.0
 11
-1037.000029999999
 21
1037.5
 31
0.0
  0
LINE
  5
18CCA
330
1A
100
AcDbEntity
  8
ZISSEN1
100
AcDbLine
 10
-1039.100029999999
 20
1037.5
 30
0.0
 11
-1045.800029999998
 21
1037.5
 31
0.0
  0
LINE
  5
18CCB
330
1A
100
AcDbEntity
  8
ZISSEN1
100
AcDbLine
 10
-1039.100029999999
 20
1036.90001
 30
0.0
 11
-1045.800029999998
 21
1036.90001
 31
0.0
  0
LINE
  5
18CCC
330
1A
100
AcDbEntity
  8
ZISSEN1
100
AcDbLine
 10
-1045.800029999998
 20
1031.49999
 30
0.0
 11
-1047.40003
 21
1031.49999
 31
0.0
  0
LINE
  5
18CCD
330
1A
100
AcDbEntity
  8
ZISSEN1
100
AcDbLine
 10
-1057.40001
 20
1078.0
 30
0.0
 11
-1047.70001
 21
1078.0
 31
0.0
  0
LINE
  5
18CCE
330
1A
100
AcDbEntity
  8
ZISSEN1
100
AcDbLine
 10
-1047.40003
 20
1065.099999999999
 30
0.0
 11
-1057.40001
 21
1065.099999999999
 31
0.0
  0
LINE
  5
18CCF
330
1A
100
AcDbEntity
  8
ZISSEN1
100
AcDbLine
 10
-1047.40003
 20
1070.099999999998
 30
0.0
 11
-1057.40001
 21
1070.099999999998
 31
0.0
  0
LINE
  5
18CD0
330
1A
100
AcDbEntity
  8
ZISSEN1
100
AcDbLine
 10
-1049.200029999998
 20
1056.599999999999
 30
0.0
 11
-1057.40001
 21
1056.599999999999
 31
0.0
  0
LINE
  5
18CD1
330
1A
100
AcDbEntity
  8
ZISSEN1
100
AcDbLine
 10
-1047.70001
 20
1057.80001
 30
0.0
 11
-1057.40001
 21
1057.80001
 31
0.0
  0
LINE
  5
18CD3
330
1A
100
AcDbEntity
  8
ZISSEN1
100
AcDbLine
 10
-1059.000009999998
 20
1070.799999999999
 30
0.0
 11
-1057.40001
 21
1070.799999999999
 31
0.0
  0
LINE
  5
18CD4
330
1A
100
AcDbEntity
  8
ZISSEN1
100
AcDbLine
 10
-1057.40001
 20
1070.09287
 30
0.0
 11
-1059.000009999998
 21
1070.09287
 31
0.0
  0
LINE
  5
18CD5
330
1A
100
AcDbEntity
  8
ZISSEN1
100
AcDbLine
 10
-1059.000009999998
 20
1070.099999999998
 30
0.0
 11
-1062.000019999999
 21
1070.099999999998
 31
0.0
  0
LINE
  5
18CD6
330
1A
100
AcDbEntity
  8
ZISSEN1
100
AcDbLine
 10
-1059.000009999998
 20
1059.5
 30
0.0
 11
-1057.40001
 21
1059.5
 31
0.0
  0
LINE
  5
18CD7
330
1A
100
AcDbEntity
  8
ZISSEN1
100
AcDbLine
 10
-1059.000009999998
 20
1065.099999999999
 30
0.0
 11
-1062.000019999999
 21
1065.099999999999
 31
0.0
  0
LINE
  5
18CD8
330
1A
100
AcDbEntity
  8
ZISSEN1
100
AcDbLine
 10
-1062.000019999999
 20
1070.799999999999
 30
0.0
 11
-1065.0
 21
1070.799999999999
 31
0.0
  0
LINE
  5
18CD9
330
1A
100
AcDbEntity
  8
ZISSEN1
100
AcDbLine
 10
-1062.000019999999
 20
1070.09287
 30
0.0
 11
-1065.0
 21
1070.09287
 31
0.0
  0
LINE
  5
18CDD
330
1A
100
AcDbEntity
  8
ZISSEN1
100
AcDbLine
 10
-1057.40001
 20
1078.0
 30
0.0
 11
-1057.40001
 21
1056.300009999999
 31
0.0
  0
LINE
  5
18CDE
330
1A
100
AcDbEntity
  8
ZISSEN1
100
AcDbLine
 10
-1059.000009999998
 20
1064.5
 30
0.0
 11
-1059.000009999998
 21
1056.50002
 31
0.0
  0
LINE
  5
18CE1
330
1A
100
AcDbEntity
  8
ZISSEN1
100
AcDbLine
 10
-1039.100029999999
 20
1064.9
 30
0.0
 11
-1039.100029999999
 21
1074.5
 31
0.0
  0
LINE
  5
18CE2
330
1A
100
AcDbEntity
  8
ZISSEN1
100
AcDbLine
 10
-1039.100029999999
 20
1069.9
 30
0.0
 11
-1037.000029999999
 21
1069.9
 31
0.0
  0
LINE
  5
18CE3
330
1A
100
AcDbEntity
  8
ZISSEN1
100
AcDbLine
 10
-1039.100029999999
 20
1074.5
 30
0.0
 11
-1037.000029999999
 21
1074.5
 31
0.0
  0
LINE
  5
18CE4
330
1A
100
AcDbEntity
  8
ZISSEN1
100
AcDbLine
 10
-1037.000029999999
 20
1064.9
 30
0.0
 11
-1037.000029999999
 21
1074.5
 31
0.0
  0
LINE
  5
18CE5
330
1A
100
AcDbEntity
  8
ZISSEN1
100
AcDbLine
 10
-1039.100029999999
 20
1074.5
 30
0.0
 11
-1045.800029999998
 21
1074.5
 31
0.0
  0
LINE
  5
18CE8
330
1A
100
AcDbEntity
  8
ZISSEN1
100
AcDbLine
 10
-1039.100029999999
 20
1069.9
 30
0.0
 11
-1045.800029999998
 21
1069.9
 31
0.0
  0
LINE
  5
18CE9
330
1A
100
AcDbEntity
  8
ZISSEN1
100
AcDbLine
 10
-1045.800029999998
 20
1064.9
 30
0.0
 11
-1045.800029999998
 21
1074.5
 31
0.0
  0
LINE
  5
18CEA
330
1A
100
AcDbEntity
  8
ZISSEN1
100
AcDbLine
 10
-1047.70001
 20
1078.0
 30
0.0
 11
-1047.70001
 21
1070.099999999998
 31
0.0
  0
LINE
  5
18CEB
330
1A
100
AcDbEntity
  8
ZISSEN1
100
AcDbLine
 10
-1047.70001
 20
1065.099999999999
 30
0.0
 11
-1047.70001
 21
1057.80001
 31
0.0
  0
DIMENSION
  5
18CEC
330
1A
100
AcDbEntity
  8
SUNPOU
100
AcDbDimension
  2
*D2
 10
-909.2290411161098
 20
1125.75028380028
 30
0.0
 11
-911.9790411161099
 21
1115.25028380028
 31
0.0
 70
    32
  3
標準スタイル
100
AcDbAlignedDimension
 13
-917.937322485416
 23
1129.25027380028
 33
0.0
 14
-917.937322485416
 24
1125.75028380028
 34
0.0
 50
90.0
100
AcDbRotatedDimension
1001
ACAD
1000
DSTYLE
1002
{
1070
    40
1040
1.0
1002
}
  0
LINE
  5
18CED
330
1A
100
AcDbEntity
  8
ZISSEN1
100
AcDbLine
 10
-1004.0
 20
1115.099999999999
 30
0.0
 11
-1004.0
 21
1121.799999999999
 31
0.0
  0
LINE
  5
18CEE
330
1A
100
AcDbEntity
  8
ZISSEN1
100
AcDbLine
 10
-988.7
 20
1115.099999999999
 30
0.0
 11
-988.7
 21
1121.799999999999
 31
0.0
  0
LINE
  5
18CEF
330
1A
100
AcDbEntity
  8
ZISSEN1
100
AcDbLine
 10
-928.5499999999997
 20
1115.099999999999
 30
0.0
 11
-928.5499999999997
 21
1121.8
 31
0.0
  0
LINE
  5
18CF0
330
1A
100
AcDbEntity
  8
ZISSEN1
100
AcDbLine
 10
-953.4500000000001
 20
1115.099999999999
 30
0.0
 11
-953.4500000000001
 21
1121.8
 31
0.0
  0
LINE
  5
18CF1
330
1A
100
AcDbEntity
  8
ZISSEN1
100
AcDbLine
 10
-954.0499999999999
 20
1115.099999999999
 30
0.0
 11
-954.0499999999999
 21
1121.8
 31
0.0
  0
LINE
  5
18CF2
330
1A
100
AcDbEntity
  8
ZISSEN1
100
AcDbLine
 10
-963.9499999999999
 20
1115.099999999999
 30
0.0
 11
-963.9499999999999
 21
1121.8
 31
0.0
  0
DIMENSION
  5
18CF5
330
1A
100
AcDbEntity
  8
SUNPOU
100
AcDbDimension
  2
*D3
 10
-917.0
 20
975.1879003921676
 30
0.0
 11
-960.5000099999998
 21
977.9379003921675
 31
0.0
 70
    32
  1
(87)
  3
標準スタイル
100
AcDbAlignedDimension
 13
-1004.000019999998
 23
1014.799999999999
 33
0.0
 14
-917.0
 24
1000.0
 34
0.0
100
AcDbRotatedDimension
1001
ACAD
1000
DSTYLE
1002
{
1070
    40
1040
1.0
1002
}
  0
LINE
  5
18CF6
330
1A
100
AcDbEntity
  8
ZISSEN1
100
AcDbLine
 10
-953.4500000000001
 20
1117.2
 30
0.0
 11
-928.5499999999997
 21
1117.2
 31
0.0
  0
DIMENSION
  5
18CF7
330
1A
100
AcDbEntity
  8
SUNPOU
100
AcDbDimension
  2
*D4
 10
-921.75001
 20
1093.583099622315
 30
0.0
 11
-958.5000049999999
 21
1096.333099622315
 31
0.0
 70
    32
  3
標準スタイル
100
AcDbAlignedDimension
 13
-995.25
 23
1069.2
 33
0.0
 14
-921.75001
 24
1069.79287
 34
0.0
100
AcDbRotatedDimension
1001
ACAD
1000
DSTYLE
1002
{
1070
    40
1040
1.0
1002
}
  0
DIMENSION
  5
18CF8
330
1A
100
AcDbEntity
  8
SUNPOU
100
AcDbDimension
  2
*D5
 10
-917.0
 20
987.672915975108
 30
0.0
 11
-958.5
 21
990.422915975108
 31
0.0
 70
    32
  3
標準スタイル
100
AcDbAlignedDimension
 13
-1000.0
 23
1000.5
 33
0.0
 14
-917.0
 24
1000.5
 34
0.0
100
AcDbRotatedDimension
1001
ACAD
1000
DSTYLE
1002
{
1070
    40
1040
1.0
1002
}
  0
LINE
  5
18CF9
330
1A
100
AcDbEntity
  8
ZISSEN1
100
AcDbLine
 10
-949.8000099999996
 20
1078.00001
 30
0.0
 11
-930.2000000000001
 21
1078.00001
 31
0.0
  0
LINE
  5
18CFA
330
1A
100
AcDbEntity
  8
ZISSEN1
100
AcDbLine
 10
-953.4500000000001
 20
1115.100375128877
 30
0.0
 11
-928.5499999999997
 21
1115.099999999999
 31
0.0
  0
LINE
  5
18CFB
330
1A
100
AcDbEntity
  8
ZISSEN1
100
AcDbLine
 10
-953.4500199999998
 20
1059.95002
 30
0.0
 11
-928.5500199999999
 21
1059.95002
 31
0.0
  0
LINE
  5
18CFC
330
1A
100
AcDbEntity
  8
ZISSEN1
100
AcDbLine
 10
-953.4500199999998
 20
1074.50002
 30
0.0
 11
-928.5500199999999
 21
1074.50002
 31
0.0
  0
LINE
  5
18CFD
330
1A
100
AcDbEntity
  8
ZISSEN1
100
AcDbLine
 10
-955.7928999999999
 20
1031.49999
 30
0.0
 11
-922.4571199999999
 21
1031.49999
 31
0.0
  0
LINE
  5
18CFE
330
1A
100
AcDbEntity
  8
ZISSEN1
100
AcDbLine
 10
-955.7499899999999
 20
1003.499998
 30
0.0
 11
-924.24999
 21
1003.499998
 31
0.0
  0
LINE
  5
18CFF
330
1A
100
AcDbEntity
  8
ZISSEN1
100
AcDbLine
 10
-955.7499899999999
 20
1007.500011
 30
0.0
 11
-924.24999
 21
1007.500011
 31
0.0
  0
LINE
  5
18D00
330
1A
100
AcDbEntity
  8
ZISSEN1
100
AcDbLine
 10
-1000.0
 20
1003.499998
 30
0.0
 11
-917.0
 21
1003.499998
 31
0.0
  0
LINE
  5
18D01
330
1A
100
AcDbEntity
  8
ZISSEN1
100
AcDbLine
 10
-1000.0
 20
1000.5
 30
0.0
 11
-917.0
 21
1000.5
 31
0.0
  0
LINE
  5
18D02
330
1A
100
AcDbEntity
  8
ZISSEN1
100
AcDbLine
 10
-1004.000019999998
 20
1037.5
 30
0.0
 11
-1004.000019999998
 21
1069.9
 31
0.0
  0
LINE
  5
18D03
330
1A
100
AcDbEntity
  8
ZISSEN1
100
AcDbLine
 10
-988.7000200000001
 20
1037.5
 30
0.0
 11
-988.7000200000001
 21
1069.9
 31
0.0
  0
LINE
  5
18D04
330
1A
100
AcDbEntity
  8
ZISSEN1
100
AcDbLine
 10
-977.0
 20
1010.5
 30
0.0
 11
-940.0000099999999
 21
1010.5
 31
0.0
  0
LINE
  5
18D05
330
1A
100
AcDbEntity
  8
ZISSEN1
100
AcDbLine
 10
-956.50001
 20
1014.0
 30
0.0
 11
-961.5
 21
1013.999998685696
 31
0.0
  0
LINE
  5
18D06
330
1A
100
AcDbEntity
  8
ZISSEN1
100
AcDbLine
 10
-992.74999
 20
1003.499998
 30
0.0
 11
-961.2499900000001
 21
1003.499998
 31
0.0
  0
LINE
  5
18D07
330
1A
100
AcDbEntity
  8
ZISSEN1
100
AcDbLine
 10
-992.74999
 20
1007.500011
 30
0.0
 11
-961.2499900000001
 21
1007.500011
 31
0.0
  0
LINE
  5
18D08
330
1A
100
AcDbEntity
  8
ZISSEN1
100
AcDbLine
 10
-1004.000019999998
 20
1014.499999999999
 30
0.0
 11
-1004.000019999998
 21
1036.90001
 31
0.0
  0
LINE
  5
18D09
330
1A
100
AcDbEntity
  8
ZISSEN1
100
AcDbLine
 10
-988.7000200000001
 20
1014.499999999999
 30
0.0
 11
-988.7000200000001
 21
1036.90001
 31
0.0
  0
LINE
  5
18D0B
330
1A
100
AcDbEntity
  8
ZISSEN1
100
AcDbLine
 10
-1004.000019999998
 20
1014.499999999999
 30
0.0
 11
-988.7000200000001
 21
1014.499999999999
 31
0.0
  0
LINE
  5
18D0C
330
1A
100
AcDbEntity
  8
CL1
100
AcDbLine
 10
-997.0000199999999
 20
1006.499994999999
 30
0.0
 11
-997.0000199999999
 21
997.4999910000001
 31
0.0
  0
LINE
  5
18D0D
330
1A
100
AcDbEntity
  8
ZISSEN1
100
AcDbLine
 10
-1000.0
 20
1000.5
 30
0.0
 11
-1000.0
 21
1003.499998
 31
0.0
  0
LINE
  5
18D0E
330
1A
100
AcDbEntity
  8
ZISSEN1
100
AcDbLine
 10
-999.2929
 20
1003.499998
 30
0.0
 11
-999.2929
 21
1000.5
 31
0.0
  0
LINE
  5
18D0F
330
1A
100
AcDbEntity
  8
ZISSEN1
100
AcDbLine
 10
-995.25
 20
1014.499999999999
 30
0.0
 11
-995.25
 21
1003.499998
 31
0.0
  0
LINE
  5
18D10
330
1A
100
AcDbEntity
  8
ZISSEN1
100
AcDbLine
 10
-977.0
 20
1010.5
 30
0.0
 11
-977.0
 21
1007.500011
 31
0.0
  0
LINE
  5
18D11
330
1A
100
AcDbEntity
  8
ZISSEN1
100
AcDbLine
 10
-992.74999
 20
1007.500011
 30
0.0
 11
-992.74999
 21
1003.499998
 31
0.0
  0
LINE
  5
18D12
330
1A
100
AcDbEntity
  8
ZISSEN1
100
AcDbLine
 10
-1004.000019999998
 20
1037.5
 30
0.0
 11
-988.7000200000001
 21
1037.5
 31
0.0
  0
LINE
  5
18D13
330
1A
100
AcDbEntity
  8
ZISSEN1
100
AcDbLine
 10
-1004.000019999998
 20
1036.90001
 30
0.0
 11
-988.7000200000001
 21
1036.90001
 31
0.0
  0
LINE
  5
18D14
330
1A
100
AcDbEntity
  8
ZISSEN1
100
AcDbLine
 10
-995.25
 20
1036.90001
 30
0.0
 11
-995.25
 21
1037.5
 31
0.0
  0
LINE
  5
18D15
330
1A
100
AcDbEntity
  8
ZISSEN1
100
AcDbLine
 10
-956.50001
 20
1030.792879999999
 30
0.0
 11
-956.50001
 21
1014.0
 31
0.0
  0
LINE
  5
18D16
330
1A
100
AcDbEntity
  8
ZISSEN1
100
AcDbLine
 10
-961.2499900000001
 20
1007.500011
 30
0.0
 11
-955.7499899999999
 21
1007.500011
 31
0.0
  0
LINE
  5
18D17
330
1A
100
AcDbEntity
  8
ZISSEN1
100
AcDbLine
 10
-961.2499900000001
 20
1007.500011
 30
0.0
 11
-961.2499900000001
 21
1003.499998
 31
0.0
  0
LINE
  5
18D19
330
1A
100
AcDbEntity
  8
ZISSEN1
100
AcDbLine
 10
-940.0000099999999
 20
1010.5
 30
0.0
 11
-940.0000099999999
 21
1007.500011
 31
0.0
  0
LINE
  5
18D1A
330
1A
100
AcDbEntity
  8
ZISSEN1
100
AcDbLine
 10
-955.7499899999999
 20
1007.500011
 30
0.0
 11
-955.7499899999999
 21
1003.499998
 31
0.0
  0
LINE
  5
18D1B
330
1A
100
AcDbEntity
  8
ZISSEN1
  6
CONTINUOUS
 62
     7
100
AcDbLine
 10
-964.9202536358172
 20
1020.381055513185
 30
0.0
 11
-964.9202536358172
 21
1021.181075513185
 31
0.0
  0
LINE
  5
18D1C
330
1A
100
AcDbEntity
  8
ZISSEN1
  6
CONTINUOUS
 62
     7
100
AcDbLine
 10
-963.3202636358172
 20
1021.181075513185
 30
0.0
 11
-963.3202636358172
 21
1020.381055513185
 31
0.0
  0
LINE
  5
18D1D
330
1A
100
AcDbEntity
  8
ZISSEN1
  6
CONTINUOUS
 62
     7
100
AcDbLine
 10
-963.3202636358172
 20
1020.381055513185
 30
0.0
 11
-964.9202536358172
 21
1020.381055513185
 31
0.0
  0
LINE
  5
18D1E
330
1A
100
AcDbEntity
  8
ZISSEN1
  6
CONTINUOUS
 62
     7
100
AcDbLine
 10
-964.9202536358172
 20
1021.181075513185
 30
0.0
 11
-963.3202636358172
 21
1021.181075513185
 31
0.0
  0
LINE
  5
18D1F
330
1A
100
AcDbEntity
  8
ZISSEN1
  6
CONTINUOUS
 62
     7
100
AcDbLine
 10
-964.9202536358172
 20
1021.972095173172
 30
0.0
 11
-964.9202536358172
 21
1022.772115173171
 31
0.0
  0
LINE
  5
18D20
330
1A
100
AcDbEntity
  8
ZISSEN1
  6
CONTINUOUS
 62
     7
100
AcDbLine
 10
-963.3202636358172
 20
1022.772115173171
 30
0.0
 11
-963.3202636358172
 21
1021.972095173172
 31
0.0
  0
LINE
  5
18D21
330
1A
100
AcDbEntity
  8
ZISSEN1
  6
CONTINUOUS
 62
     7
100
AcDbLine
 10
-963.3202636358172
 20
1021.972095173172
 30
0.0
 11
-964.9202536358172
 21
1021.972095173172
 31
0.0
  0
LINE
  5
18D22
330
1A
100
AcDbEntity
  8
ZISSEN1
  6
CONTINUOUS
 62
     7
100
AcDbLine
 10
-964.9202536358172
 20
1022.772115173171
 30
0.0
 11
-963.3202636358172
 21
1022.772115173171
 31
0.0
  0
LINE
  5
18D23
330
1A
100
AcDbEntity
  8
ZISSEN1
  6
CONTINUOUS
 62
     7
100
AcDbLine
 10
-964.9202536358172
 20
1023.479396065773
 30
0.0
 11
-964.9202536358172
 21
1024.279416065772
 31
0.0
  0
LINE
  5
18D24
330
1A
100
AcDbEntity
  8
ZISSEN1
  6
CONTINUOUS
 62
     7
100
AcDbLine
 10
-963.3202636358172
 20
1024.279416065772
 30
0.0
 11
-963.3202636358172
 21
1023.479396065773
 31
0.0
  0
LINE
  5
18D25
330
1A
100
AcDbEntity
  8
ZISSEN1
  6
CONTINUOUS
 62
     7
100
AcDbLine
 10
-963.3202636358172
 20
1023.479396065773
 30
0.0
 11
-964.9202536358172
 21
1023.479396065773
 31
0.0
  0
LINE
  5
18D26
330
1A
100
AcDbEntity
  8
ZISSEN1
  6
CONTINUOUS
 62
     7
100
AcDbLine
 10
-964.9202536358172
 20
1024.279416065772
 30
0.0
 11
-963.3202636358172
 21
1024.279416065772
 31
0.0
  0
LINE
  5
18D27
330
1A
100
AcDbEntity
  8
ZISSEN1
  6
CONTINUOUS
 62
     7
100
AcDbLine
 10
-964.9202536358172
 20
1025.070436165711
 30
0.0
 11
-964.9202536358172
 21
1025.870456165712
 31
0.0
  0
LINE
  5
18D28
330
1A
100
AcDbEntity
  8
ZISSEN1
  6
CONTINUOUS
 62
     7
100
AcDbLine
 10
-963.3202636358172
 20
1025.870456165712
 30
0.0
 11
-963.3202636358172
 21
1025.070436165711
 31
0.0
  0
LINE
  5
18D29
330
1A
100
AcDbEntity
  8
ZISSEN1
  6
CONTINUOUS
 62
     7
100
AcDbLine
 10
-963.3202636358172
 20
1025.070436165711
 30
0.0
 11
-964.9202536358172
 21
1025.070436165711
 31
0.0
  0
LINE
  5
18D2A
330
1A
100
AcDbEntity
  8
ZISSEN1
  6
CONTINUOUS
 62
     7
100
AcDbLine
 10
-964.9202536358172
 20
1025.870456165712
 30
0.0
 11
-963.3202636358172
 21
1025.870456165712
 31
0.0
  0
LINE
  5
18D2B
330
1A
100
AcDbEntity
  8
ZISSEN1
  6
CONTINUOUS
 62
     7
100
AcDbLine
 10
-964.9226331618468
 20
1027.389317685786
 30
0.0
 11
-963.3226431618467
 21
1027.389317685786
 31
0.0
  0
LINE
  5
18D2C
330
1A
100
AcDbEntity
  8
ZISSEN1
  6
CONTINUOUS
 62
     7
100
AcDbLine
 10
-963.3226431618467
 20
1026.589297685785
 30
0.0
 11
-964.9226331618468
 21
1026.589297685785
 31
0.0
  0
LINE
  5
18D2D
330
1A
100
AcDbEntity
  8
ZISSEN1
  6
CONTINUOUS
 62
     7
100
AcDbLine
 10
-963.3226431618467
 20
1027.389317685786
 30
0.0
 11
-963.3226431618467
 21
1026.589297685785
 31
0.0
  0
LINE
  5
18D2E
330
1A
100
AcDbEntity
  8
ZISSEN1
  6
CONTINUOUS
 62
     7
100
AcDbLine
 10
-964.9226331618468
 20
1026.589297685785
 30
0.0
 11
-964.9226331618468
 21
1027.389317685786
 31
0.0
  0
LINE
  5
18D2F
330
1A
100
AcDbEntity
  8
ZISSEN1
100
AcDbLine
 10
-955.7928999999999
 20
1031.49999
 30
0.0
 11
-956.50001
 21
1030.792879999999
 31
0.0
  0
LINE
  5
18D34
330
1A
100
AcDbEntity
  8
ZISSEN1
100
AcDbLine
 10
-995.25
 20
1069.79287
 30
0.0
 11
-994.5428900000001
 21
1070.5
 31
0.0
  0
LINE
  5
18D35
330
1A
100
AcDbEntity
  8
ZISSEN1
100
AcDbLine
 10
-1004.000019999998
 20
1069.9
 30
0.0
 11
-988.7000200000001
 21
1069.9
 31
0.0
  0
LINE
  5
18D38
330
1A
100
AcDbEntity
  8
ZISSEN1
100
AcDbLine
 10
-994.5428900000001
 20
1070.5
 30
0.0
 11
-964.5500199999997
 21
1070.5
 31
0.0
  0
LINE
  5
18D39
330
1A
100
AcDbEntity
  8
ZISSEN1
100
AcDbLine
 10
-1004.0
 20
1117.2
 30
0.0
 11
-988.7
 21
1117.2
 31
0.0
  0
LINE
  5
18D3A
330
1A
100
AcDbEntity
  8
ZISSEN1
100
AcDbLine
 10
-1004.0
 20
1115.099999999999
 30
0.0
 11
-988.7
 21
1115.099999999999
 31
0.0
  0
LINE
  5
18D3E
330
1A
100
AcDbEntity
  8
ZISSEN1
100
AcDbLine
 10
-960.05
 20
1078.00001
 30
0.0
 11
-951.5000199999999
 21
1078.00001
 31
0.0
  0
LINE
  5
18D3F
330
1A
100
AcDbEntity
  8
ZISSEN1
100
AcDbLine
 10
-963.9500299999999
 20
1074.50002
 30
0.0
 11
-954.0500299999999
 21
1074.50002
 31
0.0
  0
LINE
  5
18D40
330
1A
100
AcDbEntity
  8
ZISSEN1
100
AcDbLine
 10
-963.9500299999999
 20
1059.95002
 30
0.0
 11
-954.0500299999999
 21
1059.95002
 31
0.0
  0
LINE
  5
18D41
330
1A
100
AcDbEntity
  8
ZISSEN1
100
AcDbLine
 10
-960.05
 20
1078.00001
 30
0.0
 11
-960.05
 21
1074.50002
 31
0.0
  0
LINE
  5
18D42
330
1A
100
AcDbEntity
  8
ZISSEN1
100
AcDbLine
 10
-964.5500199999997
 20
1070.5
 30
0.0
 11
-963.9500299999999
 21
1070.5
 31
0.0
  0
LINE
  5
18D44
330
1A
100
AcDbEntity
  8
ZISSEN1
100
AcDbLine
 10
-963.9500299999999
 20
1074.50002
 30
0.0
 11
-963.9500299999999
 21
1059.95002
 31
0.0
  0
LINE
  5
18D45
330
1A
100
AcDbEntity
  8
ZISSEN1
100
AcDbLine
 10
-949.8000099999996
 20
1078.00001
 30
0.0
 11
-949.8000099999996
 21
1074.50002
 31
0.0
  0
LINE
  5
18D46
330
1A
100
AcDbEntity
  8
ZISSEN1
100
AcDbLine
 10
-951.5000199999999
 20
1078.00001
 30
0.0
 11
-951.5000199999999
 21
1074.50002
 31
0.0
  0
LINE
  5
18D47
330
1A
100
AcDbEntity
  8
ZISSEN1
100
AcDbLine
 10
-954.0500299999999
 20
1070.5
 30
0.0
 11
-953.4500199999998
 21
1070.5
 31
0.0
  0
LINE
  5
18D48
330
1A
100
AcDbEntity
  8
ZISSEN1
100
AcDbLine
 10
-953.4500199999998
 20
1074.50002
 30
0.0
 11
-953.4500199999998
 21
1059.95
 31
0.0
  0
LINE
  5
18D49
330
1A
100
AcDbEntity
  8
ZISSEN1
100
AcDbLine
 10
-954.0500299999999
 20
1074.50002
 30
0.0
 11
-954.0500299999999
 21
1059.95002
 31
0.0
  0
LINE
  5
18D4A
330
1A
100
AcDbEntity
  8
ZISSEN1
100
AcDbLine
 10
-954.0499999999997
 20
1117.2
 30
0.0
 11
-963.9499999999999
 21
1117.2
 31
0.0
  0
LINE
  5
18D4B
330
1A
100
AcDbEntity
  8
ZISSEN1
100
AcDbLine
 10
-963.9499999999999
 20
1115.100388093003
 30
0.0
 11
-954.0499999999997
 21
1115.100375869684
 31
0.0
  0
LINE
  5
18D4C
330
1A
100
AcDbEntity
  8
ZISSEN1
100
AcDbLine
 10
-964.887352485416
 20
1115.100389250332
 30
0.0
 11
-964.887352485416
 21
1115.100389250332
 31
0.0
  0
DIMENSION
  5
18D51
330
1A
100
AcDbEntity
  8
SUNPOU
100
AcDbDimension
  2
*D6
 10
-895.9219332122939
 20
1000.5
 30
0.0
 11
-898.6719332122939
 21
1039.250004999999
 31
0.0
 70
    32
  1
(77.5)
  3
標準スタイル
100
AcDbAlignedDimension
 13
-930.2000000000001
 23
1078.00001
 33
0.0
 14
-916.5
 24
1000.5
 34
0.0
 50
90.0
100
AcDbRotatedDimension
1001
ACAD
1000
DSTYLE
1002
{
1070
    40
1040
1.0
1002
}
  0
DIMENSION
  5
18D52
330
1A
100
AcDbEntity
  8
SUNPOU
100
AcDbDimension
  2
*D7
 10
-908.2917186306938
 20
1070.5
 30
0.0
 11
-911.0417186306939
 21
1035.5
 31
0.0
 70
    32
  3
標準スタイル
100
AcDbAlignedDimension
 13
-917.0
 23
1000.5
 33
0.0
 14
-922.4571199999999
 24
1070.5
 34
0.0
 50
90.0
100
AcDbRotatedDimension
1001
ACAD
1000
DSTYLE
1002
{
1070
    40
1040
1.0
1002
}
  0
LINE
  5
18D53
330
1A
100
AcDbEntity
  8
ZISSEN1
100
AcDbLine
 10
-921.75001
 20
1032.2071
 30
0.0
 11
-921.75001
 21
1069.79287
 31
0.0
  0
LINE
  5
18D54
330
1A
100
AcDbEntity
  8
ZISSEN1
100
AcDbLine
 10
-921.75001
 20
1032.2071
 30
0.0
 11
-921.75001
 21
1003.499998
 31
0.0
  0
LINE
  5
18D55
330
1A
100
AcDbEntity
  8
ZISSEN1
100
AcDbLine
 10
-924.24999
 20
1007.500011
 30
0.0
 11
-924.24999
 21
1003.499998
 31
0.0
  0
LINE
  5
18D56
330
1A
100
AcDbEntity
  8
CL1
100
AcDbLine
 10
-919.9999899999999
 20
1006.499994999999
 30
0.0
 11
-919.9999899999999
 21
997.5000030000003
 31
0.0
  0
LINE
  5
18D57
330
1A
100
AcDbEntity
  8
ZISSEN1
100
AcDbLine
 10
-917.0
 20
1000.5
 30
0.0
 11
-917.0
 21
1003.499998
 31
0.0
  0
LINE
  5
18D58
330
1A
100
AcDbEntity
  8
ZISSEN1
100
AcDbLine
 10
-917.7071099999999
 20
1003.499998
 30
0.0
 11
-917.7071099999999
 21
1000.5
 31
0.0
  0
LINE
  5
18D59
330
1A
100
AcDbEntity
  8
ZISSEN1
100
AcDbLine
 10
-922.4571199999999
 20
1031.49999
 30
0.0
 11
-921.75001
 21
1032.2071
 31
0.0
  0
LINE
  5
18D5A
330
1A
100
AcDbEntity
  8
ZISSEN1
100
AcDbLine
 10
-930.2000000000001
 20
1078.00001
 30
0.0
 11
-930.2000000000001
 21
1074.50002
 31
0.0
  0
LINE
  5
18D5B
330
1A
100
AcDbEntity
  8
ZISSEN1
100
AcDbLine
 10
-922.4571199999999
 20
1070.5
 30
0.0
 11
-921.75001
 21
1069.79287
 31
0.0
  0
LINE
  5
18D5C
330
1A
100
AcDbEntity
  8
ZISSEN1
100
AcDbLine
 10
-928.5500199999999
 20
1070.5
 30
0.0
 11
-922.4571199999999
 21
1070.5
 31
0.0
  0
LINE
  5
18D5D
330
1A
100
AcDbEntity
  8
ZISSEN1
100
AcDbLine
 10
-928.5500199999999
 20
1074.50002
 30
0.0
 11
-928.5500199999999
 21
1059.95
 31
0.0
  0
DIMENSION
  5
18D5F
330
1A
100
AcDbEntity
  8
SUNPOU
100
AcDbDimension
  2
*D8
 10
-920.9355986015891
 20
1148.220719580012
 30
0.0
 11
-959.4364705435022
 21
1150.970719580012
 31
0.0
 70
    32
  3
標準スタイル
100
AcDbAlignedDimension
 13
-997.9373424854159
 23
1131.000359250331
 33
0.0
 14
-920.9355986015891
 24
1130.500225896639
 34
0.0
100
AcDbRotatedDimension
1001
ACAD
1000
DSTYLE
1002
{
1070
    40
1040
1.0
1002
}
  0
LINE
  5
18D60
330
1A
100
AcDbEntity
  8
ZISSEN1
100
AcDbLine
 10
-949.8000324854158
 20
1133.400369250332
 30
0.0
 11
-930.2000224854159
 21
1133.400369250332
 31
0.0
  0
LINE
  5
18D61
330
1A
100
AcDbEntity
  8
ZISSEN1
100
AcDbLine
 10
-930.2000224854159
 20
1123.700379250331
 30
0.0
 11
-949.8000324854158
 21
1123.700379250331
 31
0.0
  0
LINE
  5
18D62
330
1A
100
AcDbEntity
  8
ZISSEN1
100
AcDbLine
 10
-995.25
 20
1141.0
 30
0.0
 11
-921.7499999999999
 21
1141.0
 31
0.0
  0
LINE
  5
18D63
330
1A
100
AcDbEntity
  8
ZISSEN1
100
AcDbLine
 10
-995.25
 20
1135.0
 30
0.0
 11
-921.7499999999999
 21
1135.0
 31
0.0
  0
LINE
  5
18D64
330
1A
100
AcDbEntity
  8
ZISSEN1
100
AcDbLine
 10
-995.25
 20
1133.4
 30
0.0
 11
-921.7499999999999
 21
1133.4
 31
0.0
  0
LINE
  5
18D65
330
1A
100
AcDbEntity
  8
ZISSEN1
100
AcDbLine
 10
-995.25
 20
1123.4
 30
0.0
 11
-921.7499999999999
 21
1123.4
 31
0.0
  0
LINE
  5
18D66
330
1A
100
AcDbEntity
  8
ZISSEN1
100
AcDbLine
 10
-996.1873224854159
 20
1121.8
 30
0.0
 11
-921.7499999999999
 21
1121.8
 31
0.0
  0
LINE
  5
18D67
330
1A
100
AcDbEntity
  8
ZISSEN1
100
AcDbLine
 10
-918.6444324854159
 20
1138.0
 30
0.0
 11
-1000.230222485415
 21
1138.0
 31
0.0
  0
DIMENSION
  5
18D6B
330
1A
100
AcDbEntity
  8
SUNPOU
100
AcDbDimension
  2
*D9
 10
-997.9373424854159
 20
1148.220719580012
 30
0.0
 11
-1009.103989152082
 21
1148.220719580012
 31
0.0
 70
   160
  3
標準スタイル
100
AcDbAlignedDimension
 13
-1000.937322485416
 23
1137.293239250332
 33
0.0
 14
-997.9373424854159
 24
1130.500359250331
 34
0.0
100
AcDbRotatedDimension
1001
ACAD
1000
DSTYLE
1002
{
1070
    40
1040
1.0
1002
}
  0
LINE
  5
18D6C
330
1A
100
AcDbEntity
  8
ZISSEN1
100
AcDbLine
 10
-1004.0
 20
1121.799999999999
 30
0.0
 11
-989.6499999999999
 21
1121.799999999999
 31
0.0
  0
ARC
  5
18D6D
330
1A
100
AcDbEntity
  8
ZISSEN1
100
AcDbCircle
 10
-996.9373574853657
 20
1127.500349250294
 30
0.0
 40
1.749999899999999
100
AcDbArc
 50
270.0
 51
90.0
  0
LINE
  5
18D6E
330
1A
100
AcDbEntity
  8
CL1
100
AcDbLine
 10
-994.9373474853658
 20
1127.500349250294
 30
0.0
 11
-1000.937337485365
 21
1127.500349250294
 31
0.0
  0
DIMENSION
  5
18D6F
330
1A
100
AcDbEntity
  8
SUNPOU
100
AcDbDimension
  2
*D10
 10
-1010.003545347015
 20
1127.500349250294
 30
0.0
 11
-1012.753545347016
 21
1134.250364250313
 31
0.0
 70
    32
  3
標準スタイル
100
AcDbAlignedDimension
 13
-996.1873224854159
 23
1141.000379250332
 33
0.0
 14
-1000.937337485365
 24
1127.500349250294
 34
0.0
 50
90.0
100
AcDbRotatedDimension
1001
ACAD
1000
DSTYLE
1002
{
1070
    40
1040
1.0
1002
}
  0
LINE
  5
18D70
330
1A
100
AcDbEntity
  8
ZISSEN1
100
AcDbLine
 10
-995.25
 20
1133.400369250332
 30
0.0
 11
-995.25
 21
1135.000359250332
 31
0.0
  0
LINE
  5
18D71
330
1A
100
AcDbEntity
  8
ZISSEN1
100
AcDbLine
 10
-995.25
 20
1138.000369250332
 30
0.0
 11
-995.25
 21
1141.000379250332
 31
0.0
  0
LINE
  5
18D72
330
1A
100
AcDbEntity
  8
ZISSEN1
100
AcDbLine
 10
-1000.937322485416
 20
1137.293239250332
 30
0.0
 11
-1000.230222485415
 21
1138.000369250332
 31
0.0
  0
LINE
  5
18D73
330
1A
100
AcDbEntity
  8
ZISSEN1
100
AcDbLine
 10
-995.25
 20
1121.800389250332
 30
0.0
 11
-995.25
 21
1123.400379250331
 31
0.0
  0
LINE
  5
18D74
330
1A
100
AcDbEntity
  8
ZISSEN1
100
AcDbLine
 10
-1000.937330117946
 20
1121.799999999999
 30
0.0
 11
-1000.937337485365
 21
1125.750359250295
 31
0.0
  0
LINE
  5
18D75
330
1A
100
AcDbEntity
  8
ZISSEN1
100
AcDbLine
 10
-996.9373574853657
 20
1125.750359250295
 30
0.0
 11
-1000.937337485365
 21
1125.750359250295
 31
0.0
  0
LINE
  5
18D76
330
1A
100
AcDbEntity
  8
ZISSEN1
100
AcDbLine
 10
-996.9373574853657
 20
1129.250349250294
 30
0.0
 11
-1000.937337485365
 21
1129.250349250294
 31
0.0
  0
LINE
  5
18D77
330
1A
100
AcDbEntity
  8
CL1
100
AcDbLine
 10
-997.9373424854159
 20
1124.500339250331
 30
0.0
 11
-997.9373424854159
 21
1130.500359250331
 31
0.0
  0
LINE
  5
18D78
330
1A
100
AcDbEntity
  8
ZISSEN1
100
AcDbLine
 10
-1000.937322485416
 20
1137.293239250332
 30
0.0
 11
-1000.937322485416
 21
1129.250349250294
 31
0.0
  0
LINE
  5
18D7A
330
1A
100
AcDbEntity
  8
ZISSEN1
100
AcDbLine
 10
-980.9373124854159
 20
1138.000369250332
 30
0.0
 11
-980.9373124854159
 21
1141.000379250332
 31
0.0
  0
LINE
  5
18D7B
330
1A
100
AcDbEntity
  8
ZISSEN1
100
AcDbLine
 10
-981.6444224854159
 20
1138.000369250332
 30
0.0
 11
-981.6444224854159
 21
1141.000379250332
 31
0.0
  0
LINE
  5
18D7C
330
1A
100
AcDbEntity
  8
ZISSEN1
100
AcDbLine
 10
-983.937322485416
 20
1135.000359250332
 30
0.0
 11
-983.937322485416
 21
1138.000369250332
 31
0.0
  0
LINE
  5
18D7D
330
1A
100
AcDbEntity
  8
ZISSEN1
100
AcDbLine
 10
-988.937332485416
 20
1135.000359250332
 30
0.0
 11
-988.937332485416
 21
1138.000369250332
 31
0.0
  0
LINE
  5
18D7E
330
1A
100
AcDbEntity
  8
ZISSEN1
100
AcDbLine
 10
-994.25
 20
1133.400369250332
 30
0.0
 11
-994.25
 21
1135.000359250332
 31
0.0
  0
LINE
  5
18D7F
330
1A
100
AcDbEntity
  8
ZISSEN1
100
AcDbLine
 10
-994.25
 20
1138.000369250332
 30
0.0
 11
-994.25
 21
1141.000379250332
 31
0.0
  0
LINE
  5
18D80
330
1A
100
AcDbEntity
  8
ZISSEN1
100
AcDbLine
 10
-994.25
 20
1121.800389250332
 30
0.0
 11
-994.25
 21
1123.400379250331
 31
0.0
  0
LINE
  5
18D81
330
1A
100
AcDbEntity
  8
ZISSEN1
100
AcDbLine
 10
-983.937322485416
 20
1133.400369250332
 30
0.0
 11
-983.937322485416
 21
1123.400379250331
 31
0.0
  0
LINE
  5
18D82
330
1A
100
AcDbEntity
  8
ZISSEN1
100
AcDbLine
 10
-988.937332485416
 20
1133.400369250332
 30
0.0
 11
-988.937332485416
 21
1123.400379250331
 31
0.0
  0
LINE
  5
18D83
330
1A
100
AcDbEntity
  8
ZISSEN1
100
AcDbLine
 10
-953.4500000000001
 20
1117.0
 30
0.0
 11
-954.0499999999999
 21
1117.0
 31
0.0
  0
LINE
  5
18D84
330
1A
100
AcDbEntity
  8
ZISSEN1
100
AcDbLine
 10
-960.0500224854156
 20
1133.400369250332
 30
0.0
 11
-950.9500324854158
 21
1133.400369250332
 31
0.0
  0
LINE
  5
18D85
330
1A
100
AcDbEntity
  8
ZISSEN1
100
AcDbLine
 10
-950.9500324854158
 20
1123.700379250331
 30
0.0
 11
-960.0500224854156
 21
1123.700379250331
 31
0.0
  0
LINE
  5
18D8F
330
1A
100
AcDbEntity
  8
ZISSEN1
100
AcDbLine
 10
-964.4373024854159
 20
1138.000369250332
 30
0.0
 11
-964.4373024854159
 21
1141.000379250332
 31
0.0
  0
LINE
  5
18D90
330
1A
100
AcDbEntity
  8
ZISSEN1
100
AcDbLine
 10
-963.730192485416
 20
1138.000369250332
 30
0.0
 11
-963.730192485416
 21
1141.000379250332
 31
0.0
  0
LINE
  5
18D99
330
1A
100
AcDbEntity
  8
ZISSEN1
100
AcDbLine
 10
-960.0500224854156
 20
1123.7
 30
0.0
 11
-960.0500224854156
 21
1133.4
 31
0.0
  0
LINE
  5
18D9D
330
1A
100
AcDbEntity
  8
ZISSEN1
100
AcDbLine
 10
-949.8000324854158
 20
1123.7
 30
0.0
 11
-949.8000324854158
 21
1133.4
 31
0.0
  0
LINE
  5
18D9E
330
1A
100
AcDbEntity
  8
ZISSEN1
100
AcDbLine
 10
-950.9500324854158
 20
1133.4
 30
0.0
 11
-950.9500324854158
 21
1123.7
 31
0.0
  0
DIMENSION
  5
18D9F
330
1A
100
AcDbEntity
  8
SUNPOU
100
AcDbDimension
  2
*D11
 10
-917.937322485416
 20
1148.220719580012
 30
0.0
 11
-909.7706558187493
 21
1150.970719580012
 31
0.0
 70
    32
  3
標準スタイル
100
AcDbAlignedDimension
 13
-920.9355986015891
 23
1130.500225896639
 33
0.0
 14
-917.937322485416
 24
1137.293239250332
 34
0.0
100
AcDbRotatedDimension
1001
ACAD
1000
DSTYLE
1002
{
1070
    40
1040
1.0
1002
}
  0
LINE
  5
18DA0
330
1A
100
AcDbEntity
  8
ZISSEN1
100
AcDbLine
 10
-921.9160358640083
 20
1129.25027380028
 30
0.0
 11
-917.937322485416
 21
1129.25027380028
 31
0.0
  0
LINE
  5
18DA1
330
1A
100
AcDbEntity
  8
ZISSEN1
100
AcDbLine
 10
-921.9160358640083
 20
1125.75028380028
 30
0.0
 11
-917.937322485416
 21
1125.75028380028
 31
0.0
  0
LINE
  5
18DA2
330
1A
100
AcDbEntity
  8
CL1
100
AcDbLine
 10
-923.9160458640084
 20
1127.500273800281
 30
0.0
 11
-917.9160458640083
 21
1127.500273800281
 31
0.0
  0
LINE
  5
18DA3
330
1A
100
AcDbEntity
  8
ZISSEN1
100
AcDbLine
 10
-918.6444324854159
 20
1117.0
 30
0.0
 11
-928.5499999999997
 21
1117.0
 31
0.0
  0
LINE
  5
18DA4
330
1A
100
AcDbEntity
  8
CL1
100
AcDbLine
 10
-920.9355986015891
 20
1124.50020589664
 30
0.0
 11
-920.9355986015891
 21
1130.500225896639
 31
0.0
  0
LINE
  5
18DA5
330
1A
100
AcDbEntity
  8
ZISSEN1
100
AcDbLine
 10
-921.7499999999999
 20
1133.400369250332
 30
0.0
 11
-921.7499999999999
 21
1135.000359250332
 31
0.0
  0
LINE
  5
18DA6
330
1A
100
AcDbEntity
  8
ZISSEN1
100
AcDbLine
 10
-923.6873324854158
 20
1135.000359250332
 30
0.0
 11
-923.6873324854158
 21
1138.000369250332
 31
0.0
  0
LINE
  5
18DA7
330
1A
100
AcDbEntity
  8
ZISSEN1
100
AcDbLine
 10
-922.75
 20
1133.400369250332
 30
0.0
 11
-922.75
 21
1135.000359250332
 31
0.0
  0
LINE
  5
18DA8
330
1A
100
AcDbEntity
  8
ZISSEN1
100
AcDbLine
 10
-927.7500524854158
 20
1135.000359250332
 30
0.0
 11
-927.7500524854158
 21
1138.000369250332
 31
0.0
  0
LINE
  5
18DA9
330
1A
100
AcDbEntity
  8
ZISSEN1
100
AcDbLine
 10
-921.7499999999999
 20
1138.000369250332
 30
0.0
 11
-921.7499999999999
 21
1141.000379250332
 31
0.0
  0
LINE
  5
18DAA
330
1A
100
AcDbEntity
  8
ZISSEN1
100
AcDbLine
 10
-922.75
 20
1138.000369250332
 30
0.0
 11
-922.75
 21
1141.000379250332
 31
0.0
  0
LINE
  5
18DAB
330
1A
100
AcDbEntity
  8
ZISSEN1
100
AcDbLine
 10
-921.7499999999999
 20
1121.800389250332
 30
0.0
 11
-921.7499999999999
 21
1123.400379250331
 31
0.0
  0
LINE
  5
18DAC
330
1A
100
AcDbEntity
  8
ZISSEN1
100
AcDbLine
 10
-922.75
 20
1121.800389250332
 30
0.0
 11
-922.75
 21
1123.400379250331
 31
0.0
  0
ARC
  5
18DAD
330
1A
100
AcDbEntity
  8
ZISSEN1
100
AcDbCircle
 10
-921.9160358640083
 20
1127.500273800281
 30
0.0
 40
1.749999899999999
100
AcDbArc
 50
90.0
 51
270.0
  0
LINE
  5
18DAE
330
1A
100
AcDbEntity
  8
ZISSEN1
100
AcDbLine
 10
-927.7499999999999
 20
1133.4
 30
0.0
 11
-927.7499999999999
 21
1123.4
 31
0.0
  0
LINE
  5
18DAF
330
1A
100
AcDbEntity
  8
ZISSEN1
100
AcDbLine
 10
-923.6873324854158
 20
1133.400369250332
 30
0.0
 11
-923.6873324854158
 21
1123.400379250331
 31
0.0
  0
LINE
  5
18DB0
330
1A
100
AcDbEntity
  8
ZISSEN1
100
AcDbLine
 10
-930.2000224854159
 20
1133.4
 30
0.0
 11
-930.2000224854159
 21
1123.7
 31
0.0
  0
LINE
  5
18DB1
330
1A
100
AcDbEntity
  8
ZISSEN1
100
AcDbLine
 10
-917.937322485416
 20
1137.293239250332
 30
0.0
 11
-918.6444324854159
 21
1138.000369250332
 31
0.0
  0
LINE
  5
18DB2
330
1A
100
AcDbEntity
  8
ZISSEN1
100
AcDbLine
 10
-917.937322485416
 20
1117.707489250332
 30
0.0
 11
-918.6444324854159
 21
1117.0
 31
0.0
  0
LINE
  5
18DB3
330
1A
100
AcDbEntity
  8
ZISSEN1
100
AcDbLine
 10
-917.937322485416
 20
1117.707489250332
 30
0.0
 11
-917.937322485416
 21
1125.75028380028
 31
0.0
  0
LINE
  5
18DB4
330
1A
100
AcDbEntity
  8
ZISSEN1
100
AcDbLine
 10
-917.937322485416
 20
1137.293239250332
 30
0.0
 11
-917.937322485416
 21
1129.25027380028
 31
0.0
  0
LINE
  5
18F99
330
1A
100
AcDbEntity
  8
ZISSEN1
100
AcDbLine
 10
-1065.0
 20
1001.499999999998
 30
0.0
 11
-1064.0
 21
1000.499999999999
 31
0.0
  0
LINE
  5
18FA0
330
1A
100
AcDbEntity
  8
ZISSEN1
100
AcDbLine
 10
-964.55
 20
1070.0
 30
0.0
 11
-964.55
 21
1060.499999999998
 31
0.0
  0
LINE
  5
18FA1
330
1A
100
AcDbEntity
  8
ZISSEN1
100
AcDbLine
 10
-964.55
 20
1060.499999999998
 30
0.0
 11
-972.46
 21
1060.499999999998
 31
0.0
  0
LINE
  5
18FA2
330
1A
100
AcDbEntity
  8
ZISSEN1
100
AcDbLine
 10
-972.46
 20
1060.499999999998
 30
0.0
 11
-972.46
 21
1070.0
 31
0.0
  0
LINE
  5
18FA3
330
1A
100
AcDbEntity
  8
ZISSEN1
100
AcDbLine
 10
-971.9599999999999
 20
1067.3
 30
0.0
 11
-965.0499999999999
 21
1067.3
 31
0.0
  0
LINE
  5
18FA4
330
1A
100
AcDbEntity
  8
ZISSEN1
100
AcDbLine
 10
-965.0499999999999
 20
1067.3
 30
0.0
 11
-965.0499999999999
 21
1061.0
 31
0.0
  0
LINE
  5
18FA5
330
1A
100
AcDbEntity
  8
ZISSEN1
100
AcDbLine
 10
-965.0499999999999
 20
1061.0
 30
0.0
 11
-971.9599999999999
 21
1061.0
 31
0.0
  0
LINE
  5
18FA6
330
1A
100
AcDbEntity
  8
ZISSEN1
100
AcDbLine
 10
-971.9599999999999
 20
1061.0
 30
0.0
 11
-971.9599999999999
 21
1067.3
 31
0.0
  0
LINE
  5
18FA7
330
1A
100
AcDbEntity
  8
ZISSEN1
100
AcDbLine
 10
-980.46
 20
1067.3
 30
0.0
 11
-973.55
 21
1067.3
 31
0.0
  0
LINE
  5
18FA8
330
1A
100
AcDbEntity
  8
ZISSEN1
100
AcDbLine
 10
-973.55
 20
1067.3
 30
0.0
 11
-973.55
 21
1061.0
 31
0.0
  0
LINE
  5
18FA9
330
1A
100
AcDbEntity
  8
ZISSEN1
100
AcDbLine
 10
-973.55
 20
1061.0
 30
0.0
 11
-980.46
 21
1061.0
 31
0.0
  0
LINE
  5
18FAA
330
1A
100
AcDbEntity
  8
ZISSEN1
100
AcDbLine
 10
-980.46
 20
1061.0
 30
0.0
 11
-980.46
 21
1067.3
 31
0.0
  0
LINE
  5
18FAB
330
1A
100
AcDbEntity
  8
ZISSEN1
100
AcDbLine
 10
-972.46
 20
1070.0
 30
0.0
 11
-972.9600000000001
 21
1070.5
 31
0.0
  0
LINE
  5
18FAC
330
1A
100
AcDbEntity
  8
ZISSEN1
100
AcDbLine
 10
-964.55
 20
1070.0
 30
0.0
 11
-964.0499999999999
 21
1070.5
 31
0.0
  0
LINE
  5
18FD3
330
1A
100
AcDbEntity
  8
ZISSEN1
100
AcDbLine
 10
-961.5
 20
1011.5
 30
0.0
 11
-994.25
 21
1011.5
 31
0.0
  0
LINE
  5
18FD4
330
1A
100
AcDbEntity
  8
ZISSEN1
100
AcDbLine
 10
-961.5
 20
1011.5
 30
0.0
 11
-961.5
 21
1014.0
 31
0.0
  0
LINE
  5
18FDF
330
1A
100
AcDbEntity
  8
ZISSEN1
100
AcDbLine
 10
-995.25
 20
1012.499999999999
 30
0.0
 11
-994.25
 21
1011.5
 31
0.0
  0
DIMENSION
  5
1905E
330
1A
100
AcDbEntity
  8
SUNPOU
100
AcDbDimension
  2
*D12
 10
-1019.230415380202
 20
1115.099999999999
 30
0.0
 11
-1021.980415380202
 21
1128.050189625166
 31
0.0
 70
    32
  3
標準スタイル
100
AcDbAlignedDimension
 13
-995.25
 23
1141.000379250332
 33
0.0
 14
-1004.0
 24
1115.099999999999
 34
0.0
 50
90.0
100
AcDbRotatedDimension
1001
ACAD
1000
DSTYLE
1002
{
1070
    40
1040
1.0
1002
}
  0
DIMENSION
  5
19074
330
1A
100
AcDbEntity
  8
SUNPOU
100
AcDbDimension
  2
*D13
 10
-1039.100029999999
 20
987.172915975108
 30
0.0
 11
-1052.050015
 21
989.9229159751079
 31
0.0
 70
    32
  3
標準スタイル
100
AcDbAlignedDimension
 13
-1065.0
 23
1001.499999999998
 33
0.0
 14
-1039.100029999999
 24
1014.499999999999
 34
0.0
100
AcDbRotatedDimension
1001
ACAD
1000
DSTYLE
1002
{
1070
    40
1040
1.0
1002
}
  0
LINE
  5
190C4
330
1A
100
AcDbEntity
  8
ZISSEN1
100
AcDbLine
 10
-980.4600006581528
 20
1067.299999582084
 30
0.0
 11
-973.5500006581528
 21
1067.299999582084
 31
0.0
  0
LWPOLYLINE
  5
190D9
330
1A
100
AcDbEntity
  8
ZISSEN1
100
AcDbPolyline
 90
        4
 70
     1
 43
0.0
 10
-971.9599999999999
 20
1133.4
 10
-965.0499999999999
 20
1133.4
 10
-965.0499999999999
 20
1131.099999999999
 10
-971.9599999999999
 20
1131.099999999999
  0
LINE
  5
190E1
330
1A
100
AcDbEntity
  8
ZISSEN1
100
AcDbLine
 10
-972.4599998289784
 20
1121.80000019558
 30
0.0
 11
-972.4599998289784
 21
1123.39999019558
 31
0.0
  0
LINE
  5
190E7
330
1A
100
AcDbEntity
  8
ZISSEN1
100
AcDbLine
 10
-972.9600000000001
 20
1121.80000019558
 30
0.0
 11
-972.9600000000001
 21
1123.39999019558
 31
0.0
  0
LINE
  5
190ED
330
1A
100
AcDbEntity
  8
ZISSEN1
100
AcDbLine
 10
-964.5499998289784
 20
1121.80000019558
 30
0.0
 11
-964.5499998289784
 21
1123.39999019558
 31
0.0
  0
LINE
  5
190F3
330
1A
100
AcDbEntity
  8
ZISSEN1
100
AcDbLine
 10
-964.0499998289785
 20
1121.80000019558
 30
0.0
 11
-964.0499998289785
 21
1123.39999019558
 31
0.0
  0
LINE
  5
190F4
330
1A
100
AcDbEntity
  8
ZISSEN1
100
AcDbLine
 10
-963.9499999999999
 20
1117.0
 30
0.0
 11
-988.7
 21
1117.0
 31
0.0
  0
LINE
  5
191F4
330
1A
100
AcDbEntity
  8
ZISSEN1
100
AcDbLine
 10
-980.46
 20
1133.4
 30
0.0
 11
-980.46
 21
1125.20001
 31
0.0
  0
LINE
  5
191F5
330
1A
100
AcDbEntity
  8
ZISSEN1
100
AcDbLine
 10
-980.46
 20
1125.20001
 30
0.0
 11
-973.66001
 21
1125.20001
 31
0.0
  0
LINE
  5
191F6
330
1A
100
AcDbEntity
  8
ZISSEN1
100
AcDbLine
 10
-973.66001
 20
1133.4
 30
0.0
 11
-973.66001
 21
1125.20001
 31
0.0
  0
LINE
  5
191F7
330
1A
100
AcDbEntity
  8
ZISSEN1
100
AcDbLine
 10
-980.46
 20
1121.8
 30
0.0
 11
-973.55
 21
1121.8
 31
0.0
  0
LINE
  5
191F8
330
1A
100
AcDbEntity
  8
ZISSEN1
100
AcDbLine
 10
-973.55
 20
1121.8
 30
0.0
 11
-973.55
 21
1119.5
 31
0.0
  0
LINE
  5
191F9
330
1A
100
AcDbEntity
  8
ZISSEN1
100
AcDbLine
 10
-973.55
 20
1119.5
 30
0.0
 11
-980.46
 21
1119.5
 31
0.0
  0
LINE
  5
191FA
330
1A
100
AcDbEntity
  8
ZISSEN1
100
AcDbLine
 10
-980.46
 20
1119.5
 30
0.0
 11
-980.46
 21
1121.8
 31
0.0
  0
LINE
  5
1928D
330
1A
100
AcDbEntity
  8
ZISSEN1
100
AcDbLine
 10
-934.1600006581527
 20
1051.299999582084
 30
0.0
 11
-927.2500006581527
 21
1051.299999582084
 31
0.0
  0
LINE
  5
1928E
330
1A
100
AcDbEntity
  8
ZISSEN1
100
AcDbLine
 10
-934.1599999999999
 20
1045.0
 30
0.0
 11
-934.1599999999999
 21
1051.3
 31
0.0
  0
LINE
  5
1928F
330
1A
100
AcDbEntity
  8
ZISSEN1
100
AcDbLine
 10
-927.25
 20
1045.0
 30
0.0
 11
-934.1599999999999
 21
1045.0
 31
0.0
  0
LINE
  5
19290
330
1A
100
AcDbEntity
  8
ZISSEN1
100
AcDbLine
 10
-927.25
 20
1051.3
 30
0.0
 11
-927.25
 21
1045.0
 31
0.0
  0
LINE
  5
19291
330
1A
100
AcDbEntity
  8
ZISSEN1
100
AcDbLine
 10
-934.1599999999999
 20
1051.3
 30
0.0
 11
-927.25
 21
1051.3
 31
0.0
  0
LINE
  5
1931B
330
1A
100
AcDbEntity
  8
ZISSEN1
100
AcDbLine
 10
-1047.40003
 20
1070.799999999999
 30
0.0
 11
-1045.800029999998
 21
1070.799999999999
 31
0.0
  0
LINE
  5
1931C
330
1A
100
AcDbEntity
  8
ZISSEN1
100
AcDbLine
 10
-1045.800029999998
 20
1070.09287
 30
0.0
 11
-1047.40003
 21
1070.09287
 31
0.0
  0
VIEWPORT
  5
15177
330
15176
100
AcDbEntity
 67
     1
  8
0
100
AcDbViewport
 10
305.888931131714
 20
131.6595563271571
 30
0.0
 40
562.441522443158
 41
321.2258220908236
 68
     1
 69
     1
1001
ACAD
1000
MVIEW
1002
{
1070
    16
1010
0.0
1020
0.0
1030
0.0
1010
0.0
1020
0.0
1030
1.0
1040
0.0
1040
321.2258220908236
1040
305.888931131714
1040
131.6595563271571
1040
50.0
1040
0.0
1040
0.0
1070
     0
1070
   100
1070
     1
1070
     0
1070
     0
1070
     0
1070
     0
1070
     0
1040
0.0
1040
0.0
1040
0.0
1040
1.0
1040
1.0
1040
10.0
1040
10.0
1070
     0
1002
{
1002
}
1002
}
  0
VIEWPORT
  5
15178
330
15176
100
AcDbEntity
 67
     1
  8
ZISSEN1
100
AcDbViewport
 10
221.7861955525411
 20
157.6960273330388
 30
0.0
 40
385.4999999999997
 41
259.9999999999999
 68
     2
 69
     2
1001
ACAD
1000
MVIEW
1002
{
1070
    16
1010
0.0
1020
0.0
1030
0.0
1010
0.0
1020
0.0
1030
1.0
1040
0.0
1040
260.0000003451585
1040
-1026.724376265502
1040
1068.454322894446
1040
50.0
1040
0.0
1040
0.0
1070
     0
1070
   100
1070
     1
1070
     0
1070
     0
1070
     0
1070
     0
1070
     0
1040
0.0
1040
0.0
1040
0.0
1040
1.0
1040
1.0
1040
10.0
1040
10.0
1070
     0
1002
{
1002
}
1002
}
  0
TEXT
  5
15179
330
15176
100
AcDbEntity
 67
     1
  8
SUNPOU
 62
     0
100
AcDbText
 10
374.1863124306943
 20
60.86794705907585
 30
0.0
 40
3.5
  1
縮尺 1/1
100
AcDbText
  0
ENDSEC
  0
SECTION
  2
OBJECTS
  0
DICTIONARY
  5
C
330
0
100
AcDbDictionary
  3
ACAD_GROUP
350
D
  3
ACAD_LAYOUT
350
5C7D
  3
ACAD_MLINESTYLE
350
E
  3
ACAD_PLOTSETTINGS
350
5C7E
  3
ACAD_PLOTSTYLENAME
350
5C7B
  3
ACDBVARIABLEDICTIONARY
350
13217
  3
DWGPROPS
350
19330
  3
ACDBHEADERROUNDTRIPXREC
350
19362
  0
DICTIONARY
  5
19352
330
1A
100
AcDbDictionary
280
     1
  3
ACAD_LAYOUTSELFREF
360
19382
  0
DICTIONARY
  5
19354
330
15176
100
AcDbDictionary
280
     1
  3
ACAD_LAYOUTSELFREF
360
19383
  0
DICTIONARY
  5
D
102
{ACAD_REACTORS
330
C
102
}
330
C
100
AcDbDictionary
  3
*A1
350
477D
  3
*A2
350
4781
  3
*A3
350
13853
  3
*A4
350
4C0E
  3
*A5
350
4C0F
  3
*A6
350
4C10
  3
*A7
350
4C11
  3
*A8
350
4C12
  3
*A9
350
4C13
  3
*A10
350
4C14
  3
*A11
350
4C15
  3
*A12
350
4C16
  3
*A13
350
4C17
  3
*A14
350
477E
  3
*A15
350
477F
  3
*A16
350
4780
  0
DICTIONARY
  5
5C7D
102
{ACAD_REACTORS
330
C
102
}
330
C
100
AcDbDictionary
  0
DICTIONARY
  5
E
102
{ACAD_REACTORS
330
C
102
}
330
C
100
AcDbDictionary
  3
STANDARD
350
13
  0
DICTIONARY
  5
5C7E
102
{ACAD_REACTORS
330
C
102
}
330
C
100
AcDbDictionary
  0
ACDBDICTIONARYWDFLT
  5
5C7B
102
{ACAD_REACTORS
330
C
102
}
330
C
100
AcDbDictionary
281
     1
  3
Normal
350
5C7C
100
AcDbDictionaryWithDefault
340
5C7C
  0
DICTIONARY
  5
13217
102
{ACAD_REACTORS
330
C
102
}
330
C
100
AcDbDictionary
  3
INDEXCTL
350
190FD
  3
SORTENTS
350
13218
  0
XRECORD
  5
19330
102
{ACAD_REACTORS
330
C
102
}
330
C
100
AcDbXrecord
  1
DWGPROPS COOKIE
  2

  3

  4

  6

  7

  8

  9

300
=
301
=
302
=
303
=
304
=
305
=
306
=
307
=
308
=
309
=
 40
3.265222233796296
 41
2450495.493631364
 42
2453984.474723541
  1

 90
        0
  0
DICTIONARY
  5
19362
102
{ACAD_REACTORS
330
C
102
}
330
C
100
AcDbDictionary
  3
TSTACKALIGN
350
19363
  3
TSTACKSIZE
350
19364
  3
HYPERLINKBASE
350
19365
  3
STYLESHEET
350
19366
  3
LAYOUTDICT
350
19367
  3
PLOTSETDICT
350
19368
  3
PLOTSTYLNAMDICT
350
19369
  3
LWETCUNION
350
1936A
  3
INSUNITS
350
1936B
  3
CEPSNTYPE
350
1936C
  3
FINGERPRINTGUID
350
1936D
  3
VERSIONGUID
350
1936E
  3
PSVPSCALE
350
1936F
  3
PUCSORTHOREF
350
19370
  3
PUCSORTHOVIEW
350
19371
  3
PUCSBASE
350
19372
  3
PUCSORGTOP
350
19373
  3
PUCSORGBOTTOM
350
19374
  3
PUCSORGLEFT
350
19375
  3
PUCSORGRIGHT
350
19376
  3
PUCSORGFRONT
350
19377
  3
PUCSORGBACK
350
19378
  3
UCSORTHOREF
350
19379
  3
UCSORTHOVIEW
350
1937A
  3
UCSBASE
350
1937B
  3
UCSORGTOP
350
1937C
  3
UCSORGBOTTOM
350
1937D
  3
UCSORGLEFT
350
1937E
  3
UCSORGRIGHT
350
1937F
  3
UCSORGFRONT
350
19380
  3
UCSORGBACK
350
19381
  0
XRECORD
  5
19382
102
{ACAD_REACTORS
330
19352
102
}
330
19352
100
AcDbXrecord
340
1A
  0
XRECORD
  5
19383
102
{ACAD_REACTORS
330
19354
102
}
330
19354
100
AcDbXrecord
340
15176
  0
GROUP
  5
477D
102
{ACAD_REACTORS
330
D
102
}
330
D
100
AcDbGroup
300

 70
     1
 71
     1
  0
GROUP
  5
4781
102
{ACAD_REACTORS
330
D
102
}
330
D
100
AcDbGroup
300

 70
     1
 71
     1
  0
GROUP
  5
13853
102
{ACAD_REACTORS
330
D
102
}
330
D
100
AcDbGroup
300

 70
     1
 71
     1
  0
GROUP
  5
4C0E
102
{ACAD_REACTORS
330
D
102
}
330
D
100
AcDbGroup
300

 70
     1
 71
     1
  0
GROUP
  5
4C0F
102
{ACAD_REACTORS
330
D
102
}
330
D
100
AcDbGroup
300

 70
     1
 71
     1
  0
GROUP
  5
4C10
102
{ACAD_REACTORS
330
D
102
}
330
D
100
AcDbGroup
300

 70
     1
 71
     1
  0
GROUP
  5
4C11
102
{ACAD_REACTORS
330
D
102
}
330
D
100
AcDbGroup
300

 70
     1
 71
     1
  0
GROUP
  5
4C12
102
{ACAD_REACTORS
330
D
102
}
330
D
100
AcDbGroup
300

 70
     1
 71
     1
  0
GROUP
  5
4C13
102
{ACAD_REACTORS
330
D
102
}
330
D
100
AcDbGroup
300

 70
     1
 71
     1
  0
GROUP
  5
4C14
102
{ACAD_REACTORS
330
D
102
}
330
D
100
AcDbGroup
300

 70
     1
 71
     1
  0
GROUP
  5
4C15
102
{ACAD_REACTORS
330
D
102
}
330
D
100
AcDbGroup
300

 70
     1
 71
     1
  0
GROUP
  5
4C16
102
{ACAD_REACTORS
330
D
102
}
330
D
100
AcDbGroup
300

 70
     1
 71
     1
  0
GROUP
  5
4C17
102
{ACAD_REACTORS
330
D
102
}
330
D
100
AcDbGroup
300

 70
     1
 71
     1
  0
GROUP
  5
477E
102
{ACAD_REACTORS
330
D
102
}
330
D
100
AcDbGroup
300

 70
     1
 71
     1
  0
GROUP
  5
477F
102
{ACAD_REACTORS
330
D
102
}
330
D
100
AcDbGroup
300

 70
     1
 71
     1
  0
GROUP
  5
4780
102
{ACAD_REACTORS
330
D
102
}
330
D
100
AcDbGroup
300

 70
     1
 71
     1
  0
MLINESTYLE
  5
13
102
{ACAD_REACTORS
330
E
102
}
330
E
100
AcDbMlineStyle
  2
STANDARD
 70
     0
  3

 62
     0
 51
90.0
 52
90.0
 71
     2
 49
0.5
 62
   256
  6
BYLAYER
 49
-0.5
 62
   256
  6
BYLAYER
  0
ACDBPLACEHOLDER
  5
5C7C
102
{ACAD_REACTORS
330
5C7B
102
}
330
5C7B
100
AcDbPlaceHolder
280
     0
  0
DICTIONARYVAR
  5
190FD
102
{ACAD_REACTORS
330
13217
102
}
330
13217
100
DictionaryVariables
280
     0
  1
-1
  0
DICTIONARYVAR
  5
13218
102
{ACAD_REACTORS
330
13217
102
}
330
13217
100
DictionaryVariables
280
     0
  1
96
  0
XRECORD
  5
19363
102
{ACAD_REACTORS
330
19362
102
}
330
19362
100
AcDbXrecord
 90
        1
  0
XRECORD
  5
19364
102
{ACAD_REACTORS
330
19362
102
}
330
19362
100
AcDbXrecord
 90
       70
  0
XRECORD
  5
19365
102
{ACAD_REACTORS
330
19362
102
}
330
19362
100
AcDbXrecord
  1

  0
XRECORD
  5
19366
102
{ACAD_REACTORS
330
19362
102
}
330
19362
100
AcDbXrecord
  1

  0
XRECORD
  5
19367
102
{ACAD_REACTORS
330
19362
102
}
330
19362
100
AcDbXrecord
340
5C7D
  0
XRECORD
  5
19368
102
{ACAD_REACTORS
330
19362
102
}
330
19362
100
AcDbXrecord
340
5C7E
  0
XRECORD
  5
19369
102
{ACAD_REACTORS
330
19362
102
}
330
19362
100
AcDbXrecord
340
5C7B
  0
XRECORD
  5
1936A
102
{ACAD_REACTORS
330
19362
102
}
330
19362
100
AcDbXrecord
 90
    10781
  0
XRECORD
  5
1936B
102
{ACAD_REACTORS
330
19362
102
}
330
19362
100
AcDbXrecord
 90
        0
  0
XRECORD
  5
1936C
102
{ACAD_REACTORS
330
19362
102
}
330
19362
100
AcDbXrecord
 90
        0
  0
XRECORD
  5
1936D
102
{ACAD_REACTORS
330
19362
102
}
330
19362
100
AcDbXrecord
  1
{225A7F0D-DA29-11D8-946A-0000E2416295}
  0
XRECORD
  5
1936E
102
{ACAD_REACTORS
330
19362
102
}
330
19362
100
AcDbXrecord
  1
{51BDC5C9-18CE-4A83-9202-FB283825A92E}
  0
XRECORD
  5
1936F
102
{ACAD_REACTORS
330
19362
102
}
330
19362
100
AcDbXrecord
 40
0.0
  0
XRECORD
  5
19370
102
{ACAD_REACTORS
330
19362
102
}
330
19362
100
AcDbXrecord
340
0
  0
XRECORD
  5
19371
102
{ACAD_REACTORS
330
19362
102
}
330
19362
100
AcDbXrecord
 70
     0
  0
XRECORD
  5
19372
102
{ACAD_REACTORS
330
19362
102
}
330
19362
100
AcDbXrecord
340
0
  0
XRECORD
  5
19373
102
{ACAD_REACTORS
330
19362
102
}
330
19362
100
AcDbXrecord
 10
0.0
 20
0.0
 30
0.0
  0
XRECORD
  5
19374
102
{ACAD_REACTORS
330
19362
102
}
330
19362
100
AcDbXrecord
 10
0.0
 20
0.0
 30
0.0
  0
XRECORD
  5
19375
102
{ACAD_REACTORS
330
19362
102
}
330
19362
100
AcDbXrecord
 10
0.0
 20
0.0
 30
0.0
  0
XRECORD
  5
19376
102
{ACAD_REACTORS
330
19362
102
}
330
19362
100
AcDbXrecord
 10
0.0
 20
0.0
 30
0.0
  0
XRECORD
  5
19377
102
{ACAD_REACTORS
330
19362
102
}
330
19362
100
AcDbXrecord
 10
0.0
 20
0.0
 30
0.0
  0
XRECORD
  5
19378
102
{ACAD_REACTORS
330
19362
102
}
330
19362
100
AcDbXrecord
 10
0.0
 20
0.0
 30
0.0
  0
XRECORD
  5
19379
102
{ACAD_REACTORS
330
19362
102
}
330
19362
100
AcDbXrecord
340
0
  0
XRECORD
  5
1937A
102
{ACAD_REACTORS
330
19362
102
}
330
19362
100
AcDbXrecord
 70
     0
  0
XRECORD
  5
1937B
102
{ACAD_REACTORS
330
19362
102
}
330
19362
100
AcDbXrecord
340
0
  0
XRECORD
  5
1937C
102
{ACAD_REACTORS
330
19362
102
}
330
19362
100
AcDbXrecord
 10
0.0
 20
0.0
 30
0.0
  0
XRECORD
  5
1937D
102
{ACAD_REACTORS
330
19362
102
}
330
19362
100
AcDbXrecord
 10
0.0
 20
0.0
 30
0.0
  0
XRECORD
  5
1937E
102
{ACAD_REACTORS
330
19362
102
}
330
19362
100
AcDbXrecord
 10
0.0
 20
0.0
 30
0.0
  0
XRECORD
  5
1937F
102
{ACAD_REACTORS
330
19362
102
}
330
19362
100
AcDbXrecord
 10
0.0
 20
0.0
 30
0.0
  0
XRECORD
  5
19380
102
{ACAD_REACTORS
330
19362
102
}
330
19362
100
AcDbXrecord
 10
0.0
 20
0.0
 30
0.0
  0
XRECORD
  5
19381
102
{ACAD_REACTORS
330
19362
102
}
330
19362
100
AcDbXrecord
 10
0.0
 20
0.0
 30
0.0
  0
ENDSEC
  0
EOF
