  0
SECTION
  2
HEADER
  9
$ACADVER
  1
AC1014
  9
$ACADMAINTVER
 70
     9
  9
$DWGCODEPAGE
  3
ANSI_932
  9
$INSBASE
 10
0.0
 20
0.0
 30
0.0
  9
$EXTMIN
 10
-1969.289415340424
 20
1713.642687562607
 30
0.0
  9
$EXTMAX
 10
-1589.204659940075
 20
1939.134419310549
 30
0.0
  9
$LIMMIN
 10
0.0
 20
0.0
  9
$LIMMAX
 10
420.0
 20
297.0
  9
$ORTHOMODE
 70
     1
  9
$REGENMODE
 70
     1
  9
$FILLMODE
 70
     1
  9
$QTEXTMODE
 70
     0
  9
$MIRRTEXT
 70
     1
  9
$DRAGMODE
 70
     2
  9
$LTSCALE
 40
1.0
  9
$OSMODE
 70
    37
  9
$ATTMODE
 70
     1
  9
$TEXTSIZE
 40
2.5
  9
$TRACEWID
 40
1.0
  9
$TEXTSTYLE
  7
ゴシック体
  9
$CLAYER
  8
SUNPOU
  9
$CELTYPE
  6
BYLAYER
  9
$CECOLOR
 62
   256
  9
$CELTSCALE
 40
1.0
  9
$DELOBJ
 70
     1
  9
$DISPSILH
 70
     0
  9
$DIMSCALE
 40
0.0
  9
$DIMASZ
 40
3.0
  9
$DIMEXO
 40
0.5
  9
$DIMDLI
 40
0.5
  9
$DIMRND
 40
0.0
  9
$DIMDLE
 40
0.0
  9
$DIMEXE
 40
0.5
  9
$DIMTP
 40
0.0
  9
$DIMTM
 40
0.0
  9
$DIMTXT
 40
3.5
  9
$DIMCEN
 40
0.0
  9
$DIMTSZ
 40
0.0
  9
$DIMTOL
 70
     0
  9
$DIMLIM
 70
     0
  9
$DIMTIH
 70
     0
  9
$DIMTOH
 70
     0
  9
$DIMSE1
 70
     0
  9
$DIMSE2
 70
     0
  9
$DIMTAD
 70
     1
  9
$DIMZIN
 70
     8
  9
$DIMBLK
  1

  9
$DIMASO
 70
     1
  9
$DIMSHO
 70
     1
  9
$DIMPOST
  1

  9
$DIMAPOST
  1

  9
$DIMALT
 70
     0
  9
$DIMALTD
 70
     2
  9
$DIMALTF
 40
25.4
  9
$DIMLFAC
 40
1.0
  9
$DIMTOFL
 70
     1
  9
$DIMTVP
 40
0.0
  9
$DIMTIX
 70
     0
  9
$DIMSOXD
 70
     0
  9
$DIMSAH
 70
     0
  9
$DIMBLK1
  1

  9
$DIMBLK2
  1

  9
$DIMSTYLE
  2
標準スタイル
  9
$DIMCLRD
 70
     1
  9
$DIMCLRE
 70
     1
  9
$DIMCLRT
 70
     1
  9
$DIMTFAC
 40
1.0
  9
$DIMGAP
 40
1.0
  9
$DIMJUST
 70
     0
  9
$DIMSD1
 70
     0
  9
$DIMSD2
 70
     0
  9
$DIMTOLJ
 70
     1
  9
$DIMTZIN
 70
     8
  9
$DIMALTZ
 70
     0
  9
$DIMALTTZ
 70
     0
  9
$DIMFIT
 70
     3
  9
$DIMUPT
 70
     0
  9
$DIMUNIT
 70
     2
  9
$DIMDEC
 70
     2
  9
$DIMTDEC
 70
     2
  9
$DIMALTU
 70
     2
  9
$DIMALTTD
 70
     2
  9
$DIMTXSTY
  7
ゴシック体
  9
$DIMAUNIT
 70
     0
  9
$LUNITS
 70
     2
  9
$LUPREC
 70
     4
  9
$SKETCHINC
 40
1.0
  9
$FILLETRAD
 40
0.0
  9
$AUNITS
 70
     0
  9
$AUPREC
 70
     0
  9
$MENU
  1
.
  9
$ELEVATION
 40
0.0
  9
$PELEVATION
 40
0.0
  9
$THICKNESS
 40
0.0
  9
$LIMCHECK
 70
     0
  9
$BLIPMODE
 70
     0
  9
$CHAMFERA
 40
10.0
  9
$CHAMFERB
 40
10.0
  9
$CHAMFERC
 40
2.0
  9
$CHAMFERD
 40
0.7853981633974483
  9
$SKPOLY
 70
     0
  9
$TDCREATE
 40
2450495.493631365
  9
$TDUPDATE
 40
2453984.406559444
  9
$TDINDWG
 40
1.7566295949
  9
$TDUSRTIMER
 40
1.7566294792
  9
$USRTIMER
 70
     1
  9
$ANGBASE
 50
0.0
  9
$ANGDIR
 70
     0
  9
$PDMODE
 70
    99
  9
$PDSIZE
 40
0.0
  9
$PLINEWID
 40
0.0
  9
$COORDS
 70
     1
  9
$SPLFRAME
 70
     0
  9
$SPLINETYPE
 70
     6
  9
$SPLINESEGS
 70
     8
  9
$ATTDIA
 70
     0
  9
$ATTREQ
 70
     1
  9
$HANDLING
 70
 10241
  9
$HANDSEED
  5
1361A
  9
$SURFTAB1
 70
     6
  9
$SURFTAB2
 70
     6
  9
$SURFTYPE
 70
     6
  9
$SURFU
 70
     6
  9
$SURFV
 70
     6
  9
$UCSNAME
  2

  9
$UCSORG
 10
0.0
 20
0.0
 30
0.0
  9
$UCSXDIR
 10
1.0
 20
0.0
 30
0.0
  9
$UCSYDIR
 10
0.0
 20
1.0
 30
0.0
  9
$PUCSNAME
  2

  9
$PUCSORG
 10
0.0
 20
0.0
 30
0.0
  9
$PUCSXDIR
 10
1.0
 20
0.0
 30
0.0
  9
$PUCSYDIR
 10
0.0
 20
1.0
 30
0.0
  9
$USERI1
 70
     0
  9
$USERI2
 70
     0
  9
$USERI3
 70
     0
  9
$USERI4
 70
     0
  9
$USERI5
 70
     0
  9
$USERR1
 40
0.0
  9
$USERR2
 40
0.0
  9
$USERR3
 40
0.0
  9
$USERR4
 40
0.0
  9
$USERR5
 40
0.0
  9
$WORLDVIEW
 70
     1
  9
$SHADEDGE
 70
     3
  9
$SHADEDIF
 70
    70
  9
$TILEMODE
 70
     1
  9
$MAXACTVP
 70
    16
  9
$PINSBASE
 10
0.0
 20
0.0
 30
0.0
  9
$PLIMCHECK
 70
     0
  9
$PEXTMIN
 10
29.03619555254133
 20
27.69602733303884
 30
0.0
  9
$PEXTMAX
 10
414.536195552541
 20
287.6960273330388
 30
0.0
  9
$PLIMMIN
 10
11.13088392171084
 20
6.367460636892701
  9
$PLIMMAX
 10
431.0775391951483
 20
303.3781112716583
  9
$UNITMODE
 70
     0
  9
$VISRETAIN
 70
     0
  9
$PLINEGEN
 70
     0
  9
$PSLTSCALE
 70
     1
  9
$TREEDEPTH
 70
  3020
  9
$PICKSTYLE
 70
     1
  9
$CMLSTYLE
  2
STANDARD
  9
$CMLJUST
 70
     0
  9
$CMLSCALE
 40
1.0
  9
$PROXYGRAPHICS
 70
     1
  9
$MEASUREMENT
 70
     1
  0
ENDSEC
  0
SECTION
  2
CLASSES
  0
CLASS
  1
LWPOLYLINE
  2
AcDbPolyline
  3
AutoCAD 2000
 90
        0
280
     0
281
     1
  0
CLASS
  1
HATCH
  2
AcDbHatch
  3
AutoCAD 2000
 90
        0
280
     0
281
     1
  0
CLASS
  1
ACDBDICTIONARYWDFLT
  2
AcDbDictionaryWithDefault
  3
AutoCAD 2000
 90
        0
280
     0
281
     0
  0
CLASS
  1
ACDBPLACEHOLDER
  2
AcDbPlaceHolder
  3
AutoCAD 2000
 90
        0
280
     0
281
     0
  0
CLASS
  1
LAYOUT
  2
AcDbLayout
  3
AutoCAD 2000
 90
        0
280
     0
281
     0
  0
CLASS
  1
DICTIONARYVAR
  2
AcDbDictionaryVar
  3
AutoCAD 2000
 90
        0
280
     0
281
     0
  0
CLASS
  1
LONG_TRANSACTION
  2
AcDbLongTransaction
  3
AutoCAD 2000
 90
        0
280
     0
281
     0
  0
CLASS
  1
LWPOLYLINE
  2
AcDbPolyline
  3
AutoCAD 2000
 90
        0
280
     0
281
     1
  0
CLASS
  1
HATCH
  2
AcDbHatch
  3
AutoCAD 2000
 90
        0
280
     0
281
     1
  0
CLASS
  1
XRECORD
  2
AcDbXrecord
  3
AutoCAD 2000
 90
        0
280
     0
281
     0
  0
ENDSEC
  0
SECTION
  2
TABLES
  0
TABLE
  2
VPORT
  5
8
330
0
100
AcDbSymbolTable
 70
     2
  0
VPORT
  5
135E2
330
8
100
AcDbSymbolTableRecord
100
AcDbViewportTableRecord
  2
*ACTIVE
 70
     0
 10
0.0
 20
0.0
 11
1.0
 21
1.0
 12
-1689.39123678077
 22
1825.592333235737
 13
0.0
 23
0.0
 14
5.0
 24
5.0
 15
0.0
 25
0.0
 16
0.0
 26
0.0
 36
1.0
 17
0.0
 27
0.0
 37
0.0
 40
312.3465567199873
 41
2.192560175054704
 42
50.0
 43
0.0
 44
0.0
 50
0.0
 51
0.0
 71
     0
 72
   100
 73
     1
 74
     0
 75
     0
 76
     0
 77
     0
 78
     0
  0
ENDTAB
  0
TABLE
  2
LTYPE
  5
5
330
0
100
AcDbSymbolTable
 70
    13
  0
LTYPE
  5
14
330
5
100
AcDbSymbolTableRecord
100
AcDbLinetypeTableRecord
  2
BYBLOCK
 70
     0
  3

 72
    65
 73
     0
 40
0.0
  0
LTYPE
  5
15
330
5
100
AcDbSymbolTableRecord
100
AcDbLinetypeTableRecord
  2
BYLAYER
 70
     0
  3

 72
    65
 73
     0
 40
0.0
  0
LTYPE
  5
16
330
5
100
AcDbSymbolTableRecord
100
AcDbLinetypeTableRecord
  2
CONTINUOUS
 70
     0
  3
Solid line
 72
    65
 73
     0
 40
0.0
  0
LTYPE
  5
1956
330
5
100
AcDbSymbolTableRecord
100
AcDbLinetypeTableRecord
  2
CENTERX2
 70
     0
  3
________  __  ________  __  ________  __  _____
 72
    65
 73
     4
 40
4.0
 49
2.5
 74
     0
 49
-0.5
 74
     0
 49
0.5
 74
     0
 49
-0.5
 74
     0
  0
LTYPE
  5
1958
330
5
100
AcDbSymbolTableRecord
100
AcDbLinetypeTableRecord
  2
PHANTOMX2
 70
     0
  3
____________    ____    ____    ____________   
 72
    65
 73
     6
 40
5.0
 49
2.5
 74
     0
 49
-0.5
 74
     0
 49
0.5
 74
     0
 49
-0.5
 74
     0
 49
0.5
 74
     0
 49
-0.5
 74
     0
  0
ENDTAB
  0
TABLE
  2
LAYER
  5
2
330
0
100
AcDbSymbolTable
 70
    34
  0
LAYER
  5
F
330
2
100
AcDbSymbolTableRecord
100
AcDbLayerTableRecord
  2
0
 70
     0
 62
     7
  6
CONTINUOUS
  0
LAYER
  5
18F
330
2
100
AcDbSymbolTableRecord
100
AcDbLayerTableRecord
  2
ZISSEN1
 70
     0
 62
     7
  6
CONTINUOUS
  0
LAYER
  5
191
330
2
100
AcDbSymbolTableRecord
100
AcDbLayerTableRecord
  2
SAISEN
 70
     0
 62
     1
  6
CONTINUOUS
  0
LAYER
  5
529
330
2
100
AcDbSymbolTableRecord
100
AcDbLayerTableRecord
  2
SUNPOU
 70
     0
 62
     1
  6
CONTINUOUS
  0
LAYER
  5
195A
330
2
100
AcDbSymbolTableRecord
100
AcDbLayerTableRecord
  2
CL1
 70
     0
 62
   210
  6
CENTERX2
  0
LAYER
  5
195C
330
2
100
AcDbSymbolTableRecord
100
AcDbLayerTableRecord
  2
SOUZOUSEN
 70
     0
 62
     5
  6
PHANTOMX2
  0
LAYER
  5
3A9B
330
2
100
AcDbSymbolTableRecord
100
AcDbLayerTableRecord
  2
DEFPOINTS
 70
     0
 62
     7
  6
CONTINUOUS
  0
ENDTAB
  0
TABLE
  2
STYLE
  5
3
330
0
100
AcDbSymbolTable
 70
     5
  0
STYLE
  5
10
330
3
100
AcDbSymbolTableRecord
100
AcDbTextStyleTableRecord
  2
STANDARD
 70
     0
 40
0.0
 41
1.0
 50
0.0
 71
     0
 42
3.0
  3
txt
  4
BigFont
  0
STYLE
  5
1960
330
3
100
AcDbSymbolTableRecord
100
AcDbTextStyleTableRecord
  2
ゴシック体
 70
     0
 40
0.0
 41
1.0
 50
0.0
 71
     0
 42
2.5
  3
MS Gothic.ttf
  4

1001
ACAD
1000
MS Gothic
1071
    32817
  0
ENDTAB
  0
TABLE
  2
VIEW
  5
6
330
0
100
AcDbSymbolTable
 70
     0
  0
ENDTAB
  0
TABLE
  2
UCS
  5
7
330
0
100
AcDbSymbolTable
 70
     0
  0
ENDTAB
  0
TABLE
  2
APPID
  5
9
330
0
100
AcDbSymbolTable
 70
     5
  0
APPID
  5
11
330
9
100
AcDbSymbolTableRecord
100
AcDbRegAppTableRecord
  2
ACAD
 70
     0
  0
APPID
  5
4005
330
9
100
AcDbSymbolTableRecord
100
AcDbRegAppTableRecord
  2
CONTENTTABDATA
 70
     0
  0
APPID
  5
4006
330
9
100
AcDbSymbolTableRecord
100
AcDbRegAppTableRecord
  2
CONTENTCURRENTTAB
 70
     0
  0
APPID
  5
477B
330
9
100
AcDbSymbolTableRecord
100
AcDbRegAppTableRecord
  2
CONTENTBLOCKDESCRIPTION
 70
     0
  0
APPID
  5
477C
330
9
100
AcDbSymbolTableRecord
100
AcDbRegAppTableRecord
  2
CONTENTBLOCKICON
 70
     0
  0
ENDTAB
  0
TABLE
  2
DIMSTYLE
  5
A
330
0
100
AcDbSymbolTable
 70
    12
  0
DIMSTYLE
105
1D
330
A
100
AcDbSymbolTableRecord
100
AcDbDimStyleTableRecord
  2
STANDARD
 70
     0
  3

  4

  5

  6

  7

 40
1.0
 41
0.18
 42
0.0625
 43
0.38
 44
0.18
 45
0.0
 46
0.0
 47
0.0
 48
0.0
140
0.18
141
0.09
142
0.0
143
25.4
144
1.0
145
0.0
146
1.0
147
0.09
 71
     0
 72
     0
 73
     1
 74
     1
 75
     0
 76
     0
 77
     0
 78
     0
170
     0
171
     2
172
     0
173
     0
174
     0
175
     0
176
     0
177
     0
178
     0
270
     2
271
     4
272
     4
273
     2
274
     2
340
10
275
     0
280
     0
281
     0
282
     0
283
     1
284
     0
285
     0
286
     0
287
     3
288
     0
  0
DIMSTYLE
105
52E
102
{ACAD_REACTORS
330
13320
330
1332F
330
13360
330
1336F
330
1337E
330
133A0
330
133AF
330
133C8
330
133D4
330
133E1
330
133F9
330
13420
330
1342D
330
1343A
330
13482
330
1349C
330
134A9
330
134C3
330
13547
330
13573
330
13589
330
13596
102
}
330
A
100
AcDbSymbolTableRecord
100
AcDbDimStyleTableRecord
  2
標準スタイル
 70
     0
  3

  4

  5

  6

  7

 40
0.0
 41
3.0
 42
0.5
 43
0.5
 44
0.5
 45
0.0
 46
0.0
 47
0.0
 48
0.0
140
3.5
141
0.0
142
0.0
143
25.4
144
1.0
145
0.0
146
1.0
147
1.0
 71
     0
 72
     0
 73
     0
 74
     0
 75
     0
 76
     0
 77
     1
 78
     8
170
     0
171
     2
172
     1
173
     0
174
     0
175
     0
176
     1
177
     1
178
     1
270
     2
271
     2
272
     2
273
     2
274
     2
340
1960
275
     0
280
     0
281
     0
282
     0
283
     1
284
     8
285
     0
286
     0
287
     3
288
     0
  0
ENDTAB
  0
TABLE
  2
BLOCK_RECORD
  5
1
330
0
100
AcDbSymbolTable
 70
    46
  0
BLOCK_RECORD
  5
1A
102
{ACAD_XDICTIONARY
360
13603
102
}
330
1
100
AcDbSymbolTableRecord
100
AcDbBlockTableRecord
  2
*MODEL_SPACE
  0
BLOCK_RECORD
  5
5D8E
102
{ACAD_XDICTIONARY
360
13605
102
}
330
1
100
AcDbSymbolTableRecord
100
AcDbBlockTableRecord
  2
*PAPER_SPACE
  0
BLOCK_RECORD
  5
13321
330
1
100
AcDbSymbolTableRecord
100
AcDbBlockTableRecord
  2
*D24
  0
BLOCK_RECORD
  5
13330
330
1
100
AcDbSymbolTableRecord
100
AcDbBlockTableRecord
  2
*D25
  0
BLOCK_RECORD
  5
13361
330
1
100
AcDbSymbolTableRecord
100
AcDbBlockTableRecord
  2
*D26
  0
BLOCK_RECORD
  5
13370
330
1
100
AcDbSymbolTableRecord
100
AcDbBlockTableRecord
  2
*D27
  0
BLOCK_RECORD
  5
1337F
330
1
100
AcDbSymbolTableRecord
100
AcDbBlockTableRecord
  2
*D28
  0
BLOCK_RECORD
  5
133A1
330
1
100
AcDbSymbolTableRecord
100
AcDbBlockTableRecord
  2
*D29
  0
BLOCK_RECORD
  5
133B0
330
1
100
AcDbSymbolTableRecord
100
AcDbBlockTableRecord
  2
*D30
  0
BLOCK_RECORD
  5
133C9
330
1
100
AcDbSymbolTableRecord
100
AcDbBlockTableRecord
  2
*D31
  0
BLOCK_RECORD
  5
133D5
330
1
100
AcDbSymbolTableRecord
100
AcDbBlockTableRecord
  2
*D32
  0
BLOCK_RECORD
  5
133E2
330
1
100
AcDbSymbolTableRecord
100
AcDbBlockTableRecord
  2
*D33
  0
BLOCK_RECORD
  5
133FA
330
1
100
AcDbSymbolTableRecord
100
AcDbBlockTableRecord
  2
*D34
  0
BLOCK_RECORD
  5
13421
330
1
100
AcDbSymbolTableRecord
100
AcDbBlockTableRecord
  2
*D35
  0
BLOCK_RECORD
  5
1342E
330
1
100
AcDbSymbolTableRecord
100
AcDbBlockTableRecord
  2
*D36
  0
BLOCK_RECORD
  5
1343B
330
1
100
AcDbSymbolTableRecord
100
AcDbBlockTableRecord
  2
*D37
  0
BLOCK_RECORD
  5
13483
330
1
100
AcDbSymbolTableRecord
100
AcDbBlockTableRecord
  2
*D38
  0
BLOCK_RECORD
  5
1349D
330
1
100
AcDbSymbolTableRecord
100
AcDbBlockTableRecord
  2
*D39
  0
BLOCK_RECORD
  5
134AA
330
1
100
AcDbSymbolTableRecord
100
AcDbBlockTableRecord
  2
*D40
  0
BLOCK_RECORD
  5
134C4
330
1
100
AcDbSymbolTableRecord
100
AcDbBlockTableRecord
  2
*D41
  0
BLOCK_RECORD
  5
13548
330
1
100
AcDbSymbolTableRecord
100
AcDbBlockTableRecord
  2
*D42
  0
BLOCK_RECORD
  5
13574
330
1
100
AcDbSymbolTableRecord
100
AcDbBlockTableRecord
  2
*D43
  0
BLOCK_RECORD
  5
1358A
330
1
100
AcDbSymbolTableRecord
100
AcDbBlockTableRecord
  2
*D44
  0
BLOCK_RECORD
  5
13597
330
1
100
AcDbSymbolTableRecord
100
AcDbBlockTableRecord
  2
*D45
  0
ENDTAB
  0
ENDSEC
  0
SECTION
  2
BLOCKS
  0
BLOCK
  5
1B
330
1A
100
AcDbEntity
  8
0
100
AcDbBlockBegin
  2
*MODEL_SPACE
 70
     0
 10
0.0
 20
0.0
 30
0.0
  3
*MODEL_SPACE
  1

  0
ENDBLK
  5
1C
330
1A
100
AcDbEntity
  8
0
100
AcDbBlockEnd
  0
BLOCK
  5
5E60
330
5D8E
100
AcDbEntity
 67
     1
  8
0
100
AcDbBlockBegin
  2
*PAPER_SPACE
 70
     0
 10
0.0
 20
0.0
 30
0.0
  3
*PAPER_SPACE
  1

  0
ENDBLK
  5
5E61
330
5D8E
100
AcDbEntity
 67
     1
  8
0
100
AcDbBlockEnd
  0
BLOCK
  5
1332D
330
13321
100
AcDbEntity
  8
0
100
AcDbBlockBegin
  2
*D24
 70
     1
 10
0.0
 20
0.0
 30
0.0
  3
*D24
  1

  0
LINE
  5
13322
330
13321
100
AcDbEntity
  8
ZISSEN1
 62
     1
100
AcDbLine
 10
-1957.94017659781
 20
1895.048629310548
 30
0.0
 11
-1957.94017659781
 21
1879.679957932239
 31
0.0
  0
LINE
  5
13323
330
13321
100
AcDbEntity
  8
ZISSEN1
 62
     1
100
AcDbLine
 10
-1953.94017559781
 20
1905.134389310548
 30
0.0
 11
-1953.94017559781
 21
1879.679957932239
 31
0.0
  0
LINE
  5
13324
330
13321
100
AcDbEntity
  8
ZISSEN1
 62
     1
100
AcDbLine
 10
-1960.94017659781
 20
1880.17995793224
 30
0.0
 11
-1963.94017659781
 21
1880.17995793224
 31
0.0
  0
LINE
  5
13325
330
13321
100
AcDbEntity
  8
ZISSEN1
 62
     1
100
AcDbLine
 10
-1950.94017559781
 20
1880.17995793224
 30
0.0
 11
-1947.94017559781
 21
1880.17995793224
 31
0.0
  0
LINE
  5
13326
330
13321
100
AcDbEntity
  8
ZISSEN1
 62
     1
100
AcDbLine
 10
-1957.94017659781
 20
1880.17995793224
 30
0.0
 11
-1953.94017559781
 21
1880.17995793224
 31
0.0
  0
SOLID
  5
13327
330
13321
100
AcDbEntity
  8
ZISSEN1
 62
     1
100
AcDbTrace
 10
-1960.94017659781
 20
1880.67995793224
 30
0.0
 11
-1960.94017659781
 21
1879.679957932239
 31
0.0
 12
-1957.94017659781
 22
1880.17995793224
 32
0.0
 13
-1957.94017659781
 23
1880.17995793224
 33
0.0
  0
SOLID
  5
13328
330
13321
100
AcDbEntity
  8
ZISSEN1
 62
     1
100
AcDbTrace
 10
-1950.94017559781
 20
1880.67995793224
 30
0.0
 11
-1950.94017559781
 21
1879.679957932239
 31
0.0
 12
-1953.94017559781
 22
1880.17995793224
 32
0.0
 13
-1953.94017559781
 23
1880.17995793224
 33
0.0
  0
MTEXT
  5
13329
330
13321
100
AcDbEntity
  8
ZISSEN1
 62
     1
100
AcDbMText
 10
-1955.94017609781
 20
1882.92995793224
 30
0.0
 40
3.5
 41
0.0
 71
     5
 72
     1
  1
\A1;4
  7
ゴシック体
1001
ACAD
1000
MTEXTBEGIN
1070
    73
1070
     1
1070
    44
1040
1.0
1070
    74
1070
     0
1000
MTEXTEND
  0
POINT
  5
1332A
330
13321
100
AcDbEntity
  8
DEFPOINTS
 62
     0
100
AcDbPoint
 10
-1957.94017659781
 20
1895.548629310549
 30
0.0
  0
POINT
  5
1332B
330
13321
100
AcDbEntity
  8
DEFPOINTS
 62
     0
100
AcDbPoint
 10
-1953.94017559781
 20
1905.634389310549
 30
0.0
  0
POINT
  5
1332C
330
13321
100
AcDbEntity
  8
DEFPOINTS
 62
     0
100
AcDbPoint
 10
-1953.94017559781
 20
1880.17995793224
 30
0.0
  0
ENDBLK
  5
1332E
330
13321
100
AcDbEntity
  8
0
100
AcDbBlockEnd
  0
BLOCK
  5
13339
330
13330
100
AcDbEntity
  8
0
100
AcDbBlockBegin
  2
*D25
 70
     1
 10
0.0
 20
0.0
 30
0.0
  3
*D25
  1

  0
LINE
  5
1338B
330
13330
100
AcDbEntity
  8
SUNPOU
 62
     1
100
AcDbLine
 10
-1813.94017359781
 20
1905.134389310548
 30
0.0
 11
-1813.94017359781
 21
1879.679957932239
 31
0.0
  0
LINE
  5
1338C
330
13330
100
AcDbEntity
  8
SUNPOU
 62
     1
100
AcDbLine
 10
-1950.94017559781
 20
1880.17995793224
 30
0.0
 11
-1816.94017359781
 21
1880.17995793224
 31
0.0
  0
SOLID
  5
1338D
330
13330
100
AcDbEntity
  8
SUNPOU
 62
     1
100
AcDbTrace
 10
-1950.94017559781
 20
1880.67995793224
 30
0.0
 11
-1950.94017559781
 21
1879.679957932239
 31
0.0
 12
-1953.94017559781
 22
1880.17995793224
 32
0.0
 13
-1953.94017559781
 23
1880.17995793224
 33
0.0
  0
SOLID
  5
1338E
330
13330
100
AcDbEntity
  8
SUNPOU
 62
     1
100
AcDbTrace
 10
-1816.94017359781
 20
1880.67995793224
 30
0.0
 11
-1816.94017359781
 21
1879.679957932239
 31
0.0
 12
-1813.94017359781
 22
1880.17995793224
 32
0.0
 13
-1813.94017359781
 23
1880.17995793224
 33
0.0
  0
MTEXT
  5
1338F
330
13330
100
AcDbEntity
  8
SUNPOU
 62
     1
100
AcDbMText
 10
-1883.94017459781
 20
1883.223105140362
 30
0.0
 40
3.5
 41
0.0
 71
     5
 72
     1
  1
\A1;140 (USER 取付ﾋﾟｯﾁ)
  7
ゴシック体
1001
ACAD
1000
MTEXTBEGIN
1070
    73
1070
     1
1070
    44
1040
1.0
1070
    74
1070
     0
1000
MTEXTEND
  0
POINT
  5
13390
330
13330
100
AcDbEntity
  8
DEFPOINTS
 62
     0
100
AcDbPoint
 10
-1953.94017559781
 20
1880.17995793224
 30
0.0
  0
POINT
  5
13391
330
13330
100
AcDbEntity
  8
DEFPOINTS
 62
     0
100
AcDbPoint
 10
-1813.94017359781
 20
1905.634389310549
 30
0.0
  0
POINT
  5
13392
330
13330
100
AcDbEntity
  8
DEFPOINTS
 62
     0
100
AcDbPoint
 10
-1813.94017359781
 20
1880.17995793224
 30
0.0
  0
ENDBLK
  5
1333A
330
13330
100
AcDbEntity
  8
0
100
AcDbBlockEnd
  0
BLOCK
  5
1336D
330
13361
100
AcDbEntity
  8
0
100
AcDbBlockBegin
  2
*D26
 70
     1
 10
0.0
 20
0.0
 30
0.0
  3
*D26
  1

  0
LINE
  5
13362
330
13361
100
AcDbEntity
  8
SUNPOU
 62
     1
100
AcDbLine
 10
-1813.94017359781
 20
1904.634389310549
 30
0.0
 11
-1813.94017359781
 21
1879.679957932239
 31
0.0
  0
LINE
  5
13363
330
13361
100
AcDbEntity
  8
SUNPOU
 62
     1
100
AcDbLine
 10
-1809.94017359781
 20
1895.048629310548
 30
0.0
 11
-1809.94017359781
 21
1879.679957932239
 31
0.0
  0
LINE
  5
13364
330
13361
100
AcDbEntity
  8
SUNPOU
 62
     1
100
AcDbLine
 10
-1816.94017359781
 20
1880.17995793224
 30
0.0
 11
-1819.94017359781
 21
1880.17995793224
 31
0.0
  0
LINE
  5
13365
330
13361
100
AcDbEntity
  8
SUNPOU
 62
     1
100
AcDbLine
 10
-1806.94017359781
 20
1880.17995793224
 30
0.0
 11
-1803.94017359781
 21
1880.17995793224
 31
0.0
  0
LINE
  5
13366
330
13361
100
AcDbEntity
  8
SUNPOU
 62
     1
100
AcDbLine
 10
-1813.94017359781
 20
1880.17995793224
 30
0.0
 11
-1809.94017359781
 21
1880.17995793224
 31
0.0
  0
SOLID
  5
13367
330
13361
100
AcDbEntity
  8
SUNPOU
 62
     1
100
AcDbTrace
 10
-1816.94017359781
 20
1880.67995793224
 30
0.0
 11
-1816.94017359781
 21
1879.679957932239
 31
0.0
 12
-1813.94017359781
 22
1880.17995793224
 32
0.0
 13
-1813.94017359781
 23
1880.17995793224
 33
0.0
  0
SOLID
  5
13368
330
13361
100
AcDbEntity
  8
SUNPOU
 62
     1
100
AcDbTrace
 10
-1806.94017359781
 20
1880.67995793224
 30
0.0
 11
-1806.94017359781
 21
1879.679957932239
 31
0.0
 12
-1809.94017359781
 22
1880.17995793224
 32
0.0
 13
-1809.94017359781
 23
1880.17995793224
 33
0.0
  0
MTEXT
  5
13369
330
13361
100
AcDbEntity
  8
SUNPOU
 62
     1
100
AcDbMText
 10
-1811.94017359781
 20
1882.92995793224
 30
0.0
 40
3.5
 41
0.0
 71
     5
 72
     1
  1
\A1;4
  7
ゴシック体
1001
ACAD
1000
MTEXTBEGIN
1070
    73
1070
     1
1070
    44
1040
1.0
1070
    74
1070
     0
1000
MTEXTEND
  0
POINT
  5
1336A
330
13361
100
AcDbEntity
  8
DEFPOINTS
 62
     0
100
AcDbPoint
 10
-1813.94017359781
 20
1905.134389310548
 30
0.0
  0
POINT
  5
1336B
330
13361
100
AcDbEntity
  8
DEFPOINTS
 62
     0
100
AcDbPoint
 10
-1809.94017359781
 20
1895.548629310549
 30
0.0
  0
POINT
  5
1336C
330
13361
100
AcDbEntity
  8
DEFPOINTS
 62
     0
100
AcDbPoint
 10
-1809.94017359781
 20
1880.17995793224
 30
0.0
  0
ENDBLK
  5
1336E
330
13361
100
AcDbEntity
  8
0
100
AcDbBlockEnd
  0
BLOCK
  5
1337C
330
13370
100
AcDbEntity
  8
0
100
AcDbBlockBegin
  2
*D27
 70
     1
 10
0.0
 20
0.0
 30
0.0
  3
*D27
  1

  0
LINE
  5
13371
330
13370
100
AcDbEntity
  8
SUNPOU
 62
     1
100
AcDbLine
 10
-1809.44017359781
 20
1903.384419310548
 30
0.0
 11
-1800.91214180871
 21
1903.384419310548
 31
0.0
  0
LINE
  5
13372
330
13370
100
AcDbEntity
  8
SUNPOU
 62
     1
100
AcDbLine
 10
-1809.44017359781
 20
1907.884409310548
 30
0.0
 11
-1800.91214180871
 21
1907.884409310548
 31
0.0
  0
LINE
  5
13373
330
13370
100
AcDbEntity
  8
SUNPOU
 62
     1
100
AcDbLine
 10
-1801.412141808711
 20
1900.384419310548
 30
0.0
 11
-1801.412141808711
 21
1897.384419310548
 31
0.0
  0
LINE
  5
13374
330
13370
100
AcDbEntity
  8
SUNPOU
 62
     1
100
AcDbLine
 10
-1801.412141808711
 20
1910.884409310549
 30
0.0
 11
-1801.412141808711
 21
1922.298114894305
 31
0.0
  0
LINE
  5
13375
330
13370
100
AcDbEntity
  8
SUNPOU
 62
     1
100
AcDbLine
 10
-1801.412141808711
 20
1903.384419310548
 30
0.0
 11
-1801.412141808711
 21
1907.884409310548
 31
0.0
  0
SOLID
  5
13376
330
13370
100
AcDbEntity
  8
SUNPOU
 62
     1
100
AcDbTrace
 10
-1801.912141808711
 20
1900.384419310548
 30
0.0
 11
-1800.91214180871
 21
1900.384419310548
 31
0.0
 12
-1801.412141808711
 22
1903.384419310548
 32
0.0
 13
-1801.412141808711
 23
1903.384419310548
 33
0.0
  0
SOLID
  5
13377
330
13370
100
AcDbEntity
  8
SUNPOU
 62
     1
100
AcDbTrace
 10
-1801.912141808711
 20
1910.884409310549
 30
0.0
 11
-1800.91214180871
 21
1910.884409310549
 31
0.0
 12
-1801.412141808711
 22
1907.884409310548
 32
0.0
 13
-1801.412141808711
 23
1907.884409310548
 33
0.0
  0
MTEXT
  5
13378
330
13370
100
AcDbEntity
  8
SUNPOU
 62
     1
100
AcDbMText
 10
-1804.162141808711
 20
1918.091262102426
 30
0.0
 40
3.5
 41
0.0
 71
     5
 72
     1
  1
\A1;4.5
  7
ゴシック体
 11
0.0000000000000001
 21
1.0
 31
0.0
1001
ACAD
1000
MTEXTBEGIN
1070
    73
1070
     1
1070
    44
1040
1.0
1070
    74
1070
     0
1000
MTEXTEND
  0
POINT
  5
13379
330
13370
100
AcDbEntity
  8
DEFPOINTS
 62
     0
100
AcDbPoint
 10
-1809.94017359781
 20
1903.384419310548
 30
0.0
  0
POINT
  5
1337A
330
13370
100
AcDbEntity
  8
DEFPOINTS
 62
     0
100
AcDbPoint
 10
-1809.94017359781
 20
1907.884409310548
 30
0.0
  0
POINT
  5
1337B
330
13370
100
AcDbEntity
  8
DEFPOINTS
 62
     0
100
AcDbPoint
 10
-1801.412141808711
 20
1907.884409310548
 30
0.0
  0
ENDBLK
  5
1337D
330
13370
100
AcDbEntity
  8
0
100
AcDbBlockEnd
  0
BLOCK
  5
13389
330
1337F
100
AcDbEntity
  8
0
100
AcDbBlockBegin
  2
*D28
 70
     1
 10
0.0
 20
0.0
 30
0.0
  3
*D28
  1

  0
LINE
  5
13380
330
1337F
100
AcDbEntity
  8
SUNPOU
 62
     1
100
AcDbLine
 10
-1818.44017359781
 20
1891.134399310549
 30
0.0
 11
-1790.253759929675
 21
1891.134399310549
 31
0.0
  0
LINE
  5
13381
330
1337F
100
AcDbEntity
  8
SUNPOU
 62
     1
100
AcDbLine
 10
-1813.44017359781
 20
1905.634389310549
 30
0.0
 11
-1790.253759929675
 21
1905.634389310549
 31
0.0
  0
LINE
  5
13382
330
1337F
100
AcDbEntity
  8
SUNPOU
 62
     1
100
AcDbLine
 10
-1790.753759929675
 20
1894.134399310548
 30
0.0
 11
-1790.753759929675
 21
1902.634389310548
 31
0.0
  0
SOLID
  5
13383
330
1337F
100
AcDbEntity
  8
SUNPOU
 62
     1
100
AcDbTrace
 10
-1791.253759929675
 20
1894.134399310548
 30
0.0
 11
-1790.253759929675
 21
1894.134399310548
 31
0.0
 12
-1790.753759929675
 22
1891.134399310549
 32
0.0
 13
-1790.753759929675
 23
1891.134399310549
 33
0.0
  0
SOLID
  5
13384
330
1337F
100
AcDbEntity
  8
SUNPOU
 62
     1
100
AcDbTrace
 10
-1791.253759929675
 20
1902.634389310548
 30
0.0
 11
-1790.253759929675
 21
1902.634389310548
 31
0.0
 12
-1790.753759929675
 22
1905.634389310549
 32
0.0
 13
-1790.753759929675
 23
1905.634389310549
 33
0.0
  0
MTEXT
  5
13385
330
1337F
100
AcDbEntity
  8
SUNPOU
 62
     1
100
AcDbMText
 10
-1793.503759929675
 20
1898.384394310548
 30
0.0
 40
3.5
 41
0.0
 71
     5
 72
     1
  1
\A1;14.5
  7
ゴシック体
 11
0.0000000000000001
 21
1.0
 31
0.0
1001
ACAD
1000
MTEXTBEGIN
1070
    73
1070
     1
1070
    44
1040
1.0
1070
    74
1070
     0
1000
MTEXTEND
  0
POINT
  5
13386
330
1337F
100
AcDbEntity
  8
DEFPOINTS
 62
     0
100
AcDbPoint
 10
-1818.94017359781
 20
1891.134399310549
 30
0.0
  0
POINT
  5
13387
330
1337F
100
AcDbEntity
  8
DEFPOINTS
 62
     0
100
AcDbPoint
 10
-1813.94017359781
 20
1905.634389310549
 30
0.0
  0
POINT
  5
13388
330
1337F
100
AcDbEntity
  8
DEFPOINTS
 62
     0
100
AcDbPoint
 10
-1790.753759929675
 20
1905.634389310549
 30
0.0
  0
ENDBLK
  5
1338A
330
1337F
100
AcDbEntity
  8
0
100
AcDbBlockEnd
  0
BLOCK
  5
133AD
330
133A1
100
AcDbEntity
  8
0
100
AcDbBlockBegin
  2
*D29
 70
     1
 10
0.0
 20
0.0
 30
0.0
  3
*D29
  1

  0
LINE
  5
133A2
330
133A1
100
AcDbEntity
  8
SUNPOU
 62
     1
100
AcDbLine
 10
-1806.44018359781
 20
1857.301299310549
 30
0.0
 11
-1799.097611633724
 21
1857.301299310549
 31
0.0
  0
LINE
  5
133A3
330
133A1
100
AcDbEntity
  8
SUNPOU
 62
     1
100
AcDbLine
 10
-1806.44018359781
 20
1851.301289310549
 30
0.0
 11
-1799.097611633724
 21
1851.301289310549
 31
0.0
  0
LINE
  5
133A4
330
133A1
100
AcDbEntity
  8
SUNPOU
 62
     1
100
AcDbLine
 10
-1799.597611633724
 20
1860.301299310549
 30
0.0
 11
-1799.597611633724
 21
1863.301299310549
 31
0.0
  0
LINE
  5
133A5
330
133A1
100
AcDbEntity
  8
SUNPOU
 62
     1
100
AcDbLine
 10
-1799.597611633724
 20
1848.301289310549
 30
0.0
 11
-1799.597611633724
 21
1845.301289310548
 31
0.0
  0
LINE
  5
133A6
330
133A1
100
AcDbEntity
  8
SUNPOU
 62
     1
100
AcDbLine
 10
-1799.597611633724
 20
1857.301299310549
 30
0.0
 11
-1799.597611633724
 21
1851.301289310549
 31
0.0
  0
SOLID
  5
133A7
330
133A1
100
AcDbEntity
  8
SUNPOU
 62
     1
100
AcDbTrace
 10
-1800.097611633725
 20
1860.301299310549
 30
0.0
 11
-1799.097611633724
 21
1860.301299310549
 31
0.0
 12
-1799.597611633724
 22
1857.301299310549
 32
0.0
 13
-1799.597611633724
 23
1857.301299310549
 33
0.0
  0
SOLID
  5
133A8
330
133A1
100
AcDbEntity
  8
SUNPOU
 62
     1
100
AcDbTrace
 10
-1800.097611633725
 20
1848.301289310549
 30
0.0
 11
-1799.097611633724
 21
1848.301289310549
 31
0.0
 12
-1799.597611633724
 22
1851.301289310549
 32
0.0
 13
-1799.597611633724
 23
1851.301289310549
 33
0.0
  0
MTEXT
  5
133A9
330
133A1
100
AcDbEntity
  8
SUNPOU
 62
     1
100
AcDbMText
 10
-1802.347611633725
 20
1854.301294310548
 30
0.0
 40
3.5
 41
0.0
 71
     5
 72
     1
  1
\A1;6
  7
ゴシック体
 11
0.0000000000000001
 21
1.0
 31
0.0
1001
ACAD
1000
MTEXTBEGIN
1070
    73
1070
     1
1070
    44
1040
1.0
1070
    74
1070
     0
1000
MTEXTEND
  0
POINT
  5
133AA
330
133A1
100
AcDbEntity
  8
DEFPOINTS
 62
     0
100
AcDbPoint
 10
-1806.94018359781
 20
1857.301299310549
 30
0.0
  0
POINT
  5
133AB
330
133A1
100
AcDbEntity
  8
DEFPOINTS
 62
     0
100
AcDbPoint
 10
-1806.94018359781
 20
1851.301289310549
 30
0.0
  0
POINT
  5
133AC
330
133A1
100
AcDbEntity
  8
DEFPOINTS
 62
     0
100
AcDbPoint
 10
-1799.597611633724
 20
1851.301289310549
 30
0.0
  0
ENDBLK
  5
133AE
330
133A1
100
AcDbEntity
  8
0
100
AcDbBlockEnd
  0
BLOCK
  5
133BA
330
133B0
100
AcDbEntity
  8
0
100
AcDbBlockBegin
  2
*D30
 70
     1
 10
0.0
 20
0.0
 30
0.0
  3
*D30
  1

  0
LINE
  5
133B1
330
133B0
100
AcDbEntity
  8
SUNPOU
 62
     1
100
AcDbLine
 10
-1957.94016459781
 20
1737.147929310549
 30
0.0
 11
-1957.94016459781
 21
1726.617179022665
 31
0.0
  0
LINE
  5
133B2
330
133B0
100
AcDbEntity
  8
SUNPOU
 62
     1
100
AcDbLine
 10
-1948.94017159781
 20
1740.647928310549
 30
0.0
 11
-1948.94017159781
 21
1726.617179022665
 31
0.0
  0
LINE
  5
133B3
330
133B0
100
AcDbEntity
  8
SUNPOU
 62
     1
100
AcDbLine
 10
-1954.94016459781
 20
1727.117179022665
 30
0.0
 11
-1951.94017159781
 21
1727.117179022665
 31
0.0
  0
SOLID
  5
133B4
330
133B0
100
AcDbEntity
  8
SUNPOU
 62
     1
100
AcDbTrace
 10
-1954.94016459781
 20
1727.617179022665
 30
0.0
 11
-1954.94016459781
 21
1726.617179022665
 31
0.0
 12
-1957.94016459781
 22
1727.117179022665
 32
0.0
 13
-1957.94016459781
 23
1727.117179022665
 33
0.0
  0
SOLID
  5
133B5
330
133B0
100
AcDbEntity
  8
SUNPOU
 62
     1
100
AcDbTrace
 10
-1951.94017159781
 20
1727.617179022665
 30
0.0
 11
-1951.94017159781
 21
1726.617179022665
 31
0.0
 12
-1948.94017159781
 22
1727.117179022665
 32
0.0
 13
-1948.94017159781
 23
1727.117179022665
 33
0.0
  0
MTEXT
  5
133B6
330
133B0
100
AcDbEntity
  8
SUNPOU
 62
     1
100
AcDbMText
 10
-1953.44016809781
 20
1729.867179022665
 30
0.0
 40
3.5
 41
0.0
 71
     5
 72
     1
  1
\A1;9
  7
ゴシック体
1001
ACAD
1000
MTEXTBEGIN
1070
    73
1070
     1
1070
    44
1040
1.0
1070
    74
1070
     0
1000
MTEXTEND
  0
POINT
  5
133B7
330
133B0
100
AcDbEntity
  8
DEFPOINTS
 62
     0
100
AcDbPoint
 10
-1957.94016459781
 20
1737.647929310549
 30
0.0
  0
POINT
  5
133B8
330
133B0
100
AcDbEntity
  8
DEFPOINTS
 62
     0
100
AcDbPoint
 10
-1948.94017159781
 20
1741.147928310549
 30
0.0
  0
POINT
  5
133B9
330
133B0
100
AcDbEntity
  8
DEFPOINTS
 62
     0
100
AcDbPoint
 10
-1948.94017159781
 20
1727.117179022665
 30
0.0
  0
ENDBLK
  5
133BB
330
133B0
100
AcDbEntity
  8
0
100
AcDbBlockEnd
  0
BLOCK
  5
133D2
330
133C9
100
AcDbEntity
  8
0
100
AcDbBlockBegin
  2
*D31
 70
     1
 10
0.0
 20
0.0
 30
0.0
  3
*D31
  1

  0
LINE
  5
133CA
330
133C9
100
AcDbEntity
  8
SUNPOU
 62
     1
100
AcDbLine
 10
-1818.94017359781
 20
1742.147927310549
 30
0.0
 11
-1818.94017359781
 21
1726.617179022665
 31
0.0
  0
LINE
  5
133CB
330
133C9
100
AcDbEntity
  8
SUNPOU
 62
     1
100
AcDbLine
 10
-1945.94017159781
 20
1727.117179022665
 30
0.0
 11
-1821.94017359781
 21
1727.117179022665
 31
0.0
  0
SOLID
  5
133CC
330
133C9
100
AcDbEntity
  8
SUNPOU
 62
     1
100
AcDbTrace
 10
-1945.94017159781
 20
1727.617179022665
 30
0.0
 11
-1945.94017159781
 21
1726.617179022665
 31
0.0
 12
-1948.94017159781
 22
1727.117179022665
 32
0.0
 13
-1948.94017159781
 23
1727.117179022665
 33
0.0
  0
SOLID
  5
133CD
330
133C9
100
AcDbEntity
  8
SUNPOU
 62
     1
100
AcDbTrace
 10
-1821.94017359781
 20
1727.617179022665
 30
0.0
 11
-1821.94017359781
 21
1726.617179022665
 31
0.0
 12
-1818.94017359781
 22
1727.117179022665
 32
0.0
 13
-1818.94017359781
 23
1727.117179022665
 33
0.0
  0
MTEXT
  5
133CE
330
133C9
100
AcDbEntity
  8
SUNPOU
 62
     1
100
AcDbMText
 10
-1883.940172597809
 20
1729.867179022665
 30
0.0
 40
3.5
 41
0.0
 71
     5
 72
     1
  1
\A1;130
  7
ゴシック体
1001
ACAD
1000
MTEXTBEGIN
1070
    73
1070
     1
1070
    44
1040
1.0
1070
    74
1070
     0
1000
MTEXTEND
  0
POINT
  5
133CF
330
133C9
100
AcDbEntity
  8
DEFPOINTS
 62
     0
100
AcDbPoint
 10
-1948.94017159781
 20
1727.117179022665
 30
0.0
  0
POINT
  5
133D0
330
133C9
100
AcDbEntity
  8
DEFPOINTS
 62
     0
100
AcDbPoint
 10
-1818.94017359781
 20
1742.647927310549
 30
0.0
  0
POINT
  5
133D1
330
133C9
100
AcDbEntity
  8
DEFPOINTS
 62
     0
100
AcDbPoint
 10
-1818.94017359781
 20
1727.117179022665
 30
0.0
  0
ENDBLK
  5
133D3
330
133C9
100
AcDbEntity
  8
0
100
AcDbBlockEnd
  0
BLOCK
  5
133DF
330
133D5
100
AcDbEntity
  8
0
100
AcDbBlockBegin
  2
*D32
 70
     1
 10
0.0
 20
0.0
 30
0.0
  3
*D32
  1

  0
LINE
  5
133D6
330
133D5
100
AcDbEntity
  8
SUNPOU
 62
     1
100
AcDbLine
 10
-1818.94017359781
 20
1727.617179022665
 30
0.0
 11
-1818.94017359781
 21
1727.794280502701
 31
0.0
  0
LINE
  5
133D7
330
133D5
100
AcDbEntity
  8
SUNPOU
 62
     1
100
AcDbLine
 10
-1809.94017359781
 20
1737.147929310549
 30
0.0
 11
-1809.94017359781
 21
1726.794280502701
 31
0.0
  0
LINE
  5
133D8
330
133D5
100
AcDbEntity
  8
SUNPOU
 62
     1
100
AcDbLine
 10
-1815.94017359781
 20
1727.294280502701
 30
0.0
 11
-1812.94017359781
 21
1727.294280502701
 31
0.0
  0
SOLID
  5
133D9
330
133D5
100
AcDbEntity
  8
SUNPOU
 62
     1
100
AcDbTrace
 10
-1815.94017359781
 20
1727.794280502701
 30
0.0
 11
-1815.94017359781
 21
1726.794280502701
 31
0.0
 12
-1818.94017359781
 22
1727.294280502701
 32
0.0
 13
-1818.94017359781
 23
1727.294280502701
 33
0.0
  0
SOLID
  5
133DA
330
133D5
100
AcDbEntity
  8
SUNPOU
 62
     1
100
AcDbTrace
 10
-1812.94017359781
 20
1727.794280502701
 30
0.0
 11
-1812.94017359781
 21
1726.794280502701
 31
0.0
 12
-1809.94017359781
 22
1727.294280502701
 32
0.0
 13
-1809.94017359781
 23
1727.294280502701
 33
0.0
  0
MTEXT
  5
133DB
330
133D5
100
AcDbEntity
  8
SUNPOU
 62
     1
100
AcDbMText
 10
-1814.44017359781
 20
1730.044280502701
 30
0.0
 40
3.5
 41
0.0
 71
     5
 72
     1
  1
\A1;9
  7
ゴシック体
1001
ACAD
1000
MTEXTBEGIN
1070
    73
1070
     1
1070
    44
1040
1.0
1070
    74
1070
     0
1000
MTEXTEND
  0
POINT
  5
133DC
330
133D5
100
AcDbEntity
  8
DEFPOINTS
 62
     0
100
AcDbPoint
 10
-1818.94017359781
 20
1727.117179022665
 30
0.0
  0
POINT
  5
133DD
330
133D5
100
AcDbEntity
  8
DEFPOINTS
 62
     0
100
AcDbPoint
 10
-1809.94017359781
 20
1737.647929310549
 30
0.0
  0
POINT
  5
133DE
330
133D5
100
AcDbEntity
  8
DEFPOINTS
 62
     0
100
AcDbPoint
 10
-1809.94017359781
 20
1727.294280502701
 30
0.0
  0
ENDBLK
  5
133E0
330
133D5
100
AcDbEntity
  8
0
100
AcDbBlockEnd
  0
BLOCK
  5
133EC
330
133E2
100
AcDbEntity
  8
0
100
AcDbBlockBegin
  2
*D33
 70
     1
 10
0.0
 20
0.0
 30
0.0
  3
*D33
  1

  0
LINE
  5
133E3
330
133E2
100
AcDbEntity
  8
SUNPOU
 62
     1
100
AcDbLine
 10
-1957.94016459781
 20
1726.117179022665
 30
0.0
 11
-1957.94016459781
 21
1719.355989951367
 31
0.0
  0
LINE
  5
133E4
330
133E2
100
AcDbEntity
  8
SUNPOU
 62
     1
100
AcDbLine
 10
-1806.94018359781
 20
1742.147927310549
 30
0.0
 11
-1806.94018359781
 21
1719.355989951367
 31
0.0
  0
LINE
  5
133E5
330
133E2
100
AcDbEntity
  8
SUNPOU
 62
     1
100
AcDbLine
 10
-1954.94016459781
 20
1719.855989951367
 30
0.0
 11
-1809.94018359781
 21
1719.855989951367
 31
0.0
  0
SOLID
  5
133E6
330
133E2
100
AcDbEntity
  8
SUNPOU
 62
     1
100
AcDbTrace
 10
-1954.94016459781
 20
1720.355989951366
 30
0.0
 11
-1954.94016459781
 21
1719.355989951367
 31
0.0
 12
-1957.94016459781
 22
1719.855989951367
 32
0.0
 13
-1957.94016459781
 23
1719.855989951367
 33
0.0
  0
SOLID
  5
133E7
330
133E2
100
AcDbEntity
  8
SUNPOU
 62
     1
100
AcDbTrace
 10
-1809.94018359781
 20
1720.355989951366
 30
0.0
 11
-1809.94018359781
 21
1719.355989951367
 31
0.0
 12
-1806.94018359781
 22
1719.855989951367
 32
0.0
 13
-1806.94018359781
 23
1719.855989951367
 33
0.0
  0
MTEXT
  5
133E8
330
133E2
100
AcDbEntity
  8
SUNPOU
 62
     1
100
AcDbMText
 10
-1882.44017409781
 20
1722.605989951366
 30
0.0
 40
3.5
 41
0.0
 71
     5
 72
     1
  1
\A1;151
  7
ゴシック体
1001
ACAD
1000
MTEXTBEGIN
1070
    73
1070
     1
1070
    44
1040
1.0
1070
    74
1070
     0
1000
MTEXTEND
  0
POINT
  5
133E9
330
133E2
100
AcDbEntity
  8
DEFPOINTS
 62
     0
100
AcDbPoint
 10
-1957.94016459781
 20
1726.617179022665
 30
0.0
  0
POINT
  5
133EA
330
133E2
100
AcDbEntity
  8
DEFPOINTS
 62
     0
100
AcDbPoint
 10
-1806.94018359781
 20
1742.647927310549
 30
0.0
  0
POINT
  5
133EB
330
133E2
100
AcDbEntity
  8
DEFPOINTS
 62
     0
100
AcDbPoint
 10
-1806.94018359781
 20
1719.855989951367
 30
0.0
  0
ENDBLK
  5
133ED
330
133E2
100
AcDbEntity
  8
0
100
AcDbBlockEnd
  0
BLOCK
  5
13404
330
133FA
100
AcDbEntity
  8
0
100
AcDbBlockBegin
  2
*D34
 70
     1
 10
0.0
 20
0.0
 30
0.0
  3
*D34
  1

  0
LINE
  5
133FB
330
133FA
100
AcDbEntity
  8
SUNPOU
 62
     1
100
AcDbLine
 10
-1794.53477359781
 20
1740.647928310549
 30
0.0
 11
-1794.53477359781
 21
1719.355989951367
 31
0.0
  0
LINE
  5
133FC
330
133FA
100
AcDbEntity
  8
SUNPOU
 62
     1
100
AcDbLine
 10
-1749.53477359781
 20
1737.855038310549
 30
0.0
 11
-1749.53477359781
 21
1719.355989951367
 31
0.0
  0
LINE
  5
133FD
330
133FA
100
AcDbEntity
  8
SUNPOU
 62
     1
100
AcDbLine
 10
-1791.53477359781
 20
1719.855989951367
 30
0.0
 11
-1752.53477359781
 21
1719.855989951367
 31
0.0
  0
SOLID
  5
133FE
330
133FA
100
AcDbEntity
  8
SUNPOU
 62
     1
100
AcDbTrace
 10
-1791.53477359781
 20
1720.355989951366
 30
0.0
 11
-1791.53477359781
 21
1719.355989951367
 31
0.0
 12
-1794.53477359781
 22
1719.855989951367
 32
0.0
 13
-1794.53477359781
 23
1719.855989951367
 33
0.0
  0
SOLID
  5
133FF
330
133FA
100
AcDbEntity
  8
SUNPOU
 62
     1
100
AcDbTrace
 10
-1752.53477359781
 20
1720.355989951366
 30
0.0
 11
-1752.53477359781
 21
1719.355989951367
 31
0.0
 12
-1749.53477359781
 22
1719.855989951367
 32
0.0
 13
-1749.53477359781
 23
1719.855989951367
 33
0.0
  0
MTEXT
  5
13400
330
133FA
100
AcDbEntity
  8
SUNPOU
 62
     1
100
AcDbMText
 10
-1772.03477359781
 20
1722.605989951366
 30
0.0
 40
3.5
 41
0.0
 71
     5
 72
     1
  1
\A1;45
  7
ゴシック体
1001
ACAD
1000
MTEXTBEGIN
1070
    73
1070
     1
1070
    44
1040
1.0
1070
    74
1070
     0
1000
MTEXTEND
  0
POINT
  5
13401
330
133FA
100
AcDbEntity
  8
DEFPOINTS
 62
     0
100
AcDbPoint
 10
-1794.53477359781
 20
1741.147928310549
 30
0.0
  0
POINT
  5
13402
330
133FA
100
AcDbEntity
  8
DEFPOINTS
 62
     0
100
AcDbPoint
 10
-1749.53477359781
 20
1738.355038310549
 30
0.0
  0
POINT
  5
13403
330
133FA
100
AcDbEntity
  8
DEFPOINTS
 62
     0
100
AcDbPoint
 10
-1749.53477359781
 20
1719.855989951367
 30
0.0
  0
ENDBLK
  5
13405
330
133FA
100
AcDbEntity
  8
0
100
AcDbBlockEnd
  0
BLOCK
  5
1342B
330
13421
100
AcDbEntity
  8
0
100
AcDbBlockBegin
  2
*D35
 70
     1
 10
0.0
 20
0.0
 30
0.0
  3
*D35
  1

  0
LINE
  5
13505
330
13421
100
AcDbEntity
  8
SUNPOU
 62
     1
100
AcDbLine
 10
-1731.815030251095
 20
1737.147941310549
 30
0.0
 11
-1731.815030251095
 21
1718.855989951367
 31
0.0
  0
LINE
  5
13506
330
13421
100
AcDbEntity
  8
SUNPOU
 62
     1
100
AcDbLine
 10
-1713.815020251095
 20
1744.147940310549
 30
0.0
 11
-1713.815020251095
 21
1718.855989951367
 31
0.0
  0
LINE
  5
13507
330
13421
100
AcDbEntity
  8
SUNPOU
 62
     1
100
AcDbLine
 10
-1728.815030251094
 20
1719.355989951367
 30
0.0
 11
-1716.815020251095
 21
1719.355989951367
 31
0.0
  0
SOLID
  5
13508
330
13421
100
AcDbEntity
  8
SUNPOU
 62
     1
100
AcDbTrace
 10
-1728.815030251094
 20
1719.855989951367
 30
0.0
 11
-1728.815030251094
 21
1718.855989951367
 31
0.0
 12
-1731.815030251095
 22
1719.355989951367
 32
0.0
 13
-1731.815030251095
 23
1719.355989951367
 33
0.0
  0
SOLID
  5
13509
330
13421
100
AcDbEntity
  8
SUNPOU
 62
     1
100
AcDbTrace
 10
-1716.815020251095
 20
1719.855989951367
 30
0.0
 11
-1716.815020251095
 21
1718.855989951367
 31
0.0
 12
-1713.815020251095
 22
1719.355989951367
 32
0.0
 13
-1713.815020251095
 23
1719.355989951367
 33
0.0
  0
MTEXT
  5
1350A
330
13421
100
AcDbEntity
  8
SUNPOU
 62
     1
100
AcDbMText
 10
-1722.815025251095
 20
1722.105989951367
 30
0.0
 40
3.5
 41
0.0
 71
     5
 72
     1
  1
\A1;18
  7
ゴシック体
1001
ACAD
1000
MTEXTBEGIN
1070
    73
1070
     1
1070
    44
1040
1.0
1070
    74
1070
     0
1000
MTEXTEND
  0
POINT
  5
1350B
330
13421
100
AcDbEntity
  8
DEFPOINTS
 62
     0
100
AcDbPoint
 10
-1731.815030251095
 20
1737.647941310549
 30
0.0
  0
POINT
  5
1350C
330
13421
100
AcDbEntity
  8
DEFPOINTS
 62
     0
100
AcDbPoint
 10
-1713.815020251095
 20
1744.647940310549
 30
0.0
  0
POINT
  5
1350D
330
13421
100
AcDbEntity
  8
DEFPOINTS
 62
     0
100
AcDbPoint
 10
-1713.815020251095
 20
1719.355989951367
 30
0.0
  0
ENDBLK
  5
1342C
330
13421
100
AcDbEntity
  8
0
100
AcDbBlockEnd
  0
BLOCK
  5
13438
330
1342E
100
AcDbEntity
  8
0
100
AcDbBlockBegin
  2
*D36
 70
     1
 10
0.0
 20
0.0
 30
0.0
  3
*D36
  1

  0
LINE
  5
134FC
330
1342E
100
AcDbEntity
  8
SUNPOU
 62
     1
100
AcDbLine
 10
-1713.815020251095
 20
1718.855989951367
 30
0.0
 11
-1713.815020251095
 21
1718.355989951366
 31
0.0
  0
LINE
  5
134FD
330
1342E
100
AcDbEntity
  8
SUNPOU
 62
     1
100
AcDbLine
 10
-1613.814990251094
 20
1859.147919310548
 30
0.0
 11
-1613.814990251094
 21
1718.355989951366
 31
0.0
  0
LINE
  5
134FE
330
1342E
100
AcDbEntity
  8
SUNPOU
 62
     1
100
AcDbLine
 10
-1710.815020251095
 20
1718.855989951367
 30
0.0
 11
-1616.814990251095
 21
1718.855989951367
 31
0.0
  0
SOLID
  5
134FF
330
1342E
100
AcDbEntity
  8
SUNPOU
 62
     1
100
AcDbTrace
 10
-1710.815020251095
 20
1719.355989951367
 30
0.0
 11
-1710.815020251095
 21
1718.355989951366
 31
0.0
 12
-1713.815020251095
 22
1718.855989951367
 32
0.0
 13
-1713.815020251095
 23
1718.855989951367
 33
0.0
  0
SOLID
  5
13500
330
1342E
100
AcDbEntity
  8
SUNPOU
 62
     1
100
AcDbTrace
 10
-1616.814990251095
 20
1719.355989951367
 30
0.0
 11
-1616.814990251095
 21
1718.355989951366
 31
0.0
 12
-1613.814990251094
 22
1718.855989951367
 32
0.0
 13
-1613.814990251094
 23
1718.855989951367
 33
0.0
  0
MTEXT
  5
13501
330
1342E
100
AcDbEntity
  8
SUNPOU
 62
     1
100
AcDbMText
 10
-1663.815005251095
 20
1721.605989951367
 30
0.0
 40
3.5
 41
0.0
 71
     5
 72
     1
  1
\A1;100
  7
ゴシック体
1001
ACAD
1000
MTEXTBEGIN
1070
    73
1070
     1
1070
    44
1040
1.0
1070
    74
1070
     0
1000
MTEXTEND
  0
POINT
  5
13502
330
1342E
100
AcDbEntity
  8
DEFPOINTS
 62
     0
100
AcDbPoint
 10
-1713.815020251095
 20
1719.355989951367
 30
0.0
  0
POINT
  5
13503
330
1342E
100
AcDbEntity
  8
DEFPOINTS
 62
     0
100
AcDbPoint
 10
-1613.814990251094
 20
1859.647919310548
 30
0.0
  0
POINT
  5
13504
330
1342E
100
AcDbEntity
  8
DEFPOINTS
 62
     0
100
AcDbPoint
 10
-1613.814990251094
 20
1718.855989951367
 30
0.0
  0
ENDBLK
  5
13439
330
1342E
100
AcDbEntity
  8
0
100
AcDbBlockEnd
  0
BLOCK
  5
13445
330
1343B
100
AcDbEntity
  8
0
100
AcDbBlockBegin
  2
*D37
 70
     1
 10
0.0
 20
0.0
 30
0.0
  3
*D37
  1

  0
LINE
  5
1350E
330
1343B
100
AcDbEntity
  8
SUNPOU
 62
     1
100
AcDbLine
 10
-1613.814990251094
 20
1719.355989951367
 30
0.0
 11
-1613.814990251094
 21
1719.369657465222
 31
0.0
  0
LINE
  5
1350F
330
1343B
100
AcDbEntity
  8
SUNPOU
 62
     1
100
AcDbLine
 10
-1601.815000251095
 20
1737.147941310549
 30
0.0
 11
-1601.815000251095
 21
1718.369657465222
 31
0.0
  0
LINE
  5
13510
330
1343B
100
AcDbEntity
  8
SUNPOU
 62
     1
100
AcDbLine
 10
-1610.814990251094
 20
1718.869657465222
 30
0.0
 11
-1604.815000251095
 21
1718.869657465222
 31
0.0
  0
SOLID
  5
13511
330
1343B
100
AcDbEntity
  8
SUNPOU
 62
     1
100
AcDbTrace
 10
-1610.814990251094
 20
1719.369657465222
 30
0.0
 11
-1610.814990251094
 21
1718.369657465222
 31
0.0
 12
-1613.814990251094
 22
1718.869657465222
 32
0.0
 13
-1613.814990251094
 23
1718.869657465222
 33
0.0
  0
SOLID
  5
13512
330
1343B
100
AcDbEntity
  8
SUNPOU
 62
     1
100
AcDbTrace
 10
-1604.815000251095
 20
1719.369657465222
 30
0.0
 11
-1604.815000251095
 21
1718.369657465222
 31
0.0
 12
-1601.815000251095
 22
1718.869657465222
 32
0.0
 13
-1601.815000251095
 23
1718.869657465222
 33
0.0
  0
MTEXT
  5
13513
330
1343B
100
AcDbEntity
  8
SUNPOU
 62
     1
100
AcDbMText
 10
-1607.814995251095
 20
1721.619657465222
 30
0.0
 40
3.5
 41
0.0
 71
     5
 72
     1
  1
\A1;12
  7
ゴシック体
1001
ACAD
1000
MTEXTBEGIN
1070
    73
1070
     1
1070
    44
1040
1.0
1070
    74
1070
     0
1000
MTEXTEND
  0
POINT
  5
13514
330
1343B
100
AcDbEntity
  8
DEFPOINTS
 62
     0
100
AcDbPoint
 10
-1613.814990251094
 20
1718.855989951367
 30
0.0
  0
POINT
  5
13515
330
1343B
100
AcDbEntity
  8
DEFPOINTS
 62
     0
100
AcDbPoint
 10
-1601.815000251095
 20
1737.647941310549
 30
0.0
  0
POINT
  5
13516
330
1343B
100
AcDbEntity
  8
DEFPOINTS
 62
     0
100
AcDbPoint
 10
-1601.815000251095
 20
1718.869657465222
 30
0.0
  0
ENDBLK
  5
13446
330
1343B
100
AcDbEntity
  8
0
100
AcDbBlockEnd
  0
BLOCK
  5
1348D
330
13483
100
AcDbEntity
  8
0
100
AcDbBlockBegin
  2
*D38
 70
     1
 10
0.0
 20
0.0
 30
0.0
  3
*D38
  1

  0
LINE
  5
13484
330
13483
100
AcDbEntity
  8
SUNPOU
 62
     1
100
AcDbLine
 10
-1954.94017559781
 20
1921.634389310549
 30
0.0
 11
-1964.773037724598
 21
1921.634389310549
 31
0.0
  0
LINE
  5
13485
330
13483
100
AcDbEntity
  8
SUNPOU
 62
     1
100
AcDbLine
 10
-1954.44017559781
 20
1905.634389310549
 30
0.0
 11
-1964.773037724598
 21
1905.634389310549
 31
0.0
  0
LINE
  5
13486
330
13483
100
AcDbEntity
  8
SUNPOU
 62
     1
100
AcDbLine
 10
-1964.2730377246
 20
1918.634389310548
 30
0.0
 11
-1964.2730377246
 21
1908.634389310549
 31
0.0
  0
SOLID
  5
13487
330
13483
100
AcDbEntity
  8
SUNPOU
 62
     1
100
AcDbTrace
 10
-1964.773037724598
 20
1918.634389310548
 30
0.0
 11
-1963.773037724599
 21
1918.634389310548
 31
0.0
 12
-1964.2730377246
 22
1921.634389310549
 32
0.0
 13
-1964.2730377246
 23
1921.634389310549
 33
0.0
  0
SOLID
  5
13488
330
13483
100
AcDbEntity
  8
SUNPOU
 62
     1
100
AcDbTrace
 10
-1964.773037724598
 20
1908.634389310549
 30
0.0
 11
-1963.773037724599
 21
1908.634389310549
 31
0.0
 12
-1964.2730377246
 22
1905.634389310549
 32
0.0
 13
-1964.2730377246
 23
1905.634389310549
 33
0.0
  0
MTEXT
  5
13489
330
13483
100
AcDbEntity
  8
SUNPOU
 62
     1
100
AcDbMText
 10
-1967.023037724598
 20
1913.634389310548
 30
0.0
 40
3.5
 41
0.0
 71
     5
 72
     1
  1
\A1;16
  7
ゴシック体
 11
0.0000000000000001
 21
1.0
 31
0.0
1001
ACAD
1000
MTEXTBEGIN
1070
    73
1070
     1
1070
    44
1040
1.0
1070
    74
1070
     0
1000
MTEXTEND
  0
POINT
  5
1348A
330
13483
100
AcDbEntity
  8
DEFPOINTS
 62
     0
100
AcDbPoint
 10
-1954.44017559781
 20
1921.634389310549
 30
0.0
  0
POINT
  5
1348B
330
13483
100
AcDbEntity
  8
DEFPOINTS
 62
     0
100
AcDbPoint
 10
-1953.94017559781
 20
1905.634389310549
 30
0.0
  0
POINT
  5
1348C
330
13483
100
AcDbEntity
  8
DEFPOINTS
 62
     0
100
AcDbPoint
 10
-1964.2730377246
 20
1905.634389310549
 30
0.0
  0
ENDBLK
  5
1348E
330
13483
100
AcDbEntity
  8
0
100
AcDbBlockEnd
  0
BLOCK
  5
134A7
330
1349D
100
AcDbEntity
  8
0
100
AcDbBlockBegin
  2
*D39
 70
     1
 10
0.0
 20
0.0
 30
0.0
  3
*D39
  1

  0
LINE
  5
1349E
330
1349D
100
AcDbEntity
  8
SUNPOU
 62
     1
100
AcDbLine
 10
-1953.44017259781
 20
1905.634439310549
 30
0.0
 11
-1964.880785898799
 21
1905.634439310549
 31
0.0
  0
LINE
  5
1349F
330
1349D
100
AcDbEntity
  8
SUNPOU
 62
     1
100
AcDbLine
 10
-1949.440184597809
 20
1891.134399310549
 30
0.0
 11
-1964.880785898799
 21
1891.134399310549
 31
0.0
  0
LINE
  5
134A0
330
1349D
100
AcDbEntity
  8
SUNPOU
 62
     1
100
AcDbLine
 10
-1964.380785898799
 20
1902.634439310548
 30
0.0
 11
-1964.380785898799
 21
1894.134399310548
 31
0.0
  0
SOLID
  5
134A1
330
1349D
100
AcDbEntity
  8
SUNPOU
 62
     1
100
AcDbTrace
 10
-1964.880785898799
 20
1902.634439310548
 30
0.0
 11
-1963.880785898799
 21
1902.634439310548
 31
0.0
 12
-1964.380785898799
 22
1905.634439310549
 32
0.0
 13
-1964.380785898799
 23
1905.634439310549
 33
0.0
  0
SOLID
  5
134A2
330
1349D
100
AcDbEntity
  8
SUNPOU
 62
     1
100
AcDbTrace
 10
-1964.880785898799
 20
1894.134399310548
 30
0.0
 11
-1963.880785898799
 21
1894.134399310548
 31
0.0
 12
-1964.380785898799
 22
1891.134399310549
 32
0.0
 13
-1964.380785898799
 23
1891.134399310549
 33
0.0
  0
MTEXT
  5
134A3
330
1349D
100
AcDbEntity
  8
SUNPOU
 62
     1
100
AcDbMText
 10
-1967.1307858988
 20
1898.384419310548
 30
0.0
 40
3.5
 41
0.0
 71
     5
 72
     1
  1
\A1;14.5
  7
ゴシック体
 11
0.0000000000000001
 21
1.0
 31
0.0
1001
ACAD
1000
MTEXTBEGIN
1070
    73
1070
     1
1070
    44
1040
1.0
1070
    74
1070
     0
1000
MTEXTEND
  0
POINT
  5
134A4
330
1349D
100
AcDbEntity
  8
DEFPOINTS
 62
     0
100
AcDbPoint
 10
-1952.94017259781
 20
1905.634439310549
 30
0.0
  0
POINT
  5
134A5
330
1349D
100
AcDbEntity
  8
DEFPOINTS
 62
     0
100
AcDbPoint
 10
-1948.94018459781
 20
1891.134399310549
 30
0.0
  0
POINT
  5
134A6
330
1349D
100
AcDbEntity
  8
DEFPOINTS
 62
     0
100
AcDbPoint
 10
-1964.380785898799
 20
1891.134399310549
 30
0.0
  0
ENDBLK
  5
134A8
330
1349D
100
AcDbEntity
  8
0
100
AcDbBlockEnd
  0
BLOCK
  5
134B4
330
134AA
100
AcDbEntity
  8
0
100
AcDbBlockBegin
  2
*D40
 70
     1
 10
0.0
 20
0.0
 30
0.0
  3
*D40
  1

  0
LINE
  5
134AB
330
134AA
100
AcDbEntity
  8
SUNPOU
 62
     1
100
AcDbLine
 10
-1949.440184597809
 20
1936.134409310548
 30
0.0
 11
-1964.773037724598
 21
1936.134409310548
 31
0.0
  0
LINE
  5
134AC
330
134AA
100
AcDbEntity
  8
SUNPOU
 62
     1
100
AcDbLine
 10
-1954.44017559781
 20
1921.634389310549
 30
0.0
 11
-1964.773037724598
 21
1921.634389310549
 31
0.0
  0
LINE
  5
134AD
330
134AA
100
AcDbEntity
  8
SUNPOU
 62
     1
100
AcDbLine
 10
-1964.2730377246
 20
1933.134409310548
 30
0.0
 11
-1964.2730377246
 21
1924.634389310549
 31
0.0
  0
SOLID
  5
134AE
330
134AA
100
AcDbEntity
  8
SUNPOU
 62
     1
100
AcDbTrace
 10
-1964.773037724598
 20
1933.134409310548
 30
0.0
 11
-1963.773037724599
 21
1933.134409310548
 31
0.0
 12
-1964.2730377246
 22
1936.134409310548
 32
0.0
 13
-1964.2730377246
 23
1936.134409310548
 33
0.0
  0
SOLID
  5
134AF
330
134AA
100
AcDbEntity
  8
SUNPOU
 62
     1
100
AcDbTrace
 10
-1964.773037724598
 20
1924.634389310549
 30
0.0
 11
-1963.773037724599
 21
1924.634389310549
 31
0.0
 12
-1964.2730377246
 22
1921.634389310549
 32
0.0
 13
-1964.2730377246
 23
1921.634389310549
 33
0.0
  0
MTEXT
  5
134B0
330
134AA
100
AcDbEntity
  8
SUNPOU
 62
     1
100
AcDbMText
 10
-1967.023037724598
 20
1928.884399310548
 30
0.0
 40
3.5
 41
0.0
 71
     5
 72
     1
  1
\A1;14.5
  7
ゴシック体
 11
0.0000000000000001
 21
1.0
 31
0.0
1001
ACAD
1000
MTEXTBEGIN
1070
    73
1070
     1
1070
    44
1040
1.0
1070
    74
1070
     0
1000
MTEXTEND
  0
POINT
  5
134B1
330
134AA
100
AcDbEntity
  8
DEFPOINTS
 62
     0
100
AcDbPoint
 10
-1948.94018459781
 20
1936.134409310548
 30
0.0
  0
POINT
  5
134B2
330
134AA
100
AcDbEntity
  8
DEFPOINTS
 62
     0
100
AcDbPoint
 10
-1953.94017559781
 20
1921.634389310549
 30
0.0
  0
POINT
  5
134B3
330
134AA
100
AcDbEntity
  8
DEFPOINTS
 62
     0
100
AcDbPoint
 10
-1964.2730377246
 20
1921.634389310549
 30
0.0
  0
ENDBLK
  5
134B5
330
134AA
100
AcDbEntity
  8
0
100
AcDbBlockEnd
  0
BLOCK
  5
134CE
330
134C4
100
AcDbEntity
  8
0
100
AcDbBlockBegin
  2
*D41
 70
     1
 10
0.0
 20
0.0
 30
0.0
  3
*D41
  1

  0
LINE
  5
134C5
330
134C4
100
AcDbEntity
  8
SUNPOU
 62
     1
100
AcDbLine
 10
-1949.440184597809
 20
1867.647919310549
 30
0.0
 11
-1964.880785898799
 21
1867.647919310549
 31
0.0
  0
LINE
  5
134C6
330
134C4
100
AcDbEntity
  8
SUNPOU
 62
     1
100
AcDbLine
 10
-1958.44016459781
 20
1737.647929310549
 30
0.0
 11
-1964.880785898799
 21
1737.647929310549
 31
0.0
  0
LINE
  5
134C7
330
134C4
100
AcDbEntity
  8
SUNPOU
 62
     1
100
AcDbLine
 10
-1964.380785898799
 20
1864.647919310549
 30
0.0
 11
-1964.380785898799
 21
1740.647929310549
 31
0.0
  0
SOLID
  5
134C8
330
134C4
100
AcDbEntity
  8
SUNPOU
 62
     1
100
AcDbTrace
 10
-1964.880785898799
 20
1864.647919310549
 30
0.0
 11
-1963.880785898799
 21
1864.647919310549
 31
0.0
 12
-1964.380785898799
 22
1867.647919310549
 32
0.0
 13
-1964.380785898799
 23
1867.647919310549
 33
0.0
  0
SOLID
  5
134C9
330
134C4
100
AcDbEntity
  8
SUNPOU
 62
     1
100
AcDbTrace
 10
-1964.880785898799
 20
1740.647929310549
 30
0.0
 11
-1963.880785898799
 21
1740.647929310549
 31
0.0
 12
-1964.380785898799
 22
1737.647929310549
 32
0.0
 13
-1964.380785898799
 23
1737.647929310549
 33
0.0
  0
MTEXT
  5
134CA
330
134C4
100
AcDbEntity
  8
SUNPOU
 62
     1
100
AcDbMText
 10
-1967.1307858988
 20
1802.647924310548
 30
0.0
 40
3.5
 41
0.0
 71
     5
 72
     1
  1
\A1;130
  7
ゴシック体
 11
0.0000000000000001
 21
1.0
 31
0.0
1001
ACAD
1000
MTEXTBEGIN
1070
    73
1070
     1
1070
    44
1040
1.0
1070
    74
1070
     0
1000
MTEXTEND
  0
POINT
  5
134CB
330
134C4
100
AcDbEntity
  8
DEFPOINTS
 62
     0
100
AcDbPoint
 10
-1948.94018459781
 20
1867.647919310549
 30
0.0
  0
POINT
  5
134CC
330
134C4
100
AcDbEntity
  8
DEFPOINTS
 62
     0
100
AcDbPoint
 10
-1957.94016459781
 20
1737.647929310549
 30
0.0
  0
POINT
  5
134CD
330
134C4
100
AcDbEntity
  8
DEFPOINTS
 62
     0
100
AcDbPoint
 10
-1964.380785898799
 20
1737.647929310549
 30
0.0
  0
ENDBLK
  5
134CF
330
134C4
100
AcDbEntity
  8
0
100
AcDbBlockEnd
  0
BLOCK
  5
13553
330
13548
100
AcDbEntity
  8
0
100
AcDbBlockBegin
  2
*D42
 70
     1
 10
0.0
 20
0.0
 30
0.0
  3
*D42
  1

  0
LINE
  5
13607
330
13548
100
AcDbEntity
  8
SUNPOU
 62
     1
100
AcDbLine
 10
-1797.53477359781
 20
1767.147941310548
 30
0.0
 11
-1797.53477359781
 21
1719.355989951367
 31
0.0
  0
LINE
  5
13608
330
13548
100
AcDbEntity
  8
SUNPOU
 62
     1
100
AcDbLine
 10
-1791.53477359781
 20
1719.855989951367
 30
0.0
 11
-1788.53477359781
 21
1719.855989951367
 31
0.0
  0
LINE
  5
13609
330
13548
100
AcDbEntity
  8
SUNPOU
 62
     1
100
AcDbLine
 10
-1800.53477359781
 20
1719.855989951367
 30
0.0
 11
-1803.534773597809
 21
1719.855989951367
 31
0.0
  0
MTEXT
  5
1360A
330
13548
100
AcDbEntity
  8
SUNPOU
 62
     1
100
AcDbMText
 10
-1795.600302894404
 20
1715.827966750425
 30
0.0
 40
3.5
 41
0.0
 71
     5
 72
     1
  1
\A1;(3.5)
  7
ゴシック体
  0
LINE
  5
1360B
330
13548
100
AcDbEntity
  8
SUNPOU
 62
     1
100
AcDbLine
 10
-1794.53477359781
 20
1719.855989951367
 30
0.0
 11
-1797.53477359781
 21
1719.855989951367
 31
0.0
  0
SOLID
  5
1360C
330
13548
100
AcDbEntity
  8
SUNPOU
 62
     1
100
AcDbTrace
 10
-1791.53477359781
 20
1720.355989951366
 30
0.0
 11
-1791.53477359781
 21
1719.355989951367
 31
0.0
 12
-1794.53477359781
 22
1719.855989951367
 32
0.0
 13
-1794.53477359781
 23
1719.855989951367
 33
0.0
  0
SOLID
  5
1360D
330
13548
100
AcDbEntity
  8
SUNPOU
 62
     1
100
AcDbTrace
 10
-1800.53477359781
 20
1720.355989951366
 30
0.0
 11
-1800.53477359781
 21
1719.355989951367
 31
0.0
 12
-1797.53477359781
 22
1719.855989951367
 32
0.0
 13
-1797.53477359781
 23
1719.855989951367
 33
0.0
  0
POINT
  5
1360E
330
13548
100
AcDbEntity
  8
DEFPOINTS
 62
     0
100
AcDbPoint
 10
-1794.53477359781
 20
1719.855989951367
 30
0.0
  0
POINT
  5
1360F
330
13548
100
AcDbEntity
  8
DEFPOINTS
 62
     0
100
AcDbPoint
 10
-1797.53477359781
 20
1767.647941310547
 30
0.0
  0
POINT
  5
13610
330
13548
100
AcDbEntity
  8
DEFPOINTS
 62
     0
100
AcDbPoint
 10
-1797.53477359781
 20
1719.855989951367
 30
0.0
  0
ENDBLK
  5
13554
330
13548
100
AcDbEntity
  8
0
100
AcDbBlockEnd
  0
BLOCK
  5
1357E
330
13574
100
AcDbEntity
  8
0
100
AcDbBlockBegin
  2
*D43
 70
     1
 10
0.0
 20
0.0
 30
0.0
  3
*D43
  1

  0
LINE
  5
13611
330
13574
100
AcDbEntity
  8
SUNPOU
 62
     1
100
AcDbLine
 10
-1592.315020251095
 20
1737.647941310549
 30
0.0
 11
-1589.204659940075
 21
1737.647941310549
 31
0.0
  0
LINE
  5
13612
330
13574
100
AcDbEntity
  8
SUNPOU
 62
     1
100
AcDbLine
 10
-1713.315020251095
 20
1747.647950310548
 30
0.0
 11
-1589.204659940075
 21
1747.647950310548
 31
0.0
  0
LINE
  5
13613
330
13574
100
AcDbEntity
  8
SUNPOU
 62
     1
100
AcDbLine
 10
-1589.704659940075
 20
1740.647941310549
 30
0.0
 11
-1589.704659940075
 21
1744.647950310548
 31
0.0
  0
MTEXT
  5
13614
330
13574
100
AcDbEntity
  8
SUNPOU
 62
     1
100
AcDbMText
 10
-1592.82171523091
 20
1744.601710656524
 30
0.0
 40
3.5
 41
0.0
 71
     5
 72
     1
  1
\A1;10
  7
ゴシック体
 11
0.0000000000000001
 21
1.0
 31
0.0
  0
SOLID
  5
13615
330
13574
100
AcDbEntity
  8
SUNPOU
 62
     1
100
AcDbTrace
 10
-1590.204659940075
 20
1740.647941310549
 30
0.0
 11
-1589.204659940075
 21
1740.647941310549
 31
0.0
 12
-1589.704659940075
 22
1737.647941310549
 32
0.0
 13
-1589.704659940075
 23
1737.647941310549
 33
0.0
  0
SOLID
  5
13616
330
13574
100
AcDbEntity
  8
SUNPOU
 62
     1
100
AcDbTrace
 10
-1590.204659940075
 20
1744.647950310548
 30
0.0
 11
-1589.204659940075
 21
1744.647950310548
 31
0.0
 12
-1589.704659940075
 22
1747.647950310548
 32
0.0
 13
-1589.704659940075
 23
1747.647950310548
 33
0.0
  0
POINT
  5
13617
330
13574
100
AcDbEntity
  8
DEFPOINTS
 62
     0
100
AcDbPoint
 10
-1592.815020251094
 20
1737.647941310549
 30
0.0
  0
POINT
  5
13618
330
13574
100
AcDbEntity
  8
DEFPOINTS
 62
     0
100
AcDbPoint
 10
-1713.815020251095
 20
1747.647950310548
 30
0.0
  0
POINT
  5
13619
330
13574
100
AcDbEntity
  8
DEFPOINTS
 62
     0
100
AcDbPoint
 10
-1589.704659940075
 20
1747.647950310548
 30
0.0
  0
ENDBLK
  5
1357F
330
13574
100
AcDbEntity
  8
0
100
AcDbBlockEnd
  0
BLOCK
  5
13594
330
1358A
100
AcDbEntity
  8
0
100
AcDbBlockBegin
  2
*D44
 70
     1
 10
0.0
 20
0.0
 30
0.0
  3
*D44
  1

  0
LINE
  5
1358B
330
1358A
100
AcDbEntity
  8
SUNPOU
 62
     1
100
AcDbLine
 10
-1613.314990251095
 20
1862.647929310549
 30
0.0
 11
-1589.319671296733
 21
1862.647929310549
 31
0.0
  0
LINE
  5
1358C
330
1358A
100
AcDbEntity
  8
SUNPOU
 62
     1
100
AcDbLine
 10
-1589.704659940075
 20
1747.647950310548
 30
0.0
 11
-1590.319671296733
 21
1747.647950310548
 31
0.0
  0
LINE
  5
1358D
330
1358A
100
AcDbEntity
  8
SUNPOU
 62
     1
100
AcDbLine
 10
-1589.819671296733
 20
1859.647929310549
 30
0.0
 11
-1589.819671296733
 21
1750.647950310549
 31
0.0
  0
SOLID
  5
1358E
330
1358A
100
AcDbEntity
  8
SUNPOU
 62
     1
100
AcDbTrace
 10
-1590.319671296733
 20
1859.647929310549
 30
0.0
 11
-1589.319671296733
 21
1859.647929310549
 31
0.0
 12
-1589.819671296733
 22
1862.647929310549
 32
0.0
 13
-1589.819671296733
 23
1862.647929310549
 33
0.0
  0
SOLID
  5
1358F
330
1358A
100
AcDbEntity
  8
SUNPOU
 62
     1
100
AcDbTrace
 10
-1590.319671296733
 20
1750.647950310549
 30
0.0
 11
-1589.319671296733
 21
1750.647950310549
 31
0.0
 12
-1589.819671296733
 22
1747.647950310548
 32
0.0
 13
-1589.819671296733
 23
1747.647950310548
 33
0.0
  0
MTEXT
  5
13590
330
1358A
100
AcDbEntity
  8
SUNPOU
 62
     1
100
AcDbMText
 10
-1592.569671296734
 20
1805.147939810548
 30
0.0
 40
3.5
 41
0.0
 71
     5
 72
     1
  1
\A1;115
  7
ゴシック体
 11
0.0000000000000001
 21
1.0
 31
0.0
1001
ACAD
1000
MTEXTBEGIN
1070
    73
1070
     1
1070
    44
1040
1.0
1070
    74
1070
     0
1000
MTEXTEND
  0
POINT
  5
13591
330
1358A
100
AcDbEntity
  8
DEFPOINTS
 62
     0
100
AcDbPoint
 10
-1613.814990251094
 20
1862.647929310549
 30
0.0
  0
POINT
  5
13592
330
1358A
100
AcDbEntity
  8
DEFPOINTS
 62
     0
100
AcDbPoint
 10
-1589.204659940075
 20
1747.647950310548
 30
0.0
  0
POINT
  5
13593
330
1358A
100
AcDbEntity
  8
DEFPOINTS
 62
     0
100
AcDbPoint
 10
-1589.819671296733
 20
1747.647950310548
 30
0.0
  0
ENDBLK
  5
13595
330
1358A
100
AcDbEntity
  8
0
100
AcDbBlockEnd
  0
BLOCK
  5
135A3
330
13597
100
AcDbEntity
  8
0
100
AcDbBlockBegin
  2
*D45
 70
     1
 10
0.0
 20
0.0
 30
0.0
  3
*D45
  1

  0
LINE
  5
13598
330
13597
100
AcDbEntity
  8
SUNPOU
 62
     1
100
AcDbLine
 10
-1613.315040251094
 20
1862.647949310549
 30
0.0
 11
-1589.319671296733
 21
1862.647949310549
 31
0.0
  0
LINE
  5
13599
330
13597
100
AcDbEntity
  8
SUNPOU
 62
     1
100
AcDbLine
 10
-1601.315000251095
 20
1867.647919310549
 30
0.0
 11
-1589.319671296733
 21
1867.647919310549
 31
0.0
  0
LINE
  5
1359A
330
13597
100
AcDbEntity
  8
SUNPOU
 62
     1
100
AcDbLine
 10
-1589.819671296733
 20
1859.647949310549
 30
0.0
 11
-1589.819671296733
 21
1856.647949310548
 31
0.0
  0
LINE
  5
1359B
330
13597
100
AcDbEntity
  8
SUNPOU
 62
     1
100
AcDbLine
 10
-1589.819671296733
 20
1870.647919310547
 30
0.0
 11
-1589.819671296733
 21
1873.647919310548
 31
0.0
  0
LINE
  5
1359C
330
13597
100
AcDbEntity
  8
SUNPOU
 62
     1
100
AcDbLine
 10
-1589.819671296733
 20
1862.647949310549
 30
0.0
 11
-1589.819671296733
 21
1867.647919310549
 31
0.0
  0
SOLID
  5
1359D
330
13597
100
AcDbEntity
  8
SUNPOU
 62
     1
100
AcDbTrace
 10
-1590.319671296733
 20
1859.647949310549
 30
0.0
 11
-1589.319671296733
 21
1859.647949310549
 31
0.0
 12
-1589.819671296733
 22
1862.647949310549
 32
0.0
 13
-1589.819671296733
 23
1862.647949310549
 33
0.0
  0
SOLID
  5
1359E
330
13597
100
AcDbEntity
  8
SUNPOU
 62
     1
100
AcDbTrace
 10
-1590.319671296733
 20
1870.647919310547
 30
0.0
 11
-1589.319671296733
 21
1870.647919310547
 31
0.0
 12
-1589.819671296733
 22
1867.647919310549
 32
0.0
 13
-1589.819671296733
 23
1867.647919310549
 33
0.0
  0
MTEXT
  5
1359F
330
13597
100
AcDbEntity
  8
SUNPOU
 62
     1
100
AcDbMText
 10
-1592.569671296733
 20
1865.147934310548
 30
0.0
 40
3.5
 41
0.0
 71
     5
 72
     1
  1
\A1;5
  7
ゴシック体
 11
0.0000000000000001
 21
1.0
 31
0.0
1001
ACAD
1000
MTEXTBEGIN
1070
    73
1070
     1
1070
    44
1040
1.0
1070
    74
1070
     0
1000
MTEXTEND
  0
POINT
  5
135A0
330
13597
100
AcDbEntity
  8
DEFPOINTS
 62
     0
100
AcDbPoint
 10
-1613.815040251095
 20
1862.647949310549
 30
0.0
  0
POINT
  5
135A1
330
13597
100
AcDbEntity
  8
DEFPOINTS
 62
     0
100
AcDbPoint
 10
-1601.815000251095
 20
1867.647919310549
 30
0.0
  0
POINT
  5
135A2
330
13597
100
AcDbEntity
  8
DEFPOINTS
 62
     0
100
AcDbPoint
 10
-1589.819671296733
 20
1867.647919310549
 30
0.0
  0
ENDBLK
  5
135A4
330
13597
100
AcDbEntity
  8
0
100
AcDbBlockEnd
  0
ENDSEC
  0
SECTION
  2
ENTITIES
  0
MTEXT
  5
5084
330
1A
100
AcDbEntity
  8
0
100
AcDbMText
 10
1985.239088685434
 20
-948.5420423450428
 30
0.0
 40
8.0
 41
0.0
 71
     7
 72
     5
  1

1001
ACAD
1000
MTEXTBEGIN
1070
    73
1070
     1
1070
    44
1040
1.0
1070
    74
1070
     0
1000
MTEXTEND
  0
MTEXT
  5
5085
330
1A
100
AcDbEntity
  8
0
100
AcDbMText
 10
4270.596778580329
 20
22.24825240601648
 30
0.0
 40
8.0
 41
0.0
 71
     7
 72
     5
  1

1001
ACAD
1000
MTEXTBEGIN
1070
    73
1070
     1
1070
    44
1040
1.0
1070
    74
1070
     0
1000
MTEXTEND
  0
MTEXT
  5
5343
330
1A
100
AcDbEntity
  8
SUNPOU
100
AcDbMText
 10
6936.493799262471
 20
9534.359644781137
 30
0.0
 40
10.5
 41
0.0
 71
     1
 72
     5
  1

1001
ACAD
1000
MTEXTBEGIN
1070
    73
1070
     1
1070
    44
1040
1.0
1070
    74
1070
     0
1000
MTEXTEND
  0
MTEXT
  5
544F
330
1A
100
AcDbEntity
  8
0
100
AcDbMText
 10
16317.2832773148
 20
12833.35428897674
 30
0.0
 40
8.0
 41
0.0
 71
     7
 72
     5
  1

1001
ACAD
1000
MTEXTBEGIN
1070
    73
1070
     1
1070
    44
1040
1.0
1070
    74
1070
     0
1000
MTEXTEND
  0
MTEXT
  5
5450
330
1A
100
AcDbEntity
  8
0
100
AcDbMText
 10
18602.64096720968
 20
13804.1445837278
 30
0.0
 40
8.0
 41
0.0
 71
     7
 72
     5
  1

1001
ACAD
1000
MTEXTBEGIN
1070
    73
1070
     1
1070
    44
1040
1.0
1070
    74
1070
     0
1000
MTEXTEND
  0
MTEXT
  5
5451
330
1A
100
AcDbEntity
  8
SUNPOU
100
AcDbMText
 10
21268.53798789184
 20
23316.25597610292
 30
0.0
 40
10.5
 41
0.0
 71
     1
 72
     5
  1

1001
ACAD
1000
MTEXTBEGIN
1070
    73
1070
     1
1070
    44
1040
1.0
1070
    74
1070
     0
1000
MTEXTEND
  0
MTEXT
  5
5452
330
1A
100
AcDbEntity
  8
SUNPOU
100
AcDbMText
 10
13337.6147919559
 20
22369.46284218996
 30
0.0
 40
10.5
 41
0.0
 71
     7
 72
     5
  1

1001
ACAD
1000
MTEXTBEGIN
1070
    73
1070
     1
1070
    44
1040
1.0
1070
    74
1070
     0
1000
MTEXTEND
  0
MTEXT
  5
5453
330
1A
100
AcDbEntity
  8
SUNPOU
100
AcDbMText
 10
16286.59845646867
 20
27270.1389140328
 30
0.0
 40
10.5
 41
0.0
 71
     7
 72
     5
  1

1001
ACAD
1000
MTEXTBEGIN
1070
    73
1070
     1
1070
    44
1040
1.0
1070
    74
1070
     0
1000
MTEXTEND
  0
MTEXT
  5
5454
330
1A
100
AcDbEntity
  8
SUNPOU
100
AcDbMText
 10
20795.67658441924
 20
29706.43966165288
 30
0.0
 40
10.5
 41
0.0
 71
     7
 72
     5
  1

1001
ACAD
1000
MTEXTBEGIN
1070
    73
1070
     1
1070
    44
1040
1.0
1070
    74
1070
     0
1000
MTEXTEND
  0
MTEXT
  5
5455
330
1A
100
AcDbEntity
  8
0
100
AcDbMText
 10
16611.93789220313
 20
14707.52144344448
 30
0.0
 40
8.0
 41
0.0
 71
     7
 72
     5
  1

1001
ACAD
1000
MTEXTBEGIN
1070
    73
1070
     1
1070
    44
1040
1.0
1070
    74
1070
     0
1000
MTEXTEND
  0
MTEXT
  5
5456
330
1A
100
AcDbEntity
  8
0
100
AcDbMText
 10
18897.29558209803
 20
15678.31173819554
 30
0.0
 40
8.0
 41
0.0
 71
     7
 72
     5
  1

1001
ACAD
1000
MTEXTBEGIN
1070
    73
1070
     1
1070
    44
1040
1.0
1070
    74
1070
     0
1000
MTEXTEND
  0
MTEXT
  5
5457
330
1A
100
AcDbEntity
  8
SUNPOU
100
AcDbMText
 10
21563.19260278019
 20
25190.42313057066
 30
0.0
 40
10.5
 41
0.0
 71
     1
 72
     5
  1

1001
ACAD
1000
MTEXTBEGIN
1070
    73
1070
     1
1070
    44
1040
1.0
1070
    74
1070
     0
1000
MTEXTEND
  0
MTEXT
  5
5458
330
1A
100
AcDbEntity
  8
SUNPOU
100
AcDbMText
 10
13632.26940684425
 20
24243.6299966577
 30
0.0
 40
10.5
 41
0.0
 71
     7
 72
     5
  1

1001
ACAD
1000
MTEXTBEGIN
1070
    73
1070
     1
1070
    44
1040
1.0
1070
    74
1070
     0
1000
MTEXTEND
  0
MTEXT
  5
5459
330
1A
100
AcDbEntity
  8
SUNPOU
100
AcDbMText
 10
16581.25307135702
 20
29144.30606850055
 30
0.0
 40
10.5
 41
0.0
 71
     7
 72
     5
  1

1001
ACAD
1000
MTEXTBEGIN
1070
    73
1070
     1
1070
    44
1040
1.0
1070
    74
1070
     0
1000
MTEXTEND
  0
MTEXT
  5
545A
330
1A
100
AcDbEntity
  8
SUNPOU
100
AcDbMText
 10
21090.33119930759
 20
31580.60681612062
 30
0.0
 40
10.5
 41
0.0
 71
     7
 72
     5
  1

1001
ACAD
1000
MTEXTBEGIN
1070
    73
1070
     1
1070
    44
1040
1.0
1070
    74
1070
     0
1000
MTEXTEND
  0
MTEXT
  5
545B
330
1A
100
AcDbEntity
  8
0
100
AcDbMText
 10
22871.60517627166
 20
23974.88367124799
 30
0.0
 40
8.0
 41
0.0
 71
     7
 72
     5
  1

1001
ACAD
1000
MTEXTBEGIN
1070
    73
1070
     1
1070
    44
1040
1.0
1070
    74
1070
     0
1000
MTEXTEND
  0
MTEXT
  5
545C
330
1A
100
AcDbEntity
  8
0
100
AcDbMText
 10
25156.96286616656
 20
24945.67396599905
 30
0.0
 40
8.0
 41
0.0
 71
     7
 72
     5
  1

1001
ACAD
1000
MTEXTBEGIN
1070
    73
1070
     1
1070
    44
1040
1.0
1070
    74
1070
     0
1000
MTEXTEND
  0
MTEXT
  5
545D
330
1A
100
AcDbEntity
  8
SUNPOU
100
AcDbMText
 10
27822.85988684871
 20
34457.78535837418
 30
0.0
 40
10.5
 41
0.0
 71
     1
 72
     5
  1

1001
ACAD
1000
MTEXTBEGIN
1070
    73
1070
     1
1070
    44
1040
1.0
1070
    74
1070
     0
1000
MTEXTEND
  0
MTEXT
  5
545E
330
1A
100
AcDbEntity
  8
SUNPOU
100
AcDbMText
 10
19891.93669091278
 20
33510.99222446122
 30
0.0
 40
10.5
 41
0.0
 71
     7
 72
     5
  1

1001
ACAD
1000
MTEXTBEGIN
1070
    73
1070
     1
1070
    44
1040
1.0
1070
    74
1070
     0
1000
MTEXTEND
  0
MTEXT
  5
545F
330
1A
100
AcDbEntity
  8
SUNPOU
100
AcDbMText
 10
22840.92035542555
 20
38411.66829630406
 30
0.0
 40
10.5
 41
0.0
 71
     7
 72
     5
  1

1001
ACAD
1000
MTEXTBEGIN
1070
    73
1070
     1
1070
    44
1040
1.0
1070
    74
1070
     0
1000
MTEXTEND
  0
MTEXT
  5
5460
330
1A
100
AcDbEntity
  8
SUNPOU
100
AcDbMText
 10
27349.99848337611
 20
40847.96904392415
 30
0.0
 40
10.5
 41
0.0
 71
     7
 72
     5
  1

1001
ACAD
1000
MTEXTBEGIN
1070
    73
1070
     1
1070
    44
1040
1.0
1070
    74
1070
     0
1000
MTEXTEND
  0
MTEXT
  5
55B7
330
1A
100
AcDbEntity
  8
SUNPOU
100
AcDbMText
 10
67424.23923338197
 20
64463.86602884816
 30
0.0
 40
10.5
 41
0.0
 71
     9
 72
     5
  1

1001
ACAD
1000
MTEXTBEGIN
1070
    73
1070
     1
1070
    44
1040
1.0
1070
    74
1070
     0
1000
MTEXTEND
  0
MTEXT
  5
55B8
330
1A
100
AcDbEntity
  8
SUNPOU
100
AcDbMText
 10
76146.40679929998
 20
71879.70056038563
 30
0.0
 40
10.5
 41
0.0
 71
     9
 72
     5
  1

1001
ACAD
1000
MTEXTBEGIN
1070
    73
1070
     1
1070
    44
1040
1.0
1070
    74
1070
     0
1000
MTEXTEND
  0
MTEXT
  5
55B9
330
1A
100
AcDbEntity
  8
SUNPOU
100
AcDbMText
 10
95100.16551662994
 20
89346.27661287766
 30
0.0
 40
10.5
 41
0.0
 71
     9
 72
     5
  1

1001
ACAD
1000
MTEXTBEGIN
1070
    73
1070
     1
1070
    44
1040
1.0
1070
    74
1070
     0
1000
MTEXTEND
  0
MTEXT
  5
55BA
330
1A
100
AcDbEntity
  8
SUNPOU
100
AcDbMText
 10
97043.57276333935
 20
87545.22753299966
 30
0.0
 40
3.5
 41
0.0
 71
     9
 72
     5
  1

1001
ACAD
1000
MTEXTBEGIN
1070
    73
1070
     1
1070
    44
1040
1.0
1070
    74
1070
     0
1000
MTEXTEND
  0
MTEXT
  5
55BB
330
1A
100
AcDbEntity
  8
SUNPOU
100
AcDbMText
 10
128169.7525959589
 20
130040.1732006569
 30
0.0
 40
10.5
 41
0.0
 71
     9
 72
     5
  1

1001
ACAD
1000
MTEXTBEGIN
1070
    73
1070
     1
1070
    44
1040
1.0
1070
    74
1070
     0
1000
MTEXTEND
  0
MTEXT
  5
55BC
330
1A
100
AcDbEntity
  8
SUNPOU
100
AcDbMText
 10
130113.1598426684
 20
128239.1241207789
 30
0.0
 40
3.5
 41
0.0
 71
     9
 72
     5
  1

1001
ACAD
1000
MTEXTBEGIN
1070
    73
1070
     1
1070
    44
1040
1.0
1070
    74
1070
     0
1000
MTEXTEND
  0
MTEXT
  5
55BD
330
1A
100
AcDbEntity
  8
SUNPOU
100
AcDbMText
 10
78610.02030175463
 20
75873.33835563206
 30
0.0
 40
10.5
 41
0.0
 71
     9
 72
     5
  1

1001
ACAD
1000
MTEXTBEGIN
1070
    73
1070
     1
1070
    44
1040
1.0
1070
    74
1070
     0
1000
MTEXTEND
  0
MTEXT
  5
55BE
330
1A
100
AcDbEntity
  8
SUNPOU
100
AcDbMText
 10
64662.02020137862
 20
56700.93921651987
 30
0.0
 40
3.5
 41
0.0
 71
     7
 72
     5
  1

1001
ACAD
1000
MTEXTBEGIN
1070
    73
1070
     1
1070
    44
1040
1.0
1070
    74
1070
     0
1000
MTEXTEND
  0
MTEXT
  5
55BF
330
1A
100
AcDbEntity
  8
SUNPOU
100
AcDbMText
 10
45647.18959837177
 20
44463.08794733806
 30
0.0
 40
10.5
 41
0.0
 71
     7
 72
     5
  1

1001
ACAD
1000
MTEXTBEGIN
1070
    73
1070
     1
1070
    44
1040
1.0
1070
    74
1070
     0
1000
MTEXTEND
  0
MTEXT
  5
55C0
330
1A
100
AcDbEntity
  8
SUNPOU
100
AcDbMText
 10
33189.96133342368
 20
28618.15636923965
 30
0.0
 40
35.0
 41
0.0
 71
     9
 72
     5
  1

1001
ACAD
1000
MTEXTBEGIN
1070
    73
1070
     1
1070
    44
1040
1.0
1070
    74
1070
     0
1000
MTEXTEND
  0
MTEXT
  5
55C1
330
1A
100
AcDbEntity
  8
SUNPOU
100
AcDbMText
 10
32098.44639099864
 20
29226.93177928834
 30
0.0
 40
350.0000004171781
 41
0.0
 71
     7
 72
     5
  1

1001
ACAD
1000
MTEXTBEGIN
1070
    73
1070
     1
1070
    44
1040
1.0
1070
    74
1070
     0
1000
MTEXTEND
  0
MTEXT
  5
55C2
330
1A
100
AcDbEntity
  8
0
100
AcDbMText
 10
38142.39714894154
 20
27206.85414142458
 30
0.0
 40
8.0
 41
0.0
 71
     7
 72
     5
  1

1001
ACAD
1000
MTEXTBEGIN
1070
    73
1070
     1
1070
    44
1040
1.0
1070
    74
1070
     0
1000
MTEXTEND
  0
MTEXT
  5
55C3
330
1A
100
AcDbEntity
  8
0
100
AcDbMText
 10
40427.75483883644
 20
28177.64443617564
 30
0.0
 40
8.0
 41
0.0
 71
     7
 72
     5
  1

1001
ACAD
1000
MTEXTBEGIN
1070
    73
1070
     1
1070
    44
1040
1.0
1070
    74
1070
     0
1000
MTEXTEND
  0
MTEXT
  5
55C4
330
1A
100
AcDbEntity
  8
SUNPOU
100
AcDbMText
 10
43093.65185951858
 20
37689.75582855077
 30
0.0
 40
10.5
 41
0.0
 71
     1
 72
     5
  1

1001
ACAD
1000
MTEXTBEGIN
1070
    73
1070
     1
1070
    44
1040
1.0
1070
    74
1070
     0
1000
MTEXTEND
  0
MTEXT
  5
55C5
330
1A
100
AcDbEntity
  8
SUNPOU
100
AcDbMText
 10
35162.72866358265
 20
36742.96269463781
 30
0.0
 40
10.5
 41
0.0
 71
     7
 72
     5
  1

1001
ACAD
1000
MTEXTBEGIN
1070
    73
1070
     1
1070
    44
1040
1.0
1070
    74
1070
     0
1000
MTEXTEND
  0
MTEXT
  5
55C6
330
1A
100
AcDbEntity
  8
SUNPOU
100
AcDbMText
 10
38111.71232809542
 20
41643.63876648065
 30
0.0
 40
10.5
 41
0.0
 71
     7
 72
     5
  1

1001
ACAD
1000
MTEXTBEGIN
1070
    73
1070
     1
1070
    44
1040
1.0
1070
    74
1070
     0
1000
MTEXTEND
  0
MTEXT
  5
55C7
330
1A
100
AcDbEntity
  8
SUNPOU
100
AcDbMText
 10
42620.79045604596
 20
44079.93951410074
 30
0.0
 40
10.5
 41
0.0
 71
     7
 72
     5
  1

1001
ACAD
1000
MTEXTBEGIN
1070
    73
1070
     1
1070
    44
1040
1.0
1070
    74
1070
     0
1000
MTEXTEND
  0
MTEXT
  5
55C8
330
1A
100
AcDbEntity
  8
SUNPOU
100
AcDbMText
 10
26221.62834281429
 20
23077.53566448964
 30
0.0
 40
10.5
 41
0.0
 71
     7
 72
     5
  1

1001
ACAD
1000
MTEXTBEGIN
1070
    73
1070
     1
1070
    44
1040
1.0
1070
    74
1070
     0
1000
MTEXTEND
  0
MTEXT
  5
55C9
330
1A
100
AcDbEntity
  8
SUNPOU
100
AcDbMText
 10
77413.14677671455
 20
68750.51622813789
 30
0.0
 40
10.5
 41
0.0
 71
     9
 72
     5
  1

1001
ACAD
1000
MTEXTBEGIN
1070
    73
1070
     1
1070
    44
1040
1.0
1070
    74
1070
     0
1000
MTEXTEND
  0
MTEXT
  5
55CA
330
1A
100
AcDbEntity
  8
SUNPOU
100
AcDbMText
 10
86135.31434263256
 20
76166.35075967536
 30
0.0
 40
10.5
 41
0.0
 71
     9
 72
     5
  1

1001
ACAD
1000
MTEXTBEGIN
1070
    73
1070
     1
1070
    44
1040
1.0
1070
    74
1070
     0
1000
MTEXTEND
  0
MTEXT
  5
55CB
330
1A
100
AcDbEntity
  8
SUNPOU
100
AcDbMText
 10
105089.0730599624
 20
93632.92681216739
 30
0.0
 40
10.5
 41
0.0
 71
     9
 72
     5
  1

1001
ACAD
1000
MTEXTBEGIN
1070
    73
1070
     1
1070
    44
1040
1.0
1070
    74
1070
     0
1000
MTEXTEND
  0
MTEXT
  5
55CC
330
1A
100
AcDbEntity
  8
SUNPOU
100
AcDbMText
 10
107032.4803066718
 20
91831.87773228938
 30
0.0
 40
3.5
 41
0.0
 71
     9
 72
     5
  1

1001
ACAD
1000
MTEXTBEGIN
1070
    73
1070
     1
1070
    44
1040
1.0
1070
    74
1070
     0
1000
MTEXTEND
  0
MTEXT
  5
55CD
330
1A
100
AcDbEntity
  8
SUNPOU
100
AcDbMText
 10
138158.6601392916
 20
134326.8233999467
 30
0.0
 40
10.5
 41
0.0
 71
     9
 72
     5
  1

1001
ACAD
1000
MTEXTBEGIN
1070
    73
1070
     1
1070
    44
1040
1.0
1070
    74
1070
     0
1000
MTEXTEND
  0
MTEXT
  5
55CE
330
1A
100
AcDbEntity
  8
SUNPOU
100
AcDbMText
 10
140102.067386001
 20
132525.7743200686
 30
0.0
 40
3.5
 41
0.0
 71
     9
 72
     5
  1

1001
ACAD
1000
MTEXTBEGIN
1070
    73
1070
     1
1070
    44
1040
1.0
1070
    74
1070
     0
1000
MTEXTEND
  0
MTEXT
  5
55CF
330
1A
100
AcDbEntity
  8
SUNPOU
100
AcDbMText
 10
88598.92784508721
 20
80159.98855492179
 30
0.0
 40
10.5
 41
0.0
 71
     9
 72
     5
  1

1001
ACAD
1000
MTEXTBEGIN
1070
    73
1070
     1
1070
    44
1040
1.0
1070
    74
1070
     0
1000
MTEXTEND
  0
MTEXT
  5
55D0
330
1A
100
AcDbEntity
  8
SUNPOU
100
AcDbMText
 10
74650.92774471121
 20
60987.58941580959
 30
0.0
 40
3.5
 41
0.0
 71
     7
 72
     5
  1

1001
ACAD
1000
MTEXTBEGIN
1070
    73
1070
     1
1070
    44
1040
1.0
1070
    74
1070
     0
1000
MTEXTEND
  0
MTEXT
  5
55D1
330
1A
100
AcDbEntity
  8
SUNPOU
100
AcDbMText
 10
55636.09714170436
 20
48749.73814662781
 30
0.0
 40
10.5
 41
0.0
 71
     7
 72
     5
  1

1001
ACAD
1000
MTEXTBEGIN
1070
    73
1070
     1
1070
    44
1040
1.0
1070
    74
1070
     0
1000
MTEXTEND
  0
MTEXT
  5
55D2
330
1A
100
AcDbEntity
  8
SUNPOU
100
AcDbMText
 10
43178.86887675626
 20
32904.80656852937
 30
0.0
 40
35.0
 41
0.0
 71
     9
 72
     5
  1

1001
ACAD
1000
MTEXTBEGIN
1070
    73
1070
     1
1070
    44
1040
1.0
1070
    74
1070
     0
1000
MTEXTEND
  0
MTEXT
  5
55D3
330
1A
100
AcDbEntity
  8
SUNPOU
100
AcDbMText
 10
42087.3539343312
 20
33513.58197857808
 30
0.0
 40
350.0000004171781
 41
0.0
 71
     7
 72
     5
  1

1001
ACAD
1000
MTEXTBEGIN
1070
    73
1070
     1
1070
    44
1040
1.0
1070
    74
1070
     0
1000
MTEXTEND
  0
MTEXT
  5
55D4
330
1A
100
AcDbEntity
  8
0
100
AcDbMText
 10
48131.30469227412
 20
31493.50434071431
 30
0.0
 40
8.0
 41
0.0
 71
     7
 72
     5
  1

1001
ACAD
1000
MTEXTBEGIN
1070
    73
1070
     1
1070
    44
1040
1.0
1070
    74
1070
     0
1000
MTEXTEND
  0
MTEXT
  5
55D5
330
1A
100
AcDbEntity
  8
0
100
AcDbMText
 10
50416.66238216901
 20
32464.29463546537
 30
0.0
 40
8.0
 41
0.0
 71
     7
 72
     5
  1

1001
ACAD
1000
MTEXTBEGIN
1070
    73
1070
     1
1070
    44
1040
1.0
1070
    74
1070
     0
1000
MTEXTEND
  0
MTEXT
  5
55D6
330
1A
100
AcDbEntity
  8
SUNPOU
100
AcDbMText
 10
53082.55940285115
 20
41976.4060278405
 30
0.0
 40
10.5
 41
0.0
 71
     1
 72
     5
  1

1001
ACAD
1000
MTEXTBEGIN
1070
    73
1070
     1
1070
    44
1040
1.0
1070
    74
1070
     0
1000
MTEXTEND
  0
MTEXT
  5
55D7
330
1A
100
AcDbEntity
  8
SUNPOU
100
AcDbMText
 10
45151.63620691521
 20
41029.61289392755
 30
0.0
 40
10.5
 41
0.0
 71
     7
 72
     5
  1

1001
ACAD
1000
MTEXTBEGIN
1070
    73
1070
     1
1070
    44
1040
1.0
1070
    74
1070
     0
1000
MTEXTEND
  0
MTEXT
  5
55D8
330
1A
100
AcDbEntity
  8
SUNPOU
100
AcDbMText
 10
48100.61987142798
 20
45930.28896577039
 30
0.0
 40
10.5
 41
0.0
 71
     7
 72
     5
  1

1001
ACAD
1000
MTEXTBEGIN
1070
    73
1070
     1
1070
    44
1040
1.0
1070
    74
1070
     0
1000
MTEXTEND
  0
MTEXT
  5
55D9
330
1A
100
AcDbEntity
  8
SUNPOU
100
AcDbMText
 10
52609.69799937853
 20
48366.58971339046
 30
0.0
 40
10.5
 41
0.0
 71
     7
 72
     5
  1

1001
ACAD
1000
MTEXTBEGIN
1070
    73
1070
     1
1070
    44
1040
1.0
1070
    74
1070
     0
1000
MTEXTEND
  0
MTEXT
  5
55DA
330
1A
100
AcDbEntity
  8
SUNPOU
100
AcDbMText
 10
36210.53588614687
 20
27364.18586377937
 30
0.0
 40
10.5
 41
0.0
 71
     7
 72
     5
  1

1001
ACAD
1000
MTEXTBEGIN
1070
    73
1070
     1
1070
    44
1040
1.0
1070
    74
1070
     0
1000
MTEXTEND
  0
MTEXT
  5
55DB
330
1A
100
AcDbEntity
  8
SUNPOU
100
AcDbMText
 10
38021.29879752181
 20
33691.59985125794
 30
0.0
 40
10.5
 41
0.0
 71
     9
 72
     5
  1

1001
ACAD
1000
MTEXTBEGIN
1070
    73
1070
     1
1070
    44
1040
1.0
1070
    74
1070
     0
1000
MTEXTEND
  0
MTEXT
  5
55DC
330
1A
100
AcDbEntity
  8
SUNPOU
100
AcDbMText
 10
46743.46636343979
 20
41107.4343827954
 30
0.0
 40
10.5
 41
0.0
 71
     9
 72
     5
  1

1001
ACAD
1000
MTEXTBEGIN
1070
    73
1070
     1
1070
    44
1040
1.0
1070
    74
1070
     0
1000
MTEXTEND
  0
MTEXT
  5
55DD
330
1A
100
AcDbEntity
  8
SUNPOU
100
AcDbMText
 10
65697.22508076974
 20
58574.01043528746
 30
0.0
 40
10.5
 41
0.0
 71
     9
 72
     5
  1

1001
ACAD
1000
MTEXTBEGIN
1070
    73
1070
     1
1070
    44
1040
1.0
1070
    74
1070
     0
1000
MTEXTEND
  0
MTEXT
  5
55DE
330
1A
100
AcDbEntity
  8
SUNPOU
100
AcDbMText
 10
67640.63232747917
 20
56772.96135540945
 30
0.0
 40
3.5
 41
0.0
 71
     9
 72
     5
  1

1001
ACAD
1000
MTEXTBEGIN
1070
    73
1070
     1
1070
    44
1040
1.0
1070
    74
1070
     0
1000
MTEXTEND
  0
MTEXT
  5
55DF
330
1A
100
AcDbEntity
  8
SUNPOU
100
AcDbMText
 10
98766.81216009886
 20
99267.9070230668
 30
0.0
 40
10.5
 41
0.0
 71
     9
 72
     5
  1

1001
ACAD
1000
MTEXTBEGIN
1070
    73
1070
     1
1070
    44
1040
1.0
1070
    74
1070
     0
1000
MTEXTEND
  0
MTEXT
  5
55E0
330
1A
100
AcDbEntity
  8
SUNPOU
100
AcDbMText
 10
100710.2194068083
 20
97466.85794318876
 30
0.0
 40
3.5
 41
0.0
 71
     9
 72
     5
  1

1001
ACAD
1000
MTEXTBEGIN
1070
    73
1070
     1
1070
    44
1040
1.0
1070
    74
1070
     0
1000
MTEXTEND
  0
MTEXT
  5
55E1
330
1A
100
AcDbEntity
  8
SUNPOU
100
AcDbMText
 10
49207.07986589443
 20
45101.07217804184
 30
0.0
 40
10.5
 41
0.0
 71
     9
 72
     5
  1

1001
ACAD
1000
MTEXTBEGIN
1070
    73
1070
     1
1070
    44
1040
1.0
1070
    74
1070
     0
1000
MTEXTEND
  0
MTEXT
  5
55E2
330
1A
100
AcDbEntity
  8
SUNPOU
100
AcDbMText
 10
35259.07976551845
 20
25928.67303892964
 30
0.0
 40
3.5
 41
0.0
 71
     7
 72
     5
  1

1001
ACAD
1000
MTEXTBEGIN
1070
    73
1070
     1
1070
    44
1040
1.0
1070
    74
1070
     0
1000
MTEXTEND
  0
MTEXT
  5
55E3
330
1A
100
AcDbEntity
  8
SUNPOU
100
AcDbMText
 10
48951.43044828905
 20
35287.73625995099
 30
0.0
 40
10.5
 41
0.0
 71
     9
 72
     5
  1

1001
ACAD
1000
MTEXTBEGIN
1070
    73
1070
     1
1070
    44
1040
1.0
1070
    74
1070
     0
1000
MTEXTEND
  0
MTEXT
  5
55E4
330
1A
100
AcDbEntity
  8
SUNPOU
100
AcDbMText
 10
57673.59801420702
 20
42703.57079148847
 30
0.0
 40
10.5
 41
0.0
 71
     9
 72
     5
  1

1001
ACAD
1000
MTEXTBEGIN
1070
    73
1070
     1
1070
    44
1040
1.0
1070
    74
1070
     0
1000
MTEXTEND
  0
MTEXT
  5
55E5
330
1A
100
AcDbEntity
  8
SUNPOU
100
AcDbMText
 10
76627.35673153699
 20
60170.14684398051
 30
0.0
 40
10.5
 41
0.0
 71
     9
 72
     5
  1

1001
ACAD
1000
MTEXTBEGIN
1070
    73
1070
     1
1070
    44
1040
1.0
1070
    74
1070
     0
1000
MTEXTEND
  0
MTEXT
  5
55E6
330
1A
100
AcDbEntity
  8
SUNPOU
100
AcDbMText
 10
78570.76397824641
 20
58369.09776410251
 30
0.0
 40
3.5
 41
0.0
 71
     9
 72
     5
  1

1001
ACAD
1000
MTEXTBEGIN
1070
    73
1070
     1
1070
    44
1040
1.0
1070
    74
1070
     0
1000
MTEXTEND
  0
MTEXT
  5
55E7
330
1A
100
AcDbEntity
  8
SUNPOU
100
AcDbMText
 10
109696.943810866
 20
100864.0434317598
 30
0.0
 40
10.5
 41
0.0
 71
     9
 72
     5
  1

1001
ACAD
1000
MTEXTBEGIN
1070
    73
1070
     1
1070
    44
1040
1.0
1070
    74
1070
     0
1000
MTEXTEND
  0
MTEXT
  5
55E8
330
1A
100
AcDbEntity
  8
SUNPOU
100
AcDbMText
 10
111640.3510575755
 20
99062.99435188183
 30
0.0
 40
3.5
 41
0.0
 71
     9
 72
     5
  1

1001
ACAD
1000
MTEXTBEGIN
1070
    73
1070
     1
1070
    44
1040
1.0
1070
    74
1070
     0
1000
MTEXTEND
  0
MTEXT
  5
55E9
330
1A
100
AcDbEntity
  8
SUNPOU
100
AcDbMText
 10
60137.21151666167
 20
46697.20858673491
 30
0.0
 40
10.5
 41
0.0
 71
     9
 72
     5
  1

1001
ACAD
1000
MTEXTBEGIN
1070
    73
1070
     1
1070
    44
1040
1.0
1070
    74
1070
     0
1000
MTEXTEND
  0
MTEXT
  5
55EA
330
1A
100
AcDbEntity
  8
SUNPOU
100
AcDbMText
 10
46189.21141628568
 20
27524.80944762269
 30
0.0
 40
3.5
 41
0.0
 71
     7
 72
     5
  1

1001
ACAD
1000
MTEXTBEGIN
1070
    73
1070
     1
1070
    44
1040
1.0
1070
    74
1070
     0
1000
MTEXTEND
  0
MTEXT
  5
55EB
330
1A
100
AcDbEntity
  8
SUNPOU
100
AcDbMText
 10
45007.68847015541
 20
38269.57947701873
 30
0.0
 40
10.5
 41
0.0
 71
     9
 72
     5
  1

1001
ACAD
1000
MTEXTBEGIN
1070
    73
1070
     1
1070
    44
1040
1.0
1070
    74
1070
     0
1000
MTEXTEND
  0
MTEXT
  5
55EC
330
1A
100
AcDbEntity
  8
SUNPOU
100
AcDbMText
 10
63961.44718748539
 20
55736.15552951081
 30
0.0
 40
10.5
 41
0.0
 71
     9
 72
     5
  1

1001
ACAD
1000
MTEXTBEGIN
1070
    73
1070
     1
1070
    44
1040
1.0
1070
    74
1070
     0
1000
MTEXTEND
  0
MTEXT
  5
55ED
330
1A
100
AcDbEntity
  8
SUNPOU
100
AcDbMText
 10
65904.85443419479
 20
53935.10644963278
 30
0.0
 40
3.5
 41
0.0
 71
     9
 72
     5
  1

1001
ACAD
1000
MTEXTBEGIN
1070
    73
1070
     1
1070
    44
1040
1.0
1070
    74
1070
     0
1000
MTEXTEND
  0
MTEXT
  5
55EE
330
1A
100
AcDbEntity
  8
SUNPOU
100
AcDbMText
 10
97031.03426681453
 20
96430.05211729015
 30
0.0
 40
10.5
 41
0.0
 71
     9
 72
     5
  1

1001
ACAD
1000
MTEXTBEGIN
1070
    73
1070
     1
1070
    44
1040
1.0
1070
    74
1070
     0
1000
MTEXTEND
  0
MTEXT
  5
55EF
330
1A
100
AcDbEntity
  8
SUNPOU
100
AcDbMText
 10
98974.44151352393
 20
94629.00303741212
 30
0.0
 40
3.5
 41
0.0
 71
     9
 72
     5
  1

1001
ACAD
1000
MTEXTBEGIN
1070
    73
1070
     1
1070
    44
1040
1.0
1070
    74
1070
     0
1000
MTEXTEND
  0
MTEXT
  5
55F0
330
1A
100
AcDbEntity
  8
SUNPOU
100
AcDbMText
 10
47471.30197261006
 20
42263.21727226519
 30
0.0
 40
10.5
 41
0.0
 71
     9
 72
     5
  1

1001
ACAD
1000
MTEXTBEGIN
1070
    73
1070
     1
1070
    44
1040
1.0
1070
    74
1070
     0
1000
MTEXTEND
  0
MTEXT
  5
55F1
330
1A
100
AcDbEntity
  8
SUNPOU
100
AcDbMText
 10
33523.30187223408
 20
23090.81813315298
 30
0.0
 40
3.5
 41
0.0
 71
     7
 72
     5
  1

1001
ACAD
1000
MTEXTBEGIN
1070
    73
1070
     1
1070
    44
1040
1.0
1070
    74
1070
     0
1000
MTEXTEND
  0
MTEXT
  5
55F2
330
1A
100
AcDbEntity
  8
SUNPOU
100
AcDbMText
 10
57959.46254102503
 20
50038.08111611014
 30
0.0
 40
10.5
 41
0.0
 71
     9
 72
     5
  1

1001
ACAD
1000
MTEXTBEGIN
1070
    73
1070
     1
1070
    44
1040
1.0
1070
    74
1070
     0
1000
MTEXTEND
  0
MTEXT
  5
55F3
330
1A
100
AcDbEntity
  8
SUNPOU
100
AcDbMText
 10
76913.22125835503
 20
67504.65716860222
 30
0.0
 40
10.5
 41
0.0
 71
     9
 72
     5
  1

1001
ACAD
1000
MTEXTBEGIN
1070
    73
1070
     1
1070
    44
1040
1.0
1070
    74
1070
     0
1000
MTEXTEND
  0
MTEXT
  5
55F4
330
1A
100
AcDbEntity
  8
SUNPOU
100
AcDbMText
 10
78856.62850506443
 20
65703.6080887242
 30
0.0
 40
3.5
 41
0.0
 71
     9
 72
     5
  1

1001
ACAD
1000
MTEXTBEGIN
1070
    73
1070
     1
1070
    44
1040
1.0
1070
    74
1070
     0
1000
MTEXTEND
  0
MTEXT
  5
55F5
330
1A
100
AcDbEntity
  8
SUNPOU
100
AcDbMText
 10
109982.8083376841
 20
108198.5537563815
 30
0.0
 40
10.5
 41
0.0
 71
     9
 72
     5
  1

1001
ACAD
1000
MTEXTBEGIN
1070
    73
1070
     1
1070
    44
1040
1.0
1070
    74
1070
     0
1000
MTEXTEND
  0
MTEXT
  5
55F6
330
1A
100
AcDbEntity
  8
SUNPOU
100
AcDbMText
 10
111926.2155843934
 20
106397.5046765035
 30
0.0
 40
3.5
 41
0.0
 71
     9
 72
     5
  1

1001
ACAD
1000
MTEXTBEGIN
1070
    73
1070
     1
1070
    44
1040
1.0
1070
    74
1070
     0
1000
MTEXTEND
  0
MTEXT
  5
55F7
330
1A
100
AcDbEntity
  8
SUNPOU
100
AcDbMText
 10
60423.07604347968
 20
54031.71891135658
 30
0.0
 40
10.5
 41
0.0
 71
     9
 72
     5
  1

1001
ACAD
1000
MTEXTBEGIN
1070
    73
1070
     1
1070
    44
1040
1.0
1070
    74
1070
     0
1000
MTEXTEND
  0
MTEXT
  5
55F8
330
1A
100
AcDbEntity
  8
SUNPOU
100
AcDbMText
 10
46475.07594310369
 20
34859.3197722444
 30
0.0
 40
3.5
 41
0.0
 71
     7
 72
     5
  1

1001
ACAD
1000
MTEXTBEGIN
1070
    73
1070
     1
1070
    44
1040
1.0
1070
    74
1070
     0
1000
MTEXTEND
  0
MTEXT
  5
55F9
330
1A
100
AcDbEntity
  8
SUNPOU
100
AcDbMText
 10
74027.35402123588
 20
68370.58278833383
 30
0.0
 40
10.5
 41
0.0
 71
     9
 72
     5
  1

1001
ACAD
1000
MTEXTBEGIN
1070
    73
1070
     1
1070
    44
1040
1.0
1070
    74
1070
     0
1000
MTEXTEND
  0
MTEXT
  5
55FA
330
1A
100
AcDbEntity
  8
SUNPOU
100
AcDbMText
 10
75970.7612679453
 20
66569.53370845583
 30
0.0
 40
3.5
 41
0.0
 71
     9
 72
     5
  1

1001
ACAD
1000
MTEXTBEGIN
1070
    73
1070
     1
1070
    44
1040
1.0
1070
    74
1070
     0
1000
MTEXTEND
  0
MTEXT
  5
55FB
330
1A
100
AcDbEntity
  8
SUNPOU
100
AcDbMText
 10
107096.941100565
 20
109064.4793761132
 30
0.0
 40
10.5
 41
0.0
 71
     9
 72
     5
  1

1001
ACAD
1000
MTEXTBEGIN
1070
    73
1070
     1
1070
    44
1040
1.0
1070
    74
1070
     0
1000
MTEXTEND
  0
MTEXT
  5
55FC
330
1A
100
AcDbEntity
  8
SUNPOU
100
AcDbMText
 10
109040.3483472744
 20
107263.430296235
 30
0.0
 40
3.5
 41
0.0
 71
     9
 72
     5
  1

1001
ACAD
1000
MTEXTBEGIN
1070
    73
1070
     1
1070
    44
1040
1.0
1070
    74
1070
     0
1000
MTEXTEND
  0
MTEXT
  5
55FD
330
1A
100
AcDbEntity
  8
SUNPOU
100
AcDbMText
 10
105709.1709283621
 20
108141.3777665285
 30
0.0
 40
10.5
 41
0.0
 71
     9
 72
     5
  1

1001
ACAD
1000
MTEXTBEGIN
1070
    73
1070
     1
1070
    44
1040
1.0
1070
    74
1070
     0
1000
MTEXTEND
  0
MTEXT
  5
55FE
330
1A
100
AcDbEntity
  8
SUNPOU
100
AcDbMText
 10
107652.5781750715
 20
106340.3286866505
 30
0.0
 40
3.5
 41
0.0
 71
     9
 72
     5
  1

1001
ACAD
1000
MTEXTBEGIN
1070
    73
1070
     1
1070
    44
1040
1.0
1070
    74
1070
     0
1000
MTEXTEND
  0
MTEXT
  5
55FF
330
1A
100
AcDbEntity
  8
SUNPOU
100
AcDbMText
 10
73193.09268743351
 20
66158.78082845057
 30
0.0
 40
10.5
 41
0.0
 71
     9
 72
     5
  1

1001
ACAD
1000
MTEXTBEGIN
1070
    73
1070
     1
1070
    44
1040
1.0
1070
    74
1070
     0
1000
MTEXTEND
  0
MTEXT
  5
5600
330
1A
100
AcDbEntity
  8
SUNPOU
100
AcDbMText
 10
75916.39889159807
 20
66563.46252003162
 30
0.0
 40
3.5
 41
0.0
 71
     9
 72
     5
  1

1001
ACAD
1000
MTEXTBEGIN
1070
    73
1070
     1
1070
    44
1040
1.0
1070
    74
1070
     0
1000
MTEXTEND
  0
MTEXT
  5
5601
330
1A
100
AcDbEntity
  8
SUNPOU
100
AcDbMText
 10
75124.04436649058
 20
63402.1566819768
 30
0.0
 40
10.5
 41
0.0
 71
     9
 72
     5
  1

1001
ACAD
1000
MTEXTBEGIN
1070
    73
1070
     1
1070
    44
1040
1.0
1070
    74
1070
     0
1000
MTEXTEND
  0
MTEXT
  5
5602
330
1A
100
AcDbEntity
  8
SUNPOU
100
AcDbMText
 10
77067.4516132
 20
61601.1076020988
 30
0.0
 40
3.5
 41
0.0
 71
     9
 72
     5
  1

1001
ACAD
1000
MTEXTBEGIN
1070
    73
1070
     1
1070
    44
1040
1.0
1070
    74
1070
     0
1000
MTEXTEND
  0
MTEXT
  5
5603
330
1A
100
AcDbEntity
  8
SUNPOU
100
AcDbMText
 10
77012.54710378659
 20
61488.33571981449
 30
0.0
 40
3.5
 41
0.0
 71
     9
 72
     5
  1

1001
ACAD
1000
MTEXTBEGIN
1070
    73
1070
     1
1070
    44
1040
1.0
1070
    74
1070
     0
1000
MTEXTEND
  0
MTEXT
  5
5604
330
1A
100
AcDbEntity
  8
SUNPOU
100
AcDbMText
 10
76376.61896736668
 20
60677.01447874798
 30
0.0
 40
3.5
 41
0.0
 71
     9
 72
     5
  1

1001
ACAD
1000
MTEXTBEGIN
1070
    73
1070
     1
1070
    44
1040
1.0
1070
    74
1070
     0
1000
MTEXTEND
  0
MTEXT
  5
5605
330
1A
100
AcDbEntity
  8
SUNPOU
100
AcDbMText
 10
76375.37854794595
 20
60676.76650181048
 30
0.0
 40
10.5
 41
0.0
 71
     9
 72
     5
  1

1001
ACAD
1000
MTEXTBEGIN
1070
    73
1070
     1
1070
    44
1040
1.0
1070
    74
1070
     0
1000
MTEXTEND
  0
MTEXT
  5
5606
330
1A
100
AcDbEntity
  8
SUNPOU
100
AcDbMText
 10
84709.93991079748
 20
78034.0328293557
 30
0.0
 40
10.5
 41
0.0
 71
     9
 72
     5
  1

1001
ACAD
1000
MTEXTBEGIN
1070
    73
1070
     1
1070
    44
1040
1.0
1070
    74
1070
     0
1000
MTEXTEND
  0
MTEXT
  5
5607
330
1A
100
AcDbEntity
  8
SUNPOU
100
AcDbMText
 10
93432.10747671546
 20
85449.86736089315
 30
0.0
 40
10.5
 41
0.0
 71
     9
 72
     5
  1

1001
ACAD
1000
MTEXTBEGIN
1070
    73
1070
     1
1070
    44
1040
1.0
1070
    74
1070
     0
1000
MTEXTEND
  0
MTEXT
  5
5608
330
1A
100
AcDbEntity
  8
SUNPOU
100
AcDbMText
 10
112385.8661940454
 20
102916.4434133851
 30
0.0
 40
10.5
 41
0.0
 71
     9
 72
     5
  1

1001
ACAD
1000
MTEXTBEGIN
1070
    73
1070
     1
1070
    44
1040
1.0
1070
    74
1070
     0
1000
MTEXTEND
  0
MTEXT
  5
5609
330
1A
100
AcDbEntity
  8
SUNPOU
100
AcDbMText
 10
114329.2734407548
 20
101115.3943335072
 30
0.0
 40
3.5
 41
0.0
 71
     9
 72
     5
  1

1001
ACAD
1000
MTEXTBEGIN
1070
    73
1070
     1
1070
    44
1040
1.0
1070
    74
1070
     0
1000
MTEXTEND
  0
MTEXT
  5
560A
330
1A
100
AcDbEntity
  8
SUNPOU
100
AcDbMText
 10
145455.4532733745
 20
143610.3400011645
 30
0.0
 40
10.5
 41
0.0
 71
     9
 72
     5
  1

1001
ACAD
1000
MTEXTBEGIN
1070
    73
1070
     1
1070
    44
1040
1.0
1070
    74
1070
     0
1000
MTEXTEND
  0
MTEXT
  5
560B
330
1A
100
AcDbEntity
  8
SUNPOU
100
AcDbMText
 10
147398.8605200839
 20
141809.2909212864
 30
0.0
 40
3.5
 41
0.0
 71
     9
 72
     5
  1

1001
ACAD
1000
MTEXTBEGIN
1070
    73
1070
     1
1070
    44
1040
1.0
1070
    74
1070
     0
1000
MTEXTEND
  0
MTEXT
  5
560C
330
1A
100
AcDbEntity
  8
SUNPOU
100
AcDbMText
 10
95895.72097917011
 20
89443.50515613962
 30
0.0
 40
10.5
 41
0.0
 71
     9
 72
     5
  1

1001
ACAD
1000
MTEXTBEGIN
1070
    73
1070
     1
1070
    44
1040
1.0
1070
    74
1070
     0
1000
MTEXTEND
  0
MTEXT
  5
560D
330
1A
100
AcDbEntity
  8
SUNPOU
100
AcDbMText
 10
81947.72087879414
 20
70271.1060170274
 30
0.0
 40
3.5
 41
0.0
 71
     7
 72
     5
  1

1001
ACAD
1000
MTEXTBEGIN
1070
    73
1070
     1
1070
    44
1040
1.0
1070
    74
1070
     0
1000
MTEXTEND
  0
MTEXT
  5
560E
330
1A
100
AcDbEntity
  8
SUNPOU
100
AcDbMText
 10
62932.89027578729
 20
58033.25474784561
 30
0.0
 40
10.5
 41
0.0
 71
     7
 72
     5
  1

1001
ACAD
1000
MTEXTBEGIN
1070
    73
1070
     1
1070
    44
1040
1.0
1070
    74
1070
     0
1000
MTEXTEND
  0
MTEXT
  5
560F
330
1A
100
AcDbEntity
  8
SUNPOU
100
AcDbMText
 10
50475.66201083918
 20
42188.32316974718
 30
0.0
 40
35.0
 41
0.0
 71
     9
 72
     5
  1

1001
ACAD
1000
MTEXTBEGIN
1070
    73
1070
     1
1070
    44
1040
1.0
1070
    74
1070
     0
1000
MTEXTEND
  0
MTEXT
  5
5610
330
1A
100
AcDbEntity
  8
SUNPOU
100
AcDbMText
 10
49384.14706841413
 20
42797.0985797959
 30
0.0
 40
350.0000004171781
 41
0.0
 71
     7
 72
     5
  1

1001
ACAD
1000
MTEXTBEGIN
1070
    73
1070
     1
1070
    44
1040
1.0
1070
    74
1070
     0
1000
MTEXTEND
  0
MTEXT
  5
5611
330
1A
100
AcDbEntity
  8
0
100
AcDbMText
 10
55428.09782635704
 20
40777.0209419321
 30
0.0
 40
8.0
 41
0.0
 71
     7
 72
     5
  1

1001
ACAD
1000
MTEXTBEGIN
1070
    73
1070
     1
1070
    44
1040
1.0
1070
    74
1070
     0
1000
MTEXTEND
  0
MTEXT
  5
5612
330
1A
100
AcDbEntity
  8
0
100
AcDbMText
 10
57713.45551625193
 20
41747.81123668316
 30
0.0
 40
8.0
 41
0.0
 71
     7
 72
     5
  1

1001
ACAD
1000
MTEXTBEGIN
1070
    73
1070
     1
1070
    44
1040
1.0
1070
    74
1070
     0
1000
MTEXTEND
  0
MTEXT
  5
5613
330
1A
100
AcDbEntity
  8
SUNPOU
100
AcDbMText
 10
60379.35253693407
 20
51259.9226290583
 30
0.0
 40
10.5
 41
0.0
 71
     1
 72
     5
  1

1001
ACAD
1000
MTEXTBEGIN
1070
    73
1070
     1
1070
    44
1040
1.0
1070
    74
1070
     0
1000
MTEXTEND
  0
MTEXT
  5
5614
330
1A
100
AcDbEntity
  8
SUNPOU
100
AcDbMText
 10
52448.42934099813
 20
50313.12949514535
 30
0.0
 40
10.5
 41
0.0
 71
     7
 72
     5
  1

1001
ACAD
1000
MTEXTBEGIN
1070
    73
1070
     1
1070
    44
1040
1.0
1070
    74
1070
     0
1000
MTEXTEND
  0
MTEXT
  5
5615
330
1A
100
AcDbEntity
  8
SUNPOU
100
AcDbMText
 10
55397.4130055109
 20
55213.80556698819
 30
0.0
 40
10.5
 41
0.0
 71
     7
 72
     5
  1

1001
ACAD
1000
MTEXTBEGIN
1070
    73
1070
     1
1070
    44
1040
1.0
1070
    74
1070
     0
1000
MTEXTEND
  0
MTEXT
  5
5616
330
1A
100
AcDbEntity
  8
SUNPOU
100
AcDbMText
 10
59906.49113346147
 20
57650.10631460826
 30
0.0
 40
10.5
 41
0.0
 71
     7
 72
     5
  1

1001
ACAD
1000
MTEXTBEGIN
1070
    73
1070
     1
1070
    44
1040
1.0
1070
    74
1070
     0
1000
MTEXTEND
  0
MTEXT
  5
5617
330
1A
100
AcDbEntity
  8
SUNPOU
100
AcDbMText
 10
43507.32902022978
 20
36647.70246499718
 30
0.0
 40
10.5
 41
0.0
 71
     7
 72
     5
  1

1001
ACAD
1000
MTEXTBEGIN
1070
    73
1070
     1
1070
    44
1040
1.0
1070
    74
1070
     0
1000
MTEXTEND
  0
MTEXT
  5
5618
330
1A
100
AcDbEntity
  8
SUNPOU
100
AcDbMText
 10
94698.84745413006
 20
82320.68302864544
 30
0.0
 40
10.5
 41
0.0
 71
     9
 72
     5
  1

1001
ACAD
1000
MTEXTBEGIN
1070
    73
1070
     1
1070
    44
1040
1.0
1070
    74
1070
     0
1000
MTEXTEND
  0
MTEXT
  5
5619
330
1A
100
AcDbEntity
  8
SUNPOU
100
AcDbMText
 10
103421.015020048
 20
89736.5175601829
 30
0.0
 40
10.5
 41
0.0
 71
     9
 72
     5
  1

1001
ACAD
1000
MTEXTBEGIN
1070
    73
1070
     1
1070
    44
1040
1.0
1070
    74
1070
     0
1000
MTEXTEND
  0
MTEXT
  5
561A
330
1A
100
AcDbEntity
  8
SUNPOU
100
AcDbMText
 10
122374.773737378
 20
107203.0936126749
 30
0.0
 40
10.5
 41
0.0
 71
     9
 72
     5
  1

1001
ACAD
1000
MTEXTBEGIN
1070
    73
1070
     1
1070
    44
1040
1.0
1070
    74
1070
     0
1000
MTEXTEND
  0
MTEXT
  5
561B
330
1A
100
AcDbEntity
  8
SUNPOU
100
AcDbMText
 10
124318.1809840874
 20
105402.0445327969
 30
0.0
 40
3.5
 41
0.0
 71
     9
 72
     5
  1

1001
ACAD
1000
MTEXTBEGIN
1070
    73
1070
     1
1070
    44
1040
1.0
1070
    74
1070
     0
1000
MTEXTEND
  0
MTEXT
  5
561C
330
1A
100
AcDbEntity
  8
SUNPOU
100
AcDbMText
 10
155444.3608167071
 20
147896.9902004542
 30
0.0
 40
10.5
 41
0.0
 71
     9
 72
     5
  1

1001
ACAD
1000
MTEXTBEGIN
1070
    73
1070
     1
1070
    44
1040
1.0
1070
    74
1070
     0
1000
MTEXTEND
  0
MTEXT
  5
561D
330
1A
100
AcDbEntity
  8
SUNPOU
100
AcDbMText
 10
157387.7680634165
 20
146095.9411205762
 30
0.0
 40
3.5
 41
0.0
 71
     9
 72
     5
  1

1001
ACAD
1000
MTEXTBEGIN
1070
    73
1070
     1
1070
    44
1040
1.0
1070
    74
1070
     0
1000
MTEXTEND
  0
MTEXT
  5
561E
330
1A
100
AcDbEntity
  8
SUNPOU
100
AcDbMText
 10
105884.6285225027
 20
93730.15535542933
 30
0.0
 40
10.5
 41
0.0
 71
     9
 72
     5
  1

1001
ACAD
1000
MTEXTBEGIN
1070
    73
1070
     1
1070
    44
1040
1.0
1070
    74
1070
     0
1000
MTEXTEND
  0
MTEXT
  5
561F
330
1A
100
AcDbEntity
  8
SUNPOU
100
AcDbMText
 10
91936.6284221267
 20
74557.75621631714
 30
0.0
 40
3.5
 41
0.0
 71
     7
 72
     5
  1

1001
ACAD
1000
MTEXTBEGIN
1070
    73
1070
     1
1070
    44
1040
1.0
1070
    74
1070
     0
1000
MTEXTEND
  0
MTEXT
  5
5620
330
1A
100
AcDbEntity
  8
SUNPOU
100
AcDbMText
 10
72921.79781911986
 20
62319.90494713532
 30
0.0
 40
10.5
 41
0.0
 71
     7
 72
     5
  1

1001
ACAD
1000
MTEXTBEGIN
1070
    73
1070
     1
1070
    44
1040
1.0
1070
    74
1070
     0
1000
MTEXTEND
  0
MTEXT
  5
5621
330
1A
100
AcDbEntity
  8
SUNPOU
100
AcDbMText
 10
60464.56955417175
 20
46474.97336903692
 30
0.0
 40
35.0
 41
0.0
 71
     9
 72
     5
  1

1001
ACAD
1000
MTEXTBEGIN
1070
    73
1070
     1
1070
    44
1040
1.0
1070
    74
1070
     0
1000
MTEXTEND
  0
MTEXT
  5
5622
330
1A
100
AcDbEntity
  8
SUNPOU
100
AcDbMText
 10
59373.05461174673
 20
47083.74877908561
 30
0.0
 40
350.0000004171781
 41
0.0
 71
     7
 72
     5
  1

1001
ACAD
1000
MTEXTBEGIN
1070
    73
1070
     1
1070
    44
1040
1.0
1070
    74
1070
     0
1000
MTEXTEND
  0
MTEXT
  5
5623
330
1A
100
AcDbEntity
  8
0
100
AcDbMText
 10
65417.00536968963
 20
45063.67114122186
 30
0.0
 40
8.0
 41
0.0
 71
     7
 72
     5
  1

1001
ACAD
1000
MTEXTBEGIN
1070
    73
1070
     1
1070
    44
1040
1.0
1070
    74
1070
     0
1000
MTEXTEND
  0
MTEXT
  5
5624
330
1A
100
AcDbEntity
  8
0
100
AcDbMText
 10
67702.36305958452
 20
46034.46143597292
 30
0.0
 40
8.0
 41
0.0
 71
     7
 72
     5
  1

1001
ACAD
1000
MTEXTBEGIN
1070
    73
1070
     1
1070
    44
1040
1.0
1070
    74
1070
     0
1000
MTEXTEND
  0
MTEXT
  5
5625
330
1A
100
AcDbEntity
  8
SUNPOU
100
AcDbMText
 10
70368.26008026666
 20
55546.57282834803
 30
0.0
 40
10.5
 41
0.0
 71
     1
 72
     5
  1

1001
ACAD
1000
MTEXTBEGIN
1070
    73
1070
     1
1070
    44
1040
1.0
1070
    74
1070
     0
1000
MTEXTEND
  0
MTEXT
  5
5626
330
1A
100
AcDbEntity
  8
SUNPOU
100
AcDbMText
 10
62437.33688433072
 20
54599.77969443507
 30
0.0
 40
10.5
 41
0.0
 71
     7
 72
     5
  1

1001
ACAD
1000
MTEXTBEGIN
1070
    73
1070
     1
1070
    44
1040
1.0
1070
    74
1070
     0
1000
MTEXTEND
  0
MTEXT
  5
5627
330
1A
100
AcDbEntity
  8
SUNPOU
100
AcDbMText
 10
65386.32054884348
 20
59500.45576627792
 30
0.0
 40
10.5
 41
0.0
 71
     7
 72
     5
  1

1001
ACAD
1000
MTEXTBEGIN
1070
    73
1070
     1
1070
    44
1040
1.0
1070
    74
1070
     0
1000
MTEXTEND
  0
MTEXT
  5
5628
330
1A
100
AcDbEntity
  8
SUNPOU
100
AcDbMText
 10
69895.39867679405
 20
61936.756513898
 30
0.0
 40
10.5
 41
0.0
 71
     7
 72
     5
  1

1001
ACAD
1000
MTEXTBEGIN
1070
    73
1070
     1
1070
    44
1040
1.0
1070
    74
1070
     0
1000
MTEXTEND
  0
MTEXT
  5
5629
330
1A
100
AcDbEntity
  8
SUNPOU
100
AcDbMText
 10
53496.23656356237
 20
40934.35266428691
 30
0.0
 40
10.5
 41
0.0
 71
     7
 72
     5
  1

1001
ACAD
1000
MTEXTBEGIN
1070
    73
1070
     1
1070
    44
1040
1.0
1070
    74
1070
     0
1000
MTEXTEND
  0
MTEXT
  5
562A
330
1A
100
AcDbEntity
  8
SUNPOU
100
AcDbMText
 10
55306.99947493731
 20
47261.76665176546
 30
0.0
 40
10.5
 41
0.0
 71
     9
 72
     5
  1

1001
ACAD
1000
MTEXTBEGIN
1070
    73
1070
     1
1070
    44
1040
1.0
1070
    74
1070
     0
1000
MTEXTEND
  0
MTEXT
  5
562B
330
1A
100
AcDbEntity
  8
SUNPOU
100
AcDbMText
 10
64029.16704085527
 20
54677.60118330295
 30
0.0
 40
10.5
 41
0.0
 71
     9
 72
     5
  1

1001
ACAD
1000
MTEXTBEGIN
1070
    73
1070
     1
1070
    44
1040
1.0
1070
    74
1070
     0
1000
MTEXTEND
  0
MTEXT
  5
562C
330
1A
100
AcDbEntity
  8
SUNPOU
100
AcDbMText
 10
82982.92575818527
 20
72144.17723579499
 30
0.0
 40
10.5
 41
0.0
 71
     9
 72
     5
  1

1001
ACAD
1000
MTEXTBEGIN
1070
    73
1070
     1
1070
    44
1040
1.0
1070
    74
1070
     0
1000
MTEXTEND
  0
MTEXT
  5
562D
330
1A
100
AcDbEntity
  8
SUNPOU
100
AcDbMText
 10
84926.33300489467
 20
70343.12815591697
 30
0.0
 40
3.5
 41
0.0
 71
     9
 72
     5
  1

1001
ACAD
1000
MTEXTBEGIN
1070
    73
1070
     1
1070
    44
1040
1.0
1070
    74
1070
     0
1000
MTEXTEND
  0
MTEXT
  5
562E
330
1A
100
AcDbEntity
  8
SUNPOU
100
AcDbMText
 10
116052.5128375142
 20
112838.0738235742
 30
0.0
 40
10.5
 41
0.0
 71
     9
 72
     5
  1

1001
ACAD
1000
MTEXTBEGIN
1070
    73
1070
     1
1070
    44
1040
1.0
1070
    74
1070
     0
1000
MTEXTEND
  0
MTEXT
  5
562F
330
1A
100
AcDbEntity
  8
SUNPOU
100
AcDbMText
 10
117995.9200842238
 20
111037.0247436963
 30
0.0
 40
3.5
 41
0.0
 71
     9
 72
     5
  1

1001
ACAD
1000
MTEXTBEGIN
1070
    73
1070
     1
1070
    44
1040
1.0
1070
    74
1070
     0
1000
MTEXTEND
  0
MTEXT
  5
5630
330
1A
100
AcDbEntity
  8
SUNPOU
100
AcDbMText
 10
66492.78054330994
 20
58671.23897854939
 30
0.0
 40
10.5
 41
0.0
 71
     9
 72
     5
  1

1001
ACAD
1000
MTEXTBEGIN
1070
    73
1070
     1
1070
    44
1040
1.0
1070
    74
1070
     0
1000
MTEXTEND
  0
MTEXT
  5
5631
330
1A
100
AcDbEntity
  8
SUNPOU
100
AcDbMText
 10
52544.78044293397
 20
39498.83983943717
 30
0.0
 40
3.5
 41
0.0
 71
     7
 72
     5
  1

1001
ACAD
1000
MTEXTBEGIN
1070
    73
1070
     1
1070
    44
1040
1.0
1070
    74
1070
     0
1000
MTEXTEND
  0
MTEXT
  5
5632
330
1A
100
AcDbEntity
  8
SUNPOU
100
AcDbMText
 10
66237.13112570454
 20
48857.90306045851
 30
0.0
 40
10.5
 41
0.0
 71
     9
 72
     5
  1

1001
ACAD
1000
MTEXTBEGIN
1070
    73
1070
     1
1070
    44
1040
1.0
1070
    74
1070
     0
1000
MTEXTEND
  0
MTEXT
  5
5633
330
1A
100
AcDbEntity
  8
SUNPOU
100
AcDbMText
 10
74959.29869162253
 20
56273.73759199599
 30
0.0
 40
10.5
 41
0.0
 71
     9
 72
     5
  1

1001
ACAD
1000
MTEXTBEGIN
1070
    73
1070
     1
1070
    44
1040
1.0
1070
    74
1070
     0
1000
MTEXTEND
  0
MTEXT
  5
5634
330
1A
100
AcDbEntity
  8
SUNPOU
100
AcDbMText
 10
93913.0574089525
 20
73740.31364448805
 30
0.0
 40
10.5
 41
0.0
 71
     9
 72
     5
  1

1001
ACAD
1000
MTEXTBEGIN
1070
    73
1070
     1
1070
    44
1040
1.0
1070
    74
1070
     0
1000
MTEXTEND
  0
MTEXT
  5
5635
330
1A
100
AcDbEntity
  8
SUNPOU
100
AcDbMText
 10
95856.46465566192
 20
71939.26456461004
 30
0.0
 40
3.5
 41
0.0
 71
     9
 72
     5
  1

1001
ACAD
1000
MTEXTBEGIN
1070
    73
1070
     1
1070
    44
1040
1.0
1070
    74
1070
     0
1000
MTEXTEND
  0
MTEXT
  5
5636
330
1A
100
AcDbEntity
  8
SUNPOU
100
AcDbMText
 10
126982.6444882816
 20
114434.2102322673
 30
0.0
 40
10.5
 41
0.0
 71
     9
 72
     5
  1

1001
ACAD
1000
MTEXTBEGIN
1070
    73
1070
     1
1070
    44
1040
1.0
1070
    74
1070
     0
1000
MTEXTEND
  0
MTEXT
  5
5637
330
1A
100
AcDbEntity
  8
SUNPOU
100
AcDbMText
 10
128926.051734991
 20
112633.1611523893
 30
0.0
 40
3.5
 41
0.0
 71
     9
 72
     5
  1

1001
ACAD
1000
MTEXTBEGIN
1070
    73
1070
     1
1070
    44
1040
1.0
1070
    74
1070
     0
1000
MTEXTEND
  0
MTEXT
  5
5638
330
1A
100
AcDbEntity
  8
SUNPOU
100
AcDbMText
 10
77422.91219407717
 20
60267.37538724244
 30
0.0
 40
10.5
 41
0.0
 71
     9
 72
     5
  1

1001
ACAD
1000
MTEXTBEGIN
1070
    73
1070
     1
1070
    44
1040
1.0
1070
    74
1070
     0
1000
MTEXTEND
  0
MTEXT
  5
5639
330
1A
100
AcDbEntity
  8
SUNPOU
100
AcDbMText
 10
63474.91209370119
 20
41094.97624813023
 30
0.0
 40
3.5
 41
0.0
 71
     7
 72
     5
  1

1001
ACAD
1000
MTEXTBEGIN
1070
    73
1070
     1
1070
    44
1040
1.0
1070
    74
1070
     0
1000
MTEXTEND
  0
MTEXT
  5
563A
330
1A
100
AcDbEntity
  8
SUNPOU
100
AcDbMText
 10
48117.65086229006
 20
40806.11043916631
 30
0.0
 40
10.5
 41
0.0
 71
     9
 72
     5
  1

1001
ACAD
1000
MTEXTBEGIN
1070
    73
1070
     1
1070
    44
1040
1.0
1070
    74
1070
     0
1000
MTEXTEND
  0
MTEXT
  5
563B
330
1A
100
AcDbEntity
  8
SUNPOU
100
AcDbMText
 10
67071.40957962004
 20
58272.68649165838
 30
0.0
 40
10.5
 41
0.0
 71
     9
 72
     5
  1

1001
ACAD
1000
MTEXTBEGIN
1070
    73
1070
     1
1070
    44
1040
1.0
1070
    74
1070
     0
1000
MTEXTEND
  0
MTEXT
  5
563C
330
1A
100
AcDbEntity
  8
SUNPOU
100
AcDbMText
 10
69014.81682632945
 20
56471.63741178035
 30
0.0
 40
3.5
 41
0.0
 71
     9
 72
     5
  1

1001
ACAD
1000
MTEXTBEGIN
1070
    73
1070
     1
1070
    44
1040
1.0
1070
    74
1070
     0
1000
MTEXTEND
  0
MTEXT
  5
563D
330
1A
100
AcDbEntity
  8
SUNPOU
100
AcDbMText
 10
100140.9966589491
 20
98966.58307943773
 30
0.0
 40
10.5
 41
0.0
 71
     9
 72
     5
  1

1001
ACAD
1000
MTEXTBEGIN
1070
    73
1070
     1
1070
    44
1040
1.0
1070
    74
1070
     0
1000
MTEXTEND
  0
MTEXT
  5
563E
330
1A
100
AcDbEntity
  8
SUNPOU
100
AcDbMText
 10
102084.4039056586
 20
97165.53399955968
 30
0.0
 40
3.5
 41
0.0
 71
     9
 72
     5
  1

1001
ACAD
1000
MTEXTBEGIN
1070
    73
1070
     1
1070
    44
1040
1.0
1070
    74
1070
     0
1000
MTEXTEND
  0
MTEXT
  5
563F
330
1A
100
AcDbEntity
  8
SUNPOU
100
AcDbMText
 10
50581.26436474472
 20
44799.74823441275
 30
0.0
 40
10.5
 41
0.0
 71
     9
 72
     5
  1

1001
ACAD
1000
MTEXTBEGIN
1070
    73
1070
     1
1070
    44
1040
1.0
1070
    74
1070
     0
1000
MTEXTEND
  0
MTEXT
  5
5640
330
1A
100
AcDbEntity
  8
SUNPOU
100
AcDbMText
 10
36633.26426436873
 20
25627.34909530054
 30
0.0
 40
3.5
 41
0.0
 71
     7
 72
     5
  1

1001
ACAD
1000
MTEXTBEGIN
1070
    73
1070
     1
1070
    44
1040
1.0
1070
    74
1070
     0
1000
MTEXTEND
  0
MTEXT
  5
5641
330
1A
100
AcDbEntity
  8
SUNPOU
100
AcDbMText
 10
61069.42493315968
 20
52574.61207825771
 30
0.0
 40
10.5
 41
0.0
 71
     9
 72
     5
  1

1001
ACAD
1000
MTEXTBEGIN
1070
    73
1070
     1
1070
    44
1040
1.0
1070
    74
1070
     0
1000
MTEXTEND
  0
MTEXT
  5
5642
330
1A
100
AcDbEntity
  8
SUNPOU
100
AcDbMText
 10
80023.18365048967
 20
70041.18813074978
 30
0.0
 40
10.5
 41
0.0
 71
     9
 72
     5
  1

1001
ACAD
1000
MTEXTBEGIN
1070
    73
1070
     1
1070
    44
1040
1.0
1070
    74
1070
     0
1000
MTEXTEND
  0
MTEXT
  5
5643
330
1A
100
AcDbEntity
  8
SUNPOU
100
AcDbMText
 10
81966.59089719908
 20
68240.13905087176
 30
0.0
 40
3.5
 41
0.0
 71
     9
 72
     5
  1

1001
ACAD
1000
MTEXTBEGIN
1070
    73
1070
     1
1070
    44
1040
1.0
1070
    74
1070
     0
1000
MTEXTEND
  0
MTEXT
  5
5644
330
1A
100
AcDbEntity
  8
SUNPOU
100
AcDbMText
 10
113092.7707298186
 20
110735.0847185291
 30
0.0
 40
10.5
 41
0.0
 71
     9
 72
     5
  1

1001
ACAD
1000
MTEXTBEGIN
1070
    73
1070
     1
1070
    44
1040
1.0
1070
    74
1070
     0
1000
MTEXTEND
  0
MTEXT
  5
5645
330
1A
100
AcDbEntity
  8
SUNPOU
100
AcDbMText
 10
115036.1779765282
 20
108934.0356386511
 30
0.0
 40
3.5
 41
0.0
 71
     9
 72
     5
  1

1001
ACAD
1000
MTEXTBEGIN
1070
    73
1070
     1
1070
    44
1040
1.0
1070
    74
1070
     0
1000
MTEXTEND
  0
MTEXT
  5
5646
330
1A
100
AcDbEntity
  8
SUNPOU
100
AcDbMText
 10
63533.03843561432
 20
56568.24987350415
 30
0.0
 40
10.5
 41
0.0
 71
     9
 72
     5
  1

1001
ACAD
1000
MTEXTBEGIN
1070
    73
1070
     1
1070
    44
1040
1.0
1070
    74
1070
     0
1000
MTEXTEND
  0
MTEXT
  5
5647
330
1A
100
AcDbEntity
  8
SUNPOU
100
AcDbMText
 10
49585.03833523835
 20
37395.85073439196
 30
0.0
 40
3.5
 41
0.0
 71
     7
 72
     5
  1

1001
ACAD
1000
MTEXTBEGIN
1070
    73
1070
     1
1070
    44
1040
1.0
1070
    74
1070
     0
1000
MTEXTEND
  0
MTEXT
  5
5648
330
1A
100
AcDbEntity
  8
SUNPOU
100
AcDbMText
 10
77137.31641337052
 20
70907.11375048141
 30
0.0
 40
10.5
 41
0.0
 71
     9
 72
     5
  1

1001
ACAD
1000
MTEXTBEGIN
1070
    73
1070
     1
1070
    44
1040
1.0
1070
    74
1070
     0
1000
MTEXTEND
  0
MTEXT
  5
5649
330
1A
100
AcDbEntity
  8
SUNPOU
100
AcDbMText
 10
79080.72366007995
 20
69106.06467060339
 30
0.0
 40
3.5
 41
0.0
 71
     9
 72
     5
  1

1001
ACAD
1000
MTEXTBEGIN
1070
    73
1070
     1
1070
    44
1040
1.0
1070
    74
1070
     0
1000
MTEXTEND
  0
MTEXT
  5
564A
330
1A
100
AcDbEntity
  8
SUNPOU
100
AcDbMText
 10
110206.9034926996
 20
111601.0103382607
 30
0.0
 40
10.5
 41
0.0
 71
     9
 72
     5
  1

1001
ACAD
1000
MTEXTBEGIN
1070
    73
1070
     1
1070
    44
1040
1.0
1070
    74
1070
     0
1000
MTEXTEND
  0
MTEXT
  5
564B
330
1A
100
AcDbEntity
  8
SUNPOU
100
AcDbMText
 10
112150.310739409
 20
109799.9612583826
 30
0.0
 40
3.5
 41
0.0
 71
     9
 72
     5
  1

1001
ACAD
1000
MTEXTBEGIN
1070
    73
1070
     1
1070
    44
1040
1.0
1070
    74
1070
     0
1000
MTEXTEND
  0
MTEXT
  5
564C
330
1A
100
AcDbEntity
  8
SUNPOU
100
AcDbMText
 10
108819.1333204967
 20
110677.9087286761
 30
0.0
 40
10.5
 41
0.0
 71
     9
 72
     5
  1

1001
ACAD
1000
MTEXTBEGIN
1070
    73
1070
     1
1070
    44
1040
1.0
1070
    74
1070
     0
1000
MTEXTEND
  0
MTEXT
  5
564D
330
1A
100
AcDbEntity
  8
SUNPOU
100
AcDbMText
 10
110762.5405672062
 20
108876.8596487981
 30
0.0
 40
3.5
 41
0.0
 71
     9
 72
     5
  1

1001
ACAD
1000
MTEXTBEGIN
1070
    73
1070
     1
1070
    44
1040
1.0
1070
    74
1070
     0
1000
MTEXTEND
  0
MTEXT
  5
564E
330
1A
100
AcDbEntity
  8
SUNPOU
100
AcDbMText
 10
76303.05507956816
 20
68695.31179059812
 30
0.0
 40
10.5
 41
0.0
 71
     9
 72
     5
  1

1001
ACAD
1000
MTEXTBEGIN
1070
    73
1070
     1
1070
    44
1040
1.0
1070
    74
1070
     0
1000
MTEXTEND
  0
MTEXT
  5
564F
330
1A
100
AcDbEntity
  8
SUNPOU
100
AcDbMText
 10
79026.36128373271
 20
69099.99348217918
 30
0.0
 40
3.5
 41
0.0
 71
     9
 72
     5
  1

1001
ACAD
1000
MTEXTBEGIN
1070
    73
1070
     1
1070
    44
1040
1.0
1070
    74
1070
     0
1000
MTEXTEND
  0
MTEXT
  5
5650
330
1A
100
AcDbEntity
  8
SUNPOU
100
AcDbMText
 10
78234.00675862522
 20
65938.68764412436
 30
0.0
 40
10.5
 41
0.0
 71
     9
 72
     5
  1

1001
ACAD
1000
MTEXTBEGIN
1070
    73
1070
     1
1070
    44
1040
1.0
1070
    74
1070
     0
1000
MTEXTEND
  0
MTEXT
  5
5651
330
1A
100
AcDbEntity
  8
SUNPOU
100
AcDbMText
 10
80177.41400533465
 20
64137.63856424636
 30
0.0
 40
3.5
 41
0.0
 71
     9
 72
     5
  1

1001
ACAD
1000
MTEXTBEGIN
1070
    73
1070
     1
1070
    44
1040
1.0
1070
    74
1070
     0
1000
MTEXTEND
  0
MTEXT
  5
5652
330
1A
100
AcDbEntity
  8
SUNPOU
100
AcDbMText
 10
80122.50949592122
 20
64024.86668196204
 30
0.0
 40
3.5
 41
0.0
 71
     9
 72
     5
  1

1001
ACAD
1000
MTEXTBEGIN
1070
    73
1070
     1
1070
    44
1040
1.0
1070
    74
1070
     0
1000
MTEXTEND
  0
MTEXT
  5
5653
330
1A
100
AcDbEntity
  8
SUNPOU
100
AcDbMText
 10
79486.58135950133
 20
63213.54544089553
 30
0.0
 40
3.5
 41
0.0
 71
     9
 72
     5
  1

1001
ACAD
1000
MTEXTBEGIN
1070
    73
1070
     1
1070
    44
1040
1.0
1070
    74
1070
     0
1000
MTEXTEND
  0
MTEXT
  5
5654
330
1A
100
AcDbEntity
  8
SUNPOU
100
AcDbMText
 10
79485.3409400806
 20
63213.29746395804
 30
0.0
 40
10.5
 41
0.0
 71
     9
 72
     5
  1

1001
ACAD
1000
MTEXTBEGIN
1070
    73
1070
     1
1070
    44
1040
1.0
1070
    74
1070
     0
1000
MTEXTEND
  0
MTEXT
  5
5655
330
1A
100
AcDbEntity
  8
SUNPOU
100
AcDbMText
 10
85473.63363627567
 20
80747.76348077064
 30
0.0
 40
10.5
 41
0.0
 71
     9
 72
     5
  1

1001
ACAD
1000
MTEXTBEGIN
1070
    73
1070
     1
1070
    44
1040
1.0
1070
    74
1070
     0
1000
MTEXTEND
  0
MTEXT
  5
5656
330
1A
100
AcDbEntity
  8
SUNPOU
100
AcDbMText
 10
94195.80120219368
 20
88163.59801230808
 30
0.0
 40
10.5
 41
0.0
 71
     9
 72
     5
  1

1001
ACAD
1000
MTEXTBEGIN
1070
    73
1070
     1
1070
    44
1040
1.0
1070
    74
1070
     0
1000
MTEXTEND
  0
MTEXT
  5
5657
330
1A
100
AcDbEntity
  8
SUNPOU
100
AcDbMText
 10
113149.5599195236
 20
105630.1740648001
 30
0.0
 40
10.5
 41
0.0
 71
     9
 72
     5
  1

1001
ACAD
1000
MTEXTBEGIN
1070
    73
1070
     1
1070
    44
1040
1.0
1070
    74
1070
     0
1000
MTEXTEND
  0
MTEXT
  5
5658
330
1A
100
AcDbEntity
  8
SUNPOU
100
AcDbMText
 10
115092.967166233
 20
103829.1249849221
 30
0.0
 40
3.5
 41
0.0
 71
     9
 72
     5
  1

1001
ACAD
1000
MTEXTBEGIN
1070
    73
1070
     1
1070
    44
1040
1.0
1070
    74
1070
     0
1000
MTEXTEND
  0
MTEXT
  5
5659
330
1A
100
AcDbEntity
  8
SUNPOU
100
AcDbMText
 10
146219.1469988527
 20
146324.0706525794
 30
0.0
 40
10.5
 41
0.0
 71
     9
 72
     5
  1

1001
ACAD
1000
MTEXTBEGIN
1070
    73
1070
     1
1070
    44
1040
1.0
1070
    74
1070
     0
1000
MTEXTEND
  0
MTEXT
  5
565A
330
1A
100
AcDbEntity
  8
SUNPOU
100
AcDbMText
 10
148162.5542455621
 20
144523.0215727014
 30
0.0
 40
3.5
 41
0.0
 71
     9
 72
     5
  1

1001
ACAD
1000
MTEXTBEGIN
1070
    73
1070
     1
1070
    44
1040
1.0
1070
    74
1070
     0
1000
MTEXTEND
  0
MTEXT
  5
565B
330
1A
100
AcDbEntity
  8
SUNPOU
100
AcDbMText
 10
96659.41470464833
 20
92157.23580755453
 30
0.0
 40
10.5
 41
0.0
 71
     9
 72
     5
  1

1001
ACAD
1000
MTEXTBEGIN
1070
    73
1070
     1
1070
    44
1040
1.0
1070
    74
1070
     0
1000
MTEXTEND
  0
MTEXT
  5
565C
330
1A
100
AcDbEntity
  8
SUNPOU
100
AcDbMText
 10
82711.41460427234
 20
72984.83666844234
 30
0.0
 40
3.5
 41
0.0
 71
     7
 72
     5
  1

1001
ACAD
1000
MTEXTBEGIN
1070
    73
1070
     1
1070
    44
1040
1.0
1070
    74
1070
     0
1000
MTEXTEND
  0
MTEXT
  5
565D
330
1A
100
AcDbEntity
  8
SUNPOU
100
AcDbMText
 10
63696.58400126548
 20
60746.98539926055
 30
0.0
 40
10.5
 41
0.0
 71
     7
 72
     5
  1

1001
ACAD
1000
MTEXTBEGIN
1070
    73
1070
     1
1070
    44
1040
1.0
1070
    74
1070
     0
1000
MTEXTEND
  0
MTEXT
  5
565E
330
1A
100
AcDbEntity
  8
SUNPOU
100
AcDbMText
 10
51239.35573631738
 20
44902.05382116213
 30
0.0
 40
35.0
 41
0.0
 71
     9
 72
     5
  1

1001
ACAD
1000
MTEXTBEGIN
1070
    73
1070
     1
1070
    44
1040
1.0
1070
    74
1070
     0
1000
MTEXTEND
  0
MTEXT
  5
565F
330
1A
100
AcDbEntity
  8
SUNPOU
100
AcDbMText
 10
50147.84079389233
 20
45510.82923121084
 30
0.0
 40
350.0000004171781
 41
0.0
 71
     7
 72
     5
  1

1001
ACAD
1000
MTEXTBEGIN
1070
    73
1070
     1
1070
    44
1040
1.0
1070
    74
1070
     0
1000
MTEXTEND
  0
MTEXT
  5
5660
330
1A
100
AcDbEntity
  8
0
100
AcDbMText
 10
56191.79155183523
 20
43490.75159334705
 30
0.0
 40
8.0
 41
0.0
 71
     7
 72
     5
  1

1001
ACAD
1000
MTEXTBEGIN
1070
    73
1070
     1
1070
    44
1040
1.0
1070
    74
1070
     0
1000
MTEXTEND
  0
MTEXT
  5
5661
330
1A
100
AcDbEntity
  8
0
100
AcDbMText
 10
58477.14924173012
 20
44461.54188809812
 30
0.0
 40
8.0
 41
0.0
 71
     7
 72
     5
  1

1001
ACAD
1000
MTEXTBEGIN
1070
    73
1070
     1
1070
    44
1040
1.0
1070
    74
1070
     0
1000
MTEXTEND
  0
MTEXT
  5
5662
330
1A
100
AcDbEntity
  8
SUNPOU
100
AcDbMText
 10
61143.04626241227
 20
53973.65328047324
 30
0.0
 40
10.5
 41
0.0
 71
     1
 72
     5
  1

1001
ACAD
1000
MTEXTBEGIN
1070
    73
1070
     1
1070
    44
1040
1.0
1070
    74
1070
     0
1000
MTEXTEND
  0
MTEXT
  5
5663
330
1A
100
AcDbEntity
  8
SUNPOU
100
AcDbMText
 10
53212.12306647633
 20
53026.86014656028
 30
0.0
 40
10.5
 41
0.0
 71
     7
 72
     5
  1

1001
ACAD
1000
MTEXTBEGIN
1070
    73
1070
     1
1070
    44
1040
1.0
1070
    74
1070
     0
1000
MTEXTEND
  0
MTEXT
  5
5664
330
1A
100
AcDbEntity
  8
SUNPOU
100
AcDbMText
 10
56161.10673098909
 20
57927.53621840312
 30
0.0
 40
10.5
 41
0.0
 71
     7
 72
     5
  1

1001
ACAD
1000
MTEXTBEGIN
1070
    73
1070
     1
1070
    44
1040
1.0
1070
    74
1070
     0
1000
MTEXTEND
  0
MTEXT
  5
5665
330
1A
100
AcDbEntity
  8
SUNPOU
100
AcDbMText
 10
60670.18485893966
 20
60363.8369660232
 30
0.0
 40
10.5
 41
0.0
 71
     7
 72
     5
  1

1001
ACAD
1000
MTEXTBEGIN
1070
    73
1070
     1
1070
    44
1040
1.0
1070
    74
1070
     0
1000
MTEXTEND
  0
MTEXT
  5
5666
330
1A
100
AcDbEntity
  8
SUNPOU
100
AcDbMText
 10
44271.02274570799
 20
39361.43311641211
 30
0.0
 40
10.5
 41
0.0
 71
     7
 72
     5
  1

1001
ACAD
1000
MTEXTBEGIN
1070
    73
1070
     1
1070
    44
1040
1.0
1070
    74
1070
     0
1000
MTEXTEND
  0
MTEXT
  5
5667
330
1A
100
AcDbEntity
  8
SUNPOU
100
AcDbMText
 10
95462.54117960824
 20
85034.41368006038
 30
0.0
 40
10.5
 41
0.0
 71
     9
 72
     5
  1

1001
ACAD
1000
MTEXTBEGIN
1070
    73
1070
     1
1070
    44
1040
1.0
1070
    74
1070
     0
1000
MTEXTEND
  0
MTEXT
  5
5668
330
1A
100
AcDbEntity
  8
SUNPOU
100
AcDbMText
 10
104184.7087455262
 20
92450.24821159784
 30
0.0
 40
10.5
 41
0.0
 71
     9
 72
     5
  1

1001
ACAD
1000
MTEXTBEGIN
1070
    73
1070
     1
1070
    44
1040
1.0
1070
    74
1070
     0
1000
MTEXTEND
  0
MTEXT
  5
5669
330
1A
100
AcDbEntity
  8
SUNPOU
100
AcDbMText
 10
123138.4674628562
 20
109916.8242640898
 30
0.0
 40
10.5
 41
0.0
 71
     9
 72
     5
  1

1001
ACAD
1000
MTEXTBEGIN
1070
    73
1070
     1
1070
    44
1040
1.0
1070
    74
1070
     0
1000
MTEXTEND
  0
MTEXT
  5
566A
330
1A
100
AcDbEntity
  8
SUNPOU
100
AcDbMText
 10
125081.8747095656
 20
108115.7751842118
 30
0.0
 40
3.5
 41
0.0
 71
     9
 72
     5
  1

1001
ACAD
1000
MTEXTBEGIN
1070
    73
1070
     1
1070
    44
1040
1.0
1070
    74
1070
     0
1000
MTEXTEND
  0
MTEXT
  5
566B
330
1A
100
AcDbEntity
  8
SUNPOU
100
AcDbMText
 10
156208.0545421853
 20
150610.7208518691
 30
0.0
 40
10.5
 41
0.0
 71
     9
 72
     5
  1

1001
ACAD
1000
MTEXTBEGIN
1070
    73
1070
     1
1070
    44
1040
1.0
1070
    74
1070
     0
1000
MTEXTEND
  0
MTEXT
  5
566C
330
1A
100
AcDbEntity
  8
SUNPOU
100
AcDbMText
 10
158151.4617888947
 20
148809.6717719911
 30
0.0
 40
3.5
 41
0.0
 71
     9
 72
     5
  1

1001
ACAD
1000
MTEXTBEGIN
1070
    73
1070
     1
1070
    44
1040
1.0
1070
    74
1070
     0
1000
MTEXTEND
  0
MTEXT
  5
566D
330
1A
100
AcDbEntity
  8
SUNPOU
100
AcDbMText
 10
106648.3222479809
 20
96443.88600684427
 30
0.0
 40
10.5
 41
0.0
 71
     9
 72
     5
  1

1001
ACAD
1000
MTEXTBEGIN
1070
    73
1070
     1
1070
    44
1040
1.0
1070
    74
1070
     0
1000
MTEXTEND
  0
MTEXT
  5
566E
330
1A
100
AcDbEntity
  8
SUNPOU
100
AcDbMText
 10
92700.3221476049
 20
77271.48686773207
 30
0.0
 40
3.5
 41
0.0
 71
     7
 72
     5
  1

1001
ACAD
1000
MTEXTBEGIN
1070
    73
1070
     1
1070
    44
1040
1.0
1070
    74
1070
     0
1000
MTEXTEND
  0
MTEXT
  5
566F
330
1A
100
AcDbEntity
  8
SUNPOU
100
AcDbMText
 10
73685.49154459807
 20
65033.63559855027
 30
0.0
 40
10.5
 41
0.0
 71
     7
 72
     5
  1

1001
ACAD
1000
MTEXTBEGIN
1070
    73
1070
     1
1070
    44
1040
1.0
1070
    74
1070
     0
1000
MTEXTEND
  0
MTEXT
  5
5670
330
1A
100
AcDbEntity
  8
SUNPOU
100
AcDbMText
 10
61228.26327964995
 20
49188.70402045184
 30
0.0
 40
35.0
 41
0.0
 71
     9
 72
     5
  1

1001
ACAD
1000
MTEXTBEGIN
1070
    73
1070
     1
1070
    44
1040
1.0
1070
    74
1070
     0
1000
MTEXTEND
  0
MTEXT
  5
5671
330
1A
100
AcDbEntity
  8
SUNPOU
100
AcDbMText
 10
60136.74833722491
 20
49797.47943050056
 30
0.0
 40
350.0000004171781
 41
0.0
 71
     7
 72
     5
  1

1001
ACAD
1000
MTEXTBEGIN
1070
    73
1070
     1
1070
    44
1040
1.0
1070
    74
1070
     0
1000
MTEXTEND
  0
MTEXT
  5
5672
330
1A
100
AcDbEntity
  8
0
100
AcDbMText
 10
66180.69909516782
 20
47777.40179263677
 30
0.0
 40
8.0
 41
0.0
 71
     7
 72
     5
  1

1001
ACAD
1000
MTEXTBEGIN
1070
    73
1070
     1
1070
    44
1040
1.0
1070
    74
1070
     0
1000
MTEXTEND
  0
MTEXT
  5
5673
330
1A
100
AcDbEntity
  8
0
100
AcDbMText
 10
68466.05678506271
 20
48748.19208738784
 30
0.0
 40
8.0
 41
0.0
 71
     7
 72
     5
  1

1001
ACAD
1000
MTEXTBEGIN
1070
    73
1070
     1
1070
    44
1040
1.0
1070
    74
1070
     0
1000
MTEXTEND
  0
MTEXT
  5
5674
330
1A
100
AcDbEntity
  8
SUNPOU
100
AcDbMText
 10
71131.95380574485
 20
58260.30347976296
 30
0.0
 40
10.5
 41
0.0
 71
     1
 72
     5
  1

1001
ACAD
1000
MTEXTBEGIN
1070
    73
1070
     1
1070
    44
1040
1.0
1070
    74
1070
     0
1000
MTEXTEND
  0
MTEXT
  5
5675
330
1A
100
AcDbEntity
  8
SUNPOU
100
AcDbMText
 10
63201.03060980891
 20
57313.51034585003
 30
0.0
 40
10.5
 41
0.0
 71
     7
 72
     5
  1

1001
ACAD
1000
MTEXTBEGIN
1070
    73
1070
     1
1070
    44
1040
1.0
1070
    74
1070
     0
1000
MTEXTEND
  0
MTEXT
  5
5676
330
1A
100
AcDbEntity
  8
SUNPOU
100
AcDbMText
 10
66150.01427432169
 20
62214.18641769286
 30
0.0
 40
10.5
 41
0.0
 71
     7
 72
     5
  1

1001
ACAD
1000
MTEXTBEGIN
1070
    73
1070
     1
1070
    44
1040
1.0
1070
    74
1070
     0
1000
MTEXTEND
  0
MTEXT
  5
5677
330
1A
100
AcDbEntity
  8
SUNPOU
100
AcDbMText
 10
70659.09240227225
 20
64650.48716531294
 30
0.0
 40
10.5
 41
0.0
 71
     7
 72
     5
  1

1001
ACAD
1000
MTEXTBEGIN
1070
    73
1070
     1
1070
    44
1040
1.0
1070
    74
1070
     0
1000
MTEXTEND
  0
MTEXT
  5
5678
330
1A
100
AcDbEntity
  8
SUNPOU
100
AcDbMText
 10
54259.93028904056
 20
43648.08331570185
 30
0.0
 40
10.5
 41
0.0
 71
     7
 72
     5
  1

1001
ACAD
1000
MTEXTBEGIN
1070
    73
1070
     1
1070
    44
1040
1.0
1070
    74
1070
     0
1000
MTEXTEND
  0
MTEXT
  5
5679
330
1A
100
AcDbEntity
  8
SUNPOU
100
AcDbMText
 10
56070.69320041551
 20
49975.4973031804
 30
0.0
 40
10.5
 41
0.0
 71
     9
 72
     5
  1

1001
ACAD
1000
MTEXTBEGIN
1070
    73
1070
     1
1070
    44
1040
1.0
1070
    74
1070
     0
1000
MTEXTEND
  0
MTEXT
  5
567A
330
1A
100
AcDbEntity
  8
SUNPOU
100
AcDbMText
 10
64792.86076633347
 20
57391.33183471787
 30
0.0
 40
10.5
 41
0.0
 71
     9
 72
     5
  1

1001
ACAD
1000
MTEXTBEGIN
1070
    73
1070
     1
1070
    44
1040
1.0
1070
    74
1070
     0
1000
MTEXTEND
  0
MTEXT
  5
567B
330
1A
100
AcDbEntity
  8
SUNPOU
100
AcDbMText
 10
83746.61948366345
 20
74857.90788720994
 30
0.0
 40
10.5
 41
0.0
 71
     9
 72
     5
  1

1001
ACAD
1000
MTEXTBEGIN
1070
    73
1070
     1
1070
    44
1040
1.0
1070
    74
1070
     0
1000
MTEXTEND
  0
MTEXT
  5
567C
330
1A
100
AcDbEntity
  8
SUNPOU
100
AcDbMText
 10
85690.02673037287
 20
73056.85880733192
 30
0.0
 40
3.5
 41
0.0
 71
     9
 72
     5
  1

1001
ACAD
1000
MTEXTBEGIN
1070
    73
1070
     1
1070
    44
1040
1.0
1070
    74
1070
     0
1000
MTEXTEND
  0
MTEXT
  5
567D
330
1A
100
AcDbEntity
  8
SUNPOU
100
AcDbMText
 10
116816.2065629925
 20
115551.8044749892
 30
0.0
 40
10.5
 41
0.0
 71
     9
 72
     5
  1

1001
ACAD
1000
MTEXTBEGIN
1070
    73
1070
     1
1070
    44
1040
1.0
1070
    74
1070
     0
1000
MTEXTEND
  0
MTEXT
  5
567E
330
1A
100
AcDbEntity
  8
SUNPOU
100
AcDbMText
 10
118759.6138097019
 20
113750.7553951111
 30
0.0
 40
3.5
 41
0.0
 71
     9
 72
     5
  1

1001
ACAD
1000
MTEXTBEGIN
1070
    73
1070
     1
1070
    44
1040
1.0
1070
    74
1070
     0
1000
MTEXTEND
  0
MTEXT
  5
567F
330
1A
100
AcDbEntity
  8
SUNPOU
100
AcDbMText
 10
67256.47426878814
 20
61384.96962996432
 30
0.0
 40
10.5
 41
0.0
 71
     9
 72
     5
  1

1001
ACAD
1000
MTEXTBEGIN
1070
    73
1070
     1
1070
    44
1040
1.0
1070
    74
1070
     0
1000
MTEXTEND
  0
MTEXT
  5
5680
330
1A
100
AcDbEntity
  8
SUNPOU
100
AcDbMText
 10
53308.47416841216
 20
42212.57049085211
 30
0.0
 40
3.5
 41
0.0
 71
     7
 72
     5
  1

1001
ACAD
1000
MTEXTBEGIN
1070
    73
1070
     1
1070
    44
1040
1.0
1070
    74
1070
     0
1000
MTEXTEND
  0
MTEXT
  5
5681
330
1A
100
AcDbEntity
  8
SUNPOU
100
AcDbMText
 10
67000.82485118274
 20
51571.63371187344
 30
0.0
 40
10.5
 41
0.0
 71
     9
 72
     5
  1

1001
ACAD
1000
MTEXTBEGIN
1070
    73
1070
     1
1070
    44
1040
1.0
1070
    74
1070
     0
1000
MTEXTEND
  0
MTEXT
  5
5682
330
1A
100
AcDbEntity
  8
SUNPOU
100
AcDbMText
 10
75722.99241710071
 20
58987.46824341094
 30
0.0
 40
10.5
 41
0.0
 71
     9
 72
     5
  1

1001
ACAD
1000
MTEXTBEGIN
1070
    73
1070
     1
1070
    44
1040
1.0
1070
    74
1070
     0
1000
MTEXTEND
  0
MTEXT
  5
5683
330
1A
100
AcDbEntity
  8
SUNPOU
100
AcDbMText
 10
94676.75113443068
 20
76454.04429590299
 30
0.0
 40
10.5
 41
0.0
 71
     9
 72
     5
  1

1001
ACAD
1000
MTEXTBEGIN
1070
    73
1070
     1
1070
    44
1040
1.0
1070
    74
1070
     0
1000
MTEXTEND
  0
MTEXT
  5
5684
330
1A
100
AcDbEntity
  8
SUNPOU
100
AcDbMText
 10
96620.1583811401
 20
74652.99521602497
 30
0.0
 40
3.5
 41
0.0
 71
     9
 72
     5
  1

1001
ACAD
1000
MTEXTBEGIN
1070
    73
1070
     1
1070
    44
1040
1.0
1070
    74
1070
     0
1000
MTEXTEND
  0
MTEXT
  5
5685
330
1A
100
AcDbEntity
  8
SUNPOU
100
AcDbMText
 10
127746.3382137598
 20
117147.9408836822
 30
0.0
 40
10.5
 41
0.0
 71
     9
 72
     5
  1

1001
ACAD
1000
MTEXTBEGIN
1070
    73
1070
     1
1070
    44
1040
1.0
1070
    74
1070
     0
1000
MTEXTEND
  0
MTEXT
  5
5686
330
1A
100
AcDbEntity
  8
SUNPOU
100
AcDbMText
 10
129689.7454604692
 20
115346.8918038042
 30
0.0
 40
3.5
 41
0.0
 71
     9
 72
     5
  1

1001
ACAD
1000
MTEXTBEGIN
1070
    73
1070
     1
1070
    44
1040
1.0
1070
    74
1070
     0
1000
MTEXTEND
  0
MTEXT
  5
5687
330
1A
100
AcDbEntity
  8
SUNPOU
100
AcDbMText
 10
78186.60591955537
 20
62981.10603865737
 30
0.0
 40
10.5
 41
0.0
 71
     9
 72
     5
  1

1001
ACAD
1000
MTEXTBEGIN
1070
    73
1070
     1
1070
    44
1040
1.0
1070
    74
1070
     0
1000
MTEXTEND
  0
MTEXT
  5
5688
330
1A
100
AcDbEntity
  8
SUNPOU
100
AcDbMText
 10
64238.60581917939
 20
43808.70689954517
 30
0.0
 40
3.5
 41
0.0
 71
     7
 72
     5
  1

1001
ACAD
1000
MTEXTBEGIN
1070
    73
1070
     1
1070
    44
1040
1.0
1070
    74
1070
     0
1000
MTEXTEND
  0
MTEXT
  5
5689
330
1A
100
AcDbEntity
  8
SUNPOU
100
AcDbMText
 10
33428.13481137435
 20
32770.04710035563
 30
0.0
 40
10.5
 41
0.0
 71
     9
 72
     5
  1

1001
ACAD
1000
MTEXTBEGIN
1070
    73
1070
     1
1070
    44
1040
1.0
1070
    74
1070
     0
1000
MTEXTEND
  0
MTEXT
  5
568A
330
1A
100
AcDbEntity
  8
SUNPOU
100
AcDbMText
 10
52381.89352870431
 20
50236.62315284768
 30
0.0
 40
10.5
 41
0.0
 71
     9
 72
     5
  1

1001
ACAD
1000
MTEXTBEGIN
1070
    73
1070
     1
1070
    44
1040
1.0
1070
    74
1070
     0
1000
MTEXTEND
  0
MTEXT
  5
568B
330
1A
100
AcDbEntity
  8
SUNPOU
100
AcDbMText
 10
54325.30077541374
 20
48435.57407296968
 30
0.0
 40
3.5
 41
0.0
 71
     9
 72
     5
  1

1001
ACAD
1000
MTEXTBEGIN
1070
    73
1070
     1
1070
    44
1040
1.0
1070
    74
1070
     0
1000
MTEXTEND
  0
MTEXT
  5
568C
330
1A
100
AcDbEntity
  8
SUNPOU
100
AcDbMText
 10
85451.48060803342
 20
90930.51974062703
 30
0.0
 40
10.5
 41
0.0
 71
     9
 72
     5
  1

1001
ACAD
1000
MTEXTBEGIN
1070
    73
1070
     1
1070
    44
1040
1.0
1070
    74
1070
     0
1000
MTEXTEND
  0
MTEXT
  5
568D
330
1A
100
AcDbEntity
  8
SUNPOU
100
AcDbMText
 10
87394.88785474286
 20
89129.47066074901
 30
0.0
 40
3.5
 41
0.0
 71
     9
 72
     5
  1

1001
ACAD
1000
MTEXTBEGIN
1070
    73
1070
     1
1070
    44
1040
1.0
1070
    74
1070
     0
1000
MTEXTEND
  0
MTEXT
  5
568E
330
1A
100
AcDbEntity
  8
SUNPOU
100
AcDbMText
 10
35891.74831382901
 20
36763.68489560208
 30
0.0
 40
10.5
 41
0.0
 71
     9
 72
     5
  1

1001
ACAD
1000
MTEXTBEGIN
1070
    73
1070
     1
1070
    44
1040
1.0
1070
    74
1070
     0
1000
MTEXTEND
  0
MTEXT
  5
568F
330
1A
100
AcDbEntity
  8
SUNPOU
100
AcDbMText
 10
21943.74821345303
 20
17591.28575648985
 30
0.0
 40
3.5
 41
0.0
 71
     7
 72
     5
  1

1001
ACAD
1000
MTEXTBEGIN
1070
    73
1070
     1
1070
    44
1040
1.0
1070
    74
1070
     0
1000
MTEXTEND
  0
MTEXT
  5
11D07
330
1A
100
AcDbEntity
  8
ZISSEN1
100
AcDbMText
 10
-1730.467751354209
 20
1918.924978205261
 30
0.0
 40
5.0
 41
100.0
 71
     1
 72
     5
  1
D-5410　　No.SS0001f38
  7
ゴシック体
1001
ACAD
1000
MTEXTBEGIN
1070
    73
1070
     1
1070
    44
1040
1.0
1070
    74
1070
     0
1000
MTEXTEND
  0
LINE
  5
13255
330
1A
100
AcDbEntity
  8
ZISSEN1
100
AcDbLine
 10
-1793.03476359781
 20
1741.147928310549
 30
0.0
 11
-1767.03478359781
 21
1741.147928310549
 31
0.0
  0
LINE
  5
13256
330
1A
100
AcDbEntity
  8
ZISSEN1
100
AcDbLine
 10
-1792.32765359781
 20
1737.647929310549
 30
0.0
 11
-1750.24188359781
 21
1737.647929310549
 31
0.0
  0
LINE
  5
13257
330
1A
100
AcDbEntity
  8
ZISSEN1
100
AcDbLine
 10
-1752.53478359781
 20
1740.647927310549
 30
0.0
 11
-1790.03475359781
 21
1740.647927310549
 31
0.0
  0
LINE
  5
13258
330
1A
100
AcDbEntity
  8
ZISSEN1
100
AcDbLine
 10
-1752.53478359781
 20
1867.647919310549
 30
0.0
 11
-1794.53477359781
 21
1867.647919310549
 31
0.0
  0
LINE
  5
13259
330
1A
100
AcDbEntity
  8
SOUZOUSEN
100
AcDbLine
 10
-1806.94018359781
 20
1742.647927310549
 30
0.0
 11
-1806.94018359781
 21
1851.301299310549
 31
0.0
  0
LINE
  5
1325A
330
1A
100
AcDbEntity
  8
ZISSEN1
100
AcDbLine
 10
-1818.94017359781
 20
1741.147928310549
 30
0.0
 11
-1818.94017359781
 21
1867.647919310549
 31
0.0
  0
LINE
  5
1325B
330
1A
100
AcDbEntity
  8
ZISSEN1
100
AcDbLine
 10
-1948.94017159781
 20
1741.147928310549
 30
0.0
 11
-1948.94017159781
 21
1867.647919310549
 31
0.0
  0
LINE
  5
1325C
330
1A
100
AcDbEntity
  8
ZISSEN1
100
AcDbLine
 10
-1794.53477359781
 20
1772.647927310549
 30
0.0
 11
-1794.53477359781
 21
1867.647929310549
 31
0.0
  0
LINE
  5
1325D
330
1A
100
AcDbEntity
  8
ZISSEN1
100
AcDbLine
 10
-1818.94017359781
 20
1741.147928310549
 30
0.0
 11
-1948.94017159781
 21
1741.147928310549
 31
0.0
  0
LINE
  5
1325E
330
1A
100
AcDbEntity
  8
ZISSEN1
100
AcDbLine
 10
-1809.94017359781
 20
1737.647929310549
 30
0.0
 11
-1957.94016459781
 21
1737.647929310549
 31
0.0
  0
LINE
  5
1325F
330
1A
100
AcDbEntity
  8
ZISSEN1
100
AcDbLine
 10
-1947.440166597809
 20
1740.647927310549
 30
0.0
 11
-1957.94017659781
 21
1740.647927310549
 31
0.0
  0
LINE
  5
13260
330
1A
100
AcDbEntity
  8
CL1
100
AcDbLine
 10
-1953.94017559781
 20
1744.147926310549
 30
0.0
 11
-1953.94017559781
 21
1734.647932310548
 31
0.0
  0
LINE
  5
13261
330
1A
100
AcDbEntity
  8
ZISSEN1
100
AcDbLine
 10
-1957.94017659781
 20
1740.647927310549
 30
0.0
 11
-1957.94017659781
 21
1737.647929310549
 31
0.0
  0
LINE
  5
13262
330
1A
100
AcDbEntity
  8
ZISSEN1
100
AcDbLine
 10
-1956.525965597809
 20
1740.647927310549
 30
0.0
 11
-1956.525965597809
 21
1737.647929310549
 31
0.0
  0
LINE
  5
13263
330
1A
100
AcDbEntity
  8
ZISSEN1
100
AcDbLine
 10
-1947.44017359781
 20
1741.147928310549
 30
0.0
 11
-1947.44017359781
 21
1740.647927310549
 31
0.0
  0
CIRCLE
  5
13264
330
1A
100
AcDbEntity
  8
ZISSEN1
100
AcDbCircle
 10
-1908.94016359781
 20
1768.647944310549
 30
0.0
 40
3.0
  0
LINE
  5
13265
330
1A
100
AcDbEntity
  8
ZISSEN1
100
AcDbLine
 10
-1794.53477359781
 20
1772.647927310549
 30
0.0
 11
-1794.53477359781
 21
1741.147928310549
 31
0.0
  0
LINE
  5
13266
330
1A
100
AcDbEntity
  8
ZISSEN1
100
AcDbLine
 10
-1806.94018359781
 20
1742.647927310549
 30
0.0
 11
-1818.94017359781
 21
1742.647927310549
 31
0.0
  0
LINE
  5
13267
330
1A
100
AcDbEntity
  8
ZISSEN1
100
AcDbLine
 10
-1809.94017359781
 20
1740.647927310549
 30
0.0
 11
-1820.44017359781
 21
1740.647927310549
 31
0.0
  0
LINE
  5
13268
330
1A
100
AcDbEntity
  8
ZISSEN1
100
AcDbLine
 10
-1820.44017359781
 20
1741.147928310549
 30
0.0
 11
-1820.44017359781
 21
1740.647927310549
 31
0.0
  0
LINE
  5
13269
330
1A
100
AcDbEntity
  8
CL1
100
AcDbLine
 10
-1813.94017359781
 20
1744.147926310549
 30
0.0
 11
-1813.94017359781
 21
1734.647932310548
 31
0.0
  0
LINE
  5
1326A
330
1A
100
AcDbEntity
  8
ZISSEN1
100
AcDbLine
 10
-1811.35439359781
 20
1740.647914310549
 30
0.0
 11
-1811.35439359781
 21
1737.647917310548
 31
0.0
  0
LINE
  5
1326B
330
1A
100
AcDbEntity
  8
ZISSEN1
100
AcDbLine
 10
-1809.94017359781
 20
1737.647929310549
 30
0.0
 11
-1809.94017359781
 21
1740.647927310549
 31
0.0
  0
LINE
  5
1326C
330
1A
100
AcDbEntity
  8
ZISSEN1
100
AcDbLine
 10
-1794.53477359781
 20
1741.147928310549
 30
0.0
 11
-1793.03476359781
 21
1741.147928310549
 31
0.0
  0
LINE
  5
1326D
330
1A
100
AcDbEntity
  8
ZISSEN1
100
AcDbLine
 10
-1790.03475359781
 20
1740.647927310549
 30
0.0
 11
-1790.03475359781
 21
1741.147928310549
 31
0.0
  0
LINE
  5
1326E
330
1A
100
AcDbEntity
  8
ZISSEN1
100
AcDbLine
 10
-1793.03476359781
 20
1740.647927310549
 30
0.0
 11
-1793.03476359781
 21
1741.147928310549
 31
0.0
  0
LINE
  5
1326F
330
1A
100
AcDbEntity
  8
ZISSEN1
100
AcDbLine
 10
-1790.03475359781
 20
1740.647927310549
 30
0.0
 11
-1790.03475359781
 21
1737.647929310549
 31
0.0
  0
LINE
  5
13270
330
1A
100
AcDbEntity
  8
ZISSEN1
100
AcDbLine
 10
-1792.32765359781
 20
1737.647929310549
 30
0.0
 11
-1793.03476359781
 21
1738.355038310549
 31
0.0
  0
LINE
  5
13271
330
1A
100
AcDbEntity
  8
ZISSEN1
100
AcDbLine
 10
-1793.03476359781
 20
1738.355038310549
 30
0.0
 11
-1793.03476359781
 21
1740.647927310549
 31
0.0
  0
LINE
  5
13272
330
1A
100
AcDbEntity
  8
CL1
100
AcDbLine
 10
-1780.03477359781
 20
1743.647924310548
 30
0.0
 11
-1780.03477359781
 21
1734.647932310548
 31
0.0
  0
LINE
  5
13273
330
1A
100
AcDbEntity
  8
ZISSEN1
100
AcDbLine
 10
-1782.28476359781
 20
1740.647927310549
 30
0.0
 11
-1782.28476359781
 21
1737.647929310549
 31
0.0
  0
LINE
  5
13274
330
1A
100
AcDbEntity
  8
ZISSEN1
100
AcDbLine
 10
-1777.78477359781
 20
1740.647927310549
 30
0.0
 11
-1777.78477359781
 21
1737.647929310549
 31
0.0
  0
CIRCLE
  5
13275
330
1A
100
AcDbEntity
  8
ZISSEN1
100
AcDbCircle
 10
-1860.94017359781
 20
1768.647944310549
 30
0.0
 40
3.0
  0
ARC
  5
13276
330
1A
100
AcDbEntity
  8
ZISSEN1
100
AcDbCircle
 10
-1795.53477359781
 20
1769.647948310548
 30
0.0
 40
2.0
100
AcDbArc
 50
90.0
 51
180.0
  0
LINE
  5
13278
330
1A
100
AcDbEntity
  8
ZISSEN1
100
AcDbLine
 10
-1794.53477359781
 20
1771.647954310549
 30
0.0
 11
-1794.53477359781
 21
1765.647959310549
 31
0.0
  0
ARC
  5
13279
330
1A
100
AcDbEntity
  8
ZISSEN1
100
AcDbCircle
 10
-1795.53477359781
 20
1767.647941310547
 30
0.0
 40
2.0
100
AcDbArc
 50
180.0
 51
270.0
  0
LINE
  5
1327A
330
1A
100
AcDbEntity
  8
ZISSEN1
100
AcDbLine
 10
-1795.53477359781
 20
1765.647959310549
 30
0.0
 11
-1794.53477359781
 21
1765.647959310549
 31
0.0
  0
LINE
  5
1327B
330
1A
100
AcDbEntity
  8
ZISSEN1
100
AcDbLine
 10
-1797.53478359781
 20
1767.647941310547
 30
0.0
 11
-1797.53478359781
 21
1769.647948310548
 31
0.0
  0
LINE
  5
1327C
330
1A
100
AcDbEntity
  8
ZISSEN1
100
AcDbLine
 10
-1795.53477359781
 20
1771.647954310549
 30
0.0
 11
-1794.53477359781
 21
1771.647954310549
 31
0.0
  0
LINE
  5
1327D
330
1A
100
AcDbEntity
  8
ZISSEN1
100
AcDbLine
 10
-1948.94018459781
 20
1933.134399310548
 30
0.0
 11
-1818.94017359781
 21
1933.134399310548
 31
0.0
  0
LINE
  5
1327E
330
1A
100
AcDbEntity
  8
ZISSEN1
100
AcDbLine
 10
-1948.94018459781
 20
1936.134409310548
 30
0.0
 11
-1818.94017359781
 21
1936.134409310548
 31
0.0
  0
LINE
  5
1327F
330
1A
100
AcDbEntity
  8
ZISSEN1
100
AcDbLine
 10
-1948.94018459781
 20
1891.134399310549
 30
0.0
 11
-1818.94017359781
 21
1891.134399310549
 31
0.0
  0
LINE
  5
13280
330
1A
100
AcDbEntity
  8
ZISSEN1
100
AcDbLine
 10
-1818.94017359781
 20
1867.647919310549
 30
0.0
 11
-1948.94018459781
 21
1867.647919310549
 31
0.0
  0
LINE
  5
13281
330
1A
100
AcDbEntity
  8
ZISSEN1
100
AcDbLine
 10
-1956.525965597809
 20
1933.134399310548
 30
0.0
 11
-1957.94017659781
 21
1931.720189310549
 31
0.0
  0
LINE
  5
13282
330
1A
100
AcDbEntity
  8
CL1
100
AcDbLine
 10
-1936.94019459781
 20
1939.134419310549
 30
0.0
 11
-1936.94019459781
 21
1930.134389310548
 31
0.0
  0
LINE
  5
13283
330
1A
100
AcDbEntity
  8
ZISSEN1
100
AcDbLine
 10
-1947.44017959781
 20
1892.634409310548
 30
0.0
 11
-1947.44017959781
 21
1933.134399310548
 31
0.0
  0
LINE
  5
13284
330
1A
100
AcDbEntity
  8
ZISSEN1
100
AcDbLine
 10
-1948.94018459781
 20
1891.134399310549
 30
0.0
 11
-1948.94018459781
 21
1936.134409310548
 31
0.0
  0
LINE
  5
13285
330
1A
100
AcDbEntity
  8
ZISSEN1
100
AcDbLine
 10
-1957.94017659781
 20
1907.884409310548
 30
0.0
 11
-1957.94017659781
 21
1919.384419310548
 31
0.0
  0
LINE
  5
13286
330
1A
100
AcDbEntity
  8
ZISSEN1
100
AcDbLine
 10
-1956.525965597809
 20
1894.134409310549
 30
0.0
 11
-1948.94018459781
 21
1894.134409310549
 31
0.0
  0
LINE
  5
13287
330
1A
100
AcDbEntity
  8
ZISSEN1
100
AcDbLine
 10
-1957.94017659781
 20
1895.548629310549
 30
0.0
 11
-1957.94017659781
 21
1903.384419310548
 31
0.0
  0
LINE
  5
13288
330
1A
100
AcDbEntity
  8
ZISSEN1
100
AcDbLine
 10
-1956.525965597809
 20
1894.134409310549
 30
0.0
 11
-1957.94017659781
 21
1895.548629310549
 31
0.0
  0
LINE
  5
13289
330
1A
100
AcDbEntity
  8
CL1
100
AcDbLine
 10
-1950.940178597809
 20
1905.634389310549
 30
0.0
 11
-1957.94017659781
 21
1905.634389310549
 31
0.0
  0
LINE
  5
1328A
330
1A
100
AcDbEntity
  8
ZISSEN1
100
AcDbLine
 10
-1952.94017259781
 20
1907.884409310548
 30
0.0
 11
-1957.94017659781
 21
1907.884409310548
 31
0.0
  0
LINE
  5
1328B
330
1A
100
AcDbEntity
  8
ZISSEN1
100
AcDbLine
 10
-1952.94017259781
 20
1903.384419310548
 30
0.0
 11
-1957.94017659781
 21
1903.384419310548
 31
0.0
  0
LINE
  5
1328C
330
1A
100
AcDbEntity
  8
CL1
100
AcDbLine
 10
-1953.94017559781
 20
1902.634379310549
 30
0.0
 11
-1953.94017559781
 21
1908.634399310548
 31
0.0
  0
ARC
  5
1328D
330
1A
100
AcDbEntity
  8
ZISSEN1
100
AcDbCircle
 10
-1952.94017259781
 20
1905.634439310549
 30
0.0
 40
2.25
100
AcDbArc
 50
270.0
 51
90.0
  0
ARC
  5
1328E
330
1A
100
AcDbEntity
  8
ZISSEN1
100
AcDbCircle
 10
-1952.94017259781
 20
1921.634439310549
 30
0.0
 40
2.25
100
AcDbArc
 50
270.0
 51
90.0
  0
LINE
  5
1328F
330
1A
100
AcDbEntity
  8
CL1
100
AcDbLine
 10
-1953.94017559781
 20
1918.634379310549
 30
0.0
 11
-1953.94017559781
 21
1924.634399310548
 31
0.0
  0
LINE
  5
13290
330
1A
100
AcDbEntity
  8
ZISSEN1
100
AcDbLine
 10
-1952.94017259781
 20
1919.384419310548
 30
0.0
 11
-1957.94017659781
 21
1919.384419310548
 31
0.0
  0
LINE
  5
13291
330
1A
100
AcDbEntity
  8
ZISSEN1
100
AcDbLine
 10
-1952.94017259781
 20
1923.884409310548
 30
0.0
 11
-1957.94017659781
 21
1923.884409310548
 31
0.0
  0
LINE
  5
13292
330
1A
100
AcDbEntity
  8
ZISSEN1
100
AcDbLine
 10
-1957.94017659781
 20
1931.720189310549
 30
0.0
 11
-1957.94017659781
 21
1923.884409310548
 31
0.0
  0
LINE
  5
13293
330
1A
100
AcDbEntity
  8
CL1
100
AcDbLine
 10
-1950.940178597809
 20
1921.634389310549
 30
0.0
 11
-1956.94017359781
 21
1921.634389310549
 31
0.0
  0
LINE
  5
13294
330
1A
100
AcDbEntity
  8
ZISSEN1
100
AcDbLine
 10
-1907.94016059781
 20
1888.134389310548
 30
0.0
 11
-1909.94016759781
 21
1888.134389310548
 31
0.0
  0
LINE
  5
13295
330
1A
100
AcDbEntity
  8
ZISSEN1
100
AcDbLine
 10
-1911.94017359781
 20
1891.134399310549
 30
0.0
 11
-1905.940178597809
 21
1891.134399310549
 31
0.0
  0
ARC
  5
13296
330
1A
100
AcDbEntity
  8
ZISSEN1
100
AcDbCircle
 10
-1909.94016759781
 20
1890.134399310548
 30
0.0
 40
2.0
100
AcDbArc
 50
180.0
 51
270.0
  0
LINE
  5
13297
330
1A
100
AcDbEntity
  8
ZISSEN1
100
AcDbLine
 10
-1911.94017359781
 20
1890.134399310548
 30
0.0
 11
-1911.94017359781
 21
1891.134399310549
 31
0.0
  0
ARC
  5
13298
330
1A
100
AcDbEntity
  8
ZISSEN1
100
AcDbCircle
 10
-1907.94016059781
 20
1890.134399310548
 30
0.0
 40
2.0
100
AcDbArc
 50
270.0
 51
0.0
  0
LINE
  5
13299
330
1A
100
AcDbEntity
  8
ZISSEN1
100
AcDbLine
 10
-1905.940178597809
 20
1890.134399310548
 30
0.0
 11
-1905.940178597809
 21
1891.134399310549
 31
0.0
  0
LINE
  5
1329A
330
1A
100
AcDbEntity
  8
ZISSEN1
100
AcDbLine
 10
-1956.525965597809
 20
1933.134399310548
 30
0.0
 11
-1948.94018459781
 21
1933.134399310548
 31
0.0
  0
LINE
  5
1329B
330
1A
100
AcDbEntity
  8
ZISSEN1
100
AcDbLine
 10
-1806.94018359781
 20
1918.634379310549
 30
0.0
 11
-1806.94018359781
 21
1933.134399310548
 31
0.0
  0
LINE
  5
1329C
330
1A
100
AcDbEntity
  8
CL1
100
AcDbLine
 10
-1836.94016359781
 20
1939.134419310549
 30
0.0
 11
-1836.94016359781
 21
1930.134389310548
 31
0.0
  0
LINE
  5
1329D
330
1A
100
AcDbEntity
  8
ZISSEN1
100
AcDbLine
 10
-1820.44017359781
 20
1892.634409310548
 30
0.0
 11
-1820.44017359781
 21
1933.134399310548
 31
0.0
  0
ARC
  5
1329E
330
1A
100
AcDbEntity
  8
ZISSEN1
100
AcDbCircle
 10
-1859.94016359781
 20
1890.134399310548
 30
0.0
 40
2.0
100
AcDbArc
 50
270.0
 51
0.0
  0
LINE
  5
1329F
330
1A
100
AcDbEntity
  8
ZISSEN1
100
AcDbLine
 10
-1863.94018359781
 20
1891.134399310549
 30
0.0
 11
-1857.940183597809
 21
1891.134399310549
 31
0.0
  0
ARC
  5
132A0
330
1A
100
AcDbEntity
  8
ZISSEN1
100
AcDbCircle
 10
-1861.94017359781
 20
1890.134399310548
 30
0.0
 40
2.0
100
AcDbArc
 50
180.0
 51
270.0
  0
LINE
  5
132A1
330
1A
100
AcDbEntity
  8
ZISSEN1
100
AcDbLine
 10
-1863.94018359781
 20
1890.134399310548
 30
0.0
 11
-1863.94018359781
 21
1891.134399310549
 31
0.0
  0
LINE
  5
132A2
330
1A
100
AcDbEntity
  8
ZISSEN1
100
AcDbLine
 10
-1859.94016359781
 20
1888.134389310548
 30
0.0
 11
-1861.94017359781
 21
1888.134389310548
 31
0.0
  0
LINE
  5
132A3
330
1A
100
AcDbEntity
  8
ZISSEN1
100
AcDbLine
 10
-1857.940183597809
 20
1890.134399310548
 30
0.0
 11
-1857.940183597809
 21
1891.134399310549
 31
0.0
  0
LINE
  5
132A4
330
1A
100
AcDbEntity
  8
SOUZOUSEN
100
AcDbLine
 10
-1806.94018359781
 20
1857.301299310549
 30
0.0
 11
-1806.94018359781
 21
1864.147909310548
 31
0.0
  0
ARC
  5
132A5
330
1A
100
AcDbEntity
  8
ZISSEN1
100
AcDbCircle
 10
-1808.94017359781
 20
1853.301289310548
 30
0.0
 40
2.0
100
AcDbArc
 50
270.0
 51
0.0
  0
ARC
  5
132A6
330
1A
100
AcDbEntity
  8
ZISSEN1
100
AcDbCircle
 10
-1808.94017359781
 20
1855.301289310548
 30
0.0
 40
2.0
100
AcDbArc
 50
0.0
 51
90.0
  0
LINE
  5
132A7
330
1A
100
AcDbEntity
  8
ZISSEN1
100
AcDbLine
 10
-1809.94017359781
 20
1857.301299310549
 30
0.0
 11
-1809.94017359781
 21
1851.301279310549
 31
0.0
  0
LINE
  5
132A8
330
1A
100
AcDbEntity
  8
ZISSEN1
100
AcDbLine
 10
-1809.94017359781
 20
1851.301299310549
 30
0.0
 11
-1809.94017359781
 21
1857.301289310548
 31
0.0
  0
LINE
  5
132A9
330
1A
100
AcDbEntity
  8
ZISSEN1
100
AcDbLine
 10
-1808.94017359781
 20
1851.301279310549
 30
0.0
 11
-1809.94017359781
 21
1851.301279310549
 31
0.0
  0
LINE
  5
132AA
330
1A
100
AcDbEntity
  8
ZISSEN1
100
AcDbLine
 10
-1806.94016359781
 20
1853.301289310548
 30
0.0
 11
-1806.94016359781
 21
1855.301289310548
 31
0.0
  0
LINE
  5
132AB
330
1A
100
AcDbEntity
  8
ZISSEN1
100
AcDbLine
 10
-1809.94017359781
 20
1851.301289310549
 30
0.0
 11
-1806.94018359781
 21
1851.301289310549
 31
0.0
  0
LINE
  5
132AC
330
1A
100
AcDbEntity
  8
ZISSEN1
100
AcDbLine
 10
-1808.94017359781
 20
1857.301299310549
 30
0.0
 11
-1809.94017359781
 21
1857.301299310549
 31
0.0
  0
LINE
  5
132AD
330
1A
100
AcDbEntity
  8
ZISSEN1
100
AcDbLine
 10
-1809.94017359781
 20
1857.301289310548
 30
0.0
 11
-1806.94018359781
 21
1857.301289310548
 31
0.0
  0
LINE
  5
132AE
330
1A
100
AcDbEntity
  8
ZISSEN1
100
AcDbLine
 10
-1806.94018359781
 20
1864.147919310548
 30
0.0
 11
-1818.94017359781
 21
1864.147919310548
 31
0.0
  0
LINE
  5
132AF
330
1A
100
AcDbEntity
  8
ZISSEN1
100
AcDbLine
 10
-1809.94017359781
 20
1907.884409310548
 30
0.0
 11
-1809.94017359781
 21
1918.634379310549
 31
0.0
  0
LINE
  5
132B0
330
1A
100
AcDbEntity
  8
ZISSEN1
100
AcDbLine
 10
-1818.94017359781
 20
1891.134399310549
 30
0.0
 11
-1818.94017359781
 21
1918.634379310549
 31
0.0
  0
LINE
  5
132B1
330
1A
100
AcDbEntity
  8
ZISSEN1
100
AcDbLine
 10
-1811.35439359781
 20
1894.134409310549
 30
0.0
 11
-1818.94017359781
 21
1894.134409310549
 31
0.0
  0
LINE
  5
132B2
330
1A
100
AcDbEntity
  8
ZISSEN1
100
AcDbLine
 10
-1809.94017359781
 20
1895.548629310549
 30
0.0
 11
-1809.94017359781
 21
1903.384419310548
 31
0.0
  0
LINE
  5
132B3
330
1A
100
AcDbEntity
  8
ZISSEN1
100
AcDbLine
 10
-1809.94017359781
 20
1895.548629310549
 30
0.0
 11
-1811.35439359781
 21
1894.134409310549
 31
0.0
  0
LINE
  5
132B4
330
1A
100
AcDbEntity
  8
ZISSEN1
100
AcDbLine
 10
-1814.94018359781
 20
1907.884409310548
 30
0.0
 11
-1809.94017359781
 21
1907.884409310548
 31
0.0
  0
LINE
  5
132B5
330
1A
100
AcDbEntity
  8
ZISSEN1
100
AcDbLine
 10
-1814.94018359781
 20
1903.384419310548
 30
0.0
 11
-1809.94017359781
 21
1903.384419310548
 31
0.0
  0
LINE
  5
132B6
330
1A
100
AcDbEntity
  8
CL1
100
AcDbLine
 10
-1813.94017359781
 20
1902.634379310549
 30
0.0
 11
-1813.94017359781
 21
1908.634399310548
 31
0.0
  0
LINE
  5
132B7
330
1A
100
AcDbEntity
  8
CL1
100
AcDbLine
 10
-1816.94017359781
 20
1905.634389310549
 30
0.0
 11
-1810.94018359781
 21
1905.634389310549
 31
0.0
  0
ARC
  5
132B8
330
1A
100
AcDbEntity
  8
ZISSEN1
100
AcDbCircle
 10
-1814.94018359781
 20
1905.634389310549
 30
0.0
 40
2.25
100
AcDbArc
 50
90.0
 51
270.0
  0
LINE
  5
132B9
330
1A
100
AcDbEntity
  8
ZISSEN1
100
AcDbLine
 10
-1818.94017359781
 20
1918.634379310549
 30
0.0
 11
-1806.94018359781
 21
1918.634379310549
 31
0.0
  0
LINE
  5
132BA
330
1A
100
AcDbEntity
  8
ZISSEN1
100
AcDbLine
 10
-1820.44016359781
 20
1918.634379310549
 30
0.0
 11
-1818.94017359781
 21
1918.634379310549
 31
0.0
  0
LINE
  5
132BB
330
1A
100
AcDbEntity
  8
ZISSEN1
100
AcDbLine
 10
-1820.44017359781
 20
1933.134399310548
 30
0.0
 11
-1806.94018359781
 21
1933.134399310548
 31
0.0
  0
LINE
  5
132BC
330
1A
100
AcDbEntity
  8
ZISSEN1
100
AcDbLine
 10
-1811.35439359781
 20
1933.134399310548
 30
0.0
 11
-1818.94017359781
 21
1933.134399310548
 31
0.0
  0
LINE
  5
132BD
330
1A
100
AcDbEntity
  8
ZISSEN1
100
AcDbLine
 10
-1818.94017359781
 20
1933.134399310548
 30
0.0
 11
-1818.94017359781
 21
1936.134409310548
 31
0.0
  0
LINE
  5
132BE
330
1A
100
AcDbEntity
  8
SOUZOUSEN
100
AcDbLine
 10
-1743.815020251095
 20
1742.647927310549
 30
0.0
 11
-1743.815020251095
 21
1864.147919310548
 31
0.0
  0
LINE
  5
132BF
330
1A
100
AcDbEntity
  8
ZISSEN1
100
AcDbLine
 10
-1731.815030251095
 20
1741.147928310549
 30
0.0
 11
-1731.815030251095
 21
1867.647919310549
 31
0.0
  0
LINE
  5
132C0
330
1A
100
AcDbEntity
  8
ZISSEN1
100
AcDbLine
 10
-1601.815000251095
 20
1741.147928310549
 30
0.0
 11
-1601.815000251095
 21
1867.647919310549
 31
0.0
  0
LINE
  5
132C1
330
1A
100
AcDbEntity
  8
ZISSEN1
100
AcDbLine
 10
-1767.03478359781
 20
1867.647929310549
 30
0.0
 11
-1767.03478359781
 21
1741.147928310549
 31
0.0
  0
LINE
  5
132C2
330
1A
100
AcDbEntity
  8
ZISSEN1
100
AcDbLine
 10
-1749.53477359781
 20
1738.355038310549
 30
0.0
 11
-1749.53477359781
 21
1867.647919310549
 31
0.0
  0
LINE
  5
132C3
330
1A
100
AcDbEntity
  8
ZISSEN1
100
AcDbLine
 10
-1752.53478359781
 20
1867.647919310549
 30
0.0
 11
-1752.53478359781
 21
1740.647927310549
 31
0.0
  0
LINE
  5
132C4
330
1A
100
AcDbEntity
  8
ZISSEN1
100
AcDbLine
 10
-1740.815010251094
 20
1737.647941310549
 30
0.0
 11
-1592.815020251094
 21
1737.647941310549
 31
0.0
  0
CIRCLE
  5
132C5
330
1A
100
AcDbEntity
  8
SAISEN
100
AcDbCircle
 10
-1713.815020251095
 20
1747.647950310548
 30
0.0
 40
1.5
  0
LINE
  5
132C7
330
1A
100
AcDbEntity
  8
CL1
100
AcDbLine
 10
-1713.815020251095
 20
1744.647940310549
 30
0.0
 11
-1713.815020251095
 21
1750.647959310549
 31
0.0
  0
LINE
  5
132C8
330
1A
100
AcDbEntity
  8
ZISSEN1
100
AcDbLine
 10
-1743.815020251095
 20
1742.647927310549
 30
0.0
 11
-1731.815030251095
 21
1742.647927310549
 31
0.0
  0
LINE
  5
132C9
330
1A
100
AcDbEntity
  8
ZISSEN1
100
AcDbLine
 10
-1752.53478359781
 20
1742.647927310549
 30
0.0
 11
-1767.03478359781
 21
1742.647927310549
 31
0.0
  0
LINE
  5
132CA
330
1A
100
AcDbEntity
  8
ZISSEN1
100
AcDbLine
 10
-1752.53478359781
 20
1740.647927310549
 30
0.0
 11
-1752.53478359781
 21
1737.647929310549
 31
0.0
  0
LINE
  5
132CB
330
1A
100
AcDbEntity
  8
ZISSEN1
100
AcDbLine
 10
-1749.53477359781
 20
1738.355038310549
 30
0.0
 11
-1750.24188359781
 21
1737.647929310549
 31
0.0
  0
LINE
  5
132CC
330
1A
100
AcDbEntity
  8
CL1
100
AcDbLine
 10
-1736.815000251095
 20
1744.147938310548
 30
0.0
 11
-1736.815000251095
 21
1734.647932310548
 31
0.0
  0
LINE
  5
132CD
330
1A
100
AcDbEntity
  8
ZISSEN1
100
AcDbLine
 10
-1740.815010251094
 20
1740.647951310549
 30
0.0
 11
-1731.815030251095
 21
1740.647951310549
 31
0.0
  0
LINE
  5
132CE
330
1A
100
AcDbEntity
  8
ZISSEN1
100
AcDbLine
 10
-1739.400790251095
 20
1740.647976310549
 30
0.0
 11
-1739.400790251095
 21
1737.647941310549
 31
0.0
  0
LINE
  5
132CF
330
1A
100
AcDbEntity
  8
ZISSEN1
100
AcDbLine
 10
-1740.815010251094
 20
1737.647941310549
 30
0.0
 11
-1740.815010251094
 21
1740.647951310549
 31
0.0
  0
LINE
  5
132D0
330
1A
100
AcDbEntity
  8
ZISSEN1
100
AcDbLine
 10
-1731.815030251095
 20
1741.147928310549
 30
0.0
 11
-1731.815030251095
 21
1737.647941310549
 31
0.0
  0
LINE
  5
132D1
330
1A
100
AcDbEntity
  8
ZISSEN1
100
AcDbLine
 10
-1731.815030251095
 20
1741.147928310549
 30
0.0
 11
-1731.815030251095
 21
1740.647951310549
 31
0.0
  0
LINE
  5
132D2
330
1A
100
AcDbEntity
  8
CL1
100
AcDbLine
 10
-1746.53476359781
 20
1747.647950310548
 30
0.0
 11
-1755.53479359781
 21
1747.647950310548
 31
0.0
  0
LINE
  5
132D3
330
1A
100
AcDbEntity
  8
CL1
100
AcDbLine
 10
-1716.815030251094
 20
1747.647950310548
 30
0.0
 11
-1710.815040251095
 21
1747.647950310548
 31
0.0
  0
LINE
  5
132D4
330
1A
100
AcDbEntity
  8
ZISSEN1
100
AcDbLine
 10
-1601.815000251095
 20
1740.647951310549
 30
0.0
 11
-1592.815020251094
 21
1740.647951310549
 31
0.0
  0
LINE
  5
132D5
330
1A
100
AcDbEntity
  8
CL1
100
AcDbLine
 10
-1596.815030251095
 20
1744.147938310548
 30
0.0
 11
-1596.815030251095
 21
1734.647932310548
 31
0.0
  0
LINE
  5
132D6
330
1A
100
AcDbEntity
  8
ZISSEN1
100
AcDbLine
 10
-1601.815000251095
 20
1741.147928310549
 30
0.0
 11
-1601.815000251095
 21
1737.647941310549
 31
0.0
  0
LINE
  5
132D7
330
1A
100
AcDbEntity
  8
ZISSEN1
100
AcDbLine
 10
-1601.815000251095
 20
1741.147928310549
 30
0.0
 11
-1601.815000251095
 21
1740.647951310549
 31
0.0
  0
LINE
  5
132D8
330
1A
100
AcDbEntity
  8
ZISSEN1
100
AcDbLine
 10
-1594.229240251095
 20
1740.647951310549
 30
0.0
 11
-1594.229240251095
 21
1737.647941310549
 31
0.0
  0
LINE
  5
132D9
330
1A
100
AcDbEntity
  8
ZISSEN1
100
AcDbLine
 10
-1592.815020251094
 20
1740.647951310549
 30
0.0
 11
-1592.815020251094
 21
1737.647941310549
 31
0.0
  0
LINE
  5
132DA
330
1A
100
AcDbEntity
  8
ZISSEN1
100
AcDbLine
 10
-1731.815030251095
 20
1867.647919310549
 30
0.0
 11
-1601.815000251095
 21
1867.647919310549
 31
0.0
  0
LINE
  5
132DB
330
1A
100
AcDbEntity
  8
ZISSEN1
100
AcDbLine
 10
-1743.815020251095
 20
1864.147919310548
 30
0.0
 11
-1731.815030251095
 21
1864.147919310548
 31
0.0
  0
LINE
  5
132DC
330
1A
100
AcDbEntity
  8
ZISSEN1
100
AcDbLine
 10
-1754.03478359781
 20
1866.147919310549
 30
0.0
 11
-1754.03478359781
 21
1858.647919310548
 31
0.0
  0
CIRCLE
  5
132DD
330
1A
100
AcDbEntity
  8
ZISSEN1
100
AcDbCircle
 10
-1759.78476359781
 20
1854.301289310548
 30
0.0
 40
3.0
  0
LINE
  5
132DE
330
1A
100
AcDbEntity
  8
ZISSEN1
100
AcDbLine
 10
-1767.03478359781
 20
1851.301289310549
 30
0.0
 11
-1752.53478359781
 21
1851.301289310549
 31
0.0
  0
LINE
  5
132DF
330
1A
100
AcDbEntity
  8
ZISSEN1
100
AcDbLine
 10
-1767.03478359781
 20
1857.301289310548
 30
0.0
 11
-1752.53478359781
 21
1857.301289310548
 31
0.0
  0
LINE
  5
132E0
330
1A
100
AcDbEntity
  8
ZISSEN1
100
AcDbLine
 10
-1752.53478359781
 20
1858.647919310548
 30
0.0
 11
-1754.03478359781
 21
1858.647919310548
 31
0.0
  0
LINE
  5
132E1
330
1A
100
AcDbEntity
  8
CL1
100
AcDbLine
 10
-1746.53476359781
 20
1862.647929310549
 30
0.0
 11
-1755.53479359781
 21
1862.647929310549
 31
0.0
  0
LINE
  5
132E2
330
1A
100
AcDbEntity
  8
ZISSEN1
100
AcDbLine
 10
-1752.53478359781
 20
1867.647919310549
 30
0.0
 11
-1749.53477359781
 21
1867.647919310549
 31
0.0
  0
LINE
  5
132E3
330
1A
100
AcDbEntity
  8
ZISSEN1
100
AcDbLine
 10
-1754.03478359781
 20
1864.147919310548
 30
0.0
 11
-1767.03478359781
 21
1864.147919310548
 31
0.0
  0
LINE
  5
132E4
330
1A
100
AcDbEntity
  8
ZISSEN1
100
AcDbLine
 10
-1754.03478359781
 20
1866.147919310549
 30
0.0
 11
-1767.03478359781
 21
1866.147919310549
 31
0.0
  0
LINE
  5
132E5
330
1A
100
AcDbEntity
  8
ZISSEN1
100
AcDbLine
 10
-1754.03478359781
 20
1866.147919310549
 30
0.0
 11
-1752.53478359781
 21
1866.147919310549
 31
0.0
  0
CIRCLE
  5
132E7
330
1A
100
AcDbEntity
  8
SAISEN
100
AcDbCircle
 10
-1613.815040251095
 20
1862.647949310549
 30
0.0
 40
1.5
  0
LINE
  5
132E9
330
1A
100
AcDbEntity
  8
CL1
100
AcDbLine
 10
-1613.814990251094
 20
1859.647919310548
 30
0.0
 11
-1613.814990251094
 21
1865.647939310548
 31
0.0
  0
LINE
  5
132EA
330
1A
100
AcDbEntity
  8
CL1
100
AcDbLine
 10
-1616.815000251095
 20
1862.647929310549
 30
0.0
 11
-1610.814980251095
 21
1862.647929310549
 31
0.0
  0
DIMENSION
  5
13320
330
1A
100
AcDbEntity
  8
ZISSEN1
100
AcDbDimension
  2
*D24
 10
-1953.94017559781
 20
1880.17995793224
 30
0.0
 11
-1955.94017609781
 21
1882.92995793224
 31
0.0
 70
    32
  3
標準スタイル
100
AcDbAlignedDimension
 13
-1957.94017659781
 23
1895.548629310549
 33
0.0
 14
-1953.94017559781
 24
1905.634389310549
 34
0.0
100
AcDbRotatedDimension
1001
ACAD
1000
DSTYLE
1002
{
1070
    40
1040
1.0
1002
}
  0
DIMENSION
  5
1332F
330
1A
100
AcDbEntity
  8
SUNPOU
100
AcDbDimension
  2
*D25
 10
-1813.94017359781
 20
1880.17995793224
 30
0.0
 11
-1883.94017459781
 21
1883.223105140362
 31
0.0
 70
    32
  1
140 (USER 取付ﾋﾟｯﾁ)
  3
標準スタイル
100
AcDbAlignedDimension
 13
-1953.94017559781
 23
1880.17995793224
 33
0.0
 14
-1813.94017359781
 24
1905.634389310549
 34
0.0
100
AcDbRotatedDimension
1001
ACAD
1000
DSTYLE
1002
{
1070
    40
1040
1.0
1002
}
  0
DIMENSION
  5
13360
330
1A
100
AcDbEntity
  8
SUNPOU
100
AcDbDimension
  2
*D26
 10
-1809.94017359781
 20
1880.17995793224
 30
0.0
 11
-1811.94017359781
 21
1882.92995793224
 31
0.0
 70
    32
  3
標準スタイル
100
AcDbAlignedDimension
 13
-1813.94017359781
 23
1905.134389310548
 33
0.0
 14
-1809.94017359781
 24
1895.548629310549
 34
0.0
100
AcDbRotatedDimension
1001
ACAD
1000
DSTYLE
1002
{
1070
    40
1040
1.0
1002
}
  0
DIMENSION
  5
1336F
330
1A
100
AcDbEntity
  8
SUNPOU
100
AcDbDimension
  2
*D27
 10
-1801.412141808711
 20
1907.884409310548
 30
0.0
 11
-1804.162141808711
 21
1918.091262102426
 31
0.0
 70
    32
  3
標準スタイル
100
AcDbAlignedDimension
 13
-1809.94017359781
 23
1903.384419310548
 33
0.0
 14
-1809.94017359781
 24
1907.884409310548
 34
0.0
 50
90.0
100
AcDbRotatedDimension
1001
ACAD
1000
DSTYLE
1002
{
1070
    40
1040
1.0
1002
}
  0
DIMENSION
  5
1337E
330
1A
100
AcDbEntity
  8
SUNPOU
100
AcDbDimension
  2
*D28
 10
-1790.753759929675
 20
1905.634389310549
 30
0.0
 11
-1793.503759929675
 21
1898.384394310548
 31
0.0
 70
    32
  3
標準スタイル
100
AcDbAlignedDimension
 13
-1818.94017359781
 23
1891.134399310549
 33
0.0
 14
-1813.94017359781
 24
1905.634389310549
 34
0.0
 50
90.0
100
AcDbRotatedDimension
1001
ACAD
1000
DSTYLE
1002
{
1070
    40
1040
1.0
1002
}
  0
DIMENSION
  5
133A0
330
1A
100
AcDbEntity
  8
SUNPOU
100
AcDbDimension
  2
*D29
 10
-1799.597611633724
 20
1851.301289310549
 30
0.0
 11
-1802.347611633725
 21
1854.301294310548
 31
0.0
 70
    32
  3
標準スタイル
100
AcDbAlignedDimension
 13
-1806.94018359781
 23
1857.301299310549
 33
0.0
 14
-1806.94018359781
 24
1851.301289310549
 34
0.0
 50
90.0
100
AcDbRotatedDimension
1001
ACAD
1000
DSTYLE
1002
{
1070
    40
1040
1.0
1002
}
  0
DIMENSION
  5
133AF
330
1A
100
AcDbEntity
  8
SUNPOU
100
AcDbDimension
  2
*D30
 10
-1948.94017159781
 20
1727.117179022665
 30
0.0
 11
-1953.44016809781
 21
1729.867179022665
 31
0.0
 70
    32
  3
標準スタイル
100
AcDbAlignedDimension
 13
-1957.94016459781
 23
1737.647929310549
 33
0.0
 14
-1948.94017159781
 24
1741.147928310549
 34
0.0
100
AcDbRotatedDimension
1001
ACAD
1000
DSTYLE
1002
{
1070
    40
1040
1.0
1002
}
  0
DIMENSION
  5
133C8
330
1A
100
AcDbEntity
  8
SUNPOU
100
AcDbDimension
  2
*D31
 10
-1818.94017359781
 20
1727.117179022665
 30
0.0
 11
-1883.940172597809
 21
1729.867179022665
 31
0.0
 70
    32
  3
標準スタイル
100
AcDbAlignedDimension
 13
-1948.94017159781
 23
1727.117179022665
 33
0.0
 14
-1818.94017359781
 24
1742.647927310549
 34
0.0
100
AcDbRotatedDimension
1001
ACAD
1000
DSTYLE
1002
{
1070
    40
1040
1.0
1002
}
  0
DIMENSION
  5
133D4
330
1A
100
AcDbEntity
  8
SUNPOU
100
AcDbDimension
  2
*D32
 10
-1809.94017359781
 20
1727.294280502701
 30
0.0
 11
-1814.44017359781
 21
1730.044280502701
 31
0.0
 70
    32
  3
標準スタイル
100
AcDbAlignedDimension
 13
-1818.94017359781
 23
1727.117179022665
 33
0.0
 14
-1809.94017359781
 24
1737.647929310549
 34
0.0
100
AcDbRotatedDimension
1001
ACAD
1000
DSTYLE
1002
{
1070
    40
1040
1.0
1002
}
  0
DIMENSION
  5
133E1
330
1A
100
AcDbEntity
  8
SUNPOU
100
AcDbDimension
  2
*D33
 10
-1806.94018359781
 20
1719.855989951367
 30
0.0
 11
-1882.44017409781
 21
1722.605989951366
 31
0.0
 70
    32
  3
標準スタイル
100
AcDbAlignedDimension
 13
-1957.94016459781
 23
1726.617179022665
 33
0.0
 14
-1806.94018359781
 24
1742.647927310549
 34
0.0
100
AcDbRotatedDimension
1001
ACAD
1000
DSTYLE
1002
{
1070
    40
1040
1.0
1002
}
  0
LINE
  5
133F6
330
1A
100
AcDbEntity
  8
SUNPOU
 62
     1
100
AcDbLine
 10
-1794.119714157983
 20
1872.478254449727
 30
0.0
 11
-1778.878597622215
 21
1872.478254449727
 31
0.0
  0
MTEXT
  5
133F7
330
1A
100
AcDbEntity
  8
ZISSEN1
 62
     1
100
AcDbMText
 10
-1791.699066504901
 20
1876.777782487599
 30
0.0
 40
3.5
 41
12.5515
 71
     1
 72
     5
  1
M3×6
  7
ゴシック体
1001
ACAD
1000
MTEXTBEGIN
1070
    73
1070
     1
1070
    44
1040
1.0
1070
    74
1070
     0
1000
MTEXTEND
  0
DIMENSION
  5
133F9
330
1A
100
AcDbEntity
  8
SUNPOU
100
AcDbDimension
  2
*D34
 10
-1749.53477359781
 20
1719.855989951367
 30
0.0
 11
-1772.03477359781
 21
1722.605989951366
 31
0.0
 70
    32
  3
標準スタイル
100
AcDbAlignedDimension
 13
-1794.53477359781
 23
1741.147928310549
 33
0.0
 14
-1749.53477359781
 24
1738.355038310549
 34
0.0
100
AcDbRotatedDimension
1001
ACAD
1000
DSTYLE
1002
{
1070
    40
1040
1.0
1002
}
  0
DIMENSION
  5
13420
330
1A
100
AcDbEntity
  8
SUNPOU
100
AcDbDimension
  2
*D35
 10
-1713.815020251095
 20
1719.355989951367
 30
0.0
 11
-1722.815025251095
 21
1722.105989951367
 31
0.0
 70
    32
  3
標準スタイル
100
AcDbAlignedDimension
 13
-1731.815030251095
 23
1737.647941310549
 33
0.0
 14
-1713.815020251095
 24
1744.647940310549
 34
0.0
100
AcDbRotatedDimension
1001
ACAD
1000
DSTYLE
1002
{
1070
    40
1040
1.0
1002
}
  0
DIMENSION
  5
1342D
330
1A
100
AcDbEntity
  8
SUNPOU
100
AcDbDimension
  2
*D36
 10
-1613.814990251094
 20
1718.855989951367
 30
0.0
 11
-1663.815005251095
 21
1721.605989951367
 31
0.0
 70
    32
  3
標準スタイル
100
AcDbAlignedDimension
 13
-1713.815020251095
 23
1719.355989951367
 33
0.0
 14
-1613.814990251094
 24
1859.647919310548
 34
0.0
100
AcDbRotatedDimension
1001
ACAD
1000
DSTYLE
1002
{
1070
    40
1040
1.0
1002
}
  0
DIMENSION
  5
1343A
330
1A
100
AcDbEntity
  8
SUNPOU
100
AcDbDimension
  2
*D37
 10
-1601.815000251095
 20
1718.869657465222
 30
0.0
 11
-1607.814995251095
 21
1721.619657465222
 31
0.0
 70
    32
  3
標準スタイル
100
AcDbAlignedDimension
 13
-1613.814990251094
 23
1718.855989951367
 33
0.0
 14
-1601.815000251095
 24
1737.647941310549
 34
0.0
100
AcDbRotatedDimension
1001
ACAD
1000
DSTYLE
1002
{
1070
    40
1040
1.0
1002
}
  0
MTEXT
  5
13470
330
1A
100
AcDbEntity
  8
SUNPOU
100
AcDbMText
 10
-1676.095990511917
 20
1892.832202417707
 30
0.0
 40
2.5
 41
38.8971
 71
     1
 72
     5
  1
USER 取付穴\P2-M3 深さ5以下
  7
ゴシック体
1001
ACAD
1000
MTEXTBEGIN
1070
    73
1070
     1
1070
    44
1040
1.0
1070
    74
1070
     0
1000
MTEXTEND
  0
LINE
  5
13473
330
1A
100
AcDbEntity
  8
SUNPOU
100
AcDbLine
 10
-1651.697408455639
 20
1884.26741875586
 30
0.0
 11
-1678.069420451955
 21
1884.26741875586
 31
0.0
  0
DIMENSION
  5
13482
330
1A
100
AcDbEntity
  8
SUNPOU
100
AcDbDimension
  2
*D38
 10
-1964.2730377246
 20
1905.634389310549
 30
0.0
 11
-1967.023037724598
 21
1913.634389310548
 31
0.0
 70
    32
  3
標準スタイル
100
AcDbAlignedDimension
 13
-1954.44017559781
 23
1921.634389310549
 33
0.0
 14
-1953.94017559781
 24
1905.634389310549
 34
0.0
 50
90.0
100
AcDbRotatedDimension
1001
ACAD
1000
DSTYLE
1002
{
1070
    40
1040
1.0
1002
}
  0
DIMENSION
  5
1349C
330
1A
100
AcDbEntity
  8
SUNPOU
100
AcDbDimension
  2
*D39
 10
-1964.380785898799
 20
1891.134399310549
 30
0.0
 11
-1967.1307858988
 21
1898.384419310548
 31
0.0
 70
    32
  3
標準スタイル
100
AcDbAlignedDimension
 13
-1952.94017259781
 23
1905.634439310549
 33
0.0
 14
-1948.94018459781
 24
1891.134399310549
 34
0.0
 50
90.0
100
AcDbRotatedDimension
1001
ACAD
1000
DSTYLE
1002
{
1070
    40
1040
1.0
1002
}
  0
DIMENSION
  5
134A9
330
1A
100
AcDbEntity
  8
SUNPOU
100
AcDbDimension
  2
*D40
 10
-1964.2730377246
 20
1921.634389310549
 30
0.0
 11
-1967.023037724598
 21
1928.884399310548
 31
0.0
 70
    32
  3
標準スタイル
100
AcDbAlignedDimension
 13
-1948.94018459781
 23
1936.134409310548
 33
0.0
 14
-1953.94017559781
 24
1921.634389310549
 34
0.0
 50
90.0
100
AcDbRotatedDimension
1001
ACAD
1000
DSTYLE
1002
{
1070
    40
1040
1.0
1002
}
  0
DIMENSION
  5
134C3
330
1A
100
AcDbEntity
  8
SUNPOU
100
AcDbDimension
  2
*D41
 10
-1964.380785898799
 20
1737.647929310549
 30
0.0
 11
-1967.1307858988
 21
1802.647924310548
 31
0.0
 70
    32
  3
標準スタイル
100
AcDbAlignedDimension
 13
-1948.94018459781
 23
1867.647919310549
 33
0.0
 14
-1957.94016459781
 24
1737.647929310549
 34
0.0
 50
90.0
100
AcDbRotatedDimension
1001
ACAD
1000
DSTYLE
1002
{
1070
    40
1040
1.0
1002
}
  0
CIRCLE
  5
13545
330
1A
100
AcDbEntity
  8
ZISSEN1
100
AcDbCircle
 10
-1713.815020251095
 20
1747.647950310548
 30
0.0
 40
1.0
  0
CIRCLE
  5
13546
330
1A
100
AcDbEntity
  8
ZISSEN1
100
AcDbCircle
 10
-1613.815040251095
 20
1862.647949310549
 30
0.0
 40
1.0
  0
DIMENSION
  5
13547
330
1A
100
AcDbEntity
  8
SUNPOU
100
AcDbDimension
  2
*D42
 10
-1797.53477359781
 20
1719.855989951367
 30
0.0
 11
-1795.600302894404
 21
1715.827966750425
 31
0.0
 70
   160
  1
(3.5)
  3
標準スタイル
100
AcDbAlignedDimension
 13
-1794.53477359781
 23
1719.855989951367
 33
0.0
 14
-1797.53477359781
 24
1767.647941310547
 34
0.0
100
AcDbRotatedDimension
1001
ACAD
1000
DSTYLE
1002
{
1070
   287
1070
     5
1070
    40
1040
1.0
1070
   279
1070
     2
1002
}
  0
DIMENSION
  5
13573
330
1A
100
AcDbEntity
  8
SUNPOU
100
AcDbDimension
  2
*D43
 10
-1589.704659940075
 20
1747.647950310548
 30
0.0
 11
-1592.82171523091
 21
1744.601710656524
 31
0.0
 70
   160
  3
標準スタイル
100
AcDbAlignedDimension
 13
-1592.815020251094
 23
1737.647941310549
 33
0.0
 14
-1713.815020251095
 24
1747.647950310548
 34
0.0
 50
90.0
100
AcDbRotatedDimension
1001
ACAD
1000
DSTYLE
1002
{
1070
   287
1070
     5
1070
    40
1040
1.0
1070
   279
1070
     2
1002
}
  0
DIMENSION
  5
13589
330
1A
100
AcDbEntity
  8
SUNPOU
100
AcDbDimension
  2
*D44
 10
-1589.819671296733
 20
1747.647950310548
 30
0.0
 11
-1592.569671296734
 21
1805.147939810548
 31
0.0
 70
    32
  3
標準スタイル
100
AcDbAlignedDimension
 13
-1613.814990251094
 23
1862.647929310549
 33
0.0
 14
-1589.204659940075
 24
1747.647950310548
 34
0.0
 50
90.0
100
AcDbRotatedDimension
1001
ACAD
1000
DSTYLE
1002
{
1070
    40
1040
1.0
1002
}
  0
DIMENSION
  5
13596
330
1A
100
AcDbEntity
  8
SUNPOU
100
AcDbDimension
  2
*D45
 10
-1589.819671296733
 20
1867.647919310549
 30
0.0
 11
-1592.569671296733
 21
1865.147934310548
 31
0.0
 70
    32
  3
標準スタイル
100
AcDbAlignedDimension
 13
-1613.815040251095
 23
1862.647949310549
 33
0.0
 14
-1601.815000251095
 24
1867.647919310549
 34
0.0
 50
90.0
100
AcDbRotatedDimension
1001
ACAD
1000
DSTYLE
1002
{
1070
    40
1040
1.0
1002
}
  0
LEADER
  5
135B2
330
1A
100
AcDbEntity
  8
SUNPOU
100
AcDbLeader
  3
標準スタイル
 76
     2
 10
-1806.94016359781
 20
1854.301289310548
 30
0.0
 10
-1794.119714157983
 20
1872.478254449727
 30
0.0
1001
ACAD
1000
DSTYLE
1002
{
1070
     5
1000

1070
    77
1070
     0
1070
   147
1040
1.0
1002
}
  0
LEADER
  5
135B6
330
1A
100
AcDbEntity
  8
SUNPOU
100
AcDbLeader
  3
標準スタイル
 76
     2
 10
-1615.117813609852
 20
1863.391442132106
 30
0.0
 10
-1651.697408455639
 20
1884.26741875586
 30
0.0
1001
ACAD
1000
DSTYLE
1002
{
1070
     5
1000

1070
    77
1070
     0
1070
   147
1040
1.0
1002
}
  0
VIEWPORT
  5
5D8F
330
5D8E
100
AcDbEntity
 67
     1
  8
0
100
AcDbViewport
 10
320.9506105577403
 20
387.7644198459975
 30
0.0
 40
696.9576967139553
 41
795.1990741762949
 68
     1
 69
     1
1001
ACAD
1000
MVIEW
1002
{
1070
    16
1010
0.0
1020
0.0
1030
0.0
1010
0.0
1020
0.0
1030
1.0
1040
0.0
1040
795.1990741762949
1040
320.9506105577403
1040
387.7644198459975
1040
50.0
1040
0.0
1040
0.0
1070
     0
1070
   100
1070
     1
1070
     0
1070
     0
1070
     0
1070
     0
1070
     0
1040
0.0
1040
0.0
1040
0.0
1040
1.0
1040
1.0
1040
10.0
1040
10.0
1070
     0
1002
{
1002
}
1002
}
  0
VIEWPORT
  5
6001
330
5D8E
100
AcDbEntity
 67
     1
  8
ZISSEN1
100
AcDbViewport
 10
221.7861955525411
 20
157.6960273330388
 30
0.0
 40
385.4999999999997
 41
259.9999999999999
 68
     2
 69
     2
1001
ACAD
1000
MVIEW
1002
{
1070
    16
1010
0.0
1020
0.0
1030
0.0
1010
0.0
1020
0.0
1030
1.0
1040
0.0
1040
259.9999999999999
1040
-1779.24703764025
1040
1826.388553436578
1040
50.0
1040
0.0
1040
0.0
1070
     0
1070
   100
1070
     1
1070
     0
1070
     0
1070
     0
1070
     0
1070
     0
1040
0.0
1040
0.0
1040
0.0
1040
1.0
1040
1.0
1040
10.0
1040
10.0
1070
     0
1002
{
1002
}
1002
}
  0
TEXT
  5
716F
330
5D8E
100
AcDbEntity
 67
     1
  8
SUNPOU
 62
     0
100
AcDbText
 10
374.8093560598149
 20
36.59097362199418
 30
0.0
 40
3.5
  1
縮尺 1/1
  7
ゴシック体
100
AcDbText
  0
ENDSEC
  0
SECTION
  2
OBJECTS
  0
DICTIONARY
  5
C
330
0
100
AcDbDictionary
  3
ACAD_GROUP
350
D
  3
ACAD_LAYOUT
350
5C7D
  3
ACAD_MLINESTYLE
350
E
  3
ACAD_PLOTSETTINGS
350
5C7E
  3
ACAD_PLOTSTYLENAME
350
5C7B
  3
DWGPROPS
350
5E8E
  3
ACDBVARIABLEDICTIONARY
350
135D8
  3
ACDBHEADERROUNDTRIPXREC
350
135E3
  0
DICTIONARY
  5
13603
330
1A
100
AcDbDictionary
280
     1
  3
ACAD_LAYOUTSELFREF
360
13604
  0
DICTIONARY
  5
13605
330
5D8E
100
AcDbDictionary
280
     1
  3
ACAD_LAYOUTSELFREF
360
13606
  0
DICTIONARY
  5
D
102
{ACAD_REACTORS
330
C
102
}
330
C
100
AcDbDictionary
  3
*A1
350
477D
  3
*A2
350
4C14
  3
*A3
350
4C15
  3
*A4
350
4C16
  3
*A5
350
4C17
  3
*A6
350
477E
  3
*A7
350
477F
  3
*A8
350
4780
  3
*A9
350
4781
  3
*A10
350
4C0E
  3
*A11
350
4C0F
  3
*A12
350
4C10
  3
*A13
350
4C11
  3
*A14
350
4C12
  3
*A15
350
4C13
  0
DICTIONARY
  5
5C7D
102
{ACAD_REACTORS
330
C
102
}
330
C
100
AcDbDictionary
  0
DICTIONARY
  5
E
102
{ACAD_REACTORS
330
C
102
}
330
C
100
AcDbDictionary
  3
STANDARD
350
13
  0
DICTIONARY
  5
5C7E
102
{ACAD_REACTORS
330
C
102
}
330
C
100
AcDbDictionary
  0
ACDBDICTIONARYWDFLT
  5
5C7B
102
{ACAD_REACTORS
330
C
102
}
330
C
100
AcDbDictionary
281
     1
  3
Normal
350
5C7C
100
AcDbDictionaryWithDefault
340
5C7C
  0
XRECORD
  5
5E8E
102
{ACAD_REACTORS
330
C
102
}
330
C
100
AcDbXrecord
  1
DWGPROPS COOKIE
  2

  3

  4

  6

  7

  8

  9

300
=
301
=
302
=
303
=
304
=
305
=
306
=
307
=
308
=
309
=
 40
0.586753587962963
 41
2450495.493631364
 42
2453208.662277431
  1

 90
        0
  0
DICTIONARY
  5
135D8
102
{ACAD_REACTORS
330
C
102
}
330
C
100
AcDbDictionary
  3
INDEXCTL
350
135D9
  0
DICTIONARY
  5
135E3
102
{ACAD_REACTORS
330
C
102
}
330
C
100
AcDbDictionary
  3
TSTACKALIGN
350
135E4
  3
TSTACKSIZE
350
135E5
  3
HYPERLINKBASE
350
135E6
  3
STYLESHEET
350
135E7
  3
LAYOUTDICT
350
135E8
  3
PLOTSETDICT
350
135E9
  3
PLOTSTYLNAMDICT
350
135EA
  3
LWETCUNION
350
135EB
  3
INSUNITS
350
135EC
  3
CEPSNTYPE
350
135ED
  3
FINGERPRINTGUID
350
135EE
  3
VERSIONGUID
350
135EF
  3
PSVPSCALE
350
135F0
  3
PUCSORTHOREF
350
135F1
  3
PUCSORTHOVIEW
350
135F2
  3
PUCSBASE
350
135F3
  3
PUCSORGTOP
350
135F4
  3
PUCSORGBOTTOM
350
135F5
  3
PUCSORGLEFT
350
135F6
  3
PUCSORGRIGHT
350
135F7
  3
PUCSORGFRONT
350
135F8
  3
PUCSORGBACK
350
135F9
  3
UCSORTHOREF
350
135FA
  3
UCSORTHOVIEW
350
135FB
  3
UCSBASE
350
135FC
  3
UCSORGTOP
350
135FD
  3
UCSORGBOTTOM
350
135FE
  3
UCSORGLEFT
350
135FF
  3
UCSORGRIGHT
350
13600
  3
UCSORGFRONT
350
13601
  3
UCSORGBACK
350
13602
  0
XRECORD
  5
13604
102
{ACAD_REACTORS
330
13603
102
}
330
13603
100
AcDbXrecord
340
1A
  0
XRECORD
  5
13606
102
{ACAD_REACTORS
330
13605
102
}
330
13605
100
AcDbXrecord
340
5D8E
  0
GROUP
  5
477D
102
{ACAD_REACTORS
330
D
102
}
330
D
100
AcDbGroup
300

 70
     1
 71
     1
  0
GROUP
  5
4C14
102
{ACAD_REACTORS
330
D
102
}
330
D
100
AcDbGroup
300

 70
     1
 71
     1
  0
GROUP
  5
4C15
102
{ACAD_REACTORS
330
D
102
}
330
D
100
AcDbGroup
300

 70
     1
 71
     1
  0
GROUP
  5
4C16
102
{ACAD_REACTORS
330
D
102
}
330
D
100
AcDbGroup
300

 70
     1
 71
     1
  0
GROUP
  5
4C17
102
{ACAD_REACTORS
330
D
102
}
330
D
100
AcDbGroup
300

 70
     1
 71
     1
  0
GROUP
  5
477E
102
{ACAD_REACTORS
330
D
102
}
330
D
100
AcDbGroup
300

 70
     1
 71
     1
  0
GROUP
  5
477F
102
{ACAD_REACTORS
330
D
102
}
330
D
100
AcDbGroup
300

 70
     1
 71
     1
  0
GROUP
  5
4780
102
{ACAD_REACTORS
330
D
102
}
330
D
100
AcDbGroup
300

 70
     1
 71
     1
  0
GROUP
  5
4781
102
{ACAD_REACTORS
330
D
102
}
330
D
100
AcDbGroup
300

 70
     1
 71
     1
  0
GROUP
  5
4C0E
102
{ACAD_REACTORS
330
D
102
}
330
D
100
AcDbGroup
300

 70
     1
 71
     1
  0
GROUP
  5
4C0F
102
{ACAD_REACTORS
330
D
102
}
330
D
100
AcDbGroup
300

 70
     1
 71
     1
  0
GROUP
  5
4C10
102
{ACAD_REACTORS
330
D
102
}
330
D
100
AcDbGroup
300

 70
     1
 71
     1
  0
GROUP
  5
4C11
102
{ACAD_REACTORS
330
D
102
}
330
D
100
AcDbGroup
300

 70
     1
 71
     1
  0
GROUP
  5
4C12
102
{ACAD_REACTORS
330
D
102
}
330
D
100
AcDbGroup
300

 70
     1
 71
     1
  0
GROUP
  5
4C13
102
{ACAD_REACTORS
330
D
102
}
330
D
100
AcDbGroup
300

 70
     1
 71
     1
  0
MLINESTYLE
  5
13
102
{ACAD_REACTORS
330
E
102
}
330
E
100
AcDbMlineStyle
  2
STANDARD
 70
     0
  3

 62
     0
 51
90.0
 52
90.0
 71
     2
 49
0.5
 62
   256
  6
BYLAYER
 49
-0.5
 62
   256
  6
BYLAYER
  0
ACDBPLACEHOLDER
  5
5C7C
102
{ACAD_REACTORS
330
5C7B
102
}
330
5C7B
100
AcDbPlaceHolder
280
     0
  0
DICTIONARYVAR
  5
135D9
102
{ACAD_REACTORS
330
135D8
102
}
330
135D8
100
DictionaryVariables
280
     0
  1
-1
  0
XRECORD
  5
135E4
102
{ACAD_REACTORS
330
135E3
102
}
330
135E3
100
AcDbXrecord
 90
        1
  0
XRECORD
  5
135E5
102
{ACAD_REACTORS
330
135E3
102
}
330
135E3
100
AcDbXrecord
 90
       70
  0
XRECORD
  5
135E6
102
{ACAD_REACTORS
330
135E3
102
}
330
135E3
100
AcDbXrecord
  1

  0
XRECORD
  5
135E7
102
{ACAD_REACTORS
330
135E3
102
}
330
135E3
100
AcDbXrecord
  1

  0
XRECORD
  5
135E8
102
{ACAD_REACTORS
330
135E3
102
}
330
135E3
100
AcDbXrecord
340
5C7D
  0
XRECORD
  5
135E9
102
{ACAD_REACTORS
330
135E3
102
}
330
135E3
100
AcDbXrecord
340
5C7E
  0
XRECORD
  5
135EA
102
{ACAD_REACTORS
330
135E3
102
}
330
135E3
100
AcDbXrecord
340
5C7B
  0
XRECORD
  5
135EB
102
{ACAD_REACTORS
330
135E3
102
}
330
135E3
100
AcDbXrecord
 90
    10781
  0
XRECORD
  5
135EC
102
{ACAD_REACTORS
330
135E3
102
}
330
135E3
100
AcDbXrecord
 90
        0
  0
XRECORD
  5
135ED
102
{ACAD_REACTORS
330
135E3
102
}
330
135E3
100
AcDbXrecord
 90
        0
  0
XRECORD
  5
135EE
102
{ACAD_REACTORS
330
135E3
102
}
330
135E3
100
AcDbXrecord
  1
{225A7F0D-DA29-11D8-946A-0000E2416295}
  0
XRECORD
  5
135EF
102
{ACAD_REACTORS
330
135E3
102
}
330
135E3
100
AcDbXrecord
  1
{5C3BDC62-7162-40F2-A0DF-DD6A0C294412}
  0
XRECORD
  5
135F0
102
{ACAD_REACTORS
330
135E3
102
}
330
135E3
100
AcDbXrecord
 40
0.0
  0
XRECORD
  5
135F1
102
{ACAD_REACTORS
330
135E3
102
}
330
135E3
100
AcDbXrecord
340
0
  0
XRECORD
  5
135F2
102
{ACAD_REACTORS
330
135E3
102
}
330
135E3
100
AcDbXrecord
 70
     0
  0
XRECORD
  5
135F3
102
{ACAD_REACTORS
330
135E3
102
}
330
135E3
100
AcDbXrecord
340
0
  0
XRECORD
  5
135F4
102
{ACAD_REACTORS
330
135E3
102
}
330
135E3
100
AcDbXrecord
 10
0.0
 20
0.0
 30
0.0
  0
XRECORD
  5
135F5
102
{ACAD_REACTORS
330
135E3
102
}
330
135E3
100
AcDbXrecord
 10
0.0
 20
0.0
 30
0.0
  0
XRECORD
  5
135F6
102
{ACAD_REACTORS
330
135E3
102
}
330
135E3
100
AcDbXrecord
 10
0.0
 20
0.0
 30
0.0
  0
XRECORD
  5
135F7
102
{ACAD_REACTORS
330
135E3
102
}
330
135E3
100
AcDbXrecord
 10
0.0
 20
0.0
 30
0.0
  0
XRECORD
  5
135F8
102
{ACAD_REACTORS
330
135E3
102
}
330
135E3
100
AcDbXrecord
 10
0.0
 20
0.0
 30
0.0
  0
XRECORD
  5
135F9
102
{ACAD_REACTORS
330
135E3
102
}
330
135E3
100
AcDbXrecord
 10
0.0
 20
0.0
 30
0.0
  0
XRECORD
  5
135FA
102
{ACAD_REACTORS
330
135E3
102
}
330
135E3
100
AcDbXrecord
340
0
  0
XRECORD
  5
135FB
102
{ACAD_REACTORS
330
135E3
102
}
330
135E3
100
AcDbXrecord
 70
     0
  0
XRECORD
  5
135FC
102
{ACAD_REACTORS
330
135E3
102
}
330
135E3
100
AcDbXrecord
340
0
  0
XRECORD
  5
135FD
102
{ACAD_REACTORS
330
135E3
102
}
330
135E3
100
AcDbXrecord
 10
0.0
 20
0.0
 30
0.0
  0
XRECORD
  5
135FE
102
{ACAD_REACTORS
330
135E3
102
}
330
135E3
100
AcDbXrecord
 10
0.0
 20
0.0
 30
0.0
  0
XRECORD
  5
135FF
102
{ACAD_REACTORS
330
135E3
102
}
330
135E3
100
AcDbXrecord
 10
0.0
 20
0.0
 30
0.0
  0
XRECORD
  5
13600
102
{ACAD_REACTORS
330
135E3
102
}
330
135E3
100
AcDbXrecord
 10
0.0
 20
0.0
 30
0.0
  0
XRECORD
  5
13601
102
{ACAD_REACTORS
330
135E3
102
}
330
135E3
100
AcDbXrecord
 10
0.0
 20
0.0
 30
0.0
  0
XRECORD
  5
13602
102
{ACAD_REACTORS
330
135E3
102
}
330
135E3
100
AcDbXrecord
 10
0.0
 20
0.0
 30
0.0
  0
ENDSEC
  0
EOF
