  0
SECTION
  2
HEADER
  9
$ACADVER
  1
AC1014
  9
$ACADMAINTVER
 70
     9
  9
$DWGCODEPAGE
  3
ANSI_932
  9
$INSBASE
 10
0.0
 20
0.0
 30
0.0
  9
$EXTMIN
 10
-1482.246631942715
 20
1703.194685119691
 30
0.0
  9
$EXTMAX
 10
-1178.509459512135
 20
1955.947010051749
 30
0.0
  9
$LIMMIN
 10
0.0
 20
0.0
  9
$LIMMAX
 10
420.0
 20
297.0
  9
$ORTHOMODE
 70
     1
  9
$REGENMODE
 70
     1
  9
$FILLMODE
 70
     1
  9
$QTEXTMODE
 70
     0
  9
$MIRRTEXT
 70
     1
  9
$DRAGMODE
 70
     2
  9
$LTSCALE
 40
1.0
  9
$OSMODE
 70
    37
  9
$ATTMODE
 70
     1
  9
$TEXTSIZE
 40
2.5
  9
$TRACEWID
 40
1.0
  9
$TEXTSTYLE
  7
ゴシック体
  9
$CLAYER
  8
SUNPOU
  9
$CELTYPE
  6
BYLAYER
  9
$CECOLOR
 62
   256
  9
$CELTSCALE
 40
1.0
  9
$DELOBJ
 70
     1
  9
$DISPSILH
 70
     0
  9
$DIMSCALE
 40
0.0
  9
$DIMASZ
 40
3.0
  9
$DIMEXO
 40
0.5
  9
$DIMDLI
 40
0.5
  9
$DIMRND
 40
0.0
  9
$DIMDLE
 40
0.0
  9
$DIMEXE
 40
0.5
  9
$DIMTP
 40
0.0
  9
$DIMTM
 40
0.0
  9
$DIMTXT
 40
3.5
  9
$DIMCEN
 40
0.0
  9
$DIMTSZ
 40
0.0
  9
$DIMTOL
 70
     0
  9
$DIMLIM
 70
     0
  9
$DIMTIH
 70
     0
  9
$DIMTOH
 70
     0
  9
$DIMSE1
 70
     0
  9
$DIMSE2
 70
     0
  9
$DIMTAD
 70
     1
  9
$DIMZIN
 70
     8
  9
$DIMBLK
  1

  9
$DIMASO
 70
     1
  9
$DIMSHO
 70
     1
  9
$DIMPOST
  1

  9
$DIMAPOST
  1

  9
$DIMALT
 70
     0
  9
$DIMALTD
 70
     2
  9
$DIMALTF
 40
25.4
  9
$DIMLFAC
 40
1.0
  9
$DIMTOFL
 70
     1
  9
$DIMTVP
 40
0.0
  9
$DIMTIX
 70
     0
  9
$DIMSOXD
 70
     0
  9
$DIMSAH
 70
     0
  9
$DIMBLK1
  1

  9
$DIMBLK2
  1

  9
$DIMSTYLE
  2
標準スタイル
  9
$DIMCLRD
 70
     1
  9
$DIMCLRE
 70
     1
  9
$DIMCLRT
 70
     1
  9
$DIMTFAC
 40
1.0
  9
$DIMGAP
 40
1.0
  9
$DIMJUST
 70
     0
  9
$DIMSD1
 70
     0
  9
$DIMSD2
 70
     0
  9
$DIMTOLJ
 70
     1
  9
$DIMTZIN
 70
     8
  9
$DIMALTZ
 70
     0
  9
$DIMALTTZ
 70
     0
  9
$DIMFIT
 70
     3
  9
$DIMUPT
 70
     0
  9
$DIMUNIT
 70
     2
  9
$DIMDEC
 70
     2
  9
$DIMTDEC
 70
     2
  9
$DIMALTU
 70
     2
  9
$DIMALTTD
 70
     2
  9
$DIMTXSTY
  7
ゴシック体
  9
$DIMAUNIT
 70
     0
  9
$LUNITS
 70
     2
  9
$LUPREC
 70
     4
  9
$SKETCHINC
 40
1.0
  9
$FILLETRAD
 40
0.0
  9
$AUNITS
 70
     0
  9
$AUPREC
 70
     0
  9
$MENU
  1
.
  9
$ELEVATION
 40
0.0
  9
$PELEVATION
 40
0.0
  9
$THICKNESS
 40
0.0
  9
$LIMCHECK
 70
     0
  9
$BLIPMODE
 70
     0
  9
$CHAMFERA
 40
10.0
  9
$CHAMFERB
 40
10.0
  9
$CHAMFERC
 40
2.0
  9
$CHAMFERD
 40
0.7853981633974483
  9
$SKPOLY
 70
     0
  9
$TDCREATE
 40
2450495.493631365
  9
$TDUPDATE
 40
2453984.407855983
  9
$TDINDWG
 40
1.7953804282
  9
$TDUSRTIMER
 40
1.7953801968
  9
$USRTIMER
 70
     1
  9
$ANGBASE
 50
0.0
  9
$ANGDIR
 70
     0
  9
$PDMODE
 70
    99
  9
$PDSIZE
 40
0.0
  9
$PLINEWID
 40
0.0
  9
$COORDS
 70
     1
  9
$SPLFRAME
 70
     0
  9
$SPLINETYPE
 70
     6
  9
$SPLINESEGS
 70
     8
  9
$ATTDIA
 70
     0
  9
$ATTREQ
 70
     1
  9
$HANDLING
 70
 10241
  9
$HANDSEED
  5
13987
  9
$SURFTAB1
 70
     6
  9
$SURFTAB2
 70
     6
  9
$SURFTYPE
 70
     6
  9
$SURFU
 70
     6
  9
$SURFV
 70
     6
  9
$UCSNAME
  2

  9
$UCSORG
 10
0.0
 20
0.0
 30
0.0
  9
$UCSXDIR
 10
1.0
 20
0.0
 30
0.0
  9
$UCSYDIR
 10
0.0
 20
1.0
 30
0.0
  9
$PUCSNAME
  2

  9
$PUCSORG
 10
0.0
 20
0.0
 30
0.0
  9
$PUCSXDIR
 10
1.0
 20
0.0
 30
0.0
  9
$PUCSYDIR
 10
0.0
 20
1.0
 30
0.0
  9
$USERI1
 70
     0
  9
$USERI2
 70
     0
  9
$USERI3
 70
     0
  9
$USERI4
 70
     0
  9
$USERI5
 70
     0
  9
$USERR1
 40
0.0
  9
$USERR2
 40
0.0
  9
$USERR3
 40
0.0
  9
$USERR4
 40
0.0
  9
$USERR5
 40
0.0
  9
$WORLDVIEW
 70
     1
  9
$SHADEDGE
 70
     3
  9
$SHADEDIF
 70
    70
  9
$TILEMODE
 70
     1
  9
$MAXACTVP
 70
    16
  9
$PINSBASE
 10
0.0
 20
0.0
 30
0.0
  9
$PLIMCHECK
 70
     0
  9
$PEXTMIN
 10
29.03619555254133
 20
27.69602733303884
 30
0.0
  9
$PEXTMAX
 10
414.536195552541
 20
287.6960273330388
 30
0.0
  9
$PLIMMIN
 10
11.13088392171084
 20
6.367460636892701
  9
$PLIMMAX
 10
431.0775391951483
 20
303.3781112716583
  9
$UNITMODE
 70
     0
  9
$VISRETAIN
 70
     0
  9
$PLINEGEN
 70
     0
  9
$PSLTSCALE
 70
     1
  9
$TREEDEPTH
 70
  3020
  9
$PICKSTYLE
 70
     1
  9
$CMLSTYLE
  2
STANDARD
  9
$CMLJUST
 70
     0
  9
$CMLSCALE
 40
1.0
  9
$PROXYGRAPHICS
 70
     1
  9
$MEASUREMENT
 70
     1
  0
ENDSEC
  0
SECTION
  2
CLASSES
  0
CLASS
  1
LWPOLYLINE
  2
AcDbPolyline
  3
AutoCAD 2000
 90
        0
280
     0
281
     1
  0
CLASS
  1
HATCH
  2
AcDbHatch
  3
AutoCAD 2000
 90
        0
280
     0
281
     1
  0
CLASS
  1
ACDBDICTIONARYWDFLT
  2
AcDbDictionaryWithDefault
  3
AutoCAD 2000
 90
        0
280
     0
281
     0
  0
CLASS
  1
ACDBPLACEHOLDER
  2
AcDbPlaceHolder
  3
AutoCAD 2000
 90
        0
280
     0
281
     0
  0
CLASS
  1
LAYOUT
  2
AcDbLayout
  3
AutoCAD 2000
 90
        0
280
     0
281
     0
  0
CLASS
  1
DICTIONARYVAR
  2
AcDbDictionaryVar
  3
AutoCAD 2000
 90
        0
280
     0
281
     0
  0
CLASS
  1
LONG_TRANSACTION
  2
AcDbLongTransaction
  3
AutoCAD 2000
 90
        0
280
     0
281
     0
  0
CLASS
  1
LWPOLYLINE
  2
AcDbPolyline
  3
AutoCAD 2000
 90
        0
280
     0
281
     1
  0
CLASS
  1
HATCH
  2
AcDbHatch
  3
AutoCAD 2000
 90
        0
280
     0
281
     1
  0
CLASS
  1
XRECORD
  2
AcDbXrecord
  3
AutoCAD 2000
 90
        0
280
     0
281
     0
  0
ENDSEC
  0
SECTION
  2
TABLES
  0
TABLE
  2
VPORT
  5
8
330
0
100
AcDbSymbolTable
 70
     2
  0
VPORT
  5
1394C
330
8
100
AcDbSymbolTableRecord
100
AcDbViewportTableRecord
  2
*ACTIVE
 70
     0
 10
0.0
 20
0.0
 11
1.0
 21
1.0
 12
-1211.080450671919
 22
1824.401095881029
 13
0.0
 23
0.0
 14
5.0
 24
5.0
 15
0.0
 25
0.0
 16
0.0
 26
0.0
 36
1.0
 17
0.0
 27
0.0
 37
0.0
 40
330.9446168260326
 41
2.192560175054704
 42
50.0
 43
0.0
 44
0.0
 50
0.0
 51
0.0
 71
     0
 72
   100
 73
     1
 74
     0
 75
     0
 76
     0
 77
     0
 78
     0
  0
ENDTAB
  0
TABLE
  2
LTYPE
  5
5
330
0
100
AcDbSymbolTable
 70
    13
  0
LTYPE
  5
14
330
5
100
AcDbSymbolTableRecord
100
AcDbLinetypeTableRecord
  2
BYBLOCK
 70
     0
  3

 72
    65
 73
     0
 40
0.0
  0
LTYPE
  5
15
330
5
100
AcDbSymbolTableRecord
100
AcDbLinetypeTableRecord
  2
BYLAYER
 70
     0
  3

 72
    65
 73
     0
 40
0.0
  0
LTYPE
  5
16
330
5
100
AcDbSymbolTableRecord
100
AcDbLinetypeTableRecord
  2
CONTINUOUS
 70
     0
  3
Solid line
 72
    65
 73
     0
 40
0.0
  0
LTYPE
  5
1956
330
5
100
AcDbSymbolTableRecord
100
AcDbLinetypeTableRecord
  2
CENTERX2
 70
     0
  3
________  __  ________  __  ________  __  _____
 72
    65
 73
     4
 40
4.0
 49
2.5
 74
     0
 49
-0.5
 74
     0
 49
0.5
 74
     0
 49
-0.5
 74
     0
  0
ENDTAB
  0
TABLE
  2
LAYER
  5
2
330
0
100
AcDbSymbolTable
 70
    34
  0
LAYER
  5
F
330
2
100
AcDbSymbolTableRecord
100
AcDbLayerTableRecord
  2
0
 70
     0
 62
     7
  6
CONTINUOUS
  0
LAYER
  5
18F
330
2
100
AcDbSymbolTableRecord
100
AcDbLayerTableRecord
  2
ZISSEN1
 70
     0
 62
     7
  6
CONTINUOUS
  0
LAYER
  5
191
330
2
100
AcDbSymbolTableRecord
100
AcDbLayerTableRecord
  2
SAISEN
 70
     0
 62
     1
  6
CONTINUOUS
  0
LAYER
  5
529
330
2
100
AcDbSymbolTableRecord
100
AcDbLayerTableRecord
  2
SUNPOU
 70
     0
 62
     1
  6
CONTINUOUS
  0
LAYER
  5
195A
330
2
100
AcDbSymbolTableRecord
100
AcDbLayerTableRecord
  2
CL1
 70
     0
 62
   210
  6
CENTERX2
  0
LAYER
  5
3A9B
330
2
100
AcDbSymbolTableRecord
100
AcDbLayerTableRecord
  2
DEFPOINTS
 70
     0
 62
     7
  6
CONTINUOUS
  0
ENDTAB
  0
TABLE
  2
STYLE
  5
3
330
0
100
AcDbSymbolTable
 70
     5
  0
STYLE
  5
10
330
3
100
AcDbSymbolTableRecord
100
AcDbTextStyleTableRecord
  2
STANDARD
 70
     0
 40
0.0
 41
1.0
 50
0.0
 71
     0
 42
3.0
  3
txt
  4
BigFont
  0
STYLE
  5
1960
330
3
100
AcDbSymbolTableRecord
100
AcDbTextStyleTableRecord
  2
ゴシック体
 70
     0
 40
0.0
 41
1.0
 50
0.0
 71
     0
 42
2.5
  3
MS Gothic.ttf
  4

1001
ACAD
1000
MS Gothic
1071
    32817
  0
ENDTAB
  0
TABLE
  2
VIEW
  5
6
330
0
100
AcDbSymbolTable
 70
     0
  0
ENDTAB
  0
TABLE
  2
UCS
  5
7
330
0
100
AcDbSymbolTable
 70
     0
  0
ENDTAB
  0
TABLE
  2
APPID
  5
9
330
0
100
AcDbSymbolTable
 70
     5
  0
APPID
  5
11
330
9
100
AcDbSymbolTableRecord
100
AcDbRegAppTableRecord
  2
ACAD
 70
     0
  0
APPID
  5
4005
330
9
100
AcDbSymbolTableRecord
100
AcDbRegAppTableRecord
  2
CONTENTTABDATA
 70
     0
  0
APPID
  5
4006
330
9
100
AcDbSymbolTableRecord
100
AcDbRegAppTableRecord
  2
CONTENTCURRENTTAB
 70
     0
  0
APPID
  5
477B
330
9
100
AcDbSymbolTableRecord
100
AcDbRegAppTableRecord
  2
CONTENTBLOCKDESCRIPTION
 70
     0
  0
APPID
  5
477C
330
9
100
AcDbSymbolTableRecord
100
AcDbRegAppTableRecord
  2
CONTENTBLOCKICON
 70
     0
  0
ENDTAB
  0
TABLE
  2
DIMSTYLE
  5
A
330
0
100
AcDbSymbolTable
 70
    12
  0
DIMSTYLE
105
1D
330
A
100
AcDbSymbolTableRecord
100
AcDbDimStyleTableRecord
  2
STANDARD
 70
     0
  3

  4

  5

  6

  7

 40
1.0
 41
0.18
 42
0.0625
 43
0.38
 44
0.18
 45
0.0
 46
0.0
 47
0.0
 48
0.0
140
0.18
141
0.09
142
0.0
143
25.4
144
1.0
145
0.0
146
1.0
147
0.09
 71
     0
 72
     0
 73
     1
 74
     1
 75
     0
 76
     0
 77
     0
 78
     0
170
     0
171
     2
172
     0
173
     0
174
     0
175
     0
176
     0
177
     0
178
     0
270
     2
271
     4
272
     4
273
     2
274
     2
340
10
275
     0
280
     0
281
     0
282
     0
283
     1
284
     0
285
     0
286
     0
287
     3
288
     0
  0
DIMSTYLE
105
52E
102
{ACAD_REACTORS
330
137BD
330
137D7
330
137E4
330
137F0
330
137FC
330
13816
330
13831
330
1383E
330
1384B
330
13858
330
13864
330
13872
330
13881
330
13899
330
138C0
330
138DE
330
138EB
330
13925
102
}
330
A
100
AcDbSymbolTableRecord
100
AcDbDimStyleTableRecord
  2
標準スタイル
 70
     0
  3

  4

  5

  6

  7

 40
0.0
 41
3.0
 42
0.5
 43
0.5
 44
0.5
 45
0.0
 46
0.0
 47
0.0
 48
0.0
140
3.5
141
0.0
142
0.0
143
25.4
144
1.0
145
0.0
146
1.0
147
1.0
 71
     0
 72
     0
 73
     0
 74
     0
 75
     0
 76
     0
 77
     1
 78
     8
170
     0
171
     2
172
     1
173
     0
174
     0
175
     0
176
     1
177
     1
178
     1
270
     2
271
     2
272
     2
273
     2
274
     2
340
1960
275
     0
280
     0
281
     0
282
     0
283
     1
284
     8
285
     0
286
     0
287
     3
288
     0
  0
ENDTAB
  0
TABLE
  2
BLOCK_RECORD
  5
1
330
0
100
AcDbSymbolTable
 70
    42
  0
BLOCK_RECORD
  5
1A
102
{ACAD_XDICTIONARY
360
1396D
102
}
330
1
100
AcDbSymbolTableRecord
100
AcDbBlockTableRecord
  2
*MODEL_SPACE
  0
BLOCK_RECORD
  5
5D8E
102
{ACAD_XDICTIONARY
360
1396F
102
}
330
1
100
AcDbSymbolTableRecord
100
AcDbBlockTableRecord
  2
*PAPER_SPACE
  0
BLOCK_RECORD
  5
137BE
330
1
100
AcDbSymbolTableRecord
100
AcDbBlockTableRecord
  2
*D24
  0
BLOCK_RECORD
  5
137D8
330
1
100
AcDbSymbolTableRecord
100
AcDbBlockTableRecord
  2
*D25
  0
BLOCK_RECORD
  5
137E5
330
1
100
AcDbSymbolTableRecord
100
AcDbBlockTableRecord
  2
*D26
  0
BLOCK_RECORD
  5
137F1
330
1
100
AcDbSymbolTableRecord
100
AcDbBlockTableRecord
  2
*D27
  0
BLOCK_RECORD
  5
137FD
330
1
100
AcDbSymbolTableRecord
100
AcDbBlockTableRecord
  2
*D28
  0
BLOCK_RECORD
  5
13817
330
1
100
AcDbSymbolTableRecord
100
AcDbBlockTableRecord
  2
*D29
  0
BLOCK_RECORD
  5
13832
330
1
100
AcDbSymbolTableRecord
100
AcDbBlockTableRecord
  2
*D30
  0
BLOCK_RECORD
  5
1383F
330
1
100
AcDbSymbolTableRecord
100
AcDbBlockTableRecord
  2
*D31
  0
BLOCK_RECORD
  5
1384C
330
1
100
AcDbSymbolTableRecord
100
AcDbBlockTableRecord
  2
*D32
  0
BLOCK_RECORD
  5
13859
330
1
100
AcDbSymbolTableRecord
100
AcDbBlockTableRecord
  2
*D33
  0
BLOCK_RECORD
  5
13865
330
1
100
AcDbSymbolTableRecord
100
AcDbBlockTableRecord
  2
*D34
  0
BLOCK_RECORD
  5
13873
330
1
100
AcDbSymbolTableRecord
100
AcDbBlockTableRecord
  2
*D35
  0
BLOCK_RECORD
  5
13882
330
1
100
AcDbSymbolTableRecord
100
AcDbBlockTableRecord
  2
*D36
  0
BLOCK_RECORD
  5
1389A
330
1
100
AcDbSymbolTableRecord
100
AcDbBlockTableRecord
  2
*D37
  0
BLOCK_RECORD
  5
138C1
330
1
100
AcDbSymbolTableRecord
100
AcDbBlockTableRecord
  2
*D38
  0
BLOCK_RECORD
  5
138DF
330
1
100
AcDbSymbolTableRecord
100
AcDbBlockTableRecord
  2
*D39
  0
BLOCK_RECORD
  5
138EC
330
1
100
AcDbSymbolTableRecord
100
AcDbBlockTableRecord
  2
*D40
  0
BLOCK_RECORD
  5
13926
330
1
100
AcDbSymbolTableRecord
100
AcDbBlockTableRecord
  2
*D41
  0
ENDTAB
  0
ENDSEC
  0
SECTION
  2
BLOCKS
  0
BLOCK
  5
1B
330
1A
100
AcDbEntity
  8
0
100
AcDbBlockBegin
  2
*MODEL_SPACE
 70
     0
 10
0.0
 20
0.0
 30
0.0
  3
*MODEL_SPACE
  1

  0
ENDBLK
  5
1C
330
1A
100
AcDbEntity
  8
0
100
AcDbBlockEnd
  0
BLOCK
  5
5E60
330
5D8E
100
AcDbEntity
 67
     1
  8
0
100
AcDbBlockBegin
  2
*PAPER_SPACE
 70
     0
 10
0.0
 20
0.0
 30
0.0
  3
*PAPER_SPACE
  1

  0
ENDBLK
  5
5E61
330
5D8E
100
AcDbEntity
 67
     1
  8
0
100
AcDbBlockEnd
  0
BLOCK
  5
137CA
330
137BE
100
AcDbEntity
  8
0
100
AcDbBlockBegin
  2
*D24
 70
     1
 10
0.0
 20
0.0
 30
0.0
  3
*D24
  1

  0
LINE
  5
13971
330
137BE
100
AcDbEntity
  8
SUNPOU
 62
     1
100
AcDbLine
 10
-1378.999595950384
 20
1728.664377426555
 30
0.0
 11
-1378.999595950384
 21
1703.512111696274
 31
0.0
  0
LINE
  5
13972
330
137BE
100
AcDbEntity
  8
SUNPOU
 62
     1
100
AcDbLine
 10
-1376.999585950384
 20
1721.664415426556
 30
0.0
 11
-1376.999585950384
 21
1703.512111696274
 31
0.0
  0
LINE
  5
13973
330
137BE
100
AcDbEntity
  8
SUNPOU
 62
     1
100
AcDbLine
 10
-1381.999595950384
 20
1704.012111696274
 30
0.0
 11
-1384.999595950384
 21
1704.012111696274
 31
0.0
  0
LINE
  5
13974
330
137BE
100
AcDbEntity
  8
SUNPOU
 62
     1
100
AcDbLine
 10
-1373.999585950384
 20
1704.012111696274
 30
0.0
 11
-1370.999585950384
 21
1704.012111696274
 31
0.0
  0
MTEXT
  5
13975
330
137BE
100
AcDbEntity
  8
SUNPOU
 62
     1
100
AcDbMText
 10
-1382.74745491606
 20
1705.58427902832
 30
0.0
 40
3.5
 41
0.0
 71
     5
 72
     1
  1
\A1;2
  7
ゴシック体
  0
LINE
  5
13976
330
137BE
100
AcDbEntity
  8
SUNPOU
 62
     1
100
AcDbLine
 10
-1378.999595950384
 20
1704.012111696274
 30
0.0
 11
-1376.999585950384
 21
1704.012111696274
 31
0.0
  0
SOLID
  5
13977
330
137BE
100
AcDbEntity
  8
SUNPOU
 62
     1
100
AcDbTrace
 10
-1381.999595950384
 20
1704.512111696273
 30
0.0
 11
-1381.999595950384
 21
1703.512111696274
 31
0.0
 12
-1378.999595950384
 22
1704.012111696274
 32
0.0
 13
-1378.999595950384
 23
1704.012111696274
 33
0.0
  0
SOLID
  5
13978
330
137BE
100
AcDbEntity
  8
SUNPOU
 62
     1
100
AcDbTrace
 10
-1373.999585950384
 20
1704.512111696273
 30
0.0
 11
-1373.999585950384
 21
1703.512111696274
 31
0.0
 12
-1376.999585950384
 22
1704.012111696274
 32
0.0
 13
-1376.999585950384
 23
1704.012111696274
 33
0.0
  0
POINT
  5
13979
330
137BE
100
AcDbEntity
  8
DEFPOINTS
 62
     0
100
AcDbPoint
 10
-1378.999595950384
 20
1729.164377426556
 30
0.0
  0
POINT
  5
1397A
330
137BE
100
AcDbEntity
  8
DEFPOINTS
 62
     0
100
AcDbPoint
 10
-1376.999585950384
 20
1722.164415426556
 30
0.0
  0
POINT
  5
1397B
330
137BE
100
AcDbEntity
  8
DEFPOINTS
 62
     0
100
AcDbPoint
 10
-1376.999585950384
 20
1704.012111696274
 30
0.0
  0
ENDBLK
  5
137CB
330
137BE
100
AcDbEntity
  8
0
100
AcDbBlockEnd
  0
BLOCK
  5
137E2
330
137D8
100
AcDbEntity
  8
0
100
AcDbBlockBegin
  2
*D25
 70
     1
 10
0.0
 20
0.0
 30
0.0
  3
*D25
  1

  0
LINE
  5
137D9
330
137D8
100
AcDbEntity
  8
SUNPOU
 62
     1
100
AcDbLine
 10
-1376.999585950384
 20
1721.164415426556
 30
0.0
 11
-1376.999585950384
 21
1703.512111696274
 31
0.0
  0
LINE
  5
137DA
330
137D8
100
AcDbEntity
  8
SUNPOU
 62
     1
100
AcDbLine
 10
-1364.999595950384
 20
1721.664415426556
 30
0.0
 11
-1364.999595950384
 21
1703.512111696274
 31
0.0
  0
LINE
  5
137DB
330
137D8
100
AcDbEntity
  8
SUNPOU
 62
     1
100
AcDbLine
 10
-1373.999585950384
 20
1704.012111696274
 30
0.0
 11
-1367.999595950384
 21
1704.012111696274
 31
0.0
  0
SOLID
  5
137DC
330
137D8
100
AcDbEntity
  8
SUNPOU
 62
     1
100
AcDbTrace
 10
-1373.999585950384
 20
1704.512111696273
 30
0.0
 11
-1373.999585950384
 21
1703.512111696274
 31
0.0
 12
-1376.999585950384
 22
1704.012111696274
 32
0.0
 13
-1376.999585950384
 23
1704.012111696274
 33
0.0
  0
SOLID
  5
137DD
330
137D8
100
AcDbEntity
  8
SUNPOU
 62
     1
100
AcDbTrace
 10
-1367.999595950384
 20
1704.512111696273
 30
0.0
 11
-1367.999595950384
 21
1703.512111696274
 31
0.0
 12
-1364.999595950384
 22
1704.012111696274
 32
0.0
 13
-1364.999595950384
 23
1704.012111696274
 33
0.0
  0
MTEXT
  5
137DE
330
137D8
100
AcDbEntity
  8
SUNPOU
 62
     1
100
AcDbMText
 10
-1370.999590950384
 20
1706.762111696274
 30
0.0
 40
3.5
 41
0.0
 71
     5
 72
     1
  1
\A1;12
  7
ゴシック体
1001
ACAD
1000
MTEXTBEGIN
1070
    73
1070
     1
1070
    44
1040
1.0
1070
    74
1070
     0
1000
MTEXTEND
  0
POINT
  5
137DF
330
137D8
100
AcDbEntity
  8
DEFPOINTS
 62
     0
100
AcDbPoint
 10
-1376.999585950384
 20
1721.664415426556
 30
0.0
  0
POINT
  5
137E0
330
137D8
100
AcDbEntity
  8
DEFPOINTS
 62
     0
100
AcDbPoint
 10
-1364.999595950384
 20
1722.164415426556
 30
0.0
  0
POINT
  5
137E1
330
137D8
100
AcDbEntity
  8
DEFPOINTS
 62
     0
100
AcDbPoint
 10
-1364.999595950384
 20
1704.012111696274
 30
0.0
  0
ENDBLK
  5
137E3
330
137D8
100
AcDbEntity
  8
0
100
AcDbBlockEnd
  0
BLOCK
  5
137EE
330
137E5
100
AcDbEntity
  8
0
100
AcDbBlockBegin
  2
*D26
 70
     1
 10
0.0
 20
0.0
 30
0.0
  3
*D26
  1

  0
LINE
  5
137E6
330
137E5
100
AcDbEntity
  8
SUNPOU
 62
     1
100
AcDbLine
 10
-1204.999615950384
 20
1721.664415426556
 30
0.0
 11
-1204.999615950384
 21
1703.512111696274
 31
0.0
  0
LINE
  5
137E7
330
137E5
100
AcDbEntity
  8
SUNPOU
 62
     1
100
AcDbLine
 10
-1361.999595950384
 20
1704.012111696274
 30
0.0
 11
-1207.999615950384
 21
1704.012111696274
 31
0.0
  0
SOLID
  5
137E8
330
137E5
100
AcDbEntity
  8
SUNPOU
 62
     1
100
AcDbTrace
 10
-1361.999595950384
 20
1704.512111696273
 30
0.0
 11
-1361.999595950384
 21
1703.512111696274
 31
0.0
 12
-1364.999595950384
 22
1704.012111696274
 32
0.0
 13
-1364.999595950384
 23
1704.012111696274
 33
0.0
  0
SOLID
  5
137E9
330
137E5
100
AcDbEntity
  8
SUNPOU
 62
     1
100
AcDbTrace
 10
-1207.999615950384
 20
1704.512111696273
 30
0.0
 11
-1207.999615950384
 21
1703.512111696274
 31
0.0
 12
-1204.999615950384
 22
1704.012111696274
 32
0.0
 13
-1204.999615950384
 23
1704.012111696274
 33
0.0
  0
MTEXT
  5
137EA
330
137E5
100
AcDbEntity
  8
SUNPOU
 62
     1
100
AcDbMText
 10
-1284.999605950384
 20
1706.762111696274
 30
0.0
 40
3.5
 41
0.0
 71
     5
 72
     1
  1
\A1;160
  7
ゴシック体
1001
ACAD
1000
MTEXTBEGIN
1070
    73
1070
     1
1070
    44
1040
1.0
1070
    74
1070
     0
1000
MTEXTEND
  0
POINT
  5
137EB
330
137E5
100
AcDbEntity
  8
DEFPOINTS
 62
     0
100
AcDbPoint
 10
-1364.999595950384
 20
1704.012111696274
 30
0.0
  0
POINT
  5
137EC
330
137E5
100
AcDbEntity
  8
DEFPOINTS
 62
     0
100
AcDbPoint
 10
-1204.999615950384
 20
1722.164415426556
 30
0.0
  0
POINT
  5
137ED
330
137E5
100
AcDbEntity
  8
DEFPOINTS
 62
     0
100
AcDbPoint
 10
-1204.999615950384
 20
1704.012111696274
 30
0.0
  0
ENDBLK
  5
137EF
330
137E5
100
AcDbEntity
  8
0
100
AcDbBlockEnd
  0
BLOCK
  5
137FA
330
137F1
100
AcDbEntity
  8
0
100
AcDbBlockBegin
  2
*D27
 70
     1
 10
0.0
 20
0.0
 30
0.0
  3
*D27
  1

  0
LINE
  5
137F2
330
137F1
100
AcDbEntity
  8
SUNPOU
 62
     1
100
AcDbLine
 10
-1192.999625950384
 20
1721.664402426556
 30
0.0
 11
-1192.999625950384
 21
1703.512111696274
 31
0.0
  0
LINE
  5
137F3
330
137F1
100
AcDbEntity
  8
SUNPOU
 62
     1
100
AcDbLine
 10
-1201.999615950384
 20
1704.012111696274
 30
0.0
 11
-1195.999625950384
 21
1704.012111696274
 31
0.0
  0
SOLID
  5
137F4
330
137F1
100
AcDbEntity
  8
SUNPOU
 62
     1
100
AcDbTrace
 10
-1201.999615950384
 20
1704.512111696273
 30
0.0
 11
-1201.999615950384
 21
1703.512111696274
 31
0.0
 12
-1204.999615950384
 22
1704.012111696274
 32
0.0
 13
-1204.999615950384
 23
1704.012111696274
 33
0.0
  0
SOLID
  5
137F5
330
137F1
100
AcDbEntity
  8
SUNPOU
 62
     1
100
AcDbTrace
 10
-1195.999625950384
 20
1704.512111696273
 30
0.0
 11
-1195.999625950384
 21
1703.512111696274
 31
0.0
 12
-1192.999625950384
 22
1704.012111696274
 32
0.0
 13
-1192.999625950384
 23
1704.012111696274
 33
0.0
  0
MTEXT
  5
137F6
330
137F1
100
AcDbEntity
  8
SUNPOU
 62
     1
100
AcDbMText
 10
-1198.999620950384
 20
1706.762111696274
 30
0.0
 40
3.5
 41
0.0
 71
     5
 72
     1
  1
\A1;12
  7
ゴシック体
1001
ACAD
1000
MTEXTBEGIN
1070
    73
1070
     1
1070
    44
1040
1.0
1070
    74
1070
     0
1000
MTEXTEND
  0
POINT
  5
137F7
330
137F1
100
AcDbEntity
  8
DEFPOINTS
 62
     0
100
AcDbPoint
 10
-1204.999615950384
 20
1704.012111696274
 30
0.0
  0
POINT
  5
137F8
330
137F1
100
AcDbEntity
  8
DEFPOINTS
 62
     0
100
AcDbPoint
 10
-1192.999625950384
 20
1722.164402426556
 30
0.0
  0
POINT
  5
137F9
330
137F1
100
AcDbEntity
  8
DEFPOINTS
 62
     0
100
AcDbPoint
 10
-1192.999625950384
 20
1704.012111696274
 30
0.0
  0
ENDBLK
  5
137FB
330
137F1
100
AcDbEntity
  8
0
100
AcDbBlockEnd
  0
BLOCK
  5
13807
330
137FD
100
AcDbEntity
  8
0
100
AcDbBlockBegin
  2
*D28
 70
     1
 10
0.0
 20
0.0
 30
0.0
  3
*D28
  1

  0
LINE
  5
137FE
330
137FD
100
AcDbEntity
  8
SUNPOU
 62
     1
100
AcDbLine
 10
-1192.499625950384
 20
1722.164415426556
 30
0.0
 11
-1178.509459512135
 21
1722.164415426556
 31
0.0
  0
LINE
  5
137FF
330
137FD
100
AcDbEntity
  8
SUNPOU
 62
     1
100
AcDbLine
 10
-1213.499595950384
 20
1732.164407426556
 30
0.0
 11
-1178.509459512135
 21
1732.164407426556
 31
0.0
  0
LINE
  5
13800
330
137FD
100
AcDbEntity
  8
SUNPOU
 62
     1
100
AcDbLine
 10
-1179.009459512135
 20
1725.164415426556
 30
0.0
 11
-1179.009459512135
 21
1729.164407426556
 31
0.0
  0
SOLID
  5
13801
330
137FD
100
AcDbEntity
  8
SUNPOU
 62
     1
100
AcDbTrace
 10
-1179.509459512136
 20
1725.164415426556
 30
0.0
 11
-1178.509459512135
 21
1725.164415426556
 31
0.0
 12
-1179.009459512135
 22
1722.164415426556
 32
0.0
 13
-1179.009459512135
 23
1722.164415426556
 33
0.0
  0
SOLID
  5
13802
330
137FD
100
AcDbEntity
  8
SUNPOU
 62
     1
100
AcDbTrace
 10
-1179.509459512136
 20
1729.164407426556
 30
0.0
 11
-1178.509459512135
 21
1729.164407426556
 31
0.0
 12
-1179.009459512135
 22
1732.164407426556
 32
0.0
 13
-1179.009459512135
 23
1732.164407426556
 33
0.0
  0
MTEXT
  5
13803
330
137FD
100
AcDbEntity
  8
SUNPOU
 62
     1
100
AcDbMText
 10
-1181.759459512137
 20
1727.164411426556
 30
0.0
 40
3.5
 41
0.0
 71
     5
 72
     1
  1
\A1;10
  7
ゴシック体
 11
0.0000000000000001
 21
1.0
 31
0.0
1001
ACAD
1000
MTEXTBEGIN
1070
    73
1070
     1
1070
    44
1040
1.0
1070
    74
1070
     0
1000
MTEXTEND
  0
POINT
  5
13804
330
137FD
100
AcDbEntity
  8
DEFPOINTS
 62
     0
100
AcDbPoint
 10
-1192.999625950384
 20
1722.164415426556
 30
0.0
  0
POINT
  5
13805
330
137FD
100
AcDbEntity
  8
DEFPOINTS
 62
     0
100
AcDbPoint
 10
-1213.999595950384
 20
1732.164407426556
 30
0.0
  0
POINT
  5
13806
330
137FD
100
AcDbEntity
  8
DEFPOINTS
 62
     0
100
AcDbPoint
 10
-1179.009459512135
 20
1732.164407426556
 30
0.0
  0
ENDBLK
  5
13808
330
137FD
100
AcDbEntity
  8
0
100
AcDbBlockEnd
  0
BLOCK
  5
13820
330
13817
100
AcDbEntity
  8
0
100
AcDbBlockBegin
  2
*D29
 70
     1
 10
0.0
 20
0.0
 30
0.0
  3
*D29
  1

  0
LINE
  5
13818
330
13817
100
AcDbEntity
  8
SUNPOU
 62
     1
100
AcDbLine
 10
-1349.499595950383
 20
1847.164397426556
 30
0.0
 11
-1178.509459512135
 21
1847.164397426556
 31
0.0
  0
LINE
  5
13819
330
13817
100
AcDbEntity
  8
SUNPOU
 62
     1
100
AcDbLine
 10
-1179.009459512135
 20
1735.164407426556
 30
0.0
 11
-1179.009459512135
 21
1844.164397426555
 31
0.0
  0
SOLID
  5
1381A
330
13817
100
AcDbEntity
  8
SUNPOU
 62
     1
100
AcDbTrace
 10
-1179.509459512136
 20
1735.164407426556
 30
0.0
 11
-1178.509459512135
 21
1735.164407426556
 31
0.0
 12
-1179.009459512135
 22
1732.164407426556
 32
0.0
 13
-1179.009459512135
 23
1732.164407426556
 33
0.0
  0
SOLID
  5
1381B
330
13817
100
AcDbEntity
  8
SUNPOU
 62
     1
100
AcDbTrace
 10
-1179.509459512136
 20
1844.164397426555
 30
0.0
 11
-1178.509459512135
 21
1844.164397426555
 31
0.0
 12
-1179.009459512135
 22
1847.164397426556
 32
0.0
 13
-1179.009459512135
 23
1847.164397426556
 33
0.0
  0
MTEXT
  5
1381C
330
13817
100
AcDbEntity
  8
SUNPOU
 62
     1
100
AcDbMText
 10
-1181.759459512137
 20
1789.664402426556
 30
0.0
 40
3.5
 41
0.0
 71
     5
 72
     1
  1
\A1;115
  7
ゴシック体
 11
0.0000000000000001
 21
1.0
 31
0.0
1001
ACAD
1000
MTEXTBEGIN
1070
    73
1070
     1
1070
    44
1040
1.0
1070
    74
1070
     0
1000
MTEXTEND
  0
POINT
  5
1381D
330
13817
100
AcDbEntity
  8
DEFPOINTS
 62
     0
100
AcDbPoint
 10
-1179.009459512135
 20
1732.164407426556
 30
0.0
  0
POINT
  5
1381E
330
13817
100
AcDbEntity
  8
DEFPOINTS
 62
     0
100
AcDbPoint
 10
-1349.999595950384
 20
1847.164397426556
 30
0.0
  0
POINT
  5
1381F
330
13817
100
AcDbEntity
  8
DEFPOINTS
 62
     0
100
AcDbPoint
 10
-1179.009459512135
 20
1847.164397426556
 30
0.0
  0
ENDBLK
  5
13821
330
13817
100
AcDbEntity
  8
0
100
AcDbBlockEnd
  0
BLOCK
  5
1383C
330
13832
100
AcDbEntity
  8
0
100
AcDbBlockBegin
  2
*D30
 70
     1
 10
0.0
 20
0.0
 30
0.0
  3
*D30
  1

  0
LINE
  5
13833
330
13832
100
AcDbEntity
  8
SUNPOU
 62
     1
100
AcDbLine
 10
-1352.999605950384
 20
1849.164397426556
 30
0.0
 11
-1352.999605950384
 21
1866.636557331408
 31
0.0
  0
LINE
  5
13834
330
13832
100
AcDbEntity
  8
SUNPOU
 62
     1
100
AcDbLine
 10
-1216.999605950384
 20
1735.664407426556
 30
0.0
 11
-1216.999605950384
 21
1866.636557331408
 31
0.0
  0
LINE
  5
13835
330
13832
100
AcDbEntity
  8
SUNPOU
 62
     1
100
AcDbLine
 10
-1349.999605950384
 20
1866.136557331408
 30
0.0
 11
-1219.999605950384
 21
1866.136557331408
 31
0.0
  0
SOLID
  5
13836
330
13832
100
AcDbEntity
  8
SUNPOU
 62
     1
100
AcDbTrace
 10
-1349.999605950384
 20
1866.636557331408
 30
0.0
 11
-1349.999605950384
 21
1865.636557331407
 31
0.0
 12
-1352.999605950384
 22
1866.136557331408
 32
0.0
 13
-1352.999605950384
 23
1866.136557331408
 33
0.0
  0
SOLID
  5
13837
330
13832
100
AcDbEntity
  8
SUNPOU
 62
     1
100
AcDbTrace
 10
-1219.999605950384
 20
1866.636557331408
 30
0.0
 11
-1219.999605950384
 21
1865.636557331407
 31
0.0
 12
-1216.999605950384
 22
1866.136557331408
 32
0.0
 13
-1216.999605950384
 23
1866.136557331408
 33
0.0
  0
MTEXT
  5
13838
330
13832
100
AcDbEntity
  8
SUNPOU
 62
     1
100
AcDbMText
 10
-1284.999605950384
 20
1868.886557331408
 30
0.0
 40
3.5
 41
0.0
 71
     5
 72
     1
  1
\A1;136
  7
ゴシック体
1001
ACAD
1000
MTEXTBEGIN
1070
    73
1070
     1
1070
    44
1040
1.0
1070
    74
1070
     0
1000
MTEXTEND
  0
POINT
  5
13839
330
13832
100
AcDbEntity
  8
DEFPOINTS
 62
     0
100
AcDbPoint
 10
-1352.999605950384
 20
1848.664397426556
 30
0.0
  0
POINT
  5
1383A
330
13832
100
AcDbEntity
  8
DEFPOINTS
 62
     0
100
AcDbPoint
 10
-1216.999605950384
 20
1735.164407426556
 30
0.0
  0
POINT
  5
1383B
330
13832
100
AcDbEntity
  8
DEFPOINTS
 62
     0
100
AcDbPoint
 10
-1216.999605950384
 20
1866.136557331408
 30
0.0
  0
ENDBLK
  5
1383D
330
13832
100
AcDbEntity
  8
0
100
AcDbBlockEnd
  0
BLOCK
  5
13849
330
1383F
100
AcDbEntity
  8
0
100
AcDbBlockBegin
  2
*D31
 70
     1
 10
0.0
 20
0.0
 30
0.0
  3
*D31
  1

  0
LINE
  5
13840
330
1383F
100
AcDbEntity
  8
SUNPOU
 62
     1
100
AcDbLine
 10
-1205.206725950384
 20
1887.326577426556
 30
0.0
 11
-1178.509459512135
 21
1887.326577426556
 31
0.0
  0
LINE
  5
13841
330
1383F
100
AcDbEntity
  8
SUNPOU
 62
     1
100
AcDbLine
 10
-1198.499625950384
 20
1900.826577426555
 30
0.0
 11
-1178.509459512135
 21
1900.826577426555
 31
0.0
  0
LINE
  5
13842
330
1383F
100
AcDbEntity
  8
SUNPOU
 62
     1
100
AcDbLine
 10
-1179.009459512135
 20
1890.326577426556
 30
0.0
 11
-1179.009459512135
 21
1897.826577426556
 31
0.0
  0
SOLID
  5
13843
330
1383F
100
AcDbEntity
  8
SUNPOU
 62
     1
100
AcDbTrace
 10
-1179.509459512136
 20
1890.326577426556
 30
0.0
 11
-1178.509459512135
 21
1890.326577426556
 31
0.0
 12
-1179.009459512135
 22
1887.326577426556
 32
0.0
 13
-1179.009459512135
 23
1887.326577426556
 33
0.0
  0
SOLID
  5
13844
330
1383F
100
AcDbEntity
  8
SUNPOU
 62
     1
100
AcDbTrace
 10
-1179.509459512136
 20
1897.826577426556
 30
0.0
 11
-1178.509459512135
 21
1897.826577426556
 31
0.0
 12
-1179.009459512135
 22
1900.826577426555
 32
0.0
 13
-1179.009459512135
 23
1900.826577426555
 33
0.0
  0
MTEXT
  5
13845
330
1383F
100
AcDbEntity
  8
SUNPOU
 62
     1
100
AcDbMText
 10
-1181.759459512136
 20
1894.076577426556
 30
0.0
 40
3.5
 41
0.0
 71
     5
 72
     1
  1
\A1;13.5
  7
ゴシック体
 11
0.0000000000000001
 21
1.0
 31
0.0
1001
ACAD
1000
MTEXTBEGIN
1070
    73
1070
     1
1070
    44
1040
1.0
1070
    74
1070
     0
1000
MTEXTEND
  0
POINT
  5
13846
330
1383F
100
AcDbEntity
  8
DEFPOINTS
 62
     0
100
AcDbPoint
 10
-1205.706725950384
 20
1887.326577426556
 30
0.0
  0
POINT
  5
13847
330
1383F
100
AcDbEntity
  8
DEFPOINTS
 62
     0
100
AcDbPoint
 10
-1198.999625950384
 20
1900.826577426555
 30
0.0
  0
POINT
  5
13848
330
1383F
100
AcDbEntity
  8
DEFPOINTS
 62
     0
100
AcDbPoint
 10
-1179.009459512135
 20
1900.826577426555
 30
0.0
  0
ENDBLK
  5
1384A
330
1383F
100
AcDbEntity
  8
0
100
AcDbBlockEnd
  0
BLOCK
  5
13856
330
1384C
100
AcDbEntity
  8
0
100
AcDbBlockBegin
  2
*D32
 70
     1
 10
0.0
 20
0.0
 30
0.0
  3
*D32
  1

  0
LINE
  5
1384D
330
1384C
100
AcDbEntity
  8
SUNPOU
 62
     1
100
AcDbLine
 10
-1195.999615950384
 20
1900.826577426555
 30
0.0
 11
-1178.509459512135
 21
1900.826577426555
 31
0.0
  0
LINE
  5
1384E
330
1384C
100
AcDbEntity
  8
SUNPOU
 62
     1
100
AcDbLine
 10
-1195.999615950384
 20
1920.826567426556
 30
0.0
 11
-1178.509459512135
 21
1920.826567426556
 31
0.0
  0
LINE
  5
1384F
330
1384C
100
AcDbEntity
  8
SUNPOU
 62
     1
100
AcDbLine
 10
-1179.009459512135
 20
1903.826577426556
 30
0.0
 11
-1179.009459512135
 21
1917.826567426556
 31
0.0
  0
SOLID
  5
13850
330
1384C
100
AcDbEntity
  8
SUNPOU
 62
     1
100
AcDbTrace
 10
-1179.509459512136
 20
1903.826577426556
 30
0.0
 11
-1178.509459512135
 21
1903.826577426556
 31
0.0
 12
-1179.009459512135
 22
1900.826577426555
 32
0.0
 13
-1179.009459512135
 23
1900.826577426555
 33
0.0
  0
SOLID
  5
13851
330
1384C
100
AcDbEntity
  8
SUNPOU
 62
     1
100
AcDbTrace
 10
-1179.509459512136
 20
1917.826567426556
 30
0.0
 11
-1178.509459512135
 21
1917.826567426556
 31
0.0
 12
-1179.009459512135
 22
1920.826567426556
 32
0.0
 13
-1179.009459512135
 23
1920.826567426556
 33
0.0
  0
MTEXT
  5
13852
330
1384C
100
AcDbEntity
  8
SUNPOU
 62
     1
100
AcDbMText
 10
-1181.759459512136
 20
1910.826572426556
 30
0.0
 40
3.5
 41
0.0
 71
     5
 72
     1
  1
\A1;20
  7
ゴシック体
 11
0.0000000000000001
 21
1.0
 31
0.0
1001
ACAD
1000
MTEXTBEGIN
1070
    73
1070
     1
1070
    44
1040
1.0
1070
    74
1070
     0
1000
MTEXTEND
  0
POINT
  5
13853
330
1384C
100
AcDbEntity
  8
DEFPOINTS
 62
     0
100
AcDbPoint
 10
-1196.499615950384
 20
1900.826577426555
 30
0.0
  0
POINT
  5
13854
330
1384C
100
AcDbEntity
  8
DEFPOINTS
 62
     0
100
AcDbPoint
 10
-1196.499615950384
 20
1920.826567426556
 30
0.0
  0
POINT
  5
13855
330
1384C
100
AcDbEntity
  8
DEFPOINTS
 62
     0
100
AcDbPoint
 10
-1179.009459512135
 20
1920.826567426556
 30
0.0
  0
ENDBLK
  5
13857
330
1384C
100
AcDbEntity
  8
0
100
AcDbBlockEnd
  0
BLOCK
  5
13862
330
13859
100
AcDbEntity
  8
0
100
AcDbBlockBegin
  2
*D33
 70
     1
 10
0.0
 20
0.0
 30
0.0
  3
*D33
  1

  0
LINE
  5
1385A
330
13859
100
AcDbEntity
  8
SUNPOU
 62
     1
100
AcDbLine
 10
-1204.499615950384
 20
1935.326587426556
 30
0.0
 11
-1178.509459512135
 21
1935.326587426556
 31
0.0
  0
LINE
  5
1385B
330
13859
100
AcDbEntity
  8
SUNPOU
 62
     1
100
AcDbLine
 10
-1179.009459512135
 20
1923.826567426555
 30
0.0
 11
-1179.009459512135
 21
1932.326587426556
 31
0.0
  0
SOLID
  5
1385C
330
13859
100
AcDbEntity
  8
SUNPOU
 62
     1
100
AcDbTrace
 10
-1179.509459512136
 20
1923.826567426555
 30
0.0
 11
-1178.509459512135
 21
1923.826567426555
 31
0.0
 12
-1179.009459512135
 22
1920.826567426556
 32
0.0
 13
-1179.009459512135
 23
1920.826567426556
 33
0.0
  0
SOLID
  5
1385D
330
13859
100
AcDbEntity
  8
SUNPOU
 62
     1
100
AcDbTrace
 10
-1179.509459512136
 20
1932.326587426556
 30
0.0
 11
-1178.509459512135
 21
1932.326587426556
 31
0.0
 12
-1179.009459512135
 22
1935.326587426556
 32
0.0
 13
-1179.009459512135
 23
1935.326587426556
 33
0.0
  0
MTEXT
  5
1385E
330
13859
100
AcDbEntity
  8
SUNPOU
 62
     1
100
AcDbMText
 10
-1181.759459512136
 20
1928.076577426556
 30
0.0
 40
3.5
 41
0.0
 71
     5
 72
     1
  1
\A1;14.5
  7
ゴシック体
 11
0.0000000000000001
 21
1.0
 31
0.0
1001
ACAD
1000
MTEXTBEGIN
1070
    73
1070
     1
1070
    44
1040
1.0
1070
    74
1070
     0
1000
MTEXTEND
  0
POINT
  5
1385F
330
13859
100
AcDbEntity
  8
DEFPOINTS
 62
     0
100
AcDbPoint
 10
-1179.009459512135
 20
1920.826567426556
 30
0.0
  0
POINT
  5
13860
330
13859
100
AcDbEntity
  8
DEFPOINTS
 62
     0
100
AcDbPoint
 10
-1204.999615950384
 20
1935.326587426556
 30
0.0
  0
POINT
  5
13861
330
13859
100
AcDbEntity
  8
DEFPOINTS
 62
     0
100
AcDbPoint
 10
-1179.009459512135
 20
1935.326587426556
 30
0.0
  0
ENDBLK
  5
13863
330
13859
100
AcDbEntity
  8
0
100
AcDbBlockEnd
  0
BLOCK
  5
13870
330
13865
100
AcDbEntity
  8
0
100
AcDbBlockBegin
  2
*D34
 70
     1
 10
0.0
 20
0.0
 30
0.0
  3
*D34
  1

  0
LINE
  5
13866
330
13865
100
AcDbEntity
  8
SUNPOU
 62
     1
100
AcDbLine
 10
-1239.999615950384
 20
1938.326597426556
 30
0.0
 11
-1178.509459512135
 21
1938.326597426556
 31
0.0
  0
LINE
  5
13867
330
13865
100
AcDbEntity
  8
SUNPOU
 62
     1
100
AcDbLine
 10
-1179.009459512135
 20
1932.326587426556
 30
0.0
 11
-1179.009459512135
 21
1929.326587426556
 31
0.0
  0
LINE
  5
13868
330
13865
100
AcDbEntity
  8
SUNPOU
 62
     1
100
AcDbLine
 10
-1179.009459512135
 20
1941.326597426556
 30
0.0
 11
-1179.009459512135
 21
1948.138780167673
 31
0.0
  0
LINE
  5
13869
330
13865
100
AcDbEntity
  8
SUNPOU
 62
     1
100
AcDbLine
 10
-1179.009459512135
 20
1935.326587426556
 30
0.0
 11
-1179.009459512135
 21
1938.326597426556
 31
0.0
  0
SOLID
  5
1386A
330
13865
100
AcDbEntity
  8
SUNPOU
 62
     1
100
AcDbTrace
 10
-1179.509459512136
 20
1932.326587426556
 30
0.0
 11
-1178.509459512135
 21
1932.326587426556
 31
0.0
 12
-1179.009459512135
 22
1935.326587426556
 32
0.0
 13
-1179.009459512135
 23
1935.326587426556
 33
0.0
  0
SOLID
  5
1386B
330
13865
100
AcDbEntity
  8
SUNPOU
 62
     1
100
AcDbTrace
 10
-1179.509459512136
 20
1941.326597426556
 30
0.0
 11
-1178.509459512135
 21
1941.326597426556
 31
0.0
 12
-1179.009459512135
 22
1938.326597426556
 32
0.0
 13
-1179.009459512135
 23
1938.326597426556
 33
0.0
  0
MTEXT
  5
1386C
330
13865
100
AcDbEntity
  8
SUNPOU
 62
     1
100
AcDbMText
 10
-1181.759459512136
 20
1946.232688797114
 30
0.0
 40
3.5
 41
0.0
 71
     5
 72
     1
  1
\A1;3
  7
ゴシック体
 11
0.0000000000000001
 21
1.0
 31
0.0
1001
ACAD
1000
MTEXTBEGIN
1070
    73
1070
     1
1070
    44
1040
1.0
1070
    74
1070
     0
1000
MTEXTEND
  0
POINT
  5
1386D
330
13865
100
AcDbEntity
  8
DEFPOINTS
 62
     0
100
AcDbPoint
 10
-1179.009459512135
 20
1935.326587426556
 30
0.0
  0
POINT
  5
1386E
330
13865
100
AcDbEntity
  8
DEFPOINTS
 62
     0
100
AcDbPoint
 10
-1240.499615950384
 20
1938.326597426556
 30
0.0
  0
POINT
  5
1386F
330
13865
100
AcDbEntity
  8
DEFPOINTS
 62
     0
100
AcDbPoint
 10
-1179.009459512135
 20
1938.326597426556
 30
0.0
  0
ENDBLK
  5
13871
330
13865
100
AcDbEntity
  8
0
100
AcDbBlockEnd
  0
BLOCK
  5
1387F
330
13873
100
AcDbEntity
  8
0
100
AcDbBlockBegin
  2
*D35
 70
     1
 10
0.0
 20
0.0
 30
0.0
  3
*D35
  1

  0
LINE
  5
13874
330
13873
100
AcDbEntity
  8
SUNPOU
 62
     1
100
AcDbLine
 10
-1376.999585950384
 20
1931.412367426556
 30
0.0
 11
-1376.999585950384
 21
1951.538380610125
 31
0.0
  0
LINE
  5
13875
330
13873
100
AcDbEntity
  8
SUNPOU
 62
     1
100
AcDbLine
 10
-1370.999595950384
 20
1921.326567426556
 30
0.0
 11
-1370.999595950384
 21
1951.538380610125
 31
0.0
  0
LINE
  5
13876
330
13873
100
AcDbEntity
  8
SUNPOU
 62
     1
100
AcDbLine
 10
-1379.999585950383
 20
1951.038380610125
 30
0.0
 11
-1382.999585950384
 21
1951.038380610125
 31
0.0
  0
LINE
  5
13877
330
13873
100
AcDbEntity
  8
SUNPOU
 62
     1
100
AcDbLine
 10
-1367.999595950384
 20
1951.038380610125
 30
0.0
 11
-1364.999595950384
 21
1951.038380610125
 31
0.0
  0
LINE
  5
13878
330
13873
100
AcDbEntity
  8
SUNPOU
 62
     1
100
AcDbLine
 10
-1376.999585950384
 20
1951.038380610125
 30
0.0
 11
-1370.999595950384
 21
1951.038380610125
 31
0.0
  0
SOLID
  5
13879
330
13873
100
AcDbEntity
  8
SUNPOU
 62
     1
100
AcDbTrace
 10
-1379.999585950383
 20
1951.538380610125
 30
0.0
 11
-1379.999585950383
 21
1950.538380610125
 31
0.0
 12
-1376.999585950384
 22
1951.038380610125
 32
0.0
 13
-1376.999585950384
 23
1951.038380610125
 33
0.0
  0
SOLID
  5
1387A
330
13873
100
AcDbEntity
  8
SUNPOU
 62
     1
100
AcDbTrace
 10
-1367.999595950384
 20
1951.538380610125
 30
0.0
 11
-1367.999595950384
 21
1950.538380610125
 31
0.0
 12
-1370.999595950384
 22
1951.038380610125
 32
0.0
 13
-1370.999595950384
 23
1951.038380610125
 33
0.0
  0
MTEXT
  5
1387B
330
13873
100
AcDbEntity
  8
SUNPOU
 62
     1
100
AcDbMText
 10
-1373.999590950384
 20
1953.788380610125
 30
0.0
 40
3.5
 41
0.0
 71
     5
 72
     1
  1
\A1;6
  7
ゴシック体
1001
ACAD
1000
MTEXTBEGIN
1070
    73
1070
     1
1070
    44
1040
1.0
1070
    74
1070
     0
1000
MTEXTEND
  0
POINT
  5
1387C
330
13873
100
AcDbEntity
  8
DEFPOINTS
 62
     0
100
AcDbPoint
 10
-1376.999585950384
 20
1930.912367426556
 30
0.0
  0
POINT
  5
1387D
330
13873
100
AcDbEntity
  8
DEFPOINTS
 62
     0
100
AcDbPoint
 10
-1370.999595950384
 20
1920.826567426556
 30
0.0
  0
POINT
  5
1387E
330
13873
100
AcDbEntity
  8
DEFPOINTS
 62
     0
100
AcDbPoint
 10
-1370.999595950384
 20
1951.038380610125
 30
0.0
  0
ENDBLK
  5
13880
330
13873
100
AcDbEntity
  8
0
100
AcDbBlockEnd
  0
BLOCK
  5
1388B
330
13882
100
AcDbEntity
  8
0
100
AcDbBlockBegin
  2
*D36
 70
     1
 10
0.0
 20
0.0
 30
0.0
  3
*D36
  1

  0
LINE
  5
13883
330
13882
100
AcDbEntity
  8
SUNPOU
 62
     1
100
AcDbLine
 10
-1198.999625950384
 20
1921.326567426556
 30
0.0
 11
-1198.999625950384
 21
1951.538380610125
 31
0.0
  0
LINE
  5
13884
330
13882
100
AcDbEntity
  8
SUNPOU
 62
     1
100
AcDbLine
 10
-1367.999595950384
 20
1951.038380610125
 30
0.0
 11
-1201.999625950384
 21
1951.038380610125
 31
0.0
  0
SOLID
  5
13885
330
13882
100
AcDbEntity
  8
SUNPOU
 62
     1
100
AcDbTrace
 10
-1367.999595950384
 20
1951.538380610125
 30
0.0
 11
-1367.999595950384
 21
1950.538380610125
 31
0.0
 12
-1370.999595950384
 22
1951.038380610125
 32
0.0
 13
-1370.999595950384
 23
1951.038380610125
 33
0.0
  0
SOLID
  5
13886
330
13882
100
AcDbEntity
  8
SUNPOU
 62
     1
100
AcDbTrace
 10
-1201.999625950384
 20
1951.538380610125
 30
0.0
 11
-1201.999625950384
 21
1950.538380610125
 31
0.0
 12
-1198.999625950384
 22
1951.038380610125
 32
0.0
 13
-1198.999625950384
 23
1951.038380610125
 33
0.0
  0
MTEXT
  5
13887
330
13882
100
AcDbEntity
  8
SUNPOU
 62
     1
100
AcDbMText
 10
-1284.999610950384
 20
1953.788380610125
 30
0.0
 40
3.5
 41
0.0
 71
     5
 72
     1
  1
\A1;172
  7
ゴシック体
1001
ACAD
1000
MTEXTBEGIN
1070
    73
1070
     1
1070
    44
1040
1.0
1070
    74
1070
     0
1000
MTEXTEND
  0
POINT
  5
13888
330
13882
100
AcDbEntity
  8
DEFPOINTS
 62
     0
100
AcDbPoint
 10
-1370.999595950384
 20
1951.038380610125
 30
0.0
  0
POINT
  5
13889
330
13882
100
AcDbEntity
  8
DEFPOINTS
 62
     0
100
AcDbPoint
 10
-1198.999625950384
 20
1920.826567426556
 30
0.0
  0
POINT
  5
1388A
330
13882
100
AcDbEntity
  8
DEFPOINTS
 62
     0
100
AcDbPoint
 10
-1198.999625950384
 20
1951.038380610125
 30
0.0
  0
ENDBLK
  5
1388C
330
13882
100
AcDbEntity
  8
0
100
AcDbBlockEnd
  0
BLOCK
  5
138A5
330
1389A
100
AcDbEntity
  8
0
100
AcDbBlockBegin
  2
*D37
 70
     1
 10
0.0
 20
0.0
 30
0.0
  3
*D37
  1

  0
LINE
  5
1389B
330
1389A
100
AcDbEntity
  8
SUNPOU
 62
     1
100
AcDbLine
 10
-1192.999625950384
 20
1931.412367426556
 30
0.0
 11
-1192.999625950384
 21
1951.538380610125
 31
0.0
  0
LINE
  5
1389C
330
1389A
100
AcDbEntity
  8
SUNPOU
 62
     1
100
AcDbLine
 10
-1189.999625950384
 20
1951.038380610125
 30
0.0
 11
-1186.999625950384
 21
1951.038380610125
 31
0.0
  0
LINE
  5
1389D
330
1389A
100
AcDbEntity
  8
SUNPOU
 62
     1
100
AcDbLine
 10
-1201.999625950384
 20
1951.038380610125
 30
0.0
 11
-1204.999625950384
 21
1951.038380610125
 31
0.0
  0
LINE
  5
1389E
330
1389A
100
AcDbEntity
  8
SUNPOU
 62
     1
100
AcDbLine
 10
-1192.999625950384
 20
1951.038380610125
 30
0.0
 11
-1198.999625950384
 21
1951.038380610125
 31
0.0
  0
SOLID
  5
1389F
330
1389A
100
AcDbEntity
  8
SUNPOU
 62
     1
100
AcDbTrace
 10
-1189.999625950384
 20
1951.538380610125
 30
0.0
 11
-1189.999625950384
 21
1950.538380610125
 31
0.0
 12
-1192.999625950384
 22
1951.038380610125
 32
0.0
 13
-1192.999625950384
 23
1951.038380610125
 33
0.0
  0
SOLID
  5
138A0
330
1389A
100
AcDbEntity
  8
SUNPOU
 62
     1
100
AcDbTrace
 10
-1201.999625950384
 20
1951.538380610125
 30
0.0
 11
-1201.999625950384
 21
1950.538380610125
 31
0.0
 12
-1198.999625950384
 22
1951.038380610125
 32
0.0
 13
-1198.999625950384
 23
1951.038380610125
 33
0.0
  0
MTEXT
  5
138A1
330
1389A
100
AcDbEntity
  8
SUNPOU
 62
     1
100
AcDbMText
 10
-1195.999625950384
 20
1953.788380610125
 30
0.0
 40
3.5
 41
0.0
 71
     5
 72
     1
  1
\A1;6
  7
ゴシック体
1001
ACAD
1000
MTEXTBEGIN
1070
    73
1070
     1
1070
    44
1040
1.0
1070
    74
1070
     0
1000
MTEXTEND
  0
POINT
  5
138A2
330
1389A
100
AcDbEntity
  8
DEFPOINTS
 62
     0
100
AcDbPoint
 10
-1192.999625950384
 20
1930.912367426556
 30
0.0
  0
POINT
  5
138A3
330
1389A
100
AcDbEntity
  8
DEFPOINTS
 62
     0
100
AcDbPoint
 10
-1198.999625950384
 20
1951.038380610125
 30
0.0
  0
POINT
  5
138A4
330
1389A
100
AcDbEntity
  8
DEFPOINTS
 62
     0
100
AcDbPoint
 10
-1198.999625950384
 20
1951.038380610125
 30
0.0
  0
ENDBLK
  5
138A6
330
1389A
100
AcDbEntity
  8
0
100
AcDbBlockEnd
  0
BLOCK
  5
138CD
330
138C1
100
AcDbEntity
  8
0
100
AcDbBlockBegin
  2
*D38
 70
     1
 10
0.0
 20
0.0
 30
0.0
  3
*D38
  1

  0
LINE
  5
1397C
330
138C1
100
AcDbEntity
  8
SUNPOU
 62
     1
100
AcDbLine
 10
-1377.499585950384
 20
1923.076567426556
 30
0.0
 11
-1386.725958306879
 21
1923.076567426556
 31
0.0
  0
LINE
  5
1397D
330
138C1
100
AcDbEntity
  8
SUNPOU
 62
     1
100
AcDbLine
 10
-1377.499585950384
 20
1918.576577426556
 30
0.0
 11
-1386.725958306879
 21
1918.576577426556
 31
0.0
  0
LINE
  5
1397E
330
138C1
100
AcDbEntity
  8
SUNPOU
 62
     1
100
AcDbLine
 10
-1386.225958306878
 20
1926.076567426555
 30
0.0
 11
-1386.225958306878
 21
1929.076567426556
 31
0.0
  0
LINE
  5
1397F
330
138C1
100
AcDbEntity
  8
SUNPOU
 62
     1
100
AcDbLine
 10
-1386.225958306878
 20
1915.576577426556
 30
0.0
 11
-1386.225958306878
 21
1912.576577426555
 31
0.0
  0
MTEXT
  5
13980
330
138C1
100
AcDbEntity
  8
SUNPOU
 62
     1
100
AcDbMText
 10
-1390.670955184605
 20
1920.857626561021
 30
0.0
 40
3.5
 41
0.0
 71
     5
 72
     1
  1
\A1;4.5
  7
ゴシック体
 11
0.0000000000000001
 21
1.0
 31
0.0
  0
LINE
  5
13981
330
138C1
100
AcDbEntity
  8
SUNPOU
 62
     1
100
AcDbLine
 10
-1386.225958306878
 20
1923.076567426556
 30
0.0
 11
-1386.225958306878
 21
1918.576577426556
 31
0.0
  0
SOLID
  5
13982
330
138C1
100
AcDbEntity
  8
SUNPOU
 62
     1
100
AcDbTrace
 10
-1386.725958306879
 20
1926.076567426555
 30
0.0
 11
-1385.725958306879
 21
1926.076567426555
 31
0.0
 12
-1386.225958306878
 22
1923.076567426556
 32
0.0
 13
-1386.225958306878
 23
1923.076567426556
 33
0.0
  0
SOLID
  5
13983
330
138C1
100
AcDbEntity
  8
SUNPOU
 62
     1
100
AcDbTrace
 10
-1386.725958306879
 20
1915.576577426556
 30
0.0
 11
-1385.725958306879
 21
1915.576577426556
 31
0.0
 12
-1386.225958306878
 22
1918.576577426556
 32
0.0
 13
-1386.225958306878
 23
1918.576577426556
 33
0.0
  0
POINT
  5
13984
330
138C1
100
AcDbEntity
  8
DEFPOINTS
 62
     0
100
AcDbPoint
 10
-1376.999585950384
 20
1923.076567426556
 30
0.0
  0
POINT
  5
13985
330
138C1
100
AcDbEntity
  8
DEFPOINTS
 62
     0
100
AcDbPoint
 10
-1376.999585950384
 20
1918.576577426556
 30
0.0
  0
POINT
  5
13986
330
138C1
100
AcDbEntity
  8
DEFPOINTS
 62
     0
100
AcDbPoint
 10
-1386.225958306878
 20
1918.576577426556
 30
0.0
  0
ENDBLK
  5
138CE
330
138C1
100
AcDbEntity
  8
0
100
AcDbBlockEnd
  0
BLOCK
  5
138E9
330
138DF
100
AcDbEntity
  8
0
100
AcDbBlockBegin
  2
*D39
 70
     1
 10
0.0
 20
0.0
 30
0.0
  3
*D39
  1

  0
LINE
  5
138E0
330
138DF
100
AcDbEntity
  8
SUNPOU
 62
     1
100
AcDbLine
 10
-1413.486075950384
 20
1721.664415426556
 30
0.0
 11
-1413.486075950384
 21
1703.512111696274
 31
0.0
  0
LINE
  5
138E1
330
138DF
100
AcDbEntity
  8
SUNPOU
 62
     1
100
AcDbLine
 10
-1464.486085950384
 20
1753.364417426556
 30
0.0
 11
-1464.486085950384
 21
1703.512111696274
 31
0.0
  0
LINE
  5
138E2
330
138DF
100
AcDbEntity
  8
SUNPOU
 62
     1
100
AcDbLine
 10
-1416.486075950384
 20
1704.012111696274
 30
0.0
 11
-1461.486085950384
 21
1704.012111696274
 31
0.0
  0
SOLID
  5
138E3
330
138DF
100
AcDbEntity
  8
SUNPOU
 62
     1
100
AcDbTrace
 10
-1416.486075950384
 20
1704.512111696273
 30
0.0
 11
-1416.486075950384
 21
1703.512111696274
 31
0.0
 12
-1413.486075950384
 22
1704.012111696274
 32
0.0
 13
-1413.486075950384
 23
1704.012111696274
 33
0.0
  0
SOLID
  5
138E4
330
138DF
100
AcDbEntity
  8
SUNPOU
 62
     1
100
AcDbTrace
 10
-1461.486085950384
 20
1704.512111696273
 30
0.0
 11
-1461.486085950384
 21
1703.512111696274
 31
0.0
 12
-1464.486085950384
 22
1704.012111696274
 32
0.0
 13
-1464.486085950384
 23
1704.012111696274
 33
0.0
  0
MTEXT
  5
138E5
330
138DF
100
AcDbEntity
  8
SUNPOU
 62
     1
100
AcDbMText
 10
-1438.986080950384
 20
1706.762111696274
 30
0.0
 40
3.5
 41
0.0
 71
     5
 72
     1
  1
\A1;51
  7
ゴシック体
1001
ACAD
1000
MTEXTBEGIN
1070
    73
1070
     1
1070
    44
1040
1.0
1070
    74
1070
     0
1000
MTEXTEND
  0
POINT
  5
138E6
330
138DF
100
AcDbEntity
  8
DEFPOINTS
 62
     0
100
AcDbPoint
 10
-1413.486075950384
 20
1722.164415426556
 30
0.0
  0
POINT
  5
138E7
330
138DF
100
AcDbEntity
  8
DEFPOINTS
 62
     0
100
AcDbPoint
 10
-1464.486085950384
 20
1753.864417426556
 30
0.0
  0
POINT
  5
138E8
330
138DF
100
AcDbEntity
  8
DEFPOINTS
 62
     0
100
AcDbPoint
 10
-1464.486085950384
 20
1704.012111696274
 30
0.0
  0
ENDBLK
  5
138EA
330
138DF
100
AcDbEntity
  8
0
100
AcDbBlockEnd
  0
BLOCK
  5
138F6
330
138EC
100
AcDbEntity
  8
0
100
AcDbBlockBegin
  2
*D40
 70
     1
 10
0.0
 20
0.0
 30
0.0
  3
*D40
  1

  0
LINE
  5
138ED
330
138EC
100
AcDbEntity
  8
SUNPOU
 62
     1
100
AcDbLine
 10
-1413.486075950384
 20
1721.664415426556
 30
0.0
 11
-1413.486075950384
 21
1713.601842147343
 31
0.0
  0
LINE
  5
138EE
330
138EC
100
AcDbEntity
  8
SUNPOU
 62
     1
100
AcDbLine
 10
-1461.486075950384
 20
1721.664415426556
 30
0.0
 11
-1461.486075950384
 21
1713.601842147343
 31
0.0
  0
LINE
  5
138EF
330
138EC
100
AcDbEntity
  8
SUNPOU
 62
     1
100
AcDbLine
 10
-1416.486075950384
 20
1714.101842147343
 30
0.0
 11
-1458.486075950384
 21
1714.101842147343
 31
0.0
  0
SOLID
  5
138F0
330
138EC
100
AcDbEntity
  8
SUNPOU
 62
     1
100
AcDbTrace
 10
-1416.486075950384
 20
1714.601842147343
 30
0.0
 11
-1416.486075950384
 21
1713.601842147343
 31
0.0
 12
-1413.486075950384
 22
1714.101842147343
 32
0.0
 13
-1413.486075950384
 23
1714.101842147343
 33
0.0
  0
SOLID
  5
138F1
330
138EC
100
AcDbEntity
  8
SUNPOU
 62
     1
100
AcDbTrace
 10
-1458.486075950384
 20
1714.601842147343
 30
0.0
 11
-1458.486075950384
 21
1713.601842147343
 31
0.0
 12
-1461.486075950384
 22
1714.101842147343
 32
0.0
 13
-1461.486075950384
 23
1714.101842147343
 33
0.0
  0
MTEXT
  5
138F2
330
138EC
100
AcDbEntity
  8
SUNPOU
 62
     1
100
AcDbMText
 10
-1437.486075950384
 20
1716.851842147343
 30
0.0
 40
3.5
 41
0.0
 71
     5
 72
     1
  1
\A1;48
  7
ゴシック体
1001
ACAD
1000
MTEXTBEGIN
1070
    73
1070
     1
1070
    44
1040
1.0
1070
    74
1070
     0
1000
MTEXTEND
  0
POINT
  5
138F3
330
138EC
100
AcDbEntity
  8
DEFPOINTS
 62
     0
100
AcDbPoint
 10
-1413.486075950384
 20
1722.164415426556
 30
0.0
  0
POINT
  5
138F4
330
138EC
100
AcDbEntity
  8
DEFPOINTS
 62
     0
100
AcDbPoint
 10
-1461.486075950384
 20
1722.164415426556
 30
0.0
  0
POINT
  5
138F5
330
138EC
100
AcDbEntity
  8
DEFPOINTS
 62
     0
100
AcDbPoint
 10
-1461.486075950384
 20
1714.101842147343
 30
0.0
  0
ENDBLK
  5
138F7
330
138EC
100
AcDbEntity
  8
0
100
AcDbBlockEnd
  0
BLOCK
  5
13932
330
13926
100
AcDbEntity
  8
0
100
AcDbBlockBegin
  2
*D41
 70
     1
 10
0.0
 20
0.0
 30
0.0
  3
*D41
  1

  0
LINE
  5
13927
330
13926
100
AcDbEntity
  8
SUNPOU
 62
     1
100
AcDbLine
 10
-1204.499615950384
 20
1852.164397426556
 30
0.0
 11
-1178.522968712452
 21
1852.164397426556
 31
0.0
  0
LINE
  5
13928
330
13926
100
AcDbEntity
  8
SUNPOU
 62
     1
100
AcDbLine
 10
-1179.509459512136
 20
1847.164397426556
 30
0.0
 11
-1179.522968712452
 21
1847.164397426556
 31
0.0
  0
LINE
  5
13929
330
13926
100
AcDbEntity
  8
SUNPOU
 62
     1
100
AcDbLine
 10
-1179.022968712452
 20
1855.164397426555
 30
0.0
 11
-1179.022968712452
 21
1858.164397426556
 31
0.0
  0
LINE
  5
1392A
330
13926
100
AcDbEntity
  8
SUNPOU
 62
     1
100
AcDbLine
 10
-1179.022968712452
 20
1844.164397426555
 30
0.0
 11
-1179.022968712452
 21
1841.164397426555
 31
0.0
  0
LINE
  5
1392B
330
13926
100
AcDbEntity
  8
SUNPOU
 62
     1
100
AcDbLine
 10
-1179.022968712452
 20
1852.164397426556
 30
0.0
 11
-1179.022968712452
 21
1847.164397426556
 31
0.0
  0
SOLID
  5
1392C
330
13926
100
AcDbEntity
  8
SUNPOU
 62
     1
100
AcDbTrace
 10
-1179.522968712452
 20
1855.164397426555
 30
0.0
 11
-1178.522968712452
 21
1855.164397426555
 31
0.0
 12
-1179.022968712452
 22
1852.164397426556
 32
0.0
 13
-1179.022968712452
 23
1852.164397426556
 33
0.0
  0
SOLID
  5
1392D
330
13926
100
AcDbEntity
  8
SUNPOU
 62
     1
100
AcDbTrace
 10
-1179.522968712452
 20
1844.164397426555
 30
0.0
 11
-1178.522968712452
 21
1844.164397426555
 31
0.0
 12
-1179.022968712452
 22
1847.164397426556
 32
0.0
 13
-1179.022968712452
 23
1847.164397426556
 33
0.0
  0
MTEXT
  5
1392E
330
13926
100
AcDbEntity
  8
SUNPOU
 62
     1
100
AcDbMText
 10
-1181.772968712452
 20
1849.664397426556
 30
0.0
 40
3.5
 41
0.0
 71
     5
 72
     1
  1
\A1;5
  7
ゴシック体
 11
0.0000000000000001
 21
1.0
 31
0.0
1001
ACAD
1000
MTEXTBEGIN
1070
    73
1070
     1
1070
    44
1040
1.0
1070
    74
1070
     0
1000
MTEXTEND
  0
POINT
  5
1392F
330
13926
100
AcDbEntity
  8
DEFPOINTS
 62
     0
100
AcDbPoint
 10
-1204.999615950384
 20
1852.164397426556
 30
0.0
  0
POINT
  5
13930
330
13926
100
AcDbEntity
  8
DEFPOINTS
 62
     0
100
AcDbPoint
 10
-1179.009459512135
 20
1847.164397426556
 30
0.0
  0
POINT
  5
13931
330
13926
100
AcDbEntity
  8
DEFPOINTS
 62
     0
100
AcDbPoint
 10
-1179.022968712452
 20
1847.164397426556
 30
0.0
  0
ENDBLK
  5
13933
330
13926
100
AcDbEntity
  8
0
100
AcDbBlockEnd
  0
ENDSEC
  0
SECTION
  2
ENTITIES
  0
MTEXT
  5
5084
330
1A
100
AcDbEntity
  8
0
100
AcDbMText
 10
1985.239088685434
 20
-948.5420423450428
 30
0.0
 40
8.0
 41
0.0
 71
     7
 72
     5
  1

1001
ACAD
1000
MTEXTBEGIN
1070
    73
1070
     1
1070
    44
1040
1.0
1070
    74
1070
     0
1000
MTEXTEND
  0
MTEXT
  5
5085
330
1A
100
AcDbEntity
  8
0
100
AcDbMText
 10
4270.596778580329
 20
22.24825240601648
 30
0.0
 40
8.0
 41
0.0
 71
     7
 72
     5
  1

1001
ACAD
1000
MTEXTBEGIN
1070
    73
1070
     1
1070
    44
1040
1.0
1070
    74
1070
     0
1000
MTEXTEND
  0
MTEXT
  5
5343
330
1A
100
AcDbEntity
  8
SUNPOU
100
AcDbMText
 10
6936.493799262471
 20
9534.359644781137
 30
0.0
 40
10.5
 41
0.0
 71
     1
 72
     5
  1

1001
ACAD
1000
MTEXTBEGIN
1070
    73
1070
     1
1070
    44
1040
1.0
1070
    74
1070
     0
1000
MTEXTEND
  0
MTEXT
  5
544F
330
1A
100
AcDbEntity
  8
0
100
AcDbMText
 10
16317.2832773148
 20
12833.35428897674
 30
0.0
 40
8.0
 41
0.0
 71
     7
 72
     5
  1

1001
ACAD
1000
MTEXTBEGIN
1070
    73
1070
     1
1070
    44
1040
1.0
1070
    74
1070
     0
1000
MTEXTEND
  0
MTEXT
  5
5450
330
1A
100
AcDbEntity
  8
0
100
AcDbMText
 10
18602.64096720968
 20
13804.1445837278
 30
0.0
 40
8.0
 41
0.0
 71
     7
 72
     5
  1

1001
ACAD
1000
MTEXTBEGIN
1070
    73
1070
     1
1070
    44
1040
1.0
1070
    74
1070
     0
1000
MTEXTEND
  0
MTEXT
  5
5451
330
1A
100
AcDbEntity
  8
SUNPOU
100
AcDbMText
 10
21268.53798789184
 20
23316.25597610292
 30
0.0
 40
10.5
 41
0.0
 71
     1
 72
     5
  1

1001
ACAD
1000
MTEXTBEGIN
1070
    73
1070
     1
1070
    44
1040
1.0
1070
    74
1070
     0
1000
MTEXTEND
  0
MTEXT
  5
5452
330
1A
100
AcDbEntity
  8
SUNPOU
100
AcDbMText
 10
13337.6147919559
 20
22369.46284218996
 30
0.0
 40
10.5
 41
0.0
 71
     7
 72
     5
  1

1001
ACAD
1000
MTEXTBEGIN
1070
    73
1070
     1
1070
    44
1040
1.0
1070
    74
1070
     0
1000
MTEXTEND
  0
MTEXT
  5
5453
330
1A
100
AcDbEntity
  8
SUNPOU
100
AcDbMText
 10
16286.59845646867
 20
27270.1389140328
 30
0.0
 40
10.5
 41
0.0
 71
     7
 72
     5
  1

1001
ACAD
1000
MTEXTBEGIN
1070
    73
1070
     1
1070
    44
1040
1.0
1070
    74
1070
     0
1000
MTEXTEND
  0
MTEXT
  5
5454
330
1A
100
AcDbEntity
  8
SUNPOU
100
AcDbMText
 10
20795.67658441924
 20
29706.43966165288
 30
0.0
 40
10.5
 41
0.0
 71
     7
 72
     5
  1

1001
ACAD
1000
MTEXTBEGIN
1070
    73
1070
     1
1070
    44
1040
1.0
1070
    74
1070
     0
1000
MTEXTEND
  0
MTEXT
  5
5455
330
1A
100
AcDbEntity
  8
0
100
AcDbMText
 10
16611.93789220313
 20
14707.52144344448
 30
0.0
 40
8.0
 41
0.0
 71
     7
 72
     5
  1

1001
ACAD
1000
MTEXTBEGIN
1070
    73
1070
     1
1070
    44
1040
1.0
1070
    74
1070
     0
1000
MTEXTEND
  0
MTEXT
  5
5456
330
1A
100
AcDbEntity
  8
0
100
AcDbMText
 10
18897.29558209803
 20
15678.31173819554
 30
0.0
 40
8.0
 41
0.0
 71
     7
 72
     5
  1

1001
ACAD
1000
MTEXTBEGIN
1070
    73
1070
     1
1070
    44
1040
1.0
1070
    74
1070
     0
1000
MTEXTEND
  0
MTEXT
  5
5457
330
1A
100
AcDbEntity
  8
SUNPOU
100
AcDbMText
 10
21563.19260278019
 20
25190.42313057066
 30
0.0
 40
10.5
 41
0.0
 71
     1
 72
     5
  1

1001
ACAD
1000
MTEXTBEGIN
1070
    73
1070
     1
1070
    44
1040
1.0
1070
    74
1070
     0
1000
MTEXTEND
  0
MTEXT
  5
5458
330
1A
100
AcDbEntity
  8
SUNPOU
100
AcDbMText
 10
13632.26940684425
 20
24243.6299966577
 30
0.0
 40
10.5
 41
0.0
 71
     7
 72
     5
  1

1001
ACAD
1000
MTEXTBEGIN
1070
    73
1070
     1
1070
    44
1040
1.0
1070
    74
1070
     0
1000
MTEXTEND
  0
MTEXT
  5
5459
330
1A
100
AcDbEntity
  8
SUNPOU
100
AcDbMText
 10
16581.25307135702
 20
29144.30606850055
 30
0.0
 40
10.5
 41
0.0
 71
     7
 72
     5
  1

1001
ACAD
1000
MTEXTBEGIN
1070
    73
1070
     1
1070
    44
1040
1.0
1070
    74
1070
     0
1000
MTEXTEND
  0
MTEXT
  5
545A
330
1A
100
AcDbEntity
  8
SUNPOU
100
AcDbMText
 10
21090.33119930759
 20
31580.60681612062
 30
0.0
 40
10.5
 41
0.0
 71
     7
 72
     5
  1

1001
ACAD
1000
MTEXTBEGIN
1070
    73
1070
     1
1070
    44
1040
1.0
1070
    74
1070
     0
1000
MTEXTEND
  0
MTEXT
  5
545B
330
1A
100
AcDbEntity
  8
0
100
AcDbMText
 10
22871.60517627166
 20
23974.88367124799
 30
0.0
 40
8.0
 41
0.0
 71
     7
 72
     5
  1

1001
ACAD
1000
MTEXTBEGIN
1070
    73
1070
     1
1070
    44
1040
1.0
1070
    74
1070
     0
1000
MTEXTEND
  0
MTEXT
  5
545C
330
1A
100
AcDbEntity
  8
0
100
AcDbMText
 10
25156.96286616656
 20
24945.67396599905
 30
0.0
 40
8.0
 41
0.0
 71
     7
 72
     5
  1

1001
ACAD
1000
MTEXTBEGIN
1070
    73
1070
     1
1070
    44
1040
1.0
1070
    74
1070
     0
1000
MTEXTEND
  0
MTEXT
  5
545D
330
1A
100
AcDbEntity
  8
SUNPOU
100
AcDbMText
 10
27822.85988684871
 20
34457.78535837418
 30
0.0
 40
10.5
 41
0.0
 71
     1
 72
     5
  1

1001
ACAD
1000
MTEXTBEGIN
1070
    73
1070
     1
1070
    44
1040
1.0
1070
    74
1070
     0
1000
MTEXTEND
  0
MTEXT
  5
545E
330
1A
100
AcDbEntity
  8
SUNPOU
100
AcDbMText
 10
19891.93669091278
 20
33510.99222446122
 30
0.0
 40
10.5
 41
0.0
 71
     7
 72
     5
  1

1001
ACAD
1000
MTEXTBEGIN
1070
    73
1070
     1
1070
    44
1040
1.0
1070
    74
1070
     0
1000
MTEXTEND
  0
MTEXT
  5
545F
330
1A
100
AcDbEntity
  8
SUNPOU
100
AcDbMText
 10
22840.92035542555
 20
38411.66829630406
 30
0.0
 40
10.5
 41
0.0
 71
     7
 72
     5
  1

1001
ACAD
1000
MTEXTBEGIN
1070
    73
1070
     1
1070
    44
1040
1.0
1070
    74
1070
     0
1000
MTEXTEND
  0
MTEXT
  5
5460
330
1A
100
AcDbEntity
  8
SUNPOU
100
AcDbMText
 10
27349.99848337611
 20
40847.96904392415
 30
0.0
 40
10.5
 41
0.0
 71
     7
 72
     5
  1

1001
ACAD
1000
MTEXTBEGIN
1070
    73
1070
     1
1070
    44
1040
1.0
1070
    74
1070
     0
1000
MTEXTEND
  0
MTEXT
  5
55B7
330
1A
100
AcDbEntity
  8
SUNPOU
100
AcDbMText
 10
67424.23923338197
 20
64463.86602884816
 30
0.0
 40
10.5
 41
0.0
 71
     9
 72
     5
  1

1001
ACAD
1000
MTEXTBEGIN
1070
    73
1070
     1
1070
    44
1040
1.0
1070
    74
1070
     0
1000
MTEXTEND
  0
MTEXT
  5
55B8
330
1A
100
AcDbEntity
  8
SUNPOU
100
AcDbMText
 10
76146.40679929998
 20
71879.70056038563
 30
0.0
 40
10.5
 41
0.0
 71
     9
 72
     5
  1

1001
ACAD
1000
MTEXTBEGIN
1070
    73
1070
     1
1070
    44
1040
1.0
1070
    74
1070
     0
1000
MTEXTEND
  0
MTEXT
  5
55B9
330
1A
100
AcDbEntity
  8
SUNPOU
100
AcDbMText
 10
95100.16551662994
 20
89346.27661287766
 30
0.0
 40
10.5
 41
0.0
 71
     9
 72
     5
  1

1001
ACAD
1000
MTEXTBEGIN
1070
    73
1070
     1
1070
    44
1040
1.0
1070
    74
1070
     0
1000
MTEXTEND
  0
MTEXT
  5
55BA
330
1A
100
AcDbEntity
  8
SUNPOU
100
AcDbMText
 10
97043.57276333935
 20
87545.22753299966
 30
0.0
 40
3.5
 41
0.0
 71
     9
 72
     5
  1

1001
ACAD
1000
MTEXTBEGIN
1070
    73
1070
     1
1070
    44
1040
1.0
1070
    74
1070
     0
1000
MTEXTEND
  0
MTEXT
  5
55BB
330
1A
100
AcDbEntity
  8
SUNPOU
100
AcDbMText
 10
128169.7525959589
 20
130040.1732006569
 30
0.0
 40
10.5
 41
0.0
 71
     9
 72
     5
  1

1001
ACAD
1000
MTEXTBEGIN
1070
    73
1070
     1
1070
    44
1040
1.0
1070
    74
1070
     0
1000
MTEXTEND
  0
MTEXT
  5
55BC
330
1A
100
AcDbEntity
  8
SUNPOU
100
AcDbMText
 10
130113.1598426684
 20
128239.1241207789
 30
0.0
 40
3.5
 41
0.0
 71
     9
 72
     5
  1

1001
ACAD
1000
MTEXTBEGIN
1070
    73
1070
     1
1070
    44
1040
1.0
1070
    74
1070
     0
1000
MTEXTEND
  0
MTEXT
  5
55BD
330
1A
100
AcDbEntity
  8
SUNPOU
100
AcDbMText
 10
78610.02030175463
 20
75873.33835563206
 30
0.0
 40
10.5
 41
0.0
 71
     9
 72
     5
  1

1001
ACAD
1000
MTEXTBEGIN
1070
    73
1070
     1
1070
    44
1040
1.0
1070
    74
1070
     0
1000
MTEXTEND
  0
MTEXT
  5
55BE
330
1A
100
AcDbEntity
  8
SUNPOU
100
AcDbMText
 10
64662.02020137862
 20
56700.93921651987
 30
0.0
 40
3.5
 41
0.0
 71
     7
 72
     5
  1

1001
ACAD
1000
MTEXTBEGIN
1070
    73
1070
     1
1070
    44
1040
1.0
1070
    74
1070
     0
1000
MTEXTEND
  0
MTEXT
  5
55BF
330
1A
100
AcDbEntity
  8
SUNPOU
100
AcDbMText
 10
45647.18959837177
 20
44463.08794733806
 30
0.0
 40
10.5
 41
0.0
 71
     7
 72
     5
  1

1001
ACAD
1000
MTEXTBEGIN
1070
    73
1070
     1
1070
    44
1040
1.0
1070
    74
1070
     0
1000
MTEXTEND
  0
MTEXT
  5
55C0
330
1A
100
AcDbEntity
  8
SUNPOU
100
AcDbMText
 10
33189.96133342368
 20
28618.15636923965
 30
0.0
 40
35.0
 41
0.0
 71
     9
 72
     5
  1

1001
ACAD
1000
MTEXTBEGIN
1070
    73
1070
     1
1070
    44
1040
1.0
1070
    74
1070
     0
1000
MTEXTEND
  0
MTEXT
  5
55C1
330
1A
100
AcDbEntity
  8
SUNPOU
100
AcDbMText
 10
32098.44639099864
 20
29226.93177928834
 30
0.0
 40
350.0000004171781
 41
0.0
 71
     7
 72
     5
  1

1001
ACAD
1000
MTEXTBEGIN
1070
    73
1070
     1
1070
    44
1040
1.0
1070
    74
1070
     0
1000
MTEXTEND
  0
MTEXT
  5
55C2
330
1A
100
AcDbEntity
  8
0
100
AcDbMText
 10
38142.39714894154
 20
27206.85414142458
 30
0.0
 40
8.0
 41
0.0
 71
     7
 72
     5
  1

1001
ACAD
1000
MTEXTBEGIN
1070
    73
1070
     1
1070
    44
1040
1.0
1070
    74
1070
     0
1000
MTEXTEND
  0
MTEXT
  5
55C3
330
1A
100
AcDbEntity
  8
0
100
AcDbMText
 10
40427.75483883644
 20
28177.64443617564
 30
0.0
 40
8.0
 41
0.0
 71
     7
 72
     5
  1

1001
ACAD
1000
MTEXTBEGIN
1070
    73
1070
     1
1070
    44
1040
1.0
1070
    74
1070
     0
1000
MTEXTEND
  0
MTEXT
  5
55C4
330
1A
100
AcDbEntity
  8
SUNPOU
100
AcDbMText
 10
43093.65185951858
 20
37689.75582855077
 30
0.0
 40
10.5
 41
0.0
 71
     1
 72
     5
  1

1001
ACAD
1000
MTEXTBEGIN
1070
    73
1070
     1
1070
    44
1040
1.0
1070
    74
1070
     0
1000
MTEXTEND
  0
MTEXT
  5
55C5
330
1A
100
AcDbEntity
  8
SUNPOU
100
AcDbMText
 10
35162.72866358265
 20
36742.96269463781
 30
0.0
 40
10.5
 41
0.0
 71
     7
 72
     5
  1

1001
ACAD
1000
MTEXTBEGIN
1070
    73
1070
     1
1070
    44
1040
1.0
1070
    74
1070
     0
1000
MTEXTEND
  0
MTEXT
  5
55C6
330
1A
100
AcDbEntity
  8
SUNPOU
100
AcDbMText
 10
38111.71232809542
 20
41643.63876648065
 30
0.0
 40
10.5
 41
0.0
 71
     7
 72
     5
  1

1001
ACAD
1000
MTEXTBEGIN
1070
    73
1070
     1
1070
    44
1040
1.0
1070
    74
1070
     0
1000
MTEXTEND
  0
MTEXT
  5
55C7
330
1A
100
AcDbEntity
  8
SUNPOU
100
AcDbMText
 10
42620.79045604596
 20
44079.93951410074
 30
0.0
 40
10.5
 41
0.0
 71
     7
 72
     5
  1

1001
ACAD
1000
MTEXTBEGIN
1070
    73
1070
     1
1070
    44
1040
1.0
1070
    74
1070
     0
1000
MTEXTEND
  0
MTEXT
  5
55C8
330
1A
100
AcDbEntity
  8
SUNPOU
100
AcDbMText
 10
26221.62834281429
 20
23077.53566448964
 30
0.0
 40
10.5
 41
0.0
 71
     7
 72
     5
  1

1001
ACAD
1000
MTEXTBEGIN
1070
    73
1070
     1
1070
    44
1040
1.0
1070
    74
1070
     0
1000
MTEXTEND
  0
MTEXT
  5
55C9
330
1A
100
AcDbEntity
  8
SUNPOU
100
AcDbMText
 10
77413.14677671455
 20
68750.51622813789
 30
0.0
 40
10.5
 41
0.0
 71
     9
 72
     5
  1

1001
ACAD
1000
MTEXTBEGIN
1070
    73
1070
     1
1070
    44
1040
1.0
1070
    74
1070
     0
1000
MTEXTEND
  0
MTEXT
  5
55CA
330
1A
100
AcDbEntity
  8
SUNPOU
100
AcDbMText
 10
86135.31434263256
 20
76166.35075967536
 30
0.0
 40
10.5
 41
0.0
 71
     9
 72
     5
  1

1001
ACAD
1000
MTEXTBEGIN
1070
    73
1070
     1
1070
    44
1040
1.0
1070
    74
1070
     0
1000
MTEXTEND
  0
MTEXT
  5
55CB
330
1A
100
AcDbEntity
  8
SUNPOU
100
AcDbMText
 10
105089.0730599624
 20
93632.92681216739
 30
0.0
 40
10.5
 41
0.0
 71
     9
 72
     5
  1

1001
ACAD
1000
MTEXTBEGIN
1070
    73
1070
     1
1070
    44
1040
1.0
1070
    74
1070
     0
1000
MTEXTEND
  0
MTEXT
  5
55CC
330
1A
100
AcDbEntity
  8
SUNPOU
100
AcDbMText
 10
107032.4803066718
 20
91831.87773228938
 30
0.0
 40
3.5
 41
0.0
 71
     9
 72
     5
  1

1001
ACAD
1000
MTEXTBEGIN
1070
    73
1070
     1
1070
    44
1040
1.0
1070
    74
1070
     0
1000
MTEXTEND
  0
MTEXT
  5
55CD
330
1A
100
AcDbEntity
  8
SUNPOU
100
AcDbMText
 10
138158.6601392916
 20
134326.8233999467
 30
0.0
 40
10.5
 41
0.0
 71
     9
 72
     5
  1

1001
ACAD
1000
MTEXTBEGIN
1070
    73
1070
     1
1070
    44
1040
1.0
1070
    74
1070
     0
1000
MTEXTEND
  0
MTEXT
  5
55CE
330
1A
100
AcDbEntity
  8
SUNPOU
100
AcDbMText
 10
140102.067386001
 20
132525.7743200686
 30
0.0
 40
3.5
 41
0.0
 71
     9
 72
     5
  1

1001
ACAD
1000
MTEXTBEGIN
1070
    73
1070
     1
1070
    44
1040
1.0
1070
    74
1070
     0
1000
MTEXTEND
  0
MTEXT
  5
55CF
330
1A
100
AcDbEntity
  8
SUNPOU
100
AcDbMText
 10
88598.92784508721
 20
80159.98855492179
 30
0.0
 40
10.5
 41
0.0
 71
     9
 72
     5
  1

1001
ACAD
1000
MTEXTBEGIN
1070
    73
1070
     1
1070
    44
1040
1.0
1070
    74
1070
     0
1000
MTEXTEND
  0
MTEXT
  5
55D0
330
1A
100
AcDbEntity
  8
SUNPOU
100
AcDbMText
 10
74650.92774471121
 20
60987.58941580959
 30
0.0
 40
3.5
 41
0.0
 71
     7
 72
     5
  1

1001
ACAD
1000
MTEXTBEGIN
1070
    73
1070
     1
1070
    44
1040
1.0
1070
    74
1070
     0
1000
MTEXTEND
  0
MTEXT
  5
55D1
330
1A
100
AcDbEntity
  8
SUNPOU
100
AcDbMText
 10
55636.09714170436
 20
48749.73814662781
 30
0.0
 40
10.5
 41
0.0
 71
     7
 72
     5
  1

1001
ACAD
1000
MTEXTBEGIN
1070
    73
1070
     1
1070
    44
1040
1.0
1070
    74
1070
     0
1000
MTEXTEND
  0
MTEXT
  5
55D2
330
1A
100
AcDbEntity
  8
SUNPOU
100
AcDbMText
 10
43178.86887675626
 20
32904.80656852937
 30
0.0
 40
35.0
 41
0.0
 71
     9
 72
     5
  1

1001
ACAD
1000
MTEXTBEGIN
1070
    73
1070
     1
1070
    44
1040
1.0
1070
    74
1070
     0
1000
MTEXTEND
  0
MTEXT
  5
55D3
330
1A
100
AcDbEntity
  8
SUNPOU
100
AcDbMText
 10
42087.3539343312
 20
33513.58197857808
 30
0.0
 40
350.0000004171781
 41
0.0
 71
     7
 72
     5
  1

1001
ACAD
1000
MTEXTBEGIN
1070
    73
1070
     1
1070
    44
1040
1.0
1070
    74
1070
     0
1000
MTEXTEND
  0
MTEXT
  5
55D4
330
1A
100
AcDbEntity
  8
0
100
AcDbMText
 10
48131.30469227412
 20
31493.50434071431
 30
0.0
 40
8.0
 41
0.0
 71
     7
 72
     5
  1

1001
ACAD
1000
MTEXTBEGIN
1070
    73
1070
     1
1070
    44
1040
1.0
1070
    74
1070
     0
1000
MTEXTEND
  0
MTEXT
  5
55D5
330
1A
100
AcDbEntity
  8
0
100
AcDbMText
 10
50416.66238216901
 20
32464.29463546537
 30
0.0
 40
8.0
 41
0.0
 71
     7
 72
     5
  1

1001
ACAD
1000
MTEXTBEGIN
1070
    73
1070
     1
1070
    44
1040
1.0
1070
    74
1070
     0
1000
MTEXTEND
  0
MTEXT
  5
55D6
330
1A
100
AcDbEntity
  8
SUNPOU
100
AcDbMText
 10
53082.55940285115
 20
41976.4060278405
 30
0.0
 40
10.5
 41
0.0
 71
     1
 72
     5
  1

1001
ACAD
1000
MTEXTBEGIN
1070
    73
1070
     1
1070
    44
1040
1.0
1070
    74
1070
     0
1000
MTEXTEND
  0
MTEXT
  5
55D7
330
1A
100
AcDbEntity
  8
SUNPOU
100
AcDbMText
 10
45151.63620691521
 20
41029.61289392755
 30
0.0
 40
10.5
 41
0.0
 71
     7
 72
     5
  1

1001
ACAD
1000
MTEXTBEGIN
1070
    73
1070
     1
1070
    44
1040
1.0
1070
    74
1070
     0
1000
MTEXTEND
  0
MTEXT
  5
55D8
330
1A
100
AcDbEntity
  8
SUNPOU
100
AcDbMText
 10
48100.61987142798
 20
45930.28896577039
 30
0.0
 40
10.5
 41
0.0
 71
     7
 72
     5
  1

1001
ACAD
1000
MTEXTBEGIN
1070
    73
1070
     1
1070
    44
1040
1.0
1070
    74
1070
     0
1000
MTEXTEND
  0
MTEXT
  5
55D9
330
1A
100
AcDbEntity
  8
SUNPOU
100
AcDbMText
 10
52609.69799937853
 20
48366.58971339046
 30
0.0
 40
10.5
 41
0.0
 71
     7
 72
     5
  1

1001
ACAD
1000
MTEXTBEGIN
1070
    73
1070
     1
1070
    44
1040
1.0
1070
    74
1070
     0
1000
MTEXTEND
  0
MTEXT
  5
55DA
330
1A
100
AcDbEntity
  8
SUNPOU
100
AcDbMText
 10
36210.53588614687
 20
27364.18586377937
 30
0.0
 40
10.5
 41
0.0
 71
     7
 72
     5
  1

1001
ACAD
1000
MTEXTBEGIN
1070
    73
1070
     1
1070
    44
1040
1.0
1070
    74
1070
     0
1000
MTEXTEND
  0
MTEXT
  5
55DB
330
1A
100
AcDbEntity
  8
SUNPOU
100
AcDbMText
 10
38021.29879752181
 20
33691.59985125794
 30
0.0
 40
10.5
 41
0.0
 71
     9
 72
     5
  1

1001
ACAD
1000
MTEXTBEGIN
1070
    73
1070
     1
1070
    44
1040
1.0
1070
    74
1070
     0
1000
MTEXTEND
  0
MTEXT
  5
55DC
330
1A
100
AcDbEntity
  8
SUNPOU
100
AcDbMText
 10
46743.46636343979
 20
41107.4343827954
 30
0.0
 40
10.5
 41
0.0
 71
     9
 72
     5
  1

1001
ACAD
1000
MTEXTBEGIN
1070
    73
1070
     1
1070
    44
1040
1.0
1070
    74
1070
     0
1000
MTEXTEND
  0
MTEXT
  5
55DD
330
1A
100
AcDbEntity
  8
SUNPOU
100
AcDbMText
 10
65697.22508076974
 20
58574.01043528746
 30
0.0
 40
10.5
 41
0.0
 71
     9
 72
     5
  1

1001
ACAD
1000
MTEXTBEGIN
1070
    73
1070
     1
1070
    44
1040
1.0
1070
    74
1070
     0
1000
MTEXTEND
  0
MTEXT
  5
55DE
330
1A
100
AcDbEntity
  8
SUNPOU
100
AcDbMText
 10
67640.63232747917
 20
56772.96135540945
 30
0.0
 40
3.5
 41
0.0
 71
     9
 72
     5
  1

1001
ACAD
1000
MTEXTBEGIN
1070
    73
1070
     1
1070
    44
1040
1.0
1070
    74
1070
     0
1000
MTEXTEND
  0
MTEXT
  5
55DF
330
1A
100
AcDbEntity
  8
SUNPOU
100
AcDbMText
 10
98766.81216009886
 20
99267.9070230668
 30
0.0
 40
10.5
 41
0.0
 71
     9
 72
     5
  1

1001
ACAD
1000
MTEXTBEGIN
1070
    73
1070
     1
1070
    44
1040
1.0
1070
    74
1070
     0
1000
MTEXTEND
  0
MTEXT
  5
55E0
330
1A
100
AcDbEntity
  8
SUNPOU
100
AcDbMText
 10
100710.2194068083
 20
97466.85794318876
 30
0.0
 40
3.5
 41
0.0
 71
     9
 72
     5
  1

1001
ACAD
1000
MTEXTBEGIN
1070
    73
1070
     1
1070
    44
1040
1.0
1070
    74
1070
     0
1000
MTEXTEND
  0
MTEXT
  5
55E1
330
1A
100
AcDbEntity
  8
SUNPOU
100
AcDbMText
 10
49207.07986589443
 20
45101.07217804184
 30
0.0
 40
10.5
 41
0.0
 71
     9
 72
     5
  1

1001
ACAD
1000
MTEXTBEGIN
1070
    73
1070
     1
1070
    44
1040
1.0
1070
    74
1070
     0
1000
MTEXTEND
  0
MTEXT
  5
55E2
330
1A
100
AcDbEntity
  8
SUNPOU
100
AcDbMText
 10
35259.07976551845
 20
25928.67303892964
 30
0.0
 40
3.5
 41
0.0
 71
     7
 72
     5
  1

1001
ACAD
1000
MTEXTBEGIN
1070
    73
1070
     1
1070
    44
1040
1.0
1070
    74
1070
     0
1000
MTEXTEND
  0
MTEXT
  5
55E3
330
1A
100
AcDbEntity
  8
SUNPOU
100
AcDbMText
 10
48951.43044828905
 20
35287.73625995099
 30
0.0
 40
10.5
 41
0.0
 71
     9
 72
     5
  1

1001
ACAD
1000
MTEXTBEGIN
1070
    73
1070
     1
1070
    44
1040
1.0
1070
    74
1070
     0
1000
MTEXTEND
  0
MTEXT
  5
55E4
330
1A
100
AcDbEntity
  8
SUNPOU
100
AcDbMText
 10
57673.59801420702
 20
42703.57079148847
 30
0.0
 40
10.5
 41
0.0
 71
     9
 72
     5
  1

1001
ACAD
1000
MTEXTBEGIN
1070
    73
1070
     1
1070
    44
1040
1.0
1070
    74
1070
     0
1000
MTEXTEND
  0
MTEXT
  5
55E5
330
1A
100
AcDbEntity
  8
SUNPOU
100
AcDbMText
 10
76627.35673153699
 20
60170.14684398051
 30
0.0
 40
10.5
 41
0.0
 71
     9
 72
     5
  1

1001
ACAD
1000
MTEXTBEGIN
1070
    73
1070
     1
1070
    44
1040
1.0
1070
    74
1070
     0
1000
MTEXTEND
  0
MTEXT
  5
55E6
330
1A
100
AcDbEntity
  8
SUNPOU
100
AcDbMText
 10
78570.76397824641
 20
58369.09776410251
 30
0.0
 40
3.5
 41
0.0
 71
     9
 72
     5
  1

1001
ACAD
1000
MTEXTBEGIN
1070
    73
1070
     1
1070
    44
1040
1.0
1070
    74
1070
     0
1000
MTEXTEND
  0
MTEXT
  5
55E7
330
1A
100
AcDbEntity
  8
SUNPOU
100
AcDbMText
 10
109696.943810866
 20
100864.0434317598
 30
0.0
 40
10.5
 41
0.0
 71
     9
 72
     5
  1

1001
ACAD
1000
MTEXTBEGIN
1070
    73
1070
     1
1070
    44
1040
1.0
1070
    74
1070
     0
1000
MTEXTEND
  0
MTEXT
  5
55E8
330
1A
100
AcDbEntity
  8
SUNPOU
100
AcDbMText
 10
111640.3510575755
 20
99062.99435188183
 30
0.0
 40
3.5
 41
0.0
 71
     9
 72
     5
  1

1001
ACAD
1000
MTEXTBEGIN
1070
    73
1070
     1
1070
    44
1040
1.0
1070
    74
1070
     0
1000
MTEXTEND
  0
MTEXT
  5
55E9
330
1A
100
AcDbEntity
  8
SUNPOU
100
AcDbMText
 10
60137.21151666167
 20
46697.20858673491
 30
0.0
 40
10.5
 41
0.0
 71
     9
 72
     5
  1

1001
ACAD
1000
MTEXTBEGIN
1070
    73
1070
     1
1070
    44
1040
1.0
1070
    74
1070
     0
1000
MTEXTEND
  0
MTEXT
  5
55EA
330
1A
100
AcDbEntity
  8
SUNPOU
100
AcDbMText
 10
46189.21141628568
 20
27524.80944762269
 30
0.0
 40
3.5
 41
0.0
 71
     7
 72
     5
  1

1001
ACAD
1000
MTEXTBEGIN
1070
    73
1070
     1
1070
    44
1040
1.0
1070
    74
1070
     0
1000
MTEXTEND
  0
MTEXT
  5
55EB
330
1A
100
AcDbEntity
  8
SUNPOU
100
AcDbMText
 10
45007.68847015541
 20
38269.57947701873
 30
0.0
 40
10.5
 41
0.0
 71
     9
 72
     5
  1

1001
ACAD
1000
MTEXTBEGIN
1070
    73
1070
     1
1070
    44
1040
1.0
1070
    74
1070
     0
1000
MTEXTEND
  0
MTEXT
  5
55EC
330
1A
100
AcDbEntity
  8
SUNPOU
100
AcDbMText
 10
63961.44718748539
 20
55736.15552951081
 30
0.0
 40
10.5
 41
0.0
 71
     9
 72
     5
  1

1001
ACAD
1000
MTEXTBEGIN
1070
    73
1070
     1
1070
    44
1040
1.0
1070
    74
1070
     0
1000
MTEXTEND
  0
MTEXT
  5
55ED
330
1A
100
AcDbEntity
  8
SUNPOU
100
AcDbMText
 10
65904.85443419479
 20
53935.10644963278
 30
0.0
 40
3.5
 41
0.0
 71
     9
 72
     5
  1

1001
ACAD
1000
MTEXTBEGIN
1070
    73
1070
     1
1070
    44
1040
1.0
1070
    74
1070
     0
1000
MTEXTEND
  0
MTEXT
  5
55EE
330
1A
100
AcDbEntity
  8
SUNPOU
100
AcDbMText
 10
97031.03426681453
 20
96430.05211729015
 30
0.0
 40
10.5
 41
0.0
 71
     9
 72
     5
  1

1001
ACAD
1000
MTEXTBEGIN
1070
    73
1070
     1
1070
    44
1040
1.0
1070
    74
1070
     0
1000
MTEXTEND
  0
MTEXT
  5
55EF
330
1A
100
AcDbEntity
  8
SUNPOU
100
AcDbMText
 10
98974.44151352393
 20
94629.00303741212
 30
0.0
 40
3.5
 41
0.0
 71
     9
 72
     5
  1

1001
ACAD
1000
MTEXTBEGIN
1070
    73
1070
     1
1070
    44
1040
1.0
1070
    74
1070
     0
1000
MTEXTEND
  0
MTEXT
  5
55F0
330
1A
100
AcDbEntity
  8
SUNPOU
100
AcDbMText
 10
47471.30197261006
 20
42263.21727226519
 30
0.0
 40
10.5
 41
0.0
 71
     9
 72
     5
  1

1001
ACAD
1000
MTEXTBEGIN
1070
    73
1070
     1
1070
    44
1040
1.0
1070
    74
1070
     0
1000
MTEXTEND
  0
MTEXT
  5
55F1
330
1A
100
AcDbEntity
  8
SUNPOU
100
AcDbMText
 10
33523.30187223408
 20
23090.81813315298
 30
0.0
 40
3.5
 41
0.0
 71
     7
 72
     5
  1

1001
ACAD
1000
MTEXTBEGIN
1070
    73
1070
     1
1070
    44
1040
1.0
1070
    74
1070
     0
1000
MTEXTEND
  0
MTEXT
  5
55F2
330
1A
100
AcDbEntity
  8
SUNPOU
100
AcDbMText
 10
57959.46254102503
 20
50038.08111611014
 30
0.0
 40
10.5
 41
0.0
 71
     9
 72
     5
  1

1001
ACAD
1000
MTEXTBEGIN
1070
    73
1070
     1
1070
    44
1040
1.0
1070
    74
1070
     0
1000
MTEXTEND
  0
MTEXT
  5
55F3
330
1A
100
AcDbEntity
  8
SUNPOU
100
AcDbMText
 10
76913.22125835503
 20
67504.65716860222
 30
0.0
 40
10.5
 41
0.0
 71
     9
 72
     5
  1

1001
ACAD
1000
MTEXTBEGIN
1070
    73
1070
     1
1070
    44
1040
1.0
1070
    74
1070
     0
1000
MTEXTEND
  0
MTEXT
  5
55F4
330
1A
100
AcDbEntity
  8
SUNPOU
100
AcDbMText
 10
78856.62850506443
 20
65703.6080887242
 30
0.0
 40
3.5
 41
0.0
 71
     9
 72
     5
  1

1001
ACAD
1000
MTEXTBEGIN
1070
    73
1070
     1
1070
    44
1040
1.0
1070
    74
1070
     0
1000
MTEXTEND
  0
MTEXT
  5
55F5
330
1A
100
AcDbEntity
  8
SUNPOU
100
AcDbMText
 10
109982.8083376841
 20
108198.5537563815
 30
0.0
 40
10.5
 41
0.0
 71
     9
 72
     5
  1

1001
ACAD
1000
MTEXTBEGIN
1070
    73
1070
     1
1070
    44
1040
1.0
1070
    74
1070
     0
1000
MTEXTEND
  0
MTEXT
  5
55F6
330
1A
100
AcDbEntity
  8
SUNPOU
100
AcDbMText
 10
111926.2155843934
 20
106397.5046765035
 30
0.0
 40
3.5
 41
0.0
 71
     9
 72
     5
  1

1001
ACAD
1000
MTEXTBEGIN
1070
    73
1070
     1
1070
    44
1040
1.0
1070
    74
1070
     0
1000
MTEXTEND
  0
MTEXT
  5
55F7
330
1A
100
AcDbEntity
  8
SUNPOU
100
AcDbMText
 10
60423.07604347968
 20
54031.71891135658
 30
0.0
 40
10.5
 41
0.0
 71
     9
 72
     5
  1

1001
ACAD
1000
MTEXTBEGIN
1070
    73
1070
     1
1070
    44
1040
1.0
1070
    74
1070
     0
1000
MTEXTEND
  0
MTEXT
  5
55F8
330
1A
100
AcDbEntity
  8
SUNPOU
100
AcDbMText
 10
46475.07594310369
 20
34859.3197722444
 30
0.0
 40
3.5
 41
0.0
 71
     7
 72
     5
  1

1001
ACAD
1000
MTEXTBEGIN
1070
    73
1070
     1
1070
    44
1040
1.0
1070
    74
1070
     0
1000
MTEXTEND
  0
MTEXT
  5
55F9
330
1A
100
AcDbEntity
  8
SUNPOU
100
AcDbMText
 10
74027.35402123588
 20
68370.58278833383
 30
0.0
 40
10.5
 41
0.0
 71
     9
 72
     5
  1

1001
ACAD
1000
MTEXTBEGIN
1070
    73
1070
     1
1070
    44
1040
1.0
1070
    74
1070
     0
1000
MTEXTEND
  0
MTEXT
  5
55FA
330
1A
100
AcDbEntity
  8
SUNPOU
100
AcDbMText
 10
75970.7612679453
 20
66569.53370845583
 30
0.0
 40
3.5
 41
0.0
 71
     9
 72
     5
  1

1001
ACAD
1000
MTEXTBEGIN
1070
    73
1070
     1
1070
    44
1040
1.0
1070
    74
1070
     0
1000
MTEXTEND
  0
MTEXT
  5
55FB
330
1A
100
AcDbEntity
  8
SUNPOU
100
AcDbMText
 10
107096.941100565
 20
109064.4793761132
 30
0.0
 40
10.5
 41
0.0
 71
     9
 72
     5
  1

1001
ACAD
1000
MTEXTBEGIN
1070
    73
1070
     1
1070
    44
1040
1.0
1070
    74
1070
     0
1000
MTEXTEND
  0
MTEXT
  5
55FC
330
1A
100
AcDbEntity
  8
SUNPOU
100
AcDbMText
 10
109040.3483472744
 20
107263.430296235
 30
0.0
 40
3.5
 41
0.0
 71
     9
 72
     5
  1

1001
ACAD
1000
MTEXTBEGIN
1070
    73
1070
     1
1070
    44
1040
1.0
1070
    74
1070
     0
1000
MTEXTEND
  0
MTEXT
  5
55FD
330
1A
100
AcDbEntity
  8
SUNPOU
100
AcDbMText
 10
105709.1709283621
 20
108141.3777665285
 30
0.0
 40
10.5
 41
0.0
 71
     9
 72
     5
  1

1001
ACAD
1000
MTEXTBEGIN
1070
    73
1070
     1
1070
    44
1040
1.0
1070
    74
1070
     0
1000
MTEXTEND
  0
MTEXT
  5
55FE
330
1A
100
AcDbEntity
  8
SUNPOU
100
AcDbMText
 10
107652.5781750715
 20
106340.3286866505
 30
0.0
 40
3.5
 41
0.0
 71
     9
 72
     5
  1

1001
ACAD
1000
MTEXTBEGIN
1070
    73
1070
     1
1070
    44
1040
1.0
1070
    74
1070
     0
1000
MTEXTEND
  0
MTEXT
  5
55FF
330
1A
100
AcDbEntity
  8
SUNPOU
100
AcDbMText
 10
73193.09268743351
 20
66158.78082845057
 30
0.0
 40
10.5
 41
0.0
 71
     9
 72
     5
  1

1001
ACAD
1000
MTEXTBEGIN
1070
    73
1070
     1
1070
    44
1040
1.0
1070
    74
1070
     0
1000
MTEXTEND
  0
MTEXT
  5
5600
330
1A
100
AcDbEntity
  8
SUNPOU
100
AcDbMText
 10
75916.39889159807
 20
66563.46252003162
 30
0.0
 40
3.5
 41
0.0
 71
     9
 72
     5
  1

1001
ACAD
1000
MTEXTBEGIN
1070
    73
1070
     1
1070
    44
1040
1.0
1070
    74
1070
     0
1000
MTEXTEND
  0
MTEXT
  5
5601
330
1A
100
AcDbEntity
  8
SUNPOU
100
AcDbMText
 10
75124.04436649058
 20
63402.1566819768
 30
0.0
 40
10.5
 41
0.0
 71
     9
 72
     5
  1

1001
ACAD
1000
MTEXTBEGIN
1070
    73
1070
     1
1070
    44
1040
1.0
1070
    74
1070
     0
1000
MTEXTEND
  0
MTEXT
  5
5602
330
1A
100
AcDbEntity
  8
SUNPOU
100
AcDbMText
 10
77067.4516132
 20
61601.1076020988
 30
0.0
 40
3.5
 41
0.0
 71
     9
 72
     5
  1

1001
ACAD
1000
MTEXTBEGIN
1070
    73
1070
     1
1070
    44
1040
1.0
1070
    74
1070
     0
1000
MTEXTEND
  0
MTEXT
  5
5603
330
1A
100
AcDbEntity
  8
SUNPOU
100
AcDbMText
 10
77012.54710378659
 20
61488.33571981449
 30
0.0
 40
3.5
 41
0.0
 71
     9
 72
     5
  1

1001
ACAD
1000
MTEXTBEGIN
1070
    73
1070
     1
1070
    44
1040
1.0
1070
    74
1070
     0
1000
MTEXTEND
  0
MTEXT
  5
5604
330
1A
100
AcDbEntity
  8
SUNPOU
100
AcDbMText
 10
76376.61896736668
 20
60677.01447874798
 30
0.0
 40
3.5
 41
0.0
 71
     9
 72
     5
  1

1001
ACAD
1000
MTEXTBEGIN
1070
    73
1070
     1
1070
    44
1040
1.0
1070
    74
1070
     0
1000
MTEXTEND
  0
MTEXT
  5
5605
330
1A
100
AcDbEntity
  8
SUNPOU
100
AcDbMText
 10
76375.37854794595
 20
60676.76650181048
 30
0.0
 40
10.5
 41
0.0
 71
     9
 72
     5
  1

1001
ACAD
1000
MTEXTBEGIN
1070
    73
1070
     1
1070
    44
1040
1.0
1070
    74
1070
     0
1000
MTEXTEND
  0
MTEXT
  5
5606
330
1A
100
AcDbEntity
  8
SUNPOU
100
AcDbMText
 10
84709.93991079748
 20
78034.0328293557
 30
0.0
 40
10.5
 41
0.0
 71
     9
 72
     5
  1

1001
ACAD
1000
MTEXTBEGIN
1070
    73
1070
     1
1070
    44
1040
1.0
1070
    74
1070
     0
1000
MTEXTEND
  0
MTEXT
  5
5607
330
1A
100
AcDbEntity
  8
SUNPOU
100
AcDbMText
 10
93432.10747671546
 20
85449.86736089315
 30
0.0
 40
10.5
 41
0.0
 71
     9
 72
     5
  1

1001
ACAD
1000
MTEXTBEGIN
1070
    73
1070
     1
1070
    44
1040
1.0
1070
    74
1070
     0
1000
MTEXTEND
  0
MTEXT
  5
5608
330
1A
100
AcDbEntity
  8
SUNPOU
100
AcDbMText
 10
112385.8661940454
 20
102916.4434133851
 30
0.0
 40
10.5
 41
0.0
 71
     9
 72
     5
  1

1001
ACAD
1000
MTEXTBEGIN
1070
    73
1070
     1
1070
    44
1040
1.0
1070
    74
1070
     0
1000
MTEXTEND
  0
MTEXT
  5
5609
330
1A
100
AcDbEntity
  8
SUNPOU
100
AcDbMText
 10
114329.2734407548
 20
101115.3943335072
 30
0.0
 40
3.5
 41
0.0
 71
     9
 72
     5
  1

1001
ACAD
1000
MTEXTBEGIN
1070
    73
1070
     1
1070
    44
1040
1.0
1070
    74
1070
     0
1000
MTEXTEND
  0
MTEXT
  5
560A
330
1A
100
AcDbEntity
  8
SUNPOU
100
AcDbMText
 10
145455.4532733745
 20
143610.3400011645
 30
0.0
 40
10.5
 41
0.0
 71
     9
 72
     5
  1

1001
ACAD
1000
MTEXTBEGIN
1070
    73
1070
     1
1070
    44
1040
1.0
1070
    74
1070
     0
1000
MTEXTEND
  0
MTEXT
  5
560B
330
1A
100
AcDbEntity
  8
SUNPOU
100
AcDbMText
 10
147398.8605200839
 20
141809.2909212864
 30
0.0
 40
3.5
 41
0.0
 71
     9
 72
     5
  1

1001
ACAD
1000
MTEXTBEGIN
1070
    73
1070
     1
1070
    44
1040
1.0
1070
    74
1070
     0
1000
MTEXTEND
  0
MTEXT
  5
560C
330
1A
100
AcDbEntity
  8
SUNPOU
100
AcDbMText
 10
95895.72097917011
 20
89443.50515613962
 30
0.0
 40
10.5
 41
0.0
 71
     9
 72
     5
  1

1001
ACAD
1000
MTEXTBEGIN
1070
    73
1070
     1
1070
    44
1040
1.0
1070
    74
1070
     0
1000
MTEXTEND
  0
MTEXT
  5
560D
330
1A
100
AcDbEntity
  8
SUNPOU
100
AcDbMText
 10
81947.72087879414
 20
70271.1060170274
 30
0.0
 40
3.5
 41
0.0
 71
     7
 72
     5
  1

1001
ACAD
1000
MTEXTBEGIN
1070
    73
1070
     1
1070
    44
1040
1.0
1070
    74
1070
     0
1000
MTEXTEND
  0
MTEXT
  5
560E
330
1A
100
AcDbEntity
  8
SUNPOU
100
AcDbMText
 10
62932.89027578729
 20
58033.25474784561
 30
0.0
 40
10.5
 41
0.0
 71
     7
 72
     5
  1

1001
ACAD
1000
MTEXTBEGIN
1070
    73
1070
     1
1070
    44
1040
1.0
1070
    74
1070
     0
1000
MTEXTEND
  0
MTEXT
  5
560F
330
1A
100
AcDbEntity
  8
SUNPOU
100
AcDbMText
 10
50475.66201083918
 20
42188.32316974718
 30
0.0
 40
35.0
 41
0.0
 71
     9
 72
     5
  1

1001
ACAD
1000
MTEXTBEGIN
1070
    73
1070
     1
1070
    44
1040
1.0
1070
    74
1070
     0
1000
MTEXTEND
  0
MTEXT
  5
5610
330
1A
100
AcDbEntity
  8
SUNPOU
100
AcDbMText
 10
49384.14706841413
 20
42797.0985797959
 30
0.0
 40
350.0000004171781
 41
0.0
 71
     7
 72
     5
  1

1001
ACAD
1000
MTEXTBEGIN
1070
    73
1070
     1
1070
    44
1040
1.0
1070
    74
1070
     0
1000
MTEXTEND
  0
MTEXT
  5
5611
330
1A
100
AcDbEntity
  8
0
100
AcDbMText
 10
55428.09782635704
 20
40777.0209419321
 30
0.0
 40
8.0
 41
0.0
 71
     7
 72
     5
  1

1001
ACAD
1000
MTEXTBEGIN
1070
    73
1070
     1
1070
    44
1040
1.0
1070
    74
1070
     0
1000
MTEXTEND
  0
MTEXT
  5
5612
330
1A
100
AcDbEntity
  8
0
100
AcDbMText
 10
57713.45551625193
 20
41747.81123668316
 30
0.0
 40
8.0
 41
0.0
 71
     7
 72
     5
  1

1001
ACAD
1000
MTEXTBEGIN
1070
    73
1070
     1
1070
    44
1040
1.0
1070
    74
1070
     0
1000
MTEXTEND
  0
MTEXT
  5
5613
330
1A
100
AcDbEntity
  8
SUNPOU
100
AcDbMText
 10
60379.35253693407
 20
51259.9226290583
 30
0.0
 40
10.5
 41
0.0
 71
     1
 72
     5
  1

1001
ACAD
1000
MTEXTBEGIN
1070
    73
1070
     1
1070
    44
1040
1.0
1070
    74
1070
     0
1000
MTEXTEND
  0
MTEXT
  5
5614
330
1A
100
AcDbEntity
  8
SUNPOU
100
AcDbMText
 10
52448.42934099813
 20
50313.12949514535
 30
0.0
 40
10.5
 41
0.0
 71
     7
 72
     5
  1

1001
ACAD
1000
MTEXTBEGIN
1070
    73
1070
     1
1070
    44
1040
1.0
1070
    74
1070
     0
1000
MTEXTEND
  0
MTEXT
  5
5615
330
1A
100
AcDbEntity
  8
SUNPOU
100
AcDbMText
 10
55397.4130055109
 20
55213.80556698819
 30
0.0
 40
10.5
 41
0.0
 71
     7
 72
     5
  1

1001
ACAD
1000
MTEXTBEGIN
1070
    73
1070
     1
1070
    44
1040
1.0
1070
    74
1070
     0
1000
MTEXTEND
  0
MTEXT
  5
5616
330
1A
100
AcDbEntity
  8
SUNPOU
100
AcDbMText
 10
59906.49113346147
 20
57650.10631460826
 30
0.0
 40
10.5
 41
0.0
 71
     7
 72
     5
  1

1001
ACAD
1000
MTEXTBEGIN
1070
    73
1070
     1
1070
    44
1040
1.0
1070
    74
1070
     0
1000
MTEXTEND
  0
MTEXT
  5
5617
330
1A
100
AcDbEntity
  8
SUNPOU
100
AcDbMText
 10
43507.32902022978
 20
36647.70246499718
 30
0.0
 40
10.5
 41
0.0
 71
     7
 72
     5
  1

1001
ACAD
1000
MTEXTBEGIN
1070
    73
1070
     1
1070
    44
1040
1.0
1070
    74
1070
     0
1000
MTEXTEND
  0
MTEXT
  5
5618
330
1A
100
AcDbEntity
  8
SUNPOU
100
AcDbMText
 10
94698.84745413006
 20
82320.68302864544
 30
0.0
 40
10.5
 41
0.0
 71
     9
 72
     5
  1

1001
ACAD
1000
MTEXTBEGIN
1070
    73
1070
     1
1070
    44
1040
1.0
1070
    74
1070
     0
1000
MTEXTEND
  0
MTEXT
  5
5619
330
1A
100
AcDbEntity
  8
SUNPOU
100
AcDbMText
 10
103421.015020048
 20
89736.5175601829
 30
0.0
 40
10.5
 41
0.0
 71
     9
 72
     5
  1

1001
ACAD
1000
MTEXTBEGIN
1070
    73
1070
     1
1070
    44
1040
1.0
1070
    74
1070
     0
1000
MTEXTEND
  0
MTEXT
  5
561A
330
1A
100
AcDbEntity
  8
SUNPOU
100
AcDbMText
 10
122374.773737378
 20
107203.0936126749
 30
0.0
 40
10.5
 41
0.0
 71
     9
 72
     5
  1

1001
ACAD
1000
MTEXTBEGIN
1070
    73
1070
     1
1070
    44
1040
1.0
1070
    74
1070
     0
1000
MTEXTEND
  0
MTEXT
  5
561B
330
1A
100
AcDbEntity
  8
SUNPOU
100
AcDbMText
 10
124318.1809840874
 20
105402.0445327969
 30
0.0
 40
3.5
 41
0.0
 71
     9
 72
     5
  1

1001
ACAD
1000
MTEXTBEGIN
1070
    73
1070
     1
1070
    44
1040
1.0
1070
    74
1070
     0
1000
MTEXTEND
  0
MTEXT
  5
561C
330
1A
100
AcDbEntity
  8
SUNPOU
100
AcDbMText
 10
155444.3608167071
 20
147896.9902004542
 30
0.0
 40
10.5
 41
0.0
 71
     9
 72
     5
  1

1001
ACAD
1000
MTEXTBEGIN
1070
    73
1070
     1
1070
    44
1040
1.0
1070
    74
1070
     0
1000
MTEXTEND
  0
MTEXT
  5
561D
330
1A
100
AcDbEntity
  8
SUNPOU
100
AcDbMText
 10
157387.7680634165
 20
146095.9411205762
 30
0.0
 40
3.5
 41
0.0
 71
     9
 72
     5
  1

1001
ACAD
1000
MTEXTBEGIN
1070
    73
1070
     1
1070
    44
1040
1.0
1070
    74
1070
     0
1000
MTEXTEND
  0
MTEXT
  5
561E
330
1A
100
AcDbEntity
  8
SUNPOU
100
AcDbMText
 10
105884.6285225027
 20
93730.15535542933
 30
0.0
 40
10.5
 41
0.0
 71
     9
 72
     5
  1

1001
ACAD
1000
MTEXTBEGIN
1070
    73
1070
     1
1070
    44
1040
1.0
1070
    74
1070
     0
1000
MTEXTEND
  0
MTEXT
  5
561F
330
1A
100
AcDbEntity
  8
SUNPOU
100
AcDbMText
 10
91936.6284221267
 20
74557.75621631714
 30
0.0
 40
3.5
 41
0.0
 71
     7
 72
     5
  1

1001
ACAD
1000
MTEXTBEGIN
1070
    73
1070
     1
1070
    44
1040
1.0
1070
    74
1070
     0
1000
MTEXTEND
  0
MTEXT
  5
5620
330
1A
100
AcDbEntity
  8
SUNPOU
100
AcDbMText
 10
72921.79781911986
 20
62319.90494713532
 30
0.0
 40
10.5
 41
0.0
 71
     7
 72
     5
  1

1001
ACAD
1000
MTEXTBEGIN
1070
    73
1070
     1
1070
    44
1040
1.0
1070
    74
1070
     0
1000
MTEXTEND
  0
MTEXT
  5
5621
330
1A
100
AcDbEntity
  8
SUNPOU
100
AcDbMText
 10
60464.56955417175
 20
46474.97336903692
 30
0.0
 40
35.0
 41
0.0
 71
     9
 72
     5
  1

1001
ACAD
1000
MTEXTBEGIN
1070
    73
1070
     1
1070
    44
1040
1.0
1070
    74
1070
     0
1000
MTEXTEND
  0
MTEXT
  5
5622
330
1A
100
AcDbEntity
  8
SUNPOU
100
AcDbMText
 10
59373.05461174673
 20
47083.74877908561
 30
0.0
 40
350.0000004171781
 41
0.0
 71
     7
 72
     5
  1

1001
ACAD
1000
MTEXTBEGIN
1070
    73
1070
     1
1070
    44
1040
1.0
1070
    74
1070
     0
1000
MTEXTEND
  0
MTEXT
  5
5623
330
1A
100
AcDbEntity
  8
0
100
AcDbMText
 10
65417.00536968963
 20
45063.67114122186
 30
0.0
 40
8.0
 41
0.0
 71
     7
 72
     5
  1

1001
ACAD
1000
MTEXTBEGIN
1070
    73
1070
     1
1070
    44
1040
1.0
1070
    74
1070
     0
1000
MTEXTEND
  0
MTEXT
  5
5624
330
1A
100
AcDbEntity
  8
0
100
AcDbMText
 10
67702.36305958452
 20
46034.46143597292
 30
0.0
 40
8.0
 41
0.0
 71
     7
 72
     5
  1

1001
ACAD
1000
MTEXTBEGIN
1070
    73
1070
     1
1070
    44
1040
1.0
1070
    74
1070
     0
1000
MTEXTEND
  0
MTEXT
  5
5625
330
1A
100
AcDbEntity
  8
SUNPOU
100
AcDbMText
 10
70368.26008026666
 20
55546.57282834803
 30
0.0
 40
10.5
 41
0.0
 71
     1
 72
     5
  1

1001
ACAD
1000
MTEXTBEGIN
1070
    73
1070
     1
1070
    44
1040
1.0
1070
    74
1070
     0
1000
MTEXTEND
  0
MTEXT
  5
5626
330
1A
100
AcDbEntity
  8
SUNPOU
100
AcDbMText
 10
62437.33688433072
 20
54599.77969443507
 30
0.0
 40
10.5
 41
0.0
 71
     7
 72
     5
  1

1001
ACAD
1000
MTEXTBEGIN
1070
    73
1070
     1
1070
    44
1040
1.0
1070
    74
1070
     0
1000
MTEXTEND
  0
MTEXT
  5
5627
330
1A
100
AcDbEntity
  8
SUNPOU
100
AcDbMText
 10
65386.32054884348
 20
59500.45576627792
 30
0.0
 40
10.5
 41
0.0
 71
     7
 72
     5
  1

1001
ACAD
1000
MTEXTBEGIN
1070
    73
1070
     1
1070
    44
1040
1.0
1070
    74
1070
     0
1000
MTEXTEND
  0
MTEXT
  5
5628
330
1A
100
AcDbEntity
  8
SUNPOU
100
AcDbMText
 10
69895.39867679405
 20
61936.756513898
 30
0.0
 40
10.5
 41
0.0
 71
     7
 72
     5
  1

1001
ACAD
1000
MTEXTBEGIN
1070
    73
1070
     1
1070
    44
1040
1.0
1070
    74
1070
     0
1000
MTEXTEND
  0
MTEXT
  5
5629
330
1A
100
AcDbEntity
  8
SUNPOU
100
AcDbMText
 10
53496.23656356237
 20
40934.35266428691
 30
0.0
 40
10.5
 41
0.0
 71
     7
 72
     5
  1

1001
ACAD
1000
MTEXTBEGIN
1070
    73
1070
     1
1070
    44
1040
1.0
1070
    74
1070
     0
1000
MTEXTEND
  0
MTEXT
  5
562A
330
1A
100
AcDbEntity
  8
SUNPOU
100
AcDbMText
 10
55306.99947493731
 20
47261.76665176546
 30
0.0
 40
10.5
 41
0.0
 71
     9
 72
     5
  1

1001
ACAD
1000
MTEXTBEGIN
1070
    73
1070
     1
1070
    44
1040
1.0
1070
    74
1070
     0
1000
MTEXTEND
  0
MTEXT
  5
562B
330
1A
100
AcDbEntity
  8
SUNPOU
100
AcDbMText
 10
64029.16704085527
 20
54677.60118330295
 30
0.0
 40
10.5
 41
0.0
 71
     9
 72
     5
  1

1001
ACAD
1000
MTEXTBEGIN
1070
    73
1070
     1
1070
    44
1040
1.0
1070
    74
1070
     0
1000
MTEXTEND
  0
MTEXT
  5
562C
330
1A
100
AcDbEntity
  8
SUNPOU
100
AcDbMText
 10
82982.92575818527
 20
72144.17723579499
 30
0.0
 40
10.5
 41
0.0
 71
     9
 72
     5
  1

1001
ACAD
1000
MTEXTBEGIN
1070
    73
1070
     1
1070
    44
1040
1.0
1070
    74
1070
     0
1000
MTEXTEND
  0
MTEXT
  5
562D
330
1A
100
AcDbEntity
  8
SUNPOU
100
AcDbMText
 10
84926.33300489467
 20
70343.12815591697
 30
0.0
 40
3.5
 41
0.0
 71
     9
 72
     5
  1

1001
ACAD
1000
MTEXTBEGIN
1070
    73
1070
     1
1070
    44
1040
1.0
1070
    74
1070
     0
1000
MTEXTEND
  0
MTEXT
  5
562E
330
1A
100
AcDbEntity
  8
SUNPOU
100
AcDbMText
 10
116052.5128375142
 20
112838.0738235742
 30
0.0
 40
10.5
 41
0.0
 71
     9
 72
     5
  1

1001
ACAD
1000
MTEXTBEGIN
1070
    73
1070
     1
1070
    44
1040
1.0
1070
    74
1070
     0
1000
MTEXTEND
  0
MTEXT
  5
562F
330
1A
100
AcDbEntity
  8
SUNPOU
100
AcDbMText
 10
117995.9200842238
 20
111037.0247436963
 30
0.0
 40
3.5
 41
0.0
 71
     9
 72
     5
  1

1001
ACAD
1000
MTEXTBEGIN
1070
    73
1070
     1
1070
    44
1040
1.0
1070
    74
1070
     0
1000
MTEXTEND
  0
MTEXT
  5
5630
330
1A
100
AcDbEntity
  8
SUNPOU
100
AcDbMText
 10
66492.78054330994
 20
58671.23897854939
 30
0.0
 40
10.5
 41
0.0
 71
     9
 72
     5
  1

1001
ACAD
1000
MTEXTBEGIN
1070
    73
1070
     1
1070
    44
1040
1.0
1070
    74
1070
     0
1000
MTEXTEND
  0
MTEXT
  5
5631
330
1A
100
AcDbEntity
  8
SUNPOU
100
AcDbMText
 10
52544.78044293397
 20
39498.83983943717
 30
0.0
 40
3.5
 41
0.0
 71
     7
 72
     5
  1

1001
ACAD
1000
MTEXTBEGIN
1070
    73
1070
     1
1070
    44
1040
1.0
1070
    74
1070
     0
1000
MTEXTEND
  0
MTEXT
  5
5632
330
1A
100
AcDbEntity
  8
SUNPOU
100
AcDbMText
 10
66237.13112570454
 20
48857.90306045851
 30
0.0
 40
10.5
 41
0.0
 71
     9
 72
     5
  1

1001
ACAD
1000
MTEXTBEGIN
1070
    73
1070
     1
1070
    44
1040
1.0
1070
    74
1070
     0
1000
MTEXTEND
  0
MTEXT
  5
5633
330
1A
100
AcDbEntity
  8
SUNPOU
100
AcDbMText
 10
74959.29869162253
 20
56273.73759199599
 30
0.0
 40
10.5
 41
0.0
 71
     9
 72
     5
  1

1001
ACAD
1000
MTEXTBEGIN
1070
    73
1070
     1
1070
    44
1040
1.0
1070
    74
1070
     0
1000
MTEXTEND
  0
MTEXT
  5
5634
330
1A
100
AcDbEntity
  8
SUNPOU
100
AcDbMText
 10
93913.0574089525
 20
73740.31364448805
 30
0.0
 40
10.5
 41
0.0
 71
     9
 72
     5
  1

1001
ACAD
1000
MTEXTBEGIN
1070
    73
1070
     1
1070
    44
1040
1.0
1070
    74
1070
     0
1000
MTEXTEND
  0
MTEXT
  5
5635
330
1A
100
AcDbEntity
  8
SUNPOU
100
AcDbMText
 10
95856.46465566192
 20
71939.26456461004
 30
0.0
 40
3.5
 41
0.0
 71
     9
 72
     5
  1

1001
ACAD
1000
MTEXTBEGIN
1070
    73
1070
     1
1070
    44
1040
1.0
1070
    74
1070
     0
1000
MTEXTEND
  0
MTEXT
  5
5636
330
1A
100
AcDbEntity
  8
SUNPOU
100
AcDbMText
 10
126982.6444882816
 20
114434.2102322673
 30
0.0
 40
10.5
 41
0.0
 71
     9
 72
     5
  1

1001
ACAD
1000
MTEXTBEGIN
1070
    73
1070
     1
1070
    44
1040
1.0
1070
    74
1070
     0
1000
MTEXTEND
  0
MTEXT
  5
5637
330
1A
100
AcDbEntity
  8
SUNPOU
100
AcDbMText
 10
128926.051734991
 20
112633.1611523893
 30
0.0
 40
3.5
 41
0.0
 71
     9
 72
     5
  1

1001
ACAD
1000
MTEXTBEGIN
1070
    73
1070
     1
1070
    44
1040
1.0
1070
    74
1070
     0
1000
MTEXTEND
  0
MTEXT
  5
5638
330
1A
100
AcDbEntity
  8
SUNPOU
100
AcDbMText
 10
77422.91219407717
 20
60267.37538724244
 30
0.0
 40
10.5
 41
0.0
 71
     9
 72
     5
  1

1001
ACAD
1000
MTEXTBEGIN
1070
    73
1070
     1
1070
    44
1040
1.0
1070
    74
1070
     0
1000
MTEXTEND
  0
MTEXT
  5
5639
330
1A
100
AcDbEntity
  8
SUNPOU
100
AcDbMText
 10
63474.91209370119
 20
41094.97624813023
 30
0.0
 40
3.5
 41
0.0
 71
     7
 72
     5
  1

1001
ACAD
1000
MTEXTBEGIN
1070
    73
1070
     1
1070
    44
1040
1.0
1070
    74
1070
     0
1000
MTEXTEND
  0
MTEXT
  5
563A
330
1A
100
AcDbEntity
  8
SUNPOU
100
AcDbMText
 10
48117.65086229006
 20
40806.11043916631
 30
0.0
 40
10.5
 41
0.0
 71
     9
 72
     5
  1

1001
ACAD
1000
MTEXTBEGIN
1070
    73
1070
     1
1070
    44
1040
1.0
1070
    74
1070
     0
1000
MTEXTEND
  0
MTEXT
  5
563B
330
1A
100
AcDbEntity
  8
SUNPOU
100
AcDbMText
 10
67071.40957962004
 20
58272.68649165838
 30
0.0
 40
10.5
 41
0.0
 71
     9
 72
     5
  1

1001
ACAD
1000
MTEXTBEGIN
1070
    73
1070
     1
1070
    44
1040
1.0
1070
    74
1070
     0
1000
MTEXTEND
  0
MTEXT
  5
563C
330
1A
100
AcDbEntity
  8
SUNPOU
100
AcDbMText
 10
69014.81682632945
 20
56471.63741178035
 30
0.0
 40
3.5
 41
0.0
 71
     9
 72
     5
  1

1001
ACAD
1000
MTEXTBEGIN
1070
    73
1070
     1
1070
    44
1040
1.0
1070
    74
1070
     0
1000
MTEXTEND
  0
MTEXT
  5
563D
330
1A
100
AcDbEntity
  8
SUNPOU
100
AcDbMText
 10
100140.9966589491
 20
98966.58307943773
 30
0.0
 40
10.5
 41
0.0
 71
     9
 72
     5
  1

1001
ACAD
1000
MTEXTBEGIN
1070
    73
1070
     1
1070
    44
1040
1.0
1070
    74
1070
     0
1000
MTEXTEND
  0
MTEXT
  5
563E
330
1A
100
AcDbEntity
  8
SUNPOU
100
AcDbMText
 10
102084.4039056586
 20
97165.53399955968
 30
0.0
 40
3.5
 41
0.0
 71
     9
 72
     5
  1

1001
ACAD
1000
MTEXTBEGIN
1070
    73
1070
     1
1070
    44
1040
1.0
1070
    74
1070
     0
1000
MTEXTEND
  0
MTEXT
  5
563F
330
1A
100
AcDbEntity
  8
SUNPOU
100
AcDbMText
 10
50581.26436474472
 20
44799.74823441275
 30
0.0
 40
10.5
 41
0.0
 71
     9
 72
     5
  1

1001
ACAD
1000
MTEXTBEGIN
1070
    73
1070
     1
1070
    44
1040
1.0
1070
    74
1070
     0
1000
MTEXTEND
  0
MTEXT
  5
5640
330
1A
100
AcDbEntity
  8
SUNPOU
100
AcDbMText
 10
36633.26426436873
 20
25627.34909530054
 30
0.0
 40
3.5
 41
0.0
 71
     7
 72
     5
  1

1001
ACAD
1000
MTEXTBEGIN
1070
    73
1070
     1
1070
    44
1040
1.0
1070
    74
1070
     0
1000
MTEXTEND
  0
MTEXT
  5
5641
330
1A
100
AcDbEntity
  8
SUNPOU
100
AcDbMText
 10
61069.42493315968
 20
52574.61207825771
 30
0.0
 40
10.5
 41
0.0
 71
     9
 72
     5
  1

1001
ACAD
1000
MTEXTBEGIN
1070
    73
1070
     1
1070
    44
1040
1.0
1070
    74
1070
     0
1000
MTEXTEND
  0
MTEXT
  5
5642
330
1A
100
AcDbEntity
  8
SUNPOU
100
AcDbMText
 10
80023.18365048967
 20
70041.18813074978
 30
0.0
 40
10.5
 41
0.0
 71
     9
 72
     5
  1

1001
ACAD
1000
MTEXTBEGIN
1070
    73
1070
     1
1070
    44
1040
1.0
1070
    74
1070
     0
1000
MTEXTEND
  0
MTEXT
  5
5643
330
1A
100
AcDbEntity
  8
SUNPOU
100
AcDbMText
 10
81966.59089719908
 20
68240.13905087176
 30
0.0
 40
3.5
 41
0.0
 71
     9
 72
     5
  1

1001
ACAD
1000
MTEXTBEGIN
1070
    73
1070
     1
1070
    44
1040
1.0
1070
    74
1070
     0
1000
MTEXTEND
  0
MTEXT
  5
5644
330
1A
100
AcDbEntity
  8
SUNPOU
100
AcDbMText
 10
113092.7707298186
 20
110735.0847185291
 30
0.0
 40
10.5
 41
0.0
 71
     9
 72
     5
  1

1001
ACAD
1000
MTEXTBEGIN
1070
    73
1070
     1
1070
    44
1040
1.0
1070
    74
1070
     0
1000
MTEXTEND
  0
MTEXT
  5
5645
330
1A
100
AcDbEntity
  8
SUNPOU
100
AcDbMText
 10
115036.1779765282
 20
108934.0356386511
 30
0.0
 40
3.5
 41
0.0
 71
     9
 72
     5
  1

1001
ACAD
1000
MTEXTBEGIN
1070
    73
1070
     1
1070
    44
1040
1.0
1070
    74
1070
     0
1000
MTEXTEND
  0
MTEXT
  5
5646
330
1A
100
AcDbEntity
  8
SUNPOU
100
AcDbMText
 10
63533.03843561432
 20
56568.24987350415
 30
0.0
 40
10.5
 41
0.0
 71
     9
 72
     5
  1

1001
ACAD
1000
MTEXTBEGIN
1070
    73
1070
     1
1070
    44
1040
1.0
1070
    74
1070
     0
1000
MTEXTEND
  0
MTEXT
  5
5647
330
1A
100
AcDbEntity
  8
SUNPOU
100
AcDbMText
 10
49585.03833523835
 20
37395.85073439196
 30
0.0
 40
3.5
 41
0.0
 71
     7
 72
     5
  1

1001
ACAD
1000
MTEXTBEGIN
1070
    73
1070
     1
1070
    44
1040
1.0
1070
    74
1070
     0
1000
MTEXTEND
  0
MTEXT
  5
5648
330
1A
100
AcDbEntity
  8
SUNPOU
100
AcDbMText
 10
77137.31641337052
 20
70907.11375048141
 30
0.0
 40
10.5
 41
0.0
 71
     9
 72
     5
  1

1001
ACAD
1000
MTEXTBEGIN
1070
    73
1070
     1
1070
    44
1040
1.0
1070
    74
1070
     0
1000
MTEXTEND
  0
MTEXT
  5
5649
330
1A
100
AcDbEntity
  8
SUNPOU
100
AcDbMText
 10
79080.72366007995
 20
69106.06467060339
 30
0.0
 40
3.5
 41
0.0
 71
     9
 72
     5
  1

1001
ACAD
1000
MTEXTBEGIN
1070
    73
1070
     1
1070
    44
1040
1.0
1070
    74
1070
     0
1000
MTEXTEND
  0
MTEXT
  5
564A
330
1A
100
AcDbEntity
  8
SUNPOU
100
AcDbMText
 10
110206.9034926996
 20
111601.0103382607
 30
0.0
 40
10.5
 41
0.0
 71
     9
 72
     5
  1

1001
ACAD
1000
MTEXTBEGIN
1070
    73
1070
     1
1070
    44
1040
1.0
1070
    74
1070
     0
1000
MTEXTEND
  0
MTEXT
  5
564B
330
1A
100
AcDbEntity
  8
SUNPOU
100
AcDbMText
 10
112150.310739409
 20
109799.9612583826
 30
0.0
 40
3.5
 41
0.0
 71
     9
 72
     5
  1

1001
ACAD
1000
MTEXTBEGIN
1070
    73
1070
     1
1070
    44
1040
1.0
1070
    74
1070
     0
1000
MTEXTEND
  0
MTEXT
  5
564C
330
1A
100
AcDbEntity
  8
SUNPOU
100
AcDbMText
 10
108819.1333204967
 20
110677.9087286761
 30
0.0
 40
10.5
 41
0.0
 71
     9
 72
     5
  1

1001
ACAD
1000
MTEXTBEGIN
1070
    73
1070
     1
1070
    44
1040
1.0
1070
    74
1070
     0
1000
MTEXTEND
  0
MTEXT
  5
564D
330
1A
100
AcDbEntity
  8
SUNPOU
100
AcDbMText
 10
110762.5405672062
 20
108876.8596487981
 30
0.0
 40
3.5
 41
0.0
 71
     9
 72
     5
  1

1001
ACAD
1000
MTEXTBEGIN
1070
    73
1070
     1
1070
    44
1040
1.0
1070
    74
1070
     0
1000
MTEXTEND
  0
MTEXT
  5
564E
330
1A
100
AcDbEntity
  8
SUNPOU
100
AcDbMText
 10
76303.05507956816
 20
68695.31179059812
 30
0.0
 40
10.5
 41
0.0
 71
     9
 72
     5
  1

1001
ACAD
1000
MTEXTBEGIN
1070
    73
1070
     1
1070
    44
1040
1.0
1070
    74
1070
     0
1000
MTEXTEND
  0
MTEXT
  5
564F
330
1A
100
AcDbEntity
  8
SUNPOU
100
AcDbMText
 10
79026.36128373271
 20
69099.99348217918
 30
0.0
 40
3.5
 41
0.0
 71
     9
 72
     5
  1

1001
ACAD
1000
MTEXTBEGIN
1070
    73
1070
     1
1070
    44
1040
1.0
1070
    74
1070
     0
1000
MTEXTEND
  0
MTEXT
  5
5650
330
1A
100
AcDbEntity
  8
SUNPOU
100
AcDbMText
 10
78234.00675862522
 20
65938.68764412436
 30
0.0
 40
10.5
 41
0.0
 71
     9
 72
     5
  1

1001
ACAD
1000
MTEXTBEGIN
1070
    73
1070
     1
1070
    44
1040
1.0
1070
    74
1070
     0
1000
MTEXTEND
  0
MTEXT
  5
5651
330
1A
100
AcDbEntity
  8
SUNPOU
100
AcDbMText
 10
80177.41400533465
 20
64137.63856424636
 30
0.0
 40
3.5
 41
0.0
 71
     9
 72
     5
  1

1001
ACAD
1000
MTEXTBEGIN
1070
    73
1070
     1
1070
    44
1040
1.0
1070
    74
1070
     0
1000
MTEXTEND
  0
MTEXT
  5
5652
330
1A
100
AcDbEntity
  8
SUNPOU
100
AcDbMText
 10
80122.50949592122
 20
64024.86668196204
 30
0.0
 40
3.5
 41
0.0
 71
     9
 72
     5
  1

1001
ACAD
1000
MTEXTBEGIN
1070
    73
1070
     1
1070
    44
1040
1.0
1070
    74
1070
     0
1000
MTEXTEND
  0
MTEXT
  5
5653
330
1A
100
AcDbEntity
  8
SUNPOU
100
AcDbMText
 10
79486.58135950133
 20
63213.54544089553
 30
0.0
 40
3.5
 41
0.0
 71
     9
 72
     5
  1

1001
ACAD
1000
MTEXTBEGIN
1070
    73
1070
     1
1070
    44
1040
1.0
1070
    74
1070
     0
1000
MTEXTEND
  0
MTEXT
  5
5654
330
1A
100
AcDbEntity
  8
SUNPOU
100
AcDbMText
 10
79485.3409400806
 20
63213.29746395804
 30
0.0
 40
10.5
 41
0.0
 71
     9
 72
     5
  1

1001
ACAD
1000
MTEXTBEGIN
1070
    73
1070
     1
1070
    44
1040
1.0
1070
    74
1070
     0
1000
MTEXTEND
  0
MTEXT
  5
5655
330
1A
100
AcDbEntity
  8
SUNPOU
100
AcDbMText
 10
85473.63363627567
 20
80747.76348077064
 30
0.0
 40
10.5
 41
0.0
 71
     9
 72
     5
  1

1001
ACAD
1000
MTEXTBEGIN
1070
    73
1070
     1
1070
    44
1040
1.0
1070
    74
1070
     0
1000
MTEXTEND
  0
MTEXT
  5
5656
330
1A
100
AcDbEntity
  8
SUNPOU
100
AcDbMText
 10
94195.80120219368
 20
88163.59801230808
 30
0.0
 40
10.5
 41
0.0
 71
     9
 72
     5
  1

1001
ACAD
1000
MTEXTBEGIN
1070
    73
1070
     1
1070
    44
1040
1.0
1070
    74
1070
     0
1000
MTEXTEND
  0
MTEXT
  5
5657
330
1A
100
AcDbEntity
  8
SUNPOU
100
AcDbMText
 10
113149.5599195236
 20
105630.1740648001
 30
0.0
 40
10.5
 41
0.0
 71
     9
 72
     5
  1

1001
ACAD
1000
MTEXTBEGIN
1070
    73
1070
     1
1070
    44
1040
1.0
1070
    74
1070
     0
1000
MTEXTEND
  0
MTEXT
  5
5658
330
1A
100
AcDbEntity
  8
SUNPOU
100
AcDbMText
 10
115092.967166233
 20
103829.1249849221
 30
0.0
 40
3.5
 41
0.0
 71
     9
 72
     5
  1

1001
ACAD
1000
MTEXTBEGIN
1070
    73
1070
     1
1070
    44
1040
1.0
1070
    74
1070
     0
1000
MTEXTEND
  0
MTEXT
  5
5659
330
1A
100
AcDbEntity
  8
SUNPOU
100
AcDbMText
 10
146219.1469988527
 20
146324.0706525794
 30
0.0
 40
10.5
 41
0.0
 71
     9
 72
     5
  1

1001
ACAD
1000
MTEXTBEGIN
1070
    73
1070
     1
1070
    44
1040
1.0
1070
    74
1070
     0
1000
MTEXTEND
  0
MTEXT
  5
565A
330
1A
100
AcDbEntity
  8
SUNPOU
100
AcDbMText
 10
148162.5542455621
 20
144523.0215727014
 30
0.0
 40
3.5
 41
0.0
 71
     9
 72
     5
  1

1001
ACAD
1000
MTEXTBEGIN
1070
    73
1070
     1
1070
    44
1040
1.0
1070
    74
1070
     0
1000
MTEXTEND
  0
MTEXT
  5
565B
330
1A
100
AcDbEntity
  8
SUNPOU
100
AcDbMText
 10
96659.41470464833
 20
92157.23580755453
 30
0.0
 40
10.5
 41
0.0
 71
     9
 72
     5
  1

1001
ACAD
1000
MTEXTBEGIN
1070
    73
1070
     1
1070
    44
1040
1.0
1070
    74
1070
     0
1000
MTEXTEND
  0
MTEXT
  5
565C
330
1A
100
AcDbEntity
  8
SUNPOU
100
AcDbMText
 10
82711.41460427234
 20
72984.83666844234
 30
0.0
 40
3.5
 41
0.0
 71
     7
 72
     5
  1

1001
ACAD
1000
MTEXTBEGIN
1070
    73
1070
     1
1070
    44
1040
1.0
1070
    74
1070
     0
1000
MTEXTEND
  0
MTEXT
  5
565D
330
1A
100
AcDbEntity
  8
SUNPOU
100
AcDbMText
 10
63696.58400126548
 20
60746.98539926055
 30
0.0
 40
10.5
 41
0.0
 71
     7
 72
     5
  1

1001
ACAD
1000
MTEXTBEGIN
1070
    73
1070
     1
1070
    44
1040
1.0
1070
    74
1070
     0
1000
MTEXTEND
  0
MTEXT
  5
565E
330
1A
100
AcDbEntity
  8
SUNPOU
100
AcDbMText
 10
51239.35573631738
 20
44902.05382116213
 30
0.0
 40
35.0
 41
0.0
 71
     9
 72
     5
  1

1001
ACAD
1000
MTEXTBEGIN
1070
    73
1070
     1
1070
    44
1040
1.0
1070
    74
1070
     0
1000
MTEXTEND
  0
MTEXT
  5
565F
330
1A
100
AcDbEntity
  8
SUNPOU
100
AcDbMText
 10
50147.84079389233
 20
45510.82923121084
 30
0.0
 40
350.0000004171781
 41
0.0
 71
     7
 72
     5
  1

1001
ACAD
1000
MTEXTBEGIN
1070
    73
1070
     1
1070
    44
1040
1.0
1070
    74
1070
     0
1000
MTEXTEND
  0
MTEXT
  5
5660
330
1A
100
AcDbEntity
  8
0
100
AcDbMText
 10
56191.79155183523
 20
43490.75159334705
 30
0.0
 40
8.0
 41
0.0
 71
     7
 72
     5
  1

1001
ACAD
1000
MTEXTBEGIN
1070
    73
1070
     1
1070
    44
1040
1.0
1070
    74
1070
     0
1000
MTEXTEND
  0
MTEXT
  5
5661
330
1A
100
AcDbEntity
  8
0
100
AcDbMText
 10
58477.14924173012
 20
44461.54188809812
 30
0.0
 40
8.0
 41
0.0
 71
     7
 72
     5
  1

1001
ACAD
1000
MTEXTBEGIN
1070
    73
1070
     1
1070
    44
1040
1.0
1070
    74
1070
     0
1000
MTEXTEND
  0
MTEXT
  5
5662
330
1A
100
AcDbEntity
  8
SUNPOU
100
AcDbMText
 10
61143.04626241227
 20
53973.65328047324
 30
0.0
 40
10.5
 41
0.0
 71
     1
 72
     5
  1

1001
ACAD
1000
MTEXTBEGIN
1070
    73
1070
     1
1070
    44
1040
1.0
1070
    74
1070
     0
1000
MTEXTEND
  0
MTEXT
  5
5663
330
1A
100
AcDbEntity
  8
SUNPOU
100
AcDbMText
 10
53212.12306647633
 20
53026.86014656028
 30
0.0
 40
10.5
 41
0.0
 71
     7
 72
     5
  1

1001
ACAD
1000
MTEXTBEGIN
1070
    73
1070
     1
1070
    44
1040
1.0
1070
    74
1070
     0
1000
MTEXTEND
  0
MTEXT
  5
5664
330
1A
100
AcDbEntity
  8
SUNPOU
100
AcDbMText
 10
56161.10673098909
 20
57927.53621840312
 30
0.0
 40
10.5
 41
0.0
 71
     7
 72
     5
  1

1001
ACAD
1000
MTEXTBEGIN
1070
    73
1070
     1
1070
    44
1040
1.0
1070
    74
1070
     0
1000
MTEXTEND
  0
MTEXT
  5
5665
330
1A
100
AcDbEntity
  8
SUNPOU
100
AcDbMText
 10
60670.18485893966
 20
60363.8369660232
 30
0.0
 40
10.5
 41
0.0
 71
     7
 72
     5
  1

1001
ACAD
1000
MTEXTBEGIN
1070
    73
1070
     1
1070
    44
1040
1.0
1070
    74
1070
     0
1000
MTEXTEND
  0
MTEXT
  5
5666
330
1A
100
AcDbEntity
  8
SUNPOU
100
AcDbMText
 10
44271.02274570799
 20
39361.43311641211
 30
0.0
 40
10.5
 41
0.0
 71
     7
 72
     5
  1

1001
ACAD
1000
MTEXTBEGIN
1070
    73
1070
     1
1070
    44
1040
1.0
1070
    74
1070
     0
1000
MTEXTEND
  0
MTEXT
  5
5667
330
1A
100
AcDbEntity
  8
SUNPOU
100
AcDbMText
 10
95462.54117960824
 20
85034.41368006038
 30
0.0
 40
10.5
 41
0.0
 71
     9
 72
     5
  1

1001
ACAD
1000
MTEXTBEGIN
1070
    73
1070
     1
1070
    44
1040
1.0
1070
    74
1070
     0
1000
MTEXTEND
  0
MTEXT
  5
5668
330
1A
100
AcDbEntity
  8
SUNPOU
100
AcDbMText
 10
104184.7087455262
 20
92450.24821159784
 30
0.0
 40
10.5
 41
0.0
 71
     9
 72
     5
  1

1001
ACAD
1000
MTEXTBEGIN
1070
    73
1070
     1
1070
    44
1040
1.0
1070
    74
1070
     0
1000
MTEXTEND
  0
MTEXT
  5
5669
330
1A
100
AcDbEntity
  8
SUNPOU
100
AcDbMText
 10
123138.4674628562
 20
109916.8242640898
 30
0.0
 40
10.5
 41
0.0
 71
     9
 72
     5
  1

1001
ACAD
1000
MTEXTBEGIN
1070
    73
1070
     1
1070
    44
1040
1.0
1070
    74
1070
     0
1000
MTEXTEND
  0
MTEXT
  5
566A
330
1A
100
AcDbEntity
  8
SUNPOU
100
AcDbMText
 10
125081.8747095656
 20
108115.7751842118
 30
0.0
 40
3.5
 41
0.0
 71
     9
 72
     5
  1

1001
ACAD
1000
MTEXTBEGIN
1070
    73
1070
     1
1070
    44
1040
1.0
1070
    74
1070
     0
1000
MTEXTEND
  0
MTEXT
  5
566B
330
1A
100
AcDbEntity
  8
SUNPOU
100
AcDbMText
 10
156208.0545421853
 20
150610.7208518691
 30
0.0
 40
10.5
 41
0.0
 71
     9
 72
     5
  1

1001
ACAD
1000
MTEXTBEGIN
1070
    73
1070
     1
1070
    44
1040
1.0
1070
    74
1070
     0
1000
MTEXTEND
  0
MTEXT
  5
566C
330
1A
100
AcDbEntity
  8
SUNPOU
100
AcDbMText
 10
158151.4617888947
 20
148809.6717719911
 30
0.0
 40
3.5
 41
0.0
 71
     9
 72
     5
  1

1001
ACAD
1000
MTEXTBEGIN
1070
    73
1070
     1
1070
    44
1040
1.0
1070
    74
1070
     0
1000
MTEXTEND
  0
MTEXT
  5
566D
330
1A
100
AcDbEntity
  8
SUNPOU
100
AcDbMText
 10
106648.3222479809
 20
96443.88600684427
 30
0.0
 40
10.5
 41
0.0
 71
     9
 72
     5
  1

1001
ACAD
1000
MTEXTBEGIN
1070
    73
1070
     1
1070
    44
1040
1.0
1070
    74
1070
     0
1000
MTEXTEND
  0
MTEXT
  5
566E
330
1A
100
AcDbEntity
  8
SUNPOU
100
AcDbMText
 10
92700.3221476049
 20
77271.48686773207
 30
0.0
 40
3.5
 41
0.0
 71
     7
 72
     5
  1

1001
ACAD
1000
MTEXTBEGIN
1070
    73
1070
     1
1070
    44
1040
1.0
1070
    74
1070
     0
1000
MTEXTEND
  0
MTEXT
  5
566F
330
1A
100
AcDbEntity
  8
SUNPOU
100
AcDbMText
 10
73685.49154459807
 20
65033.63559855027
 30
0.0
 40
10.5
 41
0.0
 71
     7
 72
     5
  1

1001
ACAD
1000
MTEXTBEGIN
1070
    73
1070
     1
1070
    44
1040
1.0
1070
    74
1070
     0
1000
MTEXTEND
  0
MTEXT
  5
5670
330
1A
100
AcDbEntity
  8
SUNPOU
100
AcDbMText
 10
61228.26327964995
 20
49188.70402045184
 30
0.0
 40
35.0
 41
0.0
 71
     9
 72
     5
  1

1001
ACAD
1000
MTEXTBEGIN
1070
    73
1070
     1
1070
    44
1040
1.0
1070
    74
1070
     0
1000
MTEXTEND
  0
MTEXT
  5
5671
330
1A
100
AcDbEntity
  8
SUNPOU
100
AcDbMText
 10
60136.74833722491
 20
49797.47943050056
 30
0.0
 40
350.0000004171781
 41
0.0
 71
     7
 72
     5
  1

1001
ACAD
1000
MTEXTBEGIN
1070
    73
1070
     1
1070
    44
1040
1.0
1070
    74
1070
     0
1000
MTEXTEND
  0
MTEXT
  5
5672
330
1A
100
AcDbEntity
  8
0
100
AcDbMText
 10
66180.69909516782
 20
47777.40179263677
 30
0.0
 40
8.0
 41
0.0
 71
     7
 72
     5
  1

1001
ACAD
1000
MTEXTBEGIN
1070
    73
1070
     1
1070
    44
1040
1.0
1070
    74
1070
     0
1000
MTEXTEND
  0
MTEXT
  5
5673
330
1A
100
AcDbEntity
  8
0
100
AcDbMText
 10
68466.05678506271
 20
48748.19208738784
 30
0.0
 40
8.0
 41
0.0
 71
     7
 72
     5
  1

1001
ACAD
1000
MTEXTBEGIN
1070
    73
1070
     1
1070
    44
1040
1.0
1070
    74
1070
     0
1000
MTEXTEND
  0
MTEXT
  5
5674
330
1A
100
AcDbEntity
  8
SUNPOU
100
AcDbMText
 10
71131.95380574485
 20
58260.30347976296
 30
0.0
 40
10.5
 41
0.0
 71
     1
 72
     5
  1

1001
ACAD
1000
MTEXTBEGIN
1070
    73
1070
     1
1070
    44
1040
1.0
1070
    74
1070
     0
1000
MTEXTEND
  0
MTEXT
  5
5675
330
1A
100
AcDbEntity
  8
SUNPOU
100
AcDbMText
 10
63201.03060980891
 20
57313.51034585003
 30
0.0
 40
10.5
 41
0.0
 71
     7
 72
     5
  1

1001
ACAD
1000
MTEXTBEGIN
1070
    73
1070
     1
1070
    44
1040
1.0
1070
    74
1070
     0
1000
MTEXTEND
  0
MTEXT
  5
5676
330
1A
100
AcDbEntity
  8
SUNPOU
100
AcDbMText
 10
66150.01427432169
 20
62214.18641769286
 30
0.0
 40
10.5
 41
0.0
 71
     7
 72
     5
  1

1001
ACAD
1000
MTEXTBEGIN
1070
    73
1070
     1
1070
    44
1040
1.0
1070
    74
1070
     0
1000
MTEXTEND
  0
MTEXT
  5
5677
330
1A
100
AcDbEntity
  8
SUNPOU
100
AcDbMText
 10
70659.09240227225
 20
64650.48716531294
 30
0.0
 40
10.5
 41
0.0
 71
     7
 72
     5
  1

1001
ACAD
1000
MTEXTBEGIN
1070
    73
1070
     1
1070
    44
1040
1.0
1070
    74
1070
     0
1000
MTEXTEND
  0
MTEXT
  5
5678
330
1A
100
AcDbEntity
  8
SUNPOU
100
AcDbMText
 10
54259.93028904056
 20
43648.08331570185
 30
0.0
 40
10.5
 41
0.0
 71
     7
 72
     5
  1

1001
ACAD
1000
MTEXTBEGIN
1070
    73
1070
     1
1070
    44
1040
1.0
1070
    74
1070
     0
1000
MTEXTEND
  0
MTEXT
  5
5679
330
1A
100
AcDbEntity
  8
SUNPOU
100
AcDbMText
 10
56070.69320041551
 20
49975.4973031804
 30
0.0
 40
10.5
 41
0.0
 71
     9
 72
     5
  1

1001
ACAD
1000
MTEXTBEGIN
1070
    73
1070
     1
1070
    44
1040
1.0
1070
    74
1070
     0
1000
MTEXTEND
  0
MTEXT
  5
567A
330
1A
100
AcDbEntity
  8
SUNPOU
100
AcDbMText
 10
64792.86076633347
 20
57391.33183471787
 30
0.0
 40
10.5
 41
0.0
 71
     9
 72
     5
  1

1001
ACAD
1000
MTEXTBEGIN
1070
    73
1070
     1
1070
    44
1040
1.0
1070
    74
1070
     0
1000
MTEXTEND
  0
MTEXT
  5
567B
330
1A
100
AcDbEntity
  8
SUNPOU
100
AcDbMText
 10
83746.61948366345
 20
74857.90788720994
 30
0.0
 40
10.5
 41
0.0
 71
     9
 72
     5
  1

1001
ACAD
1000
MTEXTBEGIN
1070
    73
1070
     1
1070
    44
1040
1.0
1070
    74
1070
     0
1000
MTEXTEND
  0
MTEXT
  5
567C
330
1A
100
AcDbEntity
  8
SUNPOU
100
AcDbMText
 10
85690.02673037287
 20
73056.85880733192
 30
0.0
 40
3.5
 41
0.0
 71
     9
 72
     5
  1

1001
ACAD
1000
MTEXTBEGIN
1070
    73
1070
     1
1070
    44
1040
1.0
1070
    74
1070
     0
1000
MTEXTEND
  0
MTEXT
  5
567D
330
1A
100
AcDbEntity
  8
SUNPOU
100
AcDbMText
 10
116816.2065629925
 20
115551.8044749892
 30
0.0
 40
10.5
 41
0.0
 71
     9
 72
     5
  1

1001
ACAD
1000
MTEXTBEGIN
1070
    73
1070
     1
1070
    44
1040
1.0
1070
    74
1070
     0
1000
MTEXTEND
  0
MTEXT
  5
567E
330
1A
100
AcDbEntity
  8
SUNPOU
100
AcDbMText
 10
118759.6138097019
 20
113750.7553951111
 30
0.0
 40
3.5
 41
0.0
 71
     9
 72
     5
  1

1001
ACAD
1000
MTEXTBEGIN
1070
    73
1070
     1
1070
    44
1040
1.0
1070
    74
1070
     0
1000
MTEXTEND
  0
MTEXT
  5
567F
330
1A
100
AcDbEntity
  8
SUNPOU
100
AcDbMText
 10
67256.47426878814
 20
61384.96962996432
 30
0.0
 40
10.5
 41
0.0
 71
     9
 72
     5
  1

1001
ACAD
1000
MTEXTBEGIN
1070
    73
1070
     1
1070
    44
1040
1.0
1070
    74
1070
     0
1000
MTEXTEND
  0
MTEXT
  5
5680
330
1A
100
AcDbEntity
  8
SUNPOU
100
AcDbMText
 10
53308.47416841216
 20
42212.57049085211
 30
0.0
 40
3.5
 41
0.0
 71
     7
 72
     5
  1

1001
ACAD
1000
MTEXTBEGIN
1070
    73
1070
     1
1070
    44
1040
1.0
1070
    74
1070
     0
1000
MTEXTEND
  0
MTEXT
  5
5681
330
1A
100
AcDbEntity
  8
SUNPOU
100
AcDbMText
 10
67000.82485118274
 20
51571.63371187344
 30
0.0
 40
10.5
 41
0.0
 71
     9
 72
     5
  1

1001
ACAD
1000
MTEXTBEGIN
1070
    73
1070
     1
1070
    44
1040
1.0
1070
    74
1070
     0
1000
MTEXTEND
  0
MTEXT
  5
5682
330
1A
100
AcDbEntity
  8
SUNPOU
100
AcDbMText
 10
75722.99241710071
 20
58987.46824341094
 30
0.0
 40
10.5
 41
0.0
 71
     9
 72
     5
  1

1001
ACAD
1000
MTEXTBEGIN
1070
    73
1070
     1
1070
    44
1040
1.0
1070
    74
1070
     0
1000
MTEXTEND
  0
MTEXT
  5
5683
330
1A
100
AcDbEntity
  8
SUNPOU
100
AcDbMText
 10
94676.75113443068
 20
76454.04429590299
 30
0.0
 40
10.5
 41
0.0
 71
     9
 72
     5
  1

1001
ACAD
1000
MTEXTBEGIN
1070
    73
1070
     1
1070
    44
1040
1.0
1070
    74
1070
     0
1000
MTEXTEND
  0
MTEXT
  5
5684
330
1A
100
AcDbEntity
  8
SUNPOU
100
AcDbMText
 10
96620.1583811401
 20
74652.99521602497
 30
0.0
 40
3.5
 41
0.0
 71
     9
 72
     5
  1

1001
ACAD
1000
MTEXTBEGIN
1070
    73
1070
     1
1070
    44
1040
1.0
1070
    74
1070
     0
1000
MTEXTEND
  0
MTEXT
  5
5685
330
1A
100
AcDbEntity
  8
SUNPOU
100
AcDbMText
 10
127746.3382137598
 20
117147.9408836822
 30
0.0
 40
10.5
 41
0.0
 71
     9
 72
     5
  1

1001
ACAD
1000
MTEXTBEGIN
1070
    73
1070
     1
1070
    44
1040
1.0
1070
    74
1070
     0
1000
MTEXTEND
  0
MTEXT
  5
5686
330
1A
100
AcDbEntity
  8
SUNPOU
100
AcDbMText
 10
129689.7454604692
 20
115346.8918038042
 30
0.0
 40
3.5
 41
0.0
 71
     9
 72
     5
  1

1001
ACAD
1000
MTEXTBEGIN
1070
    73
1070
     1
1070
    44
1040
1.0
1070
    74
1070
     0
1000
MTEXTEND
  0
MTEXT
  5
5687
330
1A
100
AcDbEntity
  8
SUNPOU
100
AcDbMText
 10
78186.60591955537
 20
62981.10603865737
 30
0.0
 40
10.5
 41
0.0
 71
     9
 72
     5
  1

1001
ACAD
1000
MTEXTBEGIN
1070
    73
1070
     1
1070
    44
1040
1.0
1070
    74
1070
     0
1000
MTEXTEND
  0
MTEXT
  5
5688
330
1A
100
AcDbEntity
  8
SUNPOU
100
AcDbMText
 10
64238.60581917939
 20
43808.70689954517
 30
0.0
 40
3.5
 41
0.0
 71
     7
 72
     5
  1

1001
ACAD
1000
MTEXTBEGIN
1070
    73
1070
     1
1070
    44
1040
1.0
1070
    74
1070
     0
1000
MTEXTEND
  0
MTEXT
  5
5689
330
1A
100
AcDbEntity
  8
SUNPOU
100
AcDbMText
 10
33428.13481137435
 20
32770.04710035563
 30
0.0
 40
10.5
 41
0.0
 71
     9
 72
     5
  1

1001
ACAD
1000
MTEXTBEGIN
1070
    73
1070
     1
1070
    44
1040
1.0
1070
    74
1070
     0
1000
MTEXTEND
  0
MTEXT
  5
568A
330
1A
100
AcDbEntity
  8
SUNPOU
100
AcDbMText
 10
52381.89352870431
 20
50236.62315284768
 30
0.0
 40
10.5
 41
0.0
 71
     9
 72
     5
  1

1001
ACAD
1000
MTEXTBEGIN
1070
    73
1070
     1
1070
    44
1040
1.0
1070
    74
1070
     0
1000
MTEXTEND
  0
MTEXT
  5
568B
330
1A
100
AcDbEntity
  8
SUNPOU
100
AcDbMText
 10
54325.30077541374
 20
48435.57407296968
 30
0.0
 40
3.5
 41
0.0
 71
     9
 72
     5
  1

1001
ACAD
1000
MTEXTBEGIN
1070
    73
1070
     1
1070
    44
1040
1.0
1070
    74
1070
     0
1000
MTEXTEND
  0
MTEXT
  5
568C
330
1A
100
AcDbEntity
  8
SUNPOU
100
AcDbMText
 10
85451.48060803342
 20
90930.51974062703
 30
0.0
 40
10.5
 41
0.0
 71
     9
 72
     5
  1

1001
ACAD
1000
MTEXTBEGIN
1070
    73
1070
     1
1070
    44
1040
1.0
1070
    74
1070
     0
1000
MTEXTEND
  0
MTEXT
  5
568D
330
1A
100
AcDbEntity
  8
SUNPOU
100
AcDbMText
 10
87394.88785474286
 20
89129.47066074901
 30
0.0
 40
3.5
 41
0.0
 71
     9
 72
     5
  1

1001
ACAD
1000
MTEXTBEGIN
1070
    73
1070
     1
1070
    44
1040
1.0
1070
    74
1070
     0
1000
MTEXTEND
  0
MTEXT
  5
568E
330
1A
100
AcDbEntity
  8
SUNPOU
100
AcDbMText
 10
35891.74831382901
 20
36763.68489560208
 30
0.0
 40
10.5
 41
0.0
 71
     9
 72
     5
  1

1001
ACAD
1000
MTEXTBEGIN
1070
    73
1070
     1
1070
    44
1040
1.0
1070
    74
1070
     0
1000
MTEXTEND
  0
MTEXT
  5
568F
330
1A
100
AcDbEntity
  8
SUNPOU
100
AcDbMText
 10
21943.74821345303
 20
17591.28575648985
 30
0.0
 40
3.5
 41
0.0
 71
     7
 72
     5
  1

1001
ACAD
1000
MTEXTBEGIN
1070
    73
1070
     1
1070
    44
1040
1.0
1070
    74
1070
     0
1000
MTEXTEND
  0
MTEXT
  5
11D07
330
1A
100
AcDbEntity
  8
ZISSEN1
100
AcDbMText
 10
-1481.942063414797
 20
1921.669683890458
 30
0.0
 40
5.0
 41
171.8538
 71
     1
 72
     5
  1
D-2701A　　No.SS0001f37
  7
ゴシック体
1001
ACAD
1000
MTEXTBEGIN
1070
    73
1070
     1
1070
    44
1040
1.0
1070
    74
1070
     0
1000
MTEXTEND
  0
ARC
  5
13708
330
1A
100
AcDbEntity
  8
ZISSEN1
100
AcDbCircle
 10
-1370.499595950384
 20
1920.826567426556
 30
0.0
 40
2.25
100
AcDbArc
 50
270.0
 51
90.0
  0
LINE
  5
13709
330
1A
100
AcDbEntity
  8
ZISSEN1
100
AcDbLine
 10
-1364.999595950384
 20
1909.626577426556
 30
0.0
 11
-1378.999595950384
 21
1909.626577426556
 31
0.0
  0
LINE
  5
1370A
330
1A
100
AcDbEntity
  8
ZISSEN1
100
AcDbLine
 10
-1364.999595950384
 20
1897.426577426556
 30
0.0
 11
-1378.999595950384
 21
1897.426577426556
 31
0.0
  0
LINE
  5
1370B
330
1A
100
AcDbEntity
  8
ZISSEN1
100
AcDbLine
 10
-1368.999585950384
 20
1845.664367426556
 30
0.0
 11
-1364.999595950384
 21
1845.664367426556
 31
0.0
  0
LINE
  5
1370C
330
1A
100
AcDbEntity
  8
ZISSEN1
100
AcDbLine
 10
-1368.999585950384
 20
1826.805347426556
 30
0.0
 11
-1364.999595950384
 21
1826.805347426556
 31
0.0
  0
LINE
  5
1370D
330
1A
100
AcDbEntity
  8
ZISSEN1
100
AcDbLine
 10
-1368.999585950384
 20
1824.250827426556
 30
0.0
 11
-1364.999595950384
 21
1824.250827426556
 31
0.0
  0
LINE
  5
1370E
330
1A
100
AcDbEntity
  8
ZISSEN1
100
AcDbLine
 10
-1368.999585950384
 20
1819.664387426556
 30
0.0
 11
-1364.999595950384
 21
1819.664387426556
 31
0.0
  0
LINE
  5
1370F
330
1A
100
AcDbEntity
  8
ZISSEN1
100
AcDbLine
 10
-1378.999595950384
 20
1729.164377426556
 30
0.0
 11
-1364.999595950384
 21
1729.164377426556
 31
0.0
  0
LINE
  5
13710
330
1A
100
AcDbEntity
  8
ZISSEN1
100
AcDbLine
 10
-1378.999595950384
 20
1785.164367426555
 30
0.0
 11
-1364.999595950384
 21
1785.164367426555
 31
0.0
  0
LINE
  5
13711
330
1A
100
AcDbEntity
  8
ZISSEN1
100
AcDbLine
 10
-1375.585375950383
 20
1890.326587426556
 30
0.0
 11
-1364.999595950384
 21
1890.326587426556
 31
0.0
  0
LINE
  5
13712
330
1A
100
AcDbEntity
  8
ZISSEN1
100
AcDbLine
 10
-1375.585375950383
 20
1932.326577426556
 30
0.0
 11
-1364.999595950384
 21
1932.326577426556
 31
0.0
  0
LINE
  5
13713
330
1A
100
AcDbEntity
  8
CL1
100
AcDbLine
 10
-1367.499585950384
 20
1920.826567426556
 30
0.0
 11
-1373.499595950383
 21
1920.826567426556
 31
0.0
  0
LINE
  5
13714
330
1A
100
AcDbEntity
  8
ZISSEN1
100
AcDbLine
 10
-1376.999585950384
 20
1725.164412426556
 30
0.0
 11
-1192.999625950384
 21
1725.164412426556
 31
0.0
  0
LINE
  5
13715
330
1A
100
AcDbEntity
  8
ZISSEN1
100
AcDbLine
 10
-1376.999585950384
 20
1722.164415426556
 30
0.0
 11
-1192.999625950384
 21
1722.164415426556
 31
0.0
  0
LINE
  5
13716
330
1A
100
AcDbEntity
  8
ZISSEN1
100
AcDbLine
 10
-1377.999595950384
 20
1785.164367426555
 30
0.0
 11
-1377.999595950384
 21
1729.164377426556
 31
0.0
  0
LINE
  5
13717
330
1A
100
AcDbEntity
  8
ZISSEN1
100
AcDbLine
 10
-1378.999595950384
 20
1785.164367426555
 30
0.0
 11
-1378.999595950384
 21
1729.164377426556
 31
0.0
  0
LINE
  5
13718
330
1A
100
AcDbEntity
  8
ZISSEN1
100
AcDbLine
 10
-1435.786075950383
 20
1785.164367426555
 30
0.0
 11
-1435.786075950383
 21
1729.164377426556
 31
0.0
  0
LINE
  5
13719
330
1A
100
AcDbEntity
  8
ZISSEN1
100
AcDbLine
 10
-1423.586075950384
 20
1785.664367426556
 30
0.0
 11
-1423.586075950384
 21
1728.664377426555
 31
0.0
  0
LINE
  5
1371A
330
1A
100
AcDbEntity
  8
ZISSEN1
100
AcDbLine
 10
-1435.986075950384
 20
1785.664367426556
 30
0.0
 11
-1435.986075950384
 21
1728.664377426555
 31
0.0
  0
LINE
  5
1371B
330
1A
100
AcDbEntity
  8
ZISSEN1
100
AcDbLine
 10
-1421.986075950384
 20
1785.664367426556
 30
0.0
 11
-1421.986075950384
 21
1728.664377426555
 31
0.0
  0
LINE
  5
1371C
330
1A
100
AcDbEntity
  8
ZISSEN1
100
AcDbLine
 10
-1413.486075950384
 20
1852.164397426556
 30
0.0
 11
-1413.486075950384
 21
1722.164415426556
 31
0.0
  0
LINE
  5
1371D
330
1A
100
AcDbEntity
  8
ZISSEN1
100
AcDbLine
 10
-1416.486075950384
 20
1852.164397426556
 30
0.0
 11
-1416.486075950384
 21
1725.164425426556
 31
0.0
  0
LINE
  5
1371E
330
1A
100
AcDbEntity
  8
ZISSEN1
100
AcDbLine
 10
-1461.486075950384
 20
1852.164397426556
 30
0.0
 11
-1461.486075950384
 21
1722.164415426556
 31
0.0
  0
LINE
  5
1371F
330
1A
100
AcDbEntity
  8
ZISSEN1
100
AcDbLine
 10
-1423.586075950384
 20
1729.164377426556
 30
0.0
 11
-1435.786075950383
 21
1729.164377426556
 31
0.0
  0
LINE
  5
13720
330
1A
100
AcDbEntity
  8
ZISSEN1
100
AcDbLine
 10
-1421.986075950384
 20
1728.664377426555
 30
0.0
 11
-1435.986075950384
 21
1728.664377426555
 31
0.0
  0
LINE
  5
13721
330
1A
100
AcDbEntity
  8
ZISSEN1
100
AcDbLine
 10
-1416.486075950384
 20
1725.664402426556
 30
0.0
 11
-1461.486075950384
 21
1725.664402426556
 31
0.0
  0
LINE
  5
13722
330
1A
100
AcDbEntity
  8
ZISSEN1
100
AcDbLine
 10
-1461.486075950384
 20
1722.164415426556
 30
0.0
 11
-1413.486075950384
 21
1722.164415426556
 31
0.0
  0
LINE
  5
13723
330
1A
100
AcDbEntity
  8
ZISSEN1
100
AcDbLine
 10
-1461.486075950384
 20
1725.164425426556
 30
0.0
 11
-1416.486075950384
 21
1725.164425426556
 31
0.0
  0
LINE
  5
13724
330
1A
100
AcDbEntity
  8
ZISSEN1
100
AcDbLine
 10
-1452.236065950383
 20
1725.164425426556
 30
0.0
 11
-1452.236065950383
 21
1722.164415426556
 31
0.0
  0
LINE
  5
13725
330
1A
100
AcDbEntity
  8
CL1
100
AcDbLine
 10
-1449.986075950384
 20
1719.164417426556
 30
0.0
 11
-1449.986075950384
 21
1728.164417426556
 31
0.0
  0
LINE
  5
13726
330
1A
100
AcDbEntity
  8
ZISSEN1
100
AcDbLine
 10
-1447.736065950383
 20
1725.164425426556
 30
0.0
 11
-1447.736065950383
 21
1722.164415426556
 31
0.0
  0
ARC
  5
13727
330
1A
100
AcDbEntity
  8
ZISSEN1
100
AcDbCircle
 10
-1462.486075950384
 20
1753.864417426556
 30
0.0
 40
2.0
100
AcDbArc
 50
180.0
 51
270.0
  0
ARC
  5
13728
330
1A
100
AcDbEntity
  8
ZISSEN1
100
AcDbCircle
 10
-1462.486075950384
 20
1755.864427426556
 30
0.0
 40
2.0
100
AcDbArc
 50
90.0
 51
180.0
  0
LINE
  5
13729
330
1A
100
AcDbEntity
  8
ZISSEN1
100
AcDbLine
 10
-1461.486075950384
 20
1757.864407426556
 30
0.0
 11
-1461.486075950384
 21
1751.864437426556
 31
0.0
  0
LINE
  5
1372A
330
1A
100
AcDbEntity
  8
ZISSEN1
100
AcDbLine
 10
-1464.486085950384
 20
1753.864417426556
 30
0.0
 11
-1464.486085950384
 21
1755.864427426556
 31
0.0
  0
LINE
  5
1372B
330
1A
100
AcDbEntity
  8
ZISSEN1
100
AcDbLine
 10
-1462.486075950384
 20
1751.864437426556
 30
0.0
 11
-1461.486075950384
 21
1751.864437426556
 31
0.0
  0
LINE
  5
1372C
330
1A
100
AcDbEntity
  8
ZISSEN1
100
AcDbLine
 10
-1462.486075950384
 20
1757.864407426556
 30
0.0
 11
-1461.486075950384
 21
1757.864407426556
 31
0.0
  0
LINE
  5
1372D
330
1A
100
AcDbEntity
  8
CL1
100
AcDbLine
 10
-1370.999595950384
 20
1728.164417426556
 30
0.0
 11
-1370.999595950384
 21
1719.164417426556
 31
0.0
  0
LINE
  5
1372E
330
1A
100
AcDbEntity
  8
ZISSEN1
100
AcDbLine
 10
-1375.585375950383
 20
1725.164412426556
 30
0.0
 11
-1375.585375950383
 21
1722.164415426556
 31
0.0
  0
LINE
  5
1372F
330
1A
100
AcDbEntity
  8
ZISSEN1
100
AcDbLine
 10
-1376.999585950384
 20
1725.164412426556
 30
0.0
 11
-1376.999585950384
 21
1722.164415426556
 31
0.0
  0
LINE
  5
13730
330
1A
100
AcDbEntity
  8
ZISSEN1
100
AcDbLine
 10
-1423.586075950384
 20
1785.164367426555
 30
0.0
 11
-1435.786075950383
 21
1785.164367426555
 31
0.0
  0
LINE
  5
13731
330
1A
100
AcDbEntity
  8
ZISSEN1
100
AcDbLine
 10
-1421.986075950384
 20
1785.664367426556
 30
0.0
 11
-1435.986075950384
 21
1785.664367426556
 31
0.0
  0
LINE
  5
13732
330
1A
100
AcDbEntity
  8
ZISSEN1
100
AcDbLine
 10
-1423.986075950384
 20
1791.664377426556
 30
0.0
 11
-1434.986075950384
 21
1791.664377426556
 31
0.0
  0
LINE
  5
13733
330
1A
100
AcDbEntity
  8
ZISSEN1
100
AcDbLine
 10
-1423.986075950384
 20
1815.664387426556
 30
0.0
 11
-1434.986075950384
 21
1815.664387426556
 31
0.0
  0
LINE
  5
13734
330
1A
100
AcDbEntity
  8
ZISSEN1
100
AcDbLine
 10
-1413.486075950384
 20
1852.164397426556
 30
0.0
 11
-1461.486085950384
 21
1852.164397426556
 31
0.0
  0
LINE
  5
13735
330
1A
100
AcDbEntity
  8
ZISSEN1
100
AcDbLine
 10
-1434.986075950384
 20
1815.664387426556
 30
0.0
 11
-1434.986075950384
 21
1791.664377426556
 31
0.0
  0
ARC
  5
13736
330
1A
100
AcDbEntity
  8
ZISSEN1
100
AcDbCircle
 10
-1462.486075950384
 20
1785.664397426556
 30
0.0
 40
2.0
100
AcDbArc
 50
90.0
 51
180.0
  0
LINE
  5
13737
330
1A
100
AcDbEntity
  8
ZISSEN1
100
AcDbLine
 10
-1461.486075950384
 20
1787.664377426556
 30
0.0
 11
-1461.486075950384
 21
1781.664407426556
 31
0.0
  0
ARC
  5
13738
330
1A
100
AcDbEntity
  8
ZISSEN1
100
AcDbCircle
 10
-1462.486075950384
 20
1783.664387426556
 30
0.0
 40
2.0
100
AcDbArc
 50
180.0
 51
270.0
  0
LINE
  5
13739
330
1A
100
AcDbEntity
  8
ZISSEN1
100
AcDbLine
 10
-1464.486085950384
 20
1783.664387426556
 30
0.0
 11
-1464.486085950384
 21
1785.664397426556
 31
0.0
  0
LINE
  5
1373A
330
1A
100
AcDbEntity
  8
ZISSEN1
100
AcDbLine
 10
-1462.486075950384
 20
1781.664407426556
 30
0.0
 11
-1461.486075950384
 21
1781.664407426556
 31
0.0
  0
LINE
  5
1373B
330
1A
100
AcDbEntity
  8
ZISSEN1
100
AcDbLine
 10
-1462.486075950384
 20
1787.664377426556
 30
0.0
 11
-1461.486075950384
 21
1787.664377426556
 31
0.0
  0
LINE
  5
1373C
330
1A
100
AcDbEntity
  8
ZISSEN1
100
AcDbLine
 10
-1432.097155950383
 20
1824.250827426556
 30
0.0
 11
-1432.097155950383
 21
1819.664387426556
 31
0.0
  0
LINE
  5
1373D
330
1A
100
AcDbEntity
  8
ZISSEN1
100
AcDbLine
 10
-1368.999585950384
 20
1824.250827426556
 30
0.0
 11
-1368.999585950384
 21
1819.664387426556
 31
0.0
  0
LINE
  5
1373E
330
1A
100
AcDbEntity
  8
ZISSEN1
100
AcDbLine
 10
-1423.686065950383
 20
1850.164387426556
 30
0.0
 11
-1423.686065950383
 21
1818.664377426556
 31
0.0
  0
LINE
  5
1373F
330
1A
100
AcDbEntity
  8
ZISSEN1
100
AcDbLine
 10
-1433.586075950383
 20
1846.664377426556
 30
0.0
 11
-1433.586075950383
 21
1818.664377426556
 31
0.0
  0
LINE
  5
13740
330
1A
100
AcDbEntity
  8
ZISSEN1
100
AcDbLine
 10
-1422.086065950384
 20
1850.164387426556
 30
0.0
 11
-1422.086065950384
 21
1818.664377426556
 31
0.0
  0
LINE
  5
13741
330
1A
100
AcDbEntity
  8
ZISSEN1
100
AcDbLine
 10
-1423.986075950384
 20
1815.664387426556
 30
0.0
 11
-1423.986075950384
 21
1791.664377426556
 31
0.0
  0
LINE
  5
13742
330
1A
100
AcDbEntity
  8
ZISSEN1
100
AcDbLine
 10
-1425.986065950383
 20
1790.164387426556
 30
0.0
 11
-1428.986075950384
 21
1790.164387426556
 31
0.0
  0
LINE
  5
13743
330
1A
100
AcDbEntity
  8
ZISSEN1
100
AcDbLine
 10
-1425.986065950383
 20
1787.164377426556
 30
0.0
 11
-1428.986075950384
 21
1787.164377426556
 31
0.0
  0
ARC
  5
13744
330
1A
100
AcDbEntity
  8
ZISSEN1
100
AcDbCircle
 10
-1428.986075950384
 20
1788.664377426556
 30
0.0
 40
1.5
100
AcDbArc
 50
90.0
 51
270.0
  0
ARC
  5
13745
330
1A
100
AcDbEntity
  8
ZISSEN1
100
AcDbCircle
 10
-1425.986065950383
 20
1788.664377426556
 30
0.0
 40
1.5
100
AcDbArc
 50
270.0
 51
90.0
  0
LINE
  5
13746
330
1A
100
AcDbEntity
  8
ZISSEN1
100
AcDbLine
 10
-1423.686065950383
 20
1819.664387426556
 30
0.0
 11
-1432.097155950383
 21
1819.664387426556
 31
0.0
  0
LINE
  5
13747
330
1A
100
AcDbEntity
  8
ZISSEN1
100
AcDbLine
 10
-1422.086065950384
 20
1818.664377426556
 30
0.0
 11
-1433.586075950383
 21
1818.664377426556
 31
0.0
  0
LINE
  5
13748
330
1A
100
AcDbEntity
  8
ZISSEN1
100
AcDbLine
 10
-1432.097155950383
 20
1845.664367426556
 30
0.0
 11
-1432.097155950383
 21
1826.805347426556
 31
0.0
  0
LINE
  5
13749
330
1A
100
AcDbEntity
  8
ZISSEN1
100
AcDbLine
 10
-1423.686065950383
 20
1826.805347426556
 30
0.0
 11
-1432.097155950383
 21
1826.805347426556
 31
0.0
  0
LINE
  5
1374A
330
1A
100
AcDbEntity
  8
ZISSEN1
100
AcDbLine
 10
-1423.686065950383
 20
1824.250827426556
 30
0.0
 11
-1432.097155950383
 21
1824.250827426556
 31
0.0
  0
LINE
  5
1374B
330
1A
100
AcDbEntity
  8
ZISSEN1
100
AcDbLine
 10
-1432.097155950383
 20
1845.664367426556
 30
0.0
 11
-1423.686065950383
 21
1845.664367426556
 31
0.0
  0
LINE
  5
1374C
330
1A
100
AcDbEntity
  8
ZISSEN1
100
AcDbLine
 10
-1424.086065950383
 20
1846.664377426556
 30
0.0
 11
-1433.586075950383
 21
1846.664377426556
 31
0.0
  0
LINE
  5
1374D
330
1A
100
AcDbEntity
  8
ZISSEN1
100
AcDbLine
 10
-1424.086065950383
 20
1850.164387426556
 30
0.0
 11
-1424.086065950383
 21
1846.664377426556
 31
0.0
  0
LINE
  5
1374E
330
1A
100
AcDbEntity
  8
ZISSEN1
100
AcDbLine
 10
-1422.086065950384
 20
1850.164387426556
 30
0.0
 11
-1424.086065950383
 21
1850.164387426556
 31
0.0
  0
LINE
  5
1374F
330
1A
100
AcDbEntity
  8
ZISSEN1
100
AcDbLine
 10
-1413.486075950384
 20
1851.457287426556
 30
0.0
 11
-1416.486075950384
 21
1851.457287426556
 31
0.0
  0
LINE
  5
13750
330
1A
100
AcDbEntity
  8
ZISSEN1
100
AcDbLine
 10
-1368.999585950384
 20
1845.664367426556
 30
0.0
 11
-1368.999585950384
 21
1826.805347426556
 31
0.0
  0
LINE
  5
13751
330
1A
100
AcDbEntity
  8
ZISSEN1
100
AcDbLine
 10
-1376.999585950384
 20
1909.626577426556
 30
0.0
 11
-1376.999585950384
 21
1918.576577426556
 31
0.0
  0
LINE
  5
13752
330
1A
100
AcDbEntity
  8
ZISSEN1
100
AcDbLine
 10
-1376.999585950384
 20
1891.740807426556
 30
0.0
 11
-1375.585375950383
 21
1890.326587426556
 31
0.0
  0
LINE
  5
13753
330
1A
100
AcDbEntity
  8
ZISSEN1
100
AcDbLine
 10
-1378.999595950384
 20
1897.426577426556
 30
0.0
 11
-1378.999595950384
 21
1909.626577426556
 31
0.0
  0
LINE
  5
13754
330
1A
100
AcDbEntity
  8
ZISSEN1
100
AcDbLine
 10
-1377.999595950384
 20
1897.426577426556
 30
0.0
 11
-1377.999595950384
 21
1909.626577426556
 31
0.0
  0
LINE
  5
13755
330
1A
100
AcDbEntity
  8
ZISSEN1
100
AcDbLine
 10
-1376.999585950384
 20
1891.740807426556
 30
0.0
 11
-1376.999585950384
 21
1897.426577426556
 31
0.0
  0
LINE
  5
13756
330
1A
100
AcDbEntity
  8
ZISSEN1
100
AcDbLine
 10
-1376.999585950384
 20
1930.912367426556
 30
0.0
 11
-1376.999585950384
 21
1923.076567426556
 31
0.0
  0
LINE
  5
13757
330
1A
100
AcDbEntity
  8
CL1
100
AcDbLine
 10
-1370.999595950384
 20
1917.826557426556
 30
0.0
 11
-1370.999595950384
 21
1923.826577426556
 31
0.0
  0
LINE
  5
13758
330
1A
100
AcDbEntity
  8
ZISSEN1
100
AcDbLine
 10
-1370.499595950384
 20
1918.576577426556
 30
0.0
 11
-1376.999585950384
 21
1918.576577426556
 31
0.0
  0
LINE
  5
13759
330
1A
100
AcDbEntity
  8
ZISSEN1
100
AcDbLine
 10
-1370.499595950384
 20
1923.076567426556
 30
0.0
 11
-1376.999585950384
 21
1923.076567426556
 31
0.0
  0
LINE
  5
1375A
330
1A
100
AcDbEntity
  8
ZISSEN1
100
AcDbLine
 10
-1375.585375950383
 20
1932.326577426556
 30
0.0
 11
-1376.999585950384
 21
1930.912367426556
 31
0.0
  0
LINE
  5
1375B
330
1A
100
AcDbEntity
  8
ZISSEN1
100
AcDbLine
 10
-1364.999595950384
 20
1851.457287426556
 30
0.0
 11
-1364.999595950384
 21
1725.164412426556
 31
0.0
  0
LINE
  5
1375C
330
1A
100
AcDbEntity
  8
ZISSEN1
100
AcDbLine
 10
-1204.999615950384
 20
1852.164397426556
 30
0.0
 11
-1204.999615950384
 21
1725.164412426556
 31
0.0
  0
LINE
  5
1375D
330
1A
100
AcDbEntity
  8
ZISSEN1
100
AcDbLine
 10
-1364.999595950384
 20
1725.164412426556
 30
0.0
 11
-1364.999595950384
 21
1722.164415426556
 31
0.0
  0
CIRCLE
  5
1375E
330
1A
100
AcDbEntity
  8
SAISEN
100
AcDbCircle
 10
-1352.999605950384
 20
1732.164407426556
 30
0.0
 40
1.5
  0
LINE
  5
13760
330
1A
100
AcDbEntity
  8
CL1
100
AcDbLine
 10
-1355.999615950384
 20
1732.164407426556
 30
0.0
 11
-1349.999595950384
 21
1732.164407426556
 31
0.0
  0
LINE
  5
13761
330
1A
100
AcDbEntity
  8
CL1
100
AcDbLine
 10
-1352.999605950384
 20
1735.164407426556
 30
0.0
 11
-1352.999605950384
 21
1729.164407426556
 31
0.0
  0
LINE
  5
13762
330
1A
100
AcDbEntity
  8
ZISSEN1
100
AcDbLine
 10
-1204.999615950384
 20
1725.164412426556
 30
0.0
 11
-1204.999615950384
 21
1722.164415426556
 31
0.0
  0
LINE
  5
13763
330
1A
100
AcDbEntity
  8
CL1
100
AcDbLine
 10
-1198.999625950384
 20
1728.164407426556
 30
0.0
 11
-1198.999625950384
 21
1719.164417426556
 31
0.0
  0
LINE
  5
13764
330
1A
100
AcDbEntity
  8
ZISSEN1
100
AcDbLine
 10
-1194.413845950384
 20
1725.164412426556
 30
0.0
 11
-1194.413845950384
 21
1722.164415426556
 31
0.0
  0
LINE
  5
13765
330
1A
100
AcDbEntity
  8
ZISSEN1
100
AcDbLine
 10
-1192.999625950384
 20
1725.164412426556
 30
0.0
 11
-1192.999625950384
 21
1722.164402426556
 31
0.0
  0
LINE
  5
13766
330
1A
100
AcDbEntity
  8
CL1
100
AcDbLine
 10
-1216.999605950384
 20
1735.164407426556
 30
0.0
 11
-1216.999605950384
 21
1729.164407426556
 31
0.0
  0
CIRCLE
  5
13767
330
1A
100
AcDbEntity
  8
SAISEN
100
AcDbCircle
 10
-1216.999605950384
 20
1732.164407426556
 30
0.0
 40
1.5
  0
LINE
  5
13769
330
1A
100
AcDbEntity
  8
CL1
100
AcDbLine
 10
-1219.999615950384
 20
1732.164407426556
 30
0.0
 11
-1213.999595950384
 21
1732.164407426556
 31
0.0
  0
LINE
  5
1376A
330
1A
100
AcDbEntity
  8
ZISSEN1
100
AcDbLine
 10
-1205.706725950384
 20
1887.326577426556
 30
0.0
 11
-1364.999595950384
 21
1887.326577426556
 31
0.0
  0
LINE
  5
1376B
330
1A
100
AcDbEntity
  8
ZISSEN1
100
AcDbLine
 10
-1364.292495950384
 20
1852.164397426556
 30
0.0
 11
-1204.999615950384
 21
1852.164397426556
 31
0.0
  0
LINE
  5
1376C
330
1A
100
AcDbEntity
  8
ZISSEN1
100
AcDbLine
 10
-1364.999595950384
 20
1890.326587426556
 30
0.0
 11
-1207.999625950384
 21
1890.326587426556
 31
0.0
  0
LINE
  5
1376D
330
1A
100
AcDbEntity
  8
ZISSEN1
100
AcDbLine
 10
-1364.999595950384
 20
1935.326587426556
 30
0.0
 11
-1204.999615950384
 21
1935.326587426556
 31
0.0
  0
LINE
  5
1376E
330
1A
100
AcDbEntity
  8
CL1
100
AcDbLine
 10
-1352.999605950384
 20
1850.164407426556
 30
0.0
 11
-1352.999605950384
 21
1844.164387426556
 31
0.0
  0
CIRCLE
  5
1376F
330
1A
100
AcDbEntity
  8
SAISEN
100
AcDbCircle
 10
-1352.999605950384
 20
1847.164397426556
 30
0.0
 40
1.5
  0
LINE
  5
13771
330
1A
100
AcDbEntity
  8
CL1
100
AcDbLine
 10
-1355.999615950384
 20
1847.164397426556
 30
0.0
 11
-1349.999595950384
 21
1847.164397426556
 31
0.0
  0
LINE
  5
13772
330
1A
100
AcDbEntity
  8
ZISSEN1
100
AcDbLine
 10
-1364.999595950384
 20
1851.457287426556
 30
0.0
 11
-1364.292495950384
 21
1852.164397426556
 31
0.0
  0
ARC
  5
13773
330
1A
100
AcDbEntity
  8
ZISSEN1
100
AcDbCircle
 10
-1302.499615950384
 20
1936.326597426556
 30
0.0
 40
2.0
100
AcDbArc
 50
90.0
 51
180.0
  0
LINE
  5
13774
330
1A
100
AcDbEntity
  8
ZISSEN1
100
AcDbLine
 10
-1304.499625950384
 20
1935.326587426556
 30
0.0
 11
-1298.499605950384
 21
1935.326587426556
 31
0.0
  0
LINE
  5
13775
330
1A
100
AcDbEntity
  8
ZISSEN1
100
AcDbLine
 10
-1364.999595950384
 20
1887.326577426556
 30
0.0
 11
-1364.999595950384
 21
1935.326587426556
 31
0.0
  0
LINE
  5
13776
330
1A
100
AcDbEntity
  8
ZISSEN1
100
AcDbLine
 10
-1364.292495950384
 20
1887.326577426556
 30
0.0
 11
-1364.292495950384
 21
1890.326587426556
 31
0.0
  0
ARC
  5
13777
330
1A
100
AcDbEntity
  8
ZISSEN1
100
AcDbCircle
 10
-1340.999595950384
 20
1936.326597426556
 30
0.0
 40
2.0
100
AcDbArc
 50
0.0
 51
90.0
  0
ARC
  5
13778
330
1A
100
AcDbEntity
  8
ZISSEN1
100
AcDbCircle
 10
-1342.999605950383
 20
1936.326597426556
 30
0.0
 40
2.0
100
AcDbArc
 50
90.0
 51
180.0
  0
ARC
  5
13779
330
1A
100
AcDbEntity
  8
ZISSEN1
100
AcDbCircle
 10
-1349.999595950384
 20
1936.326597426556
 30
0.0
 40
2.0
100
AcDbArc
 50
0.0
 51
90.0
  0
ARC
  5
1377A
330
1A
100
AcDbEntity
  8
ZISSEN1
100
AcDbCircle
 10
-1351.999605950384
 20
1936.326597426556
 30
0.0
 40
2.0
100
AcDbArc
 50
90.0
 51
180.0
  0
LINE
  5
1377B
330
1A
100
AcDbEntity
  8
ZISSEN1
100
AcDbLine
 10
-1353.999615950384
 20
1935.326587426556
 30
0.0
 11
-1347.999595950384
 21
1935.326587426556
 31
0.0
  0
LINE
  5
1377C
330
1A
100
AcDbEntity
  8
ZISSEN1
100
AcDbLine
 10
-1353.999615950384
 20
1936.326597426556
 30
0.0
 11
-1353.999615950384
 21
1935.326587426556
 31
0.0
  0
LINE
  5
1377D
330
1A
100
AcDbEntity
  8
ZISSEN1
100
AcDbLine
 10
-1344.999585950384
 20
1935.326587426556
 30
0.0
 11
-1338.999615950384
 21
1935.326587426556
 31
0.0
  0
LINE
  5
1377E
330
1A
100
AcDbEntity
  8
ZISSEN1
100
AcDbLine
 10
-1344.999585950384
 20
1936.326597426556
 30
0.0
 11
-1344.999585950384
 21
1935.326587426556
 31
0.0
  0
LINE
  5
1377F
330
1A
100
AcDbEntity
  8
ZISSEN1
100
AcDbLine
 10
-1347.999595950384
 20
1936.326597426556
 30
0.0
 11
-1347.999595950384
 21
1935.326587426556
 31
0.0
  0
LINE
  5
13780
330
1A
100
AcDbEntity
  8
ZISSEN1
100
AcDbLine
 10
-1338.999615950384
 20
1936.326597426556
 30
0.0
 11
-1338.999615950384
 21
1935.326587426556
 31
0.0
  0
LINE
  5
13781
330
1A
100
AcDbEntity
  8
ZISSEN1
100
AcDbLine
 10
-1349.999595950384
 20
1938.326597426556
 30
0.0
 11
-1351.999605950384
 21
1938.326597426556
 31
0.0
  0
LINE
  5
13782
330
1A
100
AcDbEntity
  8
ZISSEN1
100
AcDbLine
 10
-1340.999595950384
 20
1938.326597426556
 30
0.0
 11
-1342.999605950383
 21
1938.326597426556
 31
0.0
  0
LINE
  5
13783
330
1A
100
AcDbEntity
  8
ZISSEN1
100
AcDbLine
 10
-1304.499625950384
 20
1936.326597426556
 30
0.0
 11
-1304.499625950384
 21
1935.326587426556
 31
0.0
  0
ARC
  5
13784
330
1A
100
AcDbEntity
  8
ZISSEN1
100
AcDbCircle
 10
-1300.499615950384
 20
1936.326597426556
 30
0.0
 40
2.0
100
AcDbArc
 50
0.0
 51
90.0
  0
LINE
  5
13785
330
1A
100
AcDbEntity
  8
ZISSEN1
100
AcDbLine
 10
-1298.499605950384
 20
1936.326597426556
 30
0.0
 11
-1298.499605950384
 21
1935.326587426556
 31
0.0
  0
LINE
  5
13786
330
1A
100
AcDbEntity
  8
ZISSEN1
100
AcDbLine
 10
-1300.499615950384
 20
1938.326597426556
 30
0.0
 11
-1302.499615950384
 21
1938.326597426556
 31
0.0
  0
ARC
  5
13787
330
1A
100
AcDbEntity
  8
ZISSEN1
100
AcDbCircle
 10
-1240.499615950384
 20
1936.326597426556
 30
0.0
 40
2.0
100
AcDbArc
 50
0.0
 51
90.0
  0
ARC
  5
13788
330
1A
100
AcDbEntity
  8
ZISSEN1
100
AcDbCircle
 10
-1242.499615950384
 20
1936.326597426556
 30
0.0
 40
2.0
100
AcDbArc
 50
90.0
 51
180.0
  0
LINE
  5
13789
330
1A
100
AcDbEntity
  8
ZISSEN1
100
AcDbLine
 10
-1244.499625950384
 20
1935.326587426556
 30
0.0
 11
-1238.499605950384
 21
1935.326587426556
 31
0.0
  0
LINE
  5
1378A
330
1A
100
AcDbEntity
  8
ZISSEN1
100
AcDbLine
 10
-1244.499625950384
 20
1936.326597426556
 30
0.0
 11
-1244.499625950384
 21
1935.326587426556
 31
0.0
  0
LINE
  5
1378B
330
1A
100
AcDbEntity
  8
ZISSEN1
100
AcDbLine
 10
-1238.499605950384
 20
1936.326597426556
 30
0.0
 11
-1238.499605950384
 21
1935.326587426556
 31
0.0
  0
LINE
  5
1378C
330
1A
100
AcDbEntity
  8
ZISSEN1
100
AcDbLine
 10
-1240.499615950384
 20
1938.326597426556
 30
0.0
 11
-1242.499615950384
 21
1938.326597426556
 31
0.0
  0
LINE
  5
1378D
330
1A
100
AcDbEntity
  8
ZISSEN1
100
AcDbLine
 10
-1208.499625950384
 20
1890.326587426556
 30
0.0
 11
-1208.499625950384
 21
1935.326587426556
 31
0.0
  0
LINE
  5
1378E
330
1A
100
AcDbEntity
  8
ZISSEN1
100
AcDbLine
 10
-1204.999615950384
 20
1888.033687426556
 30
0.0
 11
-1204.999615950384
 21
1935.326587426556
 31
0.0
  0
LINE
  5
1378F
330
1A
100
AcDbEntity
  8
ZISSEN1
100
AcDbLine
 10
-1207.999625950384
 20
1890.326587426556
 30
0.0
 11
-1207.999625950384
 21
1935.326587426556
 31
0.0
  0
LINE
  5
13790
330
1A
100
AcDbEntity
  8
ZISSEN1
100
AcDbLine
 10
-1192.999625950384
 20
1903.076567426555
 30
0.0
 11
-1192.999625950384
 21
1918.576577426556
 31
0.0
  0
LINE
  5
13791
330
1A
100
AcDbEntity
  8
ZISSEN1
100
AcDbLine
 10
-1194.413845950384
 20
1890.326587426556
 30
0.0
 11
-1204.999615950384
 21
1890.326587426556
 31
0.0
  0
LINE
  5
13792
330
1A
100
AcDbEntity
  8
ZISSEN1
100
AcDbLine
 10
-1205.706725950384
 20
1887.326577426556
 30
0.0
 11
-1204.999615950384
 21
1888.033687426556
 31
0.0
  0
LINE
  5
13793
330
1A
100
AcDbEntity
  8
ZISSEN1
100
AcDbLine
 10
-1194.413845950384
 20
1890.326587426556
 30
0.0
 11
-1192.999625950384
 21
1891.740807426556
 31
0.0
  0
ARC
  5
13794
330
1A
100
AcDbEntity
  8
ZISSEN1
100
AcDbCircle
 10
-1199.499625950384
 20
1900.826577426555
 30
0.0
 40
2.25
100
AcDbArc
 50
90.0
 51
270.0
  0
LINE
  5
13795
330
1A
100
AcDbEntity
  8
CL1
100
AcDbLine
 10
-1198.999625950384
 20
1897.826567426556
 30
0.0
 11
-1198.999625950384
 21
1903.826587426555
 31
0.0
  0
LINE
  5
13796
330
1A
100
AcDbEntity
  8
CL1
100
AcDbLine
 10
-1202.499635950384
 20
1900.826577426555
 30
0.0
 11
-1196.499615950384
 21
1900.826577426555
 31
0.0
  0
LINE
  5
13797
330
1A
100
AcDbEntity
  8
ZISSEN1
100
AcDbLine
 10
-1199.499625950384
 20
1898.576577426555
 30
0.0
 11
-1192.999625950384
 21
1898.576577426555
 31
0.0
  0
LINE
  5
13798
330
1A
100
AcDbEntity
  8
ZISSEN1
100
AcDbLine
 10
-1192.999625950384
 20
1891.740807426556
 30
0.0
 11
-1192.999625950384
 21
1898.576577426555
 31
0.0
  0
LINE
  5
13799
330
1A
100
AcDbEntity
  8
ZISSEN1
100
AcDbLine
 10
-1199.499625950384
 20
1903.076567426555
 30
0.0
 11
-1192.999625950384
 21
1903.076567426555
 31
0.0
  0
LINE
  5
1379A
330
1A
100
AcDbEntity
  8
ZISSEN1
100
AcDbLine
 10
-1194.413845950384
 20
1932.326577426556
 30
0.0
 11
-1204.999615950384
 21
1932.326577426556
 31
0.0
  0
LINE
  5
1379B
330
1A
100
AcDbEntity
  8
ZISSEN1
100
AcDbLine
 10
-1204.999615950384
 20
1934.619477426556
 30
0.0
 11
-1207.999625950384
 21
1934.619477426556
 31
0.0
  0
LINE
  5
1379C
330
1A
100
AcDbEntity
  8
ZISSEN1
100
AcDbLine
 10
-1192.999625950384
 20
1930.912367426556
 30
0.0
 11
-1192.999625950384
 21
1923.076567426556
 31
0.0
  0
LINE
  5
1379D
330
1A
100
AcDbEntity
  8
CL1
100
AcDbLine
 10
-1202.499635950384
 20
1920.826567426556
 30
0.0
 11
-1196.499615950384
 21
1920.826567426556
 31
0.0
  0
LINE
  5
1379E
330
1A
100
AcDbEntity
  8
ZISSEN1
100
AcDbLine
 10
-1199.499625950384
 20
1923.076567426556
 30
0.0
 11
-1192.999625950384
 21
1923.076567426556
 31
0.0
  0
LINE
  5
1379F
330
1A
100
AcDbEntity
  8
ZISSEN1
100
AcDbLine
 10
-1199.499625950384
 20
1918.576577426556
 30
0.0
 11
-1192.999625950384
 21
1918.576577426556
 31
0.0
  0
ARC
  5
137A0
330
1A
100
AcDbEntity
  8
ZISSEN1
100
AcDbCircle
 10
-1199.499625950384
 20
1920.826567426556
 30
0.0
 40
2.25
100
AcDbArc
 50
90.0
 51
270.0
  0
LINE
  5
137A1
330
1A
100
AcDbEntity
  8
CL1
100
AcDbLine
 10
-1198.999625950384
 20
1917.826557426556
 30
0.0
 11
-1198.999625950384
 21
1923.826577426556
 31
0.0
  0
LINE
  5
137A2
330
1A
100
AcDbEntity
  8
ZISSEN1
100
AcDbLine
 10
-1194.413845950384
 20
1932.326577426556
 30
0.0
 11
-1192.999625950384
 21
1930.912367426556
 31
0.0
  0
DIMENSION
  5
137BD
330
1A
100
AcDbEntity
  8
SUNPOU
100
AcDbDimension
  2
*D24
 10
-1376.999585950384
 20
1704.012111696274
 30
0.0
 11
-1382.74745491606
 21
1705.58427902832
 31
0.0
 70
   160
  3
標準スタイル
100
AcDbAlignedDimension
 13
-1378.999595950384
 23
1729.164377426556
 33
0.0
 14
-1376.999585950384
 24
1722.164415426556
 34
0.0
100
AcDbRotatedDimension
1001
ACAD
1000
DSTYLE
1002
{
1070
   287
1070
     5
1070
    40
1040
1.0
1070
   279
1070
     2
1002
}
  0
DIMENSION
  5
137D7
330
1A
100
AcDbEntity
  8
SUNPOU
100
AcDbDimension
  2
*D25
 10
-1364.999595950384
 20
1704.012111696274
 30
0.0
 11
-1370.999590950384
 21
1706.762111696274
 31
0.0
 70
    32
  3
標準スタイル
100
AcDbAlignedDimension
 13
-1376.999585950384
 23
1721.664415426556
 33
0.0
 14
-1364.999595950384
 24
1722.164415426556
 34
0.0
100
AcDbRotatedDimension
1001
ACAD
1000
DSTYLE
1002
{
1070
    40
1040
1.0
1002
}
  0
DIMENSION
  5
137E4
330
1A
100
AcDbEntity
  8
SUNPOU
100
AcDbDimension
  2
*D26
 10
-1204.999615950384
 20
1704.012111696274
 30
0.0
 11
-1284.999605950384
 21
1706.762111696274
 31
0.0
 70
    32
  3
標準スタイル
100
AcDbAlignedDimension
 13
-1364.999595950384
 23
1704.012111696274
 33
0.0
 14
-1204.999615950384
 24
1722.164415426556
 34
0.0
100
AcDbRotatedDimension
1001
ACAD
1000
DSTYLE
1002
{
1070
    40
1040
1.0
1002
}
  0
DIMENSION
  5
137F0
330
1A
100
AcDbEntity
  8
SUNPOU
100
AcDbDimension
  2
*D27
 10
-1192.999625950384
 20
1704.012111696274
 30
0.0
 11
-1198.999620950384
 21
1706.762111696274
 31
0.0
 70
    32
  3
標準スタイル
100
AcDbAlignedDimension
 13
-1204.999615950384
 23
1704.012111696274
 33
0.0
 14
-1192.999625950384
 24
1722.164402426556
 34
0.0
100
AcDbRotatedDimension
1001
ACAD
1000
DSTYLE
1002
{
1070
    40
1040
1.0
1002
}
  0
DIMENSION
  5
137FC
330
1A
100
AcDbEntity
  8
SUNPOU
100
AcDbDimension
  2
*D28
 10
-1179.009459512135
 20
1732.164407426556
 30
0.0
 11
-1181.759459512137
 21
1727.164411426556
 31
0.0
 70
    32
  3
標準スタイル
100
AcDbAlignedDimension
 13
-1192.999625950384
 23
1722.164415426556
 33
0.0
 14
-1213.999595950384
 24
1732.164407426556
 34
0.0
 50
90.0
100
AcDbRotatedDimension
1001
ACAD
1000
DSTYLE
1002
{
1070
    40
1040
1.0
1002
}
  0
DIMENSION
  5
13816
330
1A
100
AcDbEntity
  8
SUNPOU
100
AcDbDimension
  2
*D29
 10
-1179.009459512135
 20
1847.164397426556
 30
0.0
 11
-1181.759459512137
 21
1789.664402426556
 31
0.0
 70
    32
  3
標準スタイル
100
AcDbAlignedDimension
 13
-1179.009459512135
 23
1732.164407426556
 33
0.0
 14
-1349.999595950384
 24
1847.164397426556
 34
0.0
 50
90.0
100
AcDbRotatedDimension
1001
ACAD
1000
DSTYLE
1002
{
1070
    40
1040
1.0
1002
}
  0
DIMENSION
  5
13831
330
1A
100
AcDbEntity
  8
SUNPOU
100
AcDbDimension
  2
*D30
 10
-1216.999605950384
 20
1866.136557331408
 30
0.0
 11
-1284.999605950384
 21
1868.886557331408
 31
0.0
 70
    32
  3
標準スタイル
100
AcDbAlignedDimension
 13
-1352.999605950384
 23
1848.664397426556
 33
0.0
 14
-1216.999605950384
 24
1735.164407426556
 34
0.0
100
AcDbRotatedDimension
1001
ACAD
1000
DSTYLE
1002
{
1070
    40
1040
1.0
1002
}
  0
DIMENSION
  5
1383E
330
1A
100
AcDbEntity
  8
SUNPOU
100
AcDbDimension
  2
*D31
 10
-1179.009459512135
 20
1900.826577426555
 30
0.0
 11
-1181.759459512136
 21
1894.076577426556
 31
0.0
 70
    32
  3
標準スタイル
100
AcDbAlignedDimension
 13
-1205.706725950384
 23
1887.326577426556
 33
0.0
 14
-1198.999625950384
 24
1900.826577426555
 34
0.0
 50
90.0
100
AcDbRotatedDimension
1001
ACAD
1000
DSTYLE
1002
{
1070
    40
1040
1.0
1002
}
  0
DIMENSION
  5
1384B
330
1A
100
AcDbEntity
  8
SUNPOU
100
AcDbDimension
  2
*D32
 10
-1179.009459512135
 20
1920.826567426556
 30
0.0
 11
-1181.759459512136
 21
1910.826572426556
 31
0.0
 70
    32
  3
標準スタイル
100
AcDbAlignedDimension
 13
-1196.499615950384
 23
1900.826577426555
 33
0.0
 14
-1196.499615950384
 24
1920.826567426556
 34
0.0
 50
90.0
100
AcDbRotatedDimension
1001
ACAD
1000
DSTYLE
1002
{
1070
    40
1040
1.0
1002
}
  0
DIMENSION
  5
13858
330
1A
100
AcDbEntity
  8
SUNPOU
100
AcDbDimension
  2
*D33
 10
-1179.009459512135
 20
1935.326587426556
 30
0.0
 11
-1181.759459512136
 21
1928.076577426556
 31
0.0
 70
    32
  3
標準スタイル
100
AcDbAlignedDimension
 13
-1179.009459512135
 23
1920.826567426556
 33
0.0
 14
-1204.999615950384
 24
1935.326587426556
 34
0.0
 50
90.0
100
AcDbRotatedDimension
1001
ACAD
1000
DSTYLE
1002
{
1070
    40
1040
1.0
1002
}
  0
DIMENSION
  5
13864
330
1A
100
AcDbEntity
  8
SUNPOU
100
AcDbDimension
  2
*D34
 10
-1179.009459512135
 20
1938.326597426556
 30
0.0
 11
-1181.759459512136
 21
1946.232688797114
 31
0.0
 70
    32
  3
標準スタイル
100
AcDbAlignedDimension
 13
-1179.009459512135
 23
1935.326587426556
 33
0.0
 14
-1240.499615950384
 24
1938.326597426556
 34
0.0
 50
90.0
100
AcDbRotatedDimension
1001
ACAD
1000
DSTYLE
1002
{
1070
    40
1040
1.0
1002
}
  0
DIMENSION
  5
13872
330
1A
100
AcDbEntity
  8
SUNPOU
100
AcDbDimension
  2
*D35
 10
-1370.999595950384
 20
1951.038380610125
 30
0.0
 11
-1373.999590950384
 21
1953.788380610125
 31
0.0
 70
    32
  3
標準スタイル
100
AcDbAlignedDimension
 13
-1376.999585950384
 23
1930.912367426556
 33
0.0
 14
-1370.999595950384
 24
1920.826567426556
 34
0.0
100
AcDbRotatedDimension
1001
ACAD
1000
DSTYLE
1002
{
1070
    40
1040
1.0
1002
}
  0
DIMENSION
  5
13881
330
1A
100
AcDbEntity
  8
SUNPOU
100
AcDbDimension
  2
*D36
 10
-1198.999625950384
 20
1951.038380610125
 30
0.0
 11
-1284.999610950384
 21
1953.788380610125
 31
0.0
 70
    32
  3
標準スタイル
100
AcDbAlignedDimension
 13
-1370.999595950384
 23
1951.038380610125
 33
0.0
 14
-1198.999625950384
 24
1920.826567426556
 34
0.0
100
AcDbRotatedDimension
1001
ACAD
1000
DSTYLE
1002
{
1070
    40
1040
1.0
1002
}
  0
DIMENSION
  5
13899
330
1A
100
AcDbEntity
  8
SUNPOU
100
AcDbDimension
  2
*D37
 10
-1198.999625950384
 20
1951.038380610125
 30
0.0
 11
-1195.999625950384
 21
1953.788380610125
 31
0.0
 70
    32
  3
標準スタイル
100
AcDbAlignedDimension
 13
-1192.999625950384
 23
1930.912367426556
 33
0.0
 14
-1198.999625950384
 24
1951.038380610125
 34
0.0
100
AcDbRotatedDimension
1001
ACAD
1000
DSTYLE
1002
{
1070
    40
1040
1.0
1002
}
  0
MTEXT
  5
138A8
330
1A
100
AcDbEntity
  8
SUNPOU
100
AcDbMText
 10
-1421.622922476672
 20
1904.392367820625
 30
0.0
 40
3.5
 41
22.8973
 71
     1
 72
     5
  1
端子台ｶﾊﾞｰ
  7
ゴシック体
1001
ACAD
1000
MTEXTBEGIN
1070
    73
1070
     1
1070
    44
1040
1.0
1070
    74
1070
     0
1000
MTEXTEND
  0
MTEXT
  5
138AB
330
1A
100
AcDbEntity
  8
SUNPOU
100
AcDbMText
 10
-1344.025651748643
 20
1861.984180927958
 30
0.0
 40
3.5
 41
50.78800000000001
 71
     1
 72
     5
  1
3-M3ﾀｯﾌﾟ穴(深さ4mm)
  7
ゴシック体
1001
ACAD
1000
MTEXTBEGIN
1070
    73
1070
     1
1070
    44
1040
1.0
1070
    74
1070
     0
1000
MTEXTEND
  0
LINE
  5
138BF
330
1A
100
AcDbEntity
  8
SUNPOU
100
AcDbLine
 10
-1346.018745957913
 20
1856.944565304779
 30
0.0
 11
-1299.054611192719
 21
1856.944565304779
 31
0.0
  0
DIMENSION
  5
138C0
330
1A
100
AcDbEntity
  8
SUNPOU
100
AcDbDimension
  2
*D38
 10
-1386.225958306878
 20
1918.576577426556
 30
0.0
 11
-1390.670955184605
 21
1920.857626561021
 31
0.0
 70
   160
  3
標準スタイル
100
AcDbAlignedDimension
 13
-1376.999585950384
 23
1923.076567426556
 33
0.0
 14
-1376.999585950384
 24
1918.576577426556
 34
0.0
 50
90.0
100
AcDbRotatedDimension
1001
ACAD
1000
DSTYLE
1002
{
1070
   287
1070
     5
1070
    40
1040
1.0
1070
   279
1070
     2
1002
}
  0
CIRCLE
  5
138DA
330
1A
100
AcDbEntity
  8
ZISSEN1
100
AcDbCircle
 10
-1352.999605950384
 20
1847.164397426556
 30
0.0
 40
1.0
  0
CIRCLE
  5
138DB
330
1A
100
AcDbEntity
  8
ZISSEN1
100
AcDbCircle
 10
-1216.999605950384
 20
1732.164407426556
 30
0.0
 40
1.0
  0
CIRCLE
  5
138DC
330
1A
100
AcDbEntity
  8
ZISSEN1
100
AcDbCircle
 10
-1352.999605950384
 20
1732.164407426556
 30
0.0
 40
1.0
  0
DIMENSION
  5
138DE
330
1A
100
AcDbEntity
  8
SUNPOU
100
AcDbDimension
  2
*D39
 10
-1464.486085950384
 20
1704.012111696274
 30
0.0
 11
-1438.986080950384
 21
1706.762111696274
 31
0.0
 70
    32
  3
標準スタイル
100
AcDbAlignedDimension
 13
-1413.486075950384
 23
1722.164415426556
 33
0.0
 14
-1464.486085950384
 24
1753.864417426556
 34
0.0
100
AcDbRotatedDimension
1001
ACAD
1000
DSTYLE
1002
{
1070
    40
1040
1.0
1002
}
  0
DIMENSION
  5
138EB
330
1A
100
AcDbEntity
  8
SUNPOU
100
AcDbDimension
  2
*D40
 10
-1461.486075950384
 20
1714.101842147343
 30
0.0
 11
-1437.486075950384
 21
1716.851842147343
 31
0.0
 70
    32
  3
標準スタイル
100
AcDbAlignedDimension
 13
-1413.486075950384
 23
1722.164415426556
 33
0.0
 14
-1461.486075950384
 24
1722.164415426556
 34
0.0
100
AcDbRotatedDimension
1001
ACAD
1000
DSTYLE
1002
{
1070
    40
1040
1.0
1002
}
  0
LEADER
  5
138FE
330
1A
100
AcDbEntity
  8
SUNPOU
100
AcDbLeader
  3
標準スタイル
 76
     2
 10
-1385.700090761824
 20
1902.57910429346
 30
0.0
 10
-1395.827739005509
 20
1902.57910429346
 30
0.0
1001
ACAD
1000
DSTYLE
1002
{
1070
     5
1000

1070
    77
1070
     0
1070
   147
1040
1.0
1002
}
  0
LEADER
  5
13915
330
1A
100
AcDbEntity
  8
SUNPOU
100
AcDbLeader
  3
標準スタイル
 76
     2
 10
-1352.12815987768
 20
1848.385291255834
 30
0.0
 10
-1346.018745957913
 20
1856.944565304779
 30
0.0
1001
ACAD
1000
DSTYLE
1002
{
1070
     5
1000

1070
    77
1070
     0
1070
   147
1040
1.0
1002
}
  0
DIMENSION
  5
13925
330
1A
100
AcDbEntity
  8
SUNPOU
100
AcDbDimension
  2
*D41
 10
-1179.022968712452
 20
1847.164397426556
 30
0.0
 11
-1181.772968712452
 21
1849.664397426556
 31
0.0
 70
    32
  3
標準スタイル
100
AcDbAlignedDimension
 13
-1204.999615950384
 23
1852.164397426556
 33
0.0
 14
-1179.009459512135
 24
1847.164397426556
 34
0.0
 50
90.0
100
AcDbRotatedDimension
1001
ACAD
1000
DSTYLE
1002
{
1070
    40
1040
1.0
1002
}
  0
VIEWPORT
  5
5D8F
330
5D8E
100
AcDbEntity
 67
     1
  8
0
100
AcDbViewport
 10
320.9506105577403
 20
387.7644198459975
 30
0.0
 40
697.0514257116549
 41
795.3060149742021
 68
     1
 69
     1
1001
ACAD
1000
MVIEW
1002
{
1070
    16
1010
0.0
1020
0.0
1030
0.0
1010
0.0
1020
0.0
1030
1.0
1040
0.0
1040
795.3060149742021
1040
320.9506105577403
1040
387.7644198459975
1040
50.0
1040
0.0
1040
0.0
1070
     0
1070
   100
1070
     1
1070
     0
1070
     0
1070
     0
1070
     0
1070
     0
1040
0.0
1040
0.0
1040
0.0
1040
1.0
1040
1.0
1040
10.0
1040
10.0
1070
     0
1002
{
1002
}
1002
}
  0
VIEWPORT
  5
6001
330
5D8E
100
AcDbEntity
 67
     1
  8
ZISSEN1
100
AcDbViewport
 10
221.7861955525411
 20
157.6960273330388
 30
0.0
 40
385.4999999999997
 41
259.9999999999999
 68
     2
 69
     2
1001
ACAD
1000
MVIEW
1002
{
1070
    16
1010
0.0
1020
0.0
1030
0.0
1010
0.0
1020
0.0
1030
1.0
1040
0.0
1040
260.0000001656869
1040
-1318.60042876598
1040
1829.570847707756
1040
50.0
1040
0.0
1040
0.0
1070
     0
1070
   100
1070
     1
1070
     0
1070
     0
1070
     0
1070
     0
1070
     0
1040
0.0
1040
0.0
1040
0.0
1040
1.0
1040
1.0
1040
10.0
1040
10.0
1070
     0
1002
{
1002
}
1002
}
  0
TEXT
  5
716F
330
5D8E
100
AcDbEntity
 67
     1
  8
SUNPOU
 62
     0
100
AcDbText
 10
374.1863124306943
 20
60.86794705907585
 30
0.0
 40
3.5
  1
縮尺 1/1
  7
ゴシック体
100
AcDbText
  0
ENDSEC
  0
SECTION
  2
OBJECTS
  0
DICTIONARY
  5
C
330
0
100
AcDbDictionary
  3
ACAD_GROUP
350
D
  3
ACAD_LAYOUT
350
5C7D
  3
ACAD_MLINESTYLE
350
E
  3
ACAD_PLOTSETTINGS
350
5C7E
  3
ACAD_PLOTSTYLENAME
350
5C7B
  3
DWGPROPS
350
5E8E
  3
ACDBVARIABLEDICTIONARY
350
13942
  3
ACDBHEADERROUNDTRIPXREC
350
1394D
  0
DICTIONARY
  5
1396D
330
1A
100
AcDbDictionary
280
     1
  3
ACAD_LAYOUTSELFREF
360
1396E
  0
DICTIONARY
  5
1396F
330
5D8E
100
AcDbDictionary
280
     1
  3
ACAD_LAYOUTSELFREF
360
13970
  0
DICTIONARY
  5
D
102
{ACAD_REACTORS
330
C
102
}
330
C
100
AcDbDictionary
  3
*A1
350
477D
  3
*A2
350
4C16
  3
*A3
350
4C17
  3
*A4
350
477E
  3
*A5
350
477F
  3
*A6
350
4780
  3
*A7
350
4781
  3
*A8
350
4C0E
  3
*A9
350
4C0F
  3
*A10
350
4C10
  3
*A11
350
4C11
  3
*A12
350
4C12
  3
*A13
350
4C13
  3
*A14
350
4C14
  3
*A15
350
4C15
  0
DICTIONARY
  5
5C7D
102
{ACAD_REACTORS
330
C
102
}
330
C
100
AcDbDictionary
  0
DICTIONARY
  5
E
102
{ACAD_REACTORS
330
C
102
}
330
C
100
AcDbDictionary
  3
STANDARD
350
13
  0
DICTIONARY
  5
5C7E
102
{ACAD_REACTORS
330
C
102
}
330
C
100
AcDbDictionary
  0
ACDBDICTIONARYWDFLT
  5
5C7B
102
{ACAD_REACTORS
330
C
102
}
330
C
100
AcDbDictionary
281
     1
  3
Normal
350
5C7C
100
AcDbDictionaryWithDefault
340
5C7C
  0
XRECORD
  5
5E8E
102
{ACAD_REACTORS
330
C
102
}
330
C
100
AcDbXrecord
  1
DWGPROPS COOKIE
  2

  3

  4

  6

  7

  8

  9

300
=
301
=
302
=
303
=
304
=
305
=
306
=
307
=
308
=
309
=
 40
0.586753587962963
 41
2450495.493631364
 42
2453208.662277431
  1

 90
        0
  0
DICTIONARY
  5
13942
102
{ACAD_REACTORS
330
C
102
}
330
C
100
AcDbDictionary
  3
INDEXCTL
350
13943
  0
DICTIONARY
  5
1394D
102
{ACAD_REACTORS
330
C
102
}
330
C
100
AcDbDictionary
  3
TSTACKALIGN
350
1394E
  3
TSTACKSIZE
350
1394F
  3
HYPERLINKBASE
350
13950
  3
STYLESHEET
350
13951
  3
LAYOUTDICT
350
13952
  3
PLOTSETDICT
350
13953
  3
PLOTSTYLNAMDICT
350
13954
  3
LWETCUNION
350
13955
  3
INSUNITS
350
13956
  3
CEPSNTYPE
350
13957
  3
FINGERPRINTGUID
350
13958
  3
VERSIONGUID
350
13959
  3
PSVPSCALE
350
1395A
  3
PUCSORTHOREF
350
1395B
  3
PUCSORTHOVIEW
350
1395C
  3
PUCSBASE
350
1395D
  3
PUCSORGTOP
350
1395E
  3
PUCSORGBOTTOM
350
1395F
  3
PUCSORGLEFT
350
13960
  3
PUCSORGRIGHT
350
13961
  3
PUCSORGFRONT
350
13962
  3
PUCSORGBACK
350
13963
  3
UCSORTHOREF
350
13964
  3
UCSORTHOVIEW
350
13965
  3
UCSBASE
350
13966
  3
UCSORGTOP
350
13967
  3
UCSORGBOTTOM
350
13968
  3
UCSORGLEFT
350
13969
  3
UCSORGRIGHT
350
1396A
  3
UCSORGFRONT
350
1396B
  3
UCSORGBACK
350
1396C
  0
XRECORD
  5
1396E
102
{ACAD_REACTORS
330
1396D
102
}
330
1396D
100
AcDbXrecord
340
1A
  0
XRECORD
  5
13970
102
{ACAD_REACTORS
330
1396F
102
}
330
1396F
100
AcDbXrecord
340
5D8E
  0
GROUP
  5
477D
102
{ACAD_REACTORS
330
D
102
}
330
D
100
AcDbGroup
300

 70
     1
 71
     1
  0
GROUP
  5
4C16
102
{ACAD_REACTORS
330
D
102
}
330
D
100
AcDbGroup
300

 70
     1
 71
     1
  0
GROUP
  5
4C17
102
{ACAD_REACTORS
330
D
102
}
330
D
100
AcDbGroup
300

 70
     1
 71
     1
  0
GROUP
  5
477E
102
{ACAD_REACTORS
330
D
102
}
330
D
100
AcDbGroup
300

 70
     1
 71
     1
  0
GROUP
  5
477F
102
{ACAD_REACTORS
330
D
102
}
330
D
100
AcDbGroup
300

 70
     1
 71
     1
  0
GROUP
  5
4780
102
{ACAD_REACTORS
330
D
102
}
330
D
100
AcDbGroup
300

 70
     1
 71
     1
  0
GROUP
  5
4781
102
{ACAD_REACTORS
330
D
102
}
330
D
100
AcDbGroup
300

 70
     1
 71
     1
  0
GROUP
  5
4C0E
102
{ACAD_REACTORS
330
D
102
}
330
D
100
AcDbGroup
300

 70
     1
 71
     1
  0
GROUP
  5
4C0F
102
{ACAD_REACTORS
330
D
102
}
330
D
100
AcDbGroup
300

 70
     1
 71
     1
  0
GROUP
  5
4C10
102
{ACAD_REACTORS
330
D
102
}
330
D
100
AcDbGroup
300

 70
     1
 71
     1
  0
GROUP
  5
4C11
102
{ACAD_REACTORS
330
D
102
}
330
D
100
AcDbGroup
300

 70
     1
 71
     1
  0
GROUP
  5
4C12
102
{ACAD_REACTORS
330
D
102
}
330
D
100
AcDbGroup
300

 70
     1
 71
     1
  0
GROUP
  5
4C13
102
{ACAD_REACTORS
330
D
102
}
330
D
100
AcDbGroup
300

 70
     1
 71
     1
  0
GROUP
  5
4C14
102
{ACAD_REACTORS
330
D
102
}
330
D
100
AcDbGroup
300

 70
     1
 71
     1
  0
GROUP
  5
4C15
102
{ACAD_REACTORS
330
D
102
}
330
D
100
AcDbGroup
300

 70
     1
 71
     1
  0
MLINESTYLE
  5
13
102
{ACAD_REACTORS
330
E
102
}
330
E
100
AcDbMlineStyle
  2
STANDARD
 70
     0
  3

 62
     0
 51
90.0
 52
90.0
 71
     2
 49
0.5
 62
   256
  6
BYLAYER
 49
-0.5
 62
   256
  6
BYLAYER
  0
ACDBPLACEHOLDER
  5
5C7C
102
{ACAD_REACTORS
330
5C7B
102
}
330
5C7B
100
AcDbPlaceHolder
280
     0
  0
DICTIONARYVAR
  5
13943
102
{ACAD_REACTORS
330
13942
102
}
330
13942
100
DictionaryVariables
280
     0
  1
-1
  0
XRECORD
  5
1394E
102
{ACAD_REACTORS
330
1394D
102
}
330
1394D
100
AcDbXrecord
 90
        1
  0
XRECORD
  5
1394F
102
{ACAD_REACTORS
330
1394D
102
}
330
1394D
100
AcDbXrecord
 90
       70
  0
XRECORD
  5
13950
102
{ACAD_REACTORS
330
1394D
102
}
330
1394D
100
AcDbXrecord
  1

  0
XRECORD
  5
13951
102
{ACAD_REACTORS
330
1394D
102
}
330
1394D
100
AcDbXrecord
  1

  0
XRECORD
  5
13952
102
{ACAD_REACTORS
330
1394D
102
}
330
1394D
100
AcDbXrecord
340
5C7D
  0
XRECORD
  5
13953
102
{ACAD_REACTORS
330
1394D
102
}
330
1394D
100
AcDbXrecord
340
5C7E
  0
XRECORD
  5
13954
102
{ACAD_REACTORS
330
1394D
102
}
330
1394D
100
AcDbXrecord
340
5C7B
  0
XRECORD
  5
13955
102
{ACAD_REACTORS
330
1394D
102
}
330
1394D
100
AcDbXrecord
 90
    10781
  0
XRECORD
  5
13956
102
{ACAD_REACTORS
330
1394D
102
}
330
1394D
100
AcDbXrecord
 90
        0
  0
XRECORD
  5
13957
102
{ACAD_REACTORS
330
1394D
102
}
330
1394D
100
AcDbXrecord
 90
        0
  0
XRECORD
  5
13958
102
{ACAD_REACTORS
330
1394D
102
}
330
1394D
100
AcDbXrecord
  1
{225A7F0D-DA29-11D8-946A-0000E2416295}
  0
XRECORD
  5
13959
102
{ACAD_REACTORS
330
1394D
102
}
330
1394D
100
AcDbXrecord
  1
{73A09422-5367-40B5-95D8-6D002F42780F}
  0
XRECORD
  5
1395A
102
{ACAD_REACTORS
330
1394D
102
}
330
1394D
100
AcDbXrecord
 40
0.0
  0
XRECORD
  5
1395B
102
{ACAD_REACTORS
330
1394D
102
}
330
1394D
100
AcDbXrecord
340
0
  0
XRECORD
  5
1395C
102
{ACAD_REACTORS
330
1394D
102
}
330
1394D
100
AcDbXrecord
 70
     0
  0
XRECORD
  5
1395D
102
{ACAD_REACTORS
330
1394D
102
}
330
1394D
100
AcDbXrecord
340
0
  0
XRECORD
  5
1395E
102
{ACAD_REACTORS
330
1394D
102
}
330
1394D
100
AcDbXrecord
 10
0.0
 20
0.0
 30
0.0
  0
XRECORD
  5
1395F
102
{ACAD_REACTORS
330
1394D
102
}
330
1394D
100
AcDbXrecord
 10
0.0
 20
0.0
 30
0.0
  0
XRECORD
  5
13960
102
{ACAD_REACTORS
330
1394D
102
}
330
1394D
100
AcDbXrecord
 10
0.0
 20
0.0
 30
0.0
  0
XRECORD
  5
13961
102
{ACAD_REACTORS
330
1394D
102
}
330
1394D
100
AcDbXrecord
 10
0.0
 20
0.0
 30
0.0
  0
XRECORD
  5
13962
102
{ACAD_REACTORS
330
1394D
102
}
330
1394D
100
AcDbXrecord
 10
0.0
 20
0.0
 30
0.0
  0
XRECORD
  5
13963
102
{ACAD_REACTORS
330
1394D
102
}
330
1394D
100
AcDbXrecord
 10
0.0
 20
0.0
 30
0.0
  0
XRECORD
  5
13964
102
{ACAD_REACTORS
330
1394D
102
}
330
1394D
100
AcDbXrecord
340
0
  0
XRECORD
  5
13965
102
{ACAD_REACTORS
330
1394D
102
}
330
1394D
100
AcDbXrecord
 70
     0
  0
XRECORD
  5
13966
102
{ACAD_REACTORS
330
1394D
102
}
330
1394D
100
AcDbXrecord
340
0
  0
XRECORD
  5
13967
102
{ACAD_REACTORS
330
1394D
102
}
330
1394D
100
AcDbXrecord
 10
0.0
 20
0.0
 30
0.0
  0
XRECORD
  5
13968
102
{ACAD_REACTORS
330
1394D
102
}
330
1394D
100
AcDbXrecord
 10
0.0
 20
0.0
 30
0.0
  0
XRECORD
  5
13969
102
{ACAD_REACTORS
330
1394D
102
}
330
1394D
100
AcDbXrecord
 10
0.0
 20
0.0
 30
0.0
  0
XRECORD
  5
1396A
102
{ACAD_REACTORS
330
1394D
102
}
330
1394D
100
AcDbXrecord
 10
0.0
 20
0.0
 30
0.0
  0
XRECORD
  5
1396B
102
{ACAD_REACTORS
330
1394D
102
}
330
1394D
100
AcDbXrecord
 10
0.0
 20
0.0
 30
0.0
  0
XRECORD
  5
1396C
102
{ACAD_REACTORS
330
1394D
102
}
330
1394D
100
AcDbXrecord
 10
0.0
 20
0.0
 30
0.0
  0
ENDSEC
  0
EOF
