  0
SECTION
  2
HEADER
  9
$ACADVER
  1
AC1014
  9
$ACADMAINTVER
 70
     9
  9
$DWGCODEPAGE
  3
ANSI_932
  9
$INSBASE
 10
0.0
 20
0.0
 30
0.0
  9
$EXTMIN
 10
-1950.755637091529
 20
1646.439929392115
 30
0.0
  9
$EXTMAX
 10
-1673.336452614626
 20
1961.032184453912
 30
0.0
  9
$LIMMIN
 10
0.0
 20
0.0
  9
$LIMMAX
 10
420.0
 20
297.0
  9
$ORTHOMODE
 70
     1
  9
$REGENMODE
 70
     1
  9
$FILLMODE
 70
     1
  9
$QTEXTMODE
 70
     0
  9
$MIRRTEXT
 70
     1
  9
$DRAGMODE
 70
     2
  9
$LTSCALE
 40
1.0
  9
$OSMODE
 70
    37
  9
$ATTMODE
 70
     1
  9
$TEXTSIZE
 40
2.5
  9
$TRACEWID
 40
1.0
  9
$TEXTSTYLE
  7
ゴシック体
  9
$CLAYER
  8
SUNPOU
  9
$CELTYPE
  6
BYLAYER
  9
$CECOLOR
 62
   256
  9
$CELTSCALE
 40
1.0
  9
$DELOBJ
 70
     1
  9
$DISPSILH
 70
     0
  9
$DIMSCALE
 40
0.0
  9
$DIMASZ
 40
3.0
  9
$DIMEXO
 40
0.5
  9
$DIMDLI
 40
0.5
  9
$DIMRND
 40
0.0
  9
$DIMDLE
 40
0.0
  9
$DIMEXE
 40
0.5
  9
$DIMTP
 40
0.0
  9
$DIMTM
 40
0.0
  9
$DIMTXT
 40
3.5
  9
$DIMCEN
 40
0.0
  9
$DIMTSZ
 40
0.0
  9
$DIMTOL
 70
     0
  9
$DIMLIM
 70
     0
  9
$DIMTIH
 70
     0
  9
$DIMTOH
 70
     0
  9
$DIMSE1
 70
     0
  9
$DIMSE2
 70
     0
  9
$DIMTAD
 70
     1
  9
$DIMZIN
 70
     8
  9
$DIMBLK
  1

  9
$DIMASO
 70
     1
  9
$DIMSHO
 70
     1
  9
$DIMPOST
  1

  9
$DIMAPOST
  1

  9
$DIMALT
 70
     0
  9
$DIMALTD
 70
     2
  9
$DIMALTF
 40
25.4
  9
$DIMLFAC
 40
1.0
  9
$DIMTOFL
 70
     1
  9
$DIMTVP
 40
0.0
  9
$DIMTIX
 70
     0
  9
$DIMSOXD
 70
     0
  9
$DIMSAH
 70
     0
  9
$DIMBLK1
  1

  9
$DIMBLK2
  1

  9
$DIMSTYLE
  2
標準スタイル
  9
$DIMCLRD
 70
     1
  9
$DIMCLRE
 70
     1
  9
$DIMCLRT
 70
     1
  9
$DIMTFAC
 40
1.0
  9
$DIMGAP
 40
1.0
  9
$DIMJUST
 70
     0
  9
$DIMSD1
 70
     0
  9
$DIMSD2
 70
     0
  9
$DIMTOLJ
 70
     1
  9
$DIMTZIN
 70
     8
  9
$DIMALTZ
 70
     0
  9
$DIMALTTZ
 70
     0
  9
$DIMFIT
 70
     3
  9
$DIMUPT
 70
     0
  9
$DIMUNIT
 70
     2
  9
$DIMDEC
 70
     2
  9
$DIMTDEC
 70
     2
  9
$DIMALTU
 70
     2
  9
$DIMALTTD
 70
     2
  9
$DIMTXSTY
  7
ゴシック体
  9
$DIMAUNIT
 70
     0
  9
$LUNITS
 70
     2
  9
$LUPREC
 70
     4
  9
$SKETCHINC
 40
1.0
  9
$FILLETRAD
 40
0.0
  9
$AUNITS
 70
     0
  9
$AUPREC
 70
     0
  9
$MENU
  1
.
  9
$ELEVATION
 40
0.0
  9
$PELEVATION
 40
0.0
  9
$THICKNESS
 40
0.0
  9
$LIMCHECK
 70
     0
  9
$BLIPMODE
 70
     0
  9
$CHAMFERA
 40
10.0
  9
$CHAMFERB
 40
10.0
  9
$CHAMFERC
 40
2.0
  9
$CHAMFERD
 40
0.7853981633974483
  9
$SKPOLY
 70
     0
  9
$TDCREATE
 40
2450495.493631365
  9
$TDUPDATE
 40
2453984.405902939
  9
$TDINDWG
 40
1.8048274421
  9
$TDUSRTIMER
 40
1.8048273264
  9
$USRTIMER
 70
     1
  9
$ANGBASE
 50
0.0
  9
$ANGDIR
 70
     0
  9
$PDMODE
 70
    99
  9
$PDSIZE
 40
0.0
  9
$PLINEWID
 40
0.0
  9
$COORDS
 70
     1
  9
$SPLFRAME
 70
     0
  9
$SPLINETYPE
 70
     6
  9
$SPLINESEGS
 70
     8
  9
$ATTDIA
 70
     0
  9
$ATTREQ
 70
     1
  9
$HANDLING
 70
 10241
  9
$HANDSEED
  5
138BD
  9
$SURFTAB1
 70
     6
  9
$SURFTAB2
 70
     6
  9
$SURFTYPE
 70
     6
  9
$SURFU
 70
     6
  9
$SURFV
 70
     6
  9
$UCSNAME
  2

  9
$UCSORG
 10
0.0
 20
0.0
 30
0.0
  9
$UCSXDIR
 10
1.0
 20
0.0
 30
0.0
  9
$UCSYDIR
 10
0.0
 20
1.0
 30
0.0
  9
$PUCSNAME
  2

  9
$PUCSORG
 10
0.0
 20
0.0
 30
0.0
  9
$PUCSXDIR
 10
1.0
 20
0.0
 30
0.0
  9
$PUCSYDIR
 10
0.0
 20
1.0
 30
0.0
  9
$USERI1
 70
     0
  9
$USERI2
 70
     0
  9
$USERI3
 70
     0
  9
$USERI4
 70
     0
  9
$USERI5
 70
     0
  9
$USERR1
 40
0.0
  9
$USERR2
 40
0.0
  9
$USERR3
 40
0.0
  9
$USERR4
 40
0.0
  9
$USERR5
 40
0.0
  9
$WORLDVIEW
 70
     1
  9
$SHADEDGE
 70
     3
  9
$SHADEDIF
 70
    70
  9
$TILEMODE
 70
     1
  9
$MAXACTVP
 70
    16
  9
$PINSBASE
 10
0.0
 20
0.0
 30
0.0
  9
$PLIMCHECK
 70
     0
  9
$PEXTMIN
 10
29.03619555254133
 20
27.69602733303884
 30
0.0
  9
$PEXTMAX
 10
414.536195552541
 20
287.6960273330388
 30
0.0
  9
$PLIMMIN
 10
11.13088392171084
 20
6.367460636892701
  9
$PLIMMAX
 10
431.0775391951483
 20
303.3781112716583
  9
$UNITMODE
 70
     0
  9
$VISRETAIN
 70
     0
  9
$PLINEGEN
 70
     0
  9
$PSLTSCALE
 70
     1
  9
$TREEDEPTH
 70
  3020
  9
$PICKSTYLE
 70
     1
  9
$CMLSTYLE
  2
STANDARD
  9
$CMLJUST
 70
     0
  9
$CMLSCALE
 40
1.0
  9
$PROXYGRAPHICS
 70
     1
  9
$MEASUREMENT
 70
     1
  0
ENDSEC
  0
SECTION
  2
CLASSES
  0
CLASS
  1
LWPOLYLINE
  2
AcDbPolyline
  3
AutoCAD 2000
 90
        0
280
     0
281
     1
  0
CLASS
  1
HATCH
  2
AcDbHatch
  3
AutoCAD 2000
 90
        0
280
     0
281
     1
  0
CLASS
  1
ACDBDICTIONARYWDFLT
  2
AcDbDictionaryWithDefault
  3
AutoCAD 2000
 90
        0
280
     0
281
     0
  0
CLASS
  1
ACDBPLACEHOLDER
  2
AcDbPlaceHolder
  3
AutoCAD 2000
 90
        0
280
     0
281
     0
  0
CLASS
  1
LAYOUT
  2
AcDbLayout
  3
AutoCAD 2000
 90
        0
280
     0
281
     0
  0
CLASS
  1
DICTIONARYVAR
  2
AcDbDictionaryVar
  3
AutoCAD 2000
 90
        0
280
     0
281
     0
  0
CLASS
  1
LONG_TRANSACTION
  2
AcDbLongTransaction
  3
AutoCAD 2000
 90
        0
280
     0
281
     0
  0
CLASS
  1
LWPOLYLINE
  2
AcDbPolyline
  3
AutoCAD 2000
 90
        0
280
     0
281
     1
  0
CLASS
  1
HATCH
  2
AcDbHatch
  3
AutoCAD 2000
 90
        0
280
     0
281
     1
  0
CLASS
  1
XRECORD
  2
AcDbXrecord
  3
AutoCAD 2000
 90
        0
280
     0
281
     0
  0
ENDSEC
  0
SECTION
  2
TABLES
  0
TABLE
  2
VPORT
  5
8
330
0
100
AcDbSymbolTable
 70
     2
  0
VPORT
  5
1388D
330
8
100
AcDbSymbolTableRecord
100
AcDbViewportTableRecord
  2
*ACTIVE
 70
     0
 10
0.0
 20
0.0
 11
1.0
 21
1.0
 12
-1699.032852122189
 22
1808.956837740921
 13
0.0
 23
0.0
 14
5.0
 24
5.0
 15
0.0
 25
0.0
 16
0.0
 26
0.0
 36
1.0
 17
0.0
 27
0.0
 37
0.0
 40
362.1799551664435
 41
2.192560175054704
 42
50.0
 43
0.0
 44
0.0
 50
0.0
 51
0.0
 71
     0
 72
   100
 73
     1
 74
     0
 75
     0
 76
     0
 77
     0
 78
     0
  0
ENDTAB
  0
TABLE
  2
LTYPE
  5
5
330
0
100
AcDbSymbolTable
 70
    13
  0
LTYPE
  5
14
330
5
100
AcDbSymbolTableRecord
100
AcDbLinetypeTableRecord
  2
BYBLOCK
 70
     0
  3

 72
    65
 73
     0
 40
0.0
  0
LTYPE
  5
15
330
5
100
AcDbSymbolTableRecord
100
AcDbLinetypeTableRecord
  2
BYLAYER
 70
     0
  3

 72
    65
 73
     0
 40
0.0
  0
LTYPE
  5
16
330
5
100
AcDbSymbolTableRecord
100
AcDbLinetypeTableRecord
  2
CONTINUOUS
 70
     0
  3
Solid line
 72
    65
 73
     0
 40
0.0
  0
LTYPE
  5
1956
330
5
100
AcDbSymbolTableRecord
100
AcDbLinetypeTableRecord
  2
CENTERX2
 70
     0
  3
________  __  ________  __  ________  __  _____
 72
    65
 73
     4
 40
4.0
 49
2.5
 74
     0
 49
-0.5
 74
     0
 49
0.5
 74
     0
 49
-0.5
 74
     0
  0
ENDTAB
  0
TABLE
  2
LAYER
  5
2
330
0
100
AcDbSymbolTable
 70
    34
  0
LAYER
  5
F
330
2
100
AcDbSymbolTableRecord
100
AcDbLayerTableRecord
  2
0
 70
     0
 62
     7
  6
CONTINUOUS
  0
LAYER
  5
18F
330
2
100
AcDbSymbolTableRecord
100
AcDbLayerTableRecord
  2
ZISSEN1
 70
     0
 62
     7
  6
CONTINUOUS
  0
LAYER
  5
529
330
2
100
AcDbSymbolTableRecord
100
AcDbLayerTableRecord
  2
SUNPOU
 70
     0
 62
     1
  6
CONTINUOUS
  0
LAYER
  5
195A
330
2
100
AcDbSymbolTableRecord
100
AcDbLayerTableRecord
  2
CL1
 70
     0
 62
   210
  6
CENTERX2
  0
LAYER
  5
3A9B
330
2
100
AcDbSymbolTableRecord
100
AcDbLayerTableRecord
  2
DEFPOINTS
 70
     0
 62
     7
  6
CONTINUOUS
  0
ENDTAB
  0
TABLE
  2
STYLE
  5
3
330
0
100
AcDbSymbolTable
 70
     5
  0
STYLE
  5
10
330
3
100
AcDbSymbolTableRecord
100
AcDbTextStyleTableRecord
  2
STANDARD
 70
     0
 40
0.0
 41
1.0
 50
0.0
 71
     0
 42
3.0
  3
txt
  4
BigFont
  0
STYLE
  5
1960
330
3
100
AcDbSymbolTableRecord
100
AcDbTextStyleTableRecord
  2
ゴシック体
 70
     0
 40
0.0
 41
1.0
 50
0.0
 71
     0
 42
2.5
  3
MS Gothic.ttf
  4

1001
ACAD
1000
MS Gothic
1071
    32817
  0
ENDTAB
  0
TABLE
  2
VIEW
  5
6
330
0
100
AcDbSymbolTable
 70
     0
  0
ENDTAB
  0
TABLE
  2
UCS
  5
7
330
0
100
AcDbSymbolTable
 70
     0
  0
ENDTAB
  0
TABLE
  2
APPID
  5
9
330
0
100
AcDbSymbolTable
 70
     5
  0
APPID
  5
11
330
9
100
AcDbSymbolTableRecord
100
AcDbRegAppTableRecord
  2
ACAD
 70
     0
  0
APPID
  5
4005
330
9
100
AcDbSymbolTableRecord
100
AcDbRegAppTableRecord
  2
CONTENTTABDATA
 70
     0
  0
APPID
  5
4006
330
9
100
AcDbSymbolTableRecord
100
AcDbRegAppTableRecord
  2
CONTENTCURRENTTAB
 70
     0
  0
APPID
  5
477B
330
9
100
AcDbSymbolTableRecord
100
AcDbRegAppTableRecord
  2
CONTENTBLOCKDESCRIPTION
 70
     0
  0
APPID
  5
477C
330
9
100
AcDbSymbolTableRecord
100
AcDbRegAppTableRecord
  2
CONTENTBLOCKICON
 70
     0
  0
ENDTAB
  0
TABLE
  2
DIMSTYLE
  5
A
330
0
100
AcDbSymbolTable
 70
    12
  0
DIMSTYLE
105
1D
330
A
100
AcDbSymbolTableRecord
100
AcDbDimStyleTableRecord
  2
STANDARD
 70
     0
  3

  4

  5

  6

  7

 40
1.0
 41
0.18
 42
0.0625
 43
0.38
 44
0.18
 45
0.0
 46
0.0
 47
0.0
 48
0.0
140
0.18
141
0.09
142
0.0
143
25.4
144
1.0
145
0.0
146
1.0
147
0.09
 71
     0
 72
     0
 73
     1
 74
     1
 75
     0
 76
     0
 77
     0
 78
     0
170
     0
171
     2
172
     0
173
     0
174
     0
175
     0
176
     0
177
     0
178
     0
270
     2
271
     4
272
     4
273
     2
274
     2
340
10
275
     0
280
     0
281
     0
282
     0
283
     1
284
     0
285
     0
286
     0
287
     3
288
     0
  0
DIMSTYLE
105
52E
102
{ACAD_REACTORS
330
136EB
330
13705
330
13711
330
13720
330
1372D
330
1373A
330
13746
330
13752
330
13761
330
1376E
330
1377A
330
13787
330
13794
330
137AE
330
137BA
330
137C9
330
137D6
330
137F2
330
137FF
330
1380D
330
1381A
330
13829
330
13836
102
}
330
A
100
AcDbSymbolTableRecord
100
AcDbDimStyleTableRecord
  2
標準スタイル
 70
     0
  3

  4

  5

  6

  7

 40
0.0
 41
3.0
 42
0.5
 43
0.5
 44
0.5
 45
0.0
 46
0.0
 47
0.0
 48
0.0
140
3.5
141
0.0
142
0.0
143
25.4
144
1.0
145
0.0
146
1.0
147
1.0
 71
     0
 72
     0
 73
     0
 74
     0
 75
     0
 76
     0
 77
     1
 78
     8
170
     0
171
     2
172
     1
173
     0
174
     0
175
     0
176
     1
177
     1
178
     1
270
     2
271
     2
272
     2
273
     2
274
     2
340
1960
275
     0
280
     0
281
     0
282
     0
283
     1
284
     8
285
     0
286
     0
287
     3
288
     0
  0
ENDTAB
  0
TABLE
  2
BLOCK_RECORD
  5
1
330
0
100
AcDbSymbolTable
 70
    47
  0
BLOCK_RECORD
  5
1A
102
{ACAD_XDICTIONARY
360
138AE
102
}
330
1
100
AcDbSymbolTableRecord
100
AcDbBlockTableRecord
  2
*MODEL_SPACE
  0
BLOCK_RECORD
  5
5D8E
102
{ACAD_XDICTIONARY
360
138B0
102
}
330
1
100
AcDbSymbolTableRecord
100
AcDbBlockTableRecord
  2
*PAPER_SPACE
  0
BLOCK_RECORD
  5
136EC
330
1
100
AcDbSymbolTableRecord
100
AcDbBlockTableRecord
  2
*D24
  0
BLOCK_RECORD
  5
13706
330
1
100
AcDbSymbolTableRecord
100
AcDbBlockTableRecord
  2
*D25
  0
BLOCK_RECORD
  5
13712
330
1
100
AcDbSymbolTableRecord
100
AcDbBlockTableRecord
  2
*D26
  0
BLOCK_RECORD
  5
13721
330
1
100
AcDbSymbolTableRecord
100
AcDbBlockTableRecord
  2
*D27
  0
BLOCK_RECORD
  5
1372E
330
1
100
AcDbSymbolTableRecord
100
AcDbBlockTableRecord
  2
*D28
  0
BLOCK_RECORD
  5
1373B
330
1
100
AcDbSymbolTableRecord
100
AcDbBlockTableRecord
  2
*D29
  0
BLOCK_RECORD
  5
13747
330
1
100
AcDbSymbolTableRecord
100
AcDbBlockTableRecord
  2
*D30
  0
BLOCK_RECORD
  5
13753
330
1
100
AcDbSymbolTableRecord
100
AcDbBlockTableRecord
  2
*D31
  0
BLOCK_RECORD
  5
13762
330
1
100
AcDbSymbolTableRecord
100
AcDbBlockTableRecord
  2
*D32
  0
BLOCK_RECORD
  5
1376F
330
1
100
AcDbSymbolTableRecord
100
AcDbBlockTableRecord
  2
*D33
  0
BLOCK_RECORD
  5
1377B
330
1
100
AcDbSymbolTableRecord
100
AcDbBlockTableRecord
  2
*D34
  0
BLOCK_RECORD
  5
13788
330
1
100
AcDbSymbolTableRecord
100
AcDbBlockTableRecord
  2
*D35
  0
BLOCK_RECORD
  5
13795
330
1
100
AcDbSymbolTableRecord
100
AcDbBlockTableRecord
  2
*D36
  0
BLOCK_RECORD
  5
137AF
330
1
100
AcDbSymbolTableRecord
100
AcDbBlockTableRecord
  2
*D37
  0
BLOCK_RECORD
  5
137BB
330
1
100
AcDbSymbolTableRecord
100
AcDbBlockTableRecord
  2
*D38
  0
BLOCK_RECORD
  5
137CA
330
1
100
AcDbSymbolTableRecord
100
AcDbBlockTableRecord
  2
*D39
  0
BLOCK_RECORD
  5
137D7
330
1
100
AcDbSymbolTableRecord
100
AcDbBlockTableRecord
  2
*D40
  0
BLOCK_RECORD
  5
137F3
330
1
100
AcDbSymbolTableRecord
100
AcDbBlockTableRecord
  2
*D41
  0
BLOCK_RECORD
  5
13800
330
1
100
AcDbSymbolTableRecord
100
AcDbBlockTableRecord
  2
*D42
  0
BLOCK_RECORD
  5
1380E
330
1
100
AcDbSymbolTableRecord
100
AcDbBlockTableRecord
  2
*D43
  0
BLOCK_RECORD
  5
1381B
330
1
100
AcDbSymbolTableRecord
100
AcDbBlockTableRecord
  2
*D44
  0
BLOCK_RECORD
  5
1382A
330
1
100
AcDbSymbolTableRecord
100
AcDbBlockTableRecord
  2
*D45
  0
BLOCK_RECORD
  5
13837
330
1
100
AcDbSymbolTableRecord
100
AcDbBlockTableRecord
  2
*D46
  0
ENDTAB
  0
ENDSEC
  0
SECTION
  2
BLOCKS
  0
BLOCK
  5
1B
330
1A
100
AcDbEntity
  8
0
100
AcDbBlockBegin
  2
*MODEL_SPACE
 70
     0
 10
0.0
 20
0.0
 30
0.0
  3
*MODEL_SPACE
  1

  0
ENDBLK
  5
1C
330
1A
100
AcDbEntity
  8
0
100
AcDbBlockEnd
  0
BLOCK
  5
5E60
330
5D8E
100
AcDbEntity
 67
     1
  8
0
100
AcDbBlockBegin
  2
*PAPER_SPACE
 70
     0
 10
0.0
 20
0.0
 30
0.0
  3
*PAPER_SPACE
  1

  0
ENDBLK
  5
5E61
330
5D8E
100
AcDbEntity
 67
     1
  8
0
100
AcDbBlockEnd
  0
BLOCK
  5
136F8
330
136EC
100
AcDbEntity
  8
0
100
AcDbBlockBegin
  2
*D24
 70
     1
 10
0.0
 20
0.0
 30
0.0
  3
*D24
  1

  0
LINE
  5
138B2
330
136EC
100
AcDbEntity
  8
SUNPOU
 62
     1
100
AcDbLine
 10
-1823.731608563908
 20
1955.032184453914
 30
0.0
 11
-1794.169921894265
 21
1955.032184453914
 31
0.0
  0
LINE
  5
138B3
330
136EC
100
AcDbEntity
  8
SUNPOU
 62
     1
100
AcDbLine
 10
-1817.731618563908
 20
1952.032174453913
 30
0.0
 11
-1794.169921894265
 21
1952.032174453913
 31
0.0
  0
LINE
  5
138B4
330
136EC
100
AcDbEntity
  8
SUNPOU
 62
     1
100
AcDbLine
 10
-1794.669921894266
 20
1958.032184453913
 30
0.0
 11
-1794.669921894266
 21
1961.032184453913
 31
0.0
  0
LINE
  5
138B5
330
136EC
100
AcDbEntity
  8
SUNPOU
 62
     1
100
AcDbLine
 10
-1794.669921894266
 20
1949.032174453913
 30
0.0
 11
-1794.669921894266
 21
1946.032174453913
 31
0.0
  0
MTEXT
  5
138B6
330
136EC
100
AcDbEntity
  8
SUNPOU
 62
     1
100
AcDbMText
 10
-1797.838977516968
 20
1958.676969252336
 30
0.0
 40
3.5
 41
0.0
 71
     5
 72
     1
  1
\A1;3
  7
ゴシック体
 11
0.0000000000000001
 21
1.0
 31
0.0
  0
LINE
  5
138B7
330
136EC
100
AcDbEntity
  8
SUNPOU
 62
     1
100
AcDbLine
 10
-1794.669921894266
 20
1955.032184453914
 30
0.0
 11
-1794.669921894266
 21
1952.032174453913
 31
0.0
  0
SOLID
  5
138B8
330
136EC
100
AcDbEntity
  8
SUNPOU
 62
     1
100
AcDbTrace
 10
-1795.169921894266
 20
1958.032184453913
 30
0.0
 11
-1794.169921894265
 21
1958.032184453913
 31
0.0
 12
-1794.669921894266
 22
1955.032184453914
 32
0.0
 13
-1794.669921894266
 23
1955.032184453914
 33
0.0
  0
SOLID
  5
138B9
330
136EC
100
AcDbEntity
  8
SUNPOU
 62
     1
100
AcDbTrace
 10
-1795.169921894266
 20
1949.032174453913
 30
0.0
 11
-1794.169921894265
 21
1949.032174453913
 31
0.0
 12
-1794.669921894266
 22
1952.032174453913
 32
0.0
 13
-1794.669921894266
 23
1952.032174453913
 33
0.0
  0
POINT
  5
138BA
330
136EC
100
AcDbEntity
  8
DEFPOINTS
 62
     0
100
AcDbPoint
 10
-1824.231608563908
 20
1955.032184453914
 30
0.0
  0
POINT
  5
138BB
330
136EC
100
AcDbEntity
  8
DEFPOINTS
 62
     0
100
AcDbPoint
 10
-1818.231618563909
 20
1952.032174453913
 30
0.0
  0
POINT
  5
138BC
330
136EC
100
AcDbEntity
  8
DEFPOINTS
 62
     0
100
AcDbPoint
 10
-1794.669921894266
 20
1952.032174453913
 30
0.0
  0
ENDBLK
  5
136F9
330
136EC
100
AcDbEntity
  8
0
100
AcDbBlockEnd
  0
BLOCK
  5
1370F
330
13706
100
AcDbEntity
  8
0
100
AcDbBlockBegin
  2
*D25
 70
     1
 10
0.0
 20
0.0
 30
0.0
  3
*D25
  1

  0
LINE
  5
13707
330
13706
100
AcDbEntity
  8
SUNPOU
 62
     1
100
AcDbLine
 10
-1817.731618563908
 20
1903.032154453913
 30
0.0
 11
-1794.169921894265
 21
1903.032154453913
 31
0.0
  0
LINE
  5
13708
330
13706
100
AcDbEntity
  8
SUNPOU
 62
     1
100
AcDbLine
 10
-1794.669921894266
 20
1949.032174453914
 30
0.0
 11
-1794.669921894266
 21
1906.032154453914
 31
0.0
  0
SOLID
  5
13709
330
13706
100
AcDbEntity
  8
SUNPOU
 62
     1
100
AcDbTrace
 10
-1795.169921894266
 20
1949.032174453914
 30
0.0
 11
-1794.169921894265
 21
1949.032174453914
 31
0.0
 12
-1794.669921894266
 22
1952.032174453913
 32
0.0
 13
-1794.669921894266
 23
1952.032174453913
 33
0.0
  0
SOLID
  5
1370A
330
13706
100
AcDbEntity
  8
SUNPOU
 62
     1
100
AcDbTrace
 10
-1795.169921894266
 20
1906.032154453914
 30
0.0
 11
-1794.169921894265
 21
1906.032154453914
 31
0.0
 12
-1794.669921894266
 22
1903.032154453913
 32
0.0
 13
-1794.669921894266
 23
1903.032154453913
 33
0.0
  0
MTEXT
  5
1370B
330
13706
100
AcDbEntity
  8
SUNPOU
 62
     1
100
AcDbMText
 10
-1797.419921894266
 20
1927.532164453912
 30
0.0
 40
3.5
 41
0.0
 71
     5
 72
     1
  1
\A1;49
  7
ゴシック体
 11
0.0000000000000001
 21
1.0
 31
0.0
1001
ACAD
1000
MTEXTBEGIN
1070
    73
1070
     1
1070
    44
1040
1.0
1070
    74
1070
     0
1000
MTEXTEND
  0
POINT
  5
1370C
330
13706
100
AcDbEntity
  8
DEFPOINTS
 62
     0
100
AcDbPoint
 10
-1794.669921894266
 20
1952.032174453913
 30
0.0
  0
POINT
  5
1370D
330
13706
100
AcDbEntity
  8
DEFPOINTS
 62
     0
100
AcDbPoint
 10
-1818.231618563909
 20
1903.032154453913
 30
0.0
  0
POINT
  5
1370E
330
13706
100
AcDbEntity
  8
DEFPOINTS
 62
     0
100
AcDbPoint
 10
-1794.669921894266
 20
1903.032154453913
 30
0.0
  0
ENDBLK
  5
13710
330
13706
100
AcDbEntity
  8
0
100
AcDbBlockEnd
  0
BLOCK
  5
1371E
330
13712
100
AcDbEntity
  8
0
100
AcDbBlockBegin
  2
*D26
 70
     1
 10
0.0
 20
0.0
 30
0.0
  3
*D26
  1

  0
LINE
  5
13713
330
13712
100
AcDbEntity
  8
SUNPOU
 62
     1
100
AcDbLine
 10
-1794.169921894265
 20
1903.032154453913
 30
0.0
 11
-1794.133017528295
 21
1903.032154453913
 31
0.0
  0
LINE
  5
13714
330
13712
100
AcDbEntity
  8
SUNPOU
 62
     1
100
AcDbLine
 10
-1895.731619563909
 20
1900.032144453914
 30
0.0
 11
-1794.133017528295
 21
1900.032144453914
 31
0.0
  0
LINE
  5
13715
330
13712
100
AcDbEntity
  8
SUNPOU
 62
     1
100
AcDbLine
 10
-1794.633017528296
 20
1906.032154453914
 30
0.0
 11
-1794.633017528296
 21
1909.032154453913
 31
0.0
  0
LINE
  5
13716
330
13712
100
AcDbEntity
  8
SUNPOU
 62
     1
100
AcDbLine
 10
-1794.633017528296
 20
1897.032144453913
 30
0.0
 11
-1794.633017528296
 21
1890.219961712796
 31
0.0
  0
LINE
  5
13717
330
13712
100
AcDbEntity
  8
SUNPOU
 62
     1
100
AcDbLine
 10
-1794.633017528296
 20
1903.032154453913
 30
0.0
 11
-1794.633017528296
 21
1900.032144453914
 31
0.0
  0
SOLID
  5
13718
330
13712
100
AcDbEntity
  8
SUNPOU
 62
     1
100
AcDbTrace
 10
-1795.133017528296
 20
1906.032154453914
 30
0.0
 11
-1794.133017528295
 21
1906.032154453914
 31
0.0
 12
-1794.633017528296
 22
1903.032154453913
 32
0.0
 13
-1794.633017528296
 23
1903.032154453913
 33
0.0
  0
SOLID
  5
13719
330
13712
100
AcDbEntity
  8
SUNPOU
 62
     1
100
AcDbTrace
 10
-1795.133017528296
 20
1897.032144453913
 30
0.0
 11
-1794.133017528295
 21
1897.032144453913
 31
0.0
 12
-1794.633017528296
 22
1900.032144453914
 32
0.0
 13
-1794.633017528296
 23
1900.032144453914
 33
0.0
  0
MTEXT
  5
1371A
330
13712
100
AcDbEntity
  8
SUNPOU
 62
     1
100
AcDbMText
 10
-1797.383017528296
 20
1892.126053083355
 30
0.0
 40
3.5
 41
0.0
 71
     5
 72
     1
  1
\A1;3
  7
ゴシック体
 11
0.0000000000000001
 21
1.0
 31
0.0
1001
ACAD
1000
MTEXTBEGIN
1070
    73
1070
     1
1070
    44
1040
1.0
1070
    74
1070
     0
1000
MTEXTEND
  0
POINT
  5
1371B
330
13712
100
AcDbEntity
  8
DEFPOINTS
 62
     0
100
AcDbPoint
 10
-1794.669921894266
 20
1903.032154453913
 30
0.0
  0
POINT
  5
1371C
330
13712
100
AcDbEntity
  8
DEFPOINTS
 62
     0
100
AcDbPoint
 10
-1896.231619563909
 20
1900.032144453914
 30
0.0
  0
POINT
  5
1371D
330
13712
100
AcDbEntity
  8
DEFPOINTS
 62
     0
100
AcDbPoint
 10
-1794.633017528296
 20
1900.032144453914
 30
0.0
  0
ENDBLK
  5
1371F
330
13712
100
AcDbEntity
  8
0
100
AcDbBlockEnd
  0
BLOCK
  5
1372B
330
13721
100
AcDbEntity
  8
0
100
AcDbBlockBegin
  2
*D27
 70
     1
 10
0.0
 20
0.0
 30
0.0
  3
*D27
  1

  0
LINE
  5
13722
330
13721
100
AcDbEntity
  8
SUNPOU
 62
     1
100
AcDbLine
 10
-1793.669921894266
 20
1955.032184453914
 30
0.0
 11
-1782.817869216162
 21
1955.032184453914
 31
0.0
  0
LINE
  5
13723
330
13721
100
AcDbEntity
  8
SUNPOU
 62
     1
100
AcDbLine
 10
-1794.133017528295
 20
1900.032144453914
 30
0.0
 11
-1782.817869216162
 21
1900.032144453914
 31
0.0
  0
LINE
  5
13724
330
13721
100
AcDbEntity
  8
SUNPOU
 62
     1
100
AcDbLine
 10
-1783.317869216162
 20
1952.032184453914
 30
0.0
 11
-1783.317869216162
 21
1903.032144453913
 31
0.0
  0
SOLID
  5
13725
330
13721
100
AcDbEntity
  8
SUNPOU
 62
     1
100
AcDbTrace
 10
-1783.817869216162
 20
1952.032184453914
 30
0.0
 11
-1782.817869216162
 21
1952.032184453914
 31
0.0
 12
-1783.317869216162
 22
1955.032184453914
 32
0.0
 13
-1783.317869216162
 23
1955.032184453914
 33
0.0
  0
SOLID
  5
13726
330
13721
100
AcDbEntity
  8
SUNPOU
 62
     1
100
AcDbTrace
 10
-1783.817869216162
 20
1903.032144453913
 30
0.0
 11
-1782.817869216162
 21
1903.032144453913
 31
0.0
 12
-1783.317869216162
 22
1900.032144453914
 32
0.0
 13
-1783.317869216162
 23
1900.032144453914
 33
0.0
  0
MTEXT
  5
13727
330
13721
100
AcDbEntity
  8
SUNPOU
 62
     1
100
AcDbMText
 10
-1786.067869216162
 20
1927.532164453912
 30
0.0
 40
3.5
 41
0.0
 71
     5
 72
     1
  1
\A1;55
  7
ゴシック体
 11
0.0000000000000001
 21
1.0
 31
0.0
1001
ACAD
1000
MTEXTBEGIN
1070
    73
1070
     1
1070
    44
1040
1.0
1070
    74
1070
     0
1000
MTEXTEND
  0
POINT
  5
13728
330
13721
100
AcDbEntity
  8
DEFPOINTS
 62
     0
100
AcDbPoint
 10
-1794.169921894265
 20
1955.032184453914
 30
0.0
  0
POINT
  5
13729
330
13721
100
AcDbEntity
  8
DEFPOINTS
 62
     0
100
AcDbPoint
 10
-1794.633017528296
 20
1900.032144453914
 30
0.0
  0
POINT
  5
1372A
330
13721
100
AcDbEntity
  8
DEFPOINTS
 62
     0
100
AcDbPoint
 10
-1783.317869216162
 20
1900.032144453914
 30
0.0
  0
ENDBLK
  5
1372C
330
13721
100
AcDbEntity
  8
0
100
AcDbBlockEnd
  0
BLOCK
  5
13738
330
1372E
100
AcDbEntity
  8
0
100
AcDbBlockBegin
  2
*D28
 70
     1
 10
0.0
 20
0.0
 30
0.0
  3
*D28
  1

  0
LINE
  5
1372F
330
1372E
100
AcDbEntity
  8
SUNPOU
 62
     1
100
AcDbLine
 10
-1928.731613563908
 20
1868.721364453914
 30
0.0
 11
-1946.347007649904
 21
1868.721364453914
 31
0.0
  0
LINE
  5
13730
330
1372E
100
AcDbEntity
  8
SUNPOU
 62
     1
100
AcDbLine
 10
-1925.231614563909
 20
1856.721364453913
 30
0.0
 11
-1946.347007649904
 21
1856.721364453913
 31
0.0
  0
LINE
  5
13731
330
1372E
100
AcDbEntity
  8
SUNPOU
 62
     1
100
AcDbLine
 10
-1945.847007649905
 20
1865.721364453913
 30
0.0
 11
-1945.847007649905
 21
1859.721364453913
 31
0.0
  0
SOLID
  5
13732
330
1372E
100
AcDbEntity
  8
SUNPOU
 62
     1
100
AcDbTrace
 10
-1946.347007649904
 20
1865.721364453913
 30
0.0
 11
-1945.347007649905
 21
1865.721364453913
 31
0.0
 12
-1945.847007649905
 22
1868.721364453914
 32
0.0
 13
-1945.847007649905
 23
1868.721364453914
 33
0.0
  0
SOLID
  5
13733
330
1372E
100
AcDbEntity
  8
SUNPOU
 62
     1
100
AcDbTrace
 10
-1946.347007649904
 20
1859.721364453913
 30
0.0
 11
-1945.347007649905
 21
1859.721364453913
 31
0.0
 12
-1945.847007649905
 22
1856.721364453913
 32
0.0
 13
-1945.847007649905
 23
1856.721364453913
 33
0.0
  0
MTEXT
  5
13734
330
1372E
100
AcDbEntity
  8
SUNPOU
 62
     1
100
AcDbMText
 10
-1948.597007649905
 20
1862.721364453912
 30
0.0
 40
3.5
 41
0.0
 71
     5
 72
     1
  1
\A1;12
  7
ゴシック体
 11
0.0000000000000001
 21
1.0
 31
0.0
1001
ACAD
1000
MTEXTBEGIN
1070
    73
1070
     1
1070
    44
1040
1.0
1070
    74
1070
     0
1000
MTEXTEND
  0
POINT
  5
13735
330
1372E
100
AcDbEntity
  8
DEFPOINTS
 62
     0
100
AcDbPoint
 10
-1928.231613563909
 20
1868.721364453914
 30
0.0
  0
POINT
  5
13736
330
1372E
100
AcDbEntity
  8
DEFPOINTS
 62
     0
100
AcDbPoint
 10
-1924.731614563908
 20
1856.721364453913
 30
0.0
  0
POINT
  5
13737
330
1372E
100
AcDbEntity
  8
DEFPOINTS
 62
     0
100
AcDbPoint
 10
-1945.847007649905
 20
1856.721364453913
 30
0.0
  0
ENDBLK
  5
13739
330
1372E
100
AcDbEntity
  8
0
100
AcDbBlockEnd
  0
BLOCK
  5
13744
330
1373B
100
AcDbEntity
  8
0
100
AcDbBlockBegin
  2
*D29
 70
     1
 10
0.0
 20
0.0
 30
0.0
  3
*D29
  1

  0
LINE
  5
1373C
330
1373B
100
AcDbEntity
  8
SUNPOU
 62
     1
100
AcDbLine
 10
-1925.731615563909
 20
1696.721354453913
 30
0.0
 11
-1946.347007649904
 21
1696.721354453913
 31
0.0
  0
LINE
  5
1373D
330
1373B
100
AcDbEntity
  8
SUNPOU
 62
     1
100
AcDbLine
 10
-1945.847007649905
 20
1853.721364453914
 30
0.0
 11
-1945.847007649905
 21
1699.721354453914
 31
0.0
  0
SOLID
  5
1373E
330
1373B
100
AcDbEntity
  8
SUNPOU
 62
     1
100
AcDbTrace
 10
-1946.347007649904
 20
1853.721364453914
 30
0.0
 11
-1945.347007649905
 21
1853.721364453914
 31
0.0
 12
-1945.847007649905
 22
1856.721364453913
 32
0.0
 13
-1945.847007649905
 23
1856.721364453913
 33
0.0
  0
SOLID
  5
1373F
330
1373B
100
AcDbEntity
  8
SUNPOU
 62
     1
100
AcDbTrace
 10
-1946.347007649904
 20
1699.721354453914
 30
0.0
 11
-1945.347007649905
 21
1699.721354453914
 31
0.0
 12
-1945.847007649905
 22
1696.721354453913
 32
0.0
 13
-1945.847007649905
 23
1696.721354453913
 33
0.0
  0
MTEXT
  5
13740
330
1373B
100
AcDbEntity
  8
SUNPOU
 62
     1
100
AcDbMText
 10
-1948.597007649905
 20
1776.721359453913
 30
0.0
 40
3.5
 41
0.0
 71
     5
 72
     1
  1
\A1;160
  7
ゴシック体
 11
0.0000000000000001
 21
1.0
 31
0.0
1001
ACAD
1000
MTEXTBEGIN
1070
    73
1070
     1
1070
    44
1040
1.0
1070
    74
1070
     0
1000
MTEXTEND
  0
POINT
  5
13741
330
1373B
100
AcDbEntity
  8
DEFPOINTS
 62
     0
100
AcDbPoint
 10
-1945.847007649905
 20
1856.721364453913
 30
0.0
  0
POINT
  5
13742
330
1373B
100
AcDbEntity
  8
DEFPOINTS
 62
     0
100
AcDbPoint
 10
-1925.231615563909
 20
1696.721354453913
 30
0.0
  0
POINT
  5
13743
330
1373B
100
AcDbEntity
  8
DEFPOINTS
 62
     0
100
AcDbPoint
 10
-1945.847007649905
 20
1696.721354453913
 30
0.0
  0
ENDBLK
  5
13745
330
1373B
100
AcDbEntity
  8
0
100
AcDbBlockEnd
  0
BLOCK
  5
13750
330
13747
100
AcDbEntity
  8
0
100
AcDbBlockBegin
  2
*D30
 70
     1
 10
0.0
 20
0.0
 30
0.0
  3
*D30
  1

  0
LINE
  5
13748
330
13747
100
AcDbEntity
  8
SUNPOU
 62
     1
100
AcDbLine
 10
-1928.731613563908
 20
1684.721352453912
 30
0.0
 11
-1946.347007649904
 21
1684.721352453912
 31
0.0
  0
LINE
  5
13749
330
13747
100
AcDbEntity
  8
SUNPOU
 62
     1
100
AcDbLine
 10
-1945.847007649905
 20
1687.721352453913
 30
0.0
 11
-1945.847007649905
 21
1693.721354453913
 31
0.0
  0
SOLID
  5
1374A
330
13747
100
AcDbEntity
  8
SUNPOU
 62
     1
100
AcDbTrace
 10
-1946.347007649904
 20
1687.721352453913
 30
0.0
 11
-1945.347007649905
 21
1687.721352453913
 31
0.0
 12
-1945.847007649905
 22
1684.721352453912
 32
0.0
 13
-1945.847007649905
 23
1684.721352453912
 33
0.0
  0
SOLID
  5
1374B
330
13747
100
AcDbEntity
  8
SUNPOU
 62
     1
100
AcDbTrace
 10
-1946.347007649904
 20
1693.721354453913
 30
0.0
 11
-1945.347007649905
 21
1693.721354453913
 31
0.0
 12
-1945.847007649905
 22
1696.721354453913
 32
0.0
 13
-1945.847007649905
 23
1696.721354453913
 33
0.0
  0
MTEXT
  5
1374C
330
13747
100
AcDbEntity
  8
SUNPOU
 62
     1
100
AcDbMText
 10
-1948.597007649905
 20
1690.721353453914
 30
0.0
 40
3.5
 41
0.0
 71
     5
 72
     1
  1
\A1;12
  7
ゴシック体
 11
0.0000000000000001
 21
1.0
 31
0.0
1001
ACAD
1000
MTEXTBEGIN
1070
    73
1070
     1
1070
    44
1040
1.0
1070
    74
1070
     0
1000
MTEXTEND
  0
POINT
  5
1374D
330
13747
100
AcDbEntity
  8
DEFPOINTS
 62
     0
100
AcDbPoint
 10
-1928.231613563909
 20
1684.721352453912
 30
0.0
  0
POINT
  5
1374E
330
13747
100
AcDbEntity
  8
DEFPOINTS
 62
     0
100
AcDbPoint
 10
-1945.847007649905
 20
1696.721354453913
 30
0.0
  0
POINT
  5
1374F
330
13747
100
AcDbEntity
  8
DEFPOINTS
 62
     0
100
AcDbPoint
 10
-1945.847007649905
 20
1696.721354453913
 30
0.0
  0
ENDBLK
  5
13751
330
13747
100
AcDbEntity
  8
0
100
AcDbBlockEnd
  0
BLOCK
  5
1375F
330
13753
100
AcDbEntity
  8
0
100
AcDbBlockBegin
  2
*D31
 70
     1
 10
0.0
 20
0.0
 30
0.0
  3
*D31
  1

  0
LINE
  5
13754
330
13753
100
AcDbEntity
  8
SUNPOU
 62
     1
100
AcDbLine
 10
-1928.231613563909
 20
1684.221352453914
 30
0.0
 11
-1928.231613563909
 21
1671.122587564503
 31
0.0
  0
LINE
  5
13755
330
13753
100
AcDbEntity
  8
SUNPOU
 62
     1
100
AcDbLine
 10
-1925.231615563909
 20
1684.221352453914
 30
0.0
 11
-1925.231615563909
 21
1671.122587564503
 31
0.0
  0
LINE
  5
13756
330
13753
100
AcDbEntity
  8
SUNPOU
 62
     1
100
AcDbLine
 10
-1931.231613563909
 20
1671.622587564502
 30
0.0
 11
-1934.231613563909
 21
1671.622587564502
 31
0.0
  0
LINE
  5
13757
330
13753
100
AcDbEntity
  8
SUNPOU
 62
     1
100
AcDbLine
 10
-1922.231615563909
 20
1671.622587564502
 30
0.0
 11
-1915.419432822791
 21
1671.622587564502
 31
0.0
  0
LINE
  5
13758
330
13753
100
AcDbEntity
  8
SUNPOU
 62
     1
100
AcDbLine
 10
-1928.231613563909
 20
1671.622587564502
 30
0.0
 11
-1925.231615563909
 21
1671.622587564502
 31
0.0
  0
SOLID
  5
13759
330
13753
100
AcDbEntity
  8
SUNPOU
 62
     1
100
AcDbTrace
 10
-1931.231613563909
 20
1672.122587564502
 30
0.0
 11
-1931.231613563909
 21
1671.122587564503
 31
0.0
 12
-1928.231613563909
 22
1671.622587564502
 32
0.0
 13
-1928.231613563909
 23
1671.622587564502
 33
0.0
  0
SOLID
  5
1375A
330
13753
100
AcDbEntity
  8
SUNPOU
 62
     1
100
AcDbTrace
 10
-1922.231615563909
 20
1672.122587564502
 30
0.0
 11
-1922.231615563909
 21
1671.122587564503
 31
0.0
 12
-1925.231615563909
 22
1671.622587564502
 32
0.0
 13
-1925.231615563909
 23
1671.622587564502
 33
0.0
  0
MTEXT
  5
1375B
330
13753
100
AcDbEntity
  8
SUNPOU
 62
     1
100
AcDbMText
 10
-1917.32552419335
 20
1674.372587564502
 30
0.0
 40
3.5
 41
0.0
 71
     5
 72
     1
  1
\A1;3
  7
ゴシック体
1001
ACAD
1000
MTEXTBEGIN
1070
    73
1070
     1
1070
    44
1040
1.0
1070
    74
1070
     0
1000
MTEXTEND
  0
POINT
  5
1375C
330
13753
100
AcDbEntity
  8
DEFPOINTS
 62
     0
100
AcDbPoint
 10
-1928.231613563909
 20
1684.721352453912
 30
0.0
  0
POINT
  5
1375D
330
13753
100
AcDbEntity
  8
DEFPOINTS
 62
     0
100
AcDbPoint
 10
-1925.231615563909
 20
1684.721352453912
 30
0.0
  0
POINT
  5
1375E
330
13753
100
AcDbEntity
  8
DEFPOINTS
 62
     0
100
AcDbPoint
 10
-1925.231615563909
 20
1671.622587564502
 30
0.0
  0
ENDBLK
  5
13760
330
13753
100
AcDbEntity
  8
0
100
AcDbBlockEnd
  0
BLOCK
  5
1376C
330
13762
100
AcDbEntity
  8
0
100
AcDbBlockBegin
  2
*D32
 70
     1
 10
0.0
 20
0.0
 30
0.0
  3
*D32
  1

  0
LINE
  5
13763
330
13762
100
AcDbEntity
  8
SUNPOU
 62
     1
100
AcDbLine
 10
-1928.231613563909
 20
1670.622587564502
 30
0.0
 11
-1928.231613563909
 21
1660.005971069234
 31
0.0
  0
LINE
  5
13764
330
13762
100
AcDbEntity
  8
SUNPOU
 62
     1
100
AcDbLine
 10
-1818.231618563909
 20
1696.221354453912
 30
0.0
 11
-1818.231618563909
 21
1660.005971069234
 31
0.0
  0
LINE
  5
13765
330
13762
100
AcDbEntity
  8
SUNPOU
 62
     1
100
AcDbLine
 10
-1925.231613563908
 20
1660.505971069234
 30
0.0
 11
-1821.231618563908
 21
1660.505971069234
 31
0.0
  0
SOLID
  5
13766
330
13762
100
AcDbEntity
  8
SUNPOU
 62
     1
100
AcDbTrace
 10
-1925.231613563908
 20
1661.005971069234
 30
0.0
 11
-1925.231613563908
 21
1660.005971069234
 31
0.0
 12
-1928.231613563909
 22
1660.505971069234
 32
0.0
 13
-1928.231613563909
 23
1660.505971069234
 33
0.0
  0
SOLID
  5
13767
330
13762
100
AcDbEntity
  8
SUNPOU
 62
     1
100
AcDbTrace
 10
-1821.231618563908
 20
1661.005971069234
 30
0.0
 11
-1821.231618563908
 21
1660.005971069234
 31
0.0
 12
-1818.231618563909
 22
1660.505971069234
 32
0.0
 13
-1818.231618563909
 23
1660.505971069234
 33
0.0
  0
MTEXT
  5
13768
330
13762
100
AcDbEntity
  8
SUNPOU
 62
     1
100
AcDbMText
 10
-1873.231616063909
 20
1663.255971069234
 30
0.0
 40
3.5
 41
0.0
 71
     5
 72
     1
  1
\A1;110
  7
ゴシック体
1001
ACAD
1000
MTEXTBEGIN
1070
    73
1070
     1
1070
    44
1040
1.0
1070
    74
1070
     0
1000
MTEXTEND
  0
POINT
  5
13769
330
13762
100
AcDbEntity
  8
DEFPOINTS
 62
     0
100
AcDbPoint
 10
-1928.231613563909
 20
1671.122587564503
 30
0.0
  0
POINT
  5
1376A
330
13762
100
AcDbEntity
  8
DEFPOINTS
 62
     0
100
AcDbPoint
 10
-1818.231618563909
 20
1696.721354453913
 30
0.0
  0
POINT
  5
1376B
330
13762
100
AcDbEntity
  8
DEFPOINTS
 62
     0
100
AcDbPoint
 10
-1818.231618563909
 20
1660.505971069234
 30
0.0
  0
ENDBLK
  5
1376D
330
13762
100
AcDbEntity
  8
0
100
AcDbBlockEnd
  0
BLOCK
  5
13778
330
1376F
100
AcDbEntity
  8
0
100
AcDbBlockBegin
  2
*D33
 70
     1
 10
0.0
 20
0.0
 30
0.0
  3
*D33
  1

  0
LINE
  5
13770
330
1376F
100
AcDbEntity
  8
SUNPOU
 62
     1
100
AcDbLine
 10
-1803.231618563908
 20
1699.721353453913
 30
0.0
 11
-1803.231618563908
 21
1660.005971069234
 31
0.0
  0
LINE
  5
13771
330
1376F
100
AcDbEntity
  8
SUNPOU
 62
     1
100
AcDbLine
 10
-1815.231618563909
 20
1660.505971069234
 30
0.0
 11
-1806.231618563909
 21
1660.505971069234
 31
0.0
  0
SOLID
  5
13772
330
1376F
100
AcDbEntity
  8
SUNPOU
 62
     1
100
AcDbTrace
 10
-1815.231618563909
 20
1661.005971069234
 30
0.0
 11
-1815.231618563909
 21
1660.005971069234
 31
0.0
 12
-1818.231618563909
 22
1660.505971069234
 32
0.0
 13
-1818.231618563909
 23
1660.505971069234
 33
0.0
  0
SOLID
  5
13773
330
1376F
100
AcDbEntity
  8
SUNPOU
 62
     1
100
AcDbTrace
 10
-1806.231618563909
 20
1661.005971069234
 30
0.0
 11
-1806.231618563909
 21
1660.005971069234
 31
0.0
 12
-1803.231618563908
 22
1660.505971069234
 32
0.0
 13
-1803.231618563908
 23
1660.505971069234
 33
0.0
  0
MTEXT
  5
13774
330
1376F
100
AcDbEntity
  8
SUNPOU
 62
     1
100
AcDbMText
 10
-1810.731618563909
 20
1663.255971069234
 30
0.0
 40
3.5
 41
0.0
 71
     5
 72
     1
  1
\A1;15
  7
ゴシック体
1001
ACAD
1000
MTEXTBEGIN
1070
    73
1070
     1
1070
    44
1040
1.0
1070
    74
1070
     0
1000
MTEXTEND
  0
POINT
  5
13775
330
1376F
100
AcDbEntity
  8
DEFPOINTS
 62
     0
100
AcDbPoint
 10
-1818.231618563909
 20
1660.505971069234
 30
0.0
  0
POINT
  5
13776
330
1376F
100
AcDbEntity
  8
DEFPOINTS
 62
     0
100
AcDbPoint
 10
-1803.231618563908
 20
1700.221353453914
 30
0.0
  0
POINT
  5
13777
330
1376F
100
AcDbEntity
  8
DEFPOINTS
 62
     0
100
AcDbPoint
 10
-1803.231618563908
 20
1660.505971069234
 30
0.0
  0
ENDBLK
  5
13779
330
1376F
100
AcDbEntity
  8
0
100
AcDbBlockEnd
  0
BLOCK
  5
13785
330
1377B
100
AcDbEntity
  8
0
100
AcDbBlockBegin
  2
*D34
 70
     1
 10
0.0
 20
0.0
 30
0.0
  3
*D34
  1

  0
LINE
  5
1377C
330
1377B
100
AcDbEntity
  8
SUNPOU
 62
     1
100
AcDbLine
 10
-1928.231613563909
 20
1660.005971069234
 30
0.0
 11
-1928.231613563909
 21
1646.439929392115
 31
0.0
  0
LINE
  5
1377D
330
1377B
100
AcDbEntity
  8
SUNPOU
 62
     1
100
AcDbLine
 10
-1803.231618563908
 20
1659.505971069235
 30
0.0
 11
-1803.231618563908
 21
1646.439929392115
 31
0.0
  0
LINE
  5
1377E
330
1377B
100
AcDbEntity
  8
SUNPOU
 62
     1
100
AcDbLine
 10
-1925.231613563908
 20
1646.939929392114
 30
0.0
 11
-1806.231618563909
 21
1646.939929392114
 31
0.0
  0
SOLID
  5
1377F
330
1377B
100
AcDbEntity
  8
SUNPOU
 62
     1
100
AcDbTrace
 10
-1925.231613563908
 20
1647.439929392114
 30
0.0
 11
-1925.231613563908
 21
1646.439929392115
 31
0.0
 12
-1928.231613563909
 22
1646.939929392114
 32
0.0
 13
-1928.231613563909
 23
1646.939929392114
 33
0.0
  0
SOLID
  5
13780
330
1377B
100
AcDbEntity
  8
SUNPOU
 62
     1
100
AcDbTrace
 10
-1806.231618563909
 20
1647.439929392114
 30
0.0
 11
-1806.231618563909
 21
1646.439929392115
 31
0.0
 12
-1803.231618563908
 22
1646.939929392114
 32
0.0
 13
-1803.231618563908
 23
1646.939929392114
 33
0.0
  0
MTEXT
  5
13781
330
1377B
100
AcDbEntity
  8
SUNPOU
 62
     1
100
AcDbMText
 10
-1865.731616063908
 20
1649.689929392114
 30
0.0
 40
3.5
 41
0.0
 71
     5
 72
     1
  1
\A1;125
  7
ゴシック体
1001
ACAD
1000
MTEXTBEGIN
1070
    73
1070
     1
1070
    44
1040
1.0
1070
    74
1070
     0
1000
MTEXTEND
  0
POINT
  5
13782
330
1377B
100
AcDbEntity
  8
DEFPOINTS
 62
     0
100
AcDbPoint
 10
-1928.231613563909
 20
1660.505971069234
 30
0.0
  0
POINT
  5
13783
330
1377B
100
AcDbEntity
  8
DEFPOINTS
 62
     0
100
AcDbPoint
 10
-1803.231618563908
 20
1660.005971069234
 30
0.0
  0
POINT
  5
13784
330
1377B
100
AcDbEntity
  8
DEFPOINTS
 62
     0
100
AcDbPoint
 10
-1803.231618563908
 20
1646.939929392114
 30
0.0
  0
ENDBLK
  5
13786
330
1377B
100
AcDbEntity
  8
0
100
AcDbBlockEnd
  0
BLOCK
  5
13792
330
13788
100
AcDbEntity
  8
0
100
AcDbBlockBegin
  2
*D35
 70
     1
 10
0.0
 20
0.0
 30
0.0
  3
*D35
  1

  0
LINE
  5
13789
330
13788
100
AcDbEntity
  8
SUNPOU
 62
     1
100
AcDbLine
 10
-1743.353258563909
 20
1696.221354453912
 30
0.0
 11
-1743.353258563909
 21
1660.005971069234
 31
0.0
  0
LINE
  5
1378A
330
13788
100
AcDbEntity
  8
SUNPOU
 62
     1
100
AcDbLine
 10
-1728.353258563909
 20
1690.221353453914
 30
0.0
 11
-1728.353258563909
 21
1660.005971069234
 31
0.0
  0
LINE
  5
1378B
330
13788
100
AcDbEntity
  8
SUNPOU
 62
     1
100
AcDbLine
 10
-1740.353258563909
 20
1660.505971069234
 30
0.0
 11
-1731.353258563909
 21
1660.505971069234
 31
0.0
  0
SOLID
  5
1378C
330
13788
100
AcDbEntity
  8
SUNPOU
 62
     1
100
AcDbTrace
 10
-1740.353258563909
 20
1661.005971069234
 30
0.0
 11
-1740.353258563909
 21
1660.005971069234
 31
0.0
 12
-1743.353258563909
 22
1660.505971069234
 32
0.0
 13
-1743.353258563909
 23
1660.505971069234
 33
0.0
  0
SOLID
  5
1378D
330
13788
100
AcDbEntity
  8
SUNPOU
 62
     1
100
AcDbTrace
 10
-1731.353258563909
 20
1661.005971069234
 30
0.0
 11
-1731.353258563909
 21
1660.005971069234
 31
0.0
 12
-1728.353258563909
 22
1660.505971069234
 32
0.0
 13
-1728.353258563909
 23
1660.505971069234
 33
0.0
  0
MTEXT
  5
1378E
330
13788
100
AcDbEntity
  8
SUNPOU
 62
     1
100
AcDbMText
 10
-1735.853258563909
 20
1663.255971069234
 30
0.0
 40
3.5
 41
0.0
 71
     5
 72
     1
  1
\A1;15
  7
ゴシック体
1001
ACAD
1000
MTEXTBEGIN
1070
    73
1070
     1
1070
    44
1040
1.0
1070
    74
1070
     0
1000
MTEXTEND
  0
POINT
  5
1378F
330
13788
100
AcDbEntity
  8
DEFPOINTS
 62
     0
100
AcDbPoint
 10
-1743.353258563909
 20
1696.721354453913
 30
0.0
  0
POINT
  5
13790
330
13788
100
AcDbEntity
  8
DEFPOINTS
 62
     0
100
AcDbPoint
 10
-1728.353258563909
 20
1690.721353453914
 30
0.0
  0
POINT
  5
13791
330
13788
100
AcDbEntity
  8
DEFPOINTS
 62
     0
100
AcDbPoint
 10
-1728.353258563909
 20
1660.505971069234
 30
0.0
  0
ENDBLK
  5
13793
330
13788
100
AcDbEntity
  8
0
100
AcDbBlockEnd
  0
BLOCK
  5
1379F
330
13795
100
AcDbEntity
  8
0
100
AcDbBlockBegin
  2
*D36
 70
     1
 10
0.0
 20
0.0
 30
0.0
  3
*D36
  1

  0
LINE
  5
13796
330
13795
100
AcDbEntity
  8
SUNPOU
 62
     1
100
AcDbLine
 10
-1728.353258563909
 20
1660.505971069234
 30
0.0
 11
-1728.353258563909
 21
1661.194388468154
 31
0.0
  0
LINE
  5
13797
330
13795
100
AcDbEntity
  8
SUNPOU
 62
     1
100
AcDbLine
 10
-1708.353268563909
 20
1690.221353453914
 30
0.0
 11
-1708.353268563909
 21
1660.194388468154
 31
0.0
  0
LINE
  5
13798
330
13795
100
AcDbEntity
  8
SUNPOU
 62
     1
100
AcDbLine
 10
-1725.353258563909
 20
1660.694388468154
 30
0.0
 11
-1711.353268563908
 21
1660.694388468154
 31
0.0
  0
SOLID
  5
13799
330
13795
100
AcDbEntity
  8
SUNPOU
 62
     1
100
AcDbTrace
 10
-1725.353258563909
 20
1661.194388468154
 30
0.0
 11
-1725.353258563909
 21
1660.194388468154
 31
0.0
 12
-1728.353258563909
 22
1660.694388468154
 32
0.0
 13
-1728.353258563909
 23
1660.694388468154
 33
0.0
  0
SOLID
  5
1379A
330
13795
100
AcDbEntity
  8
SUNPOU
 62
     1
100
AcDbTrace
 10
-1711.353268563908
 20
1661.194388468154
 30
0.0
 11
-1711.353268563908
 21
1660.194388468154
 31
0.0
 12
-1708.353268563909
 22
1660.694388468154
 32
0.0
 13
-1708.353268563909
 23
1660.694388468154
 33
0.0
  0
MTEXT
  5
1379B
330
13795
100
AcDbEntity
  8
SUNPOU
 62
     1
100
AcDbMText
 10
-1718.353263563908
 20
1663.444388468154
 30
0.0
 40
3.5
 41
0.0
 71
     5
 72
     1
  1
\A1;20
  7
ゴシック体
1001
ACAD
1000
MTEXTBEGIN
1070
    73
1070
     1
1070
    44
1040
1.0
1070
    74
1070
     0
1000
MTEXTEND
  0
POINT
  5
1379C
330
13795
100
AcDbEntity
  8
DEFPOINTS
 62
     0
100
AcDbPoint
 10
-1728.353258563909
 20
1660.005971069234
 30
0.0
  0
POINT
  5
1379D
330
13795
100
AcDbEntity
  8
DEFPOINTS
 62
     0
100
AcDbPoint
 10
-1708.353268563909
 20
1690.721353453914
 30
0.0
  0
POINT
  5
1379E
330
13795
100
AcDbEntity
  8
DEFPOINTS
 62
     0
100
AcDbPoint
 10
-1708.353268563909
 20
1660.694388468154
 30
0.0
  0
ENDBLK
  5
137A0
330
13795
100
AcDbEntity
  8
0
100
AcDbBlockEnd
  0
BLOCK
  5
137B8
330
137AF
100
AcDbEntity
  8
0
100
AcDbBlockBegin
  2
*D37
 70
     1
 10
0.0
 20
0.0
 30
0.0
  3
*D37
  1

  0
LINE
  5
137B0
330
137AF
100
AcDbEntity
  8
SUNPOU
 62
     1
100
AcDbLine
 10
-1694.353248563909
 20
1696.221354453912
 30
0.0
 11
-1694.353248563909
 21
1660.194388468154
 31
0.0
  0
LINE
  5
137B1
330
137AF
100
AcDbEntity
  8
SUNPOU
 62
     1
100
AcDbLine
 10
-1705.353268563909
 20
1660.694388468154
 30
0.0
 11
-1697.353248563909
 21
1660.694388468154
 31
0.0
  0
SOLID
  5
137B2
330
137AF
100
AcDbEntity
  8
SUNPOU
 62
     1
100
AcDbTrace
 10
-1705.353268563909
 20
1661.194388468154
 30
0.0
 11
-1705.353268563909
 21
1660.194388468154
 31
0.0
 12
-1708.353268563909
 22
1660.694388468154
 32
0.0
 13
-1708.353268563909
 23
1660.694388468154
 33
0.0
  0
SOLID
  5
137B3
330
137AF
100
AcDbEntity
  8
SUNPOU
 62
     1
100
AcDbTrace
 10
-1697.353248563909
 20
1661.194388468154
 30
0.0
 11
-1697.353248563909
 21
1660.194388468154
 31
0.0
 12
-1694.353248563909
 22
1660.694388468154
 32
0.0
 13
-1694.353248563909
 23
1660.694388468154
 33
0.0
  0
MTEXT
  5
137B4
330
137AF
100
AcDbEntity
  8
SUNPOU
 62
     1
100
AcDbMText
 10
-1701.353258563909
 20
1663.444388468154
 30
0.0
 40
3.5
 41
0.0
 71
     5
 72
     1
  1
\A1;14
  7
ゴシック体
1001
ACAD
1000
MTEXTBEGIN
1070
    73
1070
     1
1070
    44
1040
1.0
1070
    74
1070
     0
1000
MTEXTEND
  0
POINT
  5
137B5
330
137AF
100
AcDbEntity
  8
DEFPOINTS
 62
     0
100
AcDbPoint
 10
-1708.353268563909
 20
1660.694388468154
 30
0.0
  0
POINT
  5
137B6
330
137AF
100
AcDbEntity
  8
DEFPOINTS
 62
     0
100
AcDbPoint
 10
-1694.353248563909
 20
1696.721354453913
 30
0.0
  0
POINT
  5
137B7
330
137AF
100
AcDbEntity
  8
DEFPOINTS
 62
     0
100
AcDbPoint
 10
-1694.353248563909
 20
1660.694388468154
 30
0.0
  0
ENDBLK
  5
137B9
330
137AF
100
AcDbEntity
  8
0
100
AcDbBlockEnd
  0
BLOCK
  5
137C7
330
137BB
100
AcDbEntity
  8
0
100
AcDbBlockBegin
  2
*D38
 70
     1
 10
0.0
 20
0.0
 30
0.0
  3
*D38
  1

  0
LINE
  5
137BC
330
137BB
100
AcDbEntity
  8
SUNPOU
 62
     1
100
AcDbLine
 10
-1730.603248563909
 20
1684.221352453914
 30
0.0
 11
-1730.603248563909
 21
1671.122587564503
 31
0.0
  0
LINE
  5
137BD
330
137BB
100
AcDbEntity
  8
SUNPOU
 62
     1
100
AcDbLine
 10
-1726.103258563909
 20
1684.221352453914
 30
0.0
 11
-1726.103258563909
 21
1671.122587564503
 31
0.0
  0
LINE
  5
137BE
330
137BB
100
AcDbEntity
  8
SUNPOU
 62
     1
100
AcDbLine
 10
-1733.603248563909
 20
1671.622587564502
 30
0.0
 11
-1736.603248563908
 21
1671.622587564502
 31
0.0
  0
LINE
  5
137BF
330
137BB
100
AcDbEntity
  8
SUNPOU
 62
     1
100
AcDbLine
 10
-1723.103258563909
 20
1671.622587564502
 30
0.0
 11
-1711.689552980153
 21
1671.622587564502
 31
0.0
  0
LINE
  5
137C0
330
137BB
100
AcDbEntity
  8
SUNPOU
 62
     1
100
AcDbLine
 10
-1730.603248563909
 20
1671.622587564502
 30
0.0
 11
-1726.103258563909
 21
1671.622587564502
 31
0.0
  0
SOLID
  5
137C1
330
137BB
100
AcDbEntity
  8
SUNPOU
 62
     1
100
AcDbTrace
 10
-1733.603248563909
 20
1672.122587564502
 30
0.0
 11
-1733.603248563909
 21
1671.122587564503
 31
0.0
 12
-1730.603248563909
 22
1671.622587564502
 32
0.0
 13
-1730.603248563909
 23
1671.622587564502
 33
0.0
  0
SOLID
  5
137C2
330
137BB
100
AcDbEntity
  8
SUNPOU
 62
     1
100
AcDbTrace
 10
-1723.103258563909
 20
1672.122587564502
 30
0.0
 11
-1723.103258563909
 21
1671.122587564503
 31
0.0
 12
-1726.103258563909
 22
1671.622587564502
 32
0.0
 13
-1726.103258563909
 23
1671.622587564502
 33
0.0
  0
MTEXT
  5
137C3
330
137BB
100
AcDbEntity
  8
SUNPOU
 62
     1
100
AcDbMText
 10
-1715.89640577203
 20
1674.372587564502
 30
0.0
 40
3.5
 41
0.0
 71
     5
 72
     1
  1
\A1;4.5
  7
ゴシック体
1001
ACAD
1000
MTEXTBEGIN
1070
    73
1070
     1
1070
    44
1040
1.0
1070
    74
1070
     0
1000
MTEXTEND
  0
POINT
  5
137C4
330
137BB
100
AcDbEntity
  8
DEFPOINTS
 62
     0
100
AcDbPoint
 10
-1730.603248563909
 20
1684.721352453912
 30
0.0
  0
POINT
  5
137C5
330
137BB
100
AcDbEntity
  8
DEFPOINTS
 62
     0
100
AcDbPoint
 10
-1726.103258563909
 20
1684.721352453912
 30
0.0
  0
POINT
  5
137C6
330
137BB
100
AcDbEntity
  8
DEFPOINTS
 62
     0
100
AcDbPoint
 10
-1726.103258563909
 20
1671.622587564502
 30
0.0
  0
ENDBLK
  5
137C8
330
137BB
100
AcDbEntity
  8
0
100
AcDbBlockEnd
  0
BLOCK
  5
137D4
330
137CA
100
AcDbEntity
  8
0
100
AcDbBlockBegin
  2
*D39
 70
     1
 10
0.0
 20
0.0
 30
0.0
  3
*D39
  1

  0
LINE
  5
137CB
330
137CA
100
AcDbEntity
  8
SUNPOU
 62
     1
100
AcDbLine
 10
-1743.353258563909
 20
1660.005971069234
 30
0.0
 11
-1743.353258563909
 21
1646.439929392115
 31
0.0
  0
LINE
  5
137CC
330
137CA
100
AcDbEntity
  8
SUNPOU
 62
     1
100
AcDbLine
 10
-1694.353248563909
 20
1660.194388468154
 30
0.0
 11
-1694.353248563909
 21
1646.439929392115
 31
0.0
  0
LINE
  5
137CD
330
137CA
100
AcDbEntity
  8
SUNPOU
 62
     1
100
AcDbLine
 10
-1740.353258563909
 20
1646.939929392114
 30
0.0
 11
-1697.353248563909
 21
1646.939929392114
 31
0.0
  0
SOLID
  5
137CE
330
137CA
100
AcDbEntity
  8
SUNPOU
 62
     1
100
AcDbTrace
 10
-1740.353258563909
 20
1647.439929392114
 30
0.0
 11
-1740.353258563909
 21
1646.439929392115
 31
0.0
 12
-1743.353258563909
 22
1646.939929392114
 32
0.0
 13
-1743.353258563909
 23
1646.939929392114
 33
0.0
  0
SOLID
  5
137CF
330
137CA
100
AcDbEntity
  8
SUNPOU
 62
     1
100
AcDbTrace
 10
-1697.353248563909
 20
1647.439929392114
 30
0.0
 11
-1697.353248563909
 21
1646.439929392115
 31
0.0
 12
-1694.353248563909
 22
1646.939929392114
 32
0.0
 13
-1694.353248563909
 23
1646.939929392114
 33
0.0
  0
MTEXT
  5
137D0
330
137CA
100
AcDbEntity
  8
SUNPOU
 62
     1
100
AcDbMText
 10
-1718.853253563909
 20
1649.689929392114
 30
0.0
 40
3.5
 41
0.0
 71
     5
 72
     1
  1
\A1;49
  7
ゴシック体
1001
ACAD
1000
MTEXTBEGIN
1070
    73
1070
     1
1070
    44
1040
1.0
1070
    74
1070
     0
1000
MTEXTEND
  0
POINT
  5
137D1
330
137CA
100
AcDbEntity
  8
DEFPOINTS
 62
     0
100
AcDbPoint
 10
-1743.353258563909
 20
1660.505971069234
 30
0.0
  0
POINT
  5
137D2
330
137CA
100
AcDbEntity
  8
DEFPOINTS
 62
     0
100
AcDbPoint
 10
-1694.353248563909
 20
1660.694388468154
 30
0.0
  0
POINT
  5
137D3
330
137CA
100
AcDbEntity
  8
DEFPOINTS
 62
     0
100
AcDbPoint
 10
-1694.353248563909
 20
1646.939929392114
 30
0.0
  0
ENDBLK
  5
137D5
330
137CA
100
AcDbEntity
  8
0
100
AcDbBlockEnd
  0
BLOCK
  5
137E3
330
137D7
100
AcDbEntity
  8
0
100
AcDbBlockBegin
  2
*D40
 70
     1
 10
0.0
 20
0.0
 30
0.0
  3
*D40
  1

  0
LINE
  5
137D8
330
137D7
100
AcDbEntity
  8
SUNPOU
 62
     1
100
AcDbLine
 10
-1737.939048563909
 20
1684.721352453912
 30
0.0
 11
-1762.886256335982
 21
1684.721352453912
 31
0.0
  0
LINE
  5
137D9
330
137D7
100
AcDbEntity
  8
SUNPOU
 62
     1
100
AcDbLine
 10
-1728.853258563909
 20
1690.721353453914
 30
0.0
 11
-1762.886256335982
 21
1690.721353453914
 31
0.0
  0
LINE
  5
137DA
330
137D7
100
AcDbEntity
  8
SUNPOU
 62
     1
100
AcDbLine
 10
-1762.386256335982
 20
1681.721352453913
 30
0.0
 11
-1762.386256335982
 21
1678.721352453913
 31
0.0
  0
LINE
  5
137DB
330
137D7
100
AcDbEntity
  8
SUNPOU
 62
     1
100
AcDbLine
 10
-1762.386256335982
 20
1693.721353453914
 30
0.0
 11
-1762.386256335982
 21
1696.721353453914
 31
0.0
  0
LINE
  5
137DC
330
137D7
100
AcDbEntity
  8
SUNPOU
 62
     1
100
AcDbLine
 10
-1762.386256335982
 20
1684.721352453912
 30
0.0
 11
-1762.386256335982
 21
1690.721353453914
 31
0.0
  0
SOLID
  5
137DD
330
137D7
100
AcDbEntity
  8
SUNPOU
 62
     1
100
AcDbTrace
 10
-1762.886256335982
 20
1681.721352453913
 30
0.0
 11
-1761.886256335982
 21
1681.721352453913
 31
0.0
 12
-1762.386256335982
 22
1684.721352453912
 32
0.0
 13
-1762.386256335982
 23
1684.721352453912
 33
0.0
  0
SOLID
  5
137DE
330
137D7
100
AcDbEntity
  8
SUNPOU
 62
     1
100
AcDbTrace
 10
-1762.886256335982
 20
1693.721353453914
 30
0.0
 11
-1761.886256335982
 21
1693.721353453914
 31
0.0
 12
-1762.386256335982
 22
1690.721353453914
 32
0.0
 13
-1762.386256335982
 23
1690.721353453914
 33
0.0
  0
MTEXT
  5
137DF
330
137D7
100
AcDbEntity
  8
SUNPOU
 62
     1
100
AcDbMText
 10
-1765.136256335983
 20
1687.721352953913
 30
0.0
 40
3.5
 41
0.0
 71
     5
 72
     1
  1
\A1;6
  7
ゴシック体
 11
0.0000000000000001
 21
1.0
 31
0.0
1001
ACAD
1000
MTEXTBEGIN
1070
    73
1070
     1
1070
    44
1040
1.0
1070
    74
1070
     0
1000
MTEXTEND
  0
POINT
  5
137E0
330
137D7
100
AcDbEntity
  8
DEFPOINTS
 62
     0
100
AcDbPoint
 10
-1737.439048563909
 20
1684.721352453912
 30
0.0
  0
POINT
  5
137E1
330
137D7
100
AcDbEntity
  8
DEFPOINTS
 62
     0
100
AcDbPoint
 10
-1728.353258563909
 20
1690.721353453914
 30
0.0
  0
POINT
  5
137E2
330
137D7
100
AcDbEntity
  8
DEFPOINTS
 62
     0
100
AcDbPoint
 10
-1762.386256335982
 20
1690.721353453914
 30
0.0
  0
ENDBLK
  5
137E4
330
137D7
100
AcDbEntity
  8
0
100
AcDbBlockEnd
  0
BLOCK
  5
137FD
330
137F3
100
AcDbEntity
  8
0
100
AcDbBlockBegin
  2
*D41
 70
     1
 10
0.0
 20
0.0
 30
0.0
  3
*D41
  1

  0
LINE
  5
137F4
330
137F3
100
AcDbEntity
  8
SUNPOU
 62
     1
100
AcDbLine
 10
-1761.886256335982
 20
1690.721353453914
 30
0.0
 11
-1761.697670345031
 21
1690.721353453914
 31
0.0
  0
LINE
  5
137F5
330
137F3
100
AcDbEntity
  8
SUNPOU
 62
     1
100
AcDbLine
 10
-1728.853258563909
 20
1862.721364453912
 30
0.0
 11
-1762.697670345032
 21
1862.721364453912
 31
0.0
  0
LINE
  5
137F6
330
137F3
100
AcDbEntity
  8
SUNPOU
 62
     1
100
AcDbLine
 10
-1762.197670345032
 20
1693.721353453914
 30
0.0
 11
-1762.197670345032
 21
1859.721364453913
 31
0.0
  0
SOLID
  5
137F7
330
137F3
100
AcDbEntity
  8
SUNPOU
 62
     1
100
AcDbTrace
 10
-1762.697670345032
 20
1693.721353453914
 30
0.0
 11
-1761.697670345031
 21
1693.721353453914
 31
0.0
 12
-1762.197670345032
 22
1690.721353453914
 32
0.0
 13
-1762.197670345032
 23
1690.721353453914
 33
0.0
  0
SOLID
  5
137F8
330
137F3
100
AcDbEntity
  8
SUNPOU
 62
     1
100
AcDbTrace
 10
-1762.697670345032
 20
1859.721364453913
 30
0.0
 11
-1761.697670345031
 21
1859.721364453913
 31
0.0
 12
-1762.197670345032
 22
1862.721364453912
 32
0.0
 13
-1762.197670345032
 23
1862.721364453912
 33
0.0
  0
MTEXT
  5
137F9
330
137F3
100
AcDbEntity
  8
SUNPOU
 62
     1
100
AcDbMText
 10
-1764.947670345033
 20
1776.721358953913
 30
0.0
 40
3.5
 41
0.0
 71
     5
 72
     1
  1
\A1;172
  7
ゴシック体
 11
0.0000000000000001
 21
1.0
 31
0.0
1001
ACAD
1000
MTEXTBEGIN
1070
    73
1070
     1
1070
    44
1040
1.0
1070
    74
1070
     0
1000
MTEXTEND
  0
POINT
  5
137FA
330
137F3
100
AcDbEntity
  8
DEFPOINTS
 62
     0
100
AcDbPoint
 10
-1762.386256335982
 20
1690.721353453914
 30
0.0
  0
POINT
  5
137FB
330
137F3
100
AcDbEntity
  8
DEFPOINTS
 62
     0
100
AcDbPoint
 10
-1728.353258563909
 20
1862.721364453912
 30
0.0
  0
POINT
  5
137FC
330
137F3
100
AcDbEntity
  8
DEFPOINTS
 62
     0
100
AcDbPoint
 10
-1762.197670345032
 20
1862.721364453912
 30
0.0
  0
ENDBLK
  5
137FE
330
137F3
100
AcDbEntity
  8
0
100
AcDbBlockEnd
  0
BLOCK
  5
1380B
330
13800
100
AcDbEntity
  8
0
100
AcDbBlockBegin
  2
*D42
 70
     1
 10
0.0
 20
0.0
 30
0.0
  3
*D42
  1

  0
LINE
  5
13801
330
13800
100
AcDbEntity
  8
SUNPOU
 62
     1
100
AcDbLine
 10
-1737.939048563909
 20
1868.721364453914
 30
0.0
 11
-1762.697670345032
 21
1868.721364453914
 31
0.0
  0
LINE
  5
13802
330
13800
100
AcDbEntity
  8
SUNPOU
 62
     1
100
AcDbLine
 10
-1762.197670345032
 20
1859.721364453913
 30
0.0
 11
-1762.197670345032
 21
1856.721364453913
 31
0.0
  0
LINE
  5
13803
330
13800
100
AcDbEntity
  8
SUNPOU
 62
     1
100
AcDbLine
 10
-1762.197670345032
 20
1871.721364453914
 30
0.0
 11
-1762.197670345032
 21
1874.721364453913
 31
0.0
  0
LINE
  5
13804
330
13800
100
AcDbEntity
  8
SUNPOU
 62
     1
100
AcDbLine
 10
-1762.197670345032
 20
1862.721364453912
 30
0.0
 11
-1762.197670345032
 21
1868.721364453914
 31
0.0
  0
SOLID
  5
13805
330
13800
100
AcDbEntity
  8
SUNPOU
 62
     1
100
AcDbTrace
 10
-1762.697670345032
 20
1859.721364453913
 30
0.0
 11
-1761.697670345031
 21
1859.721364453913
 31
0.0
 12
-1762.197670345032
 22
1862.721364453912
 32
0.0
 13
-1762.197670345032
 23
1862.721364453912
 33
0.0
  0
SOLID
  5
13806
330
13800
100
AcDbEntity
  8
SUNPOU
 62
     1
100
AcDbTrace
 10
-1762.697670345032
 20
1871.721364453914
 30
0.0
 11
-1761.697670345031
 21
1871.721364453914
 31
0.0
 12
-1762.197670345032
 22
1868.721364453914
 32
0.0
 13
-1762.197670345032
 23
1868.721364453914
 33
0.0
  0
MTEXT
  5
13807
330
13800
100
AcDbEntity
  8
SUNPOU
 62
     1
100
AcDbMText
 10
-1764.947670345033
 20
1865.721364453913
 30
0.0
 40
3.5
 41
0.0
 71
     5
 72
     1
  1
\A1;6
  7
ゴシック体
 11
0.0000000000000001
 21
1.0
 31
0.0
1001
ACAD
1000
MTEXTBEGIN
1070
    73
1070
     1
1070
    44
1040
1.0
1070
    74
1070
     0
1000
MTEXTEND
  0
POINT
  5
13808
330
13800
100
AcDbEntity
  8
DEFPOINTS
 62
     0
100
AcDbPoint
 10
-1762.197670345032
 20
1862.721364453912
 30
0.0
  0
POINT
  5
13809
330
13800
100
AcDbEntity
  8
DEFPOINTS
 62
     0
100
AcDbPoint
 10
-1737.439048563909
 20
1868.721364453914
 30
0.0
  0
POINT
  5
1380A
330
13800
100
AcDbEntity
  8
DEFPOINTS
 62
     0
100
AcDbPoint
 10
-1762.197670345032
 20
1868.721364453914
 30
0.0
  0
ENDBLK
  5
1380C
330
13800
100
AcDbEntity
  8
0
100
AcDbBlockEnd
  0
BLOCK
  5
13818
330
1380E
100
AcDbEntity
  8
0
100
AcDbBlockBegin
  2
*D43
 70
     1
 10
0.0
 20
0.0
 30
0.0
  3
*D43
  1

  0
LINE
  5
1380F
330
1380E
100
AcDbEntity
  8
SUNPOU
 62
     1
100
AcDbLine
 10
-1818.231618563909
 20
1857.221364453914
 30
0.0
 11
-1818.231618563909
 21
1876.613464923732
 31
0.0
  0
LINE
  5
13810
330
1380E
100
AcDbEntity
  8
SUNPOU
 62
     1
100
AcDbLine
 10
-1806.231608563908
 20
1850.221324453913
 30
0.0
 11
-1806.231608563908
 21
1876.613464923732
 31
0.0
  0
LINE
  5
13811
330
1380E
100
AcDbEntity
  8
SUNPOU
 62
     1
100
AcDbLine
 10
-1815.231618563909
 20
1876.11346492373
 30
0.0
 11
-1809.231608563909
 21
1876.11346492373
 31
0.0
  0
SOLID
  5
13812
330
1380E
100
AcDbEntity
  8
SUNPOU
 62
     1
100
AcDbTrace
 10
-1815.231618563909
 20
1876.613464923732
 30
0.0
 11
-1815.231618563909
 21
1875.613464923731
 31
0.0
 12
-1818.231618563909
 22
1876.11346492373
 32
0.0
 13
-1818.231618563909
 23
1876.11346492373
 33
0.0
  0
SOLID
  5
13813
330
1380E
100
AcDbEntity
  8
SUNPOU
 62
     1
100
AcDbTrace
 10
-1809.231608563909
 20
1876.613464923732
 30
0.0
 11
-1809.231608563909
 21
1875.613464923731
 31
0.0
 12
-1806.231608563908
 22
1876.11346492373
 32
0.0
 13
-1806.231608563908
 23
1876.11346492373
 33
0.0
  0
MTEXT
  5
13814
330
1380E
100
AcDbEntity
  8
SUNPOU
 62
     1
100
AcDbMText
 10
-1812.231613563908
 20
1878.86346492373
 30
0.0
 40
3.5
 41
0.0
 71
     5
 72
     1
  1
\A1;12
  7
ゴシック体
1001
ACAD
1000
MTEXTBEGIN
1070
    73
1070
     1
1070
    44
1040
1.0
1070
    74
1070
     0
1000
MTEXTEND
  0
POINT
  5
13815
330
1380E
100
AcDbEntity
  8
DEFPOINTS
 62
     0
100
AcDbPoint
 10
-1818.231618563909
 20
1856.721364453913
 30
0.0
  0
POINT
  5
13816
330
1380E
100
AcDbEntity
  8
DEFPOINTS
 62
     0
100
AcDbPoint
 10
-1806.231608563908
 20
1849.721324453914
 30
0.0
  0
POINT
  5
13817
330
1380E
100
AcDbEntity
  8
DEFPOINTS
 62
     0
100
AcDbPoint
 10
-1806.231608563908
 20
1876.11346492373
 30
0.0
  0
ENDBLK
  5
13819
330
1380E
100
AcDbEntity
  8
0
100
AcDbBlockEnd
  0
BLOCK
  5
13827
330
1381B
100
AcDbEntity
  8
0
100
AcDbBlockBegin
  2
*D44
 70
     1
 10
0.0
 20
0.0
 30
0.0
  3
*D44
  1

  0
LINE
  5
1381C
330
1381B
100
AcDbEntity
  8
SUNPOU
 62
     1
100
AcDbLine
 10
-1802.731618563909
 20
1761.991784453913
 30
0.0
 11
-1789.608369143465
 21
1761.991784453913
 31
0.0
  0
LINE
  5
1381D
330
1381B
100
AcDbEntity
  8
SUNPOU
 62
     1
100
AcDbLine
 10
-1802.731618563909
 20
1755.671784453912
 30
0.0
 11
-1789.608369143465
 21
1755.671784453912
 31
0.0
  0
LINE
  5
1381E
330
1381B
100
AcDbEntity
  8
SUNPOU
 62
     1
100
AcDbLine
 10
-1790.108369143465
 20
1764.991784453914
 30
0.0
 11
-1790.108369143465
 21
1767.991784453914
 31
0.0
  0
LINE
  5
1381F
330
1381B
100
AcDbEntity
  8
SUNPOU
 62
     1
100
AcDbLine
 10
-1790.108369143465
 20
1752.671784453913
 30
0.0
 11
-1790.108369143465
 21
1739.07279968234
 31
0.0
  0
LINE
  5
13820
330
1381B
100
AcDbEntity
  8
SUNPOU
 62
     1
100
AcDbLine
 10
-1790.108369143465
 20
1761.991784453913
 30
0.0
 11
-1790.108369143465
 21
1755.671784453912
 31
0.0
  0
SOLID
  5
13821
330
1381B
100
AcDbEntity
  8
SUNPOU
 62
     1
100
AcDbTrace
 10
-1790.608369143465
 20
1764.991784453914
 30
0.0
 11
-1789.608369143465
 21
1764.991784453914
 31
0.0
 12
-1790.108369143465
 22
1761.991784453913
 32
0.0
 13
-1790.108369143465
 23
1761.991784453913
 33
0.0
  0
SOLID
  5
13822
330
1381B
100
AcDbEntity
  8
SUNPOU
 62
     1
100
AcDbTrace
 10
-1790.608369143465
 20
1752.671784453913
 30
0.0
 11
-1789.608369143465
 21
1752.671784453913
 31
0.0
 12
-1790.108369143465
 22
1755.671784453912
 32
0.0
 13
-1790.108369143465
 23
1755.671784453912
 33
0.0
  0
MTEXT
  5
13823
330
1381B
100
AcDbEntity
  8
SUNPOU
 62
     1
100
AcDbMText
 10
-1792.858369143467
 20
1744.372292068126
 30
0.0
 40
3.5
 41
0.0
 71
     5
 72
     1
  1
\A1;6.32
  7
ゴシック体
 11
0.0000000000000001
 21
1.0
 31
0.0
1001
ACAD
1000
MTEXTBEGIN
1070
    73
1070
     1
1070
    44
1040
1.0
1070
    74
1070
     0
1000
MTEXTEND
  0
POINT
  5
13824
330
1381B
100
AcDbEntity
  8
DEFPOINTS
 62
     0
100
AcDbPoint
 10
-1803.231618563908
 20
1761.991784453913
 30
0.0
  0
POINT
  5
13825
330
1381B
100
AcDbEntity
  8
DEFPOINTS
 62
     0
100
AcDbPoint
 10
-1803.231618563908
 20
1755.671784453912
 30
0.0
  0
POINT
  5
13826
330
1381B
100
AcDbEntity
  8
DEFPOINTS
 62
     0
100
AcDbPoint
 10
-1790.108369143465
 20
1755.671784453912
 30
0.0
  0
ENDBLK
  5
13828
330
1381B
100
AcDbEntity
  8
0
100
AcDbBlockEnd
  0
BLOCK
  5
13834
330
1382A
100
AcDbEntity
  8
0
100
AcDbBlockBegin
  2
*D45
 70
     1
 10
0.0
 20
0.0
 30
0.0
  3
*D45
  1

  0
LINE
  5
1382B
330
1382A
100
AcDbEntity
  8
SUNPOU
 62
     1
100
AcDbLine
 10
-1743.353258563909
 20
1857.221364453914
 30
0.0
 11
-1743.353258563909
 21
1876.613464923732
 31
0.0
  0
LINE
  5
1382C
330
1382A
100
AcDbEntity
  8
SUNPOU
 62
     1
100
AcDbLine
 10
-1728.353258563909
 20
1863.221364453913
 30
0.0
 11
-1728.353258563909
 21
1876.613464923732
 31
0.0
  0
LINE
  5
1382D
330
1382A
100
AcDbEntity
  8
SUNPOU
 62
     1
100
AcDbLine
 10
-1740.353258563909
 20
1876.11346492373
 30
0.0
 11
-1731.353258563909
 21
1876.11346492373
 31
0.0
  0
SOLID
  5
1382E
330
1382A
100
AcDbEntity
  8
SUNPOU
 62
     1
100
AcDbTrace
 10
-1740.353258563909
 20
1876.613464923732
 30
0.0
 11
-1740.353258563909
 21
1875.613464923731
 31
0.0
 12
-1743.353258563909
 22
1876.11346492373
 32
0.0
 13
-1743.353258563909
 23
1876.11346492373
 33
0.0
  0
SOLID
  5
1382F
330
1382A
100
AcDbEntity
  8
SUNPOU
 62
     1
100
AcDbTrace
 10
-1731.353258563909
 20
1876.613464923732
 30
0.0
 11
-1731.353258563909
 21
1875.613464923731
 31
0.0
 12
-1728.353258563909
 22
1876.11346492373
 32
0.0
 13
-1728.353258563909
 23
1876.11346492373
 33
0.0
  0
MTEXT
  5
13830
330
1382A
100
AcDbEntity
  8
SUNPOU
 62
     1
100
AcDbMText
 10
-1735.853258563909
 20
1878.86346492373
 30
0.0
 40
3.5
 41
0.0
 71
     5
 72
     1
  1
\A1;15
  7
ゴシック体
1001
ACAD
1000
MTEXTBEGIN
1070
    73
1070
     1
1070
    44
1040
1.0
1070
    74
1070
     0
1000
MTEXTEND
  0
POINT
  5
13831
330
1382A
100
AcDbEntity
  8
DEFPOINTS
 62
     0
100
AcDbPoint
 10
-1743.353258563909
 20
1856.721364453913
 30
0.0
  0
POINT
  5
13832
330
1382A
100
AcDbEntity
  8
DEFPOINTS
 62
     0
100
AcDbPoint
 10
-1728.353258563909
 20
1862.721364453912
 30
0.0
  0
POINT
  5
13833
330
1382A
100
AcDbEntity
  8
DEFPOINTS
 62
     0
100
AcDbPoint
 10
-1728.353258563909
 20
1876.11346492373
 30
0.0
  0
ENDBLK
  5
13835
330
1382A
100
AcDbEntity
  8
0
100
AcDbBlockEnd
  0
BLOCK
  5
13841
330
13837
100
AcDbEntity
  8
0
100
AcDbBlockBegin
  2
*D46
 70
     1
 10
0.0
 20
0.0
 30
0.0
  3
*D46
  1

  0
LINE
  5
13838
330
13837
100
AcDbEntity
  8
SUNPOU
 62
     1
100
AcDbLine
 10
-1728.353258563909
 20
1863.221364453913
 30
0.0
 11
-1728.353258563909
 21
1876.613464923732
 31
0.0
  0
LINE
  5
13839
330
13837
100
AcDbEntity
  8
SUNPOU
 62
     1
100
AcDbLine
 10
-1708.353268563909
 20
1863.221364453913
 30
0.0
 11
-1708.353268563909
 21
1876.613464923732
 31
0.0
  0
LINE
  5
1383A
330
13837
100
AcDbEntity
  8
SUNPOU
 62
     1
100
AcDbLine
 10
-1725.353258563909
 20
1876.11346492373
 30
0.0
 11
-1711.353268563908
 21
1876.11346492373
 31
0.0
  0
SOLID
  5
1383B
330
13837
100
AcDbEntity
  8
SUNPOU
 62
     1
100
AcDbTrace
 10
-1725.353258563909
 20
1876.613464923732
 30
0.0
 11
-1725.353258563909
 21
1875.613464923731
 31
0.0
 12
-1728.353258563909
 22
1876.11346492373
 32
0.0
 13
-1728.353258563909
 23
1876.11346492373
 33
0.0
  0
SOLID
  5
1383C
330
13837
100
AcDbEntity
  8
SUNPOU
 62
     1
100
AcDbTrace
 10
-1711.353268563908
 20
1876.613464923732
 30
0.0
 11
-1711.353268563908
 21
1875.613464923731
 31
0.0
 12
-1708.353268563909
 22
1876.11346492373
 32
0.0
 13
-1708.353268563909
 23
1876.11346492373
 33
0.0
  0
MTEXT
  5
1383D
330
13837
100
AcDbEntity
  8
SUNPOU
 62
     1
100
AcDbMText
 10
-1718.353263563908
 20
1878.86346492373
 30
0.0
 40
3.5
 41
0.0
 71
     5
 72
     1
  1
\A1;20
  7
ゴシック体
1001
ACAD
1000
MTEXTBEGIN
1070
    73
1070
     1
1070
    44
1040
1.0
1070
    74
1070
     0
1000
MTEXTEND
  0
POINT
  5
1383E
330
13837
100
AcDbEntity
  8
DEFPOINTS
 62
     0
100
AcDbPoint
 10
-1728.353258563909
 20
1862.721364453912
 30
0.0
  0
POINT
  5
1383F
330
13837
100
AcDbEntity
  8
DEFPOINTS
 62
     0
100
AcDbPoint
 10
-1708.353268563909
 20
1862.721364453912
 30
0.0
  0
POINT
  5
13840
330
13837
100
AcDbEntity
  8
DEFPOINTS
 62
     0
100
AcDbPoint
 10
-1708.353268563909
 20
1876.11346492373
 30
0.0
  0
ENDBLK
  5
13842
330
13837
100
AcDbEntity
  8
0
100
AcDbBlockEnd
  0
ENDSEC
  0
SECTION
  2
ENTITIES
  0
MTEXT
  5
5084
330
1A
100
AcDbEntity
  8
0
100
AcDbMText
 10
1985.239088685434
 20
-948.5420423450428
 30
0.0
 40
8.0
 41
0.0
 71
     7
 72
     5
  1

1001
ACAD
1000
MTEXTBEGIN
1070
    73
1070
     1
1070
    44
1040
1.0
1070
    74
1070
     0
1000
MTEXTEND
  0
MTEXT
  5
5085
330
1A
100
AcDbEntity
  8
0
100
AcDbMText
 10
4270.596778580329
 20
22.24825240601648
 30
0.0
 40
8.0
 41
0.0
 71
     7
 72
     5
  1

1001
ACAD
1000
MTEXTBEGIN
1070
    73
1070
     1
1070
    44
1040
1.0
1070
    74
1070
     0
1000
MTEXTEND
  0
MTEXT
  5
5343
330
1A
100
AcDbEntity
  8
SUNPOU
100
AcDbMText
 10
6936.493799262471
 20
9534.359644781137
 30
0.0
 40
10.5
 41
0.0
 71
     1
 72
     5
  1

1001
ACAD
1000
MTEXTBEGIN
1070
    73
1070
     1
1070
    44
1040
1.0
1070
    74
1070
     0
1000
MTEXTEND
  0
MTEXT
  5
544F
330
1A
100
AcDbEntity
  8
0
100
AcDbMText
 10
16317.2832773148
 20
12833.35428897674
 30
0.0
 40
8.0
 41
0.0
 71
     7
 72
     5
  1

1001
ACAD
1000
MTEXTBEGIN
1070
    73
1070
     1
1070
    44
1040
1.0
1070
    74
1070
     0
1000
MTEXTEND
  0
MTEXT
  5
5450
330
1A
100
AcDbEntity
  8
0
100
AcDbMText
 10
18602.64096720968
 20
13804.1445837278
 30
0.0
 40
8.0
 41
0.0
 71
     7
 72
     5
  1

1001
ACAD
1000
MTEXTBEGIN
1070
    73
1070
     1
1070
    44
1040
1.0
1070
    74
1070
     0
1000
MTEXTEND
  0
MTEXT
  5
5451
330
1A
100
AcDbEntity
  8
SUNPOU
100
AcDbMText
 10
21268.53798789184
 20
23316.25597610292
 30
0.0
 40
10.5
 41
0.0
 71
     1
 72
     5
  1

1001
ACAD
1000
MTEXTBEGIN
1070
    73
1070
     1
1070
    44
1040
1.0
1070
    74
1070
     0
1000
MTEXTEND
  0
MTEXT
  5
5452
330
1A
100
AcDbEntity
  8
SUNPOU
100
AcDbMText
 10
13337.6147919559
 20
22369.46284218996
 30
0.0
 40
10.5
 41
0.0
 71
     7
 72
     5
  1

1001
ACAD
1000
MTEXTBEGIN
1070
    73
1070
     1
1070
    44
1040
1.0
1070
    74
1070
     0
1000
MTEXTEND
  0
MTEXT
  5
5453
330
1A
100
AcDbEntity
  8
SUNPOU
100
AcDbMText
 10
16286.59845646867
 20
27270.1389140328
 30
0.0
 40
10.5
 41
0.0
 71
     7
 72
     5
  1

1001
ACAD
1000
MTEXTBEGIN
1070
    73
1070
     1
1070
    44
1040
1.0
1070
    74
1070
     0
1000
MTEXTEND
  0
MTEXT
  5
5454
330
1A
100
AcDbEntity
  8
SUNPOU
100
AcDbMText
 10
20795.67658441924
 20
29706.43966165288
 30
0.0
 40
10.5
 41
0.0
 71
     7
 72
     5
  1

1001
ACAD
1000
MTEXTBEGIN
1070
    73
1070
     1
1070
    44
1040
1.0
1070
    74
1070
     0
1000
MTEXTEND
  0
MTEXT
  5
5455
330
1A
100
AcDbEntity
  8
0
100
AcDbMText
 10
16611.93789220313
 20
14707.52144344448
 30
0.0
 40
8.0
 41
0.0
 71
     7
 72
     5
  1

1001
ACAD
1000
MTEXTBEGIN
1070
    73
1070
     1
1070
    44
1040
1.0
1070
    74
1070
     0
1000
MTEXTEND
  0
MTEXT
  5
5456
330
1A
100
AcDbEntity
  8
0
100
AcDbMText
 10
18897.29558209803
 20
15678.31173819554
 30
0.0
 40
8.0
 41
0.0
 71
     7
 72
     5
  1

1001
ACAD
1000
MTEXTBEGIN
1070
    73
1070
     1
1070
    44
1040
1.0
1070
    74
1070
     0
1000
MTEXTEND
  0
MTEXT
  5
5457
330
1A
100
AcDbEntity
  8
SUNPOU
100
AcDbMText
 10
21563.19260278019
 20
25190.42313057066
 30
0.0
 40
10.5
 41
0.0
 71
     1
 72
     5
  1

1001
ACAD
1000
MTEXTBEGIN
1070
    73
1070
     1
1070
    44
1040
1.0
1070
    74
1070
     0
1000
MTEXTEND
  0
MTEXT
  5
5458
330
1A
100
AcDbEntity
  8
SUNPOU
100
AcDbMText
 10
13632.26940684425
 20
24243.6299966577
 30
0.0
 40
10.5
 41
0.0
 71
     7
 72
     5
  1

1001
ACAD
1000
MTEXTBEGIN
1070
    73
1070
     1
1070
    44
1040
1.0
1070
    74
1070
     0
1000
MTEXTEND
  0
MTEXT
  5
5459
330
1A
100
AcDbEntity
  8
SUNPOU
100
AcDbMText
 10
16581.25307135702
 20
29144.30606850055
 30
0.0
 40
10.5
 41
0.0
 71
     7
 72
     5
  1

1001
ACAD
1000
MTEXTBEGIN
1070
    73
1070
     1
1070
    44
1040
1.0
1070
    74
1070
     0
1000
MTEXTEND
  0
MTEXT
  5
545A
330
1A
100
AcDbEntity
  8
SUNPOU
100
AcDbMText
 10
21090.33119930759
 20
31580.60681612062
 30
0.0
 40
10.5
 41
0.0
 71
     7
 72
     5
  1

1001
ACAD
1000
MTEXTBEGIN
1070
    73
1070
     1
1070
    44
1040
1.0
1070
    74
1070
     0
1000
MTEXTEND
  0
MTEXT
  5
545B
330
1A
100
AcDbEntity
  8
0
100
AcDbMText
 10
22871.60517627166
 20
23974.88367124799
 30
0.0
 40
8.0
 41
0.0
 71
     7
 72
     5
  1

1001
ACAD
1000
MTEXTBEGIN
1070
    73
1070
     1
1070
    44
1040
1.0
1070
    74
1070
     0
1000
MTEXTEND
  0
MTEXT
  5
545C
330
1A
100
AcDbEntity
  8
0
100
AcDbMText
 10
25156.96286616656
 20
24945.67396599905
 30
0.0
 40
8.0
 41
0.0
 71
     7
 72
     5
  1

1001
ACAD
1000
MTEXTBEGIN
1070
    73
1070
     1
1070
    44
1040
1.0
1070
    74
1070
     0
1000
MTEXTEND
  0
MTEXT
  5
545D
330
1A
100
AcDbEntity
  8
SUNPOU
100
AcDbMText
 10
27822.85988684871
 20
34457.78535837418
 30
0.0
 40
10.5
 41
0.0
 71
     1
 72
     5
  1

1001
ACAD
1000
MTEXTBEGIN
1070
    73
1070
     1
1070
    44
1040
1.0
1070
    74
1070
     0
1000
MTEXTEND
  0
MTEXT
  5
545E
330
1A
100
AcDbEntity
  8
SUNPOU
100
AcDbMText
 10
19891.93669091278
 20
33510.99222446122
 30
0.0
 40
10.5
 41
0.0
 71
     7
 72
     5
  1

1001
ACAD
1000
MTEXTBEGIN
1070
    73
1070
     1
1070
    44
1040
1.0
1070
    74
1070
     0
1000
MTEXTEND
  0
MTEXT
  5
545F
330
1A
100
AcDbEntity
  8
SUNPOU
100
AcDbMText
 10
22840.92035542555
 20
38411.66829630406
 30
0.0
 40
10.5
 41
0.0
 71
     7
 72
     5
  1

1001
ACAD
1000
MTEXTBEGIN
1070
    73
1070
     1
1070
    44
1040
1.0
1070
    74
1070
     0
1000
MTEXTEND
  0
MTEXT
  5
5460
330
1A
100
AcDbEntity
  8
SUNPOU
100
AcDbMText
 10
27349.99848337611
 20
40847.96904392415
 30
0.0
 40
10.5
 41
0.0
 71
     7
 72
     5
  1

1001
ACAD
1000
MTEXTBEGIN
1070
    73
1070
     1
1070
    44
1040
1.0
1070
    74
1070
     0
1000
MTEXTEND
  0
MTEXT
  5
55B7
330
1A
100
AcDbEntity
  8
SUNPOU
100
AcDbMText
 10
67424.23923338197
 20
64463.86602884816
 30
0.0
 40
10.5
 41
0.0
 71
     9
 72
     5
  1

1001
ACAD
1000
MTEXTBEGIN
1070
    73
1070
     1
1070
    44
1040
1.0
1070
    74
1070
     0
1000
MTEXTEND
  0
MTEXT
  5
55B8
330
1A
100
AcDbEntity
  8
SUNPOU
100
AcDbMText
 10
76146.40679929998
 20
71879.70056038563
 30
0.0
 40
10.5
 41
0.0
 71
     9
 72
     5
  1

1001
ACAD
1000
MTEXTBEGIN
1070
    73
1070
     1
1070
    44
1040
1.0
1070
    74
1070
     0
1000
MTEXTEND
  0
MTEXT
  5
55B9
330
1A
100
AcDbEntity
  8
SUNPOU
100
AcDbMText
 10
95100.16551662994
 20
89346.27661287766
 30
0.0
 40
10.5
 41
0.0
 71
     9
 72
     5
  1

1001
ACAD
1000
MTEXTBEGIN
1070
    73
1070
     1
1070
    44
1040
1.0
1070
    74
1070
     0
1000
MTEXTEND
  0
MTEXT
  5
55BA
330
1A
100
AcDbEntity
  8
SUNPOU
100
AcDbMText
 10
97043.57276333935
 20
87545.22753299966
 30
0.0
 40
3.5
 41
0.0
 71
     9
 72
     5
  1

1001
ACAD
1000
MTEXTBEGIN
1070
    73
1070
     1
1070
    44
1040
1.0
1070
    74
1070
     0
1000
MTEXTEND
  0
MTEXT
  5
55BB
330
1A
100
AcDbEntity
  8
SUNPOU
100
AcDbMText
 10
128169.7525959589
 20
130040.1732006569
 30
0.0
 40
10.5
 41
0.0
 71
     9
 72
     5
  1

1001
ACAD
1000
MTEXTBEGIN
1070
    73
1070
     1
1070
    44
1040
1.0
1070
    74
1070
     0
1000
MTEXTEND
  0
MTEXT
  5
55BC
330
1A
100
AcDbEntity
  8
SUNPOU
100
AcDbMText
 10
130113.1598426684
 20
128239.1241207789
 30
0.0
 40
3.5
 41
0.0
 71
     9
 72
     5
  1

1001
ACAD
1000
MTEXTBEGIN
1070
    73
1070
     1
1070
    44
1040
1.0
1070
    74
1070
     0
1000
MTEXTEND
  0
MTEXT
  5
55BD
330
1A
100
AcDbEntity
  8
SUNPOU
100
AcDbMText
 10
78610.02030175463
 20
75873.33835563206
 30
0.0
 40
10.5
 41
0.0
 71
     9
 72
     5
  1

1001
ACAD
1000
MTEXTBEGIN
1070
    73
1070
     1
1070
    44
1040
1.0
1070
    74
1070
     0
1000
MTEXTEND
  0
MTEXT
  5
55BE
330
1A
100
AcDbEntity
  8
SUNPOU
100
AcDbMText
 10
64662.02020137862
 20
56700.93921651987
 30
0.0
 40
3.5
 41
0.0
 71
     7
 72
     5
  1

1001
ACAD
1000
MTEXTBEGIN
1070
    73
1070
     1
1070
    44
1040
1.0
1070
    74
1070
     0
1000
MTEXTEND
  0
MTEXT
  5
55BF
330
1A
100
AcDbEntity
  8
SUNPOU
100
AcDbMText
 10
45647.18959837177
 20
44463.08794733806
 30
0.0
 40
10.5
 41
0.0
 71
     7
 72
     5
  1

1001
ACAD
1000
MTEXTBEGIN
1070
    73
1070
     1
1070
    44
1040
1.0
1070
    74
1070
     0
1000
MTEXTEND
  0
MTEXT
  5
55C0
330
1A
100
AcDbEntity
  8
SUNPOU
100
AcDbMText
 10
33189.96133342368
 20
28618.15636923965
 30
0.0
 40
35.0
 41
0.0
 71
     9
 72
     5
  1

1001
ACAD
1000
MTEXTBEGIN
1070
    73
1070
     1
1070
    44
1040
1.0
1070
    74
1070
     0
1000
MTEXTEND
  0
MTEXT
  5
55C1
330
1A
100
AcDbEntity
  8
SUNPOU
100
AcDbMText
 10
32098.44639099864
 20
29226.93177928834
 30
0.0
 40
350.0000004171781
 41
0.0
 71
     7
 72
     5
  1

1001
ACAD
1000
MTEXTBEGIN
1070
    73
1070
     1
1070
    44
1040
1.0
1070
    74
1070
     0
1000
MTEXTEND
  0
MTEXT
  5
55C2
330
1A
100
AcDbEntity
  8
0
100
AcDbMText
 10
38142.39714894154
 20
27206.85414142458
 30
0.0
 40
8.0
 41
0.0
 71
     7
 72
     5
  1

1001
ACAD
1000
MTEXTBEGIN
1070
    73
1070
     1
1070
    44
1040
1.0
1070
    74
1070
     0
1000
MTEXTEND
  0
MTEXT
  5
55C3
330
1A
100
AcDbEntity
  8
0
100
AcDbMText
 10
40427.75483883644
 20
28177.64443617564
 30
0.0
 40
8.0
 41
0.0
 71
     7
 72
     5
  1

1001
ACAD
1000
MTEXTBEGIN
1070
    73
1070
     1
1070
    44
1040
1.0
1070
    74
1070
     0
1000
MTEXTEND
  0
MTEXT
  5
55C4
330
1A
100
AcDbEntity
  8
SUNPOU
100
AcDbMText
 10
43093.65185951858
 20
37689.75582855077
 30
0.0
 40
10.5
 41
0.0
 71
     1
 72
     5
  1

1001
ACAD
1000
MTEXTBEGIN
1070
    73
1070
     1
1070
    44
1040
1.0
1070
    74
1070
     0
1000
MTEXTEND
  0
MTEXT
  5
55C5
330
1A
100
AcDbEntity
  8
SUNPOU
100
AcDbMText
 10
35162.72866358265
 20
36742.96269463781
 30
0.0
 40
10.5
 41
0.0
 71
     7
 72
     5
  1

1001
ACAD
1000
MTEXTBEGIN
1070
    73
1070
     1
1070
    44
1040
1.0
1070
    74
1070
     0
1000
MTEXTEND
  0
MTEXT
  5
55C6
330
1A
100
AcDbEntity
  8
SUNPOU
100
AcDbMText
 10
38111.71232809542
 20
41643.63876648065
 30
0.0
 40
10.5
 41
0.0
 71
     7
 72
     5
  1

1001
ACAD
1000
MTEXTBEGIN
1070
    73
1070
     1
1070
    44
1040
1.0
1070
    74
1070
     0
1000
MTEXTEND
  0
MTEXT
  5
55C7
330
1A
100
AcDbEntity
  8
SUNPOU
100
AcDbMText
 10
42620.79045604596
 20
44079.93951410074
 30
0.0
 40
10.5
 41
0.0
 71
     7
 72
     5
  1

1001
ACAD
1000
MTEXTBEGIN
1070
    73
1070
     1
1070
    44
1040
1.0
1070
    74
1070
     0
1000
MTEXTEND
  0
MTEXT
  5
55C8
330
1A
100
AcDbEntity
  8
SUNPOU
100
AcDbMText
 10
26221.62834281429
 20
23077.53566448964
 30
0.0
 40
10.5
 41
0.0
 71
     7
 72
     5
  1

1001
ACAD
1000
MTEXTBEGIN
1070
    73
1070
     1
1070
    44
1040
1.0
1070
    74
1070
     0
1000
MTEXTEND
  0
MTEXT
  5
55C9
330
1A
100
AcDbEntity
  8
SUNPOU
100
AcDbMText
 10
77413.14677671455
 20
68750.51622813789
 30
0.0
 40
10.5
 41
0.0
 71
     9
 72
     5
  1

1001
ACAD
1000
MTEXTBEGIN
1070
    73
1070
     1
1070
    44
1040
1.0
1070
    74
1070
     0
1000
MTEXTEND
  0
MTEXT
  5
55CA
330
1A
100
AcDbEntity
  8
SUNPOU
100
AcDbMText
 10
86135.31434263256
 20
76166.35075967536
 30
0.0
 40
10.5
 41
0.0
 71
     9
 72
     5
  1

1001
ACAD
1000
MTEXTBEGIN
1070
    73
1070
     1
1070
    44
1040
1.0
1070
    74
1070
     0
1000
MTEXTEND
  0
MTEXT
  5
55CB
330
1A
100
AcDbEntity
  8
SUNPOU
100
AcDbMText
 10
105089.0730599624
 20
93632.92681216739
 30
0.0
 40
10.5
 41
0.0
 71
     9
 72
     5
  1

1001
ACAD
1000
MTEXTBEGIN
1070
    73
1070
     1
1070
    44
1040
1.0
1070
    74
1070
     0
1000
MTEXTEND
  0
MTEXT
  5
55CC
330
1A
100
AcDbEntity
  8
SUNPOU
100
AcDbMText
 10
107032.4803066718
 20
91831.87773228938
 30
0.0
 40
3.5
 41
0.0
 71
     9
 72
     5
  1

1001
ACAD
1000
MTEXTBEGIN
1070
    73
1070
     1
1070
    44
1040
1.0
1070
    74
1070
     0
1000
MTEXTEND
  0
MTEXT
  5
55CD
330
1A
100
AcDbEntity
  8
SUNPOU
100
AcDbMText
 10
138158.6601392916
 20
134326.8233999467
 30
0.0
 40
10.5
 41
0.0
 71
     9
 72
     5
  1

1001
ACAD
1000
MTEXTBEGIN
1070
    73
1070
     1
1070
    44
1040
1.0
1070
    74
1070
     0
1000
MTEXTEND
  0
MTEXT
  5
55CE
330
1A
100
AcDbEntity
  8
SUNPOU
100
AcDbMText
 10
140102.067386001
 20
132525.7743200686
 30
0.0
 40
3.5
 41
0.0
 71
     9
 72
     5
  1

1001
ACAD
1000
MTEXTBEGIN
1070
    73
1070
     1
1070
    44
1040
1.0
1070
    74
1070
     0
1000
MTEXTEND
  0
MTEXT
  5
55CF
330
1A
100
AcDbEntity
  8
SUNPOU
100
AcDbMText
 10
88598.92784508721
 20
80159.98855492179
 30
0.0
 40
10.5
 41
0.0
 71
     9
 72
     5
  1

1001
ACAD
1000
MTEXTBEGIN
1070
    73
1070
     1
1070
    44
1040
1.0
1070
    74
1070
     0
1000
MTEXTEND
  0
MTEXT
  5
55D0
330
1A
100
AcDbEntity
  8
SUNPOU
100
AcDbMText
 10
74650.92774471121
 20
60987.58941580959
 30
0.0
 40
3.5
 41
0.0
 71
     7
 72
     5
  1

1001
ACAD
1000
MTEXTBEGIN
1070
    73
1070
     1
1070
    44
1040
1.0
1070
    74
1070
     0
1000
MTEXTEND
  0
MTEXT
  5
55D1
330
1A
100
AcDbEntity
  8
SUNPOU
100
AcDbMText
 10
55636.09714170436
 20
48749.73814662781
 30
0.0
 40
10.5
 41
0.0
 71
     7
 72
     5
  1

1001
ACAD
1000
MTEXTBEGIN
1070
    73
1070
     1
1070
    44
1040
1.0
1070
    74
1070
     0
1000
MTEXTEND
  0
MTEXT
  5
55D2
330
1A
100
AcDbEntity
  8
SUNPOU
100
AcDbMText
 10
43178.86887675626
 20
32904.80656852937
 30
0.0
 40
35.0
 41
0.0
 71
     9
 72
     5
  1

1001
ACAD
1000
MTEXTBEGIN
1070
    73
1070
     1
1070
    44
1040
1.0
1070
    74
1070
     0
1000
MTEXTEND
  0
MTEXT
  5
55D3
330
1A
100
AcDbEntity
  8
SUNPOU
100
AcDbMText
 10
42087.3539343312
 20
33513.58197857808
 30
0.0
 40
350.0000004171781
 41
0.0
 71
     7
 72
     5
  1

1001
ACAD
1000
MTEXTBEGIN
1070
    73
1070
     1
1070
    44
1040
1.0
1070
    74
1070
     0
1000
MTEXTEND
  0
MTEXT
  5
55D4
330
1A
100
AcDbEntity
  8
0
100
AcDbMText
 10
48131.30469227412
 20
31493.50434071431
 30
0.0
 40
8.0
 41
0.0
 71
     7
 72
     5
  1

1001
ACAD
1000
MTEXTBEGIN
1070
    73
1070
     1
1070
    44
1040
1.0
1070
    74
1070
     0
1000
MTEXTEND
  0
MTEXT
  5
55D5
330
1A
100
AcDbEntity
  8
0
100
AcDbMText
 10
50416.66238216901
 20
32464.29463546537
 30
0.0
 40
8.0
 41
0.0
 71
     7
 72
     5
  1

1001
ACAD
1000
MTEXTBEGIN
1070
    73
1070
     1
1070
    44
1040
1.0
1070
    74
1070
     0
1000
MTEXTEND
  0
MTEXT
  5
55D6
330
1A
100
AcDbEntity
  8
SUNPOU
100
AcDbMText
 10
53082.55940285115
 20
41976.4060278405
 30
0.0
 40
10.5
 41
0.0
 71
     1
 72
     5
  1

1001
ACAD
1000
MTEXTBEGIN
1070
    73
1070
     1
1070
    44
1040
1.0
1070
    74
1070
     0
1000
MTEXTEND
  0
MTEXT
  5
55D7
330
1A
100
AcDbEntity
  8
SUNPOU
100
AcDbMText
 10
45151.63620691521
 20
41029.61289392755
 30
0.0
 40
10.5
 41
0.0
 71
     7
 72
     5
  1

1001
ACAD
1000
MTEXTBEGIN
1070
    73
1070
     1
1070
    44
1040
1.0
1070
    74
1070
     0
1000
MTEXTEND
  0
MTEXT
  5
55D8
330
1A
100
AcDbEntity
  8
SUNPOU
100
AcDbMText
 10
48100.61987142798
 20
45930.28896577039
 30
0.0
 40
10.5
 41
0.0
 71
     7
 72
     5
  1

1001
ACAD
1000
MTEXTBEGIN
1070
    73
1070
     1
1070
    44
1040
1.0
1070
    74
1070
     0
1000
MTEXTEND
  0
MTEXT
  5
55D9
330
1A
100
AcDbEntity
  8
SUNPOU
100
AcDbMText
 10
52609.69799937853
 20
48366.58971339046
 30
0.0
 40
10.5
 41
0.0
 71
     7
 72
     5
  1

1001
ACAD
1000
MTEXTBEGIN
1070
    73
1070
     1
1070
    44
1040
1.0
1070
    74
1070
     0
1000
MTEXTEND
  0
MTEXT
  5
55DA
330
1A
100
AcDbEntity
  8
SUNPOU
100
AcDbMText
 10
36210.53588614687
 20
27364.18586377937
 30
0.0
 40
10.5
 41
0.0
 71
     7
 72
     5
  1

1001
ACAD
1000
MTEXTBEGIN
1070
    73
1070
     1
1070
    44
1040
1.0
1070
    74
1070
     0
1000
MTEXTEND
  0
MTEXT
  5
55DB
330
1A
100
AcDbEntity
  8
SUNPOU
100
AcDbMText
 10
38021.29879752181
 20
33691.59985125794
 30
0.0
 40
10.5
 41
0.0
 71
     9
 72
     5
  1

1001
ACAD
1000
MTEXTBEGIN
1070
    73
1070
     1
1070
    44
1040
1.0
1070
    74
1070
     0
1000
MTEXTEND
  0
MTEXT
  5
55DC
330
1A
100
AcDbEntity
  8
SUNPOU
100
AcDbMText
 10
46743.46636343979
 20
41107.4343827954
 30
0.0
 40
10.5
 41
0.0
 71
     9
 72
     5
  1

1001
ACAD
1000
MTEXTBEGIN
1070
    73
1070
     1
1070
    44
1040
1.0
1070
    74
1070
     0
1000
MTEXTEND
  0
MTEXT
  5
55DD
330
1A
100
AcDbEntity
  8
SUNPOU
100
AcDbMText
 10
65697.22508076974
 20
58574.01043528746
 30
0.0
 40
10.5
 41
0.0
 71
     9
 72
     5
  1

1001
ACAD
1000
MTEXTBEGIN
1070
    73
1070
     1
1070
    44
1040
1.0
1070
    74
1070
     0
1000
MTEXTEND
  0
MTEXT
  5
55DE
330
1A
100
AcDbEntity
  8
SUNPOU
100
AcDbMText
 10
67640.63232747917
 20
56772.96135540945
 30
0.0
 40
3.5
 41
0.0
 71
     9
 72
     5
  1

1001
ACAD
1000
MTEXTBEGIN
1070
    73
1070
     1
1070
    44
1040
1.0
1070
    74
1070
     0
1000
MTEXTEND
  0
MTEXT
  5
55DF
330
1A
100
AcDbEntity
  8
SUNPOU
100
AcDbMText
 10
98766.81216009886
 20
99267.9070230668
 30
0.0
 40
10.5
 41
0.0
 71
     9
 72
     5
  1

1001
ACAD
1000
MTEXTBEGIN
1070
    73
1070
     1
1070
    44
1040
1.0
1070
    74
1070
     0
1000
MTEXTEND
  0
MTEXT
  5
55E0
330
1A
100
AcDbEntity
  8
SUNPOU
100
AcDbMText
 10
100710.2194068083
 20
97466.85794318876
 30
0.0
 40
3.5
 41
0.0
 71
     9
 72
     5
  1

1001
ACAD
1000
MTEXTBEGIN
1070
    73
1070
     1
1070
    44
1040
1.0
1070
    74
1070
     0
1000
MTEXTEND
  0
MTEXT
  5
55E1
330
1A
100
AcDbEntity
  8
SUNPOU
100
AcDbMText
 10
49207.07986589443
 20
45101.07217804184
 30
0.0
 40
10.5
 41
0.0
 71
     9
 72
     5
  1

1001
ACAD
1000
MTEXTBEGIN
1070
    73
1070
     1
1070
    44
1040
1.0
1070
    74
1070
     0
1000
MTEXTEND
  0
MTEXT
  5
55E2
330
1A
100
AcDbEntity
  8
SUNPOU
100
AcDbMText
 10
35259.07976551845
 20
25928.67303892964
 30
0.0
 40
3.5
 41
0.0
 71
     7
 72
     5
  1

1001
ACAD
1000
MTEXTBEGIN
1070
    73
1070
     1
1070
    44
1040
1.0
1070
    74
1070
     0
1000
MTEXTEND
  0
MTEXT
  5
55E3
330
1A
100
AcDbEntity
  8
SUNPOU
100
AcDbMText
 10
48951.43044828905
 20
35287.73625995099
 30
0.0
 40
10.5
 41
0.0
 71
     9
 72
     5
  1

1001
ACAD
1000
MTEXTBEGIN
1070
    73
1070
     1
1070
    44
1040
1.0
1070
    74
1070
     0
1000
MTEXTEND
  0
MTEXT
  5
55E4
330
1A
100
AcDbEntity
  8
SUNPOU
100
AcDbMText
 10
57673.59801420702
 20
42703.57079148847
 30
0.0
 40
10.5
 41
0.0
 71
     9
 72
     5
  1

1001
ACAD
1000
MTEXTBEGIN
1070
    73
1070
     1
1070
    44
1040
1.0
1070
    74
1070
     0
1000
MTEXTEND
  0
MTEXT
  5
55E5
330
1A
100
AcDbEntity
  8
SUNPOU
100
AcDbMText
 10
76627.35673153699
 20
60170.14684398051
 30
0.0
 40
10.5
 41
0.0
 71
     9
 72
     5
  1

1001
ACAD
1000
MTEXTBEGIN
1070
    73
1070
     1
1070
    44
1040
1.0
1070
    74
1070
     0
1000
MTEXTEND
  0
MTEXT
  5
55E6
330
1A
100
AcDbEntity
  8
SUNPOU
100
AcDbMText
 10
78570.76397824641
 20
58369.09776410251
 30
0.0
 40
3.5
 41
0.0
 71
     9
 72
     5
  1

1001
ACAD
1000
MTEXTBEGIN
1070
    73
1070
     1
1070
    44
1040
1.0
1070
    74
1070
     0
1000
MTEXTEND
  0
MTEXT
  5
55E7
330
1A
100
AcDbEntity
  8
SUNPOU
100
AcDbMText
 10
109696.943810866
 20
100864.0434317598
 30
0.0
 40
10.5
 41
0.0
 71
     9
 72
     5
  1

1001
ACAD
1000
MTEXTBEGIN
1070
    73
1070
     1
1070
    44
1040
1.0
1070
    74
1070
     0
1000
MTEXTEND
  0
MTEXT
  5
55E8
330
1A
100
AcDbEntity
  8
SUNPOU
100
AcDbMText
 10
111640.3510575755
 20
99062.99435188183
 30
0.0
 40
3.5
 41
0.0
 71
     9
 72
     5
  1

1001
ACAD
1000
MTEXTBEGIN
1070
    73
1070
     1
1070
    44
1040
1.0
1070
    74
1070
     0
1000
MTEXTEND
  0
MTEXT
  5
55E9
330
1A
100
AcDbEntity
  8
SUNPOU
100
AcDbMText
 10
60137.21151666167
 20
46697.20858673491
 30
0.0
 40
10.5
 41
0.0
 71
     9
 72
     5
  1

1001
ACAD
1000
MTEXTBEGIN
1070
    73
1070
     1
1070
    44
1040
1.0
1070
    74
1070
     0
1000
MTEXTEND
  0
MTEXT
  5
55EA
330
1A
100
AcDbEntity
  8
SUNPOU
100
AcDbMText
 10
46189.21141628568
 20
27524.80944762269
 30
0.0
 40
3.5
 41
0.0
 71
     7
 72
     5
  1

1001
ACAD
1000
MTEXTBEGIN
1070
    73
1070
     1
1070
    44
1040
1.0
1070
    74
1070
     0
1000
MTEXTEND
  0
MTEXT
  5
55EB
330
1A
100
AcDbEntity
  8
SUNPOU
100
AcDbMText
 10
45007.68847015541
 20
38269.57947701873
 30
0.0
 40
10.5
 41
0.0
 71
     9
 72
     5
  1

1001
ACAD
1000
MTEXTBEGIN
1070
    73
1070
     1
1070
    44
1040
1.0
1070
    74
1070
     0
1000
MTEXTEND
  0
MTEXT
  5
55EC
330
1A
100
AcDbEntity
  8
SUNPOU
100
AcDbMText
 10
63961.44718748539
 20
55736.15552951081
 30
0.0
 40
10.5
 41
0.0
 71
     9
 72
     5
  1

1001
ACAD
1000
MTEXTBEGIN
1070
    73
1070
     1
1070
    44
1040
1.0
1070
    74
1070
     0
1000
MTEXTEND
  0
MTEXT
  5
55ED
330
1A
100
AcDbEntity
  8
SUNPOU
100
AcDbMText
 10
65904.85443419479
 20
53935.10644963278
 30
0.0
 40
3.5
 41
0.0
 71
     9
 72
     5
  1

1001
ACAD
1000
MTEXTBEGIN
1070
    73
1070
     1
1070
    44
1040
1.0
1070
    74
1070
     0
1000
MTEXTEND
  0
MTEXT
  5
55EE
330
1A
100
AcDbEntity
  8
SUNPOU
100
AcDbMText
 10
97031.03426681453
 20
96430.05211729015
 30
0.0
 40
10.5
 41
0.0
 71
     9
 72
     5
  1

1001
ACAD
1000
MTEXTBEGIN
1070
    73
1070
     1
1070
    44
1040
1.0
1070
    74
1070
     0
1000
MTEXTEND
  0
MTEXT
  5
55EF
330
1A
100
AcDbEntity
  8
SUNPOU
100
AcDbMText
 10
98974.44151352393
 20
94629.00303741212
 30
0.0
 40
3.5
 41
0.0
 71
     9
 72
     5
  1

1001
ACAD
1000
MTEXTBEGIN
1070
    73
1070
     1
1070
    44
1040
1.0
1070
    74
1070
     0
1000
MTEXTEND
  0
MTEXT
  5
55F0
330
1A
100
AcDbEntity
  8
SUNPOU
100
AcDbMText
 10
47471.30197261006
 20
42263.21727226519
 30
0.0
 40
10.5
 41
0.0
 71
     9
 72
     5
  1

1001
ACAD
1000
MTEXTBEGIN
1070
    73
1070
     1
1070
    44
1040
1.0
1070
    74
1070
     0
1000
MTEXTEND
  0
MTEXT
  5
55F1
330
1A
100
AcDbEntity
  8
SUNPOU
100
AcDbMText
 10
33523.30187223408
 20
23090.81813315298
 30
0.0
 40
3.5
 41
0.0
 71
     7
 72
     5
  1

1001
ACAD
1000
MTEXTBEGIN
1070
    73
1070
     1
1070
    44
1040
1.0
1070
    74
1070
     0
1000
MTEXTEND
  0
MTEXT
  5
55F2
330
1A
100
AcDbEntity
  8
SUNPOU
100
AcDbMText
 10
57959.46254102503
 20
50038.08111611014
 30
0.0
 40
10.5
 41
0.0
 71
     9
 72
     5
  1

1001
ACAD
1000
MTEXTBEGIN
1070
    73
1070
     1
1070
    44
1040
1.0
1070
    74
1070
     0
1000
MTEXTEND
  0
MTEXT
  5
55F3
330
1A
100
AcDbEntity
  8
SUNPOU
100
AcDbMText
 10
76913.22125835503
 20
67504.65716860222
 30
0.0
 40
10.5
 41
0.0
 71
     9
 72
     5
  1

1001
ACAD
1000
MTEXTBEGIN
1070
    73
1070
     1
1070
    44
1040
1.0
1070
    74
1070
     0
1000
MTEXTEND
  0
MTEXT
  5
55F4
330
1A
100
AcDbEntity
  8
SUNPOU
100
AcDbMText
 10
78856.62850506443
 20
65703.6080887242
 30
0.0
 40
3.5
 41
0.0
 71
     9
 72
     5
  1

1001
ACAD
1000
MTEXTBEGIN
1070
    73
1070
     1
1070
    44
1040
1.0
1070
    74
1070
     0
1000
MTEXTEND
  0
MTEXT
  5
55F5
330
1A
100
AcDbEntity
  8
SUNPOU
100
AcDbMText
 10
109982.8083376841
 20
108198.5537563815
 30
0.0
 40
10.5
 41
0.0
 71
     9
 72
     5
  1

1001
ACAD
1000
MTEXTBEGIN
1070
    73
1070
     1
1070
    44
1040
1.0
1070
    74
1070
     0
1000
MTEXTEND
  0
MTEXT
  5
55F6
330
1A
100
AcDbEntity
  8
SUNPOU
100
AcDbMText
 10
111926.2155843934
 20
106397.5046765035
 30
0.0
 40
3.5
 41
0.0
 71
     9
 72
     5
  1

1001
ACAD
1000
MTEXTBEGIN
1070
    73
1070
     1
1070
    44
1040
1.0
1070
    74
1070
     0
1000
MTEXTEND
  0
MTEXT
  5
55F7
330
1A
100
AcDbEntity
  8
SUNPOU
100
AcDbMText
 10
60423.07604347968
 20
54031.71891135658
 30
0.0
 40
10.5
 41
0.0
 71
     9
 72
     5
  1

1001
ACAD
1000
MTEXTBEGIN
1070
    73
1070
     1
1070
    44
1040
1.0
1070
    74
1070
     0
1000
MTEXTEND
  0
MTEXT
  5
55F8
330
1A
100
AcDbEntity
  8
SUNPOU
100
AcDbMText
 10
46475.07594310369
 20
34859.3197722444
 30
0.0
 40
3.5
 41
0.0
 71
     7
 72
     5
  1

1001
ACAD
1000
MTEXTBEGIN
1070
    73
1070
     1
1070
    44
1040
1.0
1070
    74
1070
     0
1000
MTEXTEND
  0
MTEXT
  5
55F9
330
1A
100
AcDbEntity
  8
SUNPOU
100
AcDbMText
 10
74027.35402123588
 20
68370.58278833383
 30
0.0
 40
10.5
 41
0.0
 71
     9
 72
     5
  1

1001
ACAD
1000
MTEXTBEGIN
1070
    73
1070
     1
1070
    44
1040
1.0
1070
    74
1070
     0
1000
MTEXTEND
  0
MTEXT
  5
55FA
330
1A
100
AcDbEntity
  8
SUNPOU
100
AcDbMText
 10
75970.7612679453
 20
66569.53370845583
 30
0.0
 40
3.5
 41
0.0
 71
     9
 72
     5
  1

1001
ACAD
1000
MTEXTBEGIN
1070
    73
1070
     1
1070
    44
1040
1.0
1070
    74
1070
     0
1000
MTEXTEND
  0
MTEXT
  5
55FB
330
1A
100
AcDbEntity
  8
SUNPOU
100
AcDbMText
 10
107096.941100565
 20
109064.4793761132
 30
0.0
 40
10.5
 41
0.0
 71
     9
 72
     5
  1

1001
ACAD
1000
MTEXTBEGIN
1070
    73
1070
     1
1070
    44
1040
1.0
1070
    74
1070
     0
1000
MTEXTEND
  0
MTEXT
  5
55FC
330
1A
100
AcDbEntity
  8
SUNPOU
100
AcDbMText
 10
109040.3483472744
 20
107263.430296235
 30
0.0
 40
3.5
 41
0.0
 71
     9
 72
     5
  1

1001
ACAD
1000
MTEXTBEGIN
1070
    73
1070
     1
1070
    44
1040
1.0
1070
    74
1070
     0
1000
MTEXTEND
  0
MTEXT
  5
55FD
330
1A
100
AcDbEntity
  8
SUNPOU
100
AcDbMText
 10
105709.1709283621
 20
108141.3777665285
 30
0.0
 40
10.5
 41
0.0
 71
     9
 72
     5
  1

1001
ACAD
1000
MTEXTBEGIN
1070
    73
1070
     1
1070
    44
1040
1.0
1070
    74
1070
     0
1000
MTEXTEND
  0
MTEXT
  5
55FE
330
1A
100
AcDbEntity
  8
SUNPOU
100
AcDbMText
 10
107652.5781750715
 20
106340.3286866505
 30
0.0
 40
3.5
 41
0.0
 71
     9
 72
     5
  1

1001
ACAD
1000
MTEXTBEGIN
1070
    73
1070
     1
1070
    44
1040
1.0
1070
    74
1070
     0
1000
MTEXTEND
  0
MTEXT
  5
55FF
330
1A
100
AcDbEntity
  8
SUNPOU
100
AcDbMText
 10
73193.09268743351
 20
66158.78082845057
 30
0.0
 40
10.5
 41
0.0
 71
     9
 72
     5
  1

1001
ACAD
1000
MTEXTBEGIN
1070
    73
1070
     1
1070
    44
1040
1.0
1070
    74
1070
     0
1000
MTEXTEND
  0
MTEXT
  5
5600
330
1A
100
AcDbEntity
  8
SUNPOU
100
AcDbMText
 10
75916.39889159807
 20
66563.46252003162
 30
0.0
 40
3.5
 41
0.0
 71
     9
 72
     5
  1

1001
ACAD
1000
MTEXTBEGIN
1070
    73
1070
     1
1070
    44
1040
1.0
1070
    74
1070
     0
1000
MTEXTEND
  0
MTEXT
  5
5601
330
1A
100
AcDbEntity
  8
SUNPOU
100
AcDbMText
 10
75124.04436649058
 20
63402.1566819768
 30
0.0
 40
10.5
 41
0.0
 71
     9
 72
     5
  1

1001
ACAD
1000
MTEXTBEGIN
1070
    73
1070
     1
1070
    44
1040
1.0
1070
    74
1070
     0
1000
MTEXTEND
  0
MTEXT
  5
5602
330
1A
100
AcDbEntity
  8
SUNPOU
100
AcDbMText
 10
77067.4516132
 20
61601.1076020988
 30
0.0
 40
3.5
 41
0.0
 71
     9
 72
     5
  1

1001
ACAD
1000
MTEXTBEGIN
1070
    73
1070
     1
1070
    44
1040
1.0
1070
    74
1070
     0
1000
MTEXTEND
  0
MTEXT
  5
5603
330
1A
100
AcDbEntity
  8
SUNPOU
100
AcDbMText
 10
77012.54710378659
 20
61488.33571981449
 30
0.0
 40
3.5
 41
0.0
 71
     9
 72
     5
  1

1001
ACAD
1000
MTEXTBEGIN
1070
    73
1070
     1
1070
    44
1040
1.0
1070
    74
1070
     0
1000
MTEXTEND
  0
MTEXT
  5
5604
330
1A
100
AcDbEntity
  8
SUNPOU
100
AcDbMText
 10
76376.61896736668
 20
60677.01447874798
 30
0.0
 40
3.5
 41
0.0
 71
     9
 72
     5
  1

1001
ACAD
1000
MTEXTBEGIN
1070
    73
1070
     1
1070
    44
1040
1.0
1070
    74
1070
     0
1000
MTEXTEND
  0
MTEXT
  5
5605
330
1A
100
AcDbEntity
  8
SUNPOU
100
AcDbMText
 10
76375.37854794595
 20
60676.76650181048
 30
0.0
 40
10.5
 41
0.0
 71
     9
 72
     5
  1

1001
ACAD
1000
MTEXTBEGIN
1070
    73
1070
     1
1070
    44
1040
1.0
1070
    74
1070
     0
1000
MTEXTEND
  0
MTEXT
  5
5606
330
1A
100
AcDbEntity
  8
SUNPOU
100
AcDbMText
 10
84709.93991079748
 20
78034.0328293557
 30
0.0
 40
10.5
 41
0.0
 71
     9
 72
     5
  1

1001
ACAD
1000
MTEXTBEGIN
1070
    73
1070
     1
1070
    44
1040
1.0
1070
    74
1070
     0
1000
MTEXTEND
  0
MTEXT
  5
5607
330
1A
100
AcDbEntity
  8
SUNPOU
100
AcDbMText
 10
93432.10747671546
 20
85449.86736089315
 30
0.0
 40
10.5
 41
0.0
 71
     9
 72
     5
  1

1001
ACAD
1000
MTEXTBEGIN
1070
    73
1070
     1
1070
    44
1040
1.0
1070
    74
1070
     0
1000
MTEXTEND
  0
MTEXT
  5
5608
330
1A
100
AcDbEntity
  8
SUNPOU
100
AcDbMText
 10
112385.8661940454
 20
102916.4434133851
 30
0.0
 40
10.5
 41
0.0
 71
     9
 72
     5
  1

1001
ACAD
1000
MTEXTBEGIN
1070
    73
1070
     1
1070
    44
1040
1.0
1070
    74
1070
     0
1000
MTEXTEND
  0
MTEXT
  5
5609
330
1A
100
AcDbEntity
  8
SUNPOU
100
AcDbMText
 10
114329.2734407548
 20
101115.3943335072
 30
0.0
 40
3.5
 41
0.0
 71
     9
 72
     5
  1

1001
ACAD
1000
MTEXTBEGIN
1070
    73
1070
     1
1070
    44
1040
1.0
1070
    74
1070
     0
1000
MTEXTEND
  0
MTEXT
  5
560A
330
1A
100
AcDbEntity
  8
SUNPOU
100
AcDbMText
 10
145455.4532733745
 20
143610.3400011645
 30
0.0
 40
10.5
 41
0.0
 71
     9
 72
     5
  1

1001
ACAD
1000
MTEXTBEGIN
1070
    73
1070
     1
1070
    44
1040
1.0
1070
    74
1070
     0
1000
MTEXTEND
  0
MTEXT
  5
560B
330
1A
100
AcDbEntity
  8
SUNPOU
100
AcDbMText
 10
147398.8605200839
 20
141809.2909212864
 30
0.0
 40
3.5
 41
0.0
 71
     9
 72
     5
  1

1001
ACAD
1000
MTEXTBEGIN
1070
    73
1070
     1
1070
    44
1040
1.0
1070
    74
1070
     0
1000
MTEXTEND
  0
MTEXT
  5
560C
330
1A
100
AcDbEntity
  8
SUNPOU
100
AcDbMText
 10
95895.72097917011
 20
89443.50515613962
 30
0.0
 40
10.5
 41
0.0
 71
     9
 72
     5
  1

1001
ACAD
1000
MTEXTBEGIN
1070
    73
1070
     1
1070
    44
1040
1.0
1070
    74
1070
     0
1000
MTEXTEND
  0
MTEXT
  5
560D
330
1A
100
AcDbEntity
  8
SUNPOU
100
AcDbMText
 10
81947.72087879414
 20
70271.1060170274
 30
0.0
 40
3.5
 41
0.0
 71
     7
 72
     5
  1

1001
ACAD
1000
MTEXTBEGIN
1070
    73
1070
     1
1070
    44
1040
1.0
1070
    74
1070
     0
1000
MTEXTEND
  0
MTEXT
  5
560E
330
1A
100
AcDbEntity
  8
SUNPOU
100
AcDbMText
 10
62932.89027578729
 20
58033.25474784561
 30
0.0
 40
10.5
 41
0.0
 71
     7
 72
     5
  1

1001
ACAD
1000
MTEXTBEGIN
1070
    73
1070
     1
1070
    44
1040
1.0
1070
    74
1070
     0
1000
MTEXTEND
  0
MTEXT
  5
560F
330
1A
100
AcDbEntity
  8
SUNPOU
100
AcDbMText
 10
50475.66201083918
 20
42188.32316974718
 30
0.0
 40
35.0
 41
0.0
 71
     9
 72
     5
  1

1001
ACAD
1000
MTEXTBEGIN
1070
    73
1070
     1
1070
    44
1040
1.0
1070
    74
1070
     0
1000
MTEXTEND
  0
MTEXT
  5
5610
330
1A
100
AcDbEntity
  8
SUNPOU
100
AcDbMText
 10
49384.14706841413
 20
42797.0985797959
 30
0.0
 40
350.0000004171781
 41
0.0
 71
     7
 72
     5
  1

1001
ACAD
1000
MTEXTBEGIN
1070
    73
1070
     1
1070
    44
1040
1.0
1070
    74
1070
     0
1000
MTEXTEND
  0
MTEXT
  5
5611
330
1A
100
AcDbEntity
  8
0
100
AcDbMText
 10
55428.09782635704
 20
40777.0209419321
 30
0.0
 40
8.0
 41
0.0
 71
     7
 72
     5
  1

1001
ACAD
1000
MTEXTBEGIN
1070
    73
1070
     1
1070
    44
1040
1.0
1070
    74
1070
     0
1000
MTEXTEND
  0
MTEXT
  5
5612
330
1A
100
AcDbEntity
  8
0
100
AcDbMText
 10
57713.45551625193
 20
41747.81123668316
 30
0.0
 40
8.0
 41
0.0
 71
     7
 72
     5
  1

1001
ACAD
1000
MTEXTBEGIN
1070
    73
1070
     1
1070
    44
1040
1.0
1070
    74
1070
     0
1000
MTEXTEND
  0
MTEXT
  5
5613
330
1A
100
AcDbEntity
  8
SUNPOU
100
AcDbMText
 10
60379.35253693407
 20
51259.9226290583
 30
0.0
 40
10.5
 41
0.0
 71
     1
 72
     5
  1

1001
ACAD
1000
MTEXTBEGIN
1070
    73
1070
     1
1070
    44
1040
1.0
1070
    74
1070
     0
1000
MTEXTEND
  0
MTEXT
  5
5614
330
1A
100
AcDbEntity
  8
SUNPOU
100
AcDbMText
 10
52448.42934099813
 20
50313.12949514535
 30
0.0
 40
10.5
 41
0.0
 71
     7
 72
     5
  1

1001
ACAD
1000
MTEXTBEGIN
1070
    73
1070
     1
1070
    44
1040
1.0
1070
    74
1070
     0
1000
MTEXTEND
  0
MTEXT
  5
5615
330
1A
100
AcDbEntity
  8
SUNPOU
100
AcDbMText
 10
55397.4130055109
 20
55213.80556698819
 30
0.0
 40
10.5
 41
0.0
 71
     7
 72
     5
  1

1001
ACAD
1000
MTEXTBEGIN
1070
    73
1070
     1
1070
    44
1040
1.0
1070
    74
1070
     0
1000
MTEXTEND
  0
MTEXT
  5
5616
330
1A
100
AcDbEntity
  8
SUNPOU
100
AcDbMText
 10
59906.49113346147
 20
57650.10631460826
 30
0.0
 40
10.5
 41
0.0
 71
     7
 72
     5
  1

1001
ACAD
1000
MTEXTBEGIN
1070
    73
1070
     1
1070
    44
1040
1.0
1070
    74
1070
     0
1000
MTEXTEND
  0
MTEXT
  5
5617
330
1A
100
AcDbEntity
  8
SUNPOU
100
AcDbMText
 10
43507.32902022978
 20
36647.70246499718
 30
0.0
 40
10.5
 41
0.0
 71
     7
 72
     5
  1

1001
ACAD
1000
MTEXTBEGIN
1070
    73
1070
     1
1070
    44
1040
1.0
1070
    74
1070
     0
1000
MTEXTEND
  0
MTEXT
  5
5618
330
1A
100
AcDbEntity
  8
SUNPOU
100
AcDbMText
 10
94698.84745413006
 20
82320.68302864544
 30
0.0
 40
10.5
 41
0.0
 71
     9
 72
     5
  1

1001
ACAD
1000
MTEXTBEGIN
1070
    73
1070
     1
1070
    44
1040
1.0
1070
    74
1070
     0
1000
MTEXTEND
  0
MTEXT
  5
5619
330
1A
100
AcDbEntity
  8
SUNPOU
100
AcDbMText
 10
103421.015020048
 20
89736.5175601829
 30
0.0
 40
10.5
 41
0.0
 71
     9
 72
     5
  1

1001
ACAD
1000
MTEXTBEGIN
1070
    73
1070
     1
1070
    44
1040
1.0
1070
    74
1070
     0
1000
MTEXTEND
  0
MTEXT
  5
561A
330
1A
100
AcDbEntity
  8
SUNPOU
100
AcDbMText
 10
122374.773737378
 20
107203.0936126749
 30
0.0
 40
10.5
 41
0.0
 71
     9
 72
     5
  1

1001
ACAD
1000
MTEXTBEGIN
1070
    73
1070
     1
1070
    44
1040
1.0
1070
    74
1070
     0
1000
MTEXTEND
  0
MTEXT
  5
561B
330
1A
100
AcDbEntity
  8
SUNPOU
100
AcDbMText
 10
124318.1809840874
 20
105402.0445327969
 30
0.0
 40
3.5
 41
0.0
 71
     9
 72
     5
  1

1001
ACAD
1000
MTEXTBEGIN
1070
    73
1070
     1
1070
    44
1040
1.0
1070
    74
1070
     0
1000
MTEXTEND
  0
MTEXT
  5
561C
330
1A
100
AcDbEntity
  8
SUNPOU
100
AcDbMText
 10
155444.3608167071
 20
147896.9902004542
 30
0.0
 40
10.5
 41
0.0
 71
     9
 72
     5
  1

1001
ACAD
1000
MTEXTBEGIN
1070
    73
1070
     1
1070
    44
1040
1.0
1070
    74
1070
     0
1000
MTEXTEND
  0
MTEXT
  5
561D
330
1A
100
AcDbEntity
  8
SUNPOU
100
AcDbMText
 10
157387.7680634165
 20
146095.9411205762
 30
0.0
 40
3.5
 41
0.0
 71
     9
 72
     5
  1

1001
ACAD
1000
MTEXTBEGIN
1070
    73
1070
     1
1070
    44
1040
1.0
1070
    74
1070
     0
1000
MTEXTEND
  0
MTEXT
  5
561E
330
1A
100
AcDbEntity
  8
SUNPOU
100
AcDbMText
 10
105884.6285225027
 20
93730.15535542933
 30
0.0
 40
10.5
 41
0.0
 71
     9
 72
     5
  1

1001
ACAD
1000
MTEXTBEGIN
1070
    73
1070
     1
1070
    44
1040
1.0
1070
    74
1070
     0
1000
MTEXTEND
  0
MTEXT
  5
561F
330
1A
100
AcDbEntity
  8
SUNPOU
100
AcDbMText
 10
91936.6284221267
 20
74557.75621631714
 30
0.0
 40
3.5
 41
0.0
 71
     7
 72
     5
  1

1001
ACAD
1000
MTEXTBEGIN
1070
    73
1070
     1
1070
    44
1040
1.0
1070
    74
1070
     0
1000
MTEXTEND
  0
MTEXT
  5
5620
330
1A
100
AcDbEntity
  8
SUNPOU
100
AcDbMText
 10
72921.79781911986
 20
62319.90494713532
 30
0.0
 40
10.5
 41
0.0
 71
     7
 72
     5
  1

1001
ACAD
1000
MTEXTBEGIN
1070
    73
1070
     1
1070
    44
1040
1.0
1070
    74
1070
     0
1000
MTEXTEND
  0
MTEXT
  5
5621
330
1A
100
AcDbEntity
  8
SUNPOU
100
AcDbMText
 10
60464.56955417175
 20
46474.97336903692
 30
0.0
 40
35.0
 41
0.0
 71
     9
 72
     5
  1

1001
ACAD
1000
MTEXTBEGIN
1070
    73
1070
     1
1070
    44
1040
1.0
1070
    74
1070
     0
1000
MTEXTEND
  0
MTEXT
  5
5622
330
1A
100
AcDbEntity
  8
SUNPOU
100
AcDbMText
 10
59373.05461174673
 20
47083.74877908561
 30
0.0
 40
350.0000004171781
 41
0.0
 71
     7
 72
     5
  1

1001
ACAD
1000
MTEXTBEGIN
1070
    73
1070
     1
1070
    44
1040
1.0
1070
    74
1070
     0
1000
MTEXTEND
  0
MTEXT
  5
5623
330
1A
100
AcDbEntity
  8
0
100
AcDbMText
 10
65417.00536968963
 20
45063.67114122186
 30
0.0
 40
8.0
 41
0.0
 71
     7
 72
     5
  1

1001
ACAD
1000
MTEXTBEGIN
1070
    73
1070
     1
1070
    44
1040
1.0
1070
    74
1070
     0
1000
MTEXTEND
  0
MTEXT
  5
5624
330
1A
100
AcDbEntity
  8
0
100
AcDbMText
 10
67702.36305958452
 20
46034.46143597292
 30
0.0
 40
8.0
 41
0.0
 71
     7
 72
     5
  1

1001
ACAD
1000
MTEXTBEGIN
1070
    73
1070
     1
1070
    44
1040
1.0
1070
    74
1070
     0
1000
MTEXTEND
  0
MTEXT
  5
5625
330
1A
100
AcDbEntity
  8
SUNPOU
100
AcDbMText
 10
70368.26008026666
 20
55546.57282834803
 30
0.0
 40
10.5
 41
0.0
 71
     1
 72
     5
  1

1001
ACAD
1000
MTEXTBEGIN
1070
    73
1070
     1
1070
    44
1040
1.0
1070
    74
1070
     0
1000
MTEXTEND
  0
MTEXT
  5
5626
330
1A
100
AcDbEntity
  8
SUNPOU
100
AcDbMText
 10
62437.33688433072
 20
54599.77969443507
 30
0.0
 40
10.5
 41
0.0
 71
     7
 72
     5
  1

1001
ACAD
1000
MTEXTBEGIN
1070
    73
1070
     1
1070
    44
1040
1.0
1070
    74
1070
     0
1000
MTEXTEND
  0
MTEXT
  5
5627
330
1A
100
AcDbEntity
  8
SUNPOU
100
AcDbMText
 10
65386.32054884348
 20
59500.45576627792
 30
0.0
 40
10.5
 41
0.0
 71
     7
 72
     5
  1

1001
ACAD
1000
MTEXTBEGIN
1070
    73
1070
     1
1070
    44
1040
1.0
1070
    74
1070
     0
1000
MTEXTEND
  0
MTEXT
  5
5628
330
1A
100
AcDbEntity
  8
SUNPOU
100
AcDbMText
 10
69895.39867679405
 20
61936.756513898
 30
0.0
 40
10.5
 41
0.0
 71
     7
 72
     5
  1

1001
ACAD
1000
MTEXTBEGIN
1070
    73
1070
     1
1070
    44
1040
1.0
1070
    74
1070
     0
1000
MTEXTEND
  0
MTEXT
  5
5629
330
1A
100
AcDbEntity
  8
SUNPOU
100
AcDbMText
 10
53496.23656356237
 20
40934.35266428691
 30
0.0
 40
10.5
 41
0.0
 71
     7
 72
     5
  1

1001
ACAD
1000
MTEXTBEGIN
1070
    73
1070
     1
1070
    44
1040
1.0
1070
    74
1070
     0
1000
MTEXTEND
  0
MTEXT
  5
562A
330
1A
100
AcDbEntity
  8
SUNPOU
100
AcDbMText
 10
55306.99947493731
 20
47261.76665176546
 30
0.0
 40
10.5
 41
0.0
 71
     9
 72
     5
  1

1001
ACAD
1000
MTEXTBEGIN
1070
    73
1070
     1
1070
    44
1040
1.0
1070
    74
1070
     0
1000
MTEXTEND
  0
MTEXT
  5
562B
330
1A
100
AcDbEntity
  8
SUNPOU
100
AcDbMText
 10
64029.16704085527
 20
54677.60118330295
 30
0.0
 40
10.5
 41
0.0
 71
     9
 72
     5
  1

1001
ACAD
1000
MTEXTBEGIN
1070
    73
1070
     1
1070
    44
1040
1.0
1070
    74
1070
     0
1000
MTEXTEND
  0
MTEXT
  5
562C
330
1A
100
AcDbEntity
  8
SUNPOU
100
AcDbMText
 10
82982.92575818527
 20
72144.17723579499
 30
0.0
 40
10.5
 41
0.0
 71
     9
 72
     5
  1

1001
ACAD
1000
MTEXTBEGIN
1070
    73
1070
     1
1070
    44
1040
1.0
1070
    74
1070
     0
1000
MTEXTEND
  0
MTEXT
  5
562D
330
1A
100
AcDbEntity
  8
SUNPOU
100
AcDbMText
 10
84926.33300489467
 20
70343.12815591697
 30
0.0
 40
3.5
 41
0.0
 71
     9
 72
     5
  1

1001
ACAD
1000
MTEXTBEGIN
1070
    73
1070
     1
1070
    44
1040
1.0
1070
    74
1070
     0
1000
MTEXTEND
  0
MTEXT
  5
562E
330
1A
100
AcDbEntity
  8
SUNPOU
100
AcDbMText
 10
116052.5128375142
 20
112838.0738235742
 30
0.0
 40
10.5
 41
0.0
 71
     9
 72
     5
  1

1001
ACAD
1000
MTEXTBEGIN
1070
    73
1070
     1
1070
    44
1040
1.0
1070
    74
1070
     0
1000
MTEXTEND
  0
MTEXT
  5
562F
330
1A
100
AcDbEntity
  8
SUNPOU
100
AcDbMText
 10
117995.9200842238
 20
111037.0247436963
 30
0.0
 40
3.5
 41
0.0
 71
     9
 72
     5
  1

1001
ACAD
1000
MTEXTBEGIN
1070
    73
1070
     1
1070
    44
1040
1.0
1070
    74
1070
     0
1000
MTEXTEND
  0
MTEXT
  5
5630
330
1A
100
AcDbEntity
  8
SUNPOU
100
AcDbMText
 10
66492.78054330994
 20
58671.23897854939
 30
0.0
 40
10.5
 41
0.0
 71
     9
 72
     5
  1

1001
ACAD
1000
MTEXTBEGIN
1070
    73
1070
     1
1070
    44
1040
1.0
1070
    74
1070
     0
1000
MTEXTEND
  0
MTEXT
  5
5631
330
1A
100
AcDbEntity
  8
SUNPOU
100
AcDbMText
 10
52544.78044293397
 20
39498.83983943717
 30
0.0
 40
3.5
 41
0.0
 71
     7
 72
     5
  1

1001
ACAD
1000
MTEXTBEGIN
1070
    73
1070
     1
1070
    44
1040
1.0
1070
    74
1070
     0
1000
MTEXTEND
  0
MTEXT
  5
5632
330
1A
100
AcDbEntity
  8
SUNPOU
100
AcDbMText
 10
66237.13112570454
 20
48857.90306045851
 30
0.0
 40
10.5
 41
0.0
 71
     9
 72
     5
  1

1001
ACAD
1000
MTEXTBEGIN
1070
    73
1070
     1
1070
    44
1040
1.0
1070
    74
1070
     0
1000
MTEXTEND
  0
MTEXT
  5
5633
330
1A
100
AcDbEntity
  8
SUNPOU
100
AcDbMText
 10
74959.29869162253
 20
56273.73759199599
 30
0.0
 40
10.5
 41
0.0
 71
     9
 72
     5
  1

1001
ACAD
1000
MTEXTBEGIN
1070
    73
1070
     1
1070
    44
1040
1.0
1070
    74
1070
     0
1000
MTEXTEND
  0
MTEXT
  5
5634
330
1A
100
AcDbEntity
  8
SUNPOU
100
AcDbMText
 10
93913.0574089525
 20
73740.31364448805
 30
0.0
 40
10.5
 41
0.0
 71
     9
 72
     5
  1

1001
ACAD
1000
MTEXTBEGIN
1070
    73
1070
     1
1070
    44
1040
1.0
1070
    74
1070
     0
1000
MTEXTEND
  0
MTEXT
  5
5635
330
1A
100
AcDbEntity
  8
SUNPOU
100
AcDbMText
 10
95856.46465566192
 20
71939.26456461004
 30
0.0
 40
3.5
 41
0.0
 71
     9
 72
     5
  1

1001
ACAD
1000
MTEXTBEGIN
1070
    73
1070
     1
1070
    44
1040
1.0
1070
    74
1070
     0
1000
MTEXTEND
  0
MTEXT
  5
5636
330
1A
100
AcDbEntity
  8
SUNPOU
100
AcDbMText
 10
126982.6444882816
 20
114434.2102322673
 30
0.0
 40
10.5
 41
0.0
 71
     9
 72
     5
  1

1001
ACAD
1000
MTEXTBEGIN
1070
    73
1070
     1
1070
    44
1040
1.0
1070
    74
1070
     0
1000
MTEXTEND
  0
MTEXT
  5
5637
330
1A
100
AcDbEntity
  8
SUNPOU
100
AcDbMText
 10
128926.051734991
 20
112633.1611523893
 30
0.0
 40
3.5
 41
0.0
 71
     9
 72
     5
  1

1001
ACAD
1000
MTEXTBEGIN
1070
    73
1070
     1
1070
    44
1040
1.0
1070
    74
1070
     0
1000
MTEXTEND
  0
MTEXT
  5
5638
330
1A
100
AcDbEntity
  8
SUNPOU
100
AcDbMText
 10
77422.91219407717
 20
60267.37538724244
 30
0.0
 40
10.5
 41
0.0
 71
     9
 72
     5
  1

1001
ACAD
1000
MTEXTBEGIN
1070
    73
1070
     1
1070
    44
1040
1.0
1070
    74
1070
     0
1000
MTEXTEND
  0
MTEXT
  5
5639
330
1A
100
AcDbEntity
  8
SUNPOU
100
AcDbMText
 10
63474.91209370119
 20
41094.97624813023
 30
0.0
 40
3.5
 41
0.0
 71
     7
 72
     5
  1

1001
ACAD
1000
MTEXTBEGIN
1070
    73
1070
     1
1070
    44
1040
1.0
1070
    74
1070
     0
1000
MTEXTEND
  0
MTEXT
  5
563A
330
1A
100
AcDbEntity
  8
SUNPOU
100
AcDbMText
 10
48117.65086229006
 20
40806.11043916631
 30
0.0
 40
10.5
 41
0.0
 71
     9
 72
     5
  1

1001
ACAD
1000
MTEXTBEGIN
1070
    73
1070
     1
1070
    44
1040
1.0
1070
    74
1070
     0
1000
MTEXTEND
  0
MTEXT
  5
563B
330
1A
100
AcDbEntity
  8
SUNPOU
100
AcDbMText
 10
67071.40957962004
 20
58272.68649165838
 30
0.0
 40
10.5
 41
0.0
 71
     9
 72
     5
  1

1001
ACAD
1000
MTEXTBEGIN
1070
    73
1070
     1
1070
    44
1040
1.0
1070
    74
1070
     0
1000
MTEXTEND
  0
MTEXT
  5
563C
330
1A
100
AcDbEntity
  8
SUNPOU
100
AcDbMText
 10
69014.81682632945
 20
56471.63741178035
 30
0.0
 40
3.5
 41
0.0
 71
     9
 72
     5
  1

1001
ACAD
1000
MTEXTBEGIN
1070
    73
1070
     1
1070
    44
1040
1.0
1070
    74
1070
     0
1000
MTEXTEND
  0
MTEXT
  5
563D
330
1A
100
AcDbEntity
  8
SUNPOU
100
AcDbMText
 10
100140.9966589491
 20
98966.58307943773
 30
0.0
 40
10.5
 41
0.0
 71
     9
 72
     5
  1

1001
ACAD
1000
MTEXTBEGIN
1070
    73
1070
     1
1070
    44
1040
1.0
1070
    74
1070
     0
1000
MTEXTEND
  0
MTEXT
  5
563E
330
1A
100
AcDbEntity
  8
SUNPOU
100
AcDbMText
 10
102084.4039056586
 20
97165.53399955968
 30
0.0
 40
3.5
 41
0.0
 71
     9
 72
     5
  1

1001
ACAD
1000
MTEXTBEGIN
1070
    73
1070
     1
1070
    44
1040
1.0
1070
    74
1070
     0
1000
MTEXTEND
  0
MTEXT
  5
563F
330
1A
100
AcDbEntity
  8
SUNPOU
100
AcDbMText
 10
50581.26436474472
 20
44799.74823441275
 30
0.0
 40
10.5
 41
0.0
 71
     9
 72
     5
  1

1001
ACAD
1000
MTEXTBEGIN
1070
    73
1070
     1
1070
    44
1040
1.0
1070
    74
1070
     0
1000
MTEXTEND
  0
MTEXT
  5
5640
330
1A
100
AcDbEntity
  8
SUNPOU
100
AcDbMText
 10
36633.26426436873
 20
25627.34909530054
 30
0.0
 40
3.5
 41
0.0
 71
     7
 72
     5
  1

1001
ACAD
1000
MTEXTBEGIN
1070
    73
1070
     1
1070
    44
1040
1.0
1070
    74
1070
     0
1000
MTEXTEND
  0
MTEXT
  5
5641
330
1A
100
AcDbEntity
  8
SUNPOU
100
AcDbMText
 10
61069.42493315968
 20
52574.61207825771
 30
0.0
 40
10.5
 41
0.0
 71
     9
 72
     5
  1

1001
ACAD
1000
MTEXTBEGIN
1070
    73
1070
     1
1070
    44
1040
1.0
1070
    74
1070
     0
1000
MTEXTEND
  0
MTEXT
  5
5642
330
1A
100
AcDbEntity
  8
SUNPOU
100
AcDbMText
 10
80023.18365048967
 20
70041.18813074978
 30
0.0
 40
10.5
 41
0.0
 71
     9
 72
     5
  1

1001
ACAD
1000
MTEXTBEGIN
1070
    73
1070
     1
1070
    44
1040
1.0
1070
    74
1070
     0
1000
MTEXTEND
  0
MTEXT
  5
5643
330
1A
100
AcDbEntity
  8
SUNPOU
100
AcDbMText
 10
81966.59089719908
 20
68240.13905087176
 30
0.0
 40
3.5
 41
0.0
 71
     9
 72
     5
  1

1001
ACAD
1000
MTEXTBEGIN
1070
    73
1070
     1
1070
    44
1040
1.0
1070
    74
1070
     0
1000
MTEXTEND
  0
MTEXT
  5
5644
330
1A
100
AcDbEntity
  8
SUNPOU
100
AcDbMText
 10
113092.7707298186
 20
110735.0847185291
 30
0.0
 40
10.5
 41
0.0
 71
     9
 72
     5
  1

1001
ACAD
1000
MTEXTBEGIN
1070
    73
1070
     1
1070
    44
1040
1.0
1070
    74
1070
     0
1000
MTEXTEND
  0
MTEXT
  5
5645
330
1A
100
AcDbEntity
  8
SUNPOU
100
AcDbMText
 10
115036.1779765282
 20
108934.0356386511
 30
0.0
 40
3.5
 41
0.0
 71
     9
 72
     5
  1

1001
ACAD
1000
MTEXTBEGIN
1070
    73
1070
     1
1070
    44
1040
1.0
1070
    74
1070
     0
1000
MTEXTEND
  0
MTEXT
  5
5646
330
1A
100
AcDbEntity
  8
SUNPOU
100
AcDbMText
 10
63533.03843561432
 20
56568.24987350415
 30
0.0
 40
10.5
 41
0.0
 71
     9
 72
     5
  1

1001
ACAD
1000
MTEXTBEGIN
1070
    73
1070
     1
1070
    44
1040
1.0
1070
    74
1070
     0
1000
MTEXTEND
  0
MTEXT
  5
5647
330
1A
100
AcDbEntity
  8
SUNPOU
100
AcDbMText
 10
49585.03833523835
 20
37395.85073439196
 30
0.0
 40
3.5
 41
0.0
 71
     7
 72
     5
  1

1001
ACAD
1000
MTEXTBEGIN
1070
    73
1070
     1
1070
    44
1040
1.0
1070
    74
1070
     0
1000
MTEXTEND
  0
MTEXT
  5
5648
330
1A
100
AcDbEntity
  8
SUNPOU
100
AcDbMText
 10
77137.31641337052
 20
70907.11375048141
 30
0.0
 40
10.5
 41
0.0
 71
     9
 72
     5
  1

1001
ACAD
1000
MTEXTBEGIN
1070
    73
1070
     1
1070
    44
1040
1.0
1070
    74
1070
     0
1000
MTEXTEND
  0
MTEXT
  5
5649
330
1A
100
AcDbEntity
  8
SUNPOU
100
AcDbMText
 10
79080.72366007995
 20
69106.06467060339
 30
0.0
 40
3.5
 41
0.0
 71
     9
 72
     5
  1

1001
ACAD
1000
MTEXTBEGIN
1070
    73
1070
     1
1070
    44
1040
1.0
1070
    74
1070
     0
1000
MTEXTEND
  0
MTEXT
  5
564A
330
1A
100
AcDbEntity
  8
SUNPOU
100
AcDbMText
 10
110206.9034926996
 20
111601.0103382607
 30
0.0
 40
10.5
 41
0.0
 71
     9
 72
     5
  1

1001
ACAD
1000
MTEXTBEGIN
1070
    73
1070
     1
1070
    44
1040
1.0
1070
    74
1070
     0
1000
MTEXTEND
  0
MTEXT
  5
564B
330
1A
100
AcDbEntity
  8
SUNPOU
100
AcDbMText
 10
112150.310739409
 20
109799.9612583826
 30
0.0
 40
3.5
 41
0.0
 71
     9
 72
     5
  1

1001
ACAD
1000
MTEXTBEGIN
1070
    73
1070
     1
1070
    44
1040
1.0
1070
    74
1070
     0
1000
MTEXTEND
  0
MTEXT
  5
564C
330
1A
100
AcDbEntity
  8
SUNPOU
100
AcDbMText
 10
108819.1333204967
 20
110677.9087286761
 30
0.0
 40
10.5
 41
0.0
 71
     9
 72
     5
  1

1001
ACAD
1000
MTEXTBEGIN
1070
    73
1070
     1
1070
    44
1040
1.0
1070
    74
1070
     0
1000
MTEXTEND
  0
MTEXT
  5
564D
330
1A
100
AcDbEntity
  8
SUNPOU
100
AcDbMText
 10
110762.5405672062
 20
108876.8596487981
 30
0.0
 40
3.5
 41
0.0
 71
     9
 72
     5
  1

1001
ACAD
1000
MTEXTBEGIN
1070
    73
1070
     1
1070
    44
1040
1.0
1070
    74
1070
     0
1000
MTEXTEND
  0
MTEXT
  5
564E
330
1A
100
AcDbEntity
  8
SUNPOU
100
AcDbMText
 10
76303.05507956816
 20
68695.31179059812
 30
0.0
 40
10.5
 41
0.0
 71
     9
 72
     5
  1

1001
ACAD
1000
MTEXTBEGIN
1070
    73
1070
     1
1070
    44
1040
1.0
1070
    74
1070
     0
1000
MTEXTEND
  0
MTEXT
  5
564F
330
1A
100
AcDbEntity
  8
SUNPOU
100
AcDbMText
 10
79026.36128373271
 20
69099.99348217918
 30
0.0
 40
3.5
 41
0.0
 71
     9
 72
     5
  1

1001
ACAD
1000
MTEXTBEGIN
1070
    73
1070
     1
1070
    44
1040
1.0
1070
    74
1070
     0
1000
MTEXTEND
  0
MTEXT
  5
5650
330
1A
100
AcDbEntity
  8
SUNPOU
100
AcDbMText
 10
78234.00675862522
 20
65938.68764412436
 30
0.0
 40
10.5
 41
0.0
 71
     9
 72
     5
  1

1001
ACAD
1000
MTEXTBEGIN
1070
    73
1070
     1
1070
    44
1040
1.0
1070
    74
1070
     0
1000
MTEXTEND
  0
MTEXT
  5
5651
330
1A
100
AcDbEntity
  8
SUNPOU
100
AcDbMText
 10
80177.41400533465
 20
64137.63856424636
 30
0.0
 40
3.5
 41
0.0
 71
     9
 72
     5
  1

1001
ACAD
1000
MTEXTBEGIN
1070
    73
1070
     1
1070
    44
1040
1.0
1070
    74
1070
     0
1000
MTEXTEND
  0
MTEXT
  5
5652
330
1A
100
AcDbEntity
  8
SUNPOU
100
AcDbMText
 10
80122.50949592122
 20
64024.86668196204
 30
0.0
 40
3.5
 41
0.0
 71
     9
 72
     5
  1

1001
ACAD
1000
MTEXTBEGIN
1070
    73
1070
     1
1070
    44
1040
1.0
1070
    74
1070
     0
1000
MTEXTEND
  0
MTEXT
  5
5653
330
1A
100
AcDbEntity
  8
SUNPOU
100
AcDbMText
 10
79486.58135950133
 20
63213.54544089553
 30
0.0
 40
3.5
 41
0.0
 71
     9
 72
     5
  1

1001
ACAD
1000
MTEXTBEGIN
1070
    73
1070
     1
1070
    44
1040
1.0
1070
    74
1070
     0
1000
MTEXTEND
  0
MTEXT
  5
5654
330
1A
100
AcDbEntity
  8
SUNPOU
100
AcDbMText
 10
79485.3409400806
 20
63213.29746395804
 30
0.0
 40
10.5
 41
0.0
 71
     9
 72
     5
  1

1001
ACAD
1000
MTEXTBEGIN
1070
    73
1070
     1
1070
    44
1040
1.0
1070
    74
1070
     0
1000
MTEXTEND
  0
MTEXT
  5
5655
330
1A
100
AcDbEntity
  8
SUNPOU
100
AcDbMText
 10
85473.63363627567
 20
80747.76348077064
 30
0.0
 40
10.5
 41
0.0
 71
     9
 72
     5
  1

1001
ACAD
1000
MTEXTBEGIN
1070
    73
1070
     1
1070
    44
1040
1.0
1070
    74
1070
     0
1000
MTEXTEND
  0
MTEXT
  5
5656
330
1A
100
AcDbEntity
  8
SUNPOU
100
AcDbMText
 10
94195.80120219368
 20
88163.59801230808
 30
0.0
 40
10.5
 41
0.0
 71
     9
 72
     5
  1

1001
ACAD
1000
MTEXTBEGIN
1070
    73
1070
     1
1070
    44
1040
1.0
1070
    74
1070
     0
1000
MTEXTEND
  0
MTEXT
  5
5657
330
1A
100
AcDbEntity
  8
SUNPOU
100
AcDbMText
 10
113149.5599195236
 20
105630.1740648001
 30
0.0
 40
10.5
 41
0.0
 71
     9
 72
     5
  1

1001
ACAD
1000
MTEXTBEGIN
1070
    73
1070
     1
1070
    44
1040
1.0
1070
    74
1070
     0
1000
MTEXTEND
  0
MTEXT
  5
5658
330
1A
100
AcDbEntity
  8
SUNPOU
100
AcDbMText
 10
115092.967166233
 20
103829.1249849221
 30
0.0
 40
3.5
 41
0.0
 71
     9
 72
     5
  1

1001
ACAD
1000
MTEXTBEGIN
1070
    73
1070
     1
1070
    44
1040
1.0
1070
    74
1070
     0
1000
MTEXTEND
  0
MTEXT
  5
5659
330
1A
100
AcDbEntity
  8
SUNPOU
100
AcDbMText
 10
146219.1469988527
 20
146324.0706525794
 30
0.0
 40
10.5
 41
0.0
 71
     9
 72
     5
  1

1001
ACAD
1000
MTEXTBEGIN
1070
    73
1070
     1
1070
    44
1040
1.0
1070
    74
1070
     0
1000
MTEXTEND
  0
MTEXT
  5
565A
330
1A
100
AcDbEntity
  8
SUNPOU
100
AcDbMText
 10
148162.5542455621
 20
144523.0215727014
 30
0.0
 40
3.5
 41
0.0
 71
     9
 72
     5
  1

1001
ACAD
1000
MTEXTBEGIN
1070
    73
1070
     1
1070
    44
1040
1.0
1070
    74
1070
     0
1000
MTEXTEND
  0
MTEXT
  5
565B
330
1A
100
AcDbEntity
  8
SUNPOU
100
AcDbMText
 10
96659.41470464833
 20
92157.23580755453
 30
0.0
 40
10.5
 41
0.0
 71
     9
 72
     5
  1

1001
ACAD
1000
MTEXTBEGIN
1070
    73
1070
     1
1070
    44
1040
1.0
1070
    74
1070
     0
1000
MTEXTEND
  0
MTEXT
  5
565C
330
1A
100
AcDbEntity
  8
SUNPOU
100
AcDbMText
 10
82711.41460427234
 20
72984.83666844234
 30
0.0
 40
3.5
 41
0.0
 71
     7
 72
     5
  1

1001
ACAD
1000
MTEXTBEGIN
1070
    73
1070
     1
1070
    44
1040
1.0
1070
    74
1070
     0
1000
MTEXTEND
  0
MTEXT
  5
565D
330
1A
100
AcDbEntity
  8
SUNPOU
100
AcDbMText
 10
63696.58400126548
 20
60746.98539926055
 30
0.0
 40
10.5
 41
0.0
 71
     7
 72
     5
  1

1001
ACAD
1000
MTEXTBEGIN
1070
    73
1070
     1
1070
    44
1040
1.0
1070
    74
1070
     0
1000
MTEXTEND
  0
MTEXT
  5
565E
330
1A
100
AcDbEntity
  8
SUNPOU
100
AcDbMText
 10
51239.35573631738
 20
44902.05382116213
 30
0.0
 40
35.0
 41
0.0
 71
     9
 72
     5
  1

1001
ACAD
1000
MTEXTBEGIN
1070
    73
1070
     1
1070
    44
1040
1.0
1070
    74
1070
     0
1000
MTEXTEND
  0
MTEXT
  5
565F
330
1A
100
AcDbEntity
  8
SUNPOU
100
AcDbMText
 10
50147.84079389233
 20
45510.82923121084
 30
0.0
 40
350.0000004171781
 41
0.0
 71
     7
 72
     5
  1

1001
ACAD
1000
MTEXTBEGIN
1070
    73
1070
     1
1070
    44
1040
1.0
1070
    74
1070
     0
1000
MTEXTEND
  0
MTEXT
  5
5660
330
1A
100
AcDbEntity
  8
0
100
AcDbMText
 10
56191.79155183523
 20
43490.75159334705
 30
0.0
 40
8.0
 41
0.0
 71
     7
 72
     5
  1

1001
ACAD
1000
MTEXTBEGIN
1070
    73
1070
     1
1070
    44
1040
1.0
1070
    74
1070
     0
1000
MTEXTEND
  0
MTEXT
  5
5661
330
1A
100
AcDbEntity
  8
0
100
AcDbMText
 10
58477.14924173012
 20
44461.54188809812
 30
0.0
 40
8.0
 41
0.0
 71
     7
 72
     5
  1

1001
ACAD
1000
MTEXTBEGIN
1070
    73
1070
     1
1070
    44
1040
1.0
1070
    74
1070
     0
1000
MTEXTEND
  0
MTEXT
  5
5662
330
1A
100
AcDbEntity
  8
SUNPOU
100
AcDbMText
 10
61143.04626241227
 20
53973.65328047324
 30
0.0
 40
10.5
 41
0.0
 71
     1
 72
     5
  1

1001
ACAD
1000
MTEXTBEGIN
1070
    73
1070
     1
1070
    44
1040
1.0
1070
    74
1070
     0
1000
MTEXTEND
  0
MTEXT
  5
5663
330
1A
100
AcDbEntity
  8
SUNPOU
100
AcDbMText
 10
53212.12306647633
 20
53026.86014656028
 30
0.0
 40
10.5
 41
0.0
 71
     7
 72
     5
  1

1001
ACAD
1000
MTEXTBEGIN
1070
    73
1070
     1
1070
    44
1040
1.0
1070
    74
1070
     0
1000
MTEXTEND
  0
MTEXT
  5
5664
330
1A
100
AcDbEntity
  8
SUNPOU
100
AcDbMText
 10
56161.10673098909
 20
57927.53621840312
 30
0.0
 40
10.5
 41
0.0
 71
     7
 72
     5
  1

1001
ACAD
1000
MTEXTBEGIN
1070
    73
1070
     1
1070
    44
1040
1.0
1070
    74
1070
     0
1000
MTEXTEND
  0
MTEXT
  5
5665
330
1A
100
AcDbEntity
  8
SUNPOU
100
AcDbMText
 10
60670.18485893966
 20
60363.8369660232
 30
0.0
 40
10.5
 41
0.0
 71
     7
 72
     5
  1

1001
ACAD
1000
MTEXTBEGIN
1070
    73
1070
     1
1070
    44
1040
1.0
1070
    74
1070
     0
1000
MTEXTEND
  0
MTEXT
  5
5666
330
1A
100
AcDbEntity
  8
SUNPOU
100
AcDbMText
 10
44271.02274570799
 20
39361.43311641211
 30
0.0
 40
10.5
 41
0.0
 71
     7
 72
     5
  1

1001
ACAD
1000
MTEXTBEGIN
1070
    73
1070
     1
1070
    44
1040
1.0
1070
    74
1070
     0
1000
MTEXTEND
  0
MTEXT
  5
5667
330
1A
100
AcDbEntity
  8
SUNPOU
100
AcDbMText
 10
95462.54117960824
 20
85034.41368006038
 30
0.0
 40
10.5
 41
0.0
 71
     9
 72
     5
  1

1001
ACAD
1000
MTEXTBEGIN
1070
    73
1070
     1
1070
    44
1040
1.0
1070
    74
1070
     0
1000
MTEXTEND
  0
MTEXT
  5
5668
330
1A
100
AcDbEntity
  8
SUNPOU
100
AcDbMText
 10
104184.7087455262
 20
92450.24821159784
 30
0.0
 40
10.5
 41
0.0
 71
     9
 72
     5
  1

1001
ACAD
1000
MTEXTBEGIN
1070
    73
1070
     1
1070
    44
1040
1.0
1070
    74
1070
     0
1000
MTEXTEND
  0
MTEXT
  5
5669
330
1A
100
AcDbEntity
  8
SUNPOU
100
AcDbMText
 10
123138.4674628562
 20
109916.8242640898
 30
0.0
 40
10.5
 41
0.0
 71
     9
 72
     5
  1

1001
ACAD
1000
MTEXTBEGIN
1070
    73
1070
     1
1070
    44
1040
1.0
1070
    74
1070
     0
1000
MTEXTEND
  0
MTEXT
  5
566A
330
1A
100
AcDbEntity
  8
SUNPOU
100
AcDbMText
 10
125081.8747095656
 20
108115.7751842118
 30
0.0
 40
3.5
 41
0.0
 71
     9
 72
     5
  1

1001
ACAD
1000
MTEXTBEGIN
1070
    73
1070
     1
1070
    44
1040
1.0
1070
    74
1070
     0
1000
MTEXTEND
  0
MTEXT
  5
566B
330
1A
100
AcDbEntity
  8
SUNPOU
100
AcDbMText
 10
156208.0545421853
 20
150610.7208518691
 30
0.0
 40
10.5
 41
0.0
 71
     9
 72
     5
  1

1001
ACAD
1000
MTEXTBEGIN
1070
    73
1070
     1
1070
    44
1040
1.0
1070
    74
1070
     0
1000
MTEXTEND
  0
MTEXT
  5
566C
330
1A
100
AcDbEntity
  8
SUNPOU
100
AcDbMText
 10
158151.4617888947
 20
148809.6717719911
 30
0.0
 40
3.5
 41
0.0
 71
     9
 72
     5
  1

1001
ACAD
1000
MTEXTBEGIN
1070
    73
1070
     1
1070
    44
1040
1.0
1070
    74
1070
     0
1000
MTEXTEND
  0
MTEXT
  5
566D
330
1A
100
AcDbEntity
  8
SUNPOU
100
AcDbMText
 10
106648.3222479809
 20
96443.88600684427
 30
0.0
 40
10.5
 41
0.0
 71
     9
 72
     5
  1

1001
ACAD
1000
MTEXTBEGIN
1070
    73
1070
     1
1070
    44
1040
1.0
1070
    74
1070
     0
1000
MTEXTEND
  0
MTEXT
  5
566E
330
1A
100
AcDbEntity
  8
SUNPOU
100
AcDbMText
 10
92700.3221476049
 20
77271.48686773207
 30
0.0
 40
3.5
 41
0.0
 71
     7
 72
     5
  1

1001
ACAD
1000
MTEXTBEGIN
1070
    73
1070
     1
1070
    44
1040
1.0
1070
    74
1070
     0
1000
MTEXTEND
  0
MTEXT
  5
566F
330
1A
100
AcDbEntity
  8
SUNPOU
100
AcDbMText
 10
73685.49154459807
 20
65033.63559855027
 30
0.0
 40
10.5
 41
0.0
 71
     7
 72
     5
  1

1001
ACAD
1000
MTEXTBEGIN
1070
    73
1070
     1
1070
    44
1040
1.0
1070
    74
1070
     0
1000
MTEXTEND
  0
MTEXT
  5
5670
330
1A
100
AcDbEntity
  8
SUNPOU
100
AcDbMText
 10
61228.26327964995
 20
49188.70402045184
 30
0.0
 40
35.0
 41
0.0
 71
     9
 72
     5
  1

1001
ACAD
1000
MTEXTBEGIN
1070
    73
1070
     1
1070
    44
1040
1.0
1070
    74
1070
     0
1000
MTEXTEND
  0
MTEXT
  5
5671
330
1A
100
AcDbEntity
  8
SUNPOU
100
AcDbMText
 10
60136.74833722491
 20
49797.47943050056
 30
0.0
 40
350.0000004171781
 41
0.0
 71
     7
 72
     5
  1

1001
ACAD
1000
MTEXTBEGIN
1070
    73
1070
     1
1070
    44
1040
1.0
1070
    74
1070
     0
1000
MTEXTEND
  0
MTEXT
  5
5672
330
1A
100
AcDbEntity
  8
0
100
AcDbMText
 10
66180.69909516782
 20
47777.40179263677
 30
0.0
 40
8.0
 41
0.0
 71
     7
 72
     5
  1

1001
ACAD
1000
MTEXTBEGIN
1070
    73
1070
     1
1070
    44
1040
1.0
1070
    74
1070
     0
1000
MTEXTEND
  0
MTEXT
  5
5673
330
1A
100
AcDbEntity
  8
0
100
AcDbMText
 10
68466.05678506271
 20
48748.19208738784
 30
0.0
 40
8.0
 41
0.0
 71
     7
 72
     5
  1

1001
ACAD
1000
MTEXTBEGIN
1070
    73
1070
     1
1070
    44
1040
1.0
1070
    74
1070
     0
1000
MTEXTEND
  0
MTEXT
  5
5674
330
1A
100
AcDbEntity
  8
SUNPOU
100
AcDbMText
 10
71131.95380574485
 20
58260.30347976296
 30
0.0
 40
10.5
 41
0.0
 71
     1
 72
     5
  1

1001
ACAD
1000
MTEXTBEGIN
1070
    73
1070
     1
1070
    44
1040
1.0
1070
    74
1070
     0
1000
MTEXTEND
  0
MTEXT
  5
5675
330
1A
100
AcDbEntity
  8
SUNPOU
100
AcDbMText
 10
63201.03060980891
 20
57313.51034585003
 30
0.0
 40
10.5
 41
0.0
 71
     7
 72
     5
  1

1001
ACAD
1000
MTEXTBEGIN
1070
    73
1070
     1
1070
    44
1040
1.0
1070
    74
1070
     0
1000
MTEXTEND
  0
MTEXT
  5
5676
330
1A
100
AcDbEntity
  8
SUNPOU
100
AcDbMText
 10
66150.01427432169
 20
62214.18641769286
 30
0.0
 40
10.5
 41
0.0
 71
     7
 72
     5
  1

1001
ACAD
1000
MTEXTBEGIN
1070
    73
1070
     1
1070
    44
1040
1.0
1070
    74
1070
     0
1000
MTEXTEND
  0
MTEXT
  5
5677
330
1A
100
AcDbEntity
  8
SUNPOU
100
AcDbMText
 10
70659.09240227225
 20
64650.48716531294
 30
0.0
 40
10.5
 41
0.0
 71
     7
 72
     5
  1

1001
ACAD
1000
MTEXTBEGIN
1070
    73
1070
     1
1070
    44
1040
1.0
1070
    74
1070
     0
1000
MTEXTEND
  0
MTEXT
  5
5678
330
1A
100
AcDbEntity
  8
SUNPOU
100
AcDbMText
 10
54259.93028904056
 20
43648.08331570185
 30
0.0
 40
10.5
 41
0.0
 71
     7
 72
     5
  1

1001
ACAD
1000
MTEXTBEGIN
1070
    73
1070
     1
1070
    44
1040
1.0
1070
    74
1070
     0
1000
MTEXTEND
  0
MTEXT
  5
5679
330
1A
100
AcDbEntity
  8
SUNPOU
100
AcDbMText
 10
56070.69320041551
 20
49975.4973031804
 30
0.0
 40
10.5
 41
0.0
 71
     9
 72
     5
  1

1001
ACAD
1000
MTEXTBEGIN
1070
    73
1070
     1
1070
    44
1040
1.0
1070
    74
1070
     0
1000
MTEXTEND
  0
MTEXT
  5
567A
330
1A
100
AcDbEntity
  8
SUNPOU
100
AcDbMText
 10
64792.86076633347
 20
57391.33183471787
 30
0.0
 40
10.5
 41
0.0
 71
     9
 72
     5
  1

1001
ACAD
1000
MTEXTBEGIN
1070
    73
1070
     1
1070
    44
1040
1.0
1070
    74
1070
     0
1000
MTEXTEND
  0
MTEXT
  5
567B
330
1A
100
AcDbEntity
  8
SUNPOU
100
AcDbMText
 10
83746.61948366345
 20
74857.90788720994
 30
0.0
 40
10.5
 41
0.0
 71
     9
 72
     5
  1

1001
ACAD
1000
MTEXTBEGIN
1070
    73
1070
     1
1070
    44
1040
1.0
1070
    74
1070
     0
1000
MTEXTEND
  0
MTEXT
  5
567C
330
1A
100
AcDbEntity
  8
SUNPOU
100
AcDbMText
 10
85690.02673037287
 20
73056.85880733192
 30
0.0
 40
3.5
 41
0.0
 71
     9
 72
     5
  1

1001
ACAD
1000
MTEXTBEGIN
1070
    73
1070
     1
1070
    44
1040
1.0
1070
    74
1070
     0
1000
MTEXTEND
  0
MTEXT
  5
567D
330
1A
100
AcDbEntity
  8
SUNPOU
100
AcDbMText
 10
116816.2065629925
 20
115551.8044749892
 30
0.0
 40
10.5
 41
0.0
 71
     9
 72
     5
  1

1001
ACAD
1000
MTEXTBEGIN
1070
    73
1070
     1
1070
    44
1040
1.0
1070
    74
1070
     0
1000
MTEXTEND
  0
MTEXT
  5
567E
330
1A
100
AcDbEntity
  8
SUNPOU
100
AcDbMText
 10
118759.6138097019
 20
113750.7553951111
 30
0.0
 40
3.5
 41
0.0
 71
     9
 72
     5
  1

1001
ACAD
1000
MTEXTBEGIN
1070
    73
1070
     1
1070
    44
1040
1.0
1070
    74
1070
     0
1000
MTEXTEND
  0
MTEXT
  5
567F
330
1A
100
AcDbEntity
  8
SUNPOU
100
AcDbMText
 10
67256.47426878814
 20
61384.96962996432
 30
0.0
 40
10.5
 41
0.0
 71
     9
 72
     5
  1

1001
ACAD
1000
MTEXTBEGIN
1070
    73
1070
     1
1070
    44
1040
1.0
1070
    74
1070
     0
1000
MTEXTEND
  0
MTEXT
  5
5680
330
1A
100
AcDbEntity
  8
SUNPOU
100
AcDbMText
 10
53308.47416841216
 20
42212.57049085211
 30
0.0
 40
3.5
 41
0.0
 71
     7
 72
     5
  1

1001
ACAD
1000
MTEXTBEGIN
1070
    73
1070
     1
1070
    44
1040
1.0
1070
    74
1070
     0
1000
MTEXTEND
  0
MTEXT
  5
5681
330
1A
100
AcDbEntity
  8
SUNPOU
100
AcDbMText
 10
67000.82485118274
 20
51571.63371187344
 30
0.0
 40
10.5
 41
0.0
 71
     9
 72
     5
  1

1001
ACAD
1000
MTEXTBEGIN
1070
    73
1070
     1
1070
    44
1040
1.0
1070
    74
1070
     0
1000
MTEXTEND
  0
MTEXT
  5
5682
330
1A
100
AcDbEntity
  8
SUNPOU
100
AcDbMText
 10
75722.99241710071
 20
58987.46824341094
 30
0.0
 40
10.5
 41
0.0
 71
     9
 72
     5
  1

1001
ACAD
1000
MTEXTBEGIN
1070
    73
1070
     1
1070
    44
1040
1.0
1070
    74
1070
     0
1000
MTEXTEND
  0
MTEXT
  5
5683
330
1A
100
AcDbEntity
  8
SUNPOU
100
AcDbMText
 10
94676.75113443068
 20
76454.04429590299
 30
0.0
 40
10.5
 41
0.0
 71
     9
 72
     5
  1

1001
ACAD
1000
MTEXTBEGIN
1070
    73
1070
     1
1070
    44
1040
1.0
1070
    74
1070
     0
1000
MTEXTEND
  0
MTEXT
  5
5684
330
1A
100
AcDbEntity
  8
SUNPOU
100
AcDbMText
 10
96620.1583811401
 20
74652.99521602497
 30
0.0
 40
3.5
 41
0.0
 71
     9
 72
     5
  1

1001
ACAD
1000
MTEXTBEGIN
1070
    73
1070
     1
1070
    44
1040
1.0
1070
    74
1070
     0
1000
MTEXTEND
  0
MTEXT
  5
5685
330
1A
100
AcDbEntity
  8
SUNPOU
100
AcDbMText
 10
127746.3382137598
 20
117147.9408836822
 30
0.0
 40
10.5
 41
0.0
 71
     9
 72
     5
  1

1001
ACAD
1000
MTEXTBEGIN
1070
    73
1070
     1
1070
    44
1040
1.0
1070
    74
1070
     0
1000
MTEXTEND
  0
MTEXT
  5
5686
330
1A
100
AcDbEntity
  8
SUNPOU
100
AcDbMText
 10
129689.7454604692
 20
115346.8918038042
 30
0.0
 40
3.5
 41
0.0
 71
     9
 72
     5
  1

1001
ACAD
1000
MTEXTBEGIN
1070
    73
1070
     1
1070
    44
1040
1.0
1070
    74
1070
     0
1000
MTEXTEND
  0
MTEXT
  5
5687
330
1A
100
AcDbEntity
  8
SUNPOU
100
AcDbMText
 10
78186.60591955537
 20
62981.10603865737
 30
0.0
 40
10.5
 41
0.0
 71
     9
 72
     5
  1

1001
ACAD
1000
MTEXTBEGIN
1070
    73
1070
     1
1070
    44
1040
1.0
1070
    74
1070
     0
1000
MTEXTEND
  0
MTEXT
  5
5688
330
1A
100
AcDbEntity
  8
SUNPOU
100
AcDbMText
 10
64238.60581917939
 20
43808.70689954517
 30
0.0
 40
3.5
 41
0.0
 71
     7
 72
     5
  1

1001
ACAD
1000
MTEXTBEGIN
1070
    73
1070
     1
1070
    44
1040
1.0
1070
    74
1070
     0
1000
MTEXTEND
  0
MTEXT
  5
5689
330
1A
100
AcDbEntity
  8
SUNPOU
100
AcDbMText
 10
33428.13481137435
 20
32770.04710035563
 30
0.0
 40
10.5
 41
0.0
 71
     9
 72
     5
  1

1001
ACAD
1000
MTEXTBEGIN
1070
    73
1070
     1
1070
    44
1040
1.0
1070
    74
1070
     0
1000
MTEXTEND
  0
MTEXT
  5
568A
330
1A
100
AcDbEntity
  8
SUNPOU
100
AcDbMText
 10
52381.89352870431
 20
50236.62315284768
 30
0.0
 40
10.5
 41
0.0
 71
     9
 72
     5
  1

1001
ACAD
1000
MTEXTBEGIN
1070
    73
1070
     1
1070
    44
1040
1.0
1070
    74
1070
     0
1000
MTEXTEND
  0
MTEXT
  5
568B
330
1A
100
AcDbEntity
  8
SUNPOU
100
AcDbMText
 10
54325.30077541374
 20
48435.57407296968
 30
0.0
 40
3.5
 41
0.0
 71
     9
 72
     5
  1

1001
ACAD
1000
MTEXTBEGIN
1070
    73
1070
     1
1070
    44
1040
1.0
1070
    74
1070
     0
1000
MTEXTEND
  0
MTEXT
  5
568C
330
1A
100
AcDbEntity
  8
SUNPOU
100
AcDbMText
 10
85451.48060803342
 20
90930.51974062703
 30
0.0
 40
10.5
 41
0.0
 71
     9
 72
     5
  1

1001
ACAD
1000
MTEXTBEGIN
1070
    73
1070
     1
1070
    44
1040
1.0
1070
    74
1070
     0
1000
MTEXTEND
  0
MTEXT
  5
568D
330
1A
100
AcDbEntity
  8
SUNPOU
100
AcDbMText
 10
87394.88785474286
 20
89129.47066074901
 30
0.0
 40
3.5
 41
0.0
 71
     9
 72
     5
  1

1001
ACAD
1000
MTEXTBEGIN
1070
    73
1070
     1
1070
    44
1040
1.0
1070
    74
1070
     0
1000
MTEXTEND
  0
MTEXT
  5
568E
330
1A
100
AcDbEntity
  8
SUNPOU
100
AcDbMText
 10
35891.74831382901
 20
36763.68489560208
 30
0.0
 40
10.5
 41
0.0
 71
     9
 72
     5
  1

1001
ACAD
1000
MTEXTBEGIN
1070
    73
1070
     1
1070
    44
1040
1.0
1070
    74
1070
     0
1000
MTEXTEND
  0
MTEXT
  5
568F
330
1A
100
AcDbEntity
  8
SUNPOU
100
AcDbMText
 10
21943.74821345303
 20
17591.28575648985
 30
0.0
 40
3.5
 41
0.0
 71
     7
 72
     5
  1

1001
ACAD
1000
MTEXTBEGIN
1070
    73
1070
     1
1070
    44
1040
1.0
1070
    74
1070
     0
1000
MTEXTEND
  0
MTEXT
  5
11D07
330
1A
100
AcDbEntity
  8
ZISSEN1
100
AcDbMText
 10
-1747.955741954728
 20
1924.506433975873
 30
0.0
 40
5.0
 41
171.8538
 71
     1
 72
     5
  1
AD-5410　　No.SS0001f35
  7
ゴシック体
1001
ACAD
1000
MTEXTBEGIN
1070
    73
1070
     1
1070
    44
1040
1.0
1070
    74
1070
     0
1000
MTEXTEND
  0
CIRCLE
  5
13605
330
1A
100
AcDbEntity
  8
ZISSEN1
100
AcDbCircle
 10
-1897.231610563909
 20
1786.221344453914
 30
0.0
 40
3.0
  0
LINE
  5
13606
330
1A
100
AcDbEntity
  8
ZISSEN1
100
AcDbLine
 10
-1924.731614563908
 20
1856.721364453913
 30
0.0
 11
-1924.731614563908
 21
1696.721354453913
 31
0.0
  0
LINE
  5
13607
330
1A
100
AcDbEntity
  8
ZISSEN1
100
AcDbLine
 10
-1818.231618563909
 20
1856.721364453913
 30
0.0
 11
-1818.231618563909
 21
1696.721354453913
 31
0.0
  0
LINE
  5
13608
330
1A
100
AcDbEntity
  8
ZISSEN1
100
AcDbLine
 10
-1928.231613563909
 20
1868.721364453914
 30
0.0
 11
-1928.231613563909
 21
1684.721352453912
 31
0.0
  0
LINE
  5
13609
330
1A
100
AcDbEntity
  8
ZISSEN1
100
AcDbLine
 10
-1818.231618563909
 20
1696.721354453913
 30
0.0
 11
-1924.731614563908
 21
1696.721354453913
 31
0.0
  0
LINE
  5
1360A
330
1A
100
AcDbEntity
  8
ZISSEN1
100
AcDbLine
 10
-1925.231615563909
 20
1699.221350453913
 30
0.0
 11
-1925.231615563909
 21
1684.721352453912
 31
0.0
  0
LINE
  5
1360B
330
1A
100
AcDbEntity
  8
ZISSEN1
100
AcDbLine
 10
-1925.231615563909
 20
1684.721352453912
 30
0.0
 11
-1928.231613563909
 21
1684.721352453912
 31
0.0
  0
LINE
  5
1360C
330
1A
100
AcDbEntity
  8
ZISSEN1
100
AcDbLine
 10
-1925.231615563909
 20
1686.135566453914
 30
0.0
 11
-1928.231613563909
 21
1686.135566453914
 31
0.0
  0
LINE
  5
1360D
330
1A
100
AcDbEntity
  8
CL1
100
AcDbLine
 10
-1921.731616563909
 20
1690.721353453914
 30
0.0
 11
-1931.231610563909
 21
1690.721353453914
 31
0.0
  0
LINE
  5
1360E
330
1A
100
AcDbEntity
  8
ZISSEN1
100
AcDbLine
 10
-1925.231615563909
 20
1684.721352453912
 30
0.0
 11
-1928.231613563909
 21
1684.721352453912
 31
0.0
  0
LINE
  5
1360F
330
1A
100
AcDbEntity
  8
ZISSEN1
100
AcDbLine
 10
-1925.231615563909
 20
1699.221350453913
 30
0.0
 11
-1928.231613563909
 21
1699.221350453913
 31
0.0
  0
LINE
  5
13610
330
1A
100
AcDbEntity
  8
ZISSEN1
100
AcDbLine
 10
-1924.731614563908
 20
1696.721354453913
 30
0.0
 11
-1925.231615563909
 21
1696.721354453913
 31
0.0
  0
LINE
  5
13611
330
1A
100
AcDbEntity
  8
ZISSEN1
100
AcDbLine
 10
-1925.231615563909
 20
1699.221350453913
 30
0.0
 11
-1924.731614563908
 21
1699.221350453913
 31
0.0
  0
CIRCLE
  5
13612
330
1A
100
AcDbEntity
  8
ZISSEN1
100
AcDbCircle
 10
-1897.231604563909
 20
1728.221353453913
 30
0.0
 40
3.0
  0
LINE
  5
13613
330
1A
100
AcDbEntity
  8
ZISSEN1
100
AcDbLine
 10
-1803.231618563908
 20
1755.671784453912
 30
0.0
 11
-1803.231618563908
 21
1700.221353453914
 31
0.0
  0
LINE
  5
13614
330
1A
100
AcDbEntity
  8
ZISSEN1
100
AcDbLine
 10
-1803.231618563908
 20
1700.221353453914
 30
0.0
 11
-1818.231618563909
 21
1700.221353453914
 31
0.0
  0
LINE
  5
13615
330
1A
100
AcDbEntity
  8
ZISSEN1
100
AcDbLine
 10
-1803.231618563908
 20
1764.221334453914
 30
0.0
 11
-1818.231618563909
 21
1764.221334453914
 31
0.0
  0
ARC
  5
13616
330
1A
100
AcDbEntity
  8
ZISSEN1
100
AcDbCircle
 10
-1807.231618563909
 20
1759.831784453912
 30
0.0
 40
2.0
100
AcDbArc
 50
0.0
 51
90.0
  0
LINE
  5
13617
330
1A
100
AcDbEntity
  8
ZISSEN1
100
AcDbLine
 10
-1808.231618563909
 20
1755.831764453913
 30
0.0
 11
-1808.231618563909
 21
1761.831784453914
 31
0.0
  0
LINE
  5
13618
330
1A
100
AcDbEntity
  8
ZISSEN1
100
AcDbLine
 10
-1808.231618563909
 20
1761.991784453913
 30
0.0
 11
-1808.231618563909
 21
1755.671784453912
 31
0.0
  0
ARC
  5
13619
330
1A
100
AcDbEntity
  8
ZISSEN1
100
AcDbCircle
 10
-1807.231618563909
 20
1757.831774453913
 30
0.0
 40
2.0
100
AcDbArc
 50
270.0
 51
0.0
  0
LINE
  5
1361A
330
1A
100
AcDbEntity
  8
ZISSEN1
100
AcDbLine
 10
-1808.231618563909
 20
1755.671784453912
 30
0.0
 11
-1803.231618563908
 21
1755.671784453912
 31
0.0
  0
LINE
  5
1361B
330
1A
100
AcDbEntity
  8
ZISSEN1
100
AcDbLine
 10
-1807.231618563909
 20
1755.831764453913
 30
0.0
 11
-1808.231618563909
 21
1755.831764453913
 31
0.0
  0
LINE
  5
1361C
330
1A
100
AcDbEntity
  8
ZISSEN1
100
AcDbLine
 10
-1805.231608563909
 20
1759.831784453912
 30
0.0
 11
-1805.231608563909
 21
1757.831774453913
 31
0.0
  0
LINE
  5
1361D
330
1A
100
AcDbEntity
  8
ZISSEN1
100
AcDbLine
 10
-1808.231618563909
 20
1761.991784453913
 30
0.0
 11
-1803.231618563908
 21
1761.991784453913
 31
0.0
  0
LINE
  5
1361E
330
1A
100
AcDbEntity
  8
ZISSEN1
100
AcDbLine
 10
-1807.231618563909
 20
1761.831784453914
 30
0.0
 11
-1808.231618563909
 21
1761.831784453914
 31
0.0
  0
LINE
  5
1361F
330
1A
100
AcDbEntity
  8
ZISSEN1
100
AcDbLine
 10
-1803.231618563908
 20
1764.221334453914
 30
0.0
 11
-1803.231618563908
 21
1761.991784453913
 31
0.0
  0
LINE
  5
13620
330
1A
100
AcDbEntity
  8
ZISSEN1
100
AcDbLine
 10
-1818.231618563909
 20
1856.721364453913
 30
0.0
 11
-1924.731614563908
 21
1856.721364453913
 31
0.0
  0
LINE
  5
13621
330
1A
100
AcDbEntity
  8
ZISSEN1
100
AcDbLine
 10
-1924.731614563908
 20
1947.032154453912
 30
0.0
 11
-1820.231618563909
 21
1947.032154453912
 31
0.0
  0
LINE
  5
13622
330
1A
100
AcDbEntity
  8
ZISSEN1
100
AcDbLine
 10
-1925.231615563909
 20
1947.532184453914
 30
0.0
 11
-1820.231618563909
 21
1947.532184453914
 31
0.0
  0
LINE
  5
13623
330
1A
100
AcDbEntity
  8
ZISSEN1
100
AcDbLine
 10
-1927.524504563908
 20
1950.532184453914
 30
0.0
 11
-1820.231618563909
 21
1950.532184453914
 31
0.0
  0
LINE
  5
13624
330
1A
100
AcDbEntity
  8
ZISSEN1
100
AcDbLine
 10
-1925.231615563909
 20
1903.032154453913
 30
0.0
 11
-1818.231618563909
 21
1903.032154453913
 31
0.0
  0
LINE
  5
13625
330
1A
100
AcDbEntity
  8
ZISSEN1
100
AcDbLine
 10
-1925.231615563909
 20
1839.721364453914
 30
0.0
 11
-1925.231615563909
 21
1804.721354453914
 31
0.0
  0
LINE
  5
13626
330
1A
100
AcDbEntity
  8
ZISSEN1
100
AcDbLine
 10
-1928.231613563909
 20
1804.721354453914
 30
0.0
 11
-1925.231615563909
 21
1804.721354453914
 31
0.0
  0
LINE
  5
13627
330
1A
100
AcDbEntity
  8
ZISSEN1
100
AcDbLine
 10
-1925.231615563909
 20
1804.721354453914
 30
0.0
 11
-1924.731614563908
 21
1804.721354453914
 31
0.0
  0
LINE
  5
13628
330
1A
100
AcDbEntity
  8
ZISSEN1
100
AcDbLine
 10
-1928.231613563909
 20
1839.721364453914
 30
0.0
 11
-1925.231615563909
 21
1839.721364453914
 31
0.0
  0
LINE
  5
13629
330
1A
100
AcDbEntity
  8
ZISSEN1
100
AcDbLine
 10
-1925.231615563909
 20
1839.721364453914
 30
0.0
 11
-1924.731614563908
 21
1839.721364453914
 31
0.0
  0
LINE
  5
1362A
330
1A
100
AcDbEntity
  8
ZISSEN1
100
AcDbLine
 10
-1928.231613563909
 20
1854.221364453914
 30
0.0
 11
-1925.231615563909
 21
1854.221364453914
 31
0.0
  0
LINE
  5
1362B
330
1A
100
AcDbEntity
  8
ZISSEN1
100
AcDbLine
 10
-1925.231628563908
 20
1867.307144453913
 30
0.0
 11
-1928.231600563909
 21
1867.307144453913
 31
0.0
  0
LINE
  5
1362C
330
1A
100
AcDbEntity
  8
CL1
100
AcDbLine
 10
-1921.731616563909
 20
1862.721364453912
 30
0.0
 11
-1931.231610563909
 21
1862.721364453912
 31
0.0
  0
LINE
  5
1362D
330
1A
100
AcDbEntity
  8
ZISSEN1
100
AcDbLine
 10
-1928.231613563909
 20
1868.721364453914
 30
0.0
 11
-1925.231615563909
 21
1868.721364453914
 31
0.0
  0
LINE
  5
1362E
330
1A
100
AcDbEntity
  8
ZISSEN1
100
AcDbLine
 10
-1925.231615563909
 20
1868.721364453914
 30
0.0
 11
-1925.231615563909
 21
1854.221364453914
 31
0.0
  0
LINE
  5
1362F
330
1A
100
AcDbEntity
  8
ZISSEN1
100
AcDbLine
 10
-1924.731614563908
 20
1856.721364453913
 30
0.0
 11
-1925.231615563909
 21
1856.721364453913
 31
0.0
  0
LINE
  5
13630
330
1A
100
AcDbEntity
  8
ZISSEN1
100
AcDbLine
 10
-1925.231615563909
 20
1854.221364453914
 30
0.0
 11
-1924.731614563908
 21
1854.221364453914
 31
0.0
  0
LINE
  5
13631
330
1A
100
AcDbEntity
  8
ZISSEN1
100
AcDbLine
 10
-1925.231615563909
 20
1907.532144453913
 30
0.0
 11
-1925.231615563909
 21
1947.532184453914
 31
0.0
  0
LINE
  5
13632
330
1A
100
AcDbEntity
  8
ZISSEN1
100
AcDbLine
 10
-1928.231613563909
 20
1905.239294453912
 30
0.0
 11
-1928.231613563909
 21
1949.825084453912
 31
0.0
  0
LINE
  5
13633
330
1A
100
AcDbEntity
  8
ZISSEN1
100
AcDbLine
 10
-1924.731614563908
 20
1903.032154453913
 30
0.0
 11
-1924.731614563908
 21
1947.032154453912
 31
0.0
  0
LINE
  5
13634
330
1A
100
AcDbEntity
  8
ZISSEN1
100
AcDbLine
 10
-1927.524504563908
 20
1904.532184453914
 30
0.0
 11
-1925.231615563909
 21
1904.532184453914
 31
0.0
  0
LINE
  5
13635
330
1A
100
AcDbEntity
  8
ZISSEN1
100
AcDbLine
 10
-1928.231613563909
 20
1920.282154453913
 30
0.0
 11
-1925.231615563909
 21
1920.282154453913
 31
0.0
  0
LINE
  5
13636
330
1A
100
AcDbEntity
  8
ZISSEN1
100
AcDbLine
 10
-1928.231613563909
 20
1915.782164453914
 30
0.0
 11
-1925.231615563909
 21
1915.782164453914
 31
0.0
  0
LINE
  5
13637
330
1A
100
AcDbEntity
  8
CL1
100
AcDbLine
 10
-1931.231610563909
 20
1918.032154453913
 30
0.0
 11
-1922.231618563909
 21
1918.032154453913
 31
0.0
  0
LINE
  5
13638
330
1A
100
AcDbEntity
  8
ZISSEN1
100
AcDbLine
 10
-1925.231615563909
 20
1907.532144453913
 30
0.0
 11
-1928.231613563909
 21
1907.532144453913
 31
0.0
  0
LINE
  5
13639
330
1A
100
AcDbEntity
  8
ZISSEN1
100
AcDbLine
 10
-1928.231613563909
 20
1905.239294453912
 30
0.0
 11
-1927.524504563908
 21
1904.532184453914
 31
0.0
  0
LINE
  5
1363A
330
1A
100
AcDbEntity
  8
ZISSEN1
100
AcDbLine
 10
-1925.231615563909
 20
1903.032154453913
 30
0.0
 11
-1925.231615563909
 21
1904.532184453914
 31
0.0
  0
LINE
  5
1363B
330
1A
100
AcDbEntity
  8
ZISSEN1
100
AcDbLine
 10
-1925.231615563909
 20
1904.532184453914
 30
0.0
 11
-1924.731614563908
 21
1904.532184453914
 31
0.0
  0
LINE
  5
1363C
330
1A
100
AcDbEntity
  8
ZISSEN1
100
AcDbLine
 10
-1925.231615563909
 20
1907.532144453913
 30
0.0
 11
-1924.731614563908
 21
1907.532144453913
 31
0.0
  0
LINE
  5
1363D
330
1A
100
AcDbEntity
  8
ZISSEN1
100
AcDbLine
 10
-1925.231615563909
 20
1947.532184453914
 30
0.0
 11
-1928.231613563909
 21
1947.532184453914
 31
0.0
  0
LINE
  5
1363E
330
1A
100
AcDbEntity
  8
ZISSEN1
100
AcDbLine
 10
-1928.231613563909
 20
1949.825084453912
 30
0.0
 11
-1927.524504563908
 21
1950.532184453914
 31
0.0
  0
LINE
  5
1363F
330
1A
100
AcDbEntity
  8
ZISSEN1
100
AcDbLine
 10
-1817.231608563909
 20
1832.439464453914
 30
0.0
 11
-1817.231608563909
 21
1830.439474453913
 31
0.0
  0
LINE
  5
13640
330
1A
100
AcDbEntity
  8
ZISSEN1
100
AcDbLine
 10
-1806.231628563909
 20
1817.721324453914
 30
0.0
 11
-1818.231618563909
 21
1817.721324453914
 31
0.0
  0
LINE
  5
13641
330
1A
100
AcDbEntity
  8
ZISSEN1
100
AcDbLine
 10
-1806.231608563908
 20
1830.439474453913
 30
0.0
 11
-1818.231618563909
 21
1830.439474453913
 31
0.0
  0
LINE
  5
13642
330
1A
100
AcDbEntity
  8
ZISSEN1
100
AcDbLine
 10
-1817.231608563909
 20
1817.721324453914
 30
0.0
 11
-1817.231608563909
 21
1816.221344453913
 31
0.0
  0
LINE
  5
13643
330
1A
100
AcDbEntity
  8
ZISSEN1
100
AcDbLine
 10
-1817.231608563909
 20
1816.221344453913
 30
0.0
 11
-1818.231618563909
 21
1816.221344453913
 31
0.0
  0
LINE
  5
13644
330
1A
100
AcDbEntity
  8
ZISSEN1
100
AcDbLine
 10
-1806.231608563908
 20
1830.439474453913
 30
0.0
 11
-1806.231608563908
 21
1817.721324453914
 31
0.0
  0
LINE
  5
13645
330
1A
100
AcDbEntity
  8
ZISSEN1
100
AcDbLine
 10
-1806.231608563908
 20
1832.439464453914
 30
0.0
 11
-1818.231618563909
 21
1832.439464453914
 31
0.0
  0
LINE
  5
13646
330
1A
100
AcDbEntity
  8
ZISSEN1
100
AcDbLine
 10
-1806.231598563909
 20
1849.721324453914
 30
0.0
 11
-1818.231618563909
 21
1849.721324453914
 31
0.0
  0
LINE
  5
13647
330
1A
100
AcDbEntity
  8
ZISSEN1
100
AcDbLine
 10
-1817.231608563909
 20
1851.721354453913
 30
0.0
 11
-1817.231608563909
 21
1849.721324453914
 31
0.0
  0
LINE
  5
13648
330
1A
100
AcDbEntity
  8
ZISSEN1
100
AcDbLine
 10
-1817.231608563909
 20
1851.721354453913
 30
0.0
 11
-1818.231618563909
 21
1851.721354453913
 31
0.0
  0
LINE
  5
13649
330
1A
100
AcDbEntity
  8
ZISSEN1
100
AcDbLine
 10
-1806.231608563908
 20
1849.721324453914
 30
0.0
 11
-1806.231608563908
 21
1832.439464453914
 31
0.0
  0
ARC
  5
1364A
330
1A
100
AcDbEntity
  8
ZISSEN1
100
AcDbCircle
 10
-1896.231619563909
 20
1902.032154453914
 30
0.0
 40
2.0
100
AcDbArc
 50
270.0
 51
0.0
  0
ARC
  5
1364B
330
1A
100
AcDbEntity
  8
ZISSEN1
100
AcDbCircle
 10
-1898.231625563908
 20
1902.032154453914
 30
0.0
 40
2.0
100
AcDbArc
 50
180.0
 51
270.0
  0
LINE
  5
1364C
330
1A
100
AcDbEntity
  8
ZISSEN1
100
AcDbLine
 10
-1896.231619563909
 20
1900.032144453914
 30
0.0
 11
-1898.231625563908
 21
1900.032144453914
 31
0.0
  0
LINE
  5
1364D
330
1A
100
AcDbEntity
  8
ZISSEN1
100
AcDbLine
 10
-1900.231632563908
 20
1903.032154453913
 30
0.0
 11
-1894.231612563909
 21
1903.032154453913
 31
0.0
  0
LINE
  5
1364E
330
1A
100
AcDbEntity
  8
ZISSEN1
100
AcDbLine
 10
-1900.231632563908
 20
1902.032154453914
 30
0.0
 11
-1900.231632563908
 21
1903.032154453913
 31
0.0
  0
LINE
  5
1364F
330
1A
100
AcDbEntity
  8
ZISSEN1
100
AcDbLine
 10
-1894.231612563909
 20
1902.032154453914
 30
0.0
 11
-1894.231612563909
 21
1903.032154453913
 31
0.0
  0
LINE
  5
13650
330
1A
100
AcDbEntity
  8
ZISSEN1
100
AcDbLine
 10
-1820.231618563909
 20
1947.532184453914
 30
0.0
 11
-1820.231618563909
 21
1904.532134453914
 31
0.0
  0
LINE
  5
13651
330
1A
100
AcDbEntity
  8
ZISSEN1
100
AcDbLine
 10
-1819.731618563909
 20
1903.032154453913
 30
0.0
 11
-1819.731618563909
 21
1950.532184453914
 31
0.0
  0
LINE
  5
13652
330
1A
100
AcDbEntity
  8
ZISSEN1
100
AcDbLine
 10
-1818.231618563909
 20
1903.032154453913
 30
0.0
 11
-1818.231618563909
 21
1952.032174453913
 31
0.0
  0
LINE
  5
13653
330
1A
100
AcDbEntity
  8
ZISSEN1
100
AcDbLine
 10
-1820.231618563909
 20
1904.532134453914
 30
0.0
 11
-1819.731618563909
 21
1904.532134453914
 31
0.0
  0
LINE
  5
13654
330
1A
100
AcDbEntity
  8
ZISSEN1
100
AcDbLine
 10
-1818.231618563909
 20
1939.932164453914
 30
0.0
 11
-1803.231618563908
 21
1939.932164453914
 31
0.0
  0
LINE
  5
13655
330
1A
100
AcDbEntity
  8
ZISSEN1
100
AcDbLine
 10
-1818.231618563909
 20
1928.232174453913
 30
0.0
 11
-1803.231618563908
 21
1928.232174453913
 31
0.0
  0
LINE
  5
13656
330
1A
100
AcDbEntity
  8
ZISSEN1
100
AcDbLine
 10
-1817.231608563909
 20
1941.532164453914
 30
0.0
 11
-1817.231608563909
 21
1939.932164453914
 31
0.0
  0
LINE
  5
13657
330
1A
100
AcDbEntity
  8
ZISSEN1
100
AcDbLine
 10
-1818.231618563909
 20
1939.932164453914
 30
0.0
 11
-1817.231608563909
 21
1939.932164453914
 31
0.0
  0
LINE
  5
13658
330
1A
100
AcDbEntity
  8
ZISSEN1
100
AcDbLine
 10
-1818.231618563909
 20
1941.532164453914
 30
0.0
 11
-1817.231608563909
 21
1941.532164453914
 31
0.0
  0
ARC
  5
13659
330
1A
100
AcDbEntity
  8
ZISSEN1
100
AcDbCircle
 10
-1826.231618563909
 20
1953.032174453914
 30
0.0
 40
2.0
100
AcDbArc
 50
90.0
 51
180.0
  0
LINE
  5
1365A
330
1A
100
AcDbEntity
  8
ZISSEN1
100
AcDbLine
 10
-1828.231618563909
 20
1952.032174453913
 30
0.0
 11
-1822.231598563909
 21
1952.032174453913
 31
0.0
  0
LINE
  5
1365B
330
1A
100
AcDbEntity
  8
ZISSEN1
100
AcDbLine
 10
-1829.231618563909
 20
1950.532184453914
 30
0.0
 11
-1820.231618563909
 21
1950.532184453914
 31
0.0
  0
LINE
  5
1365C
330
1A
100
AcDbEntity
  8
ZISSEN1
100
AcDbLine
 10
-1829.231618563909
 20
1952.032174453913
 30
0.0
 11
-1818.231618563909
 21
1952.032174453913
 31
0.0
  0
ARC
  5
1365D
330
1A
100
AcDbEntity
  8
ZISSEN1
100
AcDbCircle
 10
-1834.231618563909
 20
1951.532194453913
 30
0.0
 40
2.0
100
AcDbArc
 50
90.0
 51
180.0
  0
LINE
  5
1365E
330
1A
100
AcDbEntity
  8
ZISSEN1
100
AcDbLine
 10
-1836.231628563909
 20
1950.532184453914
 30
0.0
 11
-1830.231608563909
 21
1950.532184453914
 31
0.0
  0
LINE
  5
1365F
330
1A
100
AcDbEntity
  8
ZISSEN1
100
AcDbLine
 10
-1836.231628563909
 20
1951.532194453913
 30
0.0
 11
-1836.231628563909
 21
1950.532184453914
 31
0.0
  0
ARC
  5
13660
330
1A
100
AcDbEntity
  8
ZISSEN1
100
AcDbCircle
 10
-1832.231608563909
 20
1951.532194453913
 30
0.0
 40
2.0
100
AcDbArc
 50
0.0
 51
90.0
  0
LINE
  5
13661
330
1A
100
AcDbEntity
  8
ZISSEN1
100
AcDbLine
 10
-1828.231618563909
 20
1953.032174453914
 30
0.0
 11
-1828.231618563909
 21
1952.032174453913
 31
0.0
  0
LINE
  5
13662
330
1A
100
AcDbEntity
  8
ZISSEN1
100
AcDbLine
 10
-1830.231608563909
 20
1951.532194453913
 30
0.0
 11
-1830.231608563909
 21
1950.532184453914
 31
0.0
  0
LINE
  5
13663
330
1A
100
AcDbEntity
  8
ZISSEN1
100
AcDbLine
 10
-1829.231618563909
 20
1950.532184453914
 30
0.0
 11
-1829.231618563909
 21
1952.032174453913
 31
0.0
  0
LINE
  5
13664
330
1A
100
AcDbEntity
  8
ZISSEN1
100
AcDbLine
 10
-1832.231608563909
 20
1953.532194453913
 30
0.0
 11
-1834.231618563909
 21
1953.532194453913
 31
0.0
  0
LINE
  5
13665
330
1A
100
AcDbEntity
  8
ZISSEN1
100
AcDbLine
 10
-1822.231598563909
 20
1953.032174453914
 30
0.0
 11
-1822.231598563909
 21
1952.032174453913
 31
0.0
  0
LINE
  5
13666
330
1A
100
AcDbEntity
  8
ZISSEN1
100
AcDbLine
 10
-1820.231618563909
 20
1950.532184453914
 30
0.0
 11
-1819.731618563909
 21
1950.532184453914
 31
0.0
  0
LINE
  5
13667
330
1A
100
AcDbEntity
  8
ZISSEN1
100
AcDbLine
 10
-1820.231618563909
 20
1947.532184453914
 30
0.0
 11
-1820.231618563909
 21
1950.532184453914
 31
0.0
  0
ARC
  5
13668
330
1A
100
AcDbEntity
  8
ZISSEN1
100
AcDbCircle
 10
-1824.231608563908
 20
1953.032174453914
 30
0.0
 40
2.0
100
AcDbArc
 50
0.0
 51
90.0
  0
LINE
  5
13669
330
1A
100
AcDbEntity
  8
ZISSEN1
100
AcDbLine
 10
-1824.231608563908
 20
1955.032184453914
 30
0.0
 11
-1826.231618563909
 21
1955.032184453914
 31
0.0
  0
LINE
  5
1366A
330
1A
100
AcDbEntity
  8
ZISSEN1
100
AcDbLine
 10
-1803.731618563909
 20
1928.232174453913
 30
0.0
 11
-1803.731618563909
 21
1939.932164453914
 31
0.0
  0
LINE
  5
1366B
330
1A
100
AcDbEntity
  8
ZISSEN1
100
AcDbLine
 10
-1803.231618563908
 20
1928.232174453913
 30
0.0
 11
-1803.231618563908
 21
1939.932164453914
 31
0.0
  0
ARC
  5
1366C
330
1A
100
AcDbEntity
  8
ZISSEN1
100
AcDbCircle
 10
-1744.353258563909
 20
1785.221344453914
 30
0.0
 40
2.0
100
AcDbArc
 50
180.0
 51
270.0
  0
LINE
  5
1366D
330
1A
100
AcDbEntity
  8
ZISSEN1
100
AcDbLine
 10
-1743.353258563909
 20
1783.221334453913
 30
0.0
 11
-1743.353258563909
 21
1789.221354453913
 31
0.0
  0
LINE
  5
1366E
330
1A
100
AcDbEntity
  8
ZISSEN1
100
AcDbLine
 10
-1715.853238563908
 20
1812.721334453914
 30
0.0
 11
-1715.853238563908
 21
1767.721334453914
 31
0.0
  0
LINE
  5
1366F
330
1A
100
AcDbEntity
  8
ZISSEN1
100
AcDbLine
 10
-1707.853238563909
 20
1812.721334453914
 30
0.0
 11
-1707.853238563909
 21
1767.721334453914
 31
0.0
  0
LINE
  5
13670
330
1A
100
AcDbEntity
  8
ZISSEN1
100
AcDbLine
 10
-1694.353248563909
 20
1856.721364453913
 30
0.0
 11
-1694.353248563909
 21
1696.721354453913
 31
0.0
  0
LINE
  5
13671
330
1A
100
AcDbEntity
  8
ZISSEN1
100
AcDbLine
 10
-1743.353258563909
 20
1856.721364453913
 30
0.0
 11
-1743.353258563909
 21
1696.721342453914
 31
0.0
  0
ARC
  5
13672
330
1A
100
AcDbEntity
  8
ZISSEN1
100
AcDbCircle
 10
-1708.353268563909
 20
1690.721353453914
 30
0.0
 40
2.25
100
AcDbArc
 50
0.0
 51
180.0
  0
ARC
  5
13673
330
1A
100
AcDbEntity
  8
ZISSEN1
100
AcDbCircle
 10
-1728.353258563909
 20
1690.721353453914
 30
0.0
 40
2.25
100
AcDbArc
 50
0.0
 51
180.0
  0
LINE
  5
13674
330
1A
100
AcDbEntity
  8
ZISSEN1
100
AcDbLine
 10
-1738.853268563909
 20
1696.721354453913
 30
0.0
 11
-1738.853268563909
 21
1686.135566453914
 31
0.0
  0
LINE
  5
13675
330
1A
100
AcDbEntity
  8
ZISSEN1
100
AcDbLine
 10
-1698.853258563909
 20
1686.135566453914
 30
0.0
 11
-1698.853258563909
 21
1696.721354453913
 31
0.0
  0
LINE
  5
13676
330
1A
100
AcDbEntity
  8
CL1
100
AcDbLine
 10
-1708.353268563909
 20
1693.721350453913
 30
0.0
 11
-1708.353268563909
 21
1687.721352453913
 31
0.0
  0
LINE
  5
13677
330
1A
100
AcDbEntity
  8
CL1
100
AcDbLine
 10
-1728.353258563909
 20
1693.721350453913
 30
0.0
 11
-1728.353258563909
 21
1687.721352453913
 31
0.0
  0
LINE
  5
13678
330
1A
100
AcDbEntity
  8
ZISSEN1
100
AcDbLine
 10
-1726.103258563909
 20
1684.721352453912
 30
0.0
 11
-1710.603258563909
 21
1684.721352453912
 31
0.0
  0
LINE
  5
13679
330
1A
100
AcDbEntity
  8
CL1
100
AcDbLine
 10
-1731.353268563909
 20
1690.721353453914
 30
0.0
 11
-1725.353248563908
 21
1690.721353453914
 31
0.0
  0
LINE
  5
1367A
330
1A
100
AcDbEntity
  8
ZISSEN1
100
AcDbLine
 10
-1738.853268563909
 20
1686.135566453914
 30
0.0
 11
-1737.439048563909
 21
1684.721352453912
 31
0.0
  0
LINE
  5
1367B
330
1A
100
AcDbEntity
  8
ZISSEN1
100
AcDbLine
 10
-1730.603248563909
 20
1690.721353453914
 30
0.0
 11
-1730.603248563909
 21
1684.721352453912
 31
0.0
  0
LINE
  5
1367C
330
1A
100
AcDbEntity
  8
ZISSEN1
100
AcDbLine
 10
-1737.439048563909
 20
1684.721352453912
 30
0.0
 11
-1730.603248563909
 21
1684.721352453912
 31
0.0
  0
LINE
  5
1367D
330
1A
100
AcDbEntity
  8
ZISSEN1
100
AcDbLine
 10
-1726.103258563909
 20
1690.721353453914
 30
0.0
 11
-1726.103258563909
 21
1684.721352453912
 31
0.0
  0
LINE
  5
1367E
330
1A
100
AcDbEntity
  8
ZISSEN1
100
AcDbLine
 10
-1700.267478563909
 20
1684.721352453912
 30
0.0
 11
-1706.103268563909
 21
1684.721352453912
 31
0.0
  0
LINE
  5
1367F
330
1A
100
AcDbEntity
  8
ZISSEN1
100
AcDbLine
 10
-1710.603258563909
 20
1690.721353453914
 30
0.0
 11
-1710.603258563909
 21
1684.721352453912
 31
0.0
  0
LINE
  5
13680
330
1A
100
AcDbEntity
  8
ZISSEN1
100
AcDbLine
 10
-1706.103268563909
 20
1690.721353453914
 30
0.0
 11
-1706.103268563909
 21
1684.721352453912
 31
0.0
  0
LINE
  5
13681
330
1A
100
AcDbEntity
  8
CL1
100
AcDbLine
 10
-1711.353278563909
 20
1690.721353453914
 30
0.0
 11
-1705.353258563909
 21
1690.721353453914
 31
0.0
  0
LINE
  5
13682
330
1A
100
AcDbEntity
  8
ZISSEN1
100
AcDbLine
 10
-1700.267478563909
 20
1684.721352453912
 30
0.0
 11
-1698.853258563909
 21
1686.135566453914
 31
0.0
  0
LINE
  5
13683
330
1A
100
AcDbEntity
  8
ZISSEN1
100
AcDbLine
 10
-1718.153238563909
 20
1700.221353453914
 30
0.0
 11
-1706.453248563909
 21
1700.221353453914
 31
0.0
  0
LINE
  5
13684
330
1A
100
AcDbEntity
  8
ZISSEN1
100
AcDbLine
 10
-1718.153238563909
 20
1764.221334453914
 30
0.0
 11
-1706.453248563909
 21
1764.221334453914
 31
0.0
  0
LINE
  5
13685
330
1A
100
AcDbEntity
  8
ZISSEN1
100
AcDbLine
 10
-1715.853238563908
 20
1767.721334453914
 30
0.0
 11
-1707.853238563909
 21
1767.721334453914
 31
0.0
  0
LINE
  5
13686
330
1A
100
AcDbEntity
  8
ZISSEN1
100
AcDbLine
 10
-1718.653248563909
 20
1764.721334453914
 30
0.0
 11
-1704.653248563909
 21
1764.721334453914
 31
0.0
  0
LINE
  5
13687
330
1A
100
AcDbEntity
  8
ZISSEN1
100
AcDbLine
 10
-1718.653248563909
 20
1699.721352453913
 30
0.0
 11
-1704.653248563909
 21
1699.721352453913
 31
0.0
  0
LINE
  5
13688
330
1A
100
AcDbEntity
  8
ZISSEN1
100
AcDbLine
 10
-1743.353258563909
 20
1696.721354453913
 30
0.0
 11
-1694.353248563909
 21
1696.721354453913
 31
0.0
  0
LINE
  5
13689
330
1A
100
AcDbEntity
  8
ZISSEN1
100
AcDbLine
 10
-1718.153238563909
 20
1764.221334453914
 30
0.0
 11
-1718.153238563909
 21
1700.221353453914
 31
0.0
  0
LINE
  5
1368A
330
1A
100
AcDbEntity
  8
ZISSEN1
100
AcDbLine
 10
-1718.653248563909
 20
1764.721334453914
 30
0.0
 11
-1718.653248563909
 21
1699.721345453913
 31
0.0
  0
ARC
  5
1368B
330
1A
100
AcDbEntity
  8
ZISSEN1
100
AcDbCircle
 10
-1744.353258563909
 20
1729.221356453914
 30
0.0
 40
2.0
100
AcDbArc
 50
90.0
 51
180.0
  0
ARC
  5
1368C
330
1A
100
AcDbEntity
  8
ZISSEN1
100
AcDbCircle
 10
-1744.353258563909
 20
1727.221349453914
 30
0.0
 40
2.0
100
AcDbArc
 50
180.0
 51
270.0
  0
LINE
  5
1368D
330
1A
100
AcDbEntity
  8
ZISSEN1
100
AcDbLine
 10
-1746.353268563909
 20
1729.221356453914
 30
0.0
 11
-1746.353268563909
 21
1727.221349453914
 31
0.0
  0
LINE
  5
1368E
330
1A
100
AcDbEntity
  8
ZISSEN1
100
AcDbLine
 10
-1743.353258563909
 20
1725.221343453914
 30
0.0
 11
-1743.353258563909
 21
1731.221363453914
 31
0.0
  0
LINE
  5
1368F
330
1A
100
AcDbEntity
  8
ZISSEN1
100
AcDbLine
 10
-1744.353258563909
 20
1725.221343453914
 30
0.0
 11
-1743.353258563909
 21
1725.221343453914
 31
0.0
  0
LINE
  5
13690
330
1A
100
AcDbEntity
  8
ZISSEN1
100
AcDbLine
 10
-1744.353258563909
 20
1731.221363453914
 30
0.0
 11
-1743.353258563909
 21
1731.221363453914
 31
0.0
  0
LINE
  5
13691
330
1A
100
AcDbEntity
  8
ZISSEN1
100
AcDbLine
 10
-1744.353258563909
 20
1783.221334453913
 30
0.0
 11
-1743.353258563909
 21
1783.221334453913
 31
0.0
  0
LINE
  5
13692
330
1A
100
AcDbEntity
  8
ZISSEN1
100
AcDbLine
 10
-1706.453248563909
 20
1764.721334453914
 30
0.0
 11
-1706.453248563909
 21
1699.721352453913
 31
0.0
  0
LINE
  5
13693
330
1A
100
AcDbEntity
  8
ZISSEN1
100
AcDbLine
 10
-1704.853258563909
 20
1764.721334453914
 30
0.0
 11
-1704.853258563909
 21
1699.721352453913
 31
0.0
  0
LINE
  5
13694
330
1A
100
AcDbEntity
  8
ZISSEN1
100
AcDbLine
 10
-1704.653248563909
 20
1764.721334453914
 30
0.0
 11
-1704.653248563909
 21
1699.721345453913
 31
0.0
  0
LINE
  5
13695
330
1A
100
AcDbEntity
  8
ZISSEN1
100
AcDbLine
 10
-1704.853258563909
 20
1700.721349453914
 30
0.0
 11
-1706.453248563909
 21
1700.721349453914
 31
0.0
  0
ARC
  5
13696
330
1A
100
AcDbEntity
  8
ZISSEN1
100
AcDbCircle
 10
-1693.353238563909
 20
1760.221344453912
 30
0.0
 40
2.0
100
AcDbArc
 50
0.0
 51
90.0
  0
LINE
  5
13697
330
1A
100
AcDbEntity
  8
ZISSEN1
100
AcDbLine
 10
-1694.353248563909
 20
1756.221334453913
 30
0.0
 11
-1694.353248563909
 21
1762.221354453914
 31
0.0
  0
ARC
  5
13698
330
1A
100
AcDbEntity
  8
ZISSEN1
100
AcDbCircle
 10
-1693.353238563909
 20
1758.221344453914
 30
0.0
 40
2.0
100
AcDbArc
 50
270.0
 51
0.0
  0
LINE
  5
13699
330
1A
100
AcDbEntity
  8
ZISSEN1
100
AcDbLine
 10
-1693.353238563909
 20
1756.221334453913
 30
0.0
 11
-1694.353248563909
 21
1756.221334453913
 31
0.0
  0
LINE
  5
1369A
330
1A
100
AcDbEntity
  8
ZISSEN1
100
AcDbLine
 10
-1691.353238563909
 20
1760.221344453912
 30
0.0
 11
-1691.353238563909
 21
1758.221344453914
 31
0.0
  0
LINE
  5
1369B
330
1A
100
AcDbEntity
  8
ZISSEN1
100
AcDbLine
 10
-1704.853258563909
 20
1763.721344453912
 30
0.0
 11
-1706.453248563909
 21
1763.721344453912
 31
0.0
  0
LINE
  5
1369C
330
1A
100
AcDbEntity
  8
ZISSEN1
100
AcDbLine
 10
-1693.353238563909
 20
1762.221354453914
 30
0.0
 11
-1694.353248563909
 21
1762.221354453914
 31
0.0
  0
LINE
  5
1369D
330
1A
100
AcDbEntity
  8
ZISSEN1
100
AcDbLine
 10
-1714.863258563909
 20
1817.721324453914
 30
0.0
 11
-1706.453248563909
 21
1817.721324453914
 31
0.0
  0
LINE
  5
1369E
330
1A
100
AcDbEntity
  8
ZISSEN1
100
AcDbLine
 10
-1714.863258563909
 20
1830.439474453913
 30
0.0
 11
-1706.453248563909
 21
1830.439474453913
 31
0.0
  0
LINE
  5
1369F
330
1A
100
AcDbEntity
  8
ZISSEN1
100
AcDbLine
 10
-1714.863258563909
 20
1849.721324453914
 30
0.0
 11
-1706.453248563909
 21
1849.721324453914
 31
0.0
  0
LINE
  5
136A0
330
1A
100
AcDbEntity
  8
ZISSEN1
100
AcDbLine
 10
-1714.863258563909
 20
1832.439464453914
 30
0.0
 11
-1706.453248563909
 21
1832.439464453914
 31
0.0
  0
LINE
  5
136A1
330
1A
100
AcDbEntity
  8
ZISSEN1
100
AcDbLine
 10
-1715.853238563908
 20
1812.721334453914
 30
0.0
 11
-1707.853238563909
 21
1812.721334453914
 31
0.0
  0
LINE
  5
136A2
330
1A
100
AcDbEntity
  8
ZISSEN1
100
AcDbLine
 10
-1715.853268563909
 20
1851.721324453913
 30
0.0
 11
-1706.853258563909
 21
1851.721324453913
 31
0.0
  0
LINE
  5
136A3
330
1A
100
AcDbEntity
  8
ZISSEN1
100
AcDbLine
 10
-1715.853268563909
 20
1815.721334453914
 30
0.0
 11
-1704.853258563909
 21
1815.721334453914
 31
0.0
  0
LINE
  5
136A4
330
1A
100
AcDbEntity
  8
ZISSEN1
100
AcDbLine
 10
-1700.267478563909
 20
1868.721364453914
 30
0.0
 11
-1726.103258563909
 21
1868.721364453914
 31
0.0
  0
LINE
  5
136A5
330
1A
100
AcDbEntity
  8
ZISSEN1
100
AcDbLine
 10
-1743.353258563909
 20
1856.721364453913
 30
0.0
 11
-1698.853258563909
 21
1856.721364453913
 31
0.0
  0
LINE
  5
136A6
330
1A
100
AcDbEntity
  8
ZISSEN1
100
AcDbLine
 10
-1715.853268563909
 20
1851.721324453913
 30
0.0
 11
-1715.853268563909
 21
1815.721334453914
 31
0.0
  0
ARC
  5
136A7
330
1A
100
AcDbEntity
  8
ZISSEN1
100
AcDbCircle
 10
-1744.353258563909
 20
1787.221354453913
 30
0.0
 40
2.0
100
AcDbArc
 50
90.0
 51
180.0
  0
LINE
  5
136A8
330
1A
100
AcDbEntity
  8
ZISSEN1
100
AcDbLine
 10
-1746.353268563909
 20
1787.221354453913
 30
0.0
 11
-1746.353268563909
 21
1785.221344453914
 31
0.0
  0
LINE
  5
136A9
330
1A
100
AcDbEntity
  8
ZISSEN1
100
AcDbLine
 10
-1744.353258563909
 20
1789.221354453913
 30
0.0
 11
-1743.353258563909
 21
1789.221354453913
 31
0.0
  0
LINE
  5
136AA
330
1A
100
AcDbEntity
  8
ZISSEN1
100
AcDbLine
 10
-1714.863258563909
 20
1830.439474453913
 30
0.0
 11
-1714.863258563909
 21
1817.721324453914
 31
0.0
  0
LINE
  5
136AB
330
1A
100
AcDbEntity
  8
ZISSEN1
100
AcDbLine
 10
-1714.863258563909
 20
1849.721324453914
 30
0.0
 11
-1714.863258563909
 21
1832.439464453914
 31
0.0
  0
ARC
  5
136AC
330
1A
100
AcDbEntity
  8
ZISSEN1
100
AcDbCircle
 10
-1728.353258563909
 20
1862.721364453912
 30
0.0
 40
2.25
100
AcDbArc
 50
180.0
 51
0.0
  0
LINE
  5
136AD
330
1A
100
AcDbEntity
  8
CL1
100
AcDbLine
 10
-1731.353268563909
 20
1862.721364453912
 30
0.0
 11
-1725.353248563908
 21
1862.721364453912
 31
0.0
  0
LINE
  5
136AE
330
1A
100
AcDbEntity
  8
ZISSEN1
100
AcDbLine
 10
-1738.853268563909
 20
1867.307144453913
 30
0.0
 11
-1738.853268563909
 21
1856.721364453913
 31
0.0
  0
LINE
  5
136AF
330
1A
100
AcDbEntity
  8
ZISSEN1
100
AcDbLine
 10
-1730.603248563909
 20
1862.721364453912
 30
0.0
 11
-1730.603248563909
 21
1868.721364453914
 31
0.0
  0
LINE
  5
136B0
330
1A
100
AcDbEntity
  8
ZISSEN1
100
AcDbLine
 10
-1738.853268563909
 20
1867.307144453913
 30
0.0
 11
-1737.439048563909
 21
1868.721364453914
 31
0.0
  0
LINE
  5
136B1
330
1A
100
AcDbEntity
  8
ZISSEN1
100
AcDbLine
 10
-1737.439048563909
 20
1868.721364453914
 30
0.0
 11
-1730.603248563909
 21
1868.721364453914
 31
0.0
  0
LINE
  5
136B2
330
1A
100
AcDbEntity
  8
ZISSEN1
100
AcDbLine
 10
-1726.103258563909
 20
1862.721364453912
 30
0.0
 11
-1726.103258563909
 21
1868.721364453914
 31
0.0
  0
LINE
  5
136B3
330
1A
100
AcDbEntity
  8
CL1
100
AcDbLine
 10
-1728.353258563909
 20
1859.721354453913
 30
0.0
 11
-1728.353258563909
 21
1865.721374453913
 31
0.0
  0
LINE
  5
136B4
330
1A
100
AcDbEntity
  8
ZISSEN1
100
AcDbLine
 10
-1704.853258563909
 20
1853.721334453912
 30
0.0
 11
-1704.853258563909
 21
1815.721334453914
 31
0.0
  0
LINE
  5
136B5
330
1A
100
AcDbEntity
  8
ZISSEN1
100
AcDbLine
 10
-1706.453248563909
 20
1853.721334453912
 30
0.0
 11
-1706.453248563909
 21
1815.721334453914
 31
0.0
  0
LINE
  5
136B6
330
1A
100
AcDbEntity
  8
ZISSEN1
100
AcDbLine
 10
-1704.853258563909
 20
1853.721334453912
 30
0.0
 11
-1704.853258563909
 21
1815.721334453914
 31
0.0
  0
LINE
  5
136B7
330
1A
100
AcDbEntity
  8
ZISSEN1
100
AcDbLine
 10
-1704.853258563909
 20
1816.221344453913
 30
0.0
 11
-1706.453248563909
 21
1816.221344453913
 31
0.0
  0
ARC
  5
136B8
330
1A
100
AcDbEntity
  8
ZISSEN1
100
AcDbCircle
 10
-1693.353238563909
 20
1852.721354453913
 30
0.0
 40
2.0
100
AcDbArc
 50
0.0
 51
90.0
  0
LINE
  5
136B9
330
1A
100
AcDbEntity
  8
ZISSEN1
100
AcDbLine
 10
-1694.353248563909
 20
1848.721344453914
 30
0.0
 11
-1694.353248563909
 21
1854.721364453913
 31
0.0
  0
LINE
  5
136BA
330
1A
100
AcDbEntity
  8
ZISSEN1
100
AcDbLine
 10
-1704.853258563909
 20
1853.221354453912
 30
0.0
 11
-1706.453248563909
 21
1853.221354453912
 31
0.0
  0
LINE
  5
136BB
330
1A
100
AcDbEntity
  8
ZISSEN1
100
AcDbLine
 10
-1706.853258563909
 20
1853.721334453912
 30
0.0
 11
-1704.853258563909
 21
1853.721334453912
 31
0.0
  0
LINE
  5
136BC
330
1A
100
AcDbEntity
  8
ZISSEN1
100
AcDbLine
 10
-1706.853258563909
 20
1853.721334453912
 30
0.0
 11
-1706.853258563909
 21
1851.721354453913
 31
0.0
  0
ARC
  5
136BD
330
1A
100
AcDbEntity
  8
ZISSEN1
100
AcDbCircle
 10
-1693.353238563909
 20
1850.721354453913
 30
0.0
 40
2.0
100
AcDbArc
 50
270.0
 51
0.0
  0
LINE
  5
136BE
330
1A
100
AcDbEntity
  8
ZISSEN1
100
AcDbLine
 10
-1693.353238563909
 20
1848.721344453914
 30
0.0
 11
-1694.353248563909
 21
1848.721344453914
 31
0.0
  0
LINE
  5
136BF
330
1A
100
AcDbEntity
  8
ZISSEN1
100
AcDbLine
 10
-1691.353238563909
 20
1852.721354453913
 30
0.0
 11
-1691.353238563909
 21
1850.721354453913
 31
0.0
  0
LINE
  5
136C0
330
1A
100
AcDbEntity
  8
ZISSEN1
100
AcDbLine
 10
-1698.853258563909
 20
1856.721364453913
 30
0.0
 11
-1694.353248563909
 21
1856.721364453913
 31
0.0
  0
LINE
  5
136C1
330
1A
100
AcDbEntity
  8
ZISSEN1
100
AcDbLine
 10
-1698.853258563909
 20
1867.307144453913
 30
0.0
 11
-1698.853258563909
 21
1856.721364453913
 31
0.0
  0
LINE
  5
136C2
330
1A
100
AcDbEntity
  8
CL1
100
AcDbLine
 10
-1708.353268563909
 20
1859.721354453913
 30
0.0
 11
-1708.353268563909
 21
1865.721374453913
 31
0.0
  0
CIRCLE
  5
136C3
330
1A
100
AcDbEntity
  8
ZISSEN1
100
AcDbCircle
 10
-1708.353268563909
 20
1862.721364453912
 30
0.0
 40
2.25
  0
LINE
  5
136C4
330
1A
100
AcDbEntity
  8
CL1
100
AcDbLine
 10
-1711.353278563909
 20
1862.721364453912
 30
0.0
 11
-1705.353258563909
 21
1862.721364453912
 31
0.0
  0
LINE
  5
136C5
330
1A
100
AcDbEntity
  8
ZISSEN1
100
AcDbLine
 10
-1700.267478563909
 20
1868.721364453914
 30
0.0
 11
-1698.853258563909
 21
1867.307144453913
 31
0.0
  0
LINE
  5
136C6
330
1A
100
AcDbEntity
  8
ZISSEN1
100
AcDbLine
 10
-1693.353238563909
 20
1854.721364453913
 30
0.0
 11
-1694.353248563909
 21
1854.721364453913
 31
0.0
  0
MTEXT
  5
136D8
330
1A
100
AcDbEntity
  8
SUNPOU
100
AcDbMText
 10
-1693.46180855013
 20
1887.243581395975
 30
0.0
 40
3.5
 41
24.3808
 71
     1
 72
     5
  1
φ4.5
  7
ゴシック体
1001
ACAD
1000
MTEXTBEGIN
1070
    73
1070
     1
1070
    44
1040
1.0
1070
    74
1070
     0
1000
MTEXTEND
  0
MTEXT
  5
136E6
330
1A
100
AcDbEntity
  8
SUNPOU
100
AcDbMText
 10
-1769.151696010529
 20
1955.180881396433
 30
0.0
 40
3.5
 41
27.7729
 71
     1
 72
     5
  1
端子台カバー
  7
ゴシック体
1001
ACAD
1000
MTEXTBEGIN
1070
    73
1070
     1
1070
    44
1040
1.0
1070
    74
1070
     0
1000
MTEXTEND
  0
DIMENSION
  5
136EB
330
1A
100
AcDbEntity
  8
SUNPOU
100
AcDbDimension
  2
*D24
 10
-1794.669921894266
 20
1952.032174453913
 30
0.0
 11
-1797.838977516968
 21
1958.676969252336
 31
0.0
 70
   160
  3
標準スタイル
100
AcDbAlignedDimension
 13
-1824.231608563908
 23
1955.032184453914
 33
0.0
 14
-1818.231618563909
 24
1952.032174453913
 34
0.0
 50
90.0
100
AcDbRotatedDimension
1001
ACAD
1000
DSTYLE
1002
{
1070
   287
1070
     5
1070
    40
1040
1.0
1070
   279
1070
     2
1002
}
  0
DIMENSION
  5
13705
330
1A
100
AcDbEntity
  8
SUNPOU
100
AcDbDimension
  2
*D25
 10
-1794.669921894266
 20
1903.032154453913
 30
0.0
 11
-1797.419921894266
 21
1927.532164453912
 31
0.0
 70
    32
  3
標準スタイル
100
AcDbAlignedDimension
 13
-1794.669921894266
 23
1952.032174453913
 33
0.0
 14
-1818.231618563909
 24
1903.032154453913
 34
0.0
 50
90.0
100
AcDbRotatedDimension
1001
ACAD
1000
DSTYLE
1002
{
1070
    40
1040
1.0
1002
}
  0
DIMENSION
  5
13711
330
1A
100
AcDbEntity
  8
SUNPOU
100
AcDbDimension
  2
*D26
 10
-1794.633017528296
 20
1900.032144453914
 30
0.0
 11
-1797.383017528296
 21
1892.126053083355
 31
0.0
 70
    32
  3
標準スタイル
100
AcDbAlignedDimension
 13
-1794.669921894266
 23
1903.032154453913
 33
0.0
 14
-1896.231619563909
 24
1900.032144453914
 34
0.0
 50
90.0
100
AcDbRotatedDimension
1001
ACAD
1000
DSTYLE
1002
{
1070
    40
1040
1.0
1002
}
  0
DIMENSION
  5
13720
330
1A
100
AcDbEntity
  8
SUNPOU
100
AcDbDimension
  2
*D27
 10
-1783.317869216162
 20
1900.032144453914
 30
0.0
 11
-1786.067869216162
 21
1927.532164453912
 31
0.0
 70
    32
  3
標準スタイル
100
AcDbAlignedDimension
 13
-1794.169921894265
 23
1955.032184453914
 33
0.0
 14
-1794.633017528296
 24
1900.032144453914
 34
0.0
 50
90.0
100
AcDbRotatedDimension
1001
ACAD
1000
DSTYLE
1002
{
1070
    40
1040
1.0
1002
}
  0
DIMENSION
  5
1372D
330
1A
100
AcDbEntity
  8
SUNPOU
100
AcDbDimension
  2
*D28
 10
-1945.847007649905
 20
1856.721364453913
 30
0.0
 11
-1948.597007649905
 21
1862.721364453912
 31
0.0
 70
    32
  3
標準スタイル
100
AcDbAlignedDimension
 13
-1928.231613563909
 23
1868.721364453914
 33
0.0
 14
-1924.731614563908
 24
1856.721364453913
 34
0.0
 50
90.0
100
AcDbRotatedDimension
1001
ACAD
1000
DSTYLE
1002
{
1070
    40
1040
1.0
1002
}
  0
DIMENSION
  5
1373A
330
1A
100
AcDbEntity
  8
SUNPOU
100
AcDbDimension
  2
*D29
 10
-1945.847007649905
 20
1696.721354453913
 30
0.0
 11
-1948.597007649905
 21
1776.721359453913
 31
0.0
 70
    32
  3
標準スタイル
100
AcDbAlignedDimension
 13
-1945.847007649905
 23
1856.721364453913
 33
0.0
 14
-1925.231615563909
 24
1696.721354453913
 34
0.0
 50
90.0
100
AcDbRotatedDimension
1001
ACAD
1000
DSTYLE
1002
{
1070
    40
1040
1.0
1002
}
  0
DIMENSION
  5
13746
330
1A
100
AcDbEntity
  8
SUNPOU
100
AcDbDimension
  2
*D30
 10
-1945.847007649905
 20
1696.721354453913
 30
0.0
 11
-1948.597007649905
 21
1690.721353453914
 31
0.0
 70
    32
  3
標準スタイル
100
AcDbAlignedDimension
 13
-1928.231613563909
 23
1684.721352453912
 33
0.0
 14
-1945.847007649905
 24
1696.721354453913
 34
0.0
 50
90.0
100
AcDbRotatedDimension
1001
ACAD
1000
DSTYLE
1002
{
1070
    40
1040
1.0
1002
}
  0
DIMENSION
  5
13752
330
1A
100
AcDbEntity
  8
SUNPOU
100
AcDbDimension
  2
*D31
 10
-1925.231615563909
 20
1671.622587564502
 30
0.0
 11
-1917.32552419335
 21
1674.372587564502
 31
0.0
 70
    32
  3
標準スタイル
100
AcDbAlignedDimension
 13
-1928.231613563909
 23
1684.721352453912
 33
0.0
 14
-1925.231615563909
 24
1684.721352453912
 34
0.0
100
AcDbRotatedDimension
1001
ACAD
1000
DSTYLE
1002
{
1070
    40
1040
1.0
1002
}
  0
DIMENSION
  5
13761
330
1A
100
AcDbEntity
  8
SUNPOU
100
AcDbDimension
  2
*D32
 10
-1818.231618563909
 20
1660.505971069234
 30
0.0
 11
-1873.231616063909
 21
1663.255971069234
 31
0.0
 70
    32
  3
標準スタイル
100
AcDbAlignedDimension
 13
-1928.231613563909
 23
1671.122587564503
 33
0.0
 14
-1818.231618563909
 24
1696.721354453913
 34
0.0
100
AcDbRotatedDimension
1001
ACAD
1000
DSTYLE
1002
{
1070
    40
1040
1.0
1002
}
  0
DIMENSION
  5
1376E
330
1A
100
AcDbEntity
  8
SUNPOU
100
AcDbDimension
  2
*D33
 10
-1803.231618563908
 20
1660.505971069234
 30
0.0
 11
-1810.731618563909
 21
1663.255971069234
 31
0.0
 70
    32
  3
標準スタイル
100
AcDbAlignedDimension
 13
-1818.231618563909
 23
1660.505971069234
 33
0.0
 14
-1803.231618563908
 24
1700.221353453914
 34
0.0
100
AcDbRotatedDimension
1001
ACAD
1000
DSTYLE
1002
{
1070
    40
1040
1.0
1002
}
  0
DIMENSION
  5
1377A
330
1A
100
AcDbEntity
  8
SUNPOU
100
AcDbDimension
  2
*D34
 10
-1803.231618563908
 20
1646.939929392114
 30
0.0
 11
-1865.731616063908
 21
1649.689929392114
 31
0.0
 70
    32
  3
標準スタイル
100
AcDbAlignedDimension
 13
-1928.231613563909
 23
1660.505971069234
 33
0.0
 14
-1803.231618563908
 24
1660.005971069234
 34
0.0
100
AcDbRotatedDimension
1001
ACAD
1000
DSTYLE
1002
{
1070
    40
1040
1.0
1002
}
  0
DIMENSION
  5
13787
330
1A
100
AcDbEntity
  8
SUNPOU
100
AcDbDimension
  2
*D35
 10
-1728.353258563909
 20
1660.505971069234
 30
0.0
 11
-1735.853258563909
 21
1663.255971069234
 31
0.0
 70
    32
  3
標準スタイル
100
AcDbAlignedDimension
 13
-1743.353258563909
 23
1696.721354453913
 33
0.0
 14
-1728.353258563909
 24
1690.721353453914
 34
0.0
100
AcDbRotatedDimension
1001
ACAD
1000
DSTYLE
1002
{
1070
    40
1040
1.0
1002
}
  0
DIMENSION
  5
13794
330
1A
100
AcDbEntity
  8
SUNPOU
100
AcDbDimension
  2
*D36
 10
-1708.353268563909
 20
1660.694388468154
 30
0.0
 11
-1718.353263563908
 21
1663.444388468154
 31
0.0
 70
    32
  3
標準スタイル
100
AcDbAlignedDimension
 13
-1728.353258563909
 23
1660.005971069234
 33
0.0
 14
-1708.353268563909
 24
1690.721353453914
 34
0.0
100
AcDbRotatedDimension
1001
ACAD
1000
DSTYLE
1002
{
1070
    40
1040
1.0
1002
}
  0
DIMENSION
  5
137AE
330
1A
100
AcDbEntity
  8
SUNPOU
100
AcDbDimension
  2
*D37
 10
-1694.353248563909
 20
1660.694388468154
 30
0.0
 11
-1701.353258563909
 21
1663.444388468154
 31
0.0
 70
    32
  3
標準スタイル
100
AcDbAlignedDimension
 13
-1708.353268563909
 23
1660.694388468154
 33
0.0
 14
-1694.353248563909
 24
1696.721354453913
 34
0.0
100
AcDbRotatedDimension
1001
ACAD
1000
DSTYLE
1002
{
1070
    40
1040
1.0
1002
}
  0
DIMENSION
  5
137BA
330
1A
100
AcDbEntity
  8
SUNPOU
100
AcDbDimension
  2
*D38
 10
-1726.103258563909
 20
1671.622587564502
 30
0.0
 11
-1715.89640577203
 21
1674.372587564502
 31
0.0
 70
    32
  3
標準スタイル
100
AcDbAlignedDimension
 13
-1730.603248563909
 23
1684.721352453912
 33
0.0
 14
-1726.103258563909
 24
1684.721352453912
 34
0.0
100
AcDbRotatedDimension
1001
ACAD
1000
DSTYLE
1002
{
1070
    40
1040
1.0
1002
}
  0
DIMENSION
  5
137C9
330
1A
100
AcDbEntity
  8
SUNPOU
100
AcDbDimension
  2
*D39
 10
-1694.353248563909
 20
1646.939929392114
 30
0.0
 11
-1718.853253563909
 21
1649.689929392114
 31
0.0
 70
    32
  3
標準スタイル
100
AcDbAlignedDimension
 13
-1743.353258563909
 23
1660.505971069234
 33
0.0
 14
-1694.353248563909
 24
1660.694388468154
 34
0.0
100
AcDbRotatedDimension
1001
ACAD
1000
DSTYLE
1002
{
1070
    40
1040
1.0
1002
}
  0
DIMENSION
  5
137D6
330
1A
100
AcDbEntity
  8
SUNPOU
100
AcDbDimension
  2
*D40
 10
-1762.386256335982
 20
1690.721353453914
 30
0.0
 11
-1765.136256335983
 21
1687.721352953913
 31
0.0
 70
    32
  3
標準スタイル
100
AcDbAlignedDimension
 13
-1737.439048563909
 23
1684.721352453912
 33
0.0
 14
-1728.353258563909
 24
1690.721353453914
 34
0.0
 50
90.0
100
AcDbRotatedDimension
1001
ACAD
1000
DSTYLE
1002
{
1070
    40
1040
1.0
1002
}
  0
DIMENSION
  5
137F2
330
1A
100
AcDbEntity
  8
SUNPOU
100
AcDbDimension
  2
*D41
 10
-1762.197670345032
 20
1862.721364453912
 30
0.0
 11
-1764.947670345033
 21
1776.721358953913
 31
0.0
 70
    32
  3
標準スタイル
100
AcDbAlignedDimension
 13
-1762.386256335982
 23
1690.721353453914
 33
0.0
 14
-1728.353258563909
 24
1862.721364453912
 34
0.0
 50
90.0
100
AcDbRotatedDimension
1001
ACAD
1000
DSTYLE
1002
{
1070
    40
1040
1.0
1002
}
  0
DIMENSION
  5
137FF
330
1A
100
AcDbEntity
  8
SUNPOU
100
AcDbDimension
  2
*D42
 10
-1762.197670345032
 20
1868.721364453914
 30
0.0
 11
-1764.947670345033
 21
1865.721364453913
 31
0.0
 70
    32
  3
標準スタイル
100
AcDbAlignedDimension
 13
-1762.197670345032
 23
1862.721364453912
 33
0.0
 14
-1737.439048563909
 24
1868.721364453914
 34
0.0
 50
90.0
100
AcDbRotatedDimension
1001
ACAD
1000
DSTYLE
1002
{
1070
    40
1040
1.0
1002
}
  0
DIMENSION
  5
1380D
330
1A
100
AcDbEntity
  8
SUNPOU
100
AcDbDimension
  2
*D43
 10
-1806.231608563908
 20
1876.11346492373
 30
0.0
 11
-1812.231613563908
 21
1878.86346492373
 31
0.0
 70
    32
  3
標準スタイル
100
AcDbAlignedDimension
 13
-1818.231618563909
 23
1856.721364453913
 33
0.0
 14
-1806.231608563908
 24
1849.721324453914
 34
0.0
100
AcDbRotatedDimension
1001
ACAD
1000
DSTYLE
1002
{
1070
    40
1040
1.0
1002
}
  0
DIMENSION
  5
1381A
330
1A
100
AcDbEntity
  8
SUNPOU
100
AcDbDimension
  2
*D44
 10
-1790.108369143465
 20
1755.671784453912
 30
0.0
 11
-1792.858369143467
 21
1744.372292068126
 31
0.0
 70
    32
  3
標準スタイル
100
AcDbAlignedDimension
 13
-1803.231618563908
 23
1761.991784453913
 33
0.0
 14
-1803.231618563908
 24
1755.671784453912
 34
0.0
 50
90.0
100
AcDbRotatedDimension
1001
ACAD
1000
DSTYLE
1002
{
1070
    40
1040
1.0
1002
}
  0
DIMENSION
  5
13829
330
1A
100
AcDbEntity
  8
SUNPOU
100
AcDbDimension
  2
*D45
 10
-1728.353258563909
 20
1876.11346492373
 30
0.0
 11
-1735.853258563909
 21
1878.86346492373
 31
0.0
 70
    32
  3
標準スタイル
100
AcDbAlignedDimension
 13
-1743.353258563909
 23
1856.721364453913
 33
0.0
 14
-1728.353258563909
 24
1862.721364453912
 34
0.0
100
AcDbRotatedDimension
1001
ACAD
1000
DSTYLE
1002
{
1070
    40
1040
1.0
1002
}
  0
DIMENSION
  5
13836
330
1A
100
AcDbEntity
  8
SUNPOU
100
AcDbDimension
  2
*D46
 10
-1708.353268563909
 20
1876.11346492373
 30
0.0
 11
-1718.353263563908
 21
1878.86346492373
 31
0.0
 70
    32
  3
標準スタイル
100
AcDbAlignedDimension
 13
-1728.353258563909
 23
1862.721364453912
 33
0.0
 14
-1708.353268563909
 24
1862.721364453912
 34
0.0
100
AcDbRotatedDimension
1001
ACAD
1000
DSTYLE
1002
{
1070
    40
1040
1.0
1002
}
  0
LINE
  5
1384A
330
1A
100
AcDbEntity
  8
SUNPOU
100
AcDbLine
 10
-1769.787715260711
 20
1950.732720028605
 30
0.0
 11
-1741.355345533309
 21
1950.732720028605
 31
0.0
  0
LINE
  5
1384B
330
1A
100
AcDbEntity
  8
SUNPOU
100
AcDbLine
 10
-1693.75514895011
 20
1883.002222017031
 30
0.0
 11
-1680.391219360102
 21
1883.00723733179
 31
0.0
  0
LEADER
  5
13858
330
1A
100
AcDbEntity
  8
SUNPOU
100
AcDbLeader
  3
標準スタイル
 76
     2
 10
-1803.369843622479
 20
1933.850763200098
 30
0.0
 10
-1769.787715260711
 20
1950.732720028605
 30
0.0
1001
ACAD
1000
DSTYLE
1002
{
1070
     5
1000

1070
    77
1070
     0
1070
   147
1040
1.0
1002
}
  0
LEADER
  5
1386D
330
1A
100
AcDbEntity
  8
SUNPOU
100
AcDbLeader
  3
標準スタイル
 76
     2
 10
-1707.182036964685
 20
1864.524506013038
 30
0.0
 10
-1693.765427565426
 20
1883.025791512332
 30
0.0
1001
ACAD
1000
DSTYLE
1002
{
1070
     5
1000

1070
    77
1070
     0
1070
   147
1040
1.0
1002
}
  0
VIEWPORT
  5
5D8F
330
5D8E
100
AcDbEntity
 67
     1
  8
0
100
AcDbViewport
 10
346.7854093706737
 20
426.5450964524863
 30
0.0
 40
765.0629663946477
 41
872.9042887853827
 68
     1
 69
     1
1001
ACAD
1000
MVIEW
1002
{
1070
    16
1010
0.0
1020
0.0
1030
0.0
1010
0.0
1020
0.0
1030
1.0
1040
0.0
1040
872.9042887853827
1040
346.7854093706737
1040
426.5450964524863
1040
50.0
1040
0.0
1040
0.0
1070
     0
1070
   100
1070
     1
1070
     0
1070
     0
1070
     0
1070
     0
1070
     0
1040
0.0
1040
0.0
1040
0.0
1040
1.0
1040
1.0
1040
10.0
1040
10.0
1070
     0
1002
{
1002
}
1002
}
  0
VIEWPORT
  5
6001
330
5D8E
100
AcDbEntity
 67
     1
  8
ZISSEN1
100
AcDbViewport
 10
221.7861955525411
 20
157.6960273330388
 30
0.0
 40
385.4999999999997
 41
259.9999999999999
 68
     2
 69
     2
1001
ACAD
1000
MVIEW
1002
{
1070
    16
1010
0.0
1020
0.0
1030
0.0
1010
0.0
1020
0.0
1030
1.0
1040
0.0
1040
519.9999999999999
1040
-1815.294775817545
1040
1803.736056923013
1040
50.0
1040
0.0
1040
0.0
1070
     0
1070
   100
1070
     1
1070
     0
1070
     0
1070
     0
1070
     0
1070
     0
1040
0.0
1040
0.0
1040
0.0
1040
1.0
1040
1.0
1040
10.0
1040
10.0
1070
     0
1002
{
1002
}
1002
}
  0
TEXT
  5
716F
330
5D8E
100
AcDbEntity
 67
     1
  8
SUNPOU
 62
     0
100
AcDbText
 10
374.1863124306943
 20
60.86794705907585
 30
0.0
 40
3.5
  1
縮尺 1/2
  7
ゴシック体
100
AcDbText
  0
ENDSEC
  0
SECTION
  2
OBJECTS
  0
DICTIONARY
  5
C
330
0
100
AcDbDictionary
  3
ACAD_GROUP
350
D
  3
ACAD_LAYOUT
350
5C7D
  3
ACAD_MLINESTYLE
350
E
  3
ACAD_PLOTSETTINGS
350
5C7E
  3
ACAD_PLOTSTYLENAME
350
5C7B
  3
ACADDIM
350
1386A
  3
DWGPROPS
350
5E8E
  3
ACDBVARIABLEDICTIONARY
350
13883
  3
ACDBHEADERROUNDTRIPXREC
350
1388E
  0
DICTIONARY
  5
138AE
330
1A
100
AcDbDictionary
280
     1
  3
ACAD_LAYOUTSELFREF
360
138AF
  0
DICTIONARY
  5
138B0
330
5D8E
100
AcDbDictionary
280
     1
  3
ACAD_LAYOUTSELFREF
360
138B1
  0
DICTIONARY
  5
D
102
{ACAD_REACTORS
330
C
102
}
330
C
100
AcDbDictionary
  3
*A1
350
477D
  3
*A2
350
4C16
  3
*A3
350
4C17
  3
*A4
350
477E
  3
*A5
350
477F
  3
*A6
350
4780
  3
*A7
350
4781
  3
*A8
350
4C0E
  3
*A9
350
4C0F
  3
*A10
350
4C10
  3
*A11
350
4C11
  3
*A12
350
4C12
  3
*A13
350
4C13
  3
*A14
350
4C14
  3
*A15
350
4C15
  0
DICTIONARY
  5
5C7D
102
{ACAD_REACTORS
330
C
102
}
330
C
100
AcDbDictionary
  0
DICTIONARY
  5
E
102
{ACAD_REACTORS
330
C
102
}
330
C
100
AcDbDictionary
  3
STANDARD
350
13
  0
DICTIONARY
  5
5C7E
102
{ACAD_REACTORS
330
C
102
}
330
C
100
AcDbDictionary
  0
ACDBDICTIONARYWDFLT
  5
5C7B
102
{ACAD_REACTORS
330
C
102
}
330
C
100
AcDbDictionary
281
     1
  3
Normal
350
5C7C
100
AcDbDictionaryWithDefault
340
5C7C
  0
XRECORD
  5
1386A
102
{ACAD_REACTORS
330
C
102
}
330
C
100
AcDbXrecord
 90
   990106
  3

 60
     0
 61
     0
 62
     1
 63
     3
 64
     0
 65
     0
 66
     0
 67
     3
 68
     1
 69
     0
 70
     0
 71
     0
 72
     0
 40
0.0
170
     0
  0
XRECORD
  5
5E8E
102
{ACAD_REACTORS
330
C
102
}
330
C
100
AcDbXrecord
  1
DWGPROPS COOKIE
  2

  3

  4

  6

  7

  8

  9

300
=
301
=
302
=
303
=
304
=
305
=
306
=
307
=
308
=
309
=
 40
0.586753587962963
 41
2450495.493631364
 42
2453208.662277431
  1

 90
        0
  0
DICTIONARY
  5
13883
102
{ACAD_REACTORS
330
C
102
}
330
C
100
AcDbDictionary
  3
INDEXCTL
350
13884
  0
DICTIONARY
  5
1388E
102
{ACAD_REACTORS
330
C
102
}
330
C
100
AcDbDictionary
  3
TSTACKALIGN
350
1388F
  3
TSTACKSIZE
350
13890
  3
HYPERLINKBASE
350
13891
  3
STYLESHEET
350
13892
  3
LAYOUTDICT
350
13893
  3
PLOTSETDICT
350
13894
  3
PLOTSTYLNAMDICT
350
13895
  3
LWETCUNION
350
13896
  3
INSUNITS
350
13897
  3
CEPSNTYPE
350
13898
  3
FINGERPRINTGUID
350
13899
  3
VERSIONGUID
350
1389A
  3
PSVPSCALE
350
1389B
  3
PUCSORTHOREF
350
1389C
  3
PUCSORTHOVIEW
350
1389D
  3
PUCSBASE
350
1389E
  3
PUCSORGTOP
350
1389F
  3
PUCSORGBOTTOM
350
138A0
  3
PUCSORGLEFT
350
138A1
  3
PUCSORGRIGHT
350
138A2
  3
PUCSORGFRONT
350
138A3
  3
PUCSORGBACK
350
138A4
  3
UCSORTHOREF
350
138A5
  3
UCSORTHOVIEW
350
138A6
  3
UCSBASE
350
138A7
  3
UCSORGTOP
350
138A8
  3
UCSORGBOTTOM
350
138A9
  3
UCSORGLEFT
350
138AA
  3
UCSORGRIGHT
350
138AB
  3
UCSORGFRONT
350
138AC
  3
UCSORGBACK
350
138AD
  0
XRECORD
  5
138AF
102
{ACAD_REACTORS
330
138AE
102
}
330
138AE
100
AcDbXrecord
340
1A
  0
XRECORD
  5
138B1
102
{ACAD_REACTORS
330
138B0
102
}
330
138B0
100
AcDbXrecord
340
5D8E
  0
GROUP
  5
477D
102
{ACAD_REACTORS
330
D
102
}
330
D
100
AcDbGroup
300

 70
     1
 71
     1
  0
GROUP
  5
4C16
102
{ACAD_REACTORS
330
D
102
}
330
D
100
AcDbGroup
300

 70
     1
 71
     1
  0
GROUP
  5
4C17
102
{ACAD_REACTORS
330
D
102
}
330
D
100
AcDbGroup
300

 70
     1
 71
     1
  0
GROUP
  5
477E
102
{ACAD_REACTORS
330
D
102
}
330
D
100
AcDbGroup
300

 70
     1
 71
     1
  0
GROUP
  5
477F
102
{ACAD_REACTORS
330
D
102
}
330
D
100
AcDbGroup
300

 70
     1
 71
     1
  0
GROUP
  5
4780
102
{ACAD_REACTORS
330
D
102
}
330
D
100
AcDbGroup
300

 70
     1
 71
     1
  0
GROUP
  5
4781
102
{ACAD_REACTORS
330
D
102
}
330
D
100
AcDbGroup
300

 70
     1
 71
     1
  0
GROUP
  5
4C0E
102
{ACAD_REACTORS
330
D
102
}
330
D
100
AcDbGroup
300

 70
     1
 71
     1
  0
GROUP
  5
4C0F
102
{ACAD_REACTORS
330
D
102
}
330
D
100
AcDbGroup
300

 70
     1
 71
     1
  0
GROUP
  5
4C10
102
{ACAD_REACTORS
330
D
102
}
330
D
100
AcDbGroup
300

 70
     1
 71
     1
  0
GROUP
  5
4C11
102
{ACAD_REACTORS
330
D
102
}
330
D
100
AcDbGroup
300

 70
     1
 71
     1
  0
GROUP
  5
4C12
102
{ACAD_REACTORS
330
D
102
}
330
D
100
AcDbGroup
300

 70
     1
 71
     1
  0
GROUP
  5
4C13
102
{ACAD_REACTORS
330
D
102
}
330
D
100
AcDbGroup
300

 70
     1
 71
     1
  0
GROUP
  5
4C14
102
{ACAD_REACTORS
330
D
102
}
330
D
100
AcDbGroup
300

 70
     1
 71
     1
  0
GROUP
  5
4C15
102
{ACAD_REACTORS
330
D
102
}
330
D
100
AcDbGroup
300

 70
     1
 71
     1
  0
MLINESTYLE
  5
13
102
{ACAD_REACTORS
330
E
102
}
330
E
100
AcDbMlineStyle
  2
STANDARD
 70
     0
  3

 62
     0
 51
90.0
 52
90.0
 71
     2
 49
0.5
 62
   256
  6
BYLAYER
 49
-0.5
 62
   256
  6
BYLAYER
  0
ACDBPLACEHOLDER
  5
5C7C
102
{ACAD_REACTORS
330
5C7B
102
}
330
5C7B
100
AcDbPlaceHolder
280
     0
  0
DICTIONARYVAR
  5
13884
102
{ACAD_REACTORS
330
13883
102
}
330
13883
100
DictionaryVariables
280
     0
  1
-1
  0
XRECORD
  5
1388F
102
{ACAD_REACTORS
330
1388E
102
}
330
1388E
100
AcDbXrecord
 90
        1
  0
XRECORD
  5
13890
102
{ACAD_REACTORS
330
1388E
102
}
330
1388E
100
AcDbXrecord
 90
       70
  0
XRECORD
  5
13891
102
{ACAD_REACTORS
330
1388E
102
}
330
1388E
100
AcDbXrecord
  1

  0
XRECORD
  5
13892
102
{ACAD_REACTORS
330
1388E
102
}
330
1388E
100
AcDbXrecord
  1

  0
XRECORD
  5
13893
102
{ACAD_REACTORS
330
1388E
102
}
330
1388E
100
AcDbXrecord
340
5C7D
  0
XRECORD
  5
13894
102
{ACAD_REACTORS
330
1388E
102
}
330
1388E
100
AcDbXrecord
340
5C7E
  0
XRECORD
  5
13895
102
{ACAD_REACTORS
330
1388E
102
}
330
1388E
100
AcDbXrecord
340
5C7B
  0
XRECORD
  5
13896
102
{ACAD_REACTORS
330
1388E
102
}
330
1388E
100
AcDbXrecord
 90
    10781
  0
XRECORD
  5
13897
102
{ACAD_REACTORS
330
1388E
102
}
330
1388E
100
AcDbXrecord
 90
        0
  0
XRECORD
  5
13898
102
{ACAD_REACTORS
330
1388E
102
}
330
1388E
100
AcDbXrecord
 90
        0
  0
XRECORD
  5
13899
102
{ACAD_REACTORS
330
1388E
102
}
330
1388E
100
AcDbXrecord
  1
{225A7F0D-DA29-11D8-946A-0000E2416295}
  0
XRECORD
  5
1389A
102
{ACAD_REACTORS
330
1388E
102
}
330
1388E
100
AcDbXrecord
  1
{8113AFEF-FCAC-4AE5-AD44-1CDE4517941A}
  0
XRECORD
  5
1389B
102
{ACAD_REACTORS
330
1388E
102
}
330
1388E
100
AcDbXrecord
 40
0.0
  0
XRECORD
  5
1389C
102
{ACAD_REACTORS
330
1388E
102
}
330
1388E
100
AcDbXrecord
340
0
  0
XRECORD
  5
1389D
102
{ACAD_REACTORS
330
1388E
102
}
330
1388E
100
AcDbXrecord
 70
     0
  0
XRECORD
  5
1389E
102
{ACAD_REACTORS
330
1388E
102
}
330
1388E
100
AcDbXrecord
340
0
  0
XRECORD
  5
1389F
102
{ACAD_REACTORS
330
1388E
102
}
330
1388E
100
AcDbXrecord
 10
0.0
 20
0.0
 30
0.0
  0
XRECORD
  5
138A0
102
{ACAD_REACTORS
330
1388E
102
}
330
1388E
100
AcDbXrecord
 10
0.0
 20
0.0
 30
0.0
  0
XRECORD
  5
138A1
102
{ACAD_REACTORS
330
1388E
102
}
330
1388E
100
AcDbXrecord
 10
0.0
 20
0.0
 30
0.0
  0
XRECORD
  5
138A2
102
{ACAD_REACTORS
330
1388E
102
}
330
1388E
100
AcDbXrecord
 10
0.0
 20
0.0
 30
0.0
  0
XRECORD
  5
138A3
102
{ACAD_REACTORS
330
1388E
102
}
330
1388E
100
AcDbXrecord
 10
0.0
 20
0.0
 30
0.0
  0
XRECORD
  5
138A4
102
{ACAD_REACTORS
330
1388E
102
}
330
1388E
100
AcDbXrecord
 10
0.0
 20
0.0
 30
0.0
  0
XRECORD
  5
138A5
102
{ACAD_REACTORS
330
1388E
102
}
330
1388E
100
AcDbXrecord
340
0
  0
XRECORD
  5
138A6
102
{ACAD_REACTORS
330
1388E
102
}
330
1388E
100
AcDbXrecord
 70
     0
  0
XRECORD
  5
138A7
102
{ACAD_REACTORS
330
1388E
102
}
330
1388E
100
AcDbXrecord
340
0
  0
XRECORD
  5
138A8
102
{ACAD_REACTORS
330
1388E
102
}
330
1388E
100
AcDbXrecord
 10
0.0
 20
0.0
 30
0.0
  0
XRECORD
  5
138A9
102
{ACAD_REACTORS
330
1388E
102
}
330
1388E
100
AcDbXrecord
 10
0.0
 20
0.0
 30
0.0
  0
XRECORD
  5
138AA
102
{ACAD_REACTORS
330
1388E
102
}
330
1388E
100
AcDbXrecord
 10
0.0
 20
0.0
 30
0.0
  0
XRECORD
  5
138AB
102
{ACAD_REACTORS
330
1388E
102
}
330
1388E
100
AcDbXrecord
 10
0.0
 20
0.0
 30
0.0
  0
XRECORD
  5
138AC
102
{ACAD_REACTORS
330
1388E
102
}
330
1388E
100
AcDbXrecord
 10
0.0
 20
0.0
 30
0.0
  0
XRECORD
  5
138AD
102
{ACAD_REACTORS
330
1388E
102
}
330
1388E
100
AcDbXrecord
 10
0.0
 20
0.0
 30
0.0
  0
ENDSEC
  0
EOF
