  0
SECTION
  2
HEADER
  9
$ACADVER
  1
AC1014
  9
$ACADMAINTVER
 70
     9
  9
$DWGCODEPAGE
  3
ANSI_932
  9
$INSBASE
 10
0.0
 20
0.0
 30
0.0
  9
$EXTMIN
 10
-1890.943893335809
 20
1679.101742155456
 30
0.0
  9
$EXTMAX
 10
-1648.764405587521
 20
1913.392132607379
 30
0.0
  9
$LIMMIN
 10
0.0
 20
0.0
  9
$LIMMAX
 10
420.0
 20
297.0
  9
$ORTHOMODE
 70
     0
  9
$REGENMODE
 70
     1
  9
$FILLMODE
 70
     1
  9
$QTEXTMODE
 70
     0
  9
$MIRRTEXT
 70
     1
  9
$DRAGMODE
 70
     2
  9
$LTSCALE
 40
1.0
  9
$OSMODE
 70
    37
  9
$ATTMODE
 70
     1
  9
$TEXTSIZE
 40
2.5
  9
$TRACEWID
 40
1.0
  9
$TEXTSTYLE
  7
ゴシック体
  9
$CLAYER
  8
ZISSEN1
  9
$CELTYPE
  6
BYLAYER
  9
$CECOLOR
 62
   256
  9
$CELTSCALE
 40
1.0
  9
$DELOBJ
 70
     1
  9
$DISPSILH
 70
     0
  9
$DIMSCALE
 40
0.0
  9
$DIMASZ
 40
3.0
  9
$DIMEXO
 40
0.5
  9
$DIMDLI
 40
0.5
  9
$DIMRND
 40
0.0
  9
$DIMDLE
 40
0.0
  9
$DIMEXE
 40
0.5
  9
$DIMTP
 40
0.0
  9
$DIMTM
 40
0.0
  9
$DIMTXT
 40
3.5
  9
$DIMCEN
 40
0.0
  9
$DIMTSZ
 40
0.0
  9
$DIMTOL
 70
     0
  9
$DIMLIM
 70
     0
  9
$DIMTIH
 70
     0
  9
$DIMTOH
 70
     0
  9
$DIMSE1
 70
     0
  9
$DIMSE2
 70
     0
  9
$DIMTAD
 70
     1
  9
$DIMZIN
 70
     8
  9
$DIMBLK
  1

  9
$DIMASO
 70
     1
  9
$DIMSHO
 70
     1
  9
$DIMPOST
  1

  9
$DIMAPOST
  1

  9
$DIMALT
 70
     0
  9
$DIMALTD
 70
     2
  9
$DIMALTF
 40
25.4
  9
$DIMLFAC
 40
1.0
  9
$DIMTOFL
 70
     1
  9
$DIMTVP
 40
0.0
  9
$DIMTIX
 70
     0
  9
$DIMSOXD
 70
     0
  9
$DIMSAH
 70
     0
  9
$DIMBLK1
  1

  9
$DIMBLK2
  1

  9
$DIMSTYLE
  2
標準スタイル
  9
$DIMCLRD
 70
     1
  9
$DIMCLRE
 70
     1
  9
$DIMCLRT
 70
     1
  9
$DIMTFAC
 40
1.0
  9
$DIMGAP
 40
1.0
  9
$DIMJUST
 70
     0
  9
$DIMSD1
 70
     0
  9
$DIMSD2
 70
     0
  9
$DIMTOLJ
 70
     1
  9
$DIMTZIN
 70
     8
  9
$DIMALTZ
 70
     0
  9
$DIMALTTZ
 70
     0
  9
$DIMFIT
 70
     3
  9
$DIMUPT
 70
     0
  9
$DIMUNIT
 70
     2
  9
$DIMDEC
 70
     2
  9
$DIMTDEC
 70
     2
  9
$DIMALTU
 70
     2
  9
$DIMALTTD
 70
     2
  9
$DIMTXSTY
  7
ゴシック体
  9
$DIMAUNIT
 70
     0
  9
$LUNITS
 70
     2
  9
$LUPREC
 70
     4
  9
$SKETCHINC
 40
1.0
  9
$FILLETRAD
 40
0.0
  9
$AUNITS
 70
     0
  9
$AUPREC
 70
     0
  9
$MENU
  1
.
  9
$ELEVATION
 40
0.0
  9
$PELEVATION
 40
0.0
  9
$THICKNESS
 40
0.0
  9
$LIMCHECK
 70
     0
  9
$BLIPMODE
 70
     0
  9
$CHAMFERA
 40
10.0
  9
$CHAMFERB
 40
10.0
  9
$CHAMFERC
 40
2.0
  9
$CHAMFERD
 40
0.7853981633974483
  9
$SKPOLY
 70
     0
  9
$TDCREATE
 40
2450495.493631365
  9
$TDUPDATE
 40
2453984.396710555
  9
$TDINDWG
 40
1.6015815972
  9
$TDUSRTIMER
 40
1.6015814815
  9
$USRTIMER
 70
     1
  9
$ANGBASE
 50
0.0
  9
$ANGDIR
 70
     0
  9
$PDMODE
 70
    99
  9
$PDSIZE
 40
0.0
  9
$PLINEWID
 40
0.0
  9
$COORDS
 70
     1
  9
$SPLFRAME
 70
     0
  9
$SPLINETYPE
 70
     6
  9
$SPLINESEGS
 70
     8
  9
$ATTDIA
 70
     0
  9
$ATTREQ
 70
     1
  9
$HANDLING
 70
 10241
  9
$HANDSEED
  5
12199
  9
$SURFTAB1
 70
     6
  9
$SURFTAB2
 70
     6
  9
$SURFTYPE
 70
     6
  9
$SURFU
 70
     6
  9
$SURFV
 70
     6
  9
$UCSNAME
  2

  9
$UCSORG
 10
0.0
 20
0.0
 30
0.0
  9
$UCSXDIR
 10
1.0
 20
0.0
 30
0.0
  9
$UCSYDIR
 10
0.0
 20
1.0
 30
0.0
  9
$PUCSNAME
  2

  9
$PUCSORG
 10
0.0
 20
0.0
 30
0.0
  9
$PUCSXDIR
 10
1.0
 20
0.0
 30
0.0
  9
$PUCSYDIR
 10
0.0
 20
1.0
 30
0.0
  9
$USERI1
 70
     0
  9
$USERI2
 70
     0
  9
$USERI3
 70
     0
  9
$USERI4
 70
     0
  9
$USERI5
 70
     0
  9
$USERR1
 40
0.0
  9
$USERR2
 40
0.0
  9
$USERR3
 40
0.0
  9
$USERR4
 40
0.0
  9
$USERR5
 40
0.0
  9
$WORLDVIEW
 70
     1
  9
$SHADEDGE
 70
     3
  9
$SHADEDIF
 70
    70
  9
$TILEMODE
 70
     1
  9
$MAXACTVP
 70
    16
  9
$PINSBASE
 10
0.0
 20
0.0
 30
0.0
  9
$PLIMCHECK
 70
     0
  9
$PEXTMIN
 10
29.03619555254133
 20
27.69602733303884
 30
0.0
  9
$PEXTMAX
 10
414.536195552541
 20
287.6960273330388
 30
0.0
  9
$PLIMMIN
 10
11.13088392171084
 20
6.367460636892701
  9
$PLIMMAX
 10
431.0775391951483
 20
303.3781112716583
  9
$UNITMODE
 70
     0
  9
$VISRETAIN
 70
     0
  9
$PLINEGEN
 70
     0
  9
$PSLTSCALE
 70
     1
  9
$TREEDEPTH
 70
  3020
  9
$PICKSTYLE
 70
     1
  9
$CMLSTYLE
  2
STANDARD
  9
$CMLJUST
 70
     0
  9
$CMLSCALE
 40
1.0
  9
$PROXYGRAPHICS
 70
     1
  9
$MEASUREMENT
 70
     1
  0
ENDSEC
  0
SECTION
  2
CLASSES
  0
CLASS
  1
LWPOLYLINE
  2
AcDbPolyline
  3
AutoCAD 2000
 90
        0
280
     0
281
     1
  0
CLASS
  1
HATCH
  2
AcDbHatch
  3
AutoCAD 2000
 90
        0
280
     0
281
     1
  0
CLASS
  1
ACDBDICTIONARYWDFLT
  2
AcDbDictionaryWithDefault
  3
AutoCAD 2000
 90
        0
280
     0
281
     0
  0
CLASS
  1
ACDBPLACEHOLDER
  2
AcDbPlaceHolder
  3
AutoCAD 2000
 90
        0
280
     0
281
     0
  0
CLASS
  1
LAYOUT
  2
AcDbLayout
  3
AutoCAD 2000
 90
        0
280
     0
281
     0
  0
CLASS
  1
DICTIONARYVAR
  2
AcDbDictionaryVar
  3
AutoCAD 2000
 90
        0
280
     0
281
     0
  0
CLASS
  1
LONG_TRANSACTION
  2
AcDbLongTransaction
  3
AutoCAD 2000
 90
        0
280
     0
281
     0
  0
CLASS
  1
LWPOLYLINE
  2
AcDbPolyline
  3
AutoCAD 2000
 90
        0
280
     0
281
     1
  0
CLASS
  1
HATCH
  2
AcDbHatch
  3
AutoCAD 2000
 90
        0
280
     0
281
     1
  0
CLASS
  1
XRECORD
  2
AcDbXrecord
  3
AutoCAD 2000
 90
        0
280
     0
281
     0
  0
ENDSEC
  0
SECTION
  2
TABLES
  0
TABLE
  2
VPORT
  5
8
330
0
100
AcDbSymbolTable
 70
     2
  0
VPORT
  5
12174
330
8
100
AcDbSymbolTableRecord
100
AcDbViewportTableRecord
  2
*ACTIVE
 70
     0
 10
0.0
 20
0.0
 11
1.0
 21
1.0
 12
-1680.729411913848
 22
1800.166037231388
 13
0.0
 23
0.0
 14
5.0
 24
5.0
 15
0.0
 25
0.0
 16
0.0
 26
0.0
 36
1.0
 17
0.0
 27
0.0
 37
0.0
 40
327.0480718673108
 41
2.192560175054704
 42
50.0
 43
0.0
 44
0.0
 50
0.0
 51
0.0
 71
     0
 72
   100
 73
     1
 74
     0
 75
     0
 76
     0
 77
     0
 78
     0
  0
ENDTAB
  0
TABLE
  2
LTYPE
  5
5
330
0
100
AcDbSymbolTable
 70
    13
  0
LTYPE
  5
14
330
5
100
AcDbSymbolTableRecord
100
AcDbLinetypeTableRecord
  2
BYBLOCK
 70
     0
  3

 72
    65
 73
     0
 40
0.0
  0
LTYPE
  5
15
330
5
100
AcDbSymbolTableRecord
100
AcDbLinetypeTableRecord
  2
BYLAYER
 70
     0
  3

 72
    65
 73
     0
 40
0.0
  0
LTYPE
  5
16
330
5
100
AcDbSymbolTableRecord
100
AcDbLinetypeTableRecord
  2
CONTINUOUS
 70
     0
  3
Solid line
 72
    65
 73
     0
 40
0.0
  0
LTYPE
  5
1956
330
5
100
AcDbSymbolTableRecord
100
AcDbLinetypeTableRecord
  2
CENTERX2
 70
     0
  3
________  __  ________  __  ________  __  _____
 72
    65
 73
     4
 40
4.0
 49
2.5
 74
     0
 49
-0.5
 74
     0
 49
0.5
 74
     0
 49
-0.5
 74
     0
  0
ENDTAB
  0
TABLE
  2
LAYER
  5
2
330
0
100
AcDbSymbolTable
 70
    34
  0
LAYER
  5
F
330
2
100
AcDbSymbolTableRecord
100
AcDbLayerTableRecord
  2
0
 70
     0
 62
     7
  6
CONTINUOUS
  0
LAYER
  5
18F
330
2
100
AcDbSymbolTableRecord
100
AcDbLayerTableRecord
  2
ZISSEN1
 70
     0
 62
     7
  6
CONTINUOUS
  0
LAYER
  5
191
330
2
100
AcDbSymbolTableRecord
100
AcDbLayerTableRecord
  2
SAISEN
 70
     0
 62
     1
  6
CONTINUOUS
  0
LAYER
  5
529
330
2
100
AcDbSymbolTableRecord
100
AcDbLayerTableRecord
  2
SUNPOU
 70
     0
 62
     1
  6
CONTINUOUS
  0
LAYER
  5
195A
330
2
100
AcDbSymbolTableRecord
100
AcDbLayerTableRecord
  2
CL1
 70
     0
 62
   210
  6
CENTERX2
  0
LAYER
  5
3A9B
330
2
100
AcDbSymbolTableRecord
100
AcDbLayerTableRecord
  2
DEFPOINTS
 70
     0
 62
     7
  6
CONTINUOUS
  0
ENDTAB
  0
TABLE
  2
STYLE
  5
3
330
0
100
AcDbSymbolTable
 70
     5
  0
STYLE
  5
10
330
3
100
AcDbSymbolTableRecord
100
AcDbTextStyleTableRecord
  2
STANDARD
 70
     0
 40
0.0
 41
1.0
 50
0.0
 71
     0
 42
3.0
  3
txt
  4
BigFont
  0
STYLE
  5
1960
330
3
100
AcDbSymbolTableRecord
100
AcDbTextStyleTableRecord
  2
ゴシック体
 70
     0
 40
0.0
 41
1.0
 50
0.0
 71
     0
 42
2.5
  3
MS Gothic.ttf
  4

1001
ACAD
1000
MS Gothic
1071
    32817
  0
ENDTAB
  0
TABLE
  2
VIEW
  5
6
330
0
100
AcDbSymbolTable
 70
     0
  0
ENDTAB
  0
TABLE
  2
UCS
  5
7
330
0
100
AcDbSymbolTable
 70
     0
  0
ENDTAB
  0
TABLE
  2
APPID
  5
9
330
0
100
AcDbSymbolTable
 70
     5
  0
APPID
  5
11
330
9
100
AcDbSymbolTableRecord
100
AcDbRegAppTableRecord
  2
ACAD
 70
     0
  0
APPID
  5
4005
330
9
100
AcDbSymbolTableRecord
100
AcDbRegAppTableRecord
  2
CONTENTTABDATA
 70
     0
  0
APPID
  5
4006
330
9
100
AcDbSymbolTableRecord
100
AcDbRegAppTableRecord
  2
CONTENTCURRENTTAB
 70
     0
  0
APPID
  5
477B
330
9
100
AcDbSymbolTableRecord
100
AcDbRegAppTableRecord
  2
CONTENTBLOCKDESCRIPTION
 70
     0
  0
APPID
  5
477C
330
9
100
AcDbSymbolTableRecord
100
AcDbRegAppTableRecord
  2
CONTENTBLOCKICON
 70
     0
  0
ENDTAB
  0
TABLE
  2
DIMSTYLE
  5
A
330
0
100
AcDbSymbolTable
 70
    12
  0
DIMSTYLE
105
1D
330
A
100
AcDbSymbolTableRecord
100
AcDbDimStyleTableRecord
  2
STANDARD
 70
     0
  3

  4

  5

  6

  7

 40
1.0
 41
0.18
 42
0.0625
 43
0.38
 44
0.18
 45
0.0
 46
0.0
 47
0.0
 48
0.0
140
0.18
141
0.09
142
0.0
143
25.4
144
1.0
145
0.0
146
1.0
147
0.09
 71
     0
 72
     0
 73
     1
 74
     1
 75
     0
 76
     0
 77
     0
 78
     0
170
     0
171
     2
172
     0
173
     0
174
     0
175
     0
176
     0
177
     0
178
     0
270
     2
271
     4
272
     4
273
     2
274
     2
340
10
275
     0
280
     0
281
     0
282
     0
283
     1
284
     0
285
     0
286
     0
287
     3
288
     0
  0
DIMSTYLE
105
52E
102
{ACAD_REACTORS
330
11D0B
330
11D1C
330
11DBA
330
11DF0
330
11E0C
330
11E1B
330
11E28
330
11E37
330
11E44
330
11E60
330
11E6E
330
11E7B
330
11E8A
330
11E99
330
11EA6
330
11EB3
330
11EC1
330
11ED0
330
11EDD
102
}
330
A
100
AcDbSymbolTableRecord
100
AcDbDimStyleTableRecord
  2
標準スタイル
 70
     0
  3

  4

  5

  6

  7

 40
0.0
 41
3.0
 42
0.5
 43
0.5
 44
0.5
 45
0.0
 46
0.0
 47
0.0
 48
0.0
140
3.5
141
0.0
142
0.0
143
25.4
144
1.0
145
0.0
146
1.0
147
1.0
 71
     0
 72
     0
 73
     0
 74
     0
 75
     0
 76
     0
 77
     1
 78
     8
170
     0
171
     2
172
     1
173
     0
174
     0
175
     0
176
     1
177
     1
178
     1
270
     2
271
     2
272
     2
273
     2
274
     2
340
1960
275
     0
280
     0
281
     0
282
     0
283
     1
284
     8
285
     0
286
     0
287
     3
288
     0
  0
ENDTAB
  0
TABLE
  2
BLOCK_RECORD
  5
1
330
0
100
AcDbSymbolTable
 70
    42
  0
BLOCK_RECORD
  5
1A
102
{ACAD_XDICTIONARY
360
12195
102
}
330
1
100
AcDbSymbolTableRecord
100
AcDbBlockTableRecord
  2
*MODEL_SPACE
  0
BLOCK_RECORD
  5
5D8E
102
{ACAD_XDICTIONARY
360
12197
102
}
330
1
100
AcDbSymbolTableRecord
100
AcDbBlockTableRecord
  2
*PAPER_SPACE
  0
BLOCK_RECORD
  5
11D0C
330
1
100
AcDbSymbolTableRecord
100
AcDbBlockTableRecord
  2
*D23
  0
BLOCK_RECORD
  5
11D1D
330
1
100
AcDbSymbolTableRecord
100
AcDbBlockTableRecord
  2
*D24
  0
BLOCK_RECORD
  5
11DBB
330
1
100
AcDbSymbolTableRecord
100
AcDbBlockTableRecord
  2
*D25
  0
BLOCK_RECORD
  5
11DF1
330
1
100
AcDbSymbolTableRecord
100
AcDbBlockTableRecord
  2
*D26
  0
BLOCK_RECORD
  5
11E0D
330
1
100
AcDbSymbolTableRecord
100
AcDbBlockTableRecord
  2
*D27
  0
BLOCK_RECORD
  5
11E1C
330
1
100
AcDbSymbolTableRecord
100
AcDbBlockTableRecord
  2
*D28
  0
BLOCK_RECORD
  5
11E29
330
1
100
AcDbSymbolTableRecord
100
AcDbBlockTableRecord
  2
*D29
  0
BLOCK_RECORD
  5
11E38
330
1
100
AcDbSymbolTableRecord
100
AcDbBlockTableRecord
  2
*D30
  0
BLOCK_RECORD
  5
11E45
330
1
100
AcDbSymbolTableRecord
100
AcDbBlockTableRecord
  2
*D31
  0
BLOCK_RECORD
  5
11E61
330
1
100
AcDbSymbolTableRecord
100
AcDbBlockTableRecord
  2
*D32
  0
BLOCK_RECORD
  5
11E6F
330
1
100
AcDbSymbolTableRecord
100
AcDbBlockTableRecord
  2
*D33
  0
BLOCK_RECORD
  5
11E7C
330
1
100
AcDbSymbolTableRecord
100
AcDbBlockTableRecord
  2
*D34
  0
BLOCK_RECORD
  5
11E8B
330
1
100
AcDbSymbolTableRecord
100
AcDbBlockTableRecord
  2
*D35
  0
BLOCK_RECORD
  5
11E9A
330
1
100
AcDbSymbolTableRecord
100
AcDbBlockTableRecord
  2
*D36
  0
BLOCK_RECORD
  5
11EA7
330
1
100
AcDbSymbolTableRecord
100
AcDbBlockTableRecord
  2
*D37
  0
BLOCK_RECORD
  5
11EB4
330
1
100
AcDbSymbolTableRecord
100
AcDbBlockTableRecord
  2
*D38
  0
BLOCK_RECORD
  5
11EC2
330
1
100
AcDbSymbolTableRecord
100
AcDbBlockTableRecord
  2
*D39
  0
BLOCK_RECORD
  5
11ED1
330
1
100
AcDbSymbolTableRecord
100
AcDbBlockTableRecord
  2
*D40
  0
BLOCK_RECORD
  5
11EDE
330
1
100
AcDbSymbolTableRecord
100
AcDbBlockTableRecord
  2
*D41
  0
ENDTAB
  0
ENDSEC
  0
SECTION
  2
BLOCKS
  0
BLOCK
  5
1B
330
1A
100
AcDbEntity
  8
0
100
AcDbBlockBegin
  2
*MODEL_SPACE
 70
     0
 10
0.0
 20
0.0
 30
0.0
  3
*MODEL_SPACE
  1

  0
ENDBLK
  5
1C
330
1A
100
AcDbEntity
  8
0
100
AcDbBlockEnd
  0
BLOCK
  5
5E60
330
5D8E
100
AcDbEntity
 67
     1
  8
0
100
AcDbBlockBegin
  2
*PAPER_SPACE
 70
     0
 10
0.0
 20
0.0
 30
0.0
  3
*PAPER_SPACE
  1

  0
ENDBLK
  5
5E61
330
5D8E
100
AcDbEntity
 67
     1
  8
0
100
AcDbBlockEnd
  0
BLOCK
  5
11D18
330
11D0C
100
AcDbEntity
  8
0
100
AcDbBlockBegin
  2
*D23
 70
     1
 10
0.0
 20
0.0
 30
0.0
  3
*D23
  1

  0
LINE
  5
120D0
330
11D0C
100
AcDbEntity
  8
ZISSEN1
 62
     1
100
AcDbLine
 10
-1842.090094061141
 20
1899.116644896574
 30
0.0
 11
-1842.090094061141
 21
1904.753964260214
 31
0.0
  0
LINE
  5
120D1
330
11D0C
100
AcDbEntity
  8
ZISSEN1
 62
     1
100
AcDbLine
 10
-1838.590107061141
 20
1899.116644896574
 30
0.0
 11
-1838.590107061141
 21
1904.753964260214
 31
0.0
  0
LINE
  5
120D2
330
11D0C
100
AcDbEntity
  8
ZISSEN1
 62
     1
100
AcDbLine
 10
-1845.090094061139
 20
1904.253964260212
 30
0.0
 11
-1848.090094061141
 21
1904.253964260212
 31
0.0
  0
LINE
  5
120D3
330
11D0C
100
AcDbEntity
  8
ZISSEN1
 62
     1
100
AcDbLine
 10
-1835.590107061141
 20
1904.253964260212
 30
0.0
 11
-1824.22970096977
 21
1904.253964260212
 31
0.0
  0
LINE
  5
120D4
330
11D0C
100
AcDbEntity
  8
ZISSEN1
 62
     1
100
AcDbLine
 10
-1842.090094061141
 20
1904.253964260212
 30
0.0
 11
-1838.590107061141
 21
1904.253964260212
 31
0.0
  0
SOLID
  5
120D5
330
11D0C
100
AcDbEntity
  8
ZISSEN1
 62
     1
100
AcDbTrace
 10
-1845.090094061139
 20
1904.753964260214
 30
0.0
 11
-1845.090094061139
 21
1903.753964260213
 31
0.0
 12
-1842.090094061141
 22
1904.253964260212
 32
0.0
 13
-1842.090094061141
 23
1904.253964260212
 33
0.0
  0
SOLID
  5
120D6
330
11D0C
100
AcDbEntity
  8
ZISSEN1
 62
     1
100
AcDbTrace
 10
-1835.590107061141
 20
1904.753964260214
 30
0.0
 11
-1835.590107061141
 21
1903.753964260213
 31
0.0
 12
-1838.590107061141
 22
1904.253964260212
 32
0.0
 13
-1838.590107061141
 23
1904.253964260212
 33
0.0
  0
MTEXT
  5
120D7
330
11D0C
100
AcDbEntity
  8
ZISSEN1
 62
     1
100
AcDbMText
 10
-1828.409904015456
 20
1907.003964260212
 30
0.0
 40
3.5
 41
0.0
 71
     5
 72
     1
  1
\A1;3.5
  7
ゴシック体
1001
ACAD
1000
MTEXTBEGIN
1070
    73
1070
     1
1070
    44
1040
1.0
1070
    74
1070
     0
1000
MTEXTEND
  0
POINT
  5
120D8
330
11D0C
100
AcDbEntity
  8
DEFPOINTS
 62
     0
100
AcDbPoint
 10
-1842.090094061141
 20
1898.616644896574
 30
0.0
  0
POINT
  5
120D9
330
11D0C
100
AcDbEntity
  8
DEFPOINTS
 62
     0
100
AcDbPoint
 10
-1838.590107061141
 20
1898.616644896574
 30
0.0
  0
POINT
  5
120DA
330
11D0C
100
AcDbEntity
  8
DEFPOINTS
 62
     0
100
AcDbPoint
 10
-1838.590107061141
 20
1904.253964260212
 30
0.0
  0
ENDBLK
  5
11D19
330
11D0C
100
AcDbEntity
  8
0
100
AcDbBlockEnd
  0
BLOCK
  5
11D29
330
11D1D
100
AcDbEntity
  8
0
100
AcDbBlockBegin
  2
*D24
 70
     1
 10
0.0
 20
0.0
 30
0.0
  3
*D24
  1

  0
LINE
  5
1211F
330
11D1D
100
AcDbEntity
  8
ZISSEN1
 62
     1
100
AcDbLine
 10
-1685.103600061141
 20
1899.116624896574
 30
0.0
 11
-1685.103600061141
 21
1904.753964260214
 31
0.0
  0
LINE
  5
12120
330
11D1D
100
AcDbEntity
  8
ZISSEN1
 62
     1
100
AcDbLine
 10
-1681.603610061141
 20
1899.116624896574
 30
0.0
 11
-1681.603610061141
 21
1904.753964260214
 31
0.0
  0
LINE
  5
12121
330
11D1D
100
AcDbEntity
  8
ZISSEN1
 62
     1
100
AcDbLine
 10
-1688.103600061141
 20
1904.253964260212
 30
0.0
 11
-1691.103600061141
 21
1904.253964260212
 31
0.0
  0
LINE
  5
12122
330
11D1D
100
AcDbEntity
  8
ZISSEN1
 62
     1
100
AcDbLine
 10
-1678.603610061141
 20
1904.253964260212
 30
0.0
 11
-1667.243203969769
 21
1904.253964260212
 31
0.0
  0
LINE
  5
12123
330
11D1D
100
AcDbEntity
  8
ZISSEN1
 62
     1
100
AcDbLine
 10
-1685.103600061141
 20
1904.253964260212
 30
0.0
 11
-1681.603610061141
 21
1904.253964260212
 31
0.0
  0
SOLID
  5
12124
330
11D1D
100
AcDbEntity
  8
ZISSEN1
 62
     1
100
AcDbTrace
 10
-1688.103600061141
 20
1904.753964260214
 30
0.0
 11
-1688.103600061141
 21
1903.753964260213
 31
0.0
 12
-1685.103600061141
 22
1904.253964260212
 32
0.0
 13
-1685.103600061141
 23
1904.253964260212
 33
0.0
  0
SOLID
  5
12125
330
11D1D
100
AcDbEntity
  8
ZISSEN1
 62
     1
100
AcDbTrace
 10
-1678.603610061141
 20
1904.753964260214
 30
0.0
 11
-1678.603610061141
 21
1903.753964260213
 31
0.0
 12
-1681.603610061141
 22
1904.253964260212
 32
0.0
 13
-1681.603610061141
 23
1904.253964260212
 33
0.0
  0
MTEXT
  5
12126
330
11D1D
100
AcDbEntity
  8
ZISSEN1
 62
     1
100
AcDbMText
 10
-1671.423407015454
 20
1907.003964260212
 30
0.0
 40
3.5
 41
0.0
 71
     5
 72
     1
  1
\A1;3.5
  7
ゴシック体
1001
ACAD
1000
MTEXTBEGIN
1070
    73
1070
     1
1070
    44
1040
1.0
1070
    74
1070
     0
1000
MTEXTEND
  0
POINT
  5
12127
330
11D1D
100
AcDbEntity
  8
DEFPOINTS
 62
     0
100
AcDbPoint
 10
-1685.103600061141
 20
1898.616624896574
 30
0.0
  0
POINT
  5
12128
330
11D1D
100
AcDbEntity
  8
DEFPOINTS
 62
     0
100
AcDbPoint
 10
-1681.603610061141
 20
1898.616624896574
 30
0.0
  0
POINT
  5
12129
330
11D1D
100
AcDbEntity
  8
DEFPOINTS
 62
     0
100
AcDbPoint
 10
-1681.603610061141
 20
1904.253964260212
 30
0.0
  0
ENDBLK
  5
11D2A
330
11D1D
100
AcDbEntity
  8
0
100
AcDbBlockEnd
  0
BLOCK
  5
11DC7
330
11DBB
100
AcDbEntity
  8
0
100
AcDbBlockBegin
  2
*D25
 70
     1
 10
0.0
 20
0.0
 30
0.0
  3
*D25
  1

  0
LINE
  5
120C5
330
11DBB
100
AcDbEntity
  8
ZISSEN1
 62
     1
100
AcDbLine
 10
-1851.340098061139
 20
1898.616624896574
 30
0.0
 11
-1865.294017949034
 21
1898.616624896574
 31
0.0
  0
LINE
  5
120C6
330
11DBB
100
AcDbEntity
  8
ZISSEN1
 62
     1
100
AcDbLine
 10
-1840.840101061139
 20
1894.616634896574
 30
0.0
 11
-1865.294017949034
 21
1894.616634896574
 31
0.0
  0
LINE
  5
120C7
330
11DBB
100
AcDbEntity
  8
ZISSEN1
 62
     1
100
AcDbLine
 10
-1864.794017949034
 20
1901.616624896574
 30
0.0
 11
-1864.794017949034
 21
1904.616624896574
 31
0.0
  0
LINE
  5
120C8
330
11DBB
100
AcDbEntity
  8
ZISSEN1
 62
     1
100
AcDbLine
 10
-1864.794017949034
 20
1891.616634896574
 30
0.0
 11
-1864.794017949034
 21
1888.616634896574
 31
0.0
  0
LINE
  5
120C9
330
11DBB
100
AcDbEntity
  8
ZISSEN1
 62
     1
100
AcDbLine
 10
-1864.794017949034
 20
1898.616624896574
 30
0.0
 11
-1864.794017949034
 21
1894.616634896574
 31
0.0
  0
SOLID
  5
120CA
330
11DBB
100
AcDbEntity
  8
ZISSEN1
 62
     1
100
AcDbTrace
 10
-1865.294017949034
 20
1901.616624896574
 30
0.0
 11
-1864.294017949034
 21
1901.616624896574
 31
0.0
 12
-1864.794017949034
 22
1898.616624896574
 32
0.0
 13
-1864.794017949034
 23
1898.616624896574
 33
0.0
  0
SOLID
  5
120CB
330
11DBB
100
AcDbEntity
  8
ZISSEN1
 62
     1
100
AcDbTrace
 10
-1865.294017949034
 20
1891.616634896574
 30
0.0
 11
-1864.294017949034
 21
1891.616634896574
 31
0.0
 12
-1864.794017949034
 22
1894.616634896574
 32
0.0
 13
-1864.794017949034
 23
1894.616634896574
 33
0.0
  0
MTEXT
  5
120CC
330
11DBB
100
AcDbEntity
  8
ZISSEN1
 62
     1
100
AcDbMText
 10
-1867.544017949034
 20
1896.616629896574
 30
0.0
 40
3.5
 41
0.0
 71
     5
 72
     1
  1
\A1;4
  7
ゴシック体
 11
0.0000000000000001
 21
1.0
 31
0.0
1001
ACAD
1000
MTEXTBEGIN
1070
    73
1070
     1
1070
    44
1040
1.0
1070
    74
1070
     0
1000
MTEXTEND
  0
POINT
  5
120CD
330
11DBB
100
AcDbEntity
  8
DEFPOINTS
 62
     0
100
AcDbPoint
 10
-1850.840098061141
 20
1898.616624896574
 30
0.0
  0
POINT
  5
120CE
330
11DBB
100
AcDbEntity
  8
DEFPOINTS
 62
     0
100
AcDbPoint
 10
-1840.340101061141
 20
1894.616634896574
 30
0.0
  0
POINT
  5
120CF
330
11DBB
100
AcDbEntity
  8
DEFPOINTS
 62
     0
100
AcDbPoint
 10
-1864.794017949034
 20
1894.616634896574
 30
0.0
  0
ENDBLK
  5
11DC8
330
11DBB
100
AcDbEntity
  8
0
100
AcDbBlockEnd
  0
BLOCK
  5
11DFB
330
11DF1
100
AcDbEntity
  8
0
100
AcDbBlockBegin
  2
*D26
 70
     1
 10
0.0
 20
0.0
 30
0.0
  3
*D26
  1

  0
LINE
  5
12089
330
11DF1
100
AcDbEntity
  8
ZISSEN1
 62
     1
100
AcDbLine
 10
-1840.840101061139
 20
1894.616634896574
 30
0.0
 11
-1865.137402580739
 21
1894.616634896574
 31
0.0
  0
LINE
  5
1208A
330
11DF1
100
AcDbEntity
  8
ZISSEN1
 62
     1
100
AcDbLine
 10
-1840.840101061139
 20
1767.616604896574
 30
0.0
 11
-1865.137402580739
 21
1767.616604896574
 31
0.0
  0
LINE
  5
1208B
330
11DF1
100
AcDbEntity
  8
ZISSEN1
 62
     1
100
AcDbLine
 10
-1864.637402580739
 20
1891.616634896574
 30
0.0
 11
-1864.637402580739
 21
1770.616604896574
 31
0.0
  0
SOLID
  5
1208C
330
11DF1
100
AcDbEntity
  8
ZISSEN1
 62
     1
100
AcDbTrace
 10
-1865.137402580739
 20
1891.616634896574
 30
0.0
 11
-1864.137402580739
 21
1891.616634896574
 31
0.0
 12
-1864.637402580739
 22
1894.616634896574
 32
0.0
 13
-1864.637402580739
 23
1894.616634896574
 33
0.0
  0
SOLID
  5
1208D
330
11DF1
100
AcDbEntity
  8
ZISSEN1
 62
     1
100
AcDbTrace
 10
-1865.137402580739
 20
1770.616604896574
 30
0.0
 11
-1864.137402580739
 21
1770.616604896574
 31
0.0
 12
-1864.637402580739
 22
1767.616604896574
 32
0.0
 13
-1864.637402580739
 23
1767.616604896574
 33
0.0
  0
MTEXT
  5
1208E
330
11DF1
100
AcDbEntity
  8
ZISSEN1
 62
     1
100
AcDbMText
 10
-1867.387402580739
 20
1831.116619896572
 30
0.0
 40
3.5
 41
0.0
 71
     5
 72
     1
  1
\A1;127
  7
ゴシック体
 11
0.0000000000000001
 21
1.0
 31
0.0
1001
ACAD
1000
MTEXTBEGIN
1070
    73
1070
     1
1070
    44
1040
1.0
1070
    74
1070
     0
1000
MTEXTEND
  0
POINT
  5
1208F
330
11DF1
100
AcDbEntity
  8
DEFPOINTS
 62
     0
100
AcDbPoint
 10
-1840.340101061141
 20
1894.616634896574
 30
0.0
  0
POINT
  5
12090
330
11DF1
100
AcDbEntity
  8
DEFPOINTS
 62
     0
100
AcDbPoint
 10
-1840.340101061141
 20
1767.616604896574
 30
0.0
  0
POINT
  5
12091
330
11DF1
100
AcDbEntity
  8
DEFPOINTS
 62
     0
100
AcDbPoint
 10
-1864.637402580739
 20
1767.616604896574
 30
0.0
  0
ENDBLK
  5
11DFC
330
11DF1
100
AcDbEntity
  8
0
100
AcDbBlockEnd
  0
BLOCK
  5
11E19
330
11E0D
100
AcDbEntity
  8
0
100
AcDbBlockBegin
  2
*D27
 70
     1
 10
0.0
 20
0.0
 30
0.0
  3
*D27
  1

  0
LINE
  5
1209B
330
11E0D
100
AcDbEntity
  8
ZISSEN1
 62
     1
100
AcDbLine
 10
-1840.840101061139
 20
1767.616604896574
 30
0.0
 11
-1865.214070065826
 21
1767.616604896574
 31
0.0
  0
LINE
  5
1209C
330
11E0D
100
AcDbEntity
  8
ZISSEN1
 62
     1
100
AcDbLine
 10
-1851.340098061139
 20
1763.616624896574
 30
0.0
 11
-1865.214070065826
 21
1763.616624896574
 31
0.0
  0
LINE
  5
1209D
330
11E0D
100
AcDbEntity
  8
ZISSEN1
 62
     1
100
AcDbLine
 10
-1864.714070065827
 20
1770.616604896574
 30
0.0
 11
-1864.714070065827
 21
1773.616604896574
 31
0.0
  0
LINE
  5
1209E
330
11E0D
100
AcDbEntity
  8
ZISSEN1
 62
     1
100
AcDbLine
 10
-1864.714070065827
 20
1760.616624896574
 30
0.0
 11
-1864.714070065827
 21
1757.616624896574
 31
0.0
  0
LINE
  5
1209F
330
11E0D
100
AcDbEntity
  8
ZISSEN1
 62
     1
100
AcDbLine
 10
-1864.714070065827
 20
1767.616604896574
 30
0.0
 11
-1864.714070065827
 21
1763.616624896574
 31
0.0
  0
SOLID
  5
120A0
330
11E0D
100
AcDbEntity
  8
ZISSEN1
 62
     1
100
AcDbTrace
 10
-1865.214070065826
 20
1770.616604896574
 30
0.0
 11
-1864.214070065827
 21
1770.616604896574
 31
0.0
 12
-1864.714070065827
 22
1767.616604896574
 32
0.0
 13
-1864.714070065827
 23
1767.616604896574
 33
0.0
  0
SOLID
  5
120A1
330
11E0D
100
AcDbEntity
  8
ZISSEN1
 62
     1
100
AcDbTrace
 10
-1865.214070065826
 20
1760.616624896574
 30
0.0
 11
-1864.214070065827
 21
1760.616624896574
 31
0.0
 12
-1864.714070065827
 22
1763.616624896574
 32
0.0
 13
-1864.714070065827
 23
1763.616624896574
 33
0.0
  0
MTEXT
  5
120A2
330
11E0D
100
AcDbEntity
  8
ZISSEN1
 62
     1
100
AcDbMText
 10
-1867.464070065826
 20
1765.616614896574
 30
0.0
 40
3.5
 41
0.0
 71
     5
 72
     1
  1
\A1;4
  7
ゴシック体
 11
0.0000000000000001
 21
1.0
 31
0.0
1001
ACAD
1000
MTEXTBEGIN
1070
    73
1070
     1
1070
    44
1040
1.0
1070
    74
1070
     0
1000
MTEXTEND
  0
POINT
  5
120A3
330
11E0D
100
AcDbEntity
  8
DEFPOINTS
 62
     0
100
AcDbPoint
 10
-1840.340101061141
 20
1767.616604896574
 30
0.0
  0
POINT
  5
120A4
330
11E0D
100
AcDbEntity
  8
DEFPOINTS
 62
     0
100
AcDbPoint
 10
-1850.840098061141
 20
1763.616624896574
 30
0.0
  0
POINT
  5
120A5
330
11E0D
100
AcDbEntity
  8
DEFPOINTS
 62
     0
100
AcDbPoint
 10
-1864.714070065827
 20
1763.616624896574
 30
0.0
  0
ENDBLK
  5
11E1A
330
11E0D
100
AcDbEntity
  8
0
100
AcDbBlockEnd
  0
BLOCK
  5
11E26
330
11E1C
100
AcDbEntity
  8
0
100
AcDbBlockBegin
  2
*D28
 70
     1
 10
0.0
 20
0.0
 30
0.0
  3
*D28
  1

  0
LINE
  5
120BC
330
11E1C
100
AcDbEntity
  8
ZISSEN1
 62
     1
100
AcDbLine
 10
-1850.840098061141
 20
1763.116624896574
 30
0.0
 11
-1850.840098061141
 21
1747.914073753628
 31
0.0
  0
LINE
  5
120BD
330
11E1C
100
AcDbEntity
  8
ZISSEN1
 62
     1
100
AcDbLine
 10
-1840.340101061141
 20
1767.116604896574
 30
0.0
 11
-1840.340101061141
 21
1747.914073753628
 31
0.0
  0
LINE
  5
120BE
330
11E1C
100
AcDbEntity
  8
ZISSEN1
 62
     1
100
AcDbLine
 10
-1847.840098061139
 20
1748.414073753629
 30
0.0
 11
-1843.340101061141
 21
1748.414073753629
 31
0.0
  0
SOLID
  5
120BF
330
11E1C
100
AcDbEntity
  8
ZISSEN1
 62
     1
100
AcDbTrace
 10
-1847.840098061139
 20
1748.914073753629
 30
0.0
 11
-1847.840098061139
 21
1747.914073753628
 31
0.0
 12
-1850.840098061141
 22
1748.414073753629
 32
0.0
 13
-1850.840098061141
 23
1748.414073753629
 33
0.0
  0
SOLID
  5
120C0
330
11E1C
100
AcDbEntity
  8
ZISSEN1
 62
     1
100
AcDbTrace
 10
-1843.340101061141
 20
1748.914073753629
 30
0.0
 11
-1843.340101061141
 21
1747.914073753628
 31
0.0
 12
-1840.340101061141
 22
1748.414073753629
 32
0.0
 13
-1840.340101061141
 23
1748.414073753629
 33
0.0
  0
MTEXT
  5
120C1
330
11E1C
100
AcDbEntity
  8
ZISSEN1
 62
     1
100
AcDbMText
 10
-1845.590099561141
 20
1751.164073753629
 30
0.0
 40
3.5
 41
0.0
 71
     5
 72
     1
  1
\A1;10.5
  7
ゴシック体
1001
ACAD
1000
MTEXTBEGIN
1070
    73
1070
     1
1070
    44
1040
1.0
1070
    74
1070
     0
1000
MTEXTEND
  0
POINT
  5
120C2
330
11E1C
100
AcDbEntity
  8
DEFPOINTS
 62
     0
100
AcDbPoint
 10
-1850.840098061141
 20
1763.616624896574
 30
0.0
  0
POINT
  5
120C3
330
11E1C
100
AcDbEntity
  8
DEFPOINTS
 62
     0
100
AcDbPoint
 10
-1840.340101061141
 20
1767.616604896574
 30
0.0
  0
POINT
  5
120C4
330
11E1C
100
AcDbEntity
  8
DEFPOINTS
 62
     0
100
AcDbPoint
 10
-1840.340101061141
 20
1748.414073753629
 30
0.0
  0
ENDBLK
  5
11E27
330
11E1C
100
AcDbEntity
  8
0
100
AcDbBlockEnd
  0
BLOCK
  5
11E35
330
11E29
100
AcDbEntity
  8
0
100
AcDbBlockBegin
  2
*D29
 70
     1
 10
0.0
 20
0.0
 30
0.0
  3
*D29
  1

  0
LINE
  5
120B1
330
11E29
100
AcDbEntity
  8
ZISSEN1
 62
     1
100
AcDbLine
 10
-1840.340101061141
 20
1767.116604896574
 30
0.0
 11
-1840.340101061141
 21
1747.914073753628
 31
0.0
  0
LINE
  5
120B2
330
11E29
100
AcDbEntity
  8
ZISSEN1
 62
     1
100
AcDbLine
 10
-1834.34008106114
 20
1767.116604896574
 30
0.0
 11
-1834.34008106114
 21
1747.914073753628
 31
0.0
  0
LINE
  5
120B3
330
11E29
100
AcDbEntity
  8
ZISSEN1
 62
     1
100
AcDbLine
 10
-1843.340101061141
 20
1748.414073753629
 30
0.0
 11
-1846.340101061141
 21
1748.414073753629
 31
0.0
  0
LINE
  5
120B4
330
11E29
100
AcDbEntity
  8
ZISSEN1
 62
     1
100
AcDbLine
 10
-1831.340081061139
 20
1748.414073753629
 30
0.0
 11
-1828.34008106114
 21
1748.414073753629
 31
0.0
  0
LINE
  5
120B5
330
11E29
100
AcDbEntity
  8
ZISSEN1
 62
     1
100
AcDbLine
 10
-1840.340101061141
 20
1748.414073753629
 30
0.0
 11
-1834.34008106114
 21
1748.414073753629
 31
0.0
  0
SOLID
  5
120B6
330
11E29
100
AcDbEntity
  8
ZISSEN1
 62
     1
100
AcDbTrace
 10
-1843.340101061141
 20
1748.914073753629
 30
0.0
 11
-1843.340101061141
 21
1747.914073753628
 31
0.0
 12
-1840.340101061141
 22
1748.414073753629
 32
0.0
 13
-1840.340101061141
 23
1748.414073753629
 33
0.0
  0
SOLID
  5
120B7
330
11E29
100
AcDbEntity
  8
ZISSEN1
 62
     1
100
AcDbTrace
 10
-1831.340081061139
 20
1748.914073753629
 30
0.0
 11
-1831.340081061139
 21
1747.914073753628
 31
0.0
 12
-1834.34008106114
 22
1748.414073753629
 32
0.0
 13
-1834.34008106114
 23
1748.414073753629
 33
0.0
  0
MTEXT
  5
120B8
330
11E29
100
AcDbEntity
  8
ZISSEN1
 62
     1
100
AcDbMText
 10
-1837.340091061141
 20
1751.164073753629
 30
0.0
 40
3.5
 41
0.0
 71
     5
 72
     1
  1
\A1;6
  7
ゴシック体
1001
ACAD
1000
MTEXTBEGIN
1070
    73
1070
     1
1070
    44
1040
1.0
1070
    74
1070
     0
1000
MTEXTEND
  0
POINT
  5
120B9
330
11E29
100
AcDbEntity
  8
DEFPOINTS
 62
     0
100
AcDbPoint
 10
-1840.340101061141
 20
1767.616604896574
 30
0.0
  0
POINT
  5
120BA
330
11E29
100
AcDbEntity
  8
DEFPOINTS
 62
     0
100
AcDbPoint
 10
-1834.34008106114
 20
1767.616604896574
 30
0.0
  0
POINT
  5
120BB
330
11E29
100
AcDbEntity
  8
DEFPOINTS
 62
     0
100
AcDbPoint
 10
-1834.34008106114
 20
1748.414073753629
 30
0.0
  0
ENDBLK
  5
11E36
330
11E29
100
AcDbEntity
  8
0
100
AcDbBlockEnd
  0
BLOCK
  5
11E42
330
11E38
100
AcDbEntity
  8
0
100
AcDbBlockBegin
  2
*D30
 70
     1
 10
0.0
 20
0.0
 30
0.0
  3
*D30
  1

  0
LINE
  5
12077
330
11E38
100
AcDbEntity
  8
ZISSEN1
 62
     1
100
AcDbLine
 10
-1850.840098061141
 20
1747.414073753629
 30
0.0
 11
-1850.840098061141
 21
1737.979824270203
 31
0.0
  0
LINE
  5
12078
330
11E38
100
AcDbEntity
  8
ZISSEN1
 62
     1
100
AcDbLine
 10
-1773.840100061141
 20
1763.823734896574
 30
0.0
 11
-1773.840100061141
 21
1737.979824270203
 31
0.0
  0
LINE
  5
12079
330
11E38
100
AcDbEntity
  8
ZISSEN1
 62
     1
100
AcDbLine
 10
-1847.840098061139
 20
1738.479824270203
 30
0.0
 11
-1776.840100061139
 21
1738.479824270203
 31
0.0
  0
SOLID
  5
1207A
330
11E38
100
AcDbEntity
  8
ZISSEN1
 62
     1
100
AcDbTrace
 10
-1847.840098061139
 20
1738.979824270202
 30
0.0
 11
-1847.840098061139
 21
1737.979824270203
 31
0.0
 12
-1850.840098061141
 22
1738.479824270203
 32
0.0
 13
-1850.840098061141
 23
1738.479824270203
 33
0.0
  0
SOLID
  5
1207B
330
11E38
100
AcDbEntity
  8
ZISSEN1
 62
     1
100
AcDbTrace
 10
-1776.840100061139
 20
1738.979824270202
 30
0.0
 11
-1776.840100061139
 21
1737.979824270203
 31
0.0
 12
-1773.840100061141
 22
1738.479824270203
 32
0.0
 13
-1773.840100061141
 23
1738.479824270203
 33
0.0
  0
MTEXT
  5
1207C
330
11E38
100
AcDbEntity
  8
ZISSEN1
 62
     1
100
AcDbMText
 10
-1812.340099061139
 20
1741.229824270202
 30
0.0
 40
3.5
 41
0.0
 71
     5
 72
     1
  1
\A1;77
  7
ゴシック体
1001
ACAD
1000
MTEXTBEGIN
1070
    73
1070
     1
1070
    44
1040
1.0
1070
    74
1070
     0
1000
MTEXTEND
  0
POINT
  5
1207D
330
11E38
100
AcDbEntity
  8
DEFPOINTS
 62
     0
100
AcDbPoint
 10
-1850.840098061141
 20
1747.914073753628
 30
0.0
  0
POINT
  5
1207E
330
11E38
100
AcDbEntity
  8
DEFPOINTS
 62
     0
100
AcDbPoint
 10
-1773.840100061141
 20
1764.323734896574
 30
0.0
  0
POINT
  5
1207F
330
11E38
100
AcDbEntity
  8
DEFPOINTS
 62
     0
100
AcDbPoint
 10
-1773.840100061141
 20
1738.479824270203
 30
0.0
  0
ENDBLK
  5
11E43
330
11E38
100
AcDbEntity
  8
0
100
AcDbBlockEnd
  0
BLOCK
  5
11E51
330
11E45
100
AcDbEntity
  8
0
100
AcDbBlockBegin
  2
*D31
 70
     1
 10
0.0
 20
0.0
 30
0.0
  3
*D31
  1

  0
LINE
  5
120A6
330
11E45
100
AcDbEntity
  8
ZISSEN1
 62
     1
100
AcDbLine
 10
-1850.840098061141
 20
1726.413914896574
 30
0.0
 11
-1850.840098061141
 21
1731.156174245122
 31
0.0
  0
LINE
  5
120A7
330
11E45
100
AcDbEntity
  8
ZISSEN1
 62
     1
100
AcDbLine
 10
-1847.840101061141
 20
1726.413914896574
 30
0.0
 11
-1847.840101061141
 21
1731.156174245122
 31
0.0
  0
LINE
  5
120A8
330
11E45
100
AcDbEntity
  8
ZISSEN1
 62
     1
100
AcDbLine
 10
-1853.840098061141
 20
1730.656174245122
 30
0.0
 11
-1856.840098061141
 21
1730.656174245122
 31
0.0
  0
LINE
  5
120A9
330
11E45
100
AcDbEntity
  8
ZISSEN1
 62
     1
100
AcDbLine
 10
-1844.840101061141
 20
1730.656174245122
 30
0.0
 11
-1838.027918320024
 21
1730.656174245122
 31
0.0
  0
LINE
  5
120AA
330
11E45
100
AcDbEntity
  8
ZISSEN1
 62
     1
100
AcDbLine
 10
-1850.840098061141
 20
1730.656174245122
 30
0.0
 11
-1847.840101061141
 21
1730.656174245122
 31
0.0
  0
SOLID
  5
120AB
330
11E45
100
AcDbEntity
  8
ZISSEN1
 62
     1
100
AcDbTrace
 10
-1853.840098061141
 20
1731.156174245122
 30
0.0
 11
-1853.840098061141
 21
1730.156174245122
 31
0.0
 12
-1850.840098061141
 22
1730.656174245122
 32
0.0
 13
-1850.840098061141
 23
1730.656174245122
 33
0.0
  0
SOLID
  5
120AC
330
11E45
100
AcDbEntity
  8
ZISSEN1
 62
     1
100
AcDbTrace
 10
-1844.840101061141
 20
1731.156174245122
 30
0.0
 11
-1844.840101061141
 21
1730.156174245122
 31
0.0
 12
-1847.840101061141
 22
1730.656174245122
 32
0.0
 13
-1847.840101061141
 23
1730.656174245122
 33
0.0
  0
MTEXT
  5
120AD
330
11E45
100
AcDbEntity
  8
ZISSEN1
 62
     1
100
AcDbMText
 10
-1839.934009690582
 20
1733.406174245121
 30
0.0
 40
3.5
 41
0.0
 71
     5
 72
     1
  1
\A1;3
  7
ゴシック体
1001
ACAD
1000
MTEXTBEGIN
1070
    73
1070
     1
1070
    44
1040
1.0
1070
    74
1070
     0
1000
MTEXTEND
  0
POINT
  5
120AE
330
11E45
100
AcDbEntity
  8
DEFPOINTS
 62
     0
100
AcDbPoint
 10
-1850.840098061141
 20
1725.913914896574
 30
0.0
  0
POINT
  5
120AF
330
11E45
100
AcDbEntity
  8
DEFPOINTS
 62
     0
100
AcDbPoint
 10
-1847.840101061141
 20
1725.913914896574
 30
0.0
  0
POINT
  5
120B0
330
11E45
100
AcDbEntity
  8
DEFPOINTS
 62
     0
100
AcDbPoint
 10
-1847.840101061141
 20
1730.656174245122
 30
0.0
  0
ENDBLK
  5
11E52
330
11E45
100
AcDbEntity
  8
0
100
AcDbBlockEnd
  0
BLOCK
  5
11E6B
330
11E61
100
AcDbEntity
  8
0
100
AcDbBlockBegin
  2
*D32
 70
     1
 10
0.0
 20
0.0
 30
0.0
  3
*D32
  1

  0
LINE
  5
12080
330
11E61
100
AcDbEntity
  8
ZISSEN1
 62
     1
100
AcDbLine
 10
-1865.294017949034
 20
1898.616624896574
 30
0.0
 11
-1886.535263894184
 21
1898.616624896574
 31
0.0
  0
LINE
  5
12081
330
11E61
100
AcDbEntity
  8
ZISSEN1
 62
     1
100
AcDbLine
 10
-1865.714070065827
 20
1763.616624896574
 30
0.0
 11
-1886.535263894184
 21
1763.616624896574
 31
0.0
  0
LINE
  5
12082
330
11E61
100
AcDbEntity
  8
ZISSEN1
 62
     1
100
AcDbLine
 10
-1886.035263894184
 20
1895.616624896574
 30
0.0
 11
-1886.035263894184
 21
1766.616624896574
 31
0.0
  0
SOLID
  5
12083
330
11E61
100
AcDbEntity
  8
ZISSEN1
 62
     1
100
AcDbTrace
 10
-1886.535263894184
 20
1895.616624896574
 30
0.0
 11
-1885.535263894184
 21
1895.616624896574
 31
0.0
 12
-1886.035263894184
 22
1898.616624896574
 32
0.0
 13
-1886.035263894184
 23
1898.616624896574
 33
0.0
  0
SOLID
  5
12084
330
11E61
100
AcDbEntity
  8
ZISSEN1
 62
     1
100
AcDbTrace
 10
-1886.535263894184
 20
1766.616624896574
 30
0.0
 11
-1885.535263894184
 21
1766.616624896574
 31
0.0
 12
-1886.035263894184
 22
1763.616624896574
 32
0.0
 13
-1886.035263894184
 23
1763.616624896574
 33
0.0
  0
MTEXT
  5
12085
330
11E61
100
AcDbEntity
  8
ZISSEN1
 62
     1
100
AcDbMText
 10
-1888.785263894185
 20
1831.116624896574
 30
0.0
 40
3.5
 41
0.0
 71
     5
 72
     1
  1
\A1;135
  7
ゴシック体
 11
0.0000000000000001
 21
1.0
 31
0.0
1001
ACAD
1000
MTEXTBEGIN
1070
    73
1070
     1
1070
    44
1040
1.0
1070
    74
1070
     0
1000
MTEXTEND
  0
POINT
  5
12086
330
11E61
100
AcDbEntity
  8
DEFPOINTS
 62
     0
100
AcDbPoint
 10
-1864.794017949034
 20
1898.616624896574
 30
0.0
  0
POINT
  5
12087
330
11E61
100
AcDbEntity
  8
DEFPOINTS
 62
     0
100
AcDbPoint
 10
-1865.214070065826
 20
1763.616624896574
 30
0.0
  0
POINT
  5
12088
330
11E61
100
AcDbEntity
  8
DEFPOINTS
 62
     0
100
AcDbPoint
 10
-1886.035263894184
 20
1763.616624896574
 30
0.0
  0
ENDBLK
  5
11E6C
330
11E61
100
AcDbEntity
  8
0
100
AcDbBlockEnd
  0
BLOCK
  5
11E79
330
11E6F
100
AcDbEntity
  8
0
100
AcDbBlockBegin
  2
*D33
 70
     1
 10
0.0
 20
0.0
 30
0.0
  3
*D33
  1

  0
LINE
  5
12092
330
11E6F
100
AcDbEntity
  8
ZISSEN1
 62
     1
100
AcDbLine
 10
-1851.340098061139
 20
1725.913914896574
 30
0.0
 11
-1886.535263894184
 21
1725.913914896574
 31
0.0
  0
LINE
  5
12093
330
11E6F
100
AcDbEntity
  8
ZISSEN1
 62
     1
100
AcDbLine
 10
-1851.340098061139
 20
1688.913924896574
 30
0.0
 11
-1886.535263894184
 21
1688.913924896574
 31
0.0
  0
LINE
  5
12094
330
11E6F
100
AcDbEntity
  8
ZISSEN1
 62
     1
100
AcDbLine
 10
-1886.035263894184
 20
1722.913914896574
 30
0.0
 11
-1886.035263894184
 21
1691.913924896574
 31
0.0
  0
SOLID
  5
12095
330
11E6F
100
AcDbEntity
  8
ZISSEN1
 62
     1
100
AcDbTrace
 10
-1886.535263894184
 20
1722.913914896574
 30
0.0
 11
-1885.535263894184
 21
1722.913914896574
 31
0.0
 12
-1886.035263894184
 22
1725.913914896574
 32
0.0
 13
-1886.035263894184
 23
1725.913914896574
 33
0.0
  0
SOLID
  5
12096
330
11E6F
100
AcDbEntity
  8
ZISSEN1
 62
     1
100
AcDbTrace
 10
-1886.535263894184
 20
1691.913924896574
 30
0.0
 11
-1885.535263894184
 21
1691.913924896574
 31
0.0
 12
-1886.035263894184
 22
1688.913924896574
 32
0.0
 13
-1886.035263894184
 23
1688.913924896574
 33
0.0
  0
MTEXT
  5
12097
330
11E6F
100
AcDbEntity
  8
ZISSEN1
 62
     1
100
AcDbMText
 10
-1888.785263894185
 20
1707.413919896574
 30
0.0
 40
3.5
 41
0.0
 71
     5
 72
     1
  1
\A1;37
  7
ゴシック体
 11
0.0000000000000001
 21
1.0
 31
0.0
1001
ACAD
1000
MTEXTBEGIN
1070
    73
1070
     1
1070
    44
1040
1.0
1070
    74
1070
     0
1000
MTEXTEND
  0
POINT
  5
12098
330
11E6F
100
AcDbEntity
  8
DEFPOINTS
 62
     0
100
AcDbPoint
 10
-1850.840098061141
 20
1725.913914896574
 30
0.0
  0
POINT
  5
12099
330
11E6F
100
AcDbEntity
  8
DEFPOINTS
 62
     0
100
AcDbPoint
 10
-1850.840098061141
 20
1688.913924896574
 30
0.0
  0
POINT
  5
1209A
330
11E6F
100
AcDbEntity
  8
DEFPOINTS
 62
     0
100
AcDbPoint
 10
-1886.035263894184
 20
1688.913924896574
 30
0.0
  0
ENDBLK
  5
11E7A
330
11E6F
100
AcDbEntity
  8
0
100
AcDbBlockEnd
  0
BLOCK
  5
11E88
330
11E7C
100
AcDbEntity
  8
0
100
AcDbBlockBegin
  2
*D34
 70
     1
 10
0.0
 20
0.0
 30
0.0
  3
*D34
  1

  0
LINE
  5
120ED
330
11E7C
100
AcDbEntity
  8
ZISSEN1
 62
     1
100
AcDbLine
 10
-1773.340100061139
 20
1691.913922896574
 30
0.0
 11
-1764.521132829891
 21
1691.913922896574
 31
0.0
  0
LINE
  5
120EE
330
11E7C
100
AcDbEntity
  8
ZISSEN1
 62
     1
100
AcDbLine
 10
-1773.340100061139
 20
1688.913924896574
 30
0.0
 11
-1764.521132829891
 21
1688.913924896574
 31
0.0
  0
LINE
  5
120EF
330
11E7C
100
AcDbEntity
  8
ZISSEN1
 62
     1
100
AcDbLine
 10
-1765.021132829891
 20
1694.913922896574
 30
0.0
 11
-1765.021132829891
 21
1697.913922896574
 31
0.0
  0
LINE
  5
120F0
330
11E7C
100
AcDbEntity
  8
ZISSEN1
 62
     1
100
AcDbLine
 10
-1765.021132829891
 20
1685.913924896574
 30
0.0
 11
-1765.021132829891
 21
1679.101742155456
 31
0.0
  0
LINE
  5
120F1
330
11E7C
100
AcDbEntity
  8
ZISSEN1
 62
     1
100
AcDbLine
 10
-1765.021132829891
 20
1691.913922896574
 30
0.0
 11
-1765.021132829891
 21
1688.913924896574
 31
0.0
  0
SOLID
  5
120F2
330
11E7C
100
AcDbEntity
  8
ZISSEN1
 62
     1
100
AcDbTrace
 10
-1765.521132829891
 20
1694.913922896574
 30
0.0
 11
-1764.521132829891
 21
1694.913922896574
 31
0.0
 12
-1765.021132829891
 22
1691.913922896574
 32
0.0
 13
-1765.021132829891
 23
1691.913922896574
 33
0.0
  0
SOLID
  5
120F3
330
11E7C
100
AcDbEntity
  8
ZISSEN1
 62
     1
100
AcDbTrace
 10
-1765.521132829891
 20
1685.913924896574
 30
0.0
 11
-1764.521132829891
 21
1685.913924896574
 31
0.0
 12
-1765.021132829891
 22
1688.913924896574
 32
0.0
 13
-1765.021132829891
 23
1688.913924896574
 33
0.0
  0
MTEXT
  5
120F4
330
11E7C
100
AcDbEntity
  8
ZISSEN1
 62
     1
100
AcDbMText
 10
-1767.771132829891
 20
1681.007833526015
 30
0.0
 40
3.5
 41
0.0
 71
     5
 72
     1
  1
\A1;3
  7
ゴシック体
 11
0.0000000000000001
 21
1.0
 31
0.0
1001
ACAD
1000
MTEXTBEGIN
1070
    73
1070
     1
1070
    44
1040
1.0
1070
    74
1070
     0
1000
MTEXTEND
  0
POINT
  5
120F5
330
11E7C
100
AcDbEntity
  8
DEFPOINTS
 62
     0
100
AcDbPoint
 10
-1773.840100061141
 20
1691.913922896574
 30
0.0
  0
POINT
  5
120F6
330
11E7C
100
AcDbEntity
  8
DEFPOINTS
 62
     0
100
AcDbPoint
 10
-1773.840100061141
 20
1688.913924896574
 30
0.0
  0
POINT
  5
120F7
330
11E7C
100
AcDbEntity
  8
DEFPOINTS
 62
     0
100
AcDbPoint
 10
-1765.021132829891
 20
1688.913924896574
 30
0.0
  0
ENDBLK
  5
11E89
330
11E7C
100
AcDbEntity
  8
0
100
AcDbBlockEnd
  0
BLOCK
  5
11E95
330
11E8B
100
AcDbEntity
  8
0
100
AcDbBlockBegin
  2
*D35
 70
     1
 10
0.0
 20
0.0
 30
0.0
  3
*D35
  1

  0
LINE
  5
120E4
330
11E8B
100
AcDbEntity
  8
ZISSEN1
 62
     1
100
AcDbLine
 10
-1764.521132829891
 20
1688.913924896574
 30
0.0
 11
-1755.705575635408
 21
1688.913924896574
 31
0.0
  0
LINE
  5
120E5
330
11E8B
100
AcDbEntity
  8
ZISSEN1
 62
     1
100
AcDbLine
 10
-1776.440110061141
 20
1718.913924896574
 30
0.0
 11
-1755.705575635408
 21
1718.913924896574
 31
0.0
  0
LINE
  5
120E6
330
11E8B
100
AcDbEntity
  8
ZISSEN1
 62
     1
100
AcDbLine
 10
-1756.205575635408
 20
1691.913924896574
 30
0.0
 11
-1756.205575635408
 21
1715.913924896574
 31
0.0
  0
SOLID
  5
120E7
330
11E8B
100
AcDbEntity
  8
ZISSEN1
 62
     1
100
AcDbTrace
 10
-1756.705575635407
 20
1691.913924896574
 30
0.0
 11
-1755.705575635408
 21
1691.913924896574
 31
0.0
 12
-1756.205575635408
 22
1688.913924896574
 32
0.0
 13
-1756.205575635408
 23
1688.913924896574
 33
0.0
  0
SOLID
  5
120E8
330
11E8B
100
AcDbEntity
  8
ZISSEN1
 62
     1
100
AcDbTrace
 10
-1756.705575635407
 20
1715.913924896574
 30
0.0
 11
-1755.705575635408
 21
1715.913924896574
 31
0.0
 12
-1756.205575635408
 22
1718.913924896574
 32
0.0
 13
-1756.205575635408
 23
1718.913924896574
 33
0.0
  0
MTEXT
  5
120E9
330
11E8B
100
AcDbEntity
  8
ZISSEN1
 62
     1
100
AcDbMText
 10
-1758.955575635408
 20
1703.913924896574
 30
0.0
 40
3.5
 41
0.0
 71
     5
 72
     1
  1
\A1;30
  7
ゴシック体
 11
0.0000000000000001
 21
1.0
 31
0.0
1001
ACAD
1000
MTEXTBEGIN
1070
    73
1070
     1
1070
    44
1040
1.0
1070
    74
1070
     0
1000
MTEXTEND
  0
POINT
  5
120EA
330
11E8B
100
AcDbEntity
  8
DEFPOINTS
 62
     0
100
AcDbPoint
 10
-1765.021132829891
 20
1688.913924896574
 30
0.0
  0
POINT
  5
120EB
330
11E8B
100
AcDbEntity
  8
DEFPOINTS
 62
     0
100
AcDbPoint
 10
-1776.940110061141
 20
1718.913924896574
 30
0.0
  0
POINT
  5
120EC
330
11E8B
100
AcDbEntity
  8
DEFPOINTS
 62
     0
100
AcDbPoint
 10
-1756.205575635408
 20
1718.913924896574
 30
0.0
  0
ENDBLK
  5
11E96
330
11E8B
100
AcDbEntity
  8
0
100
AcDbBlockEnd
  0
BLOCK
  5
11EA4
330
11E9A
100
AcDbEntity
  8
0
100
AcDbBlockBegin
  2
*D36
 70
     1
 10
0.0
 20
0.0
 30
0.0
  3
*D36
  1

  0
LINE
  5
12102
330
11E9A
100
AcDbEntity
  8
ZISSEN1
 62
     1
100
AcDbLine
 10
-1694.35362006114
 20
1763.823734896574
 30
0.0
 11
-1694.35362006114
 21
1737.979824270203
 31
0.0
  0
LINE
  5
12103
330
11E9A
100
AcDbEntity
  8
ZISSEN1
 62
     1
100
AcDbLine
 10
-1657.35362006114
 20
1763.116624896574
 30
0.0
 11
-1657.35362006114
 21
1737.979824270203
 31
0.0
  0
LINE
  5
12104
330
11E9A
100
AcDbEntity
  8
ZISSEN1
 62
     1
100
AcDbLine
 10
-1691.353620061141
 20
1738.479824270203
 30
0.0
 11
-1660.35362006114
 21
1738.479824270203
 31
0.0
  0
SOLID
  5
12105
330
11E9A
100
AcDbEntity
  8
ZISSEN1
 62
     1
100
AcDbTrace
 10
-1691.353620061141
 20
1738.979824270202
 30
0.0
 11
-1691.353620061141
 21
1737.979824270203
 31
0.0
 12
-1694.35362006114
 22
1738.479824270203
 32
0.0
 13
-1694.35362006114
 23
1738.479824270203
 33
0.0
  0
SOLID
  5
12106
330
11E9A
100
AcDbEntity
  8
ZISSEN1
 62
     1
100
AcDbTrace
 10
-1660.35362006114
 20
1738.979824270202
 30
0.0
 11
-1660.35362006114
 21
1737.979824270203
 31
0.0
 12
-1657.35362006114
 22
1738.479824270203
 32
0.0
 13
-1657.35362006114
 23
1738.479824270203
 33
0.0
  0
MTEXT
  5
12107
330
11E9A
100
AcDbEntity
  8
ZISSEN1
 62
     1
100
AcDbMText
 10
-1675.853620061141
 20
1741.229824270202
 30
0.0
 40
3.5
 41
0.0
 71
     5
 72
     1
  1
\A1;37
  7
ゴシック体
1001
ACAD
1000
MTEXTBEGIN
1070
    73
1070
     1
1070
    44
1040
1.0
1070
    74
1070
     0
1000
MTEXTEND
  0
POINT
  5
12108
330
11E9A
100
AcDbEntity
  8
DEFPOINTS
 62
     0
100
AcDbPoint
 10
-1694.35362006114
 20
1764.323734896574
 30
0.0
  0
POINT
  5
12109
330
11E9A
100
AcDbEntity
  8
DEFPOINTS
 62
     0
100
AcDbPoint
 10
-1657.35362006114
 20
1763.616624896574
 30
0.0
  0
POINT
  5
1210A
330
11E9A
100
AcDbEntity
  8
DEFPOINTS
 62
     0
100
AcDbPoint
 10
-1657.35362006114
 20
1738.479824270203
 30
0.0
  0
ENDBLK
  5
11EA5
330
11E9A
100
AcDbEntity
  8
0
100
AcDbBlockEnd
  0
BLOCK
  5
11EB1
330
11EA7
100
AcDbEntity
  8
0
100
AcDbBlockBegin
  2
*D37
 70
     1
 10
0.0
 20
0.0
 30
0.0
  3
*D37
  1

  0
LINE
  5
12116
330
11EA7
100
AcDbEntity
  8
ZISSEN1
 62
     1
100
AcDbLine
 10
-1657.35362006114
 20
1762.616624896574
 30
0.0
 11
-1657.35362006114
 21
1747.414073753629
 31
0.0
  0
LINE
  5
12117
330
11EA7
100
AcDbEntity
  8
ZISSEN1
 62
     1
100
AcDbLine
 10
-1677.353590061141
 20
1767.116624896574
 30
0.0
 11
-1677.353590061141
 21
1747.414073753629
 31
0.0
  0
LINE
  5
12118
330
11EA7
100
AcDbEntity
  8
ZISSEN1
 62
     1
100
AcDbLine
 10
-1660.35362006114
 20
1747.914073753628
 30
0.0
 11
-1674.353590061141
 21
1747.914073753628
 31
0.0
  0
SOLID
  5
12119
330
11EA7
100
AcDbEntity
  8
ZISSEN1
 62
     1
100
AcDbTrace
 10
-1660.35362006114
 20
1748.414073753629
 30
0.0
 11
-1660.35362006114
 21
1747.414073753629
 31
0.0
 12
-1657.35362006114
 22
1747.914073753628
 32
0.0
 13
-1657.35362006114
 23
1747.914073753628
 33
0.0
  0
SOLID
  5
1211A
330
11EA7
100
AcDbEntity
  8
ZISSEN1
 62
     1
100
AcDbTrace
 10
-1674.353590061141
 20
1748.414073753629
 30
0.0
 11
-1674.353590061141
 21
1747.414073753629
 31
0.0
 12
-1677.353590061141
 22
1747.914073753628
 32
0.0
 13
-1677.353590061141
 23
1747.914073753628
 33
0.0
  0
MTEXT
  5
1211B
330
11EA7
100
AcDbEntity
  8
ZISSEN1
 62
     1
100
AcDbMText
 10
-1667.353605061141
 20
1750.664073753628
 30
0.0
 40
3.5
 41
0.0
 71
     5
 72
     1
  1
\A1;20
  7
ゴシック体
1001
ACAD
1000
MTEXTBEGIN
1070
    73
1070
     1
1070
    44
1040
1.0
1070
    74
1070
     0
1000
MTEXTEND
  0
POINT
  5
1211C
330
11EA7
100
AcDbEntity
  8
DEFPOINTS
 62
     0
100
AcDbPoint
 10
-1657.35362006114
 20
1763.116624896574
 30
0.0
  0
POINT
  5
1211D
330
11EA7
100
AcDbEntity
  8
DEFPOINTS
 62
     0
100
AcDbPoint
 10
-1677.353590061141
 20
1767.616624896574
 30
0.0
  0
POINT
  5
1211E
330
11EA7
100
AcDbEntity
  8
DEFPOINTS
 62
     0
100
AcDbPoint
 10
-1677.353590061141
 20
1747.914073753628
 30
0.0
  0
ENDBLK
  5
11EB2
330
11EA7
100
AcDbEntity
  8
0
100
AcDbBlockEnd
  0
BLOCK
  5
11EBF
330
11EB4
100
AcDbEntity
  8
0
100
AcDbBlockBegin
  2
*D38
 70
     1
 10
0.0
 20
0.0
 30
0.0
  3
*D38
  1

  0
LINE
  5
120F8
330
11EB4
100
AcDbEntity
  8
ZISSEN1
 62
     1
100
AcDbLine
 10
-1683.35361006114
 20
1767.116624896574
 30
0.0
 11
-1683.35361006114
 21
1747.414073753629
 31
0.0
  0
LINE
  5
120F9
330
11EB4
100
AcDbEntity
  8
ZISSEN1
 62
     1
100
AcDbLine
 10
-1674.353590061141
 20
1747.914073753628
 30
0.0
 11
-1671.353590061141
 21
1747.914073753628
 31
0.0
  0
LINE
  5
120FA
330
11EB4
100
AcDbEntity
  8
ZISSEN1
 62
     1
100
AcDbLine
 10
-1686.35361006114
 20
1747.914073753628
 30
0.0
 11
-1689.35361006114
 21
1747.914073753628
 31
0.0
  0
LINE
  5
120FB
330
11EB4
100
AcDbEntity
  8
ZISSEN1
 62
     1
100
AcDbLine
 10
-1677.353590061141
 20
1747.914073753628
 30
0.0
 11
-1683.35361006114
 21
1747.914073753628
 31
0.0
  0
SOLID
  5
120FC
330
11EB4
100
AcDbEntity
  8
ZISSEN1
 62
     1
100
AcDbTrace
 10
-1674.353590061141
 20
1748.414073753629
 30
0.0
 11
-1674.353590061141
 21
1747.414073753629
 31
0.0
 12
-1677.353590061141
 22
1747.914073753628
 32
0.0
 13
-1677.353590061141
 23
1747.914073753628
 33
0.0
  0
SOLID
  5
120FD
330
11EB4
100
AcDbEntity
  8
ZISSEN1
 62
     1
100
AcDbTrace
 10
-1686.35361006114
 20
1748.414073753629
 30
0.0
 11
-1686.35361006114
 21
1747.414073753629
 31
0.0
 12
-1683.35361006114
 22
1747.914073753628
 32
0.0
 13
-1683.35361006114
 23
1747.914073753628
 33
0.0
  0
MTEXT
  5
120FE
330
11EB4
100
AcDbEntity
  8
ZISSEN1
 62
     1
100
AcDbMText
 10
-1680.35360006114
 20
1750.664073753628
 30
0.0
 40
3.5
 41
0.0
 71
     5
 72
     1
  1
\A1;6
  7
ゴシック体
1001
ACAD
1000
MTEXTBEGIN
1070
    73
1070
     1
1070
    44
1040
1.0
1070
    74
1070
     0
1000
MTEXTEND
  0
POINT
  5
120FF
330
11EB4
100
AcDbEntity
  8
DEFPOINTS
 62
     0
100
AcDbPoint
 10
-1677.353590061141
 20
1747.914073753628
 30
0.0
  0
POINT
  5
12100
330
11EB4
100
AcDbEntity
  8
DEFPOINTS
 62
     0
100
AcDbPoint
 10
-1683.35361006114
 20
1767.616624896574
 30
0.0
  0
POINT
  5
12101
330
11EB4
100
AcDbEntity
  8
DEFPOINTS
 62
     0
100
AcDbPoint
 10
-1683.35361006114
 20
1747.914073753628
 30
0.0
  0
ENDBLK
  5
11EC0
330
11EB4
100
AcDbEntity
  8
0
100
AcDbBlockEnd
  0
BLOCK
  5
11ECE
330
11EC2
100
AcDbEntity
  8
0
100
AcDbBlockBegin
  2
*D39
 70
     1
 10
0.0
 20
0.0
 30
0.0
  3
*D39
  1

  0
LINE
  5
1210B
330
11EC2
100
AcDbEntity
  8
ZISSEN1
 62
     1
100
AcDbLine
 10
-1694.14651006114
 20
1763.616624896574
 30
0.0
 11
-1718.48835170345
 21
1763.616624896574
 31
0.0
  0
LINE
  5
1210C
330
11EC2
100
AcDbEntity
  8
ZISSEN1
 62
     1
100
AcDbLine
 10
-1683.853610061141
 20
1767.616624896574
 30
0.0
 11
-1718.48835170345
 21
1767.616624896574
 31
0.0
  0
LINE
  5
1210D
330
11EC2
100
AcDbEntity
  8
ZISSEN1
 62
     1
100
AcDbLine
 10
-1717.988351703449
 20
1760.616624896574
 30
0.0
 11
-1717.988351703449
 21
1757.616624896574
 31
0.0
  0
LINE
  5
1210E
330
11EC2
100
AcDbEntity
  8
ZISSEN1
 62
     1
100
AcDbLine
 10
-1717.988351703449
 20
1770.616624896574
 30
0.0
 11
-1717.988351703449
 21
1773.616624896574
 31
0.0
  0
LINE
  5
1210F
330
11EC2
100
AcDbEntity
  8
ZISSEN1
 62
     1
100
AcDbLine
 10
-1717.988351703449
 20
1763.616624896574
 30
0.0
 11
-1717.988351703449
 21
1767.616624896574
 31
0.0
  0
SOLID
  5
12110
330
11EC2
100
AcDbEntity
  8
ZISSEN1
 62
     1
100
AcDbTrace
 10
-1718.48835170345
 20
1760.616624896574
 30
0.0
 11
-1717.488351703449
 21
1760.616624896574
 31
0.0
 12
-1717.988351703449
 22
1763.616624896574
 32
0.0
 13
-1717.988351703449
 23
1763.616624896574
 33
0.0
  0
SOLID
  5
12111
330
11EC2
100
AcDbEntity
  8
ZISSEN1
 62
     1
100
AcDbTrace
 10
-1718.48835170345
 20
1770.616624896574
 30
0.0
 11
-1717.488351703449
 21
1770.616624896574
 31
0.0
 12
-1717.988351703449
 22
1767.616624896574
 32
0.0
 13
-1717.988351703449
 23
1767.616624896574
 33
0.0
  0
MTEXT
  5
12112
330
11EC2
100
AcDbEntity
  8
ZISSEN1
 62
     1
100
AcDbMText
 10
-1720.73835170345
 20
1765.616624896574
 30
0.0
 40
3.5
 41
0.0
 71
     5
 72
     1
  1
\A1;4
  7
ゴシック体
 11
0.0000000000000001
 21
1.0
 31
0.0
1001
ACAD
1000
MTEXTBEGIN
1070
    73
1070
     1
1070
    44
1040
1.0
1070
    74
1070
     0
1000
MTEXTEND
  0
POINT
  5
12113
330
11EC2
100
AcDbEntity
  8
DEFPOINTS
 62
     0
100
AcDbPoint
 10
-1693.64651006114
 20
1763.616624896574
 30
0.0
  0
POINT
  5
12114
330
11EC2
100
AcDbEntity
  8
DEFPOINTS
 62
     0
100
AcDbPoint
 10
-1683.35361006114
 20
1767.616624896574
 30
0.0
  0
POINT
  5
12115
330
11EC2
100
AcDbEntity
  8
DEFPOINTS
 62
     0
100
AcDbPoint
 10
-1717.988351703449
 20
1767.616624896574
 30
0.0
  0
ENDBLK
  5
11ECF
330
11EC2
100
AcDbEntity
  8
0
100
AcDbBlockEnd
  0
BLOCK
  5
11EDB
330
11ED1
100
AcDbEntity
  8
0
100
AcDbBlockBegin
  2
*D40
 70
     1
 10
0.0
 20
0.0
 30
0.0
  3
*D40
  1

  0
LINE
  5
120DB
330
11ED1
100
AcDbEntity
  8
ZISSEN1
 62
     1
100
AcDbLine
 10
-1683.853610061141
 20
1894.616634896574
 30
0.0
 11
-1718.48835170345
 21
1894.616634896574
 31
0.0
  0
LINE
  5
120DC
330
11ED1
100
AcDbEntity
  8
ZISSEN1
 62
     1
100
AcDbLine
 10
-1683.853610061141
 20
1767.616624896574
 30
0.0
 11
-1718.48835170345
 21
1767.616624896574
 31
0.0
  0
LINE
  5
120DD
330
11ED1
100
AcDbEntity
  8
ZISSEN1
 62
     1
100
AcDbLine
 10
-1717.988351703449
 20
1891.616634896574
 30
0.0
 11
-1717.988351703449
 21
1770.616624896574
 31
0.0
  0
SOLID
  5
120DE
330
11ED1
100
AcDbEntity
  8
ZISSEN1
 62
     1
100
AcDbTrace
 10
-1718.48835170345
 20
1891.616634896574
 30
0.0
 11
-1717.488351703449
 21
1891.616634896574
 31
0.0
 12
-1717.988351703449
 22
1894.616634896574
 32
0.0
 13
-1717.988351703449
 23
1894.616634896574
 33
0.0
  0
SOLID
  5
120DF
330
11ED1
100
AcDbEntity
  8
ZISSEN1
 62
     1
100
AcDbTrace
 10
-1718.48835170345
 20
1770.616624896574
 30
0.0
 11
-1717.488351703449
 21
1770.616624896574
 31
0.0
 12
-1717.988351703449
 22
1767.616624896574
 32
0.0
 13
-1717.988351703449
 23
1767.616624896574
 33
0.0
  0
MTEXT
  5
120E0
330
11ED1
100
AcDbEntity
  8
ZISSEN1
 62
     1
100
AcDbMText
 10
-1720.73835170345
 20
1831.116629896574
 30
0.0
 40
3.5
 41
0.0
 71
     5
 72
     1
  1
\A1;127
  7
ゴシック体
 11
0.0000000000000001
 21
1.0
 31
0.0
1001
ACAD
1000
MTEXTBEGIN
1070
    73
1070
     1
1070
    44
1040
1.0
1070
    74
1070
     0
1000
MTEXTEND
  0
POINT
  5
120E1
330
11ED1
100
AcDbEntity
  8
DEFPOINTS
 62
     0
100
AcDbPoint
 10
-1683.35361006114
 20
1894.616634896574
 30
0.0
  0
POINT
  5
120E2
330
11ED1
100
AcDbEntity
  8
DEFPOINTS
 62
     0
100
AcDbPoint
 10
-1683.35361006114
 20
1767.616624896574
 30
0.0
  0
POINT
  5
120E3
330
11ED1
100
AcDbEntity
  8
DEFPOINTS
 62
     0
100
AcDbPoint
 10
-1717.988351703449
 20
1767.616624896574
 30
0.0
  0
ENDBLK
  5
11EDC
330
11ED1
100
AcDbEntity
  8
0
100
AcDbBlockEnd
  0
BLOCK
  5
11EEA
330
11EDE
100
AcDbEntity
  8
0
100
AcDbBlockBegin
  2
*D41
 70
     1
 10
0.0
 20
0.0
 30
0.0
  3
*D41
  1

  0
LINE
  5
1212A
330
11EDE
100
AcDbEntity
  8
ZISSEN1
 62
     1
100
AcDbLine
 10
-1694.14651006114
 20
1898.616624896574
 30
0.0
 11
-1718.48835170345
 21
1898.616624896574
 31
0.0
  0
LINE
  5
1212B
330
11EDE
100
AcDbEntity
  8
ZISSEN1
 62
     1
100
AcDbLine
 10
-1677.853590061141
 20
1894.616634896574
 30
0.0
 11
-1718.48835170345
 21
1894.616634896574
 31
0.0
  0
LINE
  5
1212C
330
11EDE
100
AcDbEntity
  8
ZISSEN1
 62
     1
100
AcDbLine
 10
-1717.988351703449
 20
1901.616624896574
 30
0.0
 11
-1717.988351703449
 21
1904.616624896574
 31
0.0
  0
LINE
  5
1212D
330
11EDE
100
AcDbEntity
  8
ZISSEN1
 62
     1
100
AcDbLine
 10
-1717.988351703449
 20
1891.616634896574
 30
0.0
 11
-1717.988351703449
 21
1888.616634896574
 31
0.0
  0
LINE
  5
1212E
330
11EDE
100
AcDbEntity
  8
ZISSEN1
 62
     1
100
AcDbLine
 10
-1717.988351703449
 20
1898.616624896574
 30
0.0
 11
-1717.988351703449
 21
1894.616634896574
 31
0.0
  0
SOLID
  5
1212F
330
11EDE
100
AcDbEntity
  8
ZISSEN1
 62
     1
100
AcDbTrace
 10
-1718.48835170345
 20
1901.616624896574
 30
0.0
 11
-1717.488351703449
 21
1901.616624896574
 31
0.0
 12
-1717.988351703449
 22
1898.616624896574
 32
0.0
 13
-1717.988351703449
 23
1898.616624896574
 33
0.0
  0
SOLID
  5
12130
330
11EDE
100
AcDbEntity
  8
ZISSEN1
 62
     1
100
AcDbTrace
 10
-1718.48835170345
 20
1891.616634896574
 30
0.0
 11
-1717.488351703449
 21
1891.616634896574
 31
0.0
 12
-1717.988351703449
 22
1894.616634896574
 32
0.0
 13
-1717.988351703449
 23
1894.616634896574
 33
0.0
  0
MTEXT
  5
12131
330
11EDE
100
AcDbEntity
  8
ZISSEN1
 62
     1
100
AcDbMText
 10
-1720.73835170345
 20
1896.616629896574
 30
0.0
 40
3.5
 41
0.0
 71
     5
 72
     1
  1
\A1;4
  7
ゴシック体
 11
0.0000000000000001
 21
1.0
 31
0.0
1001
ACAD
1000
MTEXTBEGIN
1070
    73
1070
     1
1070
    44
1040
1.0
1070
    74
1070
     0
1000
MTEXTEND
  0
POINT
  5
12132
330
11EDE
100
AcDbEntity
  8
DEFPOINTS
 62
     0
100
AcDbPoint
 10
-1693.64651006114
 20
1898.616624896574
 30
0.0
  0
POINT
  5
12133
330
11EDE
100
AcDbEntity
  8
DEFPOINTS
 62
     0
100
AcDbPoint
 10
-1677.353590061141
 20
1894.616634896574
 30
0.0
  0
POINT
  5
12134
330
11EDE
100
AcDbEntity
  8
DEFPOINTS
 62
     0
100
AcDbPoint
 10
-1717.988351703449
 20
1894.616634896574
 30
0.0
  0
ENDBLK
  5
11EEB
330
11EDE
100
AcDbEntity
  8
0
100
AcDbBlockEnd
  0
ENDSEC
  0
SECTION
  2
ENTITIES
  0
MTEXT
  5
5084
330
1A
100
AcDbEntity
  8
0
100
AcDbMText
 10
1985.239088685434
 20
-948.5420423450428
 30
0.0
 40
8.0
 41
0.0
 71
     7
 72
     5
  1

1001
ACAD
1000
MTEXTBEGIN
1070
    73
1070
     1
1070
    44
1040
1.0
1070
    74
1070
     0
1000
MTEXTEND
  0
MTEXT
  5
5085
330
1A
100
AcDbEntity
  8
0
100
AcDbMText
 10
4270.596778580329
 20
22.24825240601648
 30
0.0
 40
8.0
 41
0.0
 71
     7
 72
     5
  1

1001
ACAD
1000
MTEXTBEGIN
1070
    73
1070
     1
1070
    44
1040
1.0
1070
    74
1070
     0
1000
MTEXTEND
  0
MTEXT
  5
5343
330
1A
100
AcDbEntity
  8
SUNPOU
100
AcDbMText
 10
6936.493799262471
 20
9534.359644781137
 30
0.0
 40
10.5
 41
0.0
 71
     1
 72
     5
  1

1001
ACAD
1000
MTEXTBEGIN
1070
    73
1070
     1
1070
    44
1040
1.0
1070
    74
1070
     0
1000
MTEXTEND
  0
MTEXT
  5
544F
330
1A
100
AcDbEntity
  8
0
100
AcDbMText
 10
16317.2832773148
 20
12833.35428897674
 30
0.0
 40
8.0
 41
0.0
 71
     7
 72
     5
  1

1001
ACAD
1000
MTEXTBEGIN
1070
    73
1070
     1
1070
    44
1040
1.0
1070
    74
1070
     0
1000
MTEXTEND
  0
MTEXT
  5
5450
330
1A
100
AcDbEntity
  8
0
100
AcDbMText
 10
18602.64096720968
 20
13804.1445837278
 30
0.0
 40
8.0
 41
0.0
 71
     7
 72
     5
  1

1001
ACAD
1000
MTEXTBEGIN
1070
    73
1070
     1
1070
    44
1040
1.0
1070
    74
1070
     0
1000
MTEXTEND
  0
MTEXT
  5
5451
330
1A
100
AcDbEntity
  8
SUNPOU
100
AcDbMText
 10
21268.53798789184
 20
23316.25597610292
 30
0.0
 40
10.5
 41
0.0
 71
     1
 72
     5
  1

1001
ACAD
1000
MTEXTBEGIN
1070
    73
1070
     1
1070
    44
1040
1.0
1070
    74
1070
     0
1000
MTEXTEND
  0
MTEXT
  5
5452
330
1A
100
AcDbEntity
  8
SUNPOU
100
AcDbMText
 10
13337.6147919559
 20
22369.46284218996
 30
0.0
 40
10.5
 41
0.0
 71
     7
 72
     5
  1

1001
ACAD
1000
MTEXTBEGIN
1070
    73
1070
     1
1070
    44
1040
1.0
1070
    74
1070
     0
1000
MTEXTEND
  0
MTEXT
  5
5453
330
1A
100
AcDbEntity
  8
SUNPOU
100
AcDbMText
 10
16286.59845646867
 20
27270.1389140328
 30
0.0
 40
10.5
 41
0.0
 71
     7
 72
     5
  1

1001
ACAD
1000
MTEXTBEGIN
1070
    73
1070
     1
1070
    44
1040
1.0
1070
    74
1070
     0
1000
MTEXTEND
  0
MTEXT
  5
5454
330
1A
100
AcDbEntity
  8
SUNPOU
100
AcDbMText
 10
20795.67658441924
 20
29706.43966165288
 30
0.0
 40
10.5
 41
0.0
 71
     7
 72
     5
  1

1001
ACAD
1000
MTEXTBEGIN
1070
    73
1070
     1
1070
    44
1040
1.0
1070
    74
1070
     0
1000
MTEXTEND
  0
MTEXT
  5
5455
330
1A
100
AcDbEntity
  8
0
100
AcDbMText
 10
16611.93789220313
 20
14707.52144344448
 30
0.0
 40
8.0
 41
0.0
 71
     7
 72
     5
  1

1001
ACAD
1000
MTEXTBEGIN
1070
    73
1070
     1
1070
    44
1040
1.0
1070
    74
1070
     0
1000
MTEXTEND
  0
MTEXT
  5
5456
330
1A
100
AcDbEntity
  8
0
100
AcDbMText
 10
18897.29558209803
 20
15678.31173819554
 30
0.0
 40
8.0
 41
0.0
 71
     7
 72
     5
  1

1001
ACAD
1000
MTEXTBEGIN
1070
    73
1070
     1
1070
    44
1040
1.0
1070
    74
1070
     0
1000
MTEXTEND
  0
MTEXT
  5
5457
330
1A
100
AcDbEntity
  8
SUNPOU
100
AcDbMText
 10
21563.19260278019
 20
25190.42313057066
 30
0.0
 40
10.5
 41
0.0
 71
     1
 72
     5
  1

1001
ACAD
1000
MTEXTBEGIN
1070
    73
1070
     1
1070
    44
1040
1.0
1070
    74
1070
     0
1000
MTEXTEND
  0
MTEXT
  5
5458
330
1A
100
AcDbEntity
  8
SUNPOU
100
AcDbMText
 10
13632.26940684425
 20
24243.6299966577
 30
0.0
 40
10.5
 41
0.0
 71
     7
 72
     5
  1

1001
ACAD
1000
MTEXTBEGIN
1070
    73
1070
     1
1070
    44
1040
1.0
1070
    74
1070
     0
1000
MTEXTEND
  0
MTEXT
  5
5459
330
1A
100
AcDbEntity
  8
SUNPOU
100
AcDbMText
 10
16581.25307135702
 20
29144.30606850055
 30
0.0
 40
10.5
 41
0.0
 71
     7
 72
     5
  1

1001
ACAD
1000
MTEXTBEGIN
1070
    73
1070
     1
1070
    44
1040
1.0
1070
    74
1070
     0
1000
MTEXTEND
  0
MTEXT
  5
545A
330
1A
100
AcDbEntity
  8
SUNPOU
100
AcDbMText
 10
21090.33119930759
 20
31580.60681612062
 30
0.0
 40
10.5
 41
0.0
 71
     7
 72
     5
  1

1001
ACAD
1000
MTEXTBEGIN
1070
    73
1070
     1
1070
    44
1040
1.0
1070
    74
1070
     0
1000
MTEXTEND
  0
MTEXT
  5
545B
330
1A
100
AcDbEntity
  8
0
100
AcDbMText
 10
22871.60517627166
 20
23974.88367124799
 30
0.0
 40
8.0
 41
0.0
 71
     7
 72
     5
  1

1001
ACAD
1000
MTEXTBEGIN
1070
    73
1070
     1
1070
    44
1040
1.0
1070
    74
1070
     0
1000
MTEXTEND
  0
MTEXT
  5
545C
330
1A
100
AcDbEntity
  8
0
100
AcDbMText
 10
25156.96286616656
 20
24945.67396599905
 30
0.0
 40
8.0
 41
0.0
 71
     7
 72
     5
  1

1001
ACAD
1000
MTEXTBEGIN
1070
    73
1070
     1
1070
    44
1040
1.0
1070
    74
1070
     0
1000
MTEXTEND
  0
MTEXT
  5
545D
330
1A
100
AcDbEntity
  8
SUNPOU
100
AcDbMText
 10
27822.85988684871
 20
34457.78535837418
 30
0.0
 40
10.5
 41
0.0
 71
     1
 72
     5
  1

1001
ACAD
1000
MTEXTBEGIN
1070
    73
1070
     1
1070
    44
1040
1.0
1070
    74
1070
     0
1000
MTEXTEND
  0
MTEXT
  5
545E
330
1A
100
AcDbEntity
  8
SUNPOU
100
AcDbMText
 10
19891.93669091278
 20
33510.99222446122
 30
0.0
 40
10.5
 41
0.0
 71
     7
 72
     5
  1

1001
ACAD
1000
MTEXTBEGIN
1070
    73
1070
     1
1070
    44
1040
1.0
1070
    74
1070
     0
1000
MTEXTEND
  0
MTEXT
  5
545F
330
1A
100
AcDbEntity
  8
SUNPOU
100
AcDbMText
 10
22840.92035542555
 20
38411.66829630406
 30
0.0
 40
10.5
 41
0.0
 71
     7
 72
     5
  1

1001
ACAD
1000
MTEXTBEGIN
1070
    73
1070
     1
1070
    44
1040
1.0
1070
    74
1070
     0
1000
MTEXTEND
  0
MTEXT
  5
5460
330
1A
100
AcDbEntity
  8
SUNPOU
100
AcDbMText
 10
27349.99848337611
 20
40847.96904392415
 30
0.0
 40
10.5
 41
0.0
 71
     7
 72
     5
  1

1001
ACAD
1000
MTEXTBEGIN
1070
    73
1070
     1
1070
    44
1040
1.0
1070
    74
1070
     0
1000
MTEXTEND
  0
MTEXT
  5
55B7
330
1A
100
AcDbEntity
  8
SUNPOU
100
AcDbMText
 10
67424.23923338197
 20
64463.86602884816
 30
0.0
 40
10.5
 41
0.0
 71
     9
 72
     5
  1

1001
ACAD
1000
MTEXTBEGIN
1070
    73
1070
     1
1070
    44
1040
1.0
1070
    74
1070
     0
1000
MTEXTEND
  0
MTEXT
  5
55B8
330
1A
100
AcDbEntity
  8
SUNPOU
100
AcDbMText
 10
76146.40679929998
 20
71879.70056038563
 30
0.0
 40
10.5
 41
0.0
 71
     9
 72
     5
  1

1001
ACAD
1000
MTEXTBEGIN
1070
    73
1070
     1
1070
    44
1040
1.0
1070
    74
1070
     0
1000
MTEXTEND
  0
MTEXT
  5
55B9
330
1A
100
AcDbEntity
  8
SUNPOU
100
AcDbMText
 10
95100.16551662994
 20
89346.27661287766
 30
0.0
 40
10.5
 41
0.0
 71
     9
 72
     5
  1

1001
ACAD
1000
MTEXTBEGIN
1070
    73
1070
     1
1070
    44
1040
1.0
1070
    74
1070
     0
1000
MTEXTEND
  0
MTEXT
  5
55BA
330
1A
100
AcDbEntity
  8
SUNPOU
100
AcDbMText
 10
97043.57276333935
 20
87545.22753299966
 30
0.0
 40
3.5
 41
0.0
 71
     9
 72
     5
  1

1001
ACAD
1000
MTEXTBEGIN
1070
    73
1070
     1
1070
    44
1040
1.0
1070
    74
1070
     0
1000
MTEXTEND
  0
MTEXT
  5
55BB
330
1A
100
AcDbEntity
  8
SUNPOU
100
AcDbMText
 10
128169.7525959589
 20
130040.1732006569
 30
0.0
 40
10.5
 41
0.0
 71
     9
 72
     5
  1

1001
ACAD
1000
MTEXTBEGIN
1070
    73
1070
     1
1070
    44
1040
1.0
1070
    74
1070
     0
1000
MTEXTEND
  0
MTEXT
  5
55BC
330
1A
100
AcDbEntity
  8
SUNPOU
100
AcDbMText
 10
130113.1598426684
 20
128239.1241207789
 30
0.0
 40
3.5
 41
0.0
 71
     9
 72
     5
  1

1001
ACAD
1000
MTEXTBEGIN
1070
    73
1070
     1
1070
    44
1040
1.0
1070
    74
1070
     0
1000
MTEXTEND
  0
MTEXT
  5
55BD
330
1A
100
AcDbEntity
  8
SUNPOU
100
AcDbMText
 10
78610.02030175463
 20
75873.33835563206
 30
0.0
 40
10.5
 41
0.0
 71
     9
 72
     5
  1

1001
ACAD
1000
MTEXTBEGIN
1070
    73
1070
     1
1070
    44
1040
1.0
1070
    74
1070
     0
1000
MTEXTEND
  0
MTEXT
  5
55BE
330
1A
100
AcDbEntity
  8
SUNPOU
100
AcDbMText
 10
64662.02020137862
 20
56700.93921651987
 30
0.0
 40
3.5
 41
0.0
 71
     7
 72
     5
  1

1001
ACAD
1000
MTEXTBEGIN
1070
    73
1070
     1
1070
    44
1040
1.0
1070
    74
1070
     0
1000
MTEXTEND
  0
MTEXT
  5
55BF
330
1A
100
AcDbEntity
  8
SUNPOU
100
AcDbMText
 10
45647.18959837177
 20
44463.08794733806
 30
0.0
 40
10.5
 41
0.0
 71
     7
 72
     5
  1

1001
ACAD
1000
MTEXTBEGIN
1070
    73
1070
     1
1070
    44
1040
1.0
1070
    74
1070
     0
1000
MTEXTEND
  0
MTEXT
  5
55C0
330
1A
100
AcDbEntity
  8
SUNPOU
100
AcDbMText
 10
33189.96133342368
 20
28618.15636923965
 30
0.0
 40
35.0
 41
0.0
 71
     9
 72
     5
  1

1001
ACAD
1000
MTEXTBEGIN
1070
    73
1070
     1
1070
    44
1040
1.0
1070
    74
1070
     0
1000
MTEXTEND
  0
MTEXT
  5
55C1
330
1A
100
AcDbEntity
  8
SUNPOU
100
AcDbMText
 10
32098.44639099864
 20
29226.93177928834
 30
0.0
 40
350.0000004171781
 41
0.0
 71
     7
 72
     5
  1

1001
ACAD
1000
MTEXTBEGIN
1070
    73
1070
     1
1070
    44
1040
1.0
1070
    74
1070
     0
1000
MTEXTEND
  0
MTEXT
  5
55C2
330
1A
100
AcDbEntity
  8
0
100
AcDbMText
 10
38142.39714894154
 20
27206.85414142458
 30
0.0
 40
8.0
 41
0.0
 71
     7
 72
     5
  1

1001
ACAD
1000
MTEXTBEGIN
1070
    73
1070
     1
1070
    44
1040
1.0
1070
    74
1070
     0
1000
MTEXTEND
  0
MTEXT
  5
55C3
330
1A
100
AcDbEntity
  8
0
100
AcDbMText
 10
40427.75483883644
 20
28177.64443617564
 30
0.0
 40
8.0
 41
0.0
 71
     7
 72
     5
  1

1001
ACAD
1000
MTEXTBEGIN
1070
    73
1070
     1
1070
    44
1040
1.0
1070
    74
1070
     0
1000
MTEXTEND
  0
MTEXT
  5
55C4
330
1A
100
AcDbEntity
  8
SUNPOU
100
AcDbMText
 10
43093.65185951858
 20
37689.75582855077
 30
0.0
 40
10.5
 41
0.0
 71
     1
 72
     5
  1

1001
ACAD
1000
MTEXTBEGIN
1070
    73
1070
     1
1070
    44
1040
1.0
1070
    74
1070
     0
1000
MTEXTEND
  0
MTEXT
  5
55C5
330
1A
100
AcDbEntity
  8
SUNPOU
100
AcDbMText
 10
35162.72866358265
 20
36742.96269463781
 30
0.0
 40
10.5
 41
0.0
 71
     7
 72
     5
  1

1001
ACAD
1000
MTEXTBEGIN
1070
    73
1070
     1
1070
    44
1040
1.0
1070
    74
1070
     0
1000
MTEXTEND
  0
MTEXT
  5
55C6
330
1A
100
AcDbEntity
  8
SUNPOU
100
AcDbMText
 10
38111.71232809542
 20
41643.63876648065
 30
0.0
 40
10.5
 41
0.0
 71
     7
 72
     5
  1

1001
ACAD
1000
MTEXTBEGIN
1070
    73
1070
     1
1070
    44
1040
1.0
1070
    74
1070
     0
1000
MTEXTEND
  0
MTEXT
  5
55C7
330
1A
100
AcDbEntity
  8
SUNPOU
100
AcDbMText
 10
42620.79045604596
 20
44079.93951410074
 30
0.0
 40
10.5
 41
0.0
 71
     7
 72
     5
  1

1001
ACAD
1000
MTEXTBEGIN
1070
    73
1070
     1
1070
    44
1040
1.0
1070
    74
1070
     0
1000
MTEXTEND
  0
MTEXT
  5
55C8
330
1A
100
AcDbEntity
  8
SUNPOU
100
AcDbMText
 10
26221.62834281429
 20
23077.53566448964
 30
0.0
 40
10.5
 41
0.0
 71
     7
 72
     5
  1

1001
ACAD
1000
MTEXTBEGIN
1070
    73
1070
     1
1070
    44
1040
1.0
1070
    74
1070
     0
1000
MTEXTEND
  0
MTEXT
  5
55C9
330
1A
100
AcDbEntity
  8
SUNPOU
100
AcDbMText
 10
77413.14677671455
 20
68750.51622813789
 30
0.0
 40
10.5
 41
0.0
 71
     9
 72
     5
  1

1001
ACAD
1000
MTEXTBEGIN
1070
    73
1070
     1
1070
    44
1040
1.0
1070
    74
1070
     0
1000
MTEXTEND
  0
MTEXT
  5
55CA
330
1A
100
AcDbEntity
  8
SUNPOU
100
AcDbMText
 10
86135.31434263256
 20
76166.35075967536
 30
0.0
 40
10.5
 41
0.0
 71
     9
 72
     5
  1

1001
ACAD
1000
MTEXTBEGIN
1070
    73
1070
     1
1070
    44
1040
1.0
1070
    74
1070
     0
1000
MTEXTEND
  0
MTEXT
  5
55CB
330
1A
100
AcDbEntity
  8
SUNPOU
100
AcDbMText
 10
105089.0730599624
 20
93632.92681216739
 30
0.0
 40
10.5
 41
0.0
 71
     9
 72
     5
  1

1001
ACAD
1000
MTEXTBEGIN
1070
    73
1070
     1
1070
    44
1040
1.0
1070
    74
1070
     0
1000
MTEXTEND
  0
MTEXT
  5
55CC
330
1A
100
AcDbEntity
  8
SUNPOU
100
AcDbMText
 10
107032.4803066718
 20
91831.87773228938
 30
0.0
 40
3.5
 41
0.0
 71
     9
 72
     5
  1

1001
ACAD
1000
MTEXTBEGIN
1070
    73
1070
     1
1070
    44
1040
1.0
1070
    74
1070
     0
1000
MTEXTEND
  0
MTEXT
  5
55CD
330
1A
100
AcDbEntity
  8
SUNPOU
100
AcDbMText
 10
138158.6601392916
 20
134326.8233999467
 30
0.0
 40
10.5
 41
0.0
 71
     9
 72
     5
  1

1001
ACAD
1000
MTEXTBEGIN
1070
    73
1070
     1
1070
    44
1040
1.0
1070
    74
1070
     0
1000
MTEXTEND
  0
MTEXT
  5
55CE
330
1A
100
AcDbEntity
  8
SUNPOU
100
AcDbMText
 10
140102.067386001
 20
132525.7743200686
 30
0.0
 40
3.5
 41
0.0
 71
     9
 72
     5
  1

1001
ACAD
1000
MTEXTBEGIN
1070
    73
1070
     1
1070
    44
1040
1.0
1070
    74
1070
     0
1000
MTEXTEND
  0
MTEXT
  5
55CF
330
1A
100
AcDbEntity
  8
SUNPOU
100
AcDbMText
 10
88598.92784508721
 20
80159.98855492179
 30
0.0
 40
10.5
 41
0.0
 71
     9
 72
     5
  1

1001
ACAD
1000
MTEXTBEGIN
1070
    73
1070
     1
1070
    44
1040
1.0
1070
    74
1070
     0
1000
MTEXTEND
  0
MTEXT
  5
55D0
330
1A
100
AcDbEntity
  8
SUNPOU
100
AcDbMText
 10
74650.92774471121
 20
60987.58941580959
 30
0.0
 40
3.5
 41
0.0
 71
     7
 72
     5
  1

1001
ACAD
1000
MTEXTBEGIN
1070
    73
1070
     1
1070
    44
1040
1.0
1070
    74
1070
     0
1000
MTEXTEND
  0
MTEXT
  5
55D1
330
1A
100
AcDbEntity
  8
SUNPOU
100
AcDbMText
 10
55636.09714170436
 20
48749.73814662781
 30
0.0
 40
10.5
 41
0.0
 71
     7
 72
     5
  1

1001
ACAD
1000
MTEXTBEGIN
1070
    73
1070
     1
1070
    44
1040
1.0
1070
    74
1070
     0
1000
MTEXTEND
  0
MTEXT
  5
55D2
330
1A
100
AcDbEntity
  8
SUNPOU
100
AcDbMText
 10
43178.86887675626
 20
32904.80656852937
 30
0.0
 40
35.0
 41
0.0
 71
     9
 72
     5
  1

1001
ACAD
1000
MTEXTBEGIN
1070
    73
1070
     1
1070
    44
1040
1.0
1070
    74
1070
     0
1000
MTEXTEND
  0
MTEXT
  5
55D3
330
1A
100
AcDbEntity
  8
SUNPOU
100
AcDbMText
 10
42087.3539343312
 20
33513.58197857808
 30
0.0
 40
350.0000004171781
 41
0.0
 71
     7
 72
     5
  1

1001
ACAD
1000
MTEXTBEGIN
1070
    73
1070
     1
1070
    44
1040
1.0
1070
    74
1070
     0
1000
MTEXTEND
  0
MTEXT
  5
55D4
330
1A
100
AcDbEntity
  8
0
100
AcDbMText
 10
48131.30469227412
 20
31493.50434071431
 30
0.0
 40
8.0
 41
0.0
 71
     7
 72
     5
  1

1001
ACAD
1000
MTEXTBEGIN
1070
    73
1070
     1
1070
    44
1040
1.0
1070
    74
1070
     0
1000
MTEXTEND
  0
MTEXT
  5
55D5
330
1A
100
AcDbEntity
  8
0
100
AcDbMText
 10
50416.66238216901
 20
32464.29463546537
 30
0.0
 40
8.0
 41
0.0
 71
     7
 72
     5
  1

1001
ACAD
1000
MTEXTBEGIN
1070
    73
1070
     1
1070
    44
1040
1.0
1070
    74
1070
     0
1000
MTEXTEND
  0
MTEXT
  5
55D6
330
1A
100
AcDbEntity
  8
SUNPOU
100
AcDbMText
 10
53082.55940285115
 20
41976.4060278405
 30
0.0
 40
10.5
 41
0.0
 71
     1
 72
     5
  1

1001
ACAD
1000
MTEXTBEGIN
1070
    73
1070
     1
1070
    44
1040
1.0
1070
    74
1070
     0
1000
MTEXTEND
  0
MTEXT
  5
55D7
330
1A
100
AcDbEntity
  8
SUNPOU
100
AcDbMText
 10
45151.63620691521
 20
41029.61289392755
 30
0.0
 40
10.5
 41
0.0
 71
     7
 72
     5
  1

1001
ACAD
1000
MTEXTBEGIN
1070
    73
1070
     1
1070
    44
1040
1.0
1070
    74
1070
     0
1000
MTEXTEND
  0
MTEXT
  5
55D8
330
1A
100
AcDbEntity
  8
SUNPOU
100
AcDbMText
 10
48100.61987142798
 20
45930.28896577039
 30
0.0
 40
10.5
 41
0.0
 71
     7
 72
     5
  1

1001
ACAD
1000
MTEXTBEGIN
1070
    73
1070
     1
1070
    44
1040
1.0
1070
    74
1070
     0
1000
MTEXTEND
  0
MTEXT
  5
55D9
330
1A
100
AcDbEntity
  8
SUNPOU
100
AcDbMText
 10
52609.69799937853
 20
48366.58971339046
 30
0.0
 40
10.5
 41
0.0
 71
     7
 72
     5
  1

1001
ACAD
1000
MTEXTBEGIN
1070
    73
1070
     1
1070
    44
1040
1.0
1070
    74
1070
     0
1000
MTEXTEND
  0
MTEXT
  5
55DA
330
1A
100
AcDbEntity
  8
SUNPOU
100
AcDbMText
 10
36210.53588614687
 20
27364.18586377937
 30
0.0
 40
10.5
 41
0.0
 71
     7
 72
     5
  1

1001
ACAD
1000
MTEXTBEGIN
1070
    73
1070
     1
1070
    44
1040
1.0
1070
    74
1070
     0
1000
MTEXTEND
  0
MTEXT
  5
55DB
330
1A
100
AcDbEntity
  8
SUNPOU
100
AcDbMText
 10
38021.29879752181
 20
33691.59985125794
 30
0.0
 40
10.5
 41
0.0
 71
     9
 72
     5
  1

1001
ACAD
1000
MTEXTBEGIN
1070
    73
1070
     1
1070
    44
1040
1.0
1070
    74
1070
     0
1000
MTEXTEND
  0
MTEXT
  5
55DC
330
1A
100
AcDbEntity
  8
SUNPOU
100
AcDbMText
 10
46743.46636343979
 20
41107.4343827954
 30
0.0
 40
10.5
 41
0.0
 71
     9
 72
     5
  1

1001
ACAD
1000
MTEXTBEGIN
1070
    73
1070
     1
1070
    44
1040
1.0
1070
    74
1070
     0
1000
MTEXTEND
  0
MTEXT
  5
55DD
330
1A
100
AcDbEntity
  8
SUNPOU
100
AcDbMText
 10
65697.22508076974
 20
58574.01043528746
 30
0.0
 40
10.5
 41
0.0
 71
     9
 72
     5
  1

1001
ACAD
1000
MTEXTBEGIN
1070
    73
1070
     1
1070
    44
1040
1.0
1070
    74
1070
     0
1000
MTEXTEND
  0
MTEXT
  5
55DE
330
1A
100
AcDbEntity
  8
SUNPOU
100
AcDbMText
 10
67640.63232747917
 20
56772.96135540945
 30
0.0
 40
3.5
 41
0.0
 71
     9
 72
     5
  1

1001
ACAD
1000
MTEXTBEGIN
1070
    73
1070
     1
1070
    44
1040
1.0
1070
    74
1070
     0
1000
MTEXTEND
  0
MTEXT
  5
55DF
330
1A
100
AcDbEntity
  8
SUNPOU
100
AcDbMText
 10
98766.81216009886
 20
99267.9070230668
 30
0.0
 40
10.5
 41
0.0
 71
     9
 72
     5
  1

1001
ACAD
1000
MTEXTBEGIN
1070
    73
1070
     1
1070
    44
1040
1.0
1070
    74
1070
     0
1000
MTEXTEND
  0
MTEXT
  5
55E0
330
1A
100
AcDbEntity
  8
SUNPOU
100
AcDbMText
 10
100710.2194068083
 20
97466.85794318876
 30
0.0
 40
3.5
 41
0.0
 71
     9
 72
     5
  1

1001
ACAD
1000
MTEXTBEGIN
1070
    73
1070
     1
1070
    44
1040
1.0
1070
    74
1070
     0
1000
MTEXTEND
  0
MTEXT
  5
55E1
330
1A
100
AcDbEntity
  8
SUNPOU
100
AcDbMText
 10
49207.07986589443
 20
45101.07217804184
 30
0.0
 40
10.5
 41
0.0
 71
     9
 72
     5
  1

1001
ACAD
1000
MTEXTBEGIN
1070
    73
1070
     1
1070
    44
1040
1.0
1070
    74
1070
     0
1000
MTEXTEND
  0
MTEXT
  5
55E2
330
1A
100
AcDbEntity
  8
SUNPOU
100
AcDbMText
 10
35259.07976551845
 20
25928.67303892964
 30
0.0
 40
3.5
 41
0.0
 71
     7
 72
     5
  1

1001
ACAD
1000
MTEXTBEGIN
1070
    73
1070
     1
1070
    44
1040
1.0
1070
    74
1070
     0
1000
MTEXTEND
  0
MTEXT
  5
55E3
330
1A
100
AcDbEntity
  8
SUNPOU
100
AcDbMText
 10
48951.43044828905
 20
35287.73625995099
 30
0.0
 40
10.5
 41
0.0
 71
     9
 72
     5
  1

1001
ACAD
1000
MTEXTBEGIN
1070
    73
1070
     1
1070
    44
1040
1.0
1070
    74
1070
     0
1000
MTEXTEND
  0
MTEXT
  5
55E4
330
1A
100
AcDbEntity
  8
SUNPOU
100
AcDbMText
 10
57673.59801420702
 20
42703.57079148847
 30
0.0
 40
10.5
 41
0.0
 71
     9
 72
     5
  1

1001
ACAD
1000
MTEXTBEGIN
1070
    73
1070
     1
1070
    44
1040
1.0
1070
    74
1070
     0
1000
MTEXTEND
  0
MTEXT
  5
55E5
330
1A
100
AcDbEntity
  8
SUNPOU
100
AcDbMText
 10
76627.35673153699
 20
60170.14684398051
 30
0.0
 40
10.5
 41
0.0
 71
     9
 72
     5
  1

1001
ACAD
1000
MTEXTBEGIN
1070
    73
1070
     1
1070
    44
1040
1.0
1070
    74
1070
     0
1000
MTEXTEND
  0
MTEXT
  5
55E6
330
1A
100
AcDbEntity
  8
SUNPOU
100
AcDbMText
 10
78570.76397824641
 20
58369.09776410251
 30
0.0
 40
3.5
 41
0.0
 71
     9
 72
     5
  1

1001
ACAD
1000
MTEXTBEGIN
1070
    73
1070
     1
1070
    44
1040
1.0
1070
    74
1070
     0
1000
MTEXTEND
  0
MTEXT
  5
55E7
330
1A
100
AcDbEntity
  8
SUNPOU
100
AcDbMText
 10
109696.943810866
 20
100864.0434317598
 30
0.0
 40
10.5
 41
0.0
 71
     9
 72
     5
  1

1001
ACAD
1000
MTEXTBEGIN
1070
    73
1070
     1
1070
    44
1040
1.0
1070
    74
1070
     0
1000
MTEXTEND
  0
MTEXT
  5
55E8
330
1A
100
AcDbEntity
  8
SUNPOU
100
AcDbMText
 10
111640.3510575755
 20
99062.99435188183
 30
0.0
 40
3.5
 41
0.0
 71
     9
 72
     5
  1

1001
ACAD
1000
MTEXTBEGIN
1070
    73
1070
     1
1070
    44
1040
1.0
1070
    74
1070
     0
1000
MTEXTEND
  0
MTEXT
  5
55E9
330
1A
100
AcDbEntity
  8
SUNPOU
100
AcDbMText
 10
60137.21151666167
 20
46697.20858673491
 30
0.0
 40
10.5
 41
0.0
 71
     9
 72
     5
  1

1001
ACAD
1000
MTEXTBEGIN
1070
    73
1070
     1
1070
    44
1040
1.0
1070
    74
1070
     0
1000
MTEXTEND
  0
MTEXT
  5
55EA
330
1A
100
AcDbEntity
  8
SUNPOU
100
AcDbMText
 10
46189.21141628568
 20
27524.80944762269
 30
0.0
 40
3.5
 41
0.0
 71
     7
 72
     5
  1

1001
ACAD
1000
MTEXTBEGIN
1070
    73
1070
     1
1070
    44
1040
1.0
1070
    74
1070
     0
1000
MTEXTEND
  0
MTEXT
  5
55EB
330
1A
100
AcDbEntity
  8
SUNPOU
100
AcDbMText
 10
45007.68847015541
 20
38269.57947701873
 30
0.0
 40
10.5
 41
0.0
 71
     9
 72
     5
  1

1001
ACAD
1000
MTEXTBEGIN
1070
    73
1070
     1
1070
    44
1040
1.0
1070
    74
1070
     0
1000
MTEXTEND
  0
MTEXT
  5
55EC
330
1A
100
AcDbEntity
  8
SUNPOU
100
AcDbMText
 10
63961.44718748539
 20
55736.15552951081
 30
0.0
 40
10.5
 41
0.0
 71
     9
 72
     5
  1

1001
ACAD
1000
MTEXTBEGIN
1070
    73
1070
     1
1070
    44
1040
1.0
1070
    74
1070
     0
1000
MTEXTEND
  0
MTEXT
  5
55ED
330
1A
100
AcDbEntity
  8
SUNPOU
100
AcDbMText
 10
65904.85443419479
 20
53935.10644963278
 30
0.0
 40
3.5
 41
0.0
 71
     9
 72
     5
  1

1001
ACAD
1000
MTEXTBEGIN
1070
    73
1070
     1
1070
    44
1040
1.0
1070
    74
1070
     0
1000
MTEXTEND
  0
MTEXT
  5
55EE
330
1A
100
AcDbEntity
  8
SUNPOU
100
AcDbMText
 10
97031.03426681453
 20
96430.05211729015
 30
0.0
 40
10.5
 41
0.0
 71
     9
 72
     5
  1

1001
ACAD
1000
MTEXTBEGIN
1070
    73
1070
     1
1070
    44
1040
1.0
1070
    74
1070
     0
1000
MTEXTEND
  0
MTEXT
  5
55EF
330
1A
100
AcDbEntity
  8
SUNPOU
100
AcDbMText
 10
98974.44151352393
 20
94629.00303741212
 30
0.0
 40
3.5
 41
0.0
 71
     9
 72
     5
  1

1001
ACAD
1000
MTEXTBEGIN
1070
    73
1070
     1
1070
    44
1040
1.0
1070
    74
1070
     0
1000
MTEXTEND
  0
MTEXT
  5
55F0
330
1A
100
AcDbEntity
  8
SUNPOU
100
AcDbMText
 10
47471.30197261006
 20
42263.21727226519
 30
0.0
 40
10.5
 41
0.0
 71
     9
 72
     5
  1

1001
ACAD
1000
MTEXTBEGIN
1070
    73
1070
     1
1070
    44
1040
1.0
1070
    74
1070
     0
1000
MTEXTEND
  0
MTEXT
  5
55F1
330
1A
100
AcDbEntity
  8
SUNPOU
100
AcDbMText
 10
33523.30187223408
 20
23090.81813315298
 30
0.0
 40
3.5
 41
0.0
 71
     7
 72
     5
  1

1001
ACAD
1000
MTEXTBEGIN
1070
    73
1070
     1
1070
    44
1040
1.0
1070
    74
1070
     0
1000
MTEXTEND
  0
MTEXT
  5
55F2
330
1A
100
AcDbEntity
  8
SUNPOU
100
AcDbMText
 10
57959.46254102503
 20
50038.08111611014
 30
0.0
 40
10.5
 41
0.0
 71
     9
 72
     5
  1

1001
ACAD
1000
MTEXTBEGIN
1070
    73
1070
     1
1070
    44
1040
1.0
1070
    74
1070
     0
1000
MTEXTEND
  0
MTEXT
  5
55F3
330
1A
100
AcDbEntity
  8
SUNPOU
100
AcDbMText
 10
76913.22125835503
 20
67504.65716860222
 30
0.0
 40
10.5
 41
0.0
 71
     9
 72
     5
  1

1001
ACAD
1000
MTEXTBEGIN
1070
    73
1070
     1
1070
    44
1040
1.0
1070
    74
1070
     0
1000
MTEXTEND
  0
MTEXT
  5
55F4
330
1A
100
AcDbEntity
  8
SUNPOU
100
AcDbMText
 10
78856.62850506443
 20
65703.6080887242
 30
0.0
 40
3.5
 41
0.0
 71
     9
 72
     5
  1

1001
ACAD
1000
MTEXTBEGIN
1070
    73
1070
     1
1070
    44
1040
1.0
1070
    74
1070
     0
1000
MTEXTEND
  0
MTEXT
  5
55F5
330
1A
100
AcDbEntity
  8
SUNPOU
100
AcDbMText
 10
109982.8083376841
 20
108198.5537563815
 30
0.0
 40
10.5
 41
0.0
 71
     9
 72
     5
  1

1001
ACAD
1000
MTEXTBEGIN
1070
    73
1070
     1
1070
    44
1040
1.0
1070
    74
1070
     0
1000
MTEXTEND
  0
MTEXT
  5
55F6
330
1A
100
AcDbEntity
  8
SUNPOU
100
AcDbMText
 10
111926.2155843934
 20
106397.5046765035
 30
0.0
 40
3.5
 41
0.0
 71
     9
 72
     5
  1

1001
ACAD
1000
MTEXTBEGIN
1070
    73
1070
     1
1070
    44
1040
1.0
1070
    74
1070
     0
1000
MTEXTEND
  0
MTEXT
  5
55F7
330
1A
100
AcDbEntity
  8
SUNPOU
100
AcDbMText
 10
60423.07604347968
 20
54031.71891135658
 30
0.0
 40
10.5
 41
0.0
 71
     9
 72
     5
  1

1001
ACAD
1000
MTEXTBEGIN
1070
    73
1070
     1
1070
    44
1040
1.0
1070
    74
1070
     0
1000
MTEXTEND
  0
MTEXT
  5
55F8
330
1A
100
AcDbEntity
  8
SUNPOU
100
AcDbMText
 10
46475.07594310369
 20
34859.3197722444
 30
0.0
 40
3.5
 41
0.0
 71
     7
 72
     5
  1

1001
ACAD
1000
MTEXTBEGIN
1070
    73
1070
     1
1070
    44
1040
1.0
1070
    74
1070
     0
1000
MTEXTEND
  0
MTEXT
  5
55F9
330
1A
100
AcDbEntity
  8
SUNPOU
100
AcDbMText
 10
74027.35402123588
 20
68370.58278833383
 30
0.0
 40
10.5
 41
0.0
 71
     9
 72
     5
  1

1001
ACAD
1000
MTEXTBEGIN
1070
    73
1070
     1
1070
    44
1040
1.0
1070
    74
1070
     0
1000
MTEXTEND
  0
MTEXT
  5
55FA
330
1A
100
AcDbEntity
  8
SUNPOU
100
AcDbMText
 10
75970.7612679453
 20
66569.53370845583
 30
0.0
 40
3.5
 41
0.0
 71
     9
 72
     5
  1

1001
ACAD
1000
MTEXTBEGIN
1070
    73
1070
     1
1070
    44
1040
1.0
1070
    74
1070
     0
1000
MTEXTEND
  0
MTEXT
  5
55FB
330
1A
100
AcDbEntity
  8
SUNPOU
100
AcDbMText
 10
107096.941100565
 20
109064.4793761132
 30
0.0
 40
10.5
 41
0.0
 71
     9
 72
     5
  1

1001
ACAD
1000
MTEXTBEGIN
1070
    73
1070
     1
1070
    44
1040
1.0
1070
    74
1070
     0
1000
MTEXTEND
  0
MTEXT
  5
55FC
330
1A
100
AcDbEntity
  8
SUNPOU
100
AcDbMText
 10
109040.3483472744
 20
107263.430296235
 30
0.0
 40
3.5
 41
0.0
 71
     9
 72
     5
  1

1001
ACAD
1000
MTEXTBEGIN
1070
    73
1070
     1
1070
    44
1040
1.0
1070
    74
1070
     0
1000
MTEXTEND
  0
MTEXT
  5
55FD
330
1A
100
AcDbEntity
  8
SUNPOU
100
AcDbMText
 10
105709.1709283621
 20
108141.3777665285
 30
0.0
 40
10.5
 41
0.0
 71
     9
 72
     5
  1

1001
ACAD
1000
MTEXTBEGIN
1070
    73
1070
     1
1070
    44
1040
1.0
1070
    74
1070
     0
1000
MTEXTEND
  0
MTEXT
  5
55FE
330
1A
100
AcDbEntity
  8
SUNPOU
100
AcDbMText
 10
107652.5781750715
 20
106340.3286866505
 30
0.0
 40
3.5
 41
0.0
 71
     9
 72
     5
  1

1001
ACAD
1000
MTEXTBEGIN
1070
    73
1070
     1
1070
    44
1040
1.0
1070
    74
1070
     0
1000
MTEXTEND
  0
MTEXT
  5
55FF
330
1A
100
AcDbEntity
  8
SUNPOU
100
AcDbMText
 10
73193.09268743351
 20
66158.78082845057
 30
0.0
 40
10.5
 41
0.0
 71
     9
 72
     5
  1

1001
ACAD
1000
MTEXTBEGIN
1070
    73
1070
     1
1070
    44
1040
1.0
1070
    74
1070
     0
1000
MTEXTEND
  0
MTEXT
  5
5600
330
1A
100
AcDbEntity
  8
SUNPOU
100
AcDbMText
 10
75916.39889159807
 20
66563.46252003162
 30
0.0
 40
3.5
 41
0.0
 71
     9
 72
     5
  1

1001
ACAD
1000
MTEXTBEGIN
1070
    73
1070
     1
1070
    44
1040
1.0
1070
    74
1070
     0
1000
MTEXTEND
  0
MTEXT
  5
5601
330
1A
100
AcDbEntity
  8
SUNPOU
100
AcDbMText
 10
75124.04436649058
 20
63402.1566819768
 30
0.0
 40
10.5
 41
0.0
 71
     9
 72
     5
  1

1001
ACAD
1000
MTEXTBEGIN
1070
    73
1070
     1
1070
    44
1040
1.0
1070
    74
1070
     0
1000
MTEXTEND
  0
MTEXT
  5
5602
330
1A
100
AcDbEntity
  8
SUNPOU
100
AcDbMText
 10
77067.4516132
 20
61601.1076020988
 30
0.0
 40
3.5
 41
0.0
 71
     9
 72
     5
  1

1001
ACAD
1000
MTEXTBEGIN
1070
    73
1070
     1
1070
    44
1040
1.0
1070
    74
1070
     0
1000
MTEXTEND
  0
MTEXT
  5
5603
330
1A
100
AcDbEntity
  8
SUNPOU
100
AcDbMText
 10
77012.54710378659
 20
61488.33571981449
 30
0.0
 40
3.5
 41
0.0
 71
     9
 72
     5
  1

1001
ACAD
1000
MTEXTBEGIN
1070
    73
1070
     1
1070
    44
1040
1.0
1070
    74
1070
     0
1000
MTEXTEND
  0
MTEXT
  5
5604
330
1A
100
AcDbEntity
  8
SUNPOU
100
AcDbMText
 10
76376.61896736668
 20
60677.01447874798
 30
0.0
 40
3.5
 41
0.0
 71
     9
 72
     5
  1

1001
ACAD
1000
MTEXTBEGIN
1070
    73
1070
     1
1070
    44
1040
1.0
1070
    74
1070
     0
1000
MTEXTEND
  0
MTEXT
  5
5605
330
1A
100
AcDbEntity
  8
SUNPOU
100
AcDbMText
 10
76375.37854794595
 20
60676.76650181048
 30
0.0
 40
10.5
 41
0.0
 71
     9
 72
     5
  1

1001
ACAD
1000
MTEXTBEGIN
1070
    73
1070
     1
1070
    44
1040
1.0
1070
    74
1070
     0
1000
MTEXTEND
  0
MTEXT
  5
5606
330
1A
100
AcDbEntity
  8
SUNPOU
100
AcDbMText
 10
84709.93991079748
 20
78034.0328293557
 30
0.0
 40
10.5
 41
0.0
 71
     9
 72
     5
  1

1001
ACAD
1000
MTEXTBEGIN
1070
    73
1070
     1
1070
    44
1040
1.0
1070
    74
1070
     0
1000
MTEXTEND
  0
MTEXT
  5
5607
330
1A
100
AcDbEntity
  8
SUNPOU
100
AcDbMText
 10
93432.10747671546
 20
85449.86736089315
 30
0.0
 40
10.5
 41
0.0
 71
     9
 72
     5
  1

1001
ACAD
1000
MTEXTBEGIN
1070
    73
1070
     1
1070
    44
1040
1.0
1070
    74
1070
     0
1000
MTEXTEND
  0
MTEXT
  5
5608
330
1A
100
AcDbEntity
  8
SUNPOU
100
AcDbMText
 10
112385.8661940454
 20
102916.4434133851
 30
0.0
 40
10.5
 41
0.0
 71
     9
 72
     5
  1

1001
ACAD
1000
MTEXTBEGIN
1070
    73
1070
     1
1070
    44
1040
1.0
1070
    74
1070
     0
1000
MTEXTEND
  0
MTEXT
  5
5609
330
1A
100
AcDbEntity
  8
SUNPOU
100
AcDbMText
 10
114329.2734407548
 20
101115.3943335072
 30
0.0
 40
3.5
 41
0.0
 71
     9
 72
     5
  1

1001
ACAD
1000
MTEXTBEGIN
1070
    73
1070
     1
1070
    44
1040
1.0
1070
    74
1070
     0
1000
MTEXTEND
  0
MTEXT
  5
560A
330
1A
100
AcDbEntity
  8
SUNPOU
100
AcDbMText
 10
145455.4532733745
 20
143610.3400011645
 30
0.0
 40
10.5
 41
0.0
 71
     9
 72
     5
  1

1001
ACAD
1000
MTEXTBEGIN
1070
    73
1070
     1
1070
    44
1040
1.0
1070
    74
1070
     0
1000
MTEXTEND
  0
MTEXT
  5
560B
330
1A
100
AcDbEntity
  8
SUNPOU
100
AcDbMText
 10
147398.8605200839
 20
141809.2909212864
 30
0.0
 40
3.5
 41
0.0
 71
     9
 72
     5
  1

1001
ACAD
1000
MTEXTBEGIN
1070
    73
1070
     1
1070
    44
1040
1.0
1070
    74
1070
     0
1000
MTEXTEND
  0
MTEXT
  5
560C
330
1A
100
AcDbEntity
  8
SUNPOU
100
AcDbMText
 10
95895.72097917011
 20
89443.50515613962
 30
0.0
 40
10.5
 41
0.0
 71
     9
 72
     5
  1

1001
ACAD
1000
MTEXTBEGIN
1070
    73
1070
     1
1070
    44
1040
1.0
1070
    74
1070
     0
1000
MTEXTEND
  0
MTEXT
  5
560D
330
1A
100
AcDbEntity
  8
SUNPOU
100
AcDbMText
 10
81947.72087879414
 20
70271.1060170274
 30
0.0
 40
3.5
 41
0.0
 71
     7
 72
     5
  1

1001
ACAD
1000
MTEXTBEGIN
1070
    73
1070
     1
1070
    44
1040
1.0
1070
    74
1070
     0
1000
MTEXTEND
  0
MTEXT
  5
560E
330
1A
100
AcDbEntity
  8
SUNPOU
100
AcDbMText
 10
62932.89027578729
 20
58033.25474784561
 30
0.0
 40
10.5
 41
0.0
 71
     7
 72
     5
  1

1001
ACAD
1000
MTEXTBEGIN
1070
    73
1070
     1
1070
    44
1040
1.0
1070
    74
1070
     0
1000
MTEXTEND
  0
MTEXT
  5
560F
330
1A
100
AcDbEntity
  8
SUNPOU
100
AcDbMText
 10
50475.66201083918
 20
42188.32316974718
 30
0.0
 40
35.0
 41
0.0
 71
     9
 72
     5
  1

1001
ACAD
1000
MTEXTBEGIN
1070
    73
1070
     1
1070
    44
1040
1.0
1070
    74
1070
     0
1000
MTEXTEND
  0
MTEXT
  5
5610
330
1A
100
AcDbEntity
  8
SUNPOU
100
AcDbMText
 10
49384.14706841413
 20
42797.0985797959
 30
0.0
 40
350.0000004171781
 41
0.0
 71
     7
 72
     5
  1

1001
ACAD
1000
MTEXTBEGIN
1070
    73
1070
     1
1070
    44
1040
1.0
1070
    74
1070
     0
1000
MTEXTEND
  0
MTEXT
  5
5611
330
1A
100
AcDbEntity
  8
0
100
AcDbMText
 10
55428.09782635704
 20
40777.0209419321
 30
0.0
 40
8.0
 41
0.0
 71
     7
 72
     5
  1

1001
ACAD
1000
MTEXTBEGIN
1070
    73
1070
     1
1070
    44
1040
1.0
1070
    74
1070
     0
1000
MTEXTEND
  0
MTEXT
  5
5612
330
1A
100
AcDbEntity
  8
0
100
AcDbMText
 10
57713.45551625193
 20
41747.81123668316
 30
0.0
 40
8.0
 41
0.0
 71
     7
 72
     5
  1

1001
ACAD
1000
MTEXTBEGIN
1070
    73
1070
     1
1070
    44
1040
1.0
1070
    74
1070
     0
1000
MTEXTEND
  0
MTEXT
  5
5613
330
1A
100
AcDbEntity
  8
SUNPOU
100
AcDbMText
 10
60379.35253693407
 20
51259.9226290583
 30
0.0
 40
10.5
 41
0.0
 71
     1
 72
     5
  1

1001
ACAD
1000
MTEXTBEGIN
1070
    73
1070
     1
1070
    44
1040
1.0
1070
    74
1070
     0
1000
MTEXTEND
  0
MTEXT
  5
5614
330
1A
100
AcDbEntity
  8
SUNPOU
100
AcDbMText
 10
52448.42934099813
 20
50313.12949514535
 30
0.0
 40
10.5
 41
0.0
 71
     7
 72
     5
  1

1001
ACAD
1000
MTEXTBEGIN
1070
    73
1070
     1
1070
    44
1040
1.0
1070
    74
1070
     0
1000
MTEXTEND
  0
MTEXT
  5
5615
330
1A
100
AcDbEntity
  8
SUNPOU
100
AcDbMText
 10
55397.4130055109
 20
55213.80556698819
 30
0.0
 40
10.5
 41
0.0
 71
     7
 72
     5
  1

1001
ACAD
1000
MTEXTBEGIN
1070
    73
1070
     1
1070
    44
1040
1.0
1070
    74
1070
     0
1000
MTEXTEND
  0
MTEXT
  5
5616
330
1A
100
AcDbEntity
  8
SUNPOU
100
AcDbMText
 10
59906.49113346147
 20
57650.10631460826
 30
0.0
 40
10.5
 41
0.0
 71
     7
 72
     5
  1

1001
ACAD
1000
MTEXTBEGIN
1070
    73
1070
     1
1070
    44
1040
1.0
1070
    74
1070
     0
1000
MTEXTEND
  0
MTEXT
  5
5617
330
1A
100
AcDbEntity
  8
SUNPOU
100
AcDbMText
 10
43507.32902022978
 20
36647.70246499718
 30
0.0
 40
10.5
 41
0.0
 71
     7
 72
     5
  1

1001
ACAD
1000
MTEXTBEGIN
1070
    73
1070
     1
1070
    44
1040
1.0
1070
    74
1070
     0
1000
MTEXTEND
  0
MTEXT
  5
5618
330
1A
100
AcDbEntity
  8
SUNPOU
100
AcDbMText
 10
94698.84745413006
 20
82320.68302864544
 30
0.0
 40
10.5
 41
0.0
 71
     9
 72
     5
  1

1001
ACAD
1000
MTEXTBEGIN
1070
    73
1070
     1
1070
    44
1040
1.0
1070
    74
1070
     0
1000
MTEXTEND
  0
MTEXT
  5
5619
330
1A
100
AcDbEntity
  8
SUNPOU
100
AcDbMText
 10
103421.015020048
 20
89736.5175601829
 30
0.0
 40
10.5
 41
0.0
 71
     9
 72
     5
  1

1001
ACAD
1000
MTEXTBEGIN
1070
    73
1070
     1
1070
    44
1040
1.0
1070
    74
1070
     0
1000
MTEXTEND
  0
MTEXT
  5
561A
330
1A
100
AcDbEntity
  8
SUNPOU
100
AcDbMText
 10
122374.773737378
 20
107203.0936126749
 30
0.0
 40
10.5
 41
0.0
 71
     9
 72
     5
  1

1001
ACAD
1000
MTEXTBEGIN
1070
    73
1070
     1
1070
    44
1040
1.0
1070
    74
1070
     0
1000
MTEXTEND
  0
MTEXT
  5
561B
330
1A
100
AcDbEntity
  8
SUNPOU
100
AcDbMText
 10
124318.1809840874
 20
105402.0445327969
 30
0.0
 40
3.5
 41
0.0
 71
     9
 72
     5
  1

1001
ACAD
1000
MTEXTBEGIN
1070
    73
1070
     1
1070
    44
1040
1.0
1070
    74
1070
     0
1000
MTEXTEND
  0
MTEXT
  5
561C
330
1A
100
AcDbEntity
  8
SUNPOU
100
AcDbMText
 10
155444.3608167071
 20
147896.9902004542
 30
0.0
 40
10.5
 41
0.0
 71
     9
 72
     5
  1

1001
ACAD
1000
MTEXTBEGIN
1070
    73
1070
     1
1070
    44
1040
1.0
1070
    74
1070
     0
1000
MTEXTEND
  0
MTEXT
  5
561D
330
1A
100
AcDbEntity
  8
SUNPOU
100
AcDbMText
 10
157387.7680634165
 20
146095.9411205762
 30
0.0
 40
3.5
 41
0.0
 71
     9
 72
     5
  1

1001
ACAD
1000
MTEXTBEGIN
1070
    73
1070
     1
1070
    44
1040
1.0
1070
    74
1070
     0
1000
MTEXTEND
  0
MTEXT
  5
561E
330
1A
100
AcDbEntity
  8
SUNPOU
100
AcDbMText
 10
105884.6285225027
 20
93730.15535542933
 30
0.0
 40
10.5
 41
0.0
 71
     9
 72
     5
  1

1001
ACAD
1000
MTEXTBEGIN
1070
    73
1070
     1
1070
    44
1040
1.0
1070
    74
1070
     0
1000
MTEXTEND
  0
MTEXT
  5
561F
330
1A
100
AcDbEntity
  8
SUNPOU
100
AcDbMText
 10
91936.6284221267
 20
74557.75621631714
 30
0.0
 40
3.5
 41
0.0
 71
     7
 72
     5
  1

1001
ACAD
1000
MTEXTBEGIN
1070
    73
1070
     1
1070
    44
1040
1.0
1070
    74
1070
     0
1000
MTEXTEND
  0
MTEXT
  5
5620
330
1A
100
AcDbEntity
  8
SUNPOU
100
AcDbMText
 10
72921.79781911986
 20
62319.90494713532
 30
0.0
 40
10.5
 41
0.0
 71
     7
 72
     5
  1

1001
ACAD
1000
MTEXTBEGIN
1070
    73
1070
     1
1070
    44
1040
1.0
1070
    74
1070
     0
1000
MTEXTEND
  0
MTEXT
  5
5621
330
1A
100
AcDbEntity
  8
SUNPOU
100
AcDbMText
 10
60464.56955417175
 20
46474.97336903692
 30
0.0
 40
35.0
 41
0.0
 71
     9
 72
     5
  1

1001
ACAD
1000
MTEXTBEGIN
1070
    73
1070
     1
1070
    44
1040
1.0
1070
    74
1070
     0
1000
MTEXTEND
  0
MTEXT
  5
5622
330
1A
100
AcDbEntity
  8
SUNPOU
100
AcDbMText
 10
59373.05461174673
 20
47083.74877908561
 30
0.0
 40
350.0000004171781
 41
0.0
 71
     7
 72
     5
  1

1001
ACAD
1000
MTEXTBEGIN
1070
    73
1070
     1
1070
    44
1040
1.0
1070
    74
1070
     0
1000
MTEXTEND
  0
MTEXT
  5
5623
330
1A
100
AcDbEntity
  8
0
100
AcDbMText
 10
65417.00536968963
 20
45063.67114122186
 30
0.0
 40
8.0
 41
0.0
 71
     7
 72
     5
  1

1001
ACAD
1000
MTEXTBEGIN
1070
    73
1070
     1
1070
    44
1040
1.0
1070
    74
1070
     0
1000
MTEXTEND
  0
MTEXT
  5
5624
330
1A
100
AcDbEntity
  8
0
100
AcDbMText
 10
67702.36305958452
 20
46034.46143597292
 30
0.0
 40
8.0
 41
0.0
 71
     7
 72
     5
  1

1001
ACAD
1000
MTEXTBEGIN
1070
    73
1070
     1
1070
    44
1040
1.0
1070
    74
1070
     0
1000
MTEXTEND
  0
MTEXT
  5
5625
330
1A
100
AcDbEntity
  8
SUNPOU
100
AcDbMText
 10
70368.26008026666
 20
55546.57282834803
 30
0.0
 40
10.5
 41
0.0
 71
     1
 72
     5
  1

1001
ACAD
1000
MTEXTBEGIN
1070
    73
1070
     1
1070
    44
1040
1.0
1070
    74
1070
     0
1000
MTEXTEND
  0
MTEXT
  5
5626
330
1A
100
AcDbEntity
  8
SUNPOU
100
AcDbMText
 10
62437.33688433072
 20
54599.77969443507
 30
0.0
 40
10.5
 41
0.0
 71
     7
 72
     5
  1

1001
ACAD
1000
MTEXTBEGIN
1070
    73
1070
     1
1070
    44
1040
1.0
1070
    74
1070
     0
1000
MTEXTEND
  0
MTEXT
  5
5627
330
1A
100
AcDbEntity
  8
SUNPOU
100
AcDbMText
 10
65386.32054884348
 20
59500.45576627792
 30
0.0
 40
10.5
 41
0.0
 71
     7
 72
     5
  1

1001
ACAD
1000
MTEXTBEGIN
1070
    73
1070
     1
1070
    44
1040
1.0
1070
    74
1070
     0
1000
MTEXTEND
  0
MTEXT
  5
5628
330
1A
100
AcDbEntity
  8
SUNPOU
100
AcDbMText
 10
69895.39867679405
 20
61936.756513898
 30
0.0
 40
10.5
 41
0.0
 71
     7
 72
     5
  1

1001
ACAD
1000
MTEXTBEGIN
1070
    73
1070
     1
1070
    44
1040
1.0
1070
    74
1070
     0
1000
MTEXTEND
  0
MTEXT
  5
5629
330
1A
100
AcDbEntity
  8
SUNPOU
100
AcDbMText
 10
53496.23656356237
 20
40934.35266428691
 30
0.0
 40
10.5
 41
0.0
 71
     7
 72
     5
  1

1001
ACAD
1000
MTEXTBEGIN
1070
    73
1070
     1
1070
    44
1040
1.0
1070
    74
1070
     0
1000
MTEXTEND
  0
MTEXT
  5
562A
330
1A
100
AcDbEntity
  8
SUNPOU
100
AcDbMText
 10
55306.99947493731
 20
47261.76665176546
 30
0.0
 40
10.5
 41
0.0
 71
     9
 72
     5
  1

1001
ACAD
1000
MTEXTBEGIN
1070
    73
1070
     1
1070
    44
1040
1.0
1070
    74
1070
     0
1000
MTEXTEND
  0
MTEXT
  5
562B
330
1A
100
AcDbEntity
  8
SUNPOU
100
AcDbMText
 10
64029.16704085527
 20
54677.60118330295
 30
0.0
 40
10.5
 41
0.0
 71
     9
 72
     5
  1

1001
ACAD
1000
MTEXTBEGIN
1070
    73
1070
     1
1070
    44
1040
1.0
1070
    74
1070
     0
1000
MTEXTEND
  0
MTEXT
  5
562C
330
1A
100
AcDbEntity
  8
SUNPOU
100
AcDbMText
 10
82982.92575818527
 20
72144.17723579499
 30
0.0
 40
10.5
 41
0.0
 71
     9
 72
     5
  1

1001
ACAD
1000
MTEXTBEGIN
1070
    73
1070
     1
1070
    44
1040
1.0
1070
    74
1070
     0
1000
MTEXTEND
  0
MTEXT
  5
562D
330
1A
100
AcDbEntity
  8
SUNPOU
100
AcDbMText
 10
84926.33300489467
 20
70343.12815591697
 30
0.0
 40
3.5
 41
0.0
 71
     9
 72
     5
  1

1001
ACAD
1000
MTEXTBEGIN
1070
    73
1070
     1
1070
    44
1040
1.0
1070
    74
1070
     0
1000
MTEXTEND
  0
MTEXT
  5
562E
330
1A
100
AcDbEntity
  8
SUNPOU
100
AcDbMText
 10
116052.5128375142
 20
112838.0738235742
 30
0.0
 40
10.5
 41
0.0
 71
     9
 72
     5
  1

1001
ACAD
1000
MTEXTBEGIN
1070
    73
1070
     1
1070
    44
1040
1.0
1070
    74
1070
     0
1000
MTEXTEND
  0
MTEXT
  5
562F
330
1A
100
AcDbEntity
  8
SUNPOU
100
AcDbMText
 10
117995.9200842238
 20
111037.0247436963
 30
0.0
 40
3.5
 41
0.0
 71
     9
 72
     5
  1

1001
ACAD
1000
MTEXTBEGIN
1070
    73
1070
     1
1070
    44
1040
1.0
1070
    74
1070
     0
1000
MTEXTEND
  0
MTEXT
  5
5630
330
1A
100
AcDbEntity
  8
SUNPOU
100
AcDbMText
 10
66492.78054330994
 20
58671.23897854939
 30
0.0
 40
10.5
 41
0.0
 71
     9
 72
     5
  1

1001
ACAD
1000
MTEXTBEGIN
1070
    73
1070
     1
1070
    44
1040
1.0
1070
    74
1070
     0
1000
MTEXTEND
  0
MTEXT
  5
5631
330
1A
100
AcDbEntity
  8
SUNPOU
100
AcDbMText
 10
52544.78044293397
 20
39498.83983943717
 30
0.0
 40
3.5
 41
0.0
 71
     7
 72
     5
  1

1001
ACAD
1000
MTEXTBEGIN
1070
    73
1070
     1
1070
    44
1040
1.0
1070
    74
1070
     0
1000
MTEXTEND
  0
MTEXT
  5
5632
330
1A
100
AcDbEntity
  8
SUNPOU
100
AcDbMText
 10
66237.13112570454
 20
48857.90306045851
 30
0.0
 40
10.5
 41
0.0
 71
     9
 72
     5
  1

1001
ACAD
1000
MTEXTBEGIN
1070
    73
1070
     1
1070
    44
1040
1.0
1070
    74
1070
     0
1000
MTEXTEND
  0
MTEXT
  5
5633
330
1A
100
AcDbEntity
  8
SUNPOU
100
AcDbMText
 10
74959.29869162253
 20
56273.73759199599
 30
0.0
 40
10.5
 41
0.0
 71
     9
 72
     5
  1

1001
ACAD
1000
MTEXTBEGIN
1070
    73
1070
     1
1070
    44
1040
1.0
1070
    74
1070
     0
1000
MTEXTEND
  0
MTEXT
  5
5634
330
1A
100
AcDbEntity
  8
SUNPOU
100
AcDbMText
 10
93913.0574089525
 20
73740.31364448805
 30
0.0
 40
10.5
 41
0.0
 71
     9
 72
     5
  1

1001
ACAD
1000
MTEXTBEGIN
1070
    73
1070
     1
1070
    44
1040
1.0
1070
    74
1070
     0
1000
MTEXTEND
  0
MTEXT
  5
5635
330
1A
100
AcDbEntity
  8
SUNPOU
100
AcDbMText
 10
95856.46465566192
 20
71939.26456461004
 30
0.0
 40
3.5
 41
0.0
 71
     9
 72
     5
  1

1001
ACAD
1000
MTEXTBEGIN
1070
    73
1070
     1
1070
    44
1040
1.0
1070
    74
1070
     0
1000
MTEXTEND
  0
MTEXT
  5
5636
330
1A
100
AcDbEntity
  8
SUNPOU
100
AcDbMText
 10
126982.6444882816
 20
114434.2102322673
 30
0.0
 40
10.5
 41
0.0
 71
     9
 72
     5
  1

1001
ACAD
1000
MTEXTBEGIN
1070
    73
1070
     1
1070
    44
1040
1.0
1070
    74
1070
     0
1000
MTEXTEND
  0
MTEXT
  5
5637
330
1A
100
AcDbEntity
  8
SUNPOU
100
AcDbMText
 10
128926.051734991
 20
112633.1611523893
 30
0.0
 40
3.5
 41
0.0
 71
     9
 72
     5
  1

1001
ACAD
1000
MTEXTBEGIN
1070
    73
1070
     1
1070
    44
1040
1.0
1070
    74
1070
     0
1000
MTEXTEND
  0
MTEXT
  5
5638
330
1A
100
AcDbEntity
  8
SUNPOU
100
AcDbMText
 10
77422.91219407717
 20
60267.37538724244
 30
0.0
 40
10.5
 41
0.0
 71
     9
 72
     5
  1

1001
ACAD
1000
MTEXTBEGIN
1070
    73
1070
     1
1070
    44
1040
1.0
1070
    74
1070
     0
1000
MTEXTEND
  0
MTEXT
  5
5639
330
1A
100
AcDbEntity
  8
SUNPOU
100
AcDbMText
 10
63474.91209370119
 20
41094.97624813023
 30
0.0
 40
3.5
 41
0.0
 71
     7
 72
     5
  1

1001
ACAD
1000
MTEXTBEGIN
1070
    73
1070
     1
1070
    44
1040
1.0
1070
    74
1070
     0
1000
MTEXTEND
  0
MTEXT
  5
563A
330
1A
100
AcDbEntity
  8
SUNPOU
100
AcDbMText
 10
48117.65086229006
 20
40806.11043916631
 30
0.0
 40
10.5
 41
0.0
 71
     9
 72
     5
  1

1001
ACAD
1000
MTEXTBEGIN
1070
    73
1070
     1
1070
    44
1040
1.0
1070
    74
1070
     0
1000
MTEXTEND
  0
MTEXT
  5
563B
330
1A
100
AcDbEntity
  8
SUNPOU
100
AcDbMText
 10
67071.40957962004
 20
58272.68649165838
 30
0.0
 40
10.5
 41
0.0
 71
     9
 72
     5
  1

1001
ACAD
1000
MTEXTBEGIN
1070
    73
1070
     1
1070
    44
1040
1.0
1070
    74
1070
     0
1000
MTEXTEND
  0
MTEXT
  5
563C
330
1A
100
AcDbEntity
  8
SUNPOU
100
AcDbMText
 10
69014.81682632945
 20
56471.63741178035
 30
0.0
 40
3.5
 41
0.0
 71
     9
 72
     5
  1

1001
ACAD
1000
MTEXTBEGIN
1070
    73
1070
     1
1070
    44
1040
1.0
1070
    74
1070
     0
1000
MTEXTEND
  0
MTEXT
  5
563D
330
1A
100
AcDbEntity
  8
SUNPOU
100
AcDbMText
 10
100140.9966589491
 20
98966.58307943773
 30
0.0
 40
10.5
 41
0.0
 71
     9
 72
     5
  1

1001
ACAD
1000
MTEXTBEGIN
1070
    73
1070
     1
1070
    44
1040
1.0
1070
    74
1070
     0
1000
MTEXTEND
  0
MTEXT
  5
563E
330
1A
100
AcDbEntity
  8
SUNPOU
100
AcDbMText
 10
102084.4039056586
 20
97165.53399955968
 30
0.0
 40
3.5
 41
0.0
 71
     9
 72
     5
  1

1001
ACAD
1000
MTEXTBEGIN
1070
    73
1070
     1
1070
    44
1040
1.0
1070
    74
1070
     0
1000
MTEXTEND
  0
MTEXT
  5
563F
330
1A
100
AcDbEntity
  8
SUNPOU
100
AcDbMText
 10
50581.26436474472
 20
44799.74823441275
 30
0.0
 40
10.5
 41
0.0
 71
     9
 72
     5
  1

1001
ACAD
1000
MTEXTBEGIN
1070
    73
1070
     1
1070
    44
1040
1.0
1070
    74
1070
     0
1000
MTEXTEND
  0
MTEXT
  5
5640
330
1A
100
AcDbEntity
  8
SUNPOU
100
AcDbMText
 10
36633.26426436873
 20
25627.34909530054
 30
0.0
 40
3.5
 41
0.0
 71
     7
 72
     5
  1

1001
ACAD
1000
MTEXTBEGIN
1070
    73
1070
     1
1070
    44
1040
1.0
1070
    74
1070
     0
1000
MTEXTEND
  0
MTEXT
  5
5641
330
1A
100
AcDbEntity
  8
SUNPOU
100
AcDbMText
 10
61069.42493315968
 20
52574.61207825771
 30
0.0
 40
10.5
 41
0.0
 71
     9
 72
     5
  1

1001
ACAD
1000
MTEXTBEGIN
1070
    73
1070
     1
1070
    44
1040
1.0
1070
    74
1070
     0
1000
MTEXTEND
  0
MTEXT
  5
5642
330
1A
100
AcDbEntity
  8
SUNPOU
100
AcDbMText
 10
80023.18365048967
 20
70041.18813074978
 30
0.0
 40
10.5
 41
0.0
 71
     9
 72
     5
  1

1001
ACAD
1000
MTEXTBEGIN
1070
    73
1070
     1
1070
    44
1040
1.0
1070
    74
1070
     0
1000
MTEXTEND
  0
MTEXT
  5
5643
330
1A
100
AcDbEntity
  8
SUNPOU
100
AcDbMText
 10
81966.59089719908
 20
68240.13905087176
 30
0.0
 40
3.5
 41
0.0
 71
     9
 72
     5
  1

1001
ACAD
1000
MTEXTBEGIN
1070
    73
1070
     1
1070
    44
1040
1.0
1070
    74
1070
     0
1000
MTEXTEND
  0
MTEXT
  5
5644
330
1A
100
AcDbEntity
  8
SUNPOU
100
AcDbMText
 10
113092.7707298186
 20
110735.0847185291
 30
0.0
 40
10.5
 41
0.0
 71
     9
 72
     5
  1

1001
ACAD
1000
MTEXTBEGIN
1070
    73
1070
     1
1070
    44
1040
1.0
1070
    74
1070
     0
1000
MTEXTEND
  0
MTEXT
  5
5645
330
1A
100
AcDbEntity
  8
SUNPOU
100
AcDbMText
 10
115036.1779765282
 20
108934.0356386511
 30
0.0
 40
3.5
 41
0.0
 71
     9
 72
     5
  1

1001
ACAD
1000
MTEXTBEGIN
1070
    73
1070
     1
1070
    44
1040
1.0
1070
    74
1070
     0
1000
MTEXTEND
  0
MTEXT
  5
5646
330
1A
100
AcDbEntity
  8
SUNPOU
100
AcDbMText
 10
63533.03843561432
 20
56568.24987350415
 30
0.0
 40
10.5
 41
0.0
 71
     9
 72
     5
  1

1001
ACAD
1000
MTEXTBEGIN
1070
    73
1070
     1
1070
    44
1040
1.0
1070
    74
1070
     0
1000
MTEXTEND
  0
MTEXT
  5
5647
330
1A
100
AcDbEntity
  8
SUNPOU
100
AcDbMText
 10
49585.03833523835
 20
37395.85073439196
 30
0.0
 40
3.5
 41
0.0
 71
     7
 72
     5
  1

1001
ACAD
1000
MTEXTBEGIN
1070
    73
1070
     1
1070
    44
1040
1.0
1070
    74
1070
     0
1000
MTEXTEND
  0
MTEXT
  5
5648
330
1A
100
AcDbEntity
  8
SUNPOU
100
AcDbMText
 10
77137.31641337052
 20
70907.11375048141
 30
0.0
 40
10.5
 41
0.0
 71
     9
 72
     5
  1

1001
ACAD
1000
MTEXTBEGIN
1070
    73
1070
     1
1070
    44
1040
1.0
1070
    74
1070
     0
1000
MTEXTEND
  0
MTEXT
  5
5649
330
1A
100
AcDbEntity
  8
SUNPOU
100
AcDbMText
 10
79080.72366007995
 20
69106.06467060339
 30
0.0
 40
3.5
 41
0.0
 71
     9
 72
     5
  1

1001
ACAD
1000
MTEXTBEGIN
1070
    73
1070
     1
1070
    44
1040
1.0
1070
    74
1070
     0
1000
MTEXTEND
  0
MTEXT
  5
564A
330
1A
100
AcDbEntity
  8
SUNPOU
100
AcDbMText
 10
110206.9034926996
 20
111601.0103382607
 30
0.0
 40
10.5
 41
0.0
 71
     9
 72
     5
  1

1001
ACAD
1000
MTEXTBEGIN
1070
    73
1070
     1
1070
    44
1040
1.0
1070
    74
1070
     0
1000
MTEXTEND
  0
MTEXT
  5
564B
330
1A
100
AcDbEntity
  8
SUNPOU
100
AcDbMText
 10
112150.310739409
 20
109799.9612583826
 30
0.0
 40
3.5
 41
0.0
 71
     9
 72
     5
  1

1001
ACAD
1000
MTEXTBEGIN
1070
    73
1070
     1
1070
    44
1040
1.0
1070
    74
1070
     0
1000
MTEXTEND
  0
MTEXT
  5
564C
330
1A
100
AcDbEntity
  8
SUNPOU
100
AcDbMText
 10
108819.1333204967
 20
110677.9087286761
 30
0.0
 40
10.5
 41
0.0
 71
     9
 72
     5
  1

1001
ACAD
1000
MTEXTBEGIN
1070
    73
1070
     1
1070
    44
1040
1.0
1070
    74
1070
     0
1000
MTEXTEND
  0
MTEXT
  5
564D
330
1A
100
AcDbEntity
  8
SUNPOU
100
AcDbMText
 10
110762.5405672062
 20
108876.8596487981
 30
0.0
 40
3.5
 41
0.0
 71
     9
 72
     5
  1

1001
ACAD
1000
MTEXTBEGIN
1070
    73
1070
     1
1070
    44
1040
1.0
1070
    74
1070
     0
1000
MTEXTEND
  0
MTEXT
  5
564E
330
1A
100
AcDbEntity
  8
SUNPOU
100
AcDbMText
 10
76303.05507956816
 20
68695.31179059812
 30
0.0
 40
10.5
 41
0.0
 71
     9
 72
     5
  1

1001
ACAD
1000
MTEXTBEGIN
1070
    73
1070
     1
1070
    44
1040
1.0
1070
    74
1070
     0
1000
MTEXTEND
  0
MTEXT
  5
564F
330
1A
100
AcDbEntity
  8
SUNPOU
100
AcDbMText
 10
79026.36128373271
 20
69099.99348217918
 30
0.0
 40
3.5
 41
0.0
 71
     9
 72
     5
  1

1001
ACAD
1000
MTEXTBEGIN
1070
    73
1070
     1
1070
    44
1040
1.0
1070
    74
1070
     0
1000
MTEXTEND
  0
MTEXT
  5
5650
330
1A
100
AcDbEntity
  8
SUNPOU
100
AcDbMText
 10
78234.00675862522
 20
65938.68764412436
 30
0.0
 40
10.5
 41
0.0
 71
     9
 72
     5
  1

1001
ACAD
1000
MTEXTBEGIN
1070
    73
1070
     1
1070
    44
1040
1.0
1070
    74
1070
     0
1000
MTEXTEND
  0
MTEXT
  5
5651
330
1A
100
AcDbEntity
  8
SUNPOU
100
AcDbMText
 10
80177.41400533465
 20
64137.63856424636
 30
0.0
 40
3.5
 41
0.0
 71
     9
 72
     5
  1

1001
ACAD
1000
MTEXTBEGIN
1070
    73
1070
     1
1070
    44
1040
1.0
1070
    74
1070
     0
1000
MTEXTEND
  0
MTEXT
  5
5652
330
1A
100
AcDbEntity
  8
SUNPOU
100
AcDbMText
 10
80122.50949592122
 20
64024.86668196204
 30
0.0
 40
3.5
 41
0.0
 71
     9
 72
     5
  1

1001
ACAD
1000
MTEXTBEGIN
1070
    73
1070
     1
1070
    44
1040
1.0
1070
    74
1070
     0
1000
MTEXTEND
  0
MTEXT
  5
5653
330
1A
100
AcDbEntity
  8
SUNPOU
100
AcDbMText
 10
79486.58135950133
 20
63213.54544089553
 30
0.0
 40
3.5
 41
0.0
 71
     9
 72
     5
  1

1001
ACAD
1000
MTEXTBEGIN
1070
    73
1070
     1
1070
    44
1040
1.0
1070
    74
1070
     0
1000
MTEXTEND
  0
MTEXT
  5
5654
330
1A
100
AcDbEntity
  8
SUNPOU
100
AcDbMText
 10
79485.3409400806
 20
63213.29746395804
 30
0.0
 40
10.5
 41
0.0
 71
     9
 72
     5
  1

1001
ACAD
1000
MTEXTBEGIN
1070
    73
1070
     1
1070
    44
1040
1.0
1070
    74
1070
     0
1000
MTEXTEND
  0
MTEXT
  5
5655
330
1A
100
AcDbEntity
  8
SUNPOU
100
AcDbMText
 10
85473.63363627567
 20
80747.76348077064
 30
0.0
 40
10.5
 41
0.0
 71
     9
 72
     5
  1

1001
ACAD
1000
MTEXTBEGIN
1070
    73
1070
     1
1070
    44
1040
1.0
1070
    74
1070
     0
1000
MTEXTEND
  0
MTEXT
  5
5656
330
1A
100
AcDbEntity
  8
SUNPOU
100
AcDbMText
 10
94195.80120219368
 20
88163.59801230808
 30
0.0
 40
10.5
 41
0.0
 71
     9
 72
     5
  1

1001
ACAD
1000
MTEXTBEGIN
1070
    73
1070
     1
1070
    44
1040
1.0
1070
    74
1070
     0
1000
MTEXTEND
  0
MTEXT
  5
5657
330
1A
100
AcDbEntity
  8
SUNPOU
100
AcDbMText
 10
113149.5599195236
 20
105630.1740648001
 30
0.0
 40
10.5
 41
0.0
 71
     9
 72
     5
  1

1001
ACAD
1000
MTEXTBEGIN
1070
    73
1070
     1
1070
    44
1040
1.0
1070
    74
1070
     0
1000
MTEXTEND
  0
MTEXT
  5
5658
330
1A
100
AcDbEntity
  8
SUNPOU
100
AcDbMText
 10
115092.967166233
 20
103829.1249849221
 30
0.0
 40
3.5
 41
0.0
 71
     9
 72
     5
  1

1001
ACAD
1000
MTEXTBEGIN
1070
    73
1070
     1
1070
    44
1040
1.0
1070
    74
1070
     0
1000
MTEXTEND
  0
MTEXT
  5
5659
330
1A
100
AcDbEntity
  8
SUNPOU
100
AcDbMText
 10
146219.1469988527
 20
146324.0706525794
 30
0.0
 40
10.5
 41
0.0
 71
     9
 72
     5
  1

1001
ACAD
1000
MTEXTBEGIN
1070
    73
1070
     1
1070
    44
1040
1.0
1070
    74
1070
     0
1000
MTEXTEND
  0
MTEXT
  5
565A
330
1A
100
AcDbEntity
  8
SUNPOU
100
AcDbMText
 10
148162.5542455621
 20
144523.0215727014
 30
0.0
 40
3.5
 41
0.0
 71
     9
 72
     5
  1

1001
ACAD
1000
MTEXTBEGIN
1070
    73
1070
     1
1070
    44
1040
1.0
1070
    74
1070
     0
1000
MTEXTEND
  0
MTEXT
  5
565B
330
1A
100
AcDbEntity
  8
SUNPOU
100
AcDbMText
 10
96659.41470464833
 20
92157.23580755453
 30
0.0
 40
10.5
 41
0.0
 71
     9
 72
     5
  1

1001
ACAD
1000
MTEXTBEGIN
1070
    73
1070
     1
1070
    44
1040
1.0
1070
    74
1070
     0
1000
MTEXTEND
  0
MTEXT
  5
565C
330
1A
100
AcDbEntity
  8
SUNPOU
100
AcDbMText
 10
82711.41460427234
 20
72984.83666844234
 30
0.0
 40
3.5
 41
0.0
 71
     7
 72
     5
  1

1001
ACAD
1000
MTEXTBEGIN
1070
    73
1070
     1
1070
    44
1040
1.0
1070
    74
1070
     0
1000
MTEXTEND
  0
MTEXT
  5
565D
330
1A
100
AcDbEntity
  8
SUNPOU
100
AcDbMText
 10
63696.58400126548
 20
60746.98539926055
 30
0.0
 40
10.5
 41
0.0
 71
     7
 72
     5
  1

1001
ACAD
1000
MTEXTBEGIN
1070
    73
1070
     1
1070
    44
1040
1.0
1070
    74
1070
     0
1000
MTEXTEND
  0
MTEXT
  5
565E
330
1A
100
AcDbEntity
  8
SUNPOU
100
AcDbMText
 10
51239.35573631738
 20
44902.05382116213
 30
0.0
 40
35.0
 41
0.0
 71
     9
 72
     5
  1

1001
ACAD
1000
MTEXTBEGIN
1070
    73
1070
     1
1070
    44
1040
1.0
1070
    74
1070
     0
1000
MTEXTEND
  0
MTEXT
  5
565F
330
1A
100
AcDbEntity
  8
SUNPOU
100
AcDbMText
 10
50147.84079389233
 20
45510.82923121084
 30
0.0
 40
350.0000004171781
 41
0.0
 71
     7
 72
     5
  1

1001
ACAD
1000
MTEXTBEGIN
1070
    73
1070
     1
1070
    44
1040
1.0
1070
    74
1070
     0
1000
MTEXTEND
  0
MTEXT
  5
5660
330
1A
100
AcDbEntity
  8
0
100
AcDbMText
 10
56191.79155183523
 20
43490.75159334705
 30
0.0
 40
8.0
 41
0.0
 71
     7
 72
     5
  1

1001
ACAD
1000
MTEXTBEGIN
1070
    73
1070
     1
1070
    44
1040
1.0
1070
    74
1070
     0
1000
MTEXTEND
  0
MTEXT
  5
5661
330
1A
100
AcDbEntity
  8
0
100
AcDbMText
 10
58477.14924173012
 20
44461.54188809812
 30
0.0
 40
8.0
 41
0.0
 71
     7
 72
     5
  1

1001
ACAD
1000
MTEXTBEGIN
1070
    73
1070
     1
1070
    44
1040
1.0
1070
    74
1070
     0
1000
MTEXTEND
  0
MTEXT
  5
5662
330
1A
100
AcDbEntity
  8
SUNPOU
100
AcDbMText
 10
61143.04626241227
 20
53973.65328047324
 30
0.0
 40
10.5
 41
0.0
 71
     1
 72
     5
  1

1001
ACAD
1000
MTEXTBEGIN
1070
    73
1070
     1
1070
    44
1040
1.0
1070
    74
1070
     0
1000
MTEXTEND
  0
MTEXT
  5
5663
330
1A
100
AcDbEntity
  8
SUNPOU
100
AcDbMText
 10
53212.12306647633
 20
53026.86014656028
 30
0.0
 40
10.5
 41
0.0
 71
     7
 72
     5
  1

1001
ACAD
1000
MTEXTBEGIN
1070
    73
1070
     1
1070
    44
1040
1.0
1070
    74
1070
     0
1000
MTEXTEND
  0
MTEXT
  5
5664
330
1A
100
AcDbEntity
  8
SUNPOU
100
AcDbMText
 10
56161.10673098909
 20
57927.53621840312
 30
0.0
 40
10.5
 41
0.0
 71
     7
 72
     5
  1

1001
ACAD
1000
MTEXTBEGIN
1070
    73
1070
     1
1070
    44
1040
1.0
1070
    74
1070
     0
1000
MTEXTEND
  0
MTEXT
  5
5665
330
1A
100
AcDbEntity
  8
SUNPOU
100
AcDbMText
 10
60670.18485893966
 20
60363.8369660232
 30
0.0
 40
10.5
 41
0.0
 71
     7
 72
     5
  1

1001
ACAD
1000
MTEXTBEGIN
1070
    73
1070
     1
1070
    44
1040
1.0
1070
    74
1070
     0
1000
MTEXTEND
  0
MTEXT
  5
5666
330
1A
100
AcDbEntity
  8
SUNPOU
100
AcDbMText
 10
44271.02274570799
 20
39361.43311641211
 30
0.0
 40
10.5
 41
0.0
 71
     7
 72
     5
  1

1001
ACAD
1000
MTEXTBEGIN
1070
    73
1070
     1
1070
    44
1040
1.0
1070
    74
1070
     0
1000
MTEXTEND
  0
MTEXT
  5
5667
330
1A
100
AcDbEntity
  8
SUNPOU
100
AcDbMText
 10
95462.54117960824
 20
85034.41368006038
 30
0.0
 40
10.5
 41
0.0
 71
     9
 72
     5
  1

1001
ACAD
1000
MTEXTBEGIN
1070
    73
1070
     1
1070
    44
1040
1.0
1070
    74
1070
     0
1000
MTEXTEND
  0
MTEXT
  5
5668
330
1A
100
AcDbEntity
  8
SUNPOU
100
AcDbMText
 10
104184.7087455262
 20
92450.24821159784
 30
0.0
 40
10.5
 41
0.0
 71
     9
 72
     5
  1

1001
ACAD
1000
MTEXTBEGIN
1070
    73
1070
     1
1070
    44
1040
1.0
1070
    74
1070
     0
1000
MTEXTEND
  0
MTEXT
  5
5669
330
1A
100
AcDbEntity
  8
SUNPOU
100
AcDbMText
 10
123138.4674628562
 20
109916.8242640898
 30
0.0
 40
10.5
 41
0.0
 71
     9
 72
     5
  1

1001
ACAD
1000
MTEXTBEGIN
1070
    73
1070
     1
1070
    44
1040
1.0
1070
    74
1070
     0
1000
MTEXTEND
  0
MTEXT
  5
566A
330
1A
100
AcDbEntity
  8
SUNPOU
100
AcDbMText
 10
125081.8747095656
 20
108115.7751842118
 30
0.0
 40
3.5
 41
0.0
 71
     9
 72
     5
  1

1001
ACAD
1000
MTEXTBEGIN
1070
    73
1070
     1
1070
    44
1040
1.0
1070
    74
1070
     0
1000
MTEXTEND
  0
MTEXT
  5
566B
330
1A
100
AcDbEntity
  8
SUNPOU
100
AcDbMText
 10
156208.0545421853
 20
150610.7208518691
 30
0.0
 40
10.5
 41
0.0
 71
     9
 72
     5
  1

1001
ACAD
1000
MTEXTBEGIN
1070
    73
1070
     1
1070
    44
1040
1.0
1070
    74
1070
     0
1000
MTEXTEND
  0
MTEXT
  5
566C
330
1A
100
AcDbEntity
  8
SUNPOU
100
AcDbMText
 10
158151.4617888947
 20
148809.6717719911
 30
0.0
 40
3.5
 41
0.0
 71
     9
 72
     5
  1

1001
ACAD
1000
MTEXTBEGIN
1070
    73
1070
     1
1070
    44
1040
1.0
1070
    74
1070
     0
1000
MTEXTEND
  0
MTEXT
  5
566D
330
1A
100
AcDbEntity
  8
SUNPOU
100
AcDbMText
 10
106648.3222479809
 20
96443.88600684427
 30
0.0
 40
10.5
 41
0.0
 71
     9
 72
     5
  1

1001
ACAD
1000
MTEXTBEGIN
1070
    73
1070
     1
1070
    44
1040
1.0
1070
    74
1070
     0
1000
MTEXTEND
  0
MTEXT
  5
566E
330
1A
100
AcDbEntity
  8
SUNPOU
100
AcDbMText
 10
92700.3221476049
 20
77271.48686773207
 30
0.0
 40
3.5
 41
0.0
 71
     7
 72
     5
  1

1001
ACAD
1000
MTEXTBEGIN
1070
    73
1070
     1
1070
    44
1040
1.0
1070
    74
1070
     0
1000
MTEXTEND
  0
MTEXT
  5
566F
330
1A
100
AcDbEntity
  8
SUNPOU
100
AcDbMText
 10
73685.49154459807
 20
65033.63559855027
 30
0.0
 40
10.5
 41
0.0
 71
     7
 72
     5
  1

1001
ACAD
1000
MTEXTBEGIN
1070
    73
1070
     1
1070
    44
1040
1.0
1070
    74
1070
     0
1000
MTEXTEND
  0
MTEXT
  5
5670
330
1A
100
AcDbEntity
  8
SUNPOU
100
AcDbMText
 10
61228.26327964995
 20
49188.70402045184
 30
0.0
 40
35.0
 41
0.0
 71
     9
 72
     5
  1

1001
ACAD
1000
MTEXTBEGIN
1070
    73
1070
     1
1070
    44
1040
1.0
1070
    74
1070
     0
1000
MTEXTEND
  0
MTEXT
  5
5671
330
1A
100
AcDbEntity
  8
SUNPOU
100
AcDbMText
 10
60136.74833722491
 20
49797.47943050056
 30
0.0
 40
350.0000004171781
 41
0.0
 71
     7
 72
     5
  1

1001
ACAD
1000
MTEXTBEGIN
1070
    73
1070
     1
1070
    44
1040
1.0
1070
    74
1070
     0
1000
MTEXTEND
  0
MTEXT
  5
5672
330
1A
100
AcDbEntity
  8
0
100
AcDbMText
 10
66180.69909516782
 20
47777.40179263677
 30
0.0
 40
8.0
 41
0.0
 71
     7
 72
     5
  1

1001
ACAD
1000
MTEXTBEGIN
1070
    73
1070
     1
1070
    44
1040
1.0
1070
    74
1070
     0
1000
MTEXTEND
  0
MTEXT
  5
5673
330
1A
100
AcDbEntity
  8
0
100
AcDbMText
 10
68466.05678506271
 20
48748.19208738784
 30
0.0
 40
8.0
 41
0.0
 71
     7
 72
     5
  1

1001
ACAD
1000
MTEXTBEGIN
1070
    73
1070
     1
1070
    44
1040
1.0
1070
    74
1070
     0
1000
MTEXTEND
  0
MTEXT
  5
5674
330
1A
100
AcDbEntity
  8
SUNPOU
100
AcDbMText
 10
71131.95380574485
 20
58260.30347976296
 30
0.0
 40
10.5
 41
0.0
 71
     1
 72
     5
  1

1001
ACAD
1000
MTEXTBEGIN
1070
    73
1070
     1
1070
    44
1040
1.0
1070
    74
1070
     0
1000
MTEXTEND
  0
MTEXT
  5
5675
330
1A
100
AcDbEntity
  8
SUNPOU
100
AcDbMText
 10
63201.03060980891
 20
57313.51034585003
 30
0.0
 40
10.5
 41
0.0
 71
     7
 72
     5
  1

1001
ACAD
1000
MTEXTBEGIN
1070
    73
1070
     1
1070
    44
1040
1.0
1070
    74
1070
     0
1000
MTEXTEND
  0
MTEXT
  5
5676
330
1A
100
AcDbEntity
  8
SUNPOU
100
AcDbMText
 10
66150.01427432169
 20
62214.18641769286
 30
0.0
 40
10.5
 41
0.0
 71
     7
 72
     5
  1

1001
ACAD
1000
MTEXTBEGIN
1070
    73
1070
     1
1070
    44
1040
1.0
1070
    74
1070
     0
1000
MTEXTEND
  0
MTEXT
  5
5677
330
1A
100
AcDbEntity
  8
SUNPOU
100
AcDbMText
 10
70659.09240227225
 20
64650.48716531294
 30
0.0
 40
10.5
 41
0.0
 71
     7
 72
     5
  1

1001
ACAD
1000
MTEXTBEGIN
1070
    73
1070
     1
1070
    44
1040
1.0
1070
    74
1070
     0
1000
MTEXTEND
  0
MTEXT
  5
5678
330
1A
100
AcDbEntity
  8
SUNPOU
100
AcDbMText
 10
54259.93028904056
 20
43648.08331570185
 30
0.0
 40
10.5
 41
0.0
 71
     7
 72
     5
  1

1001
ACAD
1000
MTEXTBEGIN
1070
    73
1070
     1
1070
    44
1040
1.0
1070
    74
1070
     0
1000
MTEXTEND
  0
MTEXT
  5
5679
330
1A
100
AcDbEntity
  8
SUNPOU
100
AcDbMText
 10
56070.69320041551
 20
49975.4973031804
 30
0.0
 40
10.5
 41
0.0
 71
     9
 72
     5
  1

1001
ACAD
1000
MTEXTBEGIN
1070
    73
1070
     1
1070
    44
1040
1.0
1070
    74
1070
     0
1000
MTEXTEND
  0
MTEXT
  5
567A
330
1A
100
AcDbEntity
  8
SUNPOU
100
AcDbMText
 10
64792.86076633347
 20
57391.33183471787
 30
0.0
 40
10.5
 41
0.0
 71
     9
 72
     5
  1

1001
ACAD
1000
MTEXTBEGIN
1070
    73
1070
     1
1070
    44
1040
1.0
1070
    74
1070
     0
1000
MTEXTEND
  0
MTEXT
  5
567B
330
1A
100
AcDbEntity
  8
SUNPOU
100
AcDbMText
 10
83746.61948366345
 20
74857.90788720994
 30
0.0
 40
10.5
 41
0.0
 71
     9
 72
     5
  1

1001
ACAD
1000
MTEXTBEGIN
1070
    73
1070
     1
1070
    44
1040
1.0
1070
    74
1070
     0
1000
MTEXTEND
  0
MTEXT
  5
567C
330
1A
100
AcDbEntity
  8
SUNPOU
100
AcDbMText
 10
85690.02673037287
 20
73056.85880733192
 30
0.0
 40
3.5
 41
0.0
 71
     9
 72
     5
  1

1001
ACAD
1000
MTEXTBEGIN
1070
    73
1070
     1
1070
    44
1040
1.0
1070
    74
1070
     0
1000
MTEXTEND
  0
MTEXT
  5
567D
330
1A
100
AcDbEntity
  8
SUNPOU
100
AcDbMText
 10
116816.2065629925
 20
115551.8044749892
 30
0.0
 40
10.5
 41
0.0
 71
     9
 72
     5
  1

1001
ACAD
1000
MTEXTBEGIN
1070
    73
1070
     1
1070
    44
1040
1.0
1070
    74
1070
     0
1000
MTEXTEND
  0
MTEXT
  5
567E
330
1A
100
AcDbEntity
  8
SUNPOU
100
AcDbMText
 10
118759.6138097019
 20
113750.7553951111
 30
0.0
 40
3.5
 41
0.0
 71
     9
 72
     5
  1

1001
ACAD
1000
MTEXTBEGIN
1070
    73
1070
     1
1070
    44
1040
1.0
1070
    74
1070
     0
1000
MTEXTEND
  0
MTEXT
  5
567F
330
1A
100
AcDbEntity
  8
SUNPOU
100
AcDbMText
 10
67256.47426878814
 20
61384.96962996432
 30
0.0
 40
10.5
 41
0.0
 71
     9
 72
     5
  1

1001
ACAD
1000
MTEXTBEGIN
1070
    73
1070
     1
1070
    44
1040
1.0
1070
    74
1070
     0
1000
MTEXTEND
  0
MTEXT
  5
5680
330
1A
100
AcDbEntity
  8
SUNPOU
100
AcDbMText
 10
53308.47416841216
 20
42212.57049085211
 30
0.0
 40
3.5
 41
0.0
 71
     7
 72
     5
  1

1001
ACAD
1000
MTEXTBEGIN
1070
    73
1070
     1
1070
    44
1040
1.0
1070
    74
1070
     0
1000
MTEXTEND
  0
MTEXT
  5
5681
330
1A
100
AcDbEntity
  8
SUNPOU
100
AcDbMText
 10
67000.82485118274
 20
51571.63371187344
 30
0.0
 40
10.5
 41
0.0
 71
     9
 72
     5
  1

1001
ACAD
1000
MTEXTBEGIN
1070
    73
1070
     1
1070
    44
1040
1.0
1070
    74
1070
     0
1000
MTEXTEND
  0
MTEXT
  5
5682
330
1A
100
AcDbEntity
  8
SUNPOU
100
AcDbMText
 10
75722.99241710071
 20
58987.46824341094
 30
0.0
 40
10.5
 41
0.0
 71
     9
 72
     5
  1

1001
ACAD
1000
MTEXTBEGIN
1070
    73
1070
     1
1070
    44
1040
1.0
1070
    74
1070
     0
1000
MTEXTEND
  0
MTEXT
  5
5683
330
1A
100
AcDbEntity
  8
SUNPOU
100
AcDbMText
 10
94676.75113443068
 20
76454.04429590299
 30
0.0
 40
10.5
 41
0.0
 71
     9
 72
     5
  1

1001
ACAD
1000
MTEXTBEGIN
1070
    73
1070
     1
1070
    44
1040
1.0
1070
    74
1070
     0
1000
MTEXTEND
  0
MTEXT
  5
5684
330
1A
100
AcDbEntity
  8
SUNPOU
100
AcDbMText
 10
96620.1583811401
 20
74652.99521602497
 30
0.0
 40
3.5
 41
0.0
 71
     9
 72
     5
  1

1001
ACAD
1000
MTEXTBEGIN
1070
    73
1070
     1
1070
    44
1040
1.0
1070
    74
1070
     0
1000
MTEXTEND
  0
MTEXT
  5
5685
330
1A
100
AcDbEntity
  8
SUNPOU
100
AcDbMText
 10
127746.3382137598
 20
117147.9408836822
 30
0.0
 40
10.5
 41
0.0
 71
     9
 72
     5
  1

1001
ACAD
1000
MTEXTBEGIN
1070
    73
1070
     1
1070
    44
1040
1.0
1070
    74
1070
     0
1000
MTEXTEND
  0
MTEXT
  5
5686
330
1A
100
AcDbEntity
  8
SUNPOU
100
AcDbMText
 10
129689.7454604692
 20
115346.8918038042
 30
0.0
 40
3.5
 41
0.0
 71
     9
 72
     5
  1

1001
ACAD
1000
MTEXTBEGIN
1070
    73
1070
     1
1070
    44
1040
1.0
1070
    74
1070
     0
1000
MTEXTEND
  0
MTEXT
  5
5687
330
1A
100
AcDbEntity
  8
SUNPOU
100
AcDbMText
 10
78186.60591955537
 20
62981.10603865737
 30
0.0
 40
10.5
 41
0.0
 71
     9
 72
     5
  1

1001
ACAD
1000
MTEXTBEGIN
1070
    73
1070
     1
1070
    44
1040
1.0
1070
    74
1070
     0
1000
MTEXTEND
  0
MTEXT
  5
5688
330
1A
100
AcDbEntity
  8
SUNPOU
100
AcDbMText
 10
64238.60581917939
 20
43808.70689954517
 30
0.0
 40
3.5
 41
0.0
 71
     7
 72
     5
  1

1001
ACAD
1000
MTEXTBEGIN
1070
    73
1070
     1
1070
    44
1040
1.0
1070
    74
1070
     0
1000
MTEXTEND
  0
MTEXT
  5
5689
330
1A
100
AcDbEntity
  8
SUNPOU
100
AcDbMText
 10
33428.13481137435
 20
32770.04710035563
 30
0.0
 40
10.5
 41
0.0
 71
     9
 72
     5
  1

1001
ACAD
1000
MTEXTBEGIN
1070
    73
1070
     1
1070
    44
1040
1.0
1070
    74
1070
     0
1000
MTEXTEND
  0
MTEXT
  5
568A
330
1A
100
AcDbEntity
  8
SUNPOU
100
AcDbMText
 10
52381.89352870431
 20
50236.62315284768
 30
0.0
 40
10.5
 41
0.0
 71
     9
 72
     5
  1

1001
ACAD
1000
MTEXTBEGIN
1070
    73
1070
     1
1070
    44
1040
1.0
1070
    74
1070
     0
1000
MTEXTEND
  0
MTEXT
  5
568B
330
1A
100
AcDbEntity
  8
SUNPOU
100
AcDbMText
 10
54325.30077541374
 20
48435.57407296968
 30
0.0
 40
3.5
 41
0.0
 71
     9
 72
     5
  1

1001
ACAD
1000
MTEXTBEGIN
1070
    73
1070
     1
1070
    44
1040
1.0
1070
    74
1070
     0
1000
MTEXTEND
  0
MTEXT
  5
568C
330
1A
100
AcDbEntity
  8
SUNPOU
100
AcDbMText
 10
85451.48060803342
 20
90930.51974062703
 30
0.0
 40
10.5
 41
0.0
 71
     9
 72
     5
  1

1001
ACAD
1000
MTEXTBEGIN
1070
    73
1070
     1
1070
    44
1040
1.0
1070
    74
1070
     0
1000
MTEXTEND
  0
MTEXT
  5
568D
330
1A
100
AcDbEntity
  8
SUNPOU
100
AcDbMText
 10
87394.88785474286
 20
89129.47066074901
 30
0.0
 40
3.5
 41
0.0
 71
     9
 72
     5
  1

1001
ACAD
1000
MTEXTBEGIN
1070
    73
1070
     1
1070
    44
1040
1.0
1070
    74
1070
     0
1000
MTEXTEND
  0
MTEXT
  5
568E
330
1A
100
AcDbEntity
  8
SUNPOU
100
AcDbMText
 10
35891.74831382901
 20
36763.68489560208
 30
0.0
 40
10.5
 41
0.0
 71
     9
 72
     5
  1

1001
ACAD
1000
MTEXTBEGIN
1070
    73
1070
     1
1070
    44
1040
1.0
1070
    74
1070
     0
1000
MTEXTEND
  0
MTEXT
  5
568F
330
1A
100
AcDbEntity
  8
SUNPOU
100
AcDbMText
 10
21943.74821345303
 20
17591.28575648985
 30
0.0
 40
3.5
 41
0.0
 71
     7
 72
     5
  1

1001
ACAD
1000
MTEXTBEGIN
1070
    73
1070
     1
1070
    44
1040
1.0
1070
    74
1070
     0
1000
MTEXTEND
  0
LINE
  5
11C5A
330
1A
100
AcDbEntity
  8
ZISSEN1
100
AcDbLine
 10
-1847.840101061141
 20
1697.913923896574
 30
0.0
 11
-1774.84010006114
 21
1697.913923896574
 31
0.0
  0
LINE
  5
11C5B
330
1A
100
AcDbEntity
  8
ZISSEN1
100
AcDbLine
 10
-1847.840101061141
 20
1699.513925896574
 30
0.0
 11
-1774.84010006114
 21
1699.513925896574
 31
0.0
  0
LINE
  5
11C5C
330
1A
100
AcDbEntity
  8
CL1
100
AcDbLine
 10
-1844.840103061141
 20
1708.913914896574
 30
0.0
 11
-1853.840096061141
 21
1708.913914896574
 31
0.0
  0
LINE
  5
11C5D
330
1A
100
AcDbEntity
  8
CL1
100
AcDbLine
 10
-1844.840103061141
 20
1714.913914896574
 30
0.0
 11
-1853.840096061141
 21
1714.913914896574
 31
0.0
  0
LINE
  5
11C5E
330
1A
100
AcDbEntity
  8
ZISSEN1
100
AcDbLine
 10
-1847.840101061141
 20
1691.913922896574
 30
0.0
 11
-1773.840100061141
 21
1691.913922896574
 31
0.0
  0
LINE
  5
11C5F
330
1A
100
AcDbEntity
  8
ZISSEN1
100
AcDbLine
 10
-1850.840098061141
 20
1688.913924896574
 30
0.0
 11
-1773.840100061141
 21
1688.913924896574
 31
0.0
  0
LINE
  5
11C60
330
1A
100
AcDbEntity
  8
ZISSEN1
100
AcDbLine
 10
-1847.840101061141
 20
1725.913914896574
 30
0.0
 11
-1847.840101061141
 21
1691.913922896574
 31
0.0
  0
LINE
  5
11C61
330
1A
100
AcDbEntity
  8
ZISSEN1
100
AcDbLine
 10
-1850.840098061141
 20
1725.913914896574
 30
0.0
 11
-1850.840098061141
 21
1688.913924896574
 31
0.0
  0
LINE
  5
11C62
330
1A
100
AcDbEntity
  8
ZISSEN1
100
AcDbLine
 10
-1847.340093061141
 20
1699.513925896574
 30
0.0
 11
-1847.340093061141
 21
1697.913923896574
 31
0.0
  0
LINE
  5
11C63
330
1A
100
AcDbEntity
  8
ZISSEN1
100
AcDbLine
 10
-1847.840101061141
 20
1725.206814896574
 30
0.0
 11
-1850.840098061141
 21
1725.206814896574
 31
0.0
  0
LINE
  5
11C64
330
1A
100
AcDbEntity
  8
ZISSEN1
100
AcDbLine
 10
-1850.840098061141
 20
1725.913914896574
 30
0.0
 11
-1847.840101061141
 21
1725.913914896574
 31
0.0
  0
LINE
  5
11C65
330
1A
100
AcDbEntity
  8
ZISSEN1
100
AcDbLine
 10
-1782.740090061141
 20
1718.913924896574
 30
0.0
 11
-1776.940110061141
 21
1718.913924896574
 31
0.0
  0
LINE
  5
11C66
330
1A
100
AcDbEntity
  8
ZISSEN1
100
AcDbLine
 10
-1782.740100061141
 20
1718.913924896574
 30
0.0
 11
-1782.740100061141
 21
1699.513925896574
 31
0.0
  0
LINE
  5
11C67
330
1A
100
AcDbEntity
  8
CL1
100
AcDbLine
 10
-1842.090094061141
 20
1694.913919896574
 30
0.0
 11
-1842.090094061141
 21
1685.913927896574
 31
0.0
  0
LINE
  5
11C68
330
1A
100
AcDbEntity
  8
CL1
100
AcDbLine
 10
-1834.34008106114
 20
1694.913919896574
 30
0.0
 11
-1834.34008106114
 21
1685.913927896574
 31
0.0
  0
LINE
  5
11C69
330
1A
100
AcDbEntity
  8
ZISSEN1
100
AcDbLine
 10
-1831.461409061141
 20
1699.513925896574
 30
0.0
 11
-1831.461409061141
 21
1697.913917896574
 31
0.0
  0
LINE
  5
11C6A
330
1A
100
AcDbEntity
  8
ZISSEN1
100
AcDbLine
 10
-1829.340089061141
 20
1699.513925896574
 30
0.0
 11
-1829.340089061141
 21
1697.913923896574
 31
0.0
  0
LINE
  5
11C6B
330
1A
100
AcDbEntity
  8
ZISSEN1
100
AcDbLine
 10
-1828.632980061139
 20
1699.513925896574
 30
0.0
 11
-1828.632980061139
 21
1697.913923896574
 31
0.0
  0
LINE
  5
11C6C
330
1A
100
AcDbEntity
  8
ZISSEN1
100
AcDbLine
 10
-1781.340100061141
 20
1697.913923896574
 30
0.0
 11
-1781.340100061141
 21
1691.913922896574
 31
0.0
  0
LINE
  5
11C6D
330
1A
100
AcDbEntity
  8
ZISSEN1
100
AcDbLine
 10
-1776.940110061141
 20
1718.913924896574
 30
0.0
 11
-1776.940110061141
 21
1699.513925896574
 31
0.0
  0
LINE
  5
11C6E
330
1A
100
AcDbEntity
  8
ZISSEN1
100
AcDbLine
 10
-1776.34010006114
 20
1697.913923896574
 30
0.0
 11
-1776.34010006114
 21
1691.913922896574
 31
0.0
  0
LINE
  5
11C6F
330
1A
100
AcDbEntity
  8
ZISSEN1
100
AcDbLine
 10
-1774.547210061141
 20
1691.913916896574
 30
0.0
 11
-1774.547210061141
 21
1688.913924896574
 31
0.0
  0
LINE
  5
11C70
330
1A
100
AcDbEntity
  8
ZISSEN1
100
AcDbLine
 10
-1773.840100061141
 20
1691.913922896574
 30
0.0
 11
-1773.840100061141
 21
1688.913924896574
 31
0.0
  0
LINE
  5
11C71
330
1A
100
AcDbEntity
  8
ZISSEN1
100
AcDbLine
 10
-1775.547210061141
 20
1699.513925896574
 30
0.0
 11
-1775.547210061141
 21
1697.913923896574
 31
0.0
  0
LINE
  5
11C72
330
1A
100
AcDbEntity
  8
ZISSEN1
100
AcDbLine
 10
-1774.84010006114
 20
1699.513925896574
 30
0.0
 11
-1774.84010006114
 21
1697.913923896574
 31
0.0
  0
LINE
  5
11C73
330
1A
100
AcDbEntity
  8
ZISSEN1
100
AcDbLine
 10
-1838.590107061141
 20
1771.616624896574
 30
0.0
 11
-1847.340093061141
 21
1771.616624896574
 31
0.0
  0
LINE
  5
11C74
330
1A
100
AcDbEntity
  8
ZISSEN1
100
AcDbLine
 10
-1838.590107061141
 20
1890.616614896574
 30
0.0
 11
-1847.840101061141
 21
1890.616614896574
 31
0.0
  0
LINE
  5
11C75
330
1A
100
AcDbEntity
  8
ZISSEN1
100
AcDbLine
 10
-1842.090088061141
 20
1763.616624896574
 30
0.0
 11
-1850.840098061141
 21
1763.616624896574
 31
0.0
  0
LINE
  5
11C76
330
1A
100
AcDbEntity
  8
ZISSEN1
100
AcDbLine
 10
-1842.090094061141
 20
1898.616624896574
 30
0.0
 11
-1850.840098061141
 21
1898.616624896574
 31
0.0
  0
LINE
  5
11C77
330
1A
100
AcDbEntity
  8
ZISSEN1
100
AcDbLine
 10
-1847.340093061141
 20
1774.663914896574
 30
0.0
 11
-1847.340093061141
 21
1887.616604896574
 31
0.0
  0
LINE
  5
11C78
330
1A
100
AcDbEntity
  8
ZISSEN1
100
AcDbLine
 10
-1849.840095061141
 20
1764.323734896574
 30
0.0
 11
-1849.840095061141
 21
1897.909514896574
 31
0.0
  0
LINE
  5
11C79
330
1A
100
AcDbEntity
  8
ZISSEN1
100
AcDbLine
 10
-1847.840101061141
 20
1763.616624896574
 30
0.0
 11
-1847.840101061141
 21
1898.616624896574
 31
0.0
  0
LINE
  5
11C7A
330
1A
100
AcDbEntity
  8
ZISSEN1
100
AcDbLine
 10
-1850.840098061141
 20
1898.616624896574
 30
0.0
 11
-1850.840098061141
 21
1763.616624896574
 31
0.0
  0
LINE
  5
11C7B
330
1A
100
AcDbEntity
  8
ZISSEN1
100
AcDbLine
 10
-1847.840101061141
 20
1764.323734896574
 30
0.0
 11
-1850.840098061141
 21
1764.323734896574
 31
0.0
  0
LINE
  5
11C7C
330
1A
100
AcDbEntity
  8
ZISSEN1
100
AcDbLine
 10
-1847.340093061141
 20
1771.616624896574
 30
0.0
 11
-1847.840101061141
 21
1771.616624896574
 31
0.0
  0
LINE
  5
11C7D
330
1A
100
AcDbEntity
  8
ZISSEN1
100
AcDbLine
 10
-1847.340093061141
 20
1774.616624896574
 30
0.0
 11
-1847.840101061141
 21
1774.616624896574
 31
0.0
  0
LINE
  5
11C7E
330
1A
100
AcDbEntity
  8
ZISSEN1
100
AcDbLine
 10
-1847.340093061141
 20
1887.616604896574
 30
0.0
 11
-1847.840101061141
 21
1887.616604896574
 31
0.0
  0
LINE
  5
11C7F
330
1A
100
AcDbEntity
  8
ZISSEN1
100
AcDbLine
 10
-1847.840101061141
 20
1897.909514896574
 30
0.0
 11
-1850.840098061141
 21
1897.909514896574
 31
0.0
  0
LINE
  5
11C81
330
1A
100
AcDbEntity
  8
ZISSEN1
100
AcDbLine
 10
-1774.84010006114
 20
1765.323734896574
 30
0.0
 11
-1774.84010006114
 21
1896.909504896574
 31
0.0
  0
LINE
  5
11C82
330
1A
100
AcDbEntity
  8
ZISSEN1
100
AcDbLine
 10
-1773.840100061141
 20
1764.323734896574
 30
0.0
 11
-1773.840100061141
 21
1897.909514896574
 31
0.0
  0
LINE
  5
11C84
330
1A
100
AcDbEntity
  8
ZISSEN1
100
AcDbLine
 10
-1776.940120061141
 20
1843.816644896574
 30
0.0
 11
-1782.740110061141
 21
1843.816644896574
 31
0.0
  0
LINE
  5
11C85
330
1A
100
AcDbEntity
  8
ZISSEN1
100
AcDbLine
 10
-1776.940120061141
 20
1826.916604896574
 30
0.0
 11
-1782.740110061141
 21
1826.916604896574
 31
0.0
  0
LINE
  5
11C86
330
1A
100
AcDbEntity
  8
ZISSEN1
100
AcDbLine
 10
-1776.940120061141
 20
1825.816634896574
 30
0.0
 11
-1782.740110061141
 21
1825.816634896574
 31
0.0
  0
LINE
  5
11C87
330
1A
100
AcDbEntity
  8
ZISSEN1
100
AcDbLine
 10
-1776.940120061141
 20
1811.416624896574
 30
0.0
 11
-1782.740110061141
 21
1811.416624896574
 31
0.0
  0
LINE
  5
11C88
330
1A
100
AcDbEntity
  8
ZISSEN1
100
AcDbLine
 10
-1782.740110061141
 20
1800.916644896574
 30
0.0
 11
-1776.940120061141
 21
1800.916644896574
 31
0.0
  0
LINE
  5
11C89
330
1A
100
AcDbEntity
  8
ZISSEN1
100
AcDbLine
 10
-1782.740110061141
 20
1810.316634896573
 30
0.0
 11
-1776.940120061141
 21
1810.316634896573
 31
0.0
  0
LINE
  5
11C8A
330
1A
100
AcDbEntity
  8
ZISSEN1
100
AcDbLine
 10
-1776.940120061141
 20
1799.816624896574
 30
0.0
 11
-1782.740110061141
 21
1799.816624896574
 31
0.0
  0
LINE
  5
11C8B
330
1A
100
AcDbEntity
  8
ZISSEN1
100
AcDbLine
 10
-1776.940120061141
 20
1772.916694896574
 30
0.0
 11
-1782.740110061141
 21
1772.916694896574
 31
0.0
  0
LINE
  5
11C8C
330
1A
100
AcDbEntity
  8
ZISSEN1
100
AcDbLine
 10
-1775.547210061141
 20
1764.616624896574
 30
0.0
 11
-1828.632980061139
 21
1764.616624896574
 31
0.0
  0
LINE
  5
11C8D
330
1A
100
AcDbEntity
  8
ZISSEN1
100
AcDbLine
 10
-1774.547210061141
 20
1763.616624896574
 30
0.0
 11
-1838.590107061141
 21
1763.616624896574
 31
0.0
  0
LINE
  5
11C8E
330
1A
100
AcDbEntity
  8
ZISSEN1
100
AcDbLine
 10
-1828.632980061139
 20
1764.616624896574
 30
0.0
 11
-1829.340089061141
 21
1765.323734896574
 31
0.0
  0
LINE
  5
11C90
330
1A
100
AcDbEntity
  8
ZISSEN1
100
AcDbLine
 10
-1829.340089061141
 20
1769.495294896574
 30
0.0
 11
-1829.340089061141
 21
1765.323734896574
 31
0.0
  0
LINE
  5
11C91
330
1A
100
AcDbEntity
  8
CL1
100
AcDbLine
 10
-1840.340101061141
 20
1764.731464896574
 30
0.0
 11
-1840.340101061141
 21
1770.616594896574
 31
0.0
  0
LINE
  5
11C92
330
1A
100
AcDbEntity
  8
CL1
100
AcDbLine
 10
-1834.34008106114
 20
1764.616604896573
 30
0.0
 11
-1834.34008106114
 21
1770.616594896574
 31
0.0
  0
LINE
  5
11C93
330
1A
100
AcDbEntity
  8
ZISSEN1
100
AcDbLine
 10
-1842.090094061141
 20
1768.116584896574
 30
0.0
 11
-1842.090094061141
 21
1763.616594896574
 31
0.0
  0
LINE
  5
11C94
330
1A
100
AcDbEntity
  8
ZISSEN1
100
AcDbLine
 10
-1838.590107061141
 20
1768.116584896574
 30
0.0
 11
-1838.590107061141
 21
1763.616594896574
 31
0.0
  0
LINE
  5
11C95
330
1A
100
AcDbEntity
  8
ZISSEN1
100
AcDbLine
 10
-1831.461409061141
 20
1771.616624896574
 30
0.0
 11
-1838.590107061141
 21
1771.616624896574
 31
0.0
  0
LINE
  5
11C96
330
1A
100
AcDbEntity
  8
CL1
100
AcDbLine
 10
-1843.340111061141
 20
1767.616604896574
 30
0.0
 11
-1831.340071061139
 21
1767.616604896574
 31
0.0
  0
ARC
  5
11C97
330
1A
100
AcDbEntity
  8
ZISSEN1
100
AcDbCircle
 10
-1840.340101061141
 20
1768.116584896574
 30
0.0
 40
1.749999899999999
100
AcDbArc
 50
0.0
 51
180.0
  0
CIRCLE
  5
11C98
330
1A
100
AcDbEntity
  8
SAISEN
100
AcDbCircle
 10
-1834.34008106114
 20
1767.616604896574
 30
0.0
 40
1.5
  0
LINE
  5
11C99
330
1A
100
AcDbEntity
  8
ZISSEN1
100
AcDbLine
 10
-1831.461409061141
 20
1771.616624896574
 30
0.0
 11
-1829.340089061141
 21
1769.495294896574
 31
0.0
  0
LINE
  5
11C9A
330
1A
100
AcDbEntity
  8
ZISSEN1
100
AcDbLine
 10
-1782.740110061141
 20
1799.816624896574
 30
0.0
 11
-1782.740110061141
 21
1772.916694896574
 31
0.0
  0
LINE
  5
11C9B
330
1A
100
AcDbEntity
  8
ZISSEN1
100
AcDbLine
 10
-1782.740110061141
 20
1825.816634896574
 30
0.0
 11
-1782.740110061141
 21
1811.416624896574
 31
0.0
  0
LINE
  5
11C9C
330
1A
100
AcDbEntity
  8
ZISSEN1
100
AcDbLine
 10
-1782.740110061141
 20
1810.316634896573
 30
0.0
 11
-1782.740110061141
 21
1800.916644896574
 31
0.0
  0
LINE
  5
11C9D
330
1A
100
AcDbEntity
  8
ZISSEN1
100
AcDbLine
 10
-1782.740110061141
 20
1843.816644896574
 30
0.0
 11
-1782.740110061141
 21
1826.916604896574
 31
0.0
  0
LINE
  5
11C9E
330
1A
100
AcDbEntity
  8
ZISSEN1
100
AcDbLine
 10
-1776.940120061141
 20
1799.816624896574
 30
0.0
 11
-1776.940120061141
 21
1772.916694896574
 31
0.0
  0
LINE
  5
11C9F
330
1A
100
AcDbEntity
  8
ZISSEN1
100
AcDbLine
 10
-1774.84010006114
 20
1765.323734896574
 30
0.0
 11
-1775.547210061141
 21
1764.616624896574
 31
0.0
  0
LINE
  5
11CA0
330
1A
100
AcDbEntity
  8
ZISSEN1
100
AcDbLine
 10
-1774.547210061141
 20
1763.616624896574
 30
0.0
 11
-1773.840100061141
 21
1764.323734896574
 31
0.0
  0
LINE
  5
11CA1
330
1A
100
AcDbEntity
  8
ZISSEN1
100
AcDbLine
 10
-1776.940120061141
 20
1825.816634896574
 30
0.0
 11
-1776.940120061141
 21
1811.416624896574
 31
0.0
  0
LINE
  5
11CA2
330
1A
100
AcDbEntity
  8
ZISSEN1
100
AcDbLine
 10
-1776.940120061141
 20
1810.316634896573
 30
0.0
 11
-1776.940120061141
 21
1800.916644896574
 31
0.0
  0
LINE
  5
11CA3
330
1A
100
AcDbEntity
  8
ZISSEN1
100
AcDbLine
 10
-1776.940120061141
 20
1843.816644896574
 30
0.0
 11
-1776.940120061141
 21
1826.916604896574
 31
0.0
  0
CIRCLE
  5
11CA4
330
1A
100
AcDbEntity
  8
ZISSEN1
100
AcDbCircle
 10
-1778.840100061139
 20
1879.116634896574
 30
0.0
 40
1.8999999
  0
LINE
  5
11CA5
330
1A
100
AcDbEntity
  8
ZISSEN1
100
AcDbLine
 10
-1777.480110061141
 20
1888.936624896574
 30
0.0
 11
-1788.280120061141
 21
1888.936624896574
 31
0.0
  0
LINE
  5
11CA6
330
1A
100
AcDbEntity
  8
ZISSEN1
100
AcDbLine
 10
-1777.480110061141
 20
1882.296624896574
 30
0.0
 11
-1788.280120061141
 21
1882.296624896574
 31
0.0
  0
LINE
  5
11CA7
330
1A
100
AcDbEntity
  8
ZISSEN1
100
AcDbLine
 10
-1776.890130061141
 20
1864.616604896573
 30
0.0
 11
-1783.790110061141
 21
1864.616604896573
 31
0.0
  0
LINE
  5
11CA8
330
1A
100
AcDbEntity
  8
ZISSEN1
100
AcDbLine
 10
-1776.890130061141
 20
1854.616624896574
 30
0.0
 11
-1783.790110061141
 21
1854.616624896574
 31
0.0
  0
LINE
  5
11CA9
330
1A
100
AcDbEntity
  8
ZISSEN1
100
AcDbLine
 10
-1776.890130061141
 20
1875.116614896574
 30
0.0
 11
-1783.790110061141
 21
1875.116614896574
 31
0.0
  0
LINE
  5
11CAA
330
1A
100
AcDbEntity
  8
ZISSEN1
100
AcDbLine
 10
-1776.890130061141
 20
1865.116634896574
 30
0.0
 11
-1783.790110061141
 21
1865.116634896574
 31
0.0
  0
LINE
  5
11CAB
330
1A
100
AcDbEntity
  8
ZISSEN1
100
AcDbLine
 10
-1775.547210061141
 20
1897.616614896574
 30
0.0
 11
-1828.632980061139
 21
1897.616614896574
 31
0.0
  0
LINE
  5
11CAC
330
1A
100
AcDbEntity
  8
ZISSEN1
100
AcDbLine
 10
-1774.547210061141
 20
1898.616624896574
 30
0.0
 11
-1838.590107061141
 21
1898.616624896574
 31
0.0
  0
ARC
  5
11CAD
330
1A
100
AcDbEntity
  8
ZISSEN1
100
AcDbCircle
 10
-1840.340101061141
 20
1894.116654896574
 30
0.0
 40
1.749999899999999
100
AcDbArc
 50
180.0
 51
0.0
  0
CIRCLE
  5
11CAF
330
1A
100
AcDbEntity
  8
SAISEN
100
AcDbCircle
 10
-1834.34008106114
 20
1894.616634896574
 30
0.0
 40
1.5
  0
LINE
  5
11CB0
330
1A
100
AcDbEntity
  8
ZISSEN1
100
AcDbLine
 10
-1829.340089061141
 20
1896.909504896574
 30
0.0
 11
-1829.340089061141
 21
1892.737944896574
 31
0.0
  0
LINE
  5
11CB1
330
1A
100
AcDbEntity
  8
CL1
100
AcDbLine
 10
-1840.340101061141
 20
1897.501784896574
 30
0.0
 11
-1840.340101061141
 21
1891.616644896574
 31
0.0
  0
LINE
  5
11CB2
330
1A
100
AcDbEntity
  8
CL1
100
AcDbLine
 10
-1834.34008106114
 20
1897.616644896574
 30
0.0
 11
-1834.34008106114
 21
1891.616644896574
 31
0.0
  0
LINE
  5
11CB3
330
1A
100
AcDbEntity
  8
ZISSEN1
100
AcDbLine
 10
-1831.461409061141
 20
1890.616614896574
 30
0.0
 11
-1838.590107061141
 21
1890.616614896574
 31
0.0
  0
LINE
  5
11CB4
330
1A
100
AcDbEntity
  8
ZISSEN1
100
AcDbLine
 10
-1829.340089061141
 20
1892.737944896574
 30
0.0
 11
-1831.461409061141
 21
1890.616614896574
 31
0.0
  0
LINE
  5
11CB5
330
1A
100
AcDbEntity
  8
ZISSEN1
100
AcDbLine
 10
-1783.790110061141
 20
1865.116634896574
 30
0.0
 11
-1783.790110061141
 21
1875.116614896574
 31
0.0
  0
LINE
  5
11CB6
330
1A
100
AcDbEntity
  8
ZISSEN1
100
AcDbLine
 10
-1783.790110061141
 20
1854.616624896574
 30
0.0
 11
-1783.790110061141
 21
1864.616604896573
 31
0.0
  0
LINE
  5
11CB7
330
1A
100
AcDbEntity
  8
ZISSEN1
100
AcDbLine
 10
-1788.280120061141
 20
1888.936624896574
 30
0.0
 11
-1788.280120061141
 21
1882.296624896574
 31
0.0
  0
LINE
  5
11CB8
330
1A
100
AcDbEntity
  8
ZISSEN1
100
AcDbLine
 10
-1829.340089061141
 20
1896.909504896574
 30
0.0
 11
-1828.632980061139
 21
1897.616614896574
 31
0.0
  0
LINE
  5
11CB9
330
1A
100
AcDbEntity
  8
CL1
100
AcDbLine
 10
-1843.340111061141
 20
1894.616634896574
 30
0.0
 11
-1831.340071061139
 21
1894.616634896574
 31
0.0
  0
LINE
  5
11CBA
330
1A
100
AcDbEntity
  8
ZISSEN1
100
AcDbLine
 10
-1842.090094061141
 20
1894.116654896574
 30
0.0
 11
-1842.090094061141
 21
1898.616644896574
 31
0.0
  0
LINE
  5
11CBB
330
1A
100
AcDbEntity
  8
ZISSEN1
100
AcDbLine
 10
-1838.590107061141
 20
1894.116654896574
 30
0.0
 11
-1838.590107061141
 21
1898.616644896574
 31
0.0
  0
LINE
  5
11CBC
330
1A
100
AcDbEntity
  8
ZISSEN1
100
AcDbLine
 10
-1776.890130061141
 20
1865.116634896574
 30
0.0
 11
-1776.890130061141
 21
1875.116614896574
 31
0.0
  0
LINE
  5
11CBD
330
1A
100
AcDbEntity
  8
ZISSEN1
100
AcDbLine
 10
-1776.890130061141
 20
1854.616624896574
 30
0.0
 11
-1776.890130061141
 21
1864.616604896573
 31
0.0
  0
LINE
  5
11CBE
330
1A
100
AcDbEntity
  8
ZISSEN1
100
AcDbLine
 10
-1777.480110061141
 20
1888.936624896574
 30
0.0
 11
-1777.480110061141
 21
1882.296624896574
 31
0.0
  0
LINE
  5
11CBF
330
1A
100
AcDbEntity
  8
ZISSEN1
100
AcDbLine
 10
-1775.547210061141
 20
1897.616614896574
 30
0.0
 11
-1774.84010006114
 21
1896.909504896574
 31
0.0
  0
LINE
  5
11CC0
330
1A
100
AcDbEntity
  8
ZISSEN1
100
AcDbLine
 10
-1774.547210061141
 20
1898.616624896574
 30
0.0
 11
-1773.840100061141
 21
1897.909514896574
 31
0.0
  0
LINE
  5
11CC2
330
1A
100
AcDbEntity
  8
ZISSEN1
100
AcDbLine
 10
-1666.353620061141
 20
1897.616614896574
 30
0.0
 11
-1666.353620061141
 21
1765.323734896574
 31
0.0
  0
LINE
  5
11CC3
330
1A
100
AcDbEntity
  8
ZISSEN1
100
AcDbLine
 10
-1667.95362006114
 20
1897.616614896574
 30
0.0
 11
-1667.95362006114
 21
1764.616624896574
 31
0.0
  0
LINE
  5
11CC4
330
1A
100
AcDbEntity
  8
ZISSEN1
100
AcDbLine
 10
-1660.35363006114
 20
1898.616624896574
 30
0.0
 11
-1660.35363006114
 21
1763.616624896574
 31
0.0
  0
LINE
  5
11CC5
330
1A
100
AcDbEntity
  8
ZISSEN1
100
AcDbLine
 10
-1657.35362006114
 20
1898.616624896574
 30
0.0
 11
-1657.35362006114
 21
1763.616624896574
 31
0.0
  0
LINE
  5
11CC8
330
1A
100
AcDbEntity
  8
ZISSEN1
100
AcDbLine
 10
-1687.35362006114
 20
1799.816624896574
 30
0.0
 11
-1667.95362006114
 21
1799.816624896574
 31
0.0
  0
LINE
  5
11CC9
330
1A
100
AcDbEntity
  8
ZISSEN1
100
AcDbLine
 10
-1681.603610061141
 20
1763.616624896574
 30
0.0
 11
-1657.35362006114
 21
1763.616624896574
 31
0.0
  0
LINE
  5
11CCA
330
1A
100
AcDbEntity
  8
CL1
100
AcDbLine
 10
-1686.353620061141
 20
1767.616624896574
 30
0.0
 11
-1674.353580061141
 21
1767.616624896574
 31
0.0
  0
LINE
  5
11CCD
330
1A
100
AcDbEntity
  8
CL1
100
AcDbLine
 10
-1683.35361006114
 20
1764.731474896574
 30
0.0
 11
-1683.35361006114
 21
1770.616604896574
 31
0.0
  0
LINE
  5
11CCE
330
1A
100
AcDbEntity
  8
ZISSEN1
100
AcDbLine
 10
-1685.103600061141
 20
1768.116594896574
 30
0.0
 11
-1685.103600061141
 21
1763.616604896574
 31
0.0
  0
LINE
  5
11CCF
330
1A
100
AcDbEntity
  8
ZISSEN1
100
AcDbLine
 10
-1681.603610061141
 20
1768.116594896574
 30
0.0
 11
-1681.603610061141
 21
1763.616604896574
 31
0.0
  0
LINE
  5
11CD0
330
1A
100
AcDbEntity
  8
ZISSEN1
100
AcDbLine
 10
-1693.64651006114
 20
1763.616624896574
 30
0.0
 11
-1685.103600061141
 21
1763.616624896574
 31
0.0
  0
LINE
  5
11CD1
330
1A
100
AcDbEntity
  8
ZISSEN1
100
AcDbLine
 10
-1693.64651006114
 20
1763.616624896574
 30
0.0
 11
-1694.35362006114
 21
1764.323734896574
 31
0.0
  0
ARC
  5
11CD2
330
1A
100
AcDbEntity
  8
ZISSEN1
100
AcDbCircle
 10
-1683.35361006114
 20
1768.116594896574
 30
0.0
 40
1.749999899999999
100
AcDbArc
 50
0.0
 51
180.0
  0
LINE
  5
11CD3
330
1A
100
AcDbEntity
  8
ZISSEN1
100
AcDbLine
 10
-1666.353620061141
 20
1766.116624896574
 30
0.0
 11
-1660.35363006114
 21
1766.116624896574
 31
0.0
  0
LINE
  5
11CD4
330
1A
100
AcDbEntity
  8
ZISSEN1
100
AcDbLine
 10
-1666.353620061141
 20
1771.116624896574
 30
0.0
 11
-1660.35363006114
 21
1771.116624896574
 31
0.0
  0
LINE
  5
11CD6
330
1A
100
AcDbEntity
  8
CL1
100
AcDbLine
 10
-1677.353590061141
 20
1764.616614896574
 30
0.0
 11
-1677.353590061141
 21
1770.616604896574
 31
0.0
  0
LINE
  5
11CD7
330
1A
100
AcDbEntity
  8
ZISSEN1
100
AcDbLine
 10
-1667.95362006114
 20
1764.616624896574
 30
0.0
 11
-1666.353620061141
 21
1764.616624896574
 31
0.0
  0
LINE
  5
11CD8
330
1A
100
AcDbEntity
  8
ZISSEN1
100
AcDbLine
 10
-1667.95362006114
 20
1765.323734896574
 30
0.0
 11
-1666.353620061141
 21
1765.323734896574
 31
0.0
  0
LINE
  5
11CD9
330
1A
100
AcDbEntity
  8
ZISSEN1
100
AcDbLine
 10
-1666.353620061141
 20
1765.323734896574
 30
0.0
 11
-1666.353620061141
 21
1764.616624896574
 31
0.0
  0
CIRCLE
  5
11CDA
330
1A
100
AcDbEntity
  8
SAISEN
100
AcDbCircle
 10
-1677.353590061141
 20
1767.616624896574
 30
0.0
 40
1.5
  0
LINE
  5
11CDB
330
1A
100
AcDbEntity
  8
ZISSEN1
100
AcDbLine
 10
-1660.35363006114
 20
1764.323734896574
 30
0.0
 11
-1657.35362006114
 21
1764.323734896574
 31
0.0
  0
LINE
  5
11CDC
330
1A
100
AcDbEntity
  8
ZISSEN1
100
AcDbLine
 10
-1687.35362006114
 20
1800.916644896574
 30
0.0
 11
-1667.95362006114
 21
1800.916644896574
 31
0.0
  0
LINE
  5
11CDD
330
1A
100
AcDbEntity
  8
ZISSEN1
100
AcDbLine
 10
-1687.35362006114
 20
1810.316634896573
 30
0.0
 11
-1667.95362006114
 21
1810.316634896573
 31
0.0
  0
LINE
  5
11CDE
330
1A
100
AcDbEntity
  8
ZISSEN1
100
AcDbLine
 10
-1687.35362006114
 20
1811.416624896574
 30
0.0
 11
-1667.95362006114
 21
1811.416624896574
 31
0.0
  0
LINE
  5
11CDF
330
1A
100
AcDbEntity
  8
ZISSEN1
100
AcDbLine
 10
-1687.35362006114
 20
1825.816634896574
 30
0.0
 11
-1667.95362006114
 21
1825.816634896574
 31
0.0
  0
LINE
  5
11CE0
330
1A
100
AcDbEntity
  8
ZISSEN1
100
AcDbLine
 10
-1687.35362006114
 20
1826.916604896574
 30
0.0
 11
-1667.95362006114
 21
1826.916604896574
 31
0.0
  0
LINE
  5
11CE7
330
1A
100
AcDbEntity
  8
ZISSEN1
100
AcDbLine
 10
-1666.353620061141
 20
1845.616614896574
 30
0.0
 11
-1660.35363006114
 21
1845.616614896574
 31
0.0
  0
ARC
  5
11CE8
330
1A
100
AcDbEntity
  8
ZISSEN1
100
AcDbCircle
 10
-1683.35361006114
 20
1894.116654896574
 30
0.0
 40
1.749999899999999
100
AcDbArc
 50
180.0
 51
0.0
  0
CIRCLE
  5
11CEA
330
1A
100
AcDbEntity
  8
SAISEN
100
AcDbCircle
 10
-1677.353590061141
 20
1894.616634896574
 30
0.0
 40
1.5
  0
LINE
  5
11CEB
330
1A
100
AcDbEntity
  8
CL1
100
AcDbLine
 10
-1683.35361006114
 20
1897.501784896574
 30
0.0
 11
-1683.35361006114
 21
1891.616644896574
 31
0.0
  0
LINE
  5
11CEC
330
1A
100
AcDbEntity
  8
CL1
100
AcDbLine
 10
-1677.353590061141
 20
1897.616644896574
 30
0.0
 11
-1677.353590061141
 21
1891.616644896574
 31
0.0
  0
LINE
  5
11CED
330
1A
100
AcDbEntity
  8
ZISSEN1
100
AcDbLine
 10
-1677.953630061141
 20
1875.116614896574
 30
0.0
 11
-1677.953630061141
 21
1865.116634896574
 31
0.0
  0
LINE
  5
11CEE
330
1A
100
AcDbEntity
  8
ZISSEN1
100
AcDbLine
 10
-1666.353620061141
 20
1850.616634896574
 30
0.0
 11
-1660.35363006114
 21
1850.616634896574
 31
0.0
  0
LINE
  5
11CEF
330
1A
100
AcDbEntity
  8
ZISSEN1
100
AcDbLine
 10
-1677.953630061141
 20
1864.616604896573
 30
0.0
 11
-1677.953630061141
 21
1854.616624896574
 31
0.0
  0
LINE
  5
11CF0
330
1A
100
AcDbEntity
  8
ZISSEN1
100
AcDbLine
 10
-1677.953630061141
 20
1854.616624896574
 30
0.0
 11
-1667.95362006114
 21
1854.616624896574
 31
0.0
  0
LINE
  5
11CF1
330
1A
100
AcDbEntity
  8
ZISSEN1
100
AcDbLine
 10
-1677.953630061141
 20
1865.116634896574
 30
0.0
 11
-1667.95362006114
 21
1865.116634896574
 31
0.0
  0
LINE
  5
11CF2
330
1A
100
AcDbEntity
  8
ZISSEN1
100
AcDbLine
 10
-1677.953630061141
 20
1864.616604896573
 30
0.0
 11
-1667.95362006114
 21
1864.616604896573
 31
0.0
  0
LINE
  5
11CF3
330
1A
100
AcDbEntity
  8
ZISSEN1
100
AcDbLine
 10
-1677.953630061141
 20
1875.116614896574
 30
0.0
 11
-1667.95362006114
 21
1875.116614896574
 31
0.0
  0
LINE
  5
11CF4
330
1A
100
AcDbEntity
  8
ZISSEN1
100
AcDbLine
 10
-1675.25364006114
 20
1877.216614896574
 30
0.0
 11
-1671.953630061141
 21
1877.216614896574
 31
0.0
  0
LINE
  5
11CF5
330
1A
100
AcDbEntity
  8
ZISSEN1
100
AcDbLine
 10
-1675.25364006114
 20
1881.016624896574
 30
0.0
 11
-1671.953630061141
 21
1881.016624896574
 31
0.0
  0
ARC
  5
11CF6
330
1A
100
AcDbEntity
  8
ZISSEN1
100
AcDbCircle
 10
-1675.253610061141
 20
1879.116634896574
 30
0.0
 40
1.8999999
100
AcDbArc
 50
90.0
 51
269.9999000000029
  0
LINE
  5
11CF7
330
1A
100
AcDbEntity
  8
ZISSEN1
100
AcDbLine
 10
-1671.953630061141
 20
1880.366624896574
 30
0.0
 11
-1667.95362006114
 21
1880.366624896574
 31
0.0
  0
LINE
  5
11CF8
330
1A
100
AcDbEntity
  8
ZISSEN1
100
AcDbLine
 10
-1671.953630061141
 20
1877.866634896574
 30
0.0
 11
-1667.95362006114
 21
1877.866634896574
 31
0.0
  0
LINE
  5
11CF9
330
1A
100
AcDbEntity
  8
ZISSEN1
100
AcDbLine
 10
-1671.953630061141
 20
1881.016624896574
 30
0.0
 11
-1671.953630061141
 21
1877.216614896574
 31
0.0
  0
LINE
  5
11CFA
330
1A
100
AcDbEntity
  8
ZISSEN1
100
AcDbLine
 10
-1678.753630061141
 20
1882.296624896574
 30
0.0
 11
-1667.95362006114
 21
1882.296624896574
 31
0.0
  0
LINE
  5
11CFB
330
1A
100
AcDbEntity
  8
ZISSEN1
100
AcDbLine
 10
-1678.753630061141
 20
1888.936624896574
 30
0.0
 11
-1667.95362006114
 21
1888.936624896574
 31
0.0
  0
LINE
  5
11CFC
330
1A
100
AcDbEntity
  8
ZISSEN1
100
AcDbLine
 10
-1678.753630061141
 20
1888.936624896574
 30
0.0
 11
-1678.753630061141
 21
1882.296624896574
 31
0.0
  0
LINE
  5
11CFD
330
1A
100
AcDbEntity
  8
ZISSEN1
100
AcDbLine
 10
-1681.603610061141
 20
1898.616624896574
 30
0.0
 11
-1657.35362006114
 21
1898.616624896574
 31
0.0
  0
LINE
  5
11CFE
330
1A
100
AcDbEntity
  8
CL1
100
AcDbLine
 10
-1686.353620061141
 20
1894.616634896574
 30
0.0
 11
-1674.353580061141
 21
1894.616634896574
 31
0.0
  0
LINE
  5
11CFF
330
1A
100
AcDbEntity
  8
ZISSEN1
100
AcDbLine
 10
-1693.64651006114
 20
1898.616624896574
 30
0.0
 11
-1685.103600061141
 21
1898.616624896574
 31
0.0
  0
LINE
  5
11D00
330
1A
100
AcDbEntity
  8
ZISSEN1
100
AcDbLine
 10
-1693.64651006114
 20
1898.616624896574
 30
0.0
 11
-1694.35362006114
 21
1897.909514896574
 31
0.0
  0
LINE
  5
11D01
330
1A
100
AcDbEntity
  8
ZISSEN1
100
AcDbLine
 10
-1685.103600061141
 20
1894.116654896574
 30
0.0
 11
-1685.103600061141
 21
1898.616644896574
 31
0.0
  0
LINE
  5
11D02
330
1A
100
AcDbEntity
  8
ZISSEN1
100
AcDbLine
 10
-1681.603610061141
 20
1894.116654896574
 30
0.0
 11
-1681.603610061141
 21
1898.616644896574
 31
0.0
  0
LINE
  5
11D03
330
1A
100
AcDbEntity
  8
ZISSEN1
100
AcDbLine
 10
-1667.95362006114
 20
1897.616614896574
 30
0.0
 11
-1666.353620061141
 21
1897.616614896574
 31
0.0
  0
LINE
  5
11D04
330
1A
100
AcDbEntity
  8
ZISSEN1
100
AcDbLine
 10
-1667.95362006114
 20
1896.909504896574
 30
0.0
 11
-1666.353620061141
 21
1896.909504896574
 31
0.0
  0
LINE
  5
11D05
330
1A
100
AcDbEntity
  8
ZISSEN1
100
AcDbLine
 10
-1660.35363006114
 20
1897.909514896574
 30
0.0
 11
-1657.35362006114
 21
1897.909514896574
 31
0.0
  0
MTEXT
  5
11D07
330
1A
100
AcDbEntity
  8
ZISSEN1
100
AcDbMText
 10
-1776.105031899954
 20
1912.808376262202
 30
0.0
 40
5.0
 41
171.8538
 71
     1
 72
     5
  1
ADB-5410　　No.SS0001f33
  7
ゴシック体
1001
ACAD
1000
MTEXTBEGIN
1070
    73
1070
     1
1070
    44
1040
1.0
1070
    74
1070
     0
1000
MTEXTEND
  0
DIMENSION
  5
11D0B
330
1A
100
AcDbEntity
  8
ZISSEN1
100
AcDbDimension
  2
*D23
 10
-1838.590107061141
 20
1904.253964260212
 30
0.0
 11
-1828.409904015456
 21
1907.003964260212
 31
0.0
 70
    32
  3
標準スタイル
100
AcDbAlignedDimension
 13
-1842.090094061141
 23
1898.616644896574
 33
0.0
 14
-1838.590107061141
 24
1898.616644896574
 34
0.0
100
AcDbRotatedDimension
1001
ACAD
1000
DSTYLE
1002
{
1070
    40
1040
1.0
1002
}
  0
DIMENSION
  5
11D1C
330
1A
100
AcDbEntity
  8
ZISSEN1
100
AcDbDimension
  2
*D24
 10
-1681.603610061141
 20
1904.253964260212
 30
0.0
 11
-1671.423407015454
 21
1907.003964260212
 31
0.0
 70
    32
  3
標準スタイル
100
AcDbAlignedDimension
 13
-1685.103600061141
 23
1898.616624896574
 33
0.0
 14
-1681.603610061141
 24
1898.616624896574
 34
0.0
100
AcDbRotatedDimension
1001
ACAD
1000
DSTYLE
1002
{
1070
    40
1040
1.0
1002
}
  0
LINE
  5
11DAC
330
1A
100
AcDbEntity
  8
SUNPOU
100
AcDbLine
 10
-1820.179456416115
 20
1904.243837766689
 30
0.0
 11
-1804.938339880347
 21
1904.243837766689
 31
0.0
  0
MTEXT
  5
11DAD
330
1A
100
AcDbEntity
  8
CL1
 62
     1
100
AcDbMText
 10
-1817.758808763032
 20
1908.543365804561
 30
0.0
 40
3.5
 41
12.5515
 71
     1
 72
     5
  1
2-M3
  7
ゴシック体
1001
ACAD
1000
MTEXTBEGIN
1070
    73
1070
     1
1070
    44
1040
1.0
1070
    74
1070
     0
1000
MTEXTEND
  0
LINE
  5
11DB8
330
1A
100
AcDbEntity
  8
SUNPOU
100
AcDbLine
 10
-1664.005522123289
 20
1904.144289017495
 30
0.0
 11
-1648.764405587521
 21
1904.144289017495
 31
0.0
  0
MTEXT
  5
11DB9
330
1A
100
AcDbEntity
  8
CL1
 62
     1
100
AcDbMText
 10
-1661.584874470207
 20
1908.443817055369
 30
0.0
 40
3.5
 41
12.5515
 71
     1
 72
     5
  1
2-M3
  7
ゴシック体
1001
ACAD
1000
MTEXTBEGIN
1070
    73
1070
     1
1070
    44
1040
1.0
1070
    74
1070
     0
1000
MTEXTEND
  0
DIMENSION
  5
11DBA
330
1A
100
AcDbEntity
  8
ZISSEN1
100
AcDbDimension
  2
*D25
 10
-1864.794017949034
 20
1894.616634896574
 30
0.0
 11
-1867.544017949034
 21
1896.616629896574
 31
0.0
 70
    32
  3
標準スタイル
100
AcDbAlignedDimension
 13
-1850.840098061141
 23
1898.616624896574
 33
0.0
 14
-1840.340101061141
 24
1894.616634896574
 34
0.0
 50
90.0
100
AcDbRotatedDimension
1001
ACAD
1000
DSTYLE
1002
{
1070
    40
1040
1.0
1002
}
  0
DIMENSION
  5
11DF0
330
1A
100
AcDbEntity
  8
ZISSEN1
100
AcDbDimension
  2
*D26
 10
-1864.637402580739
 20
1767.616604896574
 30
0.0
 11
-1867.387402580739
 21
1831.116619896572
 31
0.0
 70
    32
  3
標準スタイル
100
AcDbAlignedDimension
 13
-1840.340101061141
 23
1894.616634896574
 33
0.0
 14
-1840.340101061141
 24
1767.616604896574
 34
0.0
 50
90.0
100
AcDbRotatedDimension
1001
ACAD
1000
DSTYLE
1002
{
1070
    40
1040
1.0
1002
}
  0
DIMENSION
  5
11E0C
330
1A
100
AcDbEntity
  8
ZISSEN1
100
AcDbDimension
  2
*D27
 10
-1864.714070065827
 20
1763.616624896574
 30
0.0
 11
-1867.464070065826
 21
1765.616614896574
 31
0.0
 70
    32
  3
標準スタイル
100
AcDbAlignedDimension
 13
-1840.340101061141
 23
1767.616604896574
 33
0.0
 14
-1850.840098061141
 24
1763.616624896574
 34
0.0
 50
90.0
100
AcDbRotatedDimension
1001
ACAD
1000
DSTYLE
1002
{
1070
    40
1040
1.0
1002
}
  0
DIMENSION
  5
11E1B
330
1A
100
AcDbEntity
  8
ZISSEN1
100
AcDbDimension
  2
*D28
 10
-1840.340101061141
 20
1748.414073753629
 30
0.0
 11
-1845.590099561141
 21
1751.164073753629
 31
0.0
 70
    32
  3
標準スタイル
100
AcDbAlignedDimension
 13
-1850.840098061141
 23
1763.616624896574
 33
0.0
 14
-1840.340101061141
 24
1767.616604896574
 34
0.0
100
AcDbRotatedDimension
1001
ACAD
1000
DSTYLE
1002
{
1070
    40
1040
1.0
1002
}
  0
DIMENSION
  5
11E28
330
1A
100
AcDbEntity
  8
ZISSEN1
100
AcDbDimension
  2
*D29
 10
-1834.34008106114
 20
1748.414073753629
 30
0.0
 11
-1837.340091061141
 21
1751.164073753629
 31
0.0
 70
    32
  3
標準スタイル
100
AcDbAlignedDimension
 13
-1840.340101061141
 23
1767.616604896574
 33
0.0
 14
-1834.34008106114
 24
1767.616604896574
 34
0.0
100
AcDbRotatedDimension
1001
ACAD
1000
DSTYLE
1002
{
1070
    40
1040
1.0
1002
}
  0
DIMENSION
  5
11E37
330
1A
100
AcDbEntity
  8
ZISSEN1
100
AcDbDimension
  2
*D30
 10
-1773.840100061141
 20
1738.479824270203
 30
0.0
 11
-1812.340099061139
 21
1741.229824270202
 31
0.0
 70
    32
  3
標準スタイル
100
AcDbAlignedDimension
 13
-1850.840098061141
 23
1747.914073753628
 33
0.0
 14
-1773.840100061141
 24
1764.323734896574
 34
0.0
100
AcDbRotatedDimension
1001
ACAD
1000
DSTYLE
1002
{
1070
    40
1040
1.0
1002
}
  0
DIMENSION
  5
11E44
330
1A
100
AcDbEntity
  8
ZISSEN1
100
AcDbDimension
  2
*D31
 10
-1847.840101061141
 20
1730.656174245122
 30
0.0
 11
-1839.934009690582
 21
1733.406174245121
 31
0.0
 70
    32
  3
標準スタイル
100
AcDbAlignedDimension
 13
-1850.840098061141
 23
1725.913914896574
 33
0.0
 14
-1847.840101061141
 24
1725.913914896574
 34
0.0
100
AcDbRotatedDimension
1001
ACAD
1000
DSTYLE
1002
{
1070
    40
1040
1.0
1002
}
  0
DIMENSION
  5
11E60
330
1A
100
AcDbEntity
  8
ZISSEN1
100
AcDbDimension
  2
*D32
 10
-1886.035263894184
 20
1763.616624896574
 30
0.0
 11
-1888.785263894185
 21
1831.116624896574
 31
0.0
 70
    32
  3
標準スタイル
100
AcDbAlignedDimension
 13
-1864.794017949034
 23
1898.616624896574
 33
0.0
 14
-1865.214070065826
 24
1763.616624896574
 34
0.0
 50
90.0
100
AcDbRotatedDimension
1001
ACAD
1000
DSTYLE
1002
{
1070
    40
1040
1.0
1002
}
  0
DIMENSION
  5
11E6E
330
1A
100
AcDbEntity
  8
ZISSEN1
100
AcDbDimension
  2
*D33
 10
-1886.035263894184
 20
1688.913924896574
 30
0.0
 11
-1888.785263894185
 21
1707.413919896574
 31
0.0
 70
    32
  3
標準スタイル
100
AcDbAlignedDimension
 13
-1850.840098061141
 23
1725.913914896574
 33
0.0
 14
-1850.840098061141
 24
1688.913924896574
 34
0.0
 50
90.0
100
AcDbRotatedDimension
1001
ACAD
1000
DSTYLE
1002
{
1070
    40
1040
1.0
1002
}
  0
DIMENSION
  5
11E7B
330
1A
100
AcDbEntity
  8
ZISSEN1
100
AcDbDimension
  2
*D34
 10
-1765.021132829891
 20
1688.913924896574
 30
0.0
 11
-1767.771132829891
 21
1681.007833526015
 31
0.0
 70
    32
  3
標準スタイル
100
AcDbAlignedDimension
 13
-1773.840100061141
 23
1691.913922896574
 33
0.0
 14
-1773.840100061141
 24
1688.913924896574
 34
0.0
 50
90.0
100
AcDbRotatedDimension
1001
ACAD
1000
DSTYLE
1002
{
1070
    40
1040
1.0
1002
}
  0
DIMENSION
  5
11E8A
330
1A
100
AcDbEntity
  8
ZISSEN1
100
AcDbDimension
  2
*D35
 10
-1756.205575635408
 20
1718.913924896574
 30
0.0
 11
-1758.955575635408
 21
1703.913924896574
 31
0.0
 70
    32
  3
標準スタイル
100
AcDbAlignedDimension
 13
-1765.021132829891
 23
1688.913924896574
 33
0.0
 14
-1776.940110061141
 24
1718.913924896574
 34
0.0
 50
90.0
100
AcDbRotatedDimension
1001
ACAD
1000
DSTYLE
1002
{
1070
    40
1040
1.0
1002
}
  0
DIMENSION
  5
11E99
330
1A
100
AcDbEntity
  8
ZISSEN1
100
AcDbDimension
  2
*D36
 10
-1657.35362006114
 20
1738.479824270203
 30
0.0
 11
-1675.853620061141
 21
1741.229824270202
 31
0.0
 70
    32
  3
標準スタイル
100
AcDbAlignedDimension
 13
-1694.35362006114
 23
1764.323734896574
 33
0.0
 14
-1657.35362006114
 24
1763.616624896574
 34
0.0
100
AcDbRotatedDimension
1001
ACAD
1000
DSTYLE
1002
{
1070
    40
1040
1.0
1002
}
  0
DIMENSION
  5
11EA6
330
1A
100
AcDbEntity
  8
ZISSEN1
100
AcDbDimension
  2
*D37
 10
-1677.353590061141
 20
1747.914073753628
 30
0.0
 11
-1667.353605061141
 21
1750.664073753628
 31
0.0
 70
    32
  3
標準スタイル
100
AcDbAlignedDimension
 13
-1657.35362006114
 23
1763.116624896574
 33
0.0
 14
-1677.353590061141
 24
1767.616624896574
 34
0.0
100
AcDbRotatedDimension
1001
ACAD
1000
DSTYLE
1002
{
1070
    40
1040
1.0
1002
}
  0
DIMENSION
  5
11EB3
330
1A
100
AcDbEntity
  8
ZISSEN1
100
AcDbDimension
  2
*D38
 10
-1683.35361006114
 20
1747.914073753628
 30
0.0
 11
-1680.35360006114
 21
1750.664073753628
 31
0.0
 70
    32
  3
標準スタイル
100
AcDbAlignedDimension
 13
-1677.353590061141
 23
1747.914073753628
 33
0.0
 14
-1683.35361006114
 24
1767.616624896574
 34
0.0
100
AcDbRotatedDimension
1001
ACAD
1000
DSTYLE
1002
{
1070
    40
1040
1.0
1002
}
  0
DIMENSION
  5
11EC1
330
1A
100
AcDbEntity
  8
ZISSEN1
100
AcDbDimension
  2
*D39
 10
-1717.988351703449
 20
1767.616624896574
 30
0.0
 11
-1720.73835170345
 21
1765.616624896574
 31
0.0
 70
    32
  3
標準スタイル
100
AcDbAlignedDimension
 13
-1693.64651006114
 23
1763.616624896574
 33
0.0
 14
-1683.35361006114
 24
1767.616624896574
 34
0.0
 50
90.0
100
AcDbRotatedDimension
1001
ACAD
1000
DSTYLE
1002
{
1070
    40
1040
1.0
1002
}
  0
DIMENSION
  5
11ED0
330
1A
100
AcDbEntity
  8
ZISSEN1
100
AcDbDimension
  2
*D40
 10
-1717.988351703449
 20
1767.616624896574
 30
0.0
 11
-1720.73835170345
 21
1831.116629896574
 31
0.0
 70
    32
  3
標準スタイル
100
AcDbAlignedDimension
 13
-1683.35361006114
 23
1894.616634896574
 33
0.0
 14
-1683.35361006114
 24
1767.616624896574
 34
0.0
 50
90.0
100
AcDbRotatedDimension
1001
ACAD
1000
DSTYLE
1002
{
1070
    40
1040
1.0
1002
}
  0
DIMENSION
  5
11EDD
330
1A
100
AcDbEntity
  8
ZISSEN1
100
AcDbDimension
  2
*D41
 10
-1717.988351703449
 20
1894.616634896574
 30
0.0
 11
-1720.73835170345
 21
1896.616629896574
 31
0.0
 70
    32
  3
標準スタイル
100
AcDbAlignedDimension
 13
-1693.64651006114
 23
1898.616624896574
 33
0.0
 14
-1677.353590061141
 24
1894.616634896574
 34
0.0
 50
90.0
100
AcDbRotatedDimension
1001
ACAD
1000
DSTYLE
1002
{
1070
    40
1040
1.0
1002
}
  0
LINE
  5
11EF1
330
1A
100
AcDbEntity
  8
ZISSEN1
100
AcDbLine
 10
-1687.35362006114
 20
1772.916694896574
 30
0.0
 11
-1667.95362006114
 21
1772.916694896574
 31
0.0
  0
LINE
  5
11EF4
330
1A
100
AcDbEntity
  8
ZISSEN1
100
AcDbLine
 10
-1687.35362006114
 20
1843.816644896574
 30
0.0
 11
-1667.95362006114
 21
1843.816644896574
 31
0.0
  0
LINE
  5
11EF5
330
1A
100
AcDbEntity
  8
ZISSEN1
100
AcDbLine
 10
-1687.35362006114
 20
1843.816644896574
 30
0.0
 11
-1687.35362006114
 21
1826.916604896574
 31
0.0
  0
LINE
  5
11EF6
330
1A
100
AcDbEntity
  8
ZISSEN1
100
AcDbLine
 10
-1687.35362006114
 20
1825.816634896574
 30
0.0
 11
-1687.35362006114
 21
1811.416624896574
 31
0.0
  0
LINE
  5
11EF7
330
1A
100
AcDbEntity
  8
ZISSEN1
100
AcDbLine
 10
-1687.35362006114
 20
1810.316634896573
 30
0.0
 11
-1687.35362006114
 21
1800.916644896574
 31
0.0
  0
LINE
  5
11EF8
330
1A
100
AcDbEntity
  8
ZISSEN1
100
AcDbLine
 10
-1687.35362006114
 20
1799.816624896574
 30
0.0
 11
-1687.35362006114
 21
1772.916694896574
 31
0.0
  0
LINE
  5
11EF9
330
1A
100
AcDbEntity
  8
ZISSEN1
100
AcDbLine
 10
-1694.35362006114
 20
1764.323734896574
 30
0.0
 11
-1694.35362006114
 21
1897.909514896574
 31
0.0
  0
CIRCLE
  5
12143
330
1A
100
AcDbEntity
  8
ZISSEN1
100
AcDbCircle
 10
-1834.34008106114
 20
1894.616634896574
 30
0.0
 40
1.0
  0
CIRCLE
  5
12144
330
1A
100
AcDbEntity
  8
ZISSEN1
100
AcDbCircle
 10
-1834.34008106114
 20
1767.616604896574
 30
0.0
 40
1.0
  0
CIRCLE
  5
12145
330
1A
100
AcDbEntity
  8
ZISSEN1
100
AcDbCircle
 10
-1677.353590061141
 20
1894.616634896574
 30
0.0
 40
1.0
  0
CIRCLE
  5
12146
330
1A
100
AcDbEntity
  8
ZISSEN1
100
AcDbCircle
 10
-1677.353590061141
 20
1767.616624896574
 30
0.0
 40
1.0
  0
LEADER
  5
1214F
330
1A
100
AcDbEntity
  8
ZISSEN1
100
AcDbLeader
  3
標準スタイル
 76
     2
 10
-1833.099613198438
 20
1895.459985050187
 30
0.0
 10
-1820.179456416115
 20
1904.243837766689
 30
0.0
1001
ACAD
1000
DSTYLE
1002
{
1070
     5
1000

1070
    77
1070
     0
1070
   147
1040
1.0
1002
}
  0
LEADER
  5
12154
330
1A
100
AcDbEntity
  8
ZISSEN1
100
AcDbLeader
  3
標準スタイル
 76
     2
 10
-1676.132700934299
 20
1895.488087557342
 30
0.0
 10
-1664.005522123289
 20
1904.144289017495
 30
0.0
1001
ACAD
1000
DSTYLE
1002
{
1070
     5
1000

1070
    77
1070
     0
1070
   147
1040
1.0
1002
}
  0
VIEWPORT
  5
5D8F
330
5D8E
100
AcDbEntity
 67
     1
  8
0
100
AcDbViewport
 10
303.4019095450106
 20
411.2591425789371
 30
0.0
 40
755.4173169551956
 41
861.8990132281354
 68
     1
 69
     1
1001
ACAD
1000
MVIEW
1002
{
1070
    16
1010
0.0
1020
0.0
1030
0.0
1010
0.0
1020
0.0
1030
1.0
1040
0.0
1040
861.8990132281354
1040
303.4019095450106
1040
411.2591425789371
1040
50.0
1040
0.0
1040
0.0
1070
     0
1070
   100
1070
     1
1070
     0
1070
     0
1070
     0
1070
     0
1070
     0
1040
0.0
1040
0.0
1040
0.0
1040
1.0
1040
1.0
1040
10.0
1040
10.0
1070
     0
1002
{
1002
}
1002
}
  0
VIEWPORT
  5
6001
330
5D8E
100
AcDbEntity
 67
     1
  8
ZISSEN1
100
AcDbViewport
 10
221.7861955525411
 20
157.6960273330388
 30
0.0
 40
385.4999999999997
 41
259.9999999999999
 68
     2
 69
     2
1001
ACAD
1000
MVIEW
1002
{
1070
    16
1010
0.0
1020
0.0
1030
0.0
1010
0.0
1020
0.0
1030
1.0
1040
0.0
1040
259.9999999999999
1040
-1769.854149461664
1040
1796.246937381418
1040
50.0
1040
0.0
1040
0.0
1070
     0
1070
   100
1070
     1
1070
     0
1070
     0
1070
     0
1070
     0
1070
     0
1040
0.0
1040
0.0
1040
0.0
1040
1.0
1040
1.0
1040
10.0
1040
10.0
1070
     0
1002
{
1002
}
1002
}
  0
TEXT
  5
716F
330
5D8E
100
AcDbEntity
 67
     1
  8
SUNPOU
 62
     0
100
AcDbText
 10
374.1863124306943
 20
60.86794705907585
 30
0.0
 40
3.5
  1
縮尺 1/1
  7
ゴシック体
100
AcDbText
  0
ENDSEC
  0
SECTION
  2
OBJECTS
  0
DICTIONARY
  5
C
330
0
100
AcDbDictionary
  3
ACAD_GROUP
350
D
  3
ACAD_LAYOUT
350
5C7D
  3
ACAD_MLINESTYLE
350
E
  3
ACAD_PLOTSETTINGS
350
5C7E
  3
ACAD_PLOTSTYLENAME
350
5C7B
  3
DWGPROPS
350
5E8E
  3
ACDBVARIABLEDICTIONARY
350
1216A
  3
ACDBHEADERROUNDTRIPXREC
350
12175
  0
DICTIONARY
  5
12195
330
1A
100
AcDbDictionary
280
     1
  3
ACAD_LAYOUTSELFREF
360
12196
  0
DICTIONARY
  5
12197
330
5D8E
100
AcDbDictionary
280
     1
  3
ACAD_LAYOUTSELFREF
360
12198
  0
DICTIONARY
  5
D
102
{ACAD_REACTORS
330
C
102
}
330
C
100
AcDbDictionary
  3
*A1
350
477D
  3
*A2
350
4780
  3
*A3
350
4781
  3
*A4
350
4C0E
  3
*A5
350
4C0F
  3
*A6
350
4C10
  3
*A7
350
4C11
  3
*A8
350
4C12
  3
*A9
350
4C13
  3
*A10
350
4C14
  3
*A11
350
4C15
  3
*A12
350
4C16
  3
*A13
350
4C17
  3
*A14
350
477E
  3
*A15
350
477F
  0
DICTIONARY
  5
5C7D
102
{ACAD_REACTORS
330
C
102
}
330
C
100
AcDbDictionary
  0
DICTIONARY
  5
E
102
{ACAD_REACTORS
330
C
102
}
330
C
100
AcDbDictionary
  3
STANDARD
350
13
  0
DICTIONARY
  5
5C7E
102
{ACAD_REACTORS
330
C
102
}
330
C
100
AcDbDictionary
  0
ACDBDICTIONARYWDFLT
  5
5C7B
102
{ACAD_REACTORS
330
C
102
}
330
C
100
AcDbDictionary
281
     1
  3
Normal
350
5C7C
100
AcDbDictionaryWithDefault
340
5C7C
  0
XRECORD
  5
5E8E
102
{ACAD_REACTORS
330
C
102
}
330
C
100
AcDbXrecord
  1
DWGPROPS COOKIE
  2

  3

  4

  6

  7

  8

  9

300
=
301
=
302
=
303
=
304
=
305
=
306
=
307
=
308
=
309
=
 40
0.586753587962963
 41
2450495.493631364
 42
2453208.662277431
  1

 90
        0
  0
DICTIONARY
  5
1216A
102
{ACAD_REACTORS
330
C
102
}
330
C
100
AcDbDictionary
  3
INDEXCTL
350
1216B
  0
DICTIONARY
  5
12175
102
{ACAD_REACTORS
330
C
102
}
330
C
100
AcDbDictionary
  3
TSTACKALIGN
350
12176
  3
TSTACKSIZE
350
12177
  3
HYPERLINKBASE
350
12178
  3
STYLESHEET
350
12179
  3
LAYOUTDICT
350
1217A
  3
PLOTSETDICT
350
1217B
  3
PLOTSTYLNAMDICT
350
1217C
  3
LWETCUNION
350
1217D
  3
INSUNITS
350
1217E
  3
CEPSNTYPE
350
1217F
  3
FINGERPRINTGUID
350
12180
  3
VERSIONGUID
350
12181
  3
PSVPSCALE
350
12182
  3
PUCSORTHOREF
350
12183
  3
PUCSORTHOVIEW
350
12184
  3
PUCSBASE
350
12185
  3
PUCSORGTOP
350
12186
  3
PUCSORGBOTTOM
350
12187
  3
PUCSORGLEFT
350
12188
  3
PUCSORGRIGHT
350
12189
  3
PUCSORGFRONT
350
1218A
  3
PUCSORGBACK
350
1218B
  3
UCSORTHOREF
350
1218C
  3
UCSORTHOVIEW
350
1218D
  3
UCSBASE
350
1218E
  3
UCSORGTOP
350
1218F
  3
UCSORGBOTTOM
350
12190
  3
UCSORGLEFT
350
12191
  3
UCSORGRIGHT
350
12192
  3
UCSORGFRONT
350
12193
  3
UCSORGBACK
350
12194
  0
XRECORD
  5
12196
102
{ACAD_REACTORS
330
12195
102
}
330
12195
100
AcDbXrecord
340
1A
  0
XRECORD
  5
12198
102
{ACAD_REACTORS
330
12197
102
}
330
12197
100
AcDbXrecord
340
5D8E
  0
GROUP
  5
477D
102
{ACAD_REACTORS
330
D
102
}
330
D
100
AcDbGroup
300

 70
     1
 71
     1
  0
GROUP
  5
4780
102
{ACAD_REACTORS
330
D
102
}
330
D
100
AcDbGroup
300

 70
     1
 71
     1
  0
GROUP
  5
4781
102
{ACAD_REACTORS
330
D
102
}
330
D
100
AcDbGroup
300

 70
     1
 71
     1
  0
GROUP
  5
4C0E
102
{ACAD_REACTORS
330
D
102
}
330
D
100
AcDbGroup
300

 70
     1
 71
     1
  0
GROUP
  5
4C0F
102
{ACAD_REACTORS
330
D
102
}
330
D
100
AcDbGroup
300

 70
     1
 71
     1
  0
GROUP
  5
4C10
102
{ACAD_REACTORS
330
D
102
}
330
D
100
AcDbGroup
300

 70
     1
 71
     1
  0
GROUP
  5
4C11
102
{ACAD_REACTORS
330
D
102
}
330
D
100
AcDbGroup
300

 70
     1
 71
     1
  0
GROUP
  5
4C12
102
{ACAD_REACTORS
330
D
102
}
330
D
100
AcDbGroup
300

 70
     1
 71
     1
  0
GROUP
  5
4C13
102
{ACAD_REACTORS
330
D
102
}
330
D
100
AcDbGroup
300

 70
     1
 71
     1
  0
GROUP
  5
4C14
102
{ACAD_REACTORS
330
D
102
}
330
D
100
AcDbGroup
300

 70
     1
 71
     1
  0
GROUP
  5
4C15
102
{ACAD_REACTORS
330
D
102
}
330
D
100
AcDbGroup
300

 70
     1
 71
     1
  0
GROUP
  5
4C16
102
{ACAD_REACTORS
330
D
102
}
330
D
100
AcDbGroup
300

 70
     1
 71
     1
  0
GROUP
  5
4C17
102
{ACAD_REACTORS
330
D
102
}
330
D
100
AcDbGroup
300

 70
     1
 71
     1
  0
GROUP
  5
477E
102
{ACAD_REACTORS
330
D
102
}
330
D
100
AcDbGroup
300

 70
     1
 71
     1
  0
GROUP
  5
477F
102
{ACAD_REACTORS
330
D
102
}
330
D
100
AcDbGroup
300

 70
     1
 71
     1
  0
MLINESTYLE
  5
13
102
{ACAD_REACTORS
330
E
102
}
330
E
100
AcDbMlineStyle
  2
STANDARD
 70
     0
  3

 62
     0
 51
90.0
 52
90.0
 71
     2
 49
0.5
 62
   256
  6
BYLAYER
 49
-0.5
 62
   256
  6
BYLAYER
  0
ACDBPLACEHOLDER
  5
5C7C
102
{ACAD_REACTORS
330
5C7B
102
}
330
5C7B
100
AcDbPlaceHolder
280
     0
  0
DICTIONARYVAR
  5
1216B
102
{ACAD_REACTORS
330
1216A
102
}
330
1216A
100
DictionaryVariables
280
     0
  1
-1
  0
XRECORD
  5
12176
102
{ACAD_REACTORS
330
12175
102
}
330
12175
100
AcDbXrecord
 90
        1
  0
XRECORD
  5
12177
102
{ACAD_REACTORS
330
12175
102
}
330
12175
100
AcDbXrecord
 90
       70
  0
XRECORD
  5
12178
102
{ACAD_REACTORS
330
12175
102
}
330
12175
100
AcDbXrecord
  1

  0
XRECORD
  5
12179
102
{ACAD_REACTORS
330
12175
102
}
330
12175
100
AcDbXrecord
  1

  0
XRECORD
  5
1217A
102
{ACAD_REACTORS
330
12175
102
}
330
12175
100
AcDbXrecord
340
5C7D
  0
XRECORD
  5
1217B
102
{ACAD_REACTORS
330
12175
102
}
330
12175
100
AcDbXrecord
340
5C7E
  0
XRECORD
  5
1217C
102
{ACAD_REACTORS
330
12175
102
}
330
12175
100
AcDbXrecord
340
5C7B
  0
XRECORD
  5
1217D
102
{ACAD_REACTORS
330
12175
102
}
330
12175
100
AcDbXrecord
 90
    10781
  0
XRECORD
  5
1217E
102
{ACAD_REACTORS
330
12175
102
}
330
12175
100
AcDbXrecord
 90
        0
  0
XRECORD
  5
1217F
102
{ACAD_REACTORS
330
12175
102
}
330
12175
100
AcDbXrecord
 90
        0
  0
XRECORD
  5
12180
102
{ACAD_REACTORS
330
12175
102
}
330
12175
100
AcDbXrecord
  1
{225A7F0D-DA29-11D8-946A-0000E2416295}
  0
XRECORD
  5
12181
102
{ACAD_REACTORS
330
12175
102
}
330
12175
100
AcDbXrecord
  1
{97DAB7EF-44F5-4CD2-B096-F09441248E3D}
  0
XRECORD
  5
12182
102
{ACAD_REACTORS
330
12175
102
}
330
12175
100
AcDbXrecord
 40
0.0
  0
XRECORD
  5
12183
102
{ACAD_REACTORS
330
12175
102
}
330
12175
100
AcDbXrecord
340
0
  0
XRECORD
  5
12184
102
{ACAD_REACTORS
330
12175
102
}
330
12175
100
AcDbXrecord
 70
     0
  0
XRECORD
  5
12185
102
{ACAD_REACTORS
330
12175
102
}
330
12175
100
AcDbXrecord
340
0
  0
XRECORD
  5
12186
102
{ACAD_REACTORS
330
12175
102
}
330
12175
100
AcDbXrecord
 10
0.0
 20
0.0
 30
0.0
  0
XRECORD
  5
12187
102
{ACAD_REACTORS
330
12175
102
}
330
12175
100
AcDbXrecord
 10
0.0
 20
0.0
 30
0.0
  0
XRECORD
  5
12188
102
{ACAD_REACTORS
330
12175
102
}
330
12175
100
AcDbXrecord
 10
0.0
 20
0.0
 30
0.0
  0
XRECORD
  5
12189
102
{ACAD_REACTORS
330
12175
102
}
330
12175
100
AcDbXrecord
 10
0.0
 20
0.0
 30
0.0
  0
XRECORD
  5
1218A
102
{ACAD_REACTORS
330
12175
102
}
330
12175
100
AcDbXrecord
 10
0.0
 20
0.0
 30
0.0
  0
XRECORD
  5
1218B
102
{ACAD_REACTORS
330
12175
102
}
330
12175
100
AcDbXrecord
 10
0.0
 20
0.0
 30
0.0
  0
XRECORD
  5
1218C
102
{ACAD_REACTORS
330
12175
102
}
330
12175
100
AcDbXrecord
340
0
  0
XRECORD
  5
1218D
102
{ACAD_REACTORS
330
12175
102
}
330
12175
100
AcDbXrecord
 70
     0
  0
XRECORD
  5
1218E
102
{ACAD_REACTORS
330
12175
102
}
330
12175
100
AcDbXrecord
340
0
  0
XRECORD
  5
1218F
102
{ACAD_REACTORS
330
12175
102
}
330
12175
100
AcDbXrecord
 10
0.0
 20
0.0
 30
0.0
  0
XRECORD
  5
12190
102
{ACAD_REACTORS
330
12175
102
}
330
12175
100
AcDbXrecord
 10
0.0
 20
0.0
 30
0.0
  0
XRECORD
  5
12191
102
{ACAD_REACTORS
330
12175
102
}
330
12175
100
AcDbXrecord
 10
0.0
 20
0.0
 30
0.0
  0
XRECORD
  5
12192
102
{ACAD_REACTORS
330
12175
102
}
330
12175
100
AcDbXrecord
 10
0.0
 20
0.0
 30
0.0
  0
XRECORD
  5
12193
102
{ACAD_REACTORS
330
12175
102
}
330
12175
100
AcDbXrecord
 10
0.0
 20
0.0
 30
0.0
  0
XRECORD
  5
12194
102
{ACAD_REACTORS
330
12175
102
}
330
12175
100
AcDbXrecord
 10
0.0
 20
0.0
 30
0.0
  0
ENDSEC
  0
EOF
