  0
SECTION
  2
HEADER
  9
$ACADVER
  1
AC1014
  9
$ACADMAINTVER
 70
     9
  9
$DWGCODEPAGE
  3
ANSI_932
  9
$INSBASE
 10
0.0
 20
0.0
 30
0.0
  9
$EXTMIN
 10
-1729.764112784703
 20
1712.514748444888
 30
0.0
  9
$EXTMAX
 10
-1524.273991865631
 20
1862.941602792585
 30
0.0
  9
$LIMMIN
 10
0.0
 20
0.0
  9
$LIMMAX
 10
420.0
 20
297.0
  9
$ORTHOMODE
 70
     1
  9
$REGENMODE
 70
     1
  9
$FILLMODE
 70
     1
  9
$QTEXTMODE
 70
     0
  9
$MIRRTEXT
 70
     1
  9
$DRAGMODE
 70
     2
  9
$LTSCALE
 40
1.0
  9
$OSMODE
 70
    37
  9
$ATTMODE
 70
     1
  9
$TEXTSIZE
 40
2.5
  9
$TRACEWID
 40
1.0
  9
$TEXTSTYLE
  7
ゴシック体
  9
$CLAYER
  8
SUNPOU
  9
$CELTYPE
  6
BYLAYER
  9
$CECOLOR
 62
   256
  9
$CELTSCALE
 40
1.0
  9
$DELOBJ
 70
     1
  9
$DISPSILH
 70
     0
  9
$DIMSCALE
 40
0.0
  9
$DIMASZ
 40
3.0
  9
$DIMEXO
 40
0.5
  9
$DIMDLI
 40
0.5
  9
$DIMRND
 40
0.0
  9
$DIMDLE
 40
0.0
  9
$DIMEXE
 40
0.5
  9
$DIMTP
 40
0.0
  9
$DIMTM
 40
0.0
  9
$DIMTXT
 40
3.5
  9
$DIMCEN
 40
0.0
  9
$DIMTSZ
 40
0.0
  9
$DIMTOL
 70
     0
  9
$DIMLIM
 70
     0
  9
$DIMTIH
 70
     0
  9
$DIMTOH
 70
     0
  9
$DIMSE1
 70
     0
  9
$DIMSE2
 70
     0
  9
$DIMTAD
 70
     1
  9
$DIMZIN
 70
     8
  9
$DIMBLK
  1

  9
$DIMASO
 70
     1
  9
$DIMSHO
 70
     1
  9
$DIMPOST
  1

  9
$DIMAPOST
  1

  9
$DIMALT
 70
     0
  9
$DIMALTD
 70
     2
  9
$DIMALTF
 40
25.4
  9
$DIMLFAC
 40
1.0
  9
$DIMTOFL
 70
     1
  9
$DIMTVP
 40
0.0
  9
$DIMTIX
 70
     0
  9
$DIMSOXD
 70
     0
  9
$DIMSAH
 70
     0
  9
$DIMBLK1
  1

  9
$DIMBLK2
  1

  9
$DIMSTYLE
  2
標準スタイル
  9
$DIMCLRD
 70
     1
  9
$DIMCLRE
 70
     1
  9
$DIMCLRT
 70
     1
  9
$DIMTFAC
 40
1.0
  9
$DIMGAP
 40
1.0
  9
$DIMJUST
 70
     0
  9
$DIMSD1
 70
     0
  9
$DIMSD2
 70
     0
  9
$DIMTOLJ
 70
     1
  9
$DIMTZIN
 70
     8
  9
$DIMALTZ
 70
     0
  9
$DIMALTTZ
 70
     0
  9
$DIMFIT
 70
     3
  9
$DIMUPT
 70
     0
  9
$DIMUNIT
 70
     2
  9
$DIMDEC
 70
     2
  9
$DIMTDEC
 70
     2
  9
$DIMALTU
 70
     2
  9
$DIMALTTD
 70
     2
  9
$DIMTXSTY
  7
ゴシック体
  9
$DIMAUNIT
 70
     0
  9
$LUNITS
 70
     2
  9
$LUPREC
 70
     4
  9
$SKETCHINC
 40
1.0
  9
$FILLETRAD
 40
0.0
  9
$AUNITS
 70
     0
  9
$AUPREC
 70
     0
  9
$MENU
  1
.
  9
$ELEVATION
 40
0.0
  9
$PELEVATION
 40
0.0
  9
$THICKNESS
 40
0.0
  9
$LIMCHECK
 70
     0
  9
$BLIPMODE
 70
     0
  9
$CHAMFERA
 40
10.0
  9
$CHAMFERB
 40
10.0
  9
$CHAMFERC
 40
2.0
  9
$CHAMFERD
 40
0.7853981633974483
  9
$SKPOLY
 70
     0
  9
$TDCREATE
 40
2450495.493631365
  9
$TDUPDATE
 40
2453984.418641053
  9
$TDINDWG
 40
1.5210569213
  9
$TDUSRTIMER
 40
1.5210568056
  9
$USRTIMER
 70
     1
  9
$ANGBASE
 50
0.0
  9
$ANGDIR
 70
     0
  9
$PDMODE
 70
    99
  9
$PDSIZE
 40
0.0
  9
$PLINEWID
 40
0.0
  9
$COORDS
 70
     1
  9
$SPLFRAME
 70
     0
  9
$SPLINETYPE
 70
     6
  9
$SPLINESEGS
 70
     8
  9
$ATTDIA
 70
     0
  9
$ATTREQ
 70
     1
  9
$HANDLING
 70
 10241
  9
$HANDSEED
  5
124F1
  9
$SURFTAB1
 70
     6
  9
$SURFTAB2
 70
     6
  9
$SURFTYPE
 70
     6
  9
$SURFU
 70
     6
  9
$SURFV
 70
     6
  9
$UCSNAME
  2

  9
$UCSORG
 10
0.0
 20
0.0
 30
0.0
  9
$UCSXDIR
 10
1.0
 20
0.0
 30
0.0
  9
$UCSYDIR
 10
0.0
 20
1.0
 30
0.0
  9
$PUCSNAME
  2

  9
$PUCSORG
 10
0.0
 20
0.0
 30
0.0
  9
$PUCSXDIR
 10
1.0
 20
0.0
 30
0.0
  9
$PUCSYDIR
 10
0.0
 20
1.0
 30
0.0
  9
$USERI1
 70
     0
  9
$USERI2
 70
     0
  9
$USERI3
 70
     0
  9
$USERI4
 70
     0
  9
$USERI5
 70
     0
  9
$USERR1
 40
0.0
  9
$USERR2
 40
0.0
  9
$USERR3
 40
0.0
  9
$USERR4
 40
0.0
  9
$USERR5
 40
0.0
  9
$WORLDVIEW
 70
     1
  9
$SHADEDGE
 70
     3
  9
$SHADEDIF
 70
    70
  9
$TILEMODE
 70
     1
  9
$MAXACTVP
 70
    16
  9
$PINSBASE
 10
0.0
 20
0.0
 30
0.0
  9
$PLIMCHECK
 70
     0
  9
$PEXTMIN
 10
29.03619555254121
 20
27.69602733303884
 30
0.0
  9
$PEXTMAX
 10
414.5361955525409
 20
287.6960273330388
 30
0.0
  9
$PLIMMIN
 10
15.14082890028157
 20
13.81565218284106
  9
$PLIMMAX
 10
435.0874841737191
 20
310.8263028176066
  9
$UNITMODE
 70
     0
  9
$VISRETAIN
 70
     0
  9
$PLINEGEN
 70
     0
  9
$PSLTSCALE
 70
     1
  9
$TREEDEPTH
 70
  3020
  9
$PICKSTYLE
 70
     1
  9
$CMLSTYLE
  2
STANDARD
  9
$CMLJUST
 70
     0
  9
$CMLSCALE
 40
1.0
  9
$PROXYGRAPHICS
 70
     1
  9
$MEASUREMENT
 70
     1
  0
ENDSEC
  0
SECTION
  2
CLASSES
  0
CLASS
  1
LWPOLYLINE
  2
AcDbPolyline
  3
AutoCAD 2000
 90
        0
280
     0
281
     1
  0
CLASS
  1
HATCH
  2
AcDbHatch
  3
AutoCAD 2000
 90
        0
280
     0
281
     1
  0
CLASS
  1
ACDBDICTIONARYWDFLT
  2
AcDbDictionaryWithDefault
  3
AutoCAD 2000
 90
        0
280
     0
281
     0
  0
CLASS
  1
ACDBPLACEHOLDER
  2
AcDbPlaceHolder
  3
AutoCAD 2000
 90
        0
280
     0
281
     0
  0
CLASS
  1
LAYOUT
  2
AcDbLayout
  3
AutoCAD 2000
 90
        0
280
     0
281
     0
  0
CLASS
  1
DICTIONARYVAR
  2
AcDbDictionaryVar
  3
AutoCAD 2000
 90
        0
280
     0
281
     0
  0
CLASS
  1
LONG_TRANSACTION
  2
AcDbLongTransaction
  3
AutoCAD 2000
 90
        0
280
     0
281
     0
  0
CLASS
  1
LWPOLYLINE
  2
AcDbPolyline
  3
AutoCAD 2000
 90
        0
280
     0
281
     1
  0
CLASS
  1
HATCH
  2
AcDbHatch
  3
AutoCAD 2000
 90
        0
280
     0
281
     1
  0
CLASS
  1
XRECORD
  2
AcDbXrecord
  3
AutoCAD 2000
 90
        0
280
     0
281
     0
  0
ENDSEC
  0
SECTION
  2
TABLES
  0
TABLE
  2
VPORT
  5
8
330
0
100
AcDbSymbolTable
 70
     2
  0
VPORT
  5
124CC
330
8
100
AcDbSymbolTableRecord
100
AcDbViewportTableRecord
  2
*ACTIVE
 70
     0
 10
0.0
 20
0.0
 11
1.0
 21
1.0
 12
-1617.025440045926
 22
1787.740008850366
 13
0.0
 23
0.0
 14
5.0
 24
5.0
 15
0.0
 25
0.0
 16
0.0
 26
0.0
 36
1.0
 17
0.0
 27
0.0
 37
0.0
 40
152.3713191688916
 41
2.192560175054704
 42
50.0
 43
0.0
 44
0.0
 50
0.0
 51
0.0
 71
     0
 72
   100
 73
     1
 74
     0
 75
     0
 76
     0
 77
     0
 78
     0
  0
ENDTAB
  0
TABLE
  2
LTYPE
  5
5
330
0
100
AcDbSymbolTable
 70
    13
  0
LTYPE
  5
14
330
5
100
AcDbSymbolTableRecord
100
AcDbLinetypeTableRecord
  2
BYBLOCK
 70
     0
  3

 72
    65
 73
     0
 40
0.0
  0
LTYPE
  5
15
330
5
100
AcDbSymbolTableRecord
100
AcDbLinetypeTableRecord
  2
BYLAYER
 70
     0
  3

 72
    65
 73
     0
 40
0.0
  0
LTYPE
  5
16
330
5
100
AcDbSymbolTableRecord
100
AcDbLinetypeTableRecord
  2
CONTINUOUS
 70
     0
  3
Solid line
 72
    65
 73
     0
 40
0.0
  0
LTYPE
  5
329
330
5
100
AcDbSymbolTableRecord
100
AcDbLinetypeTableRecord
  2
DASHEDX2
 70
     0
  3
____  ____  ____  ____  ____  ____  ____  ____ 
 72
    65
 73
     2
 40
1.5
 49
1.0
 74
     0
 49
-0.5
 74
     0
  0
LTYPE
  5
1956
330
5
100
AcDbSymbolTableRecord
100
AcDbLinetypeTableRecord
  2
CENTERX2
 70
     0
  3
________  __  ________  __  ________  __  _____
 72
    65
 73
     4
 40
4.0
 49
2.5
 74
     0
 49
-0.5
 74
     0
 49
0.5
 74
     0
 49
-0.5
 74
     0
  0
ENDTAB
  0
TABLE
  2
LAYER
  5
2
330
0
100
AcDbSymbolTable
 70
    35
  0
LAYER
  5
F
330
2
100
AcDbSymbolTableRecord
100
AcDbLayerTableRecord
  2
0
 70
     0
 62
     7
  6
CONTINUOUS
  0
LAYER
  5
18F
330
2
100
AcDbSymbolTableRecord
100
AcDbLayerTableRecord
  2
ZISSEN1
 70
     0
 62
     7
  6
CONTINUOUS
  0
LAYER
  5
529
330
2
100
AcDbSymbolTableRecord
100
AcDbLayerTableRecord
  2
SUNPOU
 70
     0
 62
     1
  6
CONTINUOUS
  0
LAYER
  5
1959
330
2
100
AcDbSymbolTableRecord
100
AcDbLayerTableRecord
  2
KAKURESEN1
 70
     0
 62
     3
  6
DASHEDX2
  0
LAYER
  5
195A
330
2
100
AcDbSymbolTableRecord
100
AcDbLayerTableRecord
  2
CL1
 70
     0
 62
   210
  6
CENTERX2
  0
LAYER
  5
3A9B
330
2
100
AcDbSymbolTableRecord
100
AcDbLayerTableRecord
  2
DEFPOINTS
 70
     0
 62
     7
  6
CONTINUOUS
  0
ENDTAB
  0
TABLE
  2
STYLE
  5
3
330
0
100
AcDbSymbolTable
 70
     5
  0
STYLE
  5
10
330
3
100
AcDbSymbolTableRecord
100
AcDbTextStyleTableRecord
  2
STANDARD
 70
     0
 40
0.0
 41
1.0
 50
0.0
 71
     0
 42
3.0
  3
txt
  4
BigFont
  0
STYLE
  5
1960
330
3
100
AcDbSymbolTableRecord
100
AcDbTextStyleTableRecord
  2
ゴシック体
 70
     0
 40
0.0
 41
1.0
 50
0.0
 71
     0
 42
2.5
  3
MS Gothic.ttf
  4

1001
ACAD
1000
MS Gothic
1071
    32817
  0
ENDTAB
  0
TABLE
  2
VIEW
  5
6
330
0
100
AcDbSymbolTable
 70
     0
  0
ENDTAB
  0
TABLE
  2
UCS
  5
7
330
0
100
AcDbSymbolTable
 70
     0
  0
ENDTAB
  0
TABLE
  2
APPID
  5
9
330
0
100
AcDbSymbolTable
 70
     5
  0
APPID
  5
11
330
9
100
AcDbSymbolTableRecord
100
AcDbRegAppTableRecord
  2
ACAD
 70
     0
  0
APPID
  5
4005
330
9
100
AcDbSymbolTableRecord
100
AcDbRegAppTableRecord
  2
CONTENTTABDATA
 70
     0
  0
APPID
  5
4006
330
9
100
AcDbSymbolTableRecord
100
AcDbRegAppTableRecord
  2
CONTENTCURRENTTAB
 70
     0
  0
APPID
  5
477B
330
9
100
AcDbSymbolTableRecord
100
AcDbRegAppTableRecord
  2
CONTENTBLOCKDESCRIPTION
 70
     0
  0
APPID
  5
477C
330
9
100
AcDbSymbolTableRecord
100
AcDbRegAppTableRecord
  2
CONTENTBLOCKICON
 70
     0
  0
ENDTAB
  0
TABLE
  2
DIMSTYLE
  5
A
330
0
100
AcDbSymbolTable
 70
    12
  0
DIMSTYLE
105
1D
330
A
100
AcDbSymbolTableRecord
100
AcDbDimStyleTableRecord
  2
STANDARD
 70
     0
  3

  4

  5

  6

  7

 40
1.0
 41
0.18
 42
0.0625
 43
0.38
 44
0.18
 45
0.0
 46
0.0
 47
0.0
 48
0.0
140
0.18
141
0.09
142
0.0
143
25.4
144
1.0
145
0.0
146
1.0
147
0.09
 71
     0
 72
     0
 73
     1
 74
     1
 75
     0
 76
     0
 77
     0
 78
     0
170
     0
171
     2
172
     0
173
     0
174
     0
175
     0
176
     0
177
     0
178
     0
270
     2
271
     4
272
     4
273
     2
274
     2
340
10
275
     0
280
     0
281
     0
282
     0
283
     1
284
     0
285
     0
286
     0
287
     3
288
     0
  0
DIMSTYLE
105
52E
102
{ACAD_REACTORS
330
122A7
330
122B4
330
122C1
330
122D7
330
122FC
330
1232A
330
12337
330
12351
330
1235E
330
123B5
330
123C2
330
123CF
330
123F4
330
12401
330
12411
330
1241E
330
12438
330
1244F
330
1245E
102
}
330
A
100
AcDbSymbolTableRecord
100
AcDbDimStyleTableRecord
  2
標準スタイル
 70
     0
  3

  4

  5

  6

  7

 40
0.0
 41
3.0
 42
0.5
 43
0.5
 44
0.5
 45
0.0
 46
0.0
 47
0.0
 48
0.0
140
3.5
141
0.0
142
0.0
143
25.4
144
1.0
145
0.0
146
1.0
147
1.0
 71
     0
 72
     0
 73
     0
 74
     0
 75
     0
 76
     0
 77
     1
 78
     8
170
     0
171
     2
172
     1
173
     0
174
     0
175
     0
176
     1
177
     1
178
     1
270
     2
271
     2
272
     2
273
     2
274
     2
340
1960
275
     0
280
     0
281
     0
282
     0
283
     1
284
     8
285
     0
286
     0
287
     3
288
     0
  0
ENDTAB
  0
TABLE
  2
BLOCK_RECORD
  5
1
330
0
100
AcDbSymbolTable
 70
    44
  0
BLOCK_RECORD
  5
1A
102
{ACAD_XDICTIONARY
360
124ED
102
}
330
1
100
AcDbSymbolTableRecord
100
AcDbBlockTableRecord
  2
*MODEL_SPACE
  0
BLOCK_RECORD
  5
5D8E
102
{ACAD_XDICTIONARY
360
124EF
102
}
330
1
100
AcDbSymbolTableRecord
100
AcDbBlockTableRecord
  2
*PAPER_SPACE
  0
BLOCK_RECORD
  5
122A8
330
1
100
AcDbSymbolTableRecord
100
AcDbBlockTableRecord
  2
*D25
  0
BLOCK_RECORD
  5
122B5
330
1
100
AcDbSymbolTableRecord
100
AcDbBlockTableRecord
  2
*D26
  0
BLOCK_RECORD
  5
122C2
330
1
100
AcDbSymbolTableRecord
100
AcDbBlockTableRecord
  2
*D27
  0
BLOCK_RECORD
  5
122D8
330
1
100
AcDbSymbolTableRecord
100
AcDbBlockTableRecord
  2
*D28
  0
BLOCK_RECORD
  5
122FD
330
1
100
AcDbSymbolTableRecord
100
AcDbBlockTableRecord
  2
*D29
  0
BLOCK_RECORD
  5
1232B
330
1
100
AcDbSymbolTableRecord
100
AcDbBlockTableRecord
  2
*D30
  0
BLOCK_RECORD
  5
12338
330
1
100
AcDbSymbolTableRecord
100
AcDbBlockTableRecord
  2
*D31
  0
BLOCK_RECORD
  5
12352
330
1
100
AcDbSymbolTableRecord
100
AcDbBlockTableRecord
  2
*D32
  0
BLOCK_RECORD
  5
1235F
330
1
100
AcDbSymbolTableRecord
100
AcDbBlockTableRecord
  2
*D33
  0
BLOCK_RECORD
  5
123B6
330
1
100
AcDbSymbolTableRecord
100
AcDbBlockTableRecord
  2
*D34
  0
BLOCK_RECORD
  5
123C3
330
1
100
AcDbSymbolTableRecord
100
AcDbBlockTableRecord
  2
*D35
  0
BLOCK_RECORD
  5
123D0
330
1
100
AcDbSymbolTableRecord
100
AcDbBlockTableRecord
  2
*D36
  0
BLOCK_RECORD
  5
123F5
330
1
100
AcDbSymbolTableRecord
100
AcDbBlockTableRecord
  2
*D37
  0
BLOCK_RECORD
  5
12402
330
1
100
AcDbSymbolTableRecord
100
AcDbBlockTableRecord
  2
*D38
  0
BLOCK_RECORD
  5
12412
330
1
100
AcDbSymbolTableRecord
100
AcDbBlockTableRecord
  2
*D39
  0
BLOCK_RECORD
  5
1241F
330
1
100
AcDbSymbolTableRecord
100
AcDbBlockTableRecord
  2
*D40
  0
BLOCK_RECORD
  5
12439
330
1
100
AcDbSymbolTableRecord
100
AcDbBlockTableRecord
  2
*D41
  0
BLOCK_RECORD
  5
12450
330
1
100
AcDbSymbolTableRecord
100
AcDbBlockTableRecord
  2
*D42
  0
BLOCK_RECORD
  5
1245F
330
1
100
AcDbSymbolTableRecord
100
AcDbBlockTableRecord
  2
*D43
  0
ENDTAB
  0
ENDSEC
  0
SECTION
  2
BLOCKS
  0
BLOCK
  5
1B
330
1A
100
AcDbEntity
  8
0
100
AcDbBlockBegin
  2
*MODEL_SPACE
 70
     0
 10
0.0
 20
0.0
 30
0.0
  3
*MODEL_SPACE
  1

  0
ENDBLK
  5
1C
330
1A
100
AcDbEntity
  8
0
100
AcDbBlockEnd
  0
BLOCK
  5
5E60
330
5D8E
100
AcDbEntity
 67
     1
  8
0
100
AcDbBlockBegin
  2
*PAPER_SPACE
 70
     0
 10
0.0
 20
0.0
 30
0.0
  3
*PAPER_SPACE
  1

  0
ENDBLK
  5
5E61
330
5D8E
100
AcDbEntity
 67
     1
  8
0
100
AcDbBlockEnd
  0
BLOCK
  5
122B2
330
122A8
100
AcDbEntity
  8
0
100
AcDbBlockBegin
  2
*D25
 70
     1
 10
0.0
 20
0.0
 30
0.0
  3
*D25
  1

  0
LINE
  5
1247D
330
122A8
100
AcDbEntity
  8
SUNPOU
 62
     1
100
AcDbLine
 10
-1682.707538250036
 20
1827.757944096005
 30
0.0
 11
-1682.707538250036
 21
1836.187120433851
 31
0.0
  0
LINE
  5
1247E
330
122A8
100
AcDbEntity
  8
SUNPOU
 62
     1
100
AcDbLine
 10
-1613.207561250035
 20
1819.757934096005
 30
0.0
 11
-1613.207561250035
 21
1836.187120433851
 31
0.0
  0
LINE
  5
1247F
330
122A8
100
AcDbEntity
  8
SUNPOU
 62
     1
100
AcDbLine
 10
-1679.707538250036
 20
1835.687120433851
 30
0.0
 11
-1616.207561250035
 21
1835.687120433851
 31
0.0
  0
SOLID
  5
12480
330
122A8
100
AcDbEntity
  8
SUNPOU
 62
     1
100
AcDbTrace
 10
-1679.707538250036
 20
1836.187120433851
 30
0.0
 11
-1679.707538250036
 21
1835.187120433851
 31
0.0
 12
-1682.707538250036
 22
1835.687120433851
 32
0.0
 13
-1682.707538250036
 23
1835.687120433851
 33
0.0
  0
SOLID
  5
12481
330
122A8
100
AcDbEntity
  8
SUNPOU
 62
     1
100
AcDbTrace
 10
-1616.207561250035
 20
1836.187120433851
 30
0.0
 11
-1616.207561250035
 21
1835.187120433851
 31
0.0
 12
-1613.207561250035
 22
1835.687120433851
 32
0.0
 13
-1613.207561250035
 23
1835.687120433851
 33
0.0
  0
MTEXT
  5
12482
330
122A8
100
AcDbEntity
  8
SUNPOU
 62
     1
100
AcDbMText
 10
-1647.957549750036
 20
1838.437120433851
 30
0.0
 40
3.5
 41
0.0
 71
     5
 72
     1
  1
\A1;69.5
  7
ゴシック体
1001
ACAD
1000
MTEXTBEGIN
1070
    73
1070
     1
1070
    44
1040
1.0
1070
    74
1070
     0
1000
MTEXTEND
  0
POINT
  5
12483
330
122A8
100
AcDbEntity
  8
DEFPOINTS
 62
     0
100
AcDbPoint
 10
-1682.707538250036
 20
1827.257944096004
 30
0.0
  0
POINT
  5
12484
330
122A8
100
AcDbEntity
  8
DEFPOINTS
 62
     0
100
AcDbPoint
 10
-1613.207561250035
 20
1819.257934096004
 30
0.0
  0
POINT
  5
12485
330
122A8
100
AcDbEntity
  8
DEFPOINTS
 62
     0
100
AcDbPoint
 10
-1613.207561250035
 20
1835.687120433851
 30
0.0
  0
ENDBLK
  5
122B3
330
122A8
100
AcDbEntity
  8
0
100
AcDbBlockEnd
  0
BLOCK
  5
122BF
330
122B5
100
AcDbEntity
  8
0
100
AcDbBlockBegin
  2
*D26
 70
     1
 10
0.0
 20
0.0
 30
0.0
  3
*D26
  1

  0
LINE
  5
1230B
330
122B5
100
AcDbEntity
  8
SUNPOU
 62
     1
100
AcDbLine
 10
-1683.207538250035
 20
1827.965054096004
 30
0.0
 11
-1700.380157482845
 21
1827.965054096004
 31
0.0
  0
LINE
  5
1230C
330
122B5
100
AcDbEntity
  8
SUNPOU
 62
     1
100
AcDbLine
 10
-1642.203723506959
 20
1783.961558248305
 30
0.0
 11
-1700.380157482845
 21
1783.961558248305
 31
0.0
  0
LINE
  5
1230D
330
122B5
100
AcDbEntity
  8
SUNPOU
 62
     1
100
AcDbLine
 10
-1699.880157482844
 20
1824.965054096005
 30
0.0
 11
-1699.880157482844
 21
1786.961558248306
 31
0.0
  0
SOLID
  5
1230E
330
122B5
100
AcDbEntity
  8
SUNPOU
 62
     1
100
AcDbTrace
 10
-1700.380157482845
 20
1824.965054096005
 30
0.0
 11
-1699.380157482845
 21
1824.965054096005
 31
0.0
 12
-1699.880157482844
 22
1827.965054096004
 32
0.0
 13
-1699.880157482844
 23
1827.965054096004
 33
0.0
  0
SOLID
  5
1230F
330
122B5
100
AcDbEntity
  8
SUNPOU
 62
     1
100
AcDbTrace
 10
-1700.380157482845
 20
1786.961558248306
 30
0.0
 11
-1699.380157482845
 21
1786.961558248306
 31
0.0
 12
-1699.880157482844
 22
1783.961558248305
 32
0.0
 13
-1699.880157482844
 23
1783.961558248305
 33
0.0
  0
MTEXT
  5
12310
330
122B5
100
AcDbEntity
  8
SUNPOU
 62
     1
100
AcDbMText
 10
-1702.630157482844
 20
1805.963306172155
 30
0.0
 40
3.5
 41
0.0
 71
     5
 72
     1
  1
\A1;44
  7
ゴシック体
 11
0.0000000000000001
 21
1.0
 31
0.0
1001
ACAD
1000
MTEXTBEGIN
1070
    73
1070
     1
1070
    44
1040
1.0
1070
    74
1070
     0
1000
MTEXTEND
  0
POINT
  5
12311
330
122B5
100
AcDbEntity
  8
DEFPOINTS
 62
     0
100
AcDbPoint
 10
-1682.707538250036
 20
1827.965054096004
 30
0.0
  0
POINT
  5
12312
330
122B5
100
AcDbEntity
  8
DEFPOINTS
 62
     0
100
AcDbPoint
 10
-1641.703723506958
 20
1783.961558248305
 30
0.0
  0
POINT
  5
12313
330
122B5
100
AcDbEntity
  8
DEFPOINTS
 62
     0
100
AcDbPoint
 10
-1699.880157482844
 20
1783.961558248305
 30
0.0
  0
ENDBLK
  5
122C0
330
122B5
100
AcDbEntity
  8
0
100
AcDbBlockEnd
  0
BLOCK
  5
122CC
330
122C2
100
AcDbEntity
  8
0
100
AcDbBlockBegin
  2
*D27
 70
     1
 10
0.0
 20
0.0
 30
0.0
  3
*D27
  1

  0
LINE
  5
122CE
330
122C2
100
AcDbEntity
  8
SUNPOU
 62
     1
100
AcDbLine
 10
-1642.703723506959
 20
1783.961558248305
 30
0.0
 11
-1700.380157482845
 21
1783.961558248305
 31
0.0
  0
LINE
  5
122CF
330
122C2
100
AcDbEntity
  8
SUNPOU
 62
     1
100
AcDbLine
 10
-1687.000444250036
 20
1739.965054096003
 30
0.0
 11
-1700.380157482845
 21
1739.965054096003
 31
0.0
  0
LINE
  5
122D0
330
122C2
100
AcDbEntity
  8
SUNPOU
 62
     1
100
AcDbLine
 10
-1699.880157482844
 20
1780.961558248305
 30
0.0
 11
-1699.880157482844
 21
1742.965054096005
 31
0.0
  0
SOLID
  5
122D1
330
122C2
100
AcDbEntity
  8
SUNPOU
 62
     1
100
AcDbTrace
 10
-1700.380157482845
 20
1780.961558248305
 30
0.0
 11
-1699.380157482845
 21
1780.961558248305
 31
0.0
 12
-1699.880157482844
 22
1783.961558248305
 32
0.0
 13
-1699.880157482844
 23
1783.961558248305
 33
0.0
  0
SOLID
  5
122D2
330
122C2
100
AcDbEntity
  8
SUNPOU
 62
     1
100
AcDbTrace
 10
-1700.380157482845
 20
1742.965054096005
 30
0.0
 11
-1699.380157482845
 21
1742.965054096005
 31
0.0
 12
-1699.880157482844
 22
1739.965054096003
 32
0.0
 13
-1699.880157482844
 23
1739.965054096003
 33
0.0
  0
MTEXT
  5
122D3
330
122C2
100
AcDbEntity
  8
SUNPOU
 62
     1
100
AcDbMText
 10
-1702.630157482844
 20
1761.963306172155
 30
0.0
 40
3.5
 41
0.0
 71
     5
 72
     1
  1
\A1;44
  7
ゴシック体
 11
0.0000000000000001
 21
1.0
 31
0.0
1001
ACAD
1000
MTEXTBEGIN
1070
    73
1070
     1
1070
    44
1040
1.0
1070
    74
1070
     0
1000
MTEXTEND
  0
POINT
  5
122D4
330
122C2
100
AcDbEntity
  8
DEFPOINTS
 62
     0
100
AcDbPoint
 10
-1642.203723506959
 20
1783.961558248305
 30
0.0
  0
POINT
  5
122D5
330
122C2
100
AcDbEntity
  8
DEFPOINTS
 62
     0
100
AcDbPoint
 10
-1686.500444250036
 20
1739.965054096003
 30
0.0
  0
POINT
  5
122D6
330
122C2
100
AcDbEntity
  8
DEFPOINTS
 62
     0
100
AcDbPoint
 10
-1699.880157482844
 20
1739.965054096003
 30
0.0
  0
ENDBLK
  5
122CD
330
122C2
100
AcDbEntity
  8
0
100
AcDbBlockEnd
  0
BLOCK
  5
122E4
330
122D8
100
AcDbEntity
  8
0
100
AcDbBlockBegin
  2
*D28
 70
     1
 10
0.0
 20
0.0
 30
0.0
  3
*D28
  1

  0
LINE
  5
122F1
330
122D8
100
AcDbEntity
  8
SUNPOU
 62
     1
100
AcDbLine
 10
-1687.707552250036
 20
1748.715074096005
 30
0.0
 11
-1691.734429809172
 21
1748.715074096005
 31
0.0
  0
LINE
  5
122F2
330
122D8
100
AcDbEntity
  8
SUNPOU
 62
     1
100
AcDbLine
 10
-1687.707552250036
 20
1745.215034096005
 30
0.0
 11
-1691.734429809172
 21
1745.215034096005
 31
0.0
  0
LINE
  5
122F3
330
122D8
100
AcDbEntity
  8
SUNPOU
 62
     1
100
AcDbLine
 10
-1691.234429809171
 20
1742.215034096005
 30
0.0
 11
-1691.234429809171
 21
1739.215034096005
 31
0.0
  0
LINE
  5
122F4
330
122D8
100
AcDbEntity
  8
SUNPOU
 62
     1
100
AcDbLine
 10
-1691.234429809171
 20
1751.715074096004
 30
0.0
 11
-1691.234429809171
 21
1763.075480187374
 31
0.0
  0
LINE
  5
122F5
330
122D8
100
AcDbEntity
  8
SUNPOU
 62
     1
100
AcDbLine
 10
-1691.234429809171
 20
1745.215034096005
 30
0.0
 11
-1691.234429809171
 21
1748.715074096005
 31
0.0
  0
SOLID
  5
122F6
330
122D8
100
AcDbEntity
  8
SUNPOU
 62
     1
100
AcDbTrace
 10
-1691.734429809172
 20
1742.215034096005
 30
0.0
 11
-1690.734429809172
 21
1742.215034096005
 31
0.0
 12
-1691.234429809171
 22
1745.215034096005
 32
0.0
 13
-1691.234429809171
 23
1745.215034096005
 33
0.0
  0
SOLID
  5
122F7
330
122D8
100
AcDbEntity
  8
SUNPOU
 62
     1
100
AcDbTrace
 10
-1691.734429809172
 20
1751.715074096004
 30
0.0
 11
-1690.734429809172
 21
1751.715074096004
 31
0.0
 12
-1691.234429809171
 22
1748.715074096005
 32
0.0
 13
-1691.234429809171
 23
1748.715074096005
 33
0.0
  0
MTEXT
  5
122F8
330
122D8
100
AcDbEntity
  8
SUNPOU
 62
     1
100
AcDbMText
 10
-1693.984429809172
 20
1758.895277141689
 30
0.0
 40
3.5
 41
0.0
 71
     5
 72
     1
  1
\A1;3.5
  7
ゴシック体
 11
0.0000000000000001
 21
1.0
 31
0.0
1001
ACAD
1000
MTEXTBEGIN
1070
    73
1070
     1
1070
    44
1040
1.0
1070
    74
1070
     0
1000
MTEXTEND
  0
POINT
  5
122F9
330
122D8
100
AcDbEntity
  8
DEFPOINTS
 62
     0
100
AcDbPoint
 10
-1687.207552250036
 20
1748.715074096005
 30
0.0
  0
POINT
  5
122FA
330
122D8
100
AcDbEntity
  8
DEFPOINTS
 62
     0
100
AcDbPoint
 10
-1687.207552250036
 20
1745.215034096005
 30
0.0
  0
POINT
  5
122FB
330
122D8
100
AcDbEntity
  8
DEFPOINTS
 62
     0
100
AcDbPoint
 10
-1691.234429809171
 20
1745.215034096005
 30
0.0
  0
ENDBLK
  5
122E5
330
122D8
100
AcDbEntity
  8
0
100
AcDbBlockEnd
  0
BLOCK
  5
12309
330
122FD
100
AcDbEntity
  8
0
100
AcDbBlockBegin
  2
*D29
 70
     1
 10
0.0
 20
0.0
 30
0.0
  3
*D29
  1

  0
LINE
  5
1231F
330
122FD
100
AcDbEntity
  8
SUNPOU
 62
     1
100
AcDbLine
 10
-1682.500429250036
 20
1827.965054096004
 30
0.0
 11
-1712.116713027117
 21
1827.965054096004
 31
0.0
  0
LINE
  5
12320
330
122FD
100
AcDbEntity
  8
SUNPOU
 62
     1
100
AcDbLine
 10
-1614.707561250035
 20
1823.965064096005
 30
0.0
 11
-1712.116713027117
 21
1823.965064096005
 31
0.0
  0
LINE
  5
12321
330
122FD
100
AcDbEntity
  8
SUNPOU
 62
     1
100
AcDbLine
 10
-1711.616713027116
 20
1830.965054096004
 30
0.0
 11
-1711.616713027116
 21
1833.965054096005
 31
0.0
  0
LINE
  5
12322
330
122FD
100
AcDbEntity
  8
SUNPOU
 62
     1
100
AcDbLine
 10
-1711.616713027116
 20
1820.965064096005
 30
0.0
 11
-1711.616713027116
 21
1817.965064096005
 31
0.0
  0
LINE
  5
12323
330
122FD
100
AcDbEntity
  8
SUNPOU
 62
     1
100
AcDbLine
 10
-1711.616713027116
 20
1827.965054096004
 30
0.0
 11
-1711.616713027116
 21
1823.965064096005
 31
0.0
  0
SOLID
  5
12324
330
122FD
100
AcDbEntity
  8
SUNPOU
 62
     1
100
AcDbTrace
 10
-1712.116713027117
 20
1830.965054096004
 30
0.0
 11
-1711.116713027116
 21
1830.965054096004
 31
0.0
 12
-1711.616713027116
 22
1827.965054096004
 32
0.0
 13
-1711.616713027116
 23
1827.965054096004
 33
0.0
  0
SOLID
  5
12325
330
122FD
100
AcDbEntity
  8
SUNPOU
 62
     1
100
AcDbTrace
 10
-1712.116713027117
 20
1820.965064096005
 30
0.0
 11
-1711.116713027116
 21
1820.965064096005
 31
0.0
 12
-1711.616713027116
 22
1823.965064096005
 32
0.0
 13
-1711.616713027116
 23
1823.965064096005
 33
0.0
  0
MTEXT
  5
12326
330
122FD
100
AcDbEntity
  8
SUNPOU
 62
     1
100
AcDbMText
 10
-1714.366713027116
 20
1825.965059096004
 30
0.0
 40
3.5
 41
0.0
 71
     5
 72
     1
  1
\A1;4
  7
ゴシック体
 11
0.0000000000000001
 21
1.0
 31
0.0
1001
ACAD
1000
MTEXTBEGIN
1070
    73
1070
     1
1070
    44
1040
1.0
1070
    74
1070
     0
1000
MTEXTEND
  0
POINT
  5
12327
330
122FD
100
AcDbEntity
  8
DEFPOINTS
 62
     0
100
AcDbPoint
 10
-1682.000429250036
 20
1827.965054096004
 30
0.0
  0
POINT
  5
12328
330
122FD
100
AcDbEntity
  8
DEFPOINTS
 62
     0
100
AcDbPoint
 10
-1614.207561250036
 20
1823.965064096005
 30
0.0
  0
POINT
  5
12329
330
122FD
100
AcDbEntity
  8
DEFPOINTS
 62
     0
100
AcDbPoint
 10
-1711.616713027116
 20
1823.965064096005
 30
0.0
  0
ENDBLK
  5
1230A
330
122FD
100
AcDbEntity
  8
0
100
AcDbBlockEnd
  0
BLOCK
  5
12335
330
1232B
100
AcDbEntity
  8
0
100
AcDbBlockBegin
  2
*D30
 70
     1
 10
0.0
 20
0.0
 30
0.0
  3
*D30
  1

  0
LINE
  5
1232C
330
1232B
100
AcDbEntity
  8
SUNPOU
 62
     1
100
AcDbLine
 10
-1615.207561250036
 20
1823.965064096005
 30
0.0
 11
-1712.116713027117
 21
1823.965064096005
 31
0.0
  0
LINE
  5
1232D
330
1232B
100
AcDbEntity
  8
SUNPOU
 62
     1
100
AcDbLine
 10
-1686.707549250035
 20
1746.965054096005
 30
0.0
 11
-1712.116713027117
 21
1746.965054096005
 31
0.0
  0
LINE
  5
1232E
330
1232B
100
AcDbEntity
  8
SUNPOU
 62
     1
100
AcDbLine
 10
-1711.616713027116
 20
1820.965064096005
 30
0.0
 11
-1711.616713027116
 21
1749.965054096005
 31
0.0
  0
SOLID
  5
1232F
330
1232B
100
AcDbEntity
  8
SUNPOU
 62
     1
100
AcDbTrace
 10
-1712.116713027117
 20
1820.965064096005
 30
0.0
 11
-1711.116713027116
 21
1820.965064096005
 31
0.0
 12
-1711.616713027116
 22
1823.965064096005
 32
0.0
 13
-1711.616713027116
 23
1823.965064096005
 33
0.0
  0
SOLID
  5
12330
330
1232B
100
AcDbEntity
  8
SUNPOU
 62
     1
100
AcDbTrace
 10
-1712.116713027117
 20
1749.965054096005
 30
0.0
 11
-1711.116713027116
 21
1749.965054096005
 31
0.0
 12
-1711.616713027116
 22
1746.965054096005
 32
0.0
 13
-1711.616713027116
 23
1746.965054096005
 33
0.0
  0
MTEXT
  5
12331
330
1232B
100
AcDbEntity
  8
SUNPOU
 62
     1
100
AcDbMText
 10
-1714.366713027116
 20
1785.465059096004
 30
0.0
 40
3.5
 41
0.0
 71
     5
 72
     1
  1
\A1;77
  7
ゴシック体
 11
0.0000000000000001
 21
1.0
 31
0.0
1001
ACAD
1000
MTEXTBEGIN
1070
    73
1070
     1
1070
    44
1040
1.0
1070
    74
1070
     0
1000
MTEXTEND
  0
POINT
  5
12332
330
1232B
100
AcDbEntity
  8
DEFPOINTS
 62
     0
100
AcDbPoint
 10
-1614.707561250035
 20
1823.965064096005
 30
0.0
  0
POINT
  5
12333
330
1232B
100
AcDbEntity
  8
DEFPOINTS
 62
     0
100
AcDbPoint
 10
-1686.207549250036
 20
1746.965054096005
 30
0.0
  0
POINT
  5
12334
330
1232B
100
AcDbEntity
  8
DEFPOINTS
 62
     0
100
AcDbPoint
 10
-1711.616713027116
 20
1746.965054096005
 30
0.0
  0
ENDBLK
  5
12336
330
1232B
100
AcDbEntity
  8
0
100
AcDbBlockEnd
  0
BLOCK
  5
12344
330
12338
100
AcDbEntity
  8
0
100
AcDbBlockBegin
  2
*D31
 70
     1
 10
0.0
 20
0.0
 30
0.0
  3
*D31
  1

  0
LINE
  5
12339
330
12338
100
AcDbEntity
  8
SUNPOU
 62
     1
100
AcDbLine
 10
-1687.207549250036
 20
1746.965054096005
 30
0.0
 11
-1712.116713027117
 21
1746.965054096005
 31
0.0
  0
LINE
  5
1233A
330
12338
100
AcDbEntity
  8
SUNPOU
 62
     1
100
AcDbLine
 10
-1687.000444250036
 20
1739.965054096003
 30
0.0
 11
-1712.116713027117
 21
1739.965054096003
 31
0.0
  0
LINE
  5
1233B
330
12338
100
AcDbEntity
  8
SUNPOU
 62
     1
100
AcDbLine
 10
-1711.616713027116
 20
1749.965054096005
 30
0.0
 11
-1711.616713027116
 21
1752.965054096004
 31
0.0
  0
LINE
  5
1233C
330
12338
100
AcDbEntity
  8
SUNPOU
 62
     1
100
AcDbLine
 10
-1711.616713027116
 20
1736.965054096004
 30
0.0
 11
-1711.616713027116
 21
1733.965054096005
 31
0.0
  0
LINE
  5
1233D
330
12338
100
AcDbEntity
  8
SUNPOU
 62
     1
100
AcDbLine
 10
-1711.616713027116
 20
1746.965054096005
 30
0.0
 11
-1711.616713027116
 21
1739.965054096003
 31
0.0
  0
SOLID
  5
1233E
330
12338
100
AcDbEntity
  8
SUNPOU
 62
     1
100
AcDbTrace
 10
-1712.116713027117
 20
1749.965054096005
 30
0.0
 11
-1711.116713027116
 21
1749.965054096005
 31
0.0
 12
-1711.616713027116
 22
1746.965054096005
 32
0.0
 13
-1711.616713027116
 23
1746.965054096005
 33
0.0
  0
SOLID
  5
1233F
330
12338
100
AcDbEntity
  8
SUNPOU
 62
     1
100
AcDbTrace
 10
-1712.116713027117
 20
1736.965054096004
 30
0.0
 11
-1711.116713027116
 21
1736.965054096004
 31
0.0
 12
-1711.616713027116
 22
1739.965054096003
 32
0.0
 13
-1711.616713027116
 23
1739.965054096003
 33
0.0
  0
MTEXT
  5
12340
330
12338
100
AcDbEntity
  8
SUNPOU
 62
     1
100
AcDbMText
 10
-1714.366713027116
 20
1743.465054096003
 30
0.0
 40
3.5
 41
0.0
 71
     5
 72
     1
  1
\A1;7
  7
ゴシック体
 11
0.0000000000000001
 21
1.0
 31
0.0
1001
ACAD
1000
MTEXTBEGIN
1070
    73
1070
     1
1070
    44
1040
1.0
1070
    74
1070
     0
1000
MTEXTEND
  0
POINT
  5
12341
330
12338
100
AcDbEntity
  8
DEFPOINTS
 62
     0
100
AcDbPoint
 10
-1686.707549250035
 20
1746.965054096005
 30
0.0
  0
POINT
  5
12342
330
12338
100
AcDbEntity
  8
DEFPOINTS
 62
     0
100
AcDbPoint
 10
-1686.500444250036
 20
1739.965054096003
 30
0.0
  0
POINT
  5
12343
330
12338
100
AcDbEntity
  8
DEFPOINTS
 62
     0
100
AcDbPoint
 10
-1711.616713027116
 20
1739.965054096003
 30
0.0
  0
ENDBLK
  5
12345
330
12338
100
AcDbEntity
  8
0
100
AcDbBlockEnd
  0
BLOCK
  5
1235C
330
12352
100
AcDbEntity
  8
0
100
AcDbBlockBegin
  2
*D32
 70
     1
 10
0.0
 20
0.0
 30
0.0
  3
*D32
  1

  0
LINE
  5
12353
330
12352
100
AcDbEntity
  8
SUNPOU
 62
     1
100
AcDbLine
 10
-1682.500429250036
 20
1827.965054096004
 30
0.0
 11
-1725.355483343079
 21
1827.965054096004
 31
0.0
  0
LINE
  5
12354
330
12352
100
AcDbEntity
  8
SUNPOU
 62
     1
100
AcDbLine
 10
-1687.000444250036
 20
1739.965054096003
 30
0.0
 11
-1725.355483343079
 21
1739.965054096003
 31
0.0
  0
LINE
  5
12355
330
12352
100
AcDbEntity
  8
SUNPOU
 62
     1
100
AcDbLine
 10
-1724.855483343079
 20
1824.965054096005
 30
0.0
 11
-1724.855483343079
 21
1742.965054096005
 31
0.0
  0
SOLID
  5
12356
330
12352
100
AcDbEntity
  8
SUNPOU
 62
     1
100
AcDbTrace
 10
-1725.355483343079
 20
1824.965054096005
 30
0.0
 11
-1724.355483343078
 21
1824.965054096005
 31
0.0
 12
-1724.855483343079
 22
1827.965054096004
 32
0.0
 13
-1724.855483343079
 23
1827.965054096004
 33
0.0
  0
SOLID
  5
12357
330
12352
100
AcDbEntity
  8
SUNPOU
 62
     1
100
AcDbTrace
 10
-1725.355483343079
 20
1742.965054096005
 30
0.0
 11
-1724.355483343078
 21
1742.965054096005
 31
0.0
 12
-1724.855483343079
 22
1739.965054096003
 32
0.0
 13
-1724.855483343079
 23
1739.965054096003
 33
0.0
  0
MTEXT
  5
12358
330
12352
100
AcDbEntity
  8
SUNPOU
 62
     1
100
AcDbMText
 10
-1727.605483343079
 20
1783.965054096004
 30
0.0
 40
3.5
 41
0.0
 71
     5
 72
     1
  1
\A1;88
  7
ゴシック体
 11
0.0000000000000001
 21
1.0
 31
0.0
1001
ACAD
1000
MTEXTBEGIN
1070
    73
1070
     1
1070
    44
1040
1.0
1070
    74
1070
     0
1000
MTEXTEND
  0
POINT
  5
12359
330
12352
100
AcDbEntity
  8
DEFPOINTS
 62
     0
100
AcDbPoint
 10
-1682.000429250036
 20
1827.965054096004
 30
0.0
  0
POINT
  5
1235A
330
12352
100
AcDbEntity
  8
DEFPOINTS
 62
     0
100
AcDbPoint
 10
-1686.500444250036
 20
1739.965054096003
 30
0.0
  0
POINT
  5
1235B
330
12352
100
AcDbEntity
  8
DEFPOINTS
 62
     0
100
AcDbPoint
 10
-1724.855483343079
 20
1739.965054096003
 30
0.0
  0
ENDBLK
  5
1235D
330
12352
100
AcDbEntity
  8
0
100
AcDbBlockEnd
  0
BLOCK
  5
12369
330
1235F
100
AcDbEntity
  8
0
100
AcDbBlockBegin
  2
*D33
 70
     1
 10
0.0
 20
0.0
 30
0.0
  3
*D33
  1

  0
LINE
  5
123AC
330
1235F
100
AcDbEntity
  8
SUNPOU
 62
     1
100
AcDbLine
 10
-1687.207552250036
 20
1740.172164096005
 30
0.0
 11
-1687.207552250036
 21
1729.38925728021
 31
0.0
  0
LINE
  5
123AD
330
1235F
100
AcDbEntity
  8
SUNPOU
 62
     1
100
AcDbLine
 10
-1657.703723506958
 20
1779.461558248305
 30
0.0
 11
-1657.703723506958
 21
1729.38925728021
 31
0.0
  0
LINE
  5
123AE
330
1235F
100
AcDbEntity
  8
SUNPOU
 62
     1
100
AcDbLine
 10
-1684.207552250036
 20
1729.889257280211
 30
0.0
 11
-1660.703723506959
 21
1729.889257280211
 31
0.0
  0
SOLID
  5
123AF
330
1235F
100
AcDbEntity
  8
SUNPOU
 62
     1
100
AcDbTrace
 10
-1684.207552250036
 20
1730.389257280211
 30
0.0
 11
-1684.207552250036
 21
1729.38925728021
 31
0.0
 12
-1687.207552250036
 22
1729.889257280211
 32
0.0
 13
-1687.207552250036
 23
1729.889257280211
 33
0.0
  0
SOLID
  5
123B0
330
1235F
100
AcDbEntity
  8
SUNPOU
 62
     1
100
AcDbTrace
 10
-1660.703723506959
 20
1730.389257280211
 30
0.0
 11
-1660.703723506959
 21
1729.38925728021
 31
0.0
 12
-1657.703723506958
 22
1729.889257280211
 32
0.0
 13
-1657.703723506958
 23
1729.889257280211
 33
0.0
  0
MTEXT
  5
123B1
330
1235F
100
AcDbEntity
  8
SUNPOU
 62
     1
100
AcDbMText
 10
-1672.455637878497
 20
1732.639257280211
 30
0.0
 40
3.5
 41
0.0
 71
     5
 72
     1
  1
\A1;29.5
  7
ゴシック体
1001
ACAD
1000
MTEXTBEGIN
1070
    73
1070
     1
1070
    44
1040
1.0
1070
    74
1070
     0
1000
MTEXTEND
  0
POINT
  5
123B2
330
1235F
100
AcDbEntity
  8
DEFPOINTS
 62
     0
100
AcDbPoint
 10
-1687.207552250036
 20
1740.672164096005
 30
0.0
  0
POINT
  5
123B3
330
1235F
100
AcDbEntity
  8
DEFPOINTS
 62
     0
100
AcDbPoint
 10
-1657.703723506958
 20
1779.961558248306
 30
0.0
  0
POINT
  5
123B4
330
1235F
100
AcDbEntity
  8
DEFPOINTS
 62
     0
100
AcDbPoint
 10
-1657.703723506958
 20
1729.889257280211
 30
0.0
  0
ENDBLK
  5
1236A
330
1235F
100
AcDbEntity
  8
0
100
AcDbBlockEnd
  0
BLOCK
  5
123C0
330
123B6
100
AcDbEntity
  8
0
100
AcDbBlockBegin
  2
*D34
 70
     1
 10
0.0
 20
0.0
 30
0.0
  3
*D34
  1

  0
LINE
  5
123B7
330
123B6
100
AcDbEntity
  8
SUNPOU
 62
     1
100
AcDbLine
 10
-1657.703723506958
 20
1779.461558248305
 30
0.0
 11
-1657.703723506958
 21
1729.38925728021
 31
0.0
  0
LINE
  5
123B8
330
123B6
100
AcDbEntity
  8
SUNPOU
 62
     1
100
AcDbLine
 10
-1637.703723506958
 20
1779.461558248305
 30
0.0
 11
-1637.703723506958
 21
1729.38925728021
 31
0.0
  0
LINE
  5
123B9
330
123B6
100
AcDbEntity
  8
SUNPOU
 62
     1
100
AcDbLine
 10
-1654.703723506959
 20
1729.889257280211
 30
0.0
 11
-1640.703723506958
 21
1729.889257280211
 31
0.0
  0
SOLID
  5
123BA
330
123B6
100
AcDbEntity
  8
SUNPOU
 62
     1
100
AcDbTrace
 10
-1654.703723506959
 20
1730.389257280211
 30
0.0
 11
-1654.703723506959
 21
1729.38925728021
 31
0.0
 12
-1657.703723506958
 22
1729.889257280211
 32
0.0
 13
-1657.703723506958
 23
1729.889257280211
 33
0.0
  0
SOLID
  5
123BB
330
123B6
100
AcDbEntity
  8
SUNPOU
 62
     1
100
AcDbTrace
 10
-1640.703723506958
 20
1730.389257280211
 30
0.0
 11
-1640.703723506958
 21
1729.38925728021
 31
0.0
 12
-1637.703723506958
 22
1729.889257280211
 32
0.0
 13
-1637.703723506958
 23
1729.889257280211
 33
0.0
  0
MTEXT
  5
123BC
330
123B6
100
AcDbEntity
  8
SUNPOU
 62
     1
100
AcDbMText
 10
-1647.703723506958
 20
1732.639257280211
 30
0.0
 40
3.5
 41
0.0
 71
     5
 72
     1
  1
\A1;20
  7
ゴシック体
1001
ACAD
1000
MTEXTBEGIN
1070
    73
1070
     1
1070
    44
1040
1.0
1070
    74
1070
     0
1000
MTEXTEND
  0
POINT
  5
123BD
330
123B6
100
AcDbEntity
  8
DEFPOINTS
 62
     0
100
AcDbPoint
 10
-1657.703723506958
 20
1779.961558248306
 30
0.0
  0
POINT
  5
123BE
330
123B6
100
AcDbEntity
  8
DEFPOINTS
 62
     0
100
AcDbPoint
 10
-1637.703723506958
 20
1779.961558248306
 30
0.0
  0
POINT
  5
123BF
330
123B6
100
AcDbEntity
  8
DEFPOINTS
 62
     0
100
AcDbPoint
 10
-1637.703723506958
 20
1729.889257280211
 30
0.0
  0
ENDBLK
  5
123C1
330
123B6
100
AcDbEntity
  8
0
100
AcDbBlockEnd
  0
BLOCK
  5
123CD
330
123C3
100
AcDbEntity
  8
0
100
AcDbBlockBegin
  2
*D35
 70
     1
 10
0.0
 20
0.0
 30
0.0
  3
*D35
  1

  0
LINE
  5
123C4
330
123C3
100
AcDbEntity
  8
SUNPOU
 62
     1
100
AcDbLine
 10
-1637.703723506958
 20
1778.961558248306
 30
0.0
 11
-1637.703723506958
 21
1729.38925728021
 31
0.0
  0
LINE
  5
123C5
330
123C3
100
AcDbEntity
  8
SUNPOU
 62
     1
100
AcDbLine
 10
-1608.207541250036
 20
1820.172154096005
 30
0.0
 11
-1608.207541250036
 21
1729.38925728021
 31
0.0
  0
LINE
  5
123C6
330
123C3
100
AcDbEntity
  8
SUNPOU
 62
     1
100
AcDbLine
 10
-1634.703723506959
 20
1729.889257280211
 30
0.0
 11
-1611.207541250036
 21
1729.889257280211
 31
0.0
  0
SOLID
  5
123C7
330
123C3
100
AcDbEntity
  8
SUNPOU
 62
     1
100
AcDbTrace
 10
-1634.703723506959
 20
1730.389257280211
 30
0.0
 11
-1634.703723506959
 21
1729.38925728021
 31
0.0
 12
-1637.703723506958
 22
1729.889257280211
 32
0.0
 13
-1637.703723506958
 23
1729.889257280211
 33
0.0
  0
SOLID
  5
123C8
330
123C3
100
AcDbEntity
  8
SUNPOU
 62
     1
100
AcDbTrace
 10
-1611.207541250036
 20
1730.389257280211
 30
0.0
 11
-1611.207541250036
 21
1729.38925728021
 31
0.0
 12
-1608.207541250036
 22
1729.889257280211
 32
0.0
 13
-1608.207541250036
 23
1729.889257280211
 33
0.0
  0
MTEXT
  5
123C9
330
123C3
100
AcDbEntity
  8
SUNPOU
 62
     1
100
AcDbMText
 10
-1622.955632378497
 20
1732.639257280211
 30
0.0
 40
3.5
 41
0.0
 71
     5
 72
     1
  1
\A1;29.5
  7
ゴシック体
1001
ACAD
1000
MTEXTBEGIN
1070
    73
1070
     1
1070
    44
1040
1.0
1070
    74
1070
     0
1000
MTEXTEND
  0
POINT
  5
123CA
330
123C3
100
AcDbEntity
  8
DEFPOINTS
 62
     0
100
AcDbPoint
 10
-1637.703723506958
 20
1779.461558248305
 30
0.0
  0
POINT
  5
123CB
330
123C3
100
AcDbEntity
  8
DEFPOINTS
 62
     0
100
AcDbPoint
 10
-1608.207541250036
 20
1820.672154096005
 30
0.0
  0
POINT
  5
123CC
330
123C3
100
AcDbEntity
  8
DEFPOINTS
 62
     0
100
AcDbPoint
 10
-1608.207541250036
 20
1729.889257280211
 30
0.0
  0
ENDBLK
  5
123CE
330
123C3
100
AcDbEntity
  8
0
100
AcDbBlockEnd
  0
BLOCK
  5
123DC
330
123D0
100
AcDbEntity
  8
0
100
AcDbBlockBegin
  2
*D36
 70
     1
 10
0.0
 20
0.0
 30
0.0
  3
*D36
  1

  0
LINE
  5
12496
330
123D0
100
AcDbEntity
  8
SUNPOU
 62
     1
100
AcDbLine
 10
-1687.207552250036
 20
1740.172164096005
 30
0.0
 11
-1687.207552250036
 21
1720.773556039855
 31
0.0
  0
LINE
  5
12497
330
123D0
100
AcDbEntity
  8
SUNPOU
 62
     1
100
AcDbLine
 10
-1684.207539250035
 20
1743.465074096004
 30
0.0
 11
-1684.207539250035
 21
1720.773556039855
 31
0.0
  0
LINE
  5
12498
330
123D0
100
AcDbEntity
  8
SUNPOU
 62
     1
100
AcDbLine
 10
-1681.207539250036
 20
1721.273556039855
 30
0.0
 11
-1678.207539250036
 21
1721.273556039855
 31
0.0
  0
LINE
  5
12499
330
123D0
100
AcDbEntity
  8
SUNPOU
 62
     1
100
AcDbLine
 10
-1690.207552250036
 20
1721.273556039855
 30
0.0
 11
-1699.915674077447
 21
1721.273556039855
 31
0.0
  0
LINE
  5
1249A
330
123D0
100
AcDbEntity
  8
SUNPOU
 62
     1
100
AcDbLine
 10
-1684.207539250035
 20
1721.273556039855
 30
0.0
 11
-1687.207552250036
 21
1721.273556039855
 31
0.0
  0
SOLID
  5
1249B
330
123D0
100
AcDbEntity
  8
SUNPOU
 62
     1
100
AcDbTrace
 10
-1681.207539250036
 20
1721.773556039855
 30
0.0
 11
-1681.207539250036
 21
1720.773556039855
 31
0.0
 12
-1684.207539250035
 22
1721.273556039855
 32
0.0
 13
-1684.207539250035
 23
1721.273556039855
 33
0.0
  0
SOLID
  5
1249C
330
123D0
100
AcDbEntity
  8
SUNPOU
 62
     1
100
AcDbTrace
 10
-1690.207552250036
 20
1721.773556039855
 30
0.0
 11
-1690.207552250036
 21
1720.773556039855
 31
0.0
 12
-1687.207552250036
 22
1721.273556039855
 32
0.0
 13
-1687.207552250036
 23
1721.273556039855
 33
0.0
  0
MTEXT
  5
1249D
330
123D0
100
AcDbEntity
  8
SUNPOU
 62
     1
100
AcDbMText
 10
-1696.561613163742
 20
1724.316703247977
 30
0.0
 40
3.5
 41
0.0
 71
     5
 72
     1
  1
\A1;(3)
  7
ゴシック体
1001
ACAD
1000
MTEXTBEGIN
1070
    73
1070
     1
1070
    44
1040
1.0
1070
    74
1070
     0
1000
MTEXTEND
  0
POINT
  5
1249E
330
123D0
100
AcDbEntity
  8
DEFPOINTS
 62
     0
100
AcDbPoint
 10
-1687.207552250036
 20
1740.672164096005
 30
0.0
  0
POINT
  5
1249F
330
123D0
100
AcDbEntity
  8
DEFPOINTS
 62
     0
100
AcDbPoint
 10
-1684.207539250035
 20
1743.965074096004
 30
0.0
  0
POINT
  5
124A0
330
123D0
100
AcDbEntity
  8
DEFPOINTS
 62
     0
100
AcDbPoint
 10
-1684.207539250035
 20
1721.273556039855
 30
0.0
  0
ENDBLK
  5
123DD
330
123D0
100
AcDbEntity
  8
0
100
AcDbBlockEnd
  0
BLOCK
  5
123FF
330
123F5
100
AcDbEntity
  8
0
100
AcDbBlockBegin
  2
*D37
 70
     1
 10
0.0
 20
0.0
 30
0.0
  3
*D37
  1

  0
LINE
  5
123F6
330
123F5
100
AcDbEntity
  8
SUNPOU
 62
     1
100
AcDbLine
 10
-1684.207539250035
 20
1743.465074096004
 30
0.0
 11
-1684.207539250035
 21
1720.773556039855
 31
0.0
  0
LINE
  5
123F7
330
123F5
100
AcDbEntity
  8
SUNPOU
 62
     1
100
AcDbLine
 10
-1611.207551250036
 20
1820.465054096004
 30
0.0
 11
-1611.207551250036
 21
1720.773556039855
 31
0.0
  0
LINE
  5
123F8
330
123F5
100
AcDbEntity
  8
SUNPOU
 62
     1
100
AcDbLine
 10
-1681.207539250036
 20
1721.273556039855
 30
0.0
 11
-1614.207551250036
 21
1721.273556039855
 31
0.0
  0
SOLID
  5
123F9
330
123F5
100
AcDbEntity
  8
SUNPOU
 62
     1
100
AcDbTrace
 10
-1681.207539250036
 20
1721.773556039855
 30
0.0
 11
-1681.207539250036
 21
1720.773556039855
 31
0.0
 12
-1684.207539250035
 22
1721.273556039855
 32
0.0
 13
-1684.207539250035
 23
1721.273556039855
 33
0.0
  0
SOLID
  5
123FA
330
123F5
100
AcDbEntity
  8
SUNPOU
 62
     1
100
AcDbTrace
 10
-1614.207551250036
 20
1721.773556039855
 30
0.0
 11
-1614.207551250036
 21
1720.773556039855
 31
0.0
 12
-1611.207551250036
 22
1721.273556039855
 32
0.0
 13
-1611.207551250036
 23
1721.273556039855
 33
0.0
  0
MTEXT
  5
123FB
330
123F5
100
AcDbEntity
  8
SUNPOU
 62
     1
100
AcDbMText
 10
-1647.707545250036
 20
1724.023556039855
 30
0.0
 40
3.5
 41
0.0
 71
     5
 72
     1
  1
\A1;73
  7
ゴシック体
1001
ACAD
1000
MTEXTBEGIN
1070
    73
1070
     1
1070
    44
1040
1.0
1070
    74
1070
     0
1000
MTEXTEND
  0
POINT
  5
123FC
330
123F5
100
AcDbEntity
  8
DEFPOINTS
 62
     0
100
AcDbPoint
 10
-1684.207539250035
 20
1743.965074096004
 30
0.0
  0
POINT
  5
123FD
330
123F5
100
AcDbEntity
  8
DEFPOINTS
 62
     0
100
AcDbPoint
 10
-1611.207551250036
 20
1820.965054096004
 30
0.0
  0
POINT
  5
123FE
330
123F5
100
AcDbEntity
  8
DEFPOINTS
 62
     0
100
AcDbPoint
 10
-1611.207551250036
 20
1721.273556039855
 30
0.0
  0
ENDBLK
  5
12400
330
123F5
100
AcDbEntity
  8
0
100
AcDbBlockEnd
  0
BLOCK
  5
1240E
330
12402
100
AcDbEntity
  8
0
100
AcDbBlockBegin
  2
*D38
 70
     1
 10
0.0
 20
0.0
 30
0.0
  3
*D38
  1

  0
LINE
  5
124A1
330
12402
100
AcDbEntity
  8
SUNPOU
 62
     1
100
AcDbLine
 10
-1611.207551250036
 20
1820.465054096004
 30
0.0
 11
-1611.207551250036
 21
1720.773556039855
 31
0.0
  0
LINE
  5
124A2
330
12402
100
AcDbEntity
  8
SUNPOU
 62
     1
100
AcDbLine
 10
-1608.207541250036
 20
1820.172154096005
 30
0.0
 11
-1608.207541250036
 21
1720.773556039855
 31
0.0
  0
LINE
  5
124A3
330
12402
100
AcDbEntity
  8
SUNPOU
 62
     1
100
AcDbLine
 10
-1614.207551250036
 20
1721.273556039855
 30
0.0
 11
-1617.207551250036
 21
1721.273556039855
 31
0.0
  0
LINE
  5
124A4
330
12402
100
AcDbEntity
  8
SUNPOU
 62
     1
100
AcDbLine
 10
-1605.207541250036
 20
1721.273556039855
 30
0.0
 11
-1595.499419422625
 21
1721.273556039855
 31
0.0
  0
LINE
  5
124A5
330
12402
100
AcDbEntity
  8
SUNPOU
 62
     1
100
AcDbLine
 10
-1611.207551250036
 20
1721.273556039855
 30
0.0
 11
-1608.207541250036
 21
1721.273556039855
 31
0.0
  0
SOLID
  5
124A6
330
12402
100
AcDbEntity
  8
SUNPOU
 62
     1
100
AcDbTrace
 10
-1614.207551250036
 20
1721.773556039855
 30
0.0
 11
-1614.207551250036
 21
1720.773556039855
 31
0.0
 12
-1611.207551250036
 22
1721.273556039855
 32
0.0
 13
-1611.207551250036
 23
1721.273556039855
 33
0.0
  0
SOLID
  5
124A7
330
12402
100
AcDbEntity
  8
SUNPOU
 62
     1
100
AcDbTrace
 10
-1605.207541250036
 20
1721.773556039855
 30
0.0
 11
-1605.207541250036
 21
1720.773556039855
 31
0.0
 12
-1608.207541250036
 22
1721.273556039855
 32
0.0
 13
-1608.207541250036
 23
1721.273556039855
 33
0.0
  0
MTEXT
  5
124A8
330
12402
100
AcDbEntity
  8
SUNPOU
 62
     1
100
AcDbMText
 10
-1598.85348033633
 20
1724.316703247977
 30
0.0
 40
3.5
 41
0.0
 71
     5
 72
     1
  1
\A1;(3)
  7
ゴシック体
1001
ACAD
1000
MTEXTBEGIN
1070
    73
1070
     1
1070
    44
1040
1.0
1070
    74
1070
     0
1000
MTEXTEND
  0
POINT
  5
124A9
330
12402
100
AcDbEntity
  8
DEFPOINTS
 62
     0
100
AcDbPoint
 10
-1611.207551250036
 20
1820.965054096004
 30
0.0
  0
POINT
  5
124AA
330
12402
100
AcDbEntity
  8
DEFPOINTS
 62
     0
100
AcDbPoint
 10
-1608.207541250036
 20
1820.672154096005
 30
0.0
  0
POINT
  5
124AB
330
12402
100
AcDbEntity
  8
DEFPOINTS
 62
     0
100
AcDbPoint
 10
-1608.207541250036
 20
1721.273556039855
 30
0.0
  0
ENDBLK
  5
1240F
330
12402
100
AcDbEntity
  8
0
100
AcDbBlockEnd
  0
BLOCK
  5
1241C
330
12412
100
AcDbEntity
  8
0
100
AcDbBlockBegin
  2
*D39
 70
     1
 10
0.0
 20
0.0
 30
0.0
  3
*D39
  1

  0
LINE
  5
12413
330
12412
100
AcDbEntity
  8
SUNPOU
 62
     1
100
AcDbLine
 10
-1687.207552250036
 20
1740.172164096005
 30
0.0
 11
-1687.207552250036
 21
1712.514748444888
 31
0.0
  0
LINE
  5
12414
330
12412
100
AcDbEntity
  8
SUNPOU
 62
     1
100
AcDbLine
 10
-1608.207541250036
 20
1820.172154096005
 30
0.0
 11
-1608.207541250036
 21
1712.514748444888
 31
0.0
  0
LINE
  5
12415
330
12412
100
AcDbEntity
  8
SUNPOU
 62
     1
100
AcDbLine
 10
-1684.207552250036
 20
1713.014748444889
 30
0.0
 11
-1611.207541250036
 21
1713.014748444889
 31
0.0
  0
SOLID
  5
12416
330
12412
100
AcDbEntity
  8
SUNPOU
 62
     1
100
AcDbTrace
 10
-1684.207552250036
 20
1713.514748444889
 30
0.0
 11
-1684.207552250036
 21
1712.514748444888
 31
0.0
 12
-1687.207552250036
 22
1713.014748444889
 32
0.0
 13
-1687.207552250036
 23
1713.014748444889
 33
0.0
  0
SOLID
  5
12417
330
12412
100
AcDbEntity
  8
SUNPOU
 62
     1
100
AcDbTrace
 10
-1611.207541250036
 20
1713.514748444889
 30
0.0
 11
-1611.207541250036
 21
1712.514748444888
 31
0.0
 12
-1608.207541250036
 22
1713.014748444889
 32
0.0
 13
-1608.207541250036
 23
1713.014748444889
 33
0.0
  0
MTEXT
  5
12418
330
12412
100
AcDbEntity
  8
SUNPOU
 62
     1
100
AcDbMText
 10
-1647.707546750035
 20
1715.764748444889
 30
0.0
 40
3.5
 41
0.0
 71
     5
 72
     1
  1
\A1;79
  7
ゴシック体
1001
ACAD
1000
MTEXTBEGIN
1070
    73
1070
     1
1070
    44
1040
1.0
1070
    74
1070
     0
1000
MTEXTEND
  0
POINT
  5
12419
330
12412
100
AcDbEntity
  8
DEFPOINTS
 62
     0
100
AcDbPoint
 10
-1687.207552250036
 20
1740.672164096005
 30
0.0
  0
POINT
  5
1241A
330
12412
100
AcDbEntity
  8
DEFPOINTS
 62
     0
100
AcDbPoint
 10
-1608.207541250036
 20
1820.672154096005
 30
0.0
  0
POINT
  5
1241B
330
12412
100
AcDbEntity
  8
DEFPOINTS
 62
     0
100
AcDbPoint
 10
-1608.207541250036
 20
1713.014748444889
 30
0.0
  0
ENDBLK
  5
1241D
330
12412
100
AcDbEntity
  8
0
100
AcDbBlockEnd
  0
BLOCK
  5
12429
330
1241F
100
AcDbEntity
  8
0
100
AcDbBlockBegin
  2
*D40
 70
     1
 10
0.0
 20
0.0
 30
0.0
  3
*D40
  1

  0
LINE
  5
12420
330
1241F
100
AcDbEntity
  8
SUNPOU
 62
     1
100
AcDbLine
 10
-1608.414681250036
 20
1827.965054096004
 30
0.0
 11
-1597.67806230603
 21
1827.965054096004
 31
0.0
  0
LINE
  5
12421
330
1241F
100
AcDbEntity
  8
SUNPOU
 62
     1
100
AcDbLine
 10
-1608.414681250036
 20
1819.965044096004
 30
0.0
 11
-1597.67806230603
 21
1819.965044096004
 31
0.0
  0
LINE
  5
12422
330
1241F
100
AcDbEntity
  8
SUNPOU
 62
     1
100
AcDbLine
 10
-1598.178062306032
 20
1824.965054096005
 30
0.0
 11
-1598.178062306032
 21
1822.965044096005
 31
0.0
  0
SOLID
  5
12423
330
1241F
100
AcDbEntity
  8
SUNPOU
 62
     1
100
AcDbTrace
 10
-1598.678062306031
 20
1824.965054096005
 30
0.0
 11
-1597.67806230603
 21
1824.965054096005
 31
0.0
 12
-1598.178062306032
 22
1827.965054096004
 32
0.0
 13
-1598.178062306032
 23
1827.965054096004
 33
0.0
  0
SOLID
  5
12424
330
1241F
100
AcDbEntity
  8
SUNPOU
 62
     1
100
AcDbTrace
 10
-1598.678062306031
 20
1822.965044096005
 30
0.0
 11
-1597.67806230603
 21
1822.965044096005
 31
0.0
 12
-1598.178062306032
 22
1819.965044096004
 32
0.0
 13
-1598.178062306032
 23
1819.965044096004
 33
0.0
  0
MTEXT
  5
12425
330
1241F
100
AcDbEntity
  8
SUNPOU
 62
     1
100
AcDbMText
 10
-1600.928062306032
 20
1823.965049096004
 30
0.0
 40
3.5
 41
0.0
 71
     5
 72
     1
  1
\A1;8
  7
ゴシック体
 11
0.0000000000000001
 21
1.0
 31
0.0
1001
ACAD
1000
MTEXTBEGIN
1070
    73
1070
     1
1070
    44
1040
1.0
1070
    74
1070
     0
1000
MTEXTEND
  0
POINT
  5
12426
330
1241F
100
AcDbEntity
  8
DEFPOINTS
 62
     0
100
AcDbPoint
 10
-1608.914681250036
 20
1827.965054096004
 30
0.0
  0
POINT
  5
12427
330
1241F
100
AcDbEntity
  8
DEFPOINTS
 62
     0
100
AcDbPoint
 10
-1608.914681250036
 20
1819.965044096004
 30
0.0
  0
POINT
  5
12428
330
1241F
100
AcDbEntity
  8
DEFPOINTS
 62
     0
100
AcDbPoint
 10
-1598.178062306032
 20
1819.965044096004
 30
0.0
  0
ENDBLK
  5
1242A
330
1241F
100
AcDbEntity
  8
0
100
AcDbBlockEnd
  0
BLOCK
  5
12443
330
12439
100
AcDbEntity
  8
0
100
AcDbBlockBegin
  2
*D41
 70
     1
 10
0.0
 20
0.0
 30
0.0
  3
*D41
  1

  0
LINE
  5
12486
330
12439
100
AcDbEntity
  8
SUNPOU
 62
     1
100
AcDbLine
 10
-1579.585901250036
 20
1828.465054096005
 30
0.0
 11
-1579.585901250036
 21
1836.187120433851
 31
0.0
  0
LINE
  5
12487
330
12439
100
AcDbEntity
  8
SUNPOU
 62
     1
100
AcDbLine
 10
-1535.585941250036
 20
1828.465054096005
 30
0.0
 11
-1535.585941250036
 21
1836.187120433851
 31
0.0
  0
LINE
  5
12488
330
12439
100
AcDbEntity
  8
SUNPOU
 62
     1
100
AcDbLine
 10
-1576.585901250036
 20
1835.687120433851
 30
0.0
 11
-1538.585941250036
 21
1835.687120433851
 31
0.0
  0
SOLID
  5
12489
330
12439
100
AcDbEntity
  8
SUNPOU
 62
     1
100
AcDbTrace
 10
-1576.585901250036
 20
1836.187120433851
 30
0.0
 11
-1576.585901250036
 21
1835.187120433851
 31
0.0
 12
-1579.585901250036
 22
1835.687120433851
 32
0.0
 13
-1579.585901250036
 23
1835.687120433851
 33
0.0
  0
SOLID
  5
1248A
330
12439
100
AcDbEntity
  8
SUNPOU
 62
     1
100
AcDbTrace
 10
-1538.585941250036
 20
1836.187120433851
 30
0.0
 11
-1538.585941250036
 21
1835.187120433851
 31
0.0
 12
-1535.585941250036
 22
1835.687120433851
 32
0.0
 13
-1535.585941250036
 23
1835.687120433851
 33
0.0
  0
MTEXT
  5
1248B
330
12439
100
AcDbEntity
  8
SUNPOU
 62
     1
100
AcDbMText
 10
-1557.585921250036
 20
1838.845749875475
 30
0.0
 40
3.5
 41
0.0
 71
     5
 72
     1
  1
\A1;44(コネクタ実装時)
  7
ゴシック体
1001
ACAD
1000
MTEXTBEGIN
1070
    73
1070
     1
1070
    44
1040
1.0
1070
    74
1070
     0
1000
MTEXTEND
  0
POINT
  5
1248C
330
12439
100
AcDbEntity
  8
DEFPOINTS
 62
     0
100
AcDbPoint
 10
-1579.585901250036
 20
1827.965054096004
 30
0.0
  0
POINT
  5
1248D
330
12439
100
AcDbEntity
  8
DEFPOINTS
 62
     0
100
AcDbPoint
 10
-1535.585941250036
 20
1827.965054096004
 30
0.0
  0
POINT
  5
1248E
330
12439
100
AcDbEntity
  8
DEFPOINTS
 62
     0
100
AcDbPoint
 10
-1535.585941250036
 20
1835.687120433851
 30
0.0
  0
ENDBLK
  5
12444
330
12439
100
AcDbEntity
  8
0
100
AcDbBlockEnd
  0
BLOCK
  5
1245C
330
12450
100
AcDbEntity
  8
0
100
AcDbBlockBegin
  2
*D42
 70
     1
 10
0.0
 20
0.0
 30
0.0
  3
*D42
  1

  0
LINE
  5
12451
330
12450
100
AcDbEntity
  8
SUNPOU
 62
     1
100
AcDbLine
 10
-1537.585941250036
 20
1739.465054096005
 30
0.0
 11
-1537.585941250036
 21
1729.38925728021
 31
0.0
  0
LINE
  5
12452
330
12450
100
AcDbEntity
  8
SUNPOU
 62
     1
100
AcDbLine
 10
-1535.585941250036
 20
1740.172164096005
 30
0.0
 11
-1535.585941250036
 21
1729.38925728021
 31
0.0
  0
LINE
  5
12453
330
12450
100
AcDbEntity
  8
SUNPOU
 62
     1
100
AcDbLine
 10
-1540.585941250036
 20
1729.889257280211
 30
0.0
 11
-1543.585941250036
 21
1729.889257280211
 31
0.0
  0
LINE
  5
12454
330
12450
100
AcDbEntity
  8
SUNPOU
 62
     1
100
AcDbLine
 10
-1532.585941250036
 20
1729.889257280211
 30
0.0
 11
-1525.773758508919
 21
1729.889257280211
 31
0.0
  0
LINE
  5
12455
330
12450
100
AcDbEntity
  8
SUNPOU
 62
     1
100
AcDbLine
 10
-1537.585941250036
 20
1729.889257280211
 30
0.0
 11
-1535.585941250036
 21
1729.889257280211
 31
0.0
  0
SOLID
  5
12456
330
12450
100
AcDbEntity
  8
SUNPOU
 62
     1
100
AcDbTrace
 10
-1540.585941250036
 20
1730.389257280211
 30
0.0
 11
-1540.585941250036
 21
1729.38925728021
 31
0.0
 12
-1537.585941250036
 22
1729.889257280211
 32
0.0
 13
-1537.585941250036
 23
1729.889257280211
 33
0.0
  0
SOLID
  5
12457
330
12450
100
AcDbEntity
  8
SUNPOU
 62
     1
100
AcDbTrace
 10
-1532.585941250036
 20
1730.389257280211
 30
0.0
 11
-1532.585941250036
 21
1729.38925728021
 31
0.0
 12
-1535.585941250036
 22
1729.889257280211
 32
0.0
 13
-1535.585941250036
 23
1729.889257280211
 33
0.0
  0
MTEXT
  5
12458
330
12450
100
AcDbEntity
  8
SUNPOU
 62
     1
100
AcDbMText
 10
-1527.679849879478
 20
1732.639257280211
 30
0.0
 40
3.5
 41
0.0
 71
     5
 72
     1
  1
\A1;2
  7
ゴシック体
1001
ACAD
1000
MTEXTBEGIN
1070
    73
1070
     1
1070
    44
1040
1.0
1070
    74
1070
     0
1000
MTEXTEND
  0
POINT
  5
12459
330
12450
100
AcDbEntity
  8
DEFPOINTS
 62
     0
100
AcDbPoint
 10
-1537.585941250036
 20
1739.965054096003
 30
0.0
  0
POINT
  5
1245A
330
12450
100
AcDbEntity
  8
DEFPOINTS
 62
     0
100
AcDbPoint
 10
-1535.585941250036
 20
1740.672164096005
 30
0.0
  0
POINT
  5
1245B
330
12450
100
AcDbEntity
  8
DEFPOINTS
 62
     0
100
AcDbPoint
 10
-1535.585941250036
 20
1729.889257280211
 30
0.0
  0
ENDBLK
  5
1245D
330
12450
100
AcDbEntity
  8
0
100
AcDbBlockEnd
  0
BLOCK
  5
12469
330
1245F
100
AcDbEntity
  8
0
100
AcDbBlockBegin
  2
*D43
 70
     1
 10
0.0
 20
0.0
 30
0.0
  3
*D43
  1

  0
LINE
  5
12460
330
1245F
100
AcDbEntity
  8
SUNPOU
 62
     1
100
AcDbLine
 10
-1562.085713490042
 20
1739.454441803991
 30
0.0
 11
-1562.085713490042
 21
1720.773556039855
 31
0.0
  0
LINE
  5
12461
330
1245F
100
AcDbEntity
  8
SUNPOU
 62
     1
100
AcDbLine
 10
-1535.585941250036
 20
1739.465054096005
 30
0.0
 11
-1535.585941250036
 21
1720.773556039855
 31
0.0
  0
LINE
  5
12462
330
1245F
100
AcDbEntity
  8
SUNPOU
 62
     1
100
AcDbLine
 10
-1559.085713490043
 20
1721.273556039855
 30
0.0
 11
-1538.585941250036
 21
1721.273556039855
 31
0.0
  0
SOLID
  5
12463
330
1245F
100
AcDbEntity
  8
SUNPOU
 62
     1
100
AcDbTrace
 10
-1559.085713490043
 20
1721.773556039855
 30
0.0
 11
-1559.085713490043
 21
1720.773556039855
 31
0.0
 12
-1562.085713490042
 22
1721.273556039855
 32
0.0
 13
-1562.085713490042
 23
1721.273556039855
 33
0.0
  0
SOLID
  5
12464
330
1245F
100
AcDbEntity
  8
SUNPOU
 62
     1
100
AcDbTrace
 10
-1538.585941250036
 20
1721.773556039855
 30
0.0
 11
-1538.585941250036
 21
1720.773556039855
 31
0.0
 12
-1535.585941250036
 22
1721.273556039855
 32
0.0
 13
-1535.585941250036
 23
1721.273556039855
 33
0.0
  0
MTEXT
  5
12465
330
1245F
100
AcDbEntity
  8
SUNPOU
 62
     1
100
AcDbMText
 10
-1548.83582737004
 20
1724.023556039855
 30
0.0
 40
3.5
 41
0.0
 71
     5
 72
     1
  1
\A1;26.5
  7
ゴシック体
1001
ACAD
1000
MTEXTBEGIN
1070
    73
1070
     1
1070
    44
1040
1.0
1070
    74
1070
     0
1000
MTEXTEND
  0
POINT
  5
12466
330
1245F
100
AcDbEntity
  8
DEFPOINTS
 62
     0
100
AcDbPoint
 10
-1562.085713490042
 20
1739.954441803991
 30
0.0
  0
POINT
  5
12467
330
1245F
100
AcDbEntity
  8
DEFPOINTS
 62
     0
100
AcDbPoint
 10
-1535.585941250036
 20
1739.965054096003
 30
0.0
  0
POINT
  5
12468
330
1245F
100
AcDbEntity
  8
DEFPOINTS
 62
     0
100
AcDbPoint
 10
-1535.585941250036
 20
1721.273556039855
 30
0.0
  0
ENDBLK
  5
1246A
330
1245F
100
AcDbEntity
  8
0
100
AcDbBlockEnd
  0
ENDSEC
  0
SECTION
  2
ENTITIES
  0
MTEXT
  5
5084
330
1A
100
AcDbEntity
  8
0
100
AcDbMText
 10
1985.239088685434
 20
-948.5420423450428
 30
0.0
 40
8.0
 41
0.0
 71
     7
 72
     5
  1

1001
ACAD
1000
MTEXTBEGIN
1070
    73
1070
     1
1070
    44
1040
1.0
1070
    74
1070
     0
1000
MTEXTEND
  0
MTEXT
  5
5085
330
1A
100
AcDbEntity
  8
0
100
AcDbMText
 10
4270.596778580329
 20
22.24825240601647
 30
0.0
 40
8.0
 41
0.0
 71
     7
 72
     5
  1

1001
ACAD
1000
MTEXTBEGIN
1070
    73
1070
     1
1070
    44
1040
1.0
1070
    74
1070
     0
1000
MTEXTEND
  0
MTEXT
  5
5343
330
1A
100
AcDbEntity
  8
SUNPOU
100
AcDbMText
 10
6936.493799262471
 20
9534.359644781137
 30
0.0
 40
10.5
 41
0.0
 71
     1
 72
     5
  1

1001
ACAD
1000
MTEXTBEGIN
1070
    73
1070
     1
1070
    44
1040
1.0
1070
    74
1070
     0
1000
MTEXTEND
  0
MTEXT
  5
544F
330
1A
100
AcDbEntity
  8
0
100
AcDbMText
 10
16317.2832773148
 20
12833.35428897674
 30
0.0
 40
8.0
 41
0.0
 71
     7
 72
     5
  1

1001
ACAD
1000
MTEXTBEGIN
1070
    73
1070
     1
1070
    44
1040
1.0
1070
    74
1070
     0
1000
MTEXTEND
  0
MTEXT
  5
5450
330
1A
100
AcDbEntity
  8
0
100
AcDbMText
 10
18602.64096720968
 20
13804.1445837278
 30
0.0
 40
8.0
 41
0.0
 71
     7
 72
     5
  1

1001
ACAD
1000
MTEXTBEGIN
1070
    73
1070
     1
1070
    44
1040
1.0
1070
    74
1070
     0
1000
MTEXTEND
  0
MTEXT
  5
5451
330
1A
100
AcDbEntity
  8
SUNPOU
100
AcDbMText
 10
21268.53798789184
 20
23316.25597610292
 30
0.0
 40
10.5
 41
0.0
 71
     1
 72
     5
  1

1001
ACAD
1000
MTEXTBEGIN
1070
    73
1070
     1
1070
    44
1040
1.0
1070
    74
1070
     0
1000
MTEXTEND
  0
MTEXT
  5
5452
330
1A
100
AcDbEntity
  8
SUNPOU
100
AcDbMText
 10
13337.6147919559
 20
22369.46284218996
 30
0.0
 40
10.5
 41
0.0
 71
     7
 72
     5
  1

1001
ACAD
1000
MTEXTBEGIN
1070
    73
1070
     1
1070
    44
1040
1.0
1070
    74
1070
     0
1000
MTEXTEND
  0
MTEXT
  5
5453
330
1A
100
AcDbEntity
  8
SUNPOU
100
AcDbMText
 10
16286.59845646867
 20
27270.13891403279
 30
0.0
 40
10.5
 41
0.0
 71
     7
 72
     5
  1

1001
ACAD
1000
MTEXTBEGIN
1070
    73
1070
     1
1070
    44
1040
1.0
1070
    74
1070
     0
1000
MTEXTEND
  0
MTEXT
  5
5454
330
1A
100
AcDbEntity
  8
SUNPOU
100
AcDbMText
 10
20795.67658441924
 20
29706.43966165288
 30
0.0
 40
10.5
 41
0.0
 71
     7
 72
     5
  1

1001
ACAD
1000
MTEXTBEGIN
1070
    73
1070
     1
1070
    44
1040
1.0
1070
    74
1070
     0
1000
MTEXTEND
  0
MTEXT
  5
5455
330
1A
100
AcDbEntity
  8
0
100
AcDbMText
 10
16611.93789220313
 20
14707.52144344448
 30
0.0
 40
8.0
 41
0.0
 71
     7
 72
     5
  1

1001
ACAD
1000
MTEXTBEGIN
1070
    73
1070
     1
1070
    44
1040
1.0
1070
    74
1070
     0
1000
MTEXTEND
  0
MTEXT
  5
5456
330
1A
100
AcDbEntity
  8
0
100
AcDbMText
 10
18897.29558209803
 20
15678.31173819554
 30
0.0
 40
8.0
 41
0.0
 71
     7
 72
     5
  1

1001
ACAD
1000
MTEXTBEGIN
1070
    73
1070
     1
1070
    44
1040
1.0
1070
    74
1070
     0
1000
MTEXTEND
  0
MTEXT
  5
5457
330
1A
100
AcDbEntity
  8
SUNPOU
100
AcDbMText
 10
21563.19260278019
 20
25190.42313057066
 30
0.0
 40
10.5
 41
0.0
 71
     1
 72
     5
  1

1001
ACAD
1000
MTEXTBEGIN
1070
    73
1070
     1
1070
    44
1040
1.0
1070
    74
1070
     0
1000
MTEXTEND
  0
MTEXT
  5
5458
330
1A
100
AcDbEntity
  8
SUNPOU
100
AcDbMText
 10
13632.26940684425
 20
24243.6299966577
 30
0.0
 40
10.5
 41
0.0
 71
     7
 72
     5
  1

1001
ACAD
1000
MTEXTBEGIN
1070
    73
1070
     1
1070
    44
1040
1.0
1070
    74
1070
     0
1000
MTEXTEND
  0
MTEXT
  5
5459
330
1A
100
AcDbEntity
  8
SUNPOU
100
AcDbMText
 10
16581.25307135702
 20
29144.30606850055
 30
0.0
 40
10.5
 41
0.0
 71
     7
 72
     5
  1

1001
ACAD
1000
MTEXTBEGIN
1070
    73
1070
     1
1070
    44
1040
1.0
1070
    74
1070
     0
1000
MTEXTEND
  0
MTEXT
  5
545A
330
1A
100
AcDbEntity
  8
SUNPOU
100
AcDbMText
 10
21090.33119930759
 20
31580.60681612062
 30
0.0
 40
10.5
 41
0.0
 71
     7
 72
     5
  1

1001
ACAD
1000
MTEXTBEGIN
1070
    73
1070
     1
1070
    44
1040
1.0
1070
    74
1070
     0
1000
MTEXTEND
  0
MTEXT
  5
545B
330
1A
100
AcDbEntity
  8
0
100
AcDbMText
 10
22871.60517627166
 20
23974.88367124799
 30
0.0
 40
8.0
 41
0.0
 71
     7
 72
     5
  1

1001
ACAD
1000
MTEXTBEGIN
1070
    73
1070
     1
1070
    44
1040
1.0
1070
    74
1070
     0
1000
MTEXTEND
  0
MTEXT
  5
545C
330
1A
100
AcDbEntity
  8
0
100
AcDbMText
 10
25156.96286616655
 20
24945.67396599904
 30
0.0
 40
8.0
 41
0.0
 71
     7
 72
     5
  1

1001
ACAD
1000
MTEXTBEGIN
1070
    73
1070
     1
1070
    44
1040
1.0
1070
    74
1070
     0
1000
MTEXTEND
  0
MTEXT
  5
545D
330
1A
100
AcDbEntity
  8
SUNPOU
100
AcDbMText
 10
27822.85988684871
 20
34457.78535837418
 30
0.0
 40
10.5
 41
0.0
 71
     1
 72
     5
  1

1001
ACAD
1000
MTEXTBEGIN
1070
    73
1070
     1
1070
    44
1040
1.0
1070
    74
1070
     0
1000
MTEXTEND
  0
MTEXT
  5
545E
330
1A
100
AcDbEntity
  8
SUNPOU
100
AcDbMText
 10
19891.93669091278
 20
33510.99222446122
 30
0.0
 40
10.5
 41
0.0
 71
     7
 72
     5
  1

1001
ACAD
1000
MTEXTBEGIN
1070
    73
1070
     1
1070
    44
1040
1.0
1070
    74
1070
     0
1000
MTEXTEND
  0
MTEXT
  5
545F
330
1A
100
AcDbEntity
  8
SUNPOU
100
AcDbMText
 10
22840.92035542555
 20
38411.66829630406
 30
0.0
 40
10.5
 41
0.0
 71
     7
 72
     5
  1

1001
ACAD
1000
MTEXTBEGIN
1070
    73
1070
     1
1070
    44
1040
1.0
1070
    74
1070
     0
1000
MTEXTEND
  0
MTEXT
  5
5460
330
1A
100
AcDbEntity
  8
SUNPOU
100
AcDbMText
 10
27349.99848337611
 20
40847.96904392415
 30
0.0
 40
10.5
 41
0.0
 71
     7
 72
     5
  1

1001
ACAD
1000
MTEXTBEGIN
1070
    73
1070
     1
1070
    44
1040
1.0
1070
    74
1070
     0
1000
MTEXTEND
  0
MTEXT
  5
55B7
330
1A
100
AcDbEntity
  8
SUNPOU
100
AcDbMText
 10
67424.23923338197
 20
64463.86602884816
 30
0.0
 40
10.5
 41
0.0
 71
     9
 72
     5
  1

1001
ACAD
1000
MTEXTBEGIN
1070
    73
1070
     1
1070
    44
1040
1.0
1070
    74
1070
     0
1000
MTEXTEND
  0
MTEXT
  5
55B8
330
1A
100
AcDbEntity
  8
SUNPOU
100
AcDbMText
 10
76146.40679929998
 20
71879.70056038563
 30
0.0
 40
10.5
 41
0.0
 71
     9
 72
     5
  1

1001
ACAD
1000
MTEXTBEGIN
1070
    73
1070
     1
1070
    44
1040
1.0
1070
    74
1070
     0
1000
MTEXTEND
  0
MTEXT
  5
55B9
330
1A
100
AcDbEntity
  8
SUNPOU
100
AcDbMText
 10
95100.16551662994
 20
89346.27661287766
 30
0.0
 40
10.5
 41
0.0
 71
     9
 72
     5
  1

1001
ACAD
1000
MTEXTBEGIN
1070
    73
1070
     1
1070
    44
1040
1.0
1070
    74
1070
     0
1000
MTEXTEND
  0
MTEXT
  5
55BA
330
1A
100
AcDbEntity
  8
SUNPOU
100
AcDbMText
 10
97043.57276333935
 20
87545.22753299966
 30
0.0
 40
3.5
 41
0.0
 71
     9
 72
     5
  1

1001
ACAD
1000
MTEXTBEGIN
1070
    73
1070
     1
1070
    44
1040
1.0
1070
    74
1070
     0
1000
MTEXTEND
  0
MTEXT
  5
55BB
330
1A
100
AcDbEntity
  8
SUNPOU
100
AcDbMText
 10
128169.7525959589
 20
130040.1732006569
 30
0.0
 40
10.5
 41
0.0
 71
     9
 72
     5
  1

1001
ACAD
1000
MTEXTBEGIN
1070
    73
1070
     1
1070
    44
1040
1.0
1070
    74
1070
     0
1000
MTEXTEND
  0
MTEXT
  5
55BC
330
1A
100
AcDbEntity
  8
SUNPOU
100
AcDbMText
 10
130113.1598426684
 20
128239.1241207789
 30
0.0
 40
3.5
 41
0.0
 71
     9
 72
     5
  1

1001
ACAD
1000
MTEXTBEGIN
1070
    73
1070
     1
1070
    44
1040
1.0
1070
    74
1070
     0
1000
MTEXTEND
  0
MTEXT
  5
55BD
330
1A
100
AcDbEntity
  8
SUNPOU
100
AcDbMText
 10
78610.02030175463
 20
75873.33835563206
 30
0.0
 40
10.5
 41
0.0
 71
     9
 72
     5
  1

1001
ACAD
1000
MTEXTBEGIN
1070
    73
1070
     1
1070
    44
1040
1.0
1070
    74
1070
     0
1000
MTEXTEND
  0
MTEXT
  5
55BE
330
1A
100
AcDbEntity
  8
SUNPOU
100
AcDbMText
 10
64662.02020137862
 20
56700.93921651987
 30
0.0
 40
3.5
 41
0.0
 71
     7
 72
     5
  1

1001
ACAD
1000
MTEXTBEGIN
1070
    73
1070
     1
1070
    44
1040
1.0
1070
    74
1070
     0
1000
MTEXTEND
  0
MTEXT
  5
55BF
330
1A
100
AcDbEntity
  8
SUNPOU
100
AcDbMText
 10
45647.18959837176
 20
44463.08794733806
 30
0.0
 40
10.5
 41
0.0
 71
     7
 72
     5
  1

1001
ACAD
1000
MTEXTBEGIN
1070
    73
1070
     1
1070
    44
1040
1.0
1070
    74
1070
     0
1000
MTEXTEND
  0
MTEXT
  5
55C0
330
1A
100
AcDbEntity
  8
SUNPOU
100
AcDbMText
 10
33189.96133342368
 20
28618.15636923965
 30
0.0
 40
35.0
 41
0.0
 71
     9
 72
     5
  1

1001
ACAD
1000
MTEXTBEGIN
1070
    73
1070
     1
1070
    44
1040
1.0
1070
    74
1070
     0
1000
MTEXTEND
  0
MTEXT
  5
55C1
330
1A
100
AcDbEntity
  8
SUNPOU
100
AcDbMText
 10
32098.44639099864
 20
29226.93177928834
 30
0.0
 40
350.0000004171781
 41
0.0
 71
     7
 72
     5
  1

1001
ACAD
1000
MTEXTBEGIN
1070
    73
1070
     1
1070
    44
1040
1.0
1070
    74
1070
     0
1000
MTEXTEND
  0
MTEXT
  5
55C2
330
1A
100
AcDbEntity
  8
0
100
AcDbMText
 10
38142.39714894154
 20
27206.85414142458
 30
0.0
 40
8.0
 41
0.0
 71
     7
 72
     5
  1

1001
ACAD
1000
MTEXTBEGIN
1070
    73
1070
     1
1070
    44
1040
1.0
1070
    74
1070
     0
1000
MTEXTEND
  0
MTEXT
  5
55C3
330
1A
100
AcDbEntity
  8
0
100
AcDbMText
 10
40427.75483883644
 20
28177.64443617564
 30
0.0
 40
8.0
 41
0.0
 71
     7
 72
     5
  1

1001
ACAD
1000
MTEXTBEGIN
1070
    73
1070
     1
1070
    44
1040
1.0
1070
    74
1070
     0
1000
MTEXTEND
  0
MTEXT
  5
55C4
330
1A
100
AcDbEntity
  8
SUNPOU
100
AcDbMText
 10
43093.65185951858
 20
37689.75582855077
 30
0.0
 40
10.5
 41
0.0
 71
     1
 72
     5
  1

1001
ACAD
1000
MTEXTBEGIN
1070
    73
1070
     1
1070
    44
1040
1.0
1070
    74
1070
     0
1000
MTEXTEND
  0
MTEXT
  5
55C5
330
1A
100
AcDbEntity
  8
SUNPOU
100
AcDbMText
 10
35162.72866358265
 20
36742.96269463781
 30
0.0
 40
10.5
 41
0.0
 71
     7
 72
     5
  1

1001
ACAD
1000
MTEXTBEGIN
1070
    73
1070
     1
1070
    44
1040
1.0
1070
    74
1070
     0
1000
MTEXTEND
  0
MTEXT
  5
55C6
330
1A
100
AcDbEntity
  8
SUNPOU
100
AcDbMText
 10
38111.71232809542
 20
41643.63876648065
 30
0.0
 40
10.5
 41
0.0
 71
     7
 72
     5
  1

1001
ACAD
1000
MTEXTBEGIN
1070
    73
1070
     1
1070
    44
1040
1.0
1070
    74
1070
     0
1000
MTEXTEND
  0
MTEXT
  5
55C7
330
1A
100
AcDbEntity
  8
SUNPOU
100
AcDbMText
 10
42620.79045604596
 20
44079.93951410074
 30
0.0
 40
10.5
 41
0.0
 71
     7
 72
     5
  1

1001
ACAD
1000
MTEXTBEGIN
1070
    73
1070
     1
1070
    44
1040
1.0
1070
    74
1070
     0
1000
MTEXTEND
  0
MTEXT
  5
55C8
330
1A
100
AcDbEntity
  8
SUNPOU
100
AcDbMText
 10
26221.62834281429
 20
23077.53566448964
 30
0.0
 40
10.5
 41
0.0
 71
     7
 72
     5
  1

1001
ACAD
1000
MTEXTBEGIN
1070
    73
1070
     1
1070
    44
1040
1.0
1070
    74
1070
     0
1000
MTEXTEND
  0
MTEXT
  5
55C9
330
1A
100
AcDbEntity
  8
SUNPOU
100
AcDbMText
 10
77413.14677671455
 20
68750.51622813789
 30
0.0
 40
10.5
 41
0.0
 71
     9
 72
     5
  1

1001
ACAD
1000
MTEXTBEGIN
1070
    73
1070
     1
1070
    44
1040
1.0
1070
    74
1070
     0
1000
MTEXTEND
  0
MTEXT
  5
55CA
330
1A
100
AcDbEntity
  8
SUNPOU
100
AcDbMText
 10
86135.31434263256
 20
76166.35075967536
 30
0.0
 40
10.5
 41
0.0
 71
     9
 72
     5
  1

1001
ACAD
1000
MTEXTBEGIN
1070
    73
1070
     1
1070
    44
1040
1.0
1070
    74
1070
     0
1000
MTEXTEND
  0
MTEXT
  5
55CB
330
1A
100
AcDbEntity
  8
SUNPOU
100
AcDbMText
 10
105089.0730599624
 20
93632.92681216739
 30
0.0
 40
10.5
 41
0.0
 71
     9
 72
     5
  1

1001
ACAD
1000
MTEXTBEGIN
1070
    73
1070
     1
1070
    44
1040
1.0
1070
    74
1070
     0
1000
MTEXTEND
  0
MTEXT
  5
55CC
330
1A
100
AcDbEntity
  8
SUNPOU
100
AcDbMText
 10
107032.4803066718
 20
91831.87773228937
 30
0.0
 40
3.5
 41
0.0
 71
     9
 72
     5
  1

1001
ACAD
1000
MTEXTBEGIN
1070
    73
1070
     1
1070
    44
1040
1.0
1070
    74
1070
     0
1000
MTEXTEND
  0
MTEXT
  5
55CD
330
1A
100
AcDbEntity
  8
SUNPOU
100
AcDbMText
 10
138158.6601392916
 20
134326.8233999467
 30
0.0
 40
10.5
 41
0.0
 71
     9
 72
     5
  1

1001
ACAD
1000
MTEXTBEGIN
1070
    73
1070
     1
1070
    44
1040
1.0
1070
    74
1070
     0
1000
MTEXTEND
  0
MTEXT
  5
55CE
330
1A
100
AcDbEntity
  8
SUNPOU
100
AcDbMText
 10
140102.067386001
 20
132525.7743200686
 30
0.0
 40
3.5
 41
0.0
 71
     9
 72
     5
  1

1001
ACAD
1000
MTEXTBEGIN
1070
    73
1070
     1
1070
    44
1040
1.0
1070
    74
1070
     0
1000
MTEXTEND
  0
MTEXT
  5
55CF
330
1A
100
AcDbEntity
  8
SUNPOU
100
AcDbMText
 10
88598.92784508721
 20
80159.98855492179
 30
0.0
 40
10.5
 41
0.0
 71
     9
 72
     5
  1

1001
ACAD
1000
MTEXTBEGIN
1070
    73
1070
     1
1070
    44
1040
1.0
1070
    74
1070
     0
1000
MTEXTEND
  0
MTEXT
  5
55D0
330
1A
100
AcDbEntity
  8
SUNPOU
100
AcDbMText
 10
74650.92774471121
 20
60987.58941580959
 30
0.0
 40
3.5
 41
0.0
 71
     7
 72
     5
  1

1001
ACAD
1000
MTEXTBEGIN
1070
    73
1070
     1
1070
    44
1040
1.0
1070
    74
1070
     0
1000
MTEXTEND
  0
MTEXT
  5
55D1
330
1A
100
AcDbEntity
  8
SUNPOU
100
AcDbMText
 10
55636.09714170436
 20
48749.73814662781
 30
0.0
 40
10.5
 41
0.0
 71
     7
 72
     5
  1

1001
ACAD
1000
MTEXTBEGIN
1070
    73
1070
     1
1070
    44
1040
1.0
1070
    74
1070
     0
1000
MTEXTEND
  0
MTEXT
  5
55D2
330
1A
100
AcDbEntity
  8
SUNPOU
100
AcDbMText
 10
43178.86887675626
 20
32904.80656852937
 30
0.0
 40
35.0
 41
0.0
 71
     9
 72
     5
  1

1001
ACAD
1000
MTEXTBEGIN
1070
    73
1070
     1
1070
    44
1040
1.0
1070
    74
1070
     0
1000
MTEXTEND
  0
MTEXT
  5
55D3
330
1A
100
AcDbEntity
  8
SUNPOU
100
AcDbMText
 10
42087.3539343312
 20
33513.58197857808
 30
0.0
 40
350.0000004171781
 41
0.0
 71
     7
 72
     5
  1

1001
ACAD
1000
MTEXTBEGIN
1070
    73
1070
     1
1070
    44
1040
1.0
1070
    74
1070
     0
1000
MTEXTEND
  0
MTEXT
  5
55D4
330
1A
100
AcDbEntity
  8
0
100
AcDbMText
 10
48131.30469227412
 20
31493.50434071431
 30
0.0
 40
8.0
 41
0.0
 71
     7
 72
     5
  1

1001
ACAD
1000
MTEXTBEGIN
1070
    73
1070
     1
1070
    44
1040
1.0
1070
    74
1070
     0
1000
MTEXTEND
  0
MTEXT
  5
55D5
330
1A
100
AcDbEntity
  8
0
100
AcDbMText
 10
50416.66238216901
 20
32464.29463546537
 30
0.0
 40
8.0
 41
0.0
 71
     7
 72
     5
  1

1001
ACAD
1000
MTEXTBEGIN
1070
    73
1070
     1
1070
    44
1040
1.0
1070
    74
1070
     0
1000
MTEXTEND
  0
MTEXT
  5
55D6
330
1A
100
AcDbEntity
  8
SUNPOU
100
AcDbMText
 10
53082.55940285115
 20
41976.4060278405
 30
0.0
 40
10.5
 41
0.0
 71
     1
 72
     5
  1

1001
ACAD
1000
MTEXTBEGIN
1070
    73
1070
     1
1070
    44
1040
1.0
1070
    74
1070
     0
1000
MTEXTEND
  0
MTEXT
  5
55D7
330
1A
100
AcDbEntity
  8
SUNPOU
100
AcDbMText
 10
45151.63620691521
 20
41029.61289392755
 30
0.0
 40
10.5
 41
0.0
 71
     7
 72
     5
  1

1001
ACAD
1000
MTEXTBEGIN
1070
    73
1070
     1
1070
    44
1040
1.0
1070
    74
1070
     0
1000
MTEXTEND
  0
MTEXT
  5
55D8
330
1A
100
AcDbEntity
  8
SUNPOU
100
AcDbMText
 10
48100.61987142798
 20
45930.28896577039
 30
0.0
 40
10.5
 41
0.0
 71
     7
 72
     5
  1

1001
ACAD
1000
MTEXTBEGIN
1070
    73
1070
     1
1070
    44
1040
1.0
1070
    74
1070
     0
1000
MTEXTEND
  0
MTEXT
  5
55D9
330
1A
100
AcDbEntity
  8
SUNPOU
100
AcDbMText
 10
52609.69799937853
 20
48366.58971339046
 30
0.0
 40
10.5
 41
0.0
 71
     7
 72
     5
  1

1001
ACAD
1000
MTEXTBEGIN
1070
    73
1070
     1
1070
    44
1040
1.0
1070
    74
1070
     0
1000
MTEXTEND
  0
MTEXT
  5
55DA
330
1A
100
AcDbEntity
  8
SUNPOU
100
AcDbMText
 10
36210.53588614687
 20
27364.18586377937
 30
0.0
 40
10.5
 41
0.0
 71
     7
 72
     5
  1

1001
ACAD
1000
MTEXTBEGIN
1070
    73
1070
     1
1070
    44
1040
1.0
1070
    74
1070
     0
1000
MTEXTEND
  0
MTEXT
  5
55DB
330
1A
100
AcDbEntity
  8
SUNPOU
100
AcDbMText
 10
38021.29879752181
 20
33691.59985125794
 30
0.0
 40
10.5
 41
0.0
 71
     9
 72
     5
  1

1001
ACAD
1000
MTEXTBEGIN
1070
    73
1070
     1
1070
    44
1040
1.0
1070
    74
1070
     0
1000
MTEXTEND
  0
MTEXT
  5
55DC
330
1A
100
AcDbEntity
  8
SUNPOU
100
AcDbMText
 10
46743.46636343979
 20
41107.4343827954
 30
0.0
 40
10.5
 41
0.0
 71
     9
 72
     5
  1

1001
ACAD
1000
MTEXTBEGIN
1070
    73
1070
     1
1070
    44
1040
1.0
1070
    74
1070
     0
1000
MTEXTEND
  0
MTEXT
  5
55DD
330
1A
100
AcDbEntity
  8
SUNPOU
100
AcDbMText
 10
65697.22508076974
 20
58574.01043528746
 30
0.0
 40
10.5
 41
0.0
 71
     9
 72
     5
  1

1001
ACAD
1000
MTEXTBEGIN
1070
    73
1070
     1
1070
    44
1040
1.0
1070
    74
1070
     0
1000
MTEXTEND
  0
MTEXT
  5
55DE
330
1A
100
AcDbEntity
  8
SUNPOU
100
AcDbMText
 10
67640.63232747917
 20
56772.96135540945
 30
0.0
 40
3.5
 41
0.0
 71
     9
 72
     5
  1

1001
ACAD
1000
MTEXTBEGIN
1070
    73
1070
     1
1070
    44
1040
1.0
1070
    74
1070
     0
1000
MTEXTEND
  0
MTEXT
  5
55DF
330
1A
100
AcDbEntity
  8
SUNPOU
100
AcDbMText
 10
98766.81216009886
 20
99267.9070230668
 30
0.0
 40
10.5
 41
0.0
 71
     9
 72
     5
  1

1001
ACAD
1000
MTEXTBEGIN
1070
    73
1070
     1
1070
    44
1040
1.0
1070
    74
1070
     0
1000
MTEXTEND
  0
MTEXT
  5
55E0
330
1A
100
AcDbEntity
  8
SUNPOU
100
AcDbMText
 10
100710.2194068083
 20
97466.85794318876
 30
0.0
 40
3.5
 41
0.0
 71
     9
 72
     5
  1

1001
ACAD
1000
MTEXTBEGIN
1070
    73
1070
     1
1070
    44
1040
1.0
1070
    74
1070
     0
1000
MTEXTEND
  0
MTEXT
  5
55E1
330
1A
100
AcDbEntity
  8
SUNPOU
100
AcDbMText
 10
49207.07986589443
 20
45101.07217804184
 30
0.0
 40
10.5
 41
0.0
 71
     9
 72
     5
  1

1001
ACAD
1000
MTEXTBEGIN
1070
    73
1070
     1
1070
    44
1040
1.0
1070
    74
1070
     0
1000
MTEXTEND
  0
MTEXT
  5
55E2
330
1A
100
AcDbEntity
  8
SUNPOU
100
AcDbMText
 10
35259.07976551845
 20
25928.67303892964
 30
0.0
 40
3.5
 41
0.0
 71
     7
 72
     5
  1

1001
ACAD
1000
MTEXTBEGIN
1070
    73
1070
     1
1070
    44
1040
1.0
1070
    74
1070
     0
1000
MTEXTEND
  0
MTEXT
  5
55E3
330
1A
100
AcDbEntity
  8
SUNPOU
100
AcDbMText
 10
48951.43044828905
 20
35287.73625995099
 30
0.0
 40
10.5
 41
0.0
 71
     9
 72
     5
  1

1001
ACAD
1000
MTEXTBEGIN
1070
    73
1070
     1
1070
    44
1040
1.0
1070
    74
1070
     0
1000
MTEXTEND
  0
MTEXT
  5
55E4
330
1A
100
AcDbEntity
  8
SUNPOU
100
AcDbMText
 10
57673.59801420702
 20
42703.57079148847
 30
0.0
 40
10.5
 41
0.0
 71
     9
 72
     5
  1

1001
ACAD
1000
MTEXTBEGIN
1070
    73
1070
     1
1070
    44
1040
1.0
1070
    74
1070
     0
1000
MTEXTEND
  0
MTEXT
  5
55E5
330
1A
100
AcDbEntity
  8
SUNPOU
100
AcDbMText
 10
76627.35673153699
 20
60170.14684398051
 30
0.0
 40
10.5
 41
0.0
 71
     9
 72
     5
  1

1001
ACAD
1000
MTEXTBEGIN
1070
    73
1070
     1
1070
    44
1040
1.0
1070
    74
1070
     0
1000
MTEXTEND
  0
MTEXT
  5
55E6
330
1A
100
AcDbEntity
  8
SUNPOU
100
AcDbMText
 10
78570.76397824641
 20
58369.09776410251
 30
0.0
 40
3.5
 41
0.0
 71
     9
 72
     5
  1

1001
ACAD
1000
MTEXTBEGIN
1070
    73
1070
     1
1070
    44
1040
1.0
1070
    74
1070
     0
1000
MTEXTEND
  0
MTEXT
  5
55E7
330
1A
100
AcDbEntity
  8
SUNPOU
100
AcDbMText
 10
109696.943810866
 20
100864.0434317598
 30
0.0
 40
10.5
 41
0.0
 71
     9
 72
     5
  1

1001
ACAD
1000
MTEXTBEGIN
1070
    73
1070
     1
1070
    44
1040
1.0
1070
    74
1070
     0
1000
MTEXTEND
  0
MTEXT
  5
55E8
330
1A
100
AcDbEntity
  8
SUNPOU
100
AcDbMText
 10
111640.3510575755
 20
99062.99435188183
 30
0.0
 40
3.5
 41
0.0
 71
     9
 72
     5
  1

1001
ACAD
1000
MTEXTBEGIN
1070
    73
1070
     1
1070
    44
1040
1.0
1070
    74
1070
     0
1000
MTEXTEND
  0
MTEXT
  5
55E9
330
1A
100
AcDbEntity
  8
SUNPOU
100
AcDbMText
 10
60137.21151666167
 20
46697.20858673491
 30
0.0
 40
10.5
 41
0.0
 71
     9
 72
     5
  1

1001
ACAD
1000
MTEXTBEGIN
1070
    73
1070
     1
1070
    44
1040
1.0
1070
    74
1070
     0
1000
MTEXTEND
  0
MTEXT
  5
55EA
330
1A
100
AcDbEntity
  8
SUNPOU
100
AcDbMText
 10
46189.21141628568
 20
27524.80944762269
 30
0.0
 40
3.5
 41
0.0
 71
     7
 72
     5
  1

1001
ACAD
1000
MTEXTBEGIN
1070
    73
1070
     1
1070
    44
1040
1.0
1070
    74
1070
     0
1000
MTEXTEND
  0
MTEXT
  5
55EB
330
1A
100
AcDbEntity
  8
SUNPOU
100
AcDbMText
 10
45007.68847015541
 20
38269.57947701873
 30
0.0
 40
10.5
 41
0.0
 71
     9
 72
     5
  1

1001
ACAD
1000
MTEXTBEGIN
1070
    73
1070
     1
1070
    44
1040
1.0
1070
    74
1070
     0
1000
MTEXTEND
  0
MTEXT
  5
55EC
330
1A
100
AcDbEntity
  8
SUNPOU
100
AcDbMText
 10
63961.44718748539
 20
55736.15552951081
 30
0.0
 40
10.5
 41
0.0
 71
     9
 72
     5
  1

1001
ACAD
1000
MTEXTBEGIN
1070
    73
1070
     1
1070
    44
1040
1.0
1070
    74
1070
     0
1000
MTEXTEND
  0
MTEXT
  5
55ED
330
1A
100
AcDbEntity
  8
SUNPOU
100
AcDbMText
 10
65904.85443419479
 20
53935.10644963278
 30
0.0
 40
3.5
 41
0.0
 71
     9
 72
     5
  1

1001
ACAD
1000
MTEXTBEGIN
1070
    73
1070
     1
1070
    44
1040
1.0
1070
    74
1070
     0
1000
MTEXTEND
  0
MTEXT
  5
55EE
330
1A
100
AcDbEntity
  8
SUNPOU
100
AcDbMText
 10
97031.03426681453
 20
96430.05211729015
 30
0.0
 40
10.5
 41
0.0
 71
     9
 72
     5
  1

1001
ACAD
1000
MTEXTBEGIN
1070
    73
1070
     1
1070
    44
1040
1.0
1070
    74
1070
     0
1000
MTEXTEND
  0
MTEXT
  5
55EF
330
1A
100
AcDbEntity
  8
SUNPOU
100
AcDbMText
 10
98974.44151352393
 20
94629.00303741212
 30
0.0
 40
3.5
 41
0.0
 71
     9
 72
     5
  1

1001
ACAD
1000
MTEXTBEGIN
1070
    73
1070
     1
1070
    44
1040
1.0
1070
    74
1070
     0
1000
MTEXTEND
  0
MTEXT
  5
55F0
330
1A
100
AcDbEntity
  8
SUNPOU
100
AcDbMText
 10
47471.30197261006
 20
42263.21727226519
 30
0.0
 40
10.5
 41
0.0
 71
     9
 72
     5
  1

1001
ACAD
1000
MTEXTBEGIN
1070
    73
1070
     1
1070
    44
1040
1.0
1070
    74
1070
     0
1000
MTEXTEND
  0
MTEXT
  5
55F1
330
1A
100
AcDbEntity
  8
SUNPOU
100
AcDbMText
 10
33523.30187223408
 20
23090.81813315298
 30
0.0
 40
3.5
 41
0.0
 71
     7
 72
     5
  1

1001
ACAD
1000
MTEXTBEGIN
1070
    73
1070
     1
1070
    44
1040
1.0
1070
    74
1070
     0
1000
MTEXTEND
  0
MTEXT
  5
55F2
330
1A
100
AcDbEntity
  8
SUNPOU
100
AcDbMText
 10
57959.46254102503
 20
50038.08111611014
 30
0.0
 40
10.5
 41
0.0
 71
     9
 72
     5
  1

1001
ACAD
1000
MTEXTBEGIN
1070
    73
1070
     1
1070
    44
1040
1.0
1070
    74
1070
     0
1000
MTEXTEND
  0
MTEXT
  5
55F3
330
1A
100
AcDbEntity
  8
SUNPOU
100
AcDbMText
 10
76913.22125835503
 20
67504.65716860222
 30
0.0
 40
10.5
 41
0.0
 71
     9
 72
     5
  1

1001
ACAD
1000
MTEXTBEGIN
1070
    73
1070
     1
1070
    44
1040
1.0
1070
    74
1070
     0
1000
MTEXTEND
  0
MTEXT
  5
55F4
330
1A
100
AcDbEntity
  8
SUNPOU
100
AcDbMText
 10
78856.62850506443
 20
65703.6080887242
 30
0.0
 40
3.5
 41
0.0
 71
     9
 72
     5
  1

1001
ACAD
1000
MTEXTBEGIN
1070
    73
1070
     1
1070
    44
1040
1.0
1070
    74
1070
     0
1000
MTEXTEND
  0
MTEXT
  5
55F5
330
1A
100
AcDbEntity
  8
SUNPOU
100
AcDbMText
 10
109982.8083376841
 20
108198.5537563815
 30
0.0
 40
10.5
 41
0.0
 71
     9
 72
     5
  1

1001
ACAD
1000
MTEXTBEGIN
1070
    73
1070
     1
1070
    44
1040
1.0
1070
    74
1070
     0
1000
MTEXTEND
  0
MTEXT
  5
55F6
330
1A
100
AcDbEntity
  8
SUNPOU
100
AcDbMText
 10
111926.2155843933
 20
106397.5046765035
 30
0.0
 40
3.5
 41
0.0
 71
     9
 72
     5
  1

1001
ACAD
1000
MTEXTBEGIN
1070
    73
1070
     1
1070
    44
1040
1.0
1070
    74
1070
     0
1000
MTEXTEND
  0
MTEXT
  5
55F7
330
1A
100
AcDbEntity
  8
SUNPOU
100
AcDbMText
 10
60423.07604347968
 20
54031.71891135658
 30
0.0
 40
10.5
 41
0.0
 71
     9
 72
     5
  1

1001
ACAD
1000
MTEXTBEGIN
1070
    73
1070
     1
1070
    44
1040
1.0
1070
    74
1070
     0
1000
MTEXTEND
  0
MTEXT
  5
55F8
330
1A
100
AcDbEntity
  8
SUNPOU
100
AcDbMText
 10
46475.07594310369
 20
34859.3197722444
 30
0.0
 40
3.5
 41
0.0
 71
     7
 72
     5
  1

1001
ACAD
1000
MTEXTBEGIN
1070
    73
1070
     1
1070
    44
1040
1.0
1070
    74
1070
     0
1000
MTEXTEND
  0
MTEXT
  5
55F9
330
1A
100
AcDbEntity
  8
SUNPOU
100
AcDbMText
 10
74027.35402123588
 20
68370.58278833383
 30
0.0
 40
10.5
 41
0.0
 71
     9
 72
     5
  1

1001
ACAD
1000
MTEXTBEGIN
1070
    73
1070
     1
1070
    44
1040
1.0
1070
    74
1070
     0
1000
MTEXTEND
  0
MTEXT
  5
55FA
330
1A
100
AcDbEntity
  8
SUNPOU
100
AcDbMText
 10
75970.7612679453
 20
66569.53370845583
 30
0.0
 40
3.5
 41
0.0
 71
     9
 72
     5
  1

1001
ACAD
1000
MTEXTBEGIN
1070
    73
1070
     1
1070
    44
1040
1.0
1070
    74
1070
     0
1000
MTEXTEND
  0
MTEXT
  5
55FB
330
1A
100
AcDbEntity
  8
SUNPOU
100
AcDbMText
 10
107096.941100565
 20
109064.4793761132
 30
0.0
 40
10.5
 41
0.0
 71
     9
 72
     5
  1

1001
ACAD
1000
MTEXTBEGIN
1070
    73
1070
     1
1070
    44
1040
1.0
1070
    74
1070
     0
1000
MTEXTEND
  0
MTEXT
  5
55FC
330
1A
100
AcDbEntity
  8
SUNPOU
100
AcDbMText
 10
109040.3483472744
 20
107263.430296235
 30
0.0
 40
3.5
 41
0.0
 71
     9
 72
     5
  1

1001
ACAD
1000
MTEXTBEGIN
1070
    73
1070
     1
1070
    44
1040
1.0
1070
    74
1070
     0
1000
MTEXTEND
  0
MTEXT
  5
55FD
330
1A
100
AcDbEntity
  8
SUNPOU
100
AcDbMText
 10
105709.1709283621
 20
108141.3777665285
 30
0.0
 40
10.5
 41
0.0
 71
     9
 72
     5
  1

1001
ACAD
1000
MTEXTBEGIN
1070
    73
1070
     1
1070
    44
1040
1.0
1070
    74
1070
     0
1000
MTEXTEND
  0
MTEXT
  5
55FE
330
1A
100
AcDbEntity
  8
SUNPOU
100
AcDbMText
 10
107652.5781750715
 20
106340.3286866505
 30
0.0
 40
3.5
 41
0.0
 71
     9
 72
     5
  1

1001
ACAD
1000
MTEXTBEGIN
1070
    73
1070
     1
1070
    44
1040
1.0
1070
    74
1070
     0
1000
MTEXTEND
  0
MTEXT
  5
55FF
330
1A
100
AcDbEntity
  8
SUNPOU
100
AcDbMText
 10
73193.09268743351
 20
66158.78082845057
 30
0.0
 40
10.5
 41
0.0
 71
     9
 72
     5
  1

1001
ACAD
1000
MTEXTBEGIN
1070
    73
1070
     1
1070
    44
1040
1.0
1070
    74
1070
     0
1000
MTEXTEND
  0
MTEXT
  5
5600
330
1A
100
AcDbEntity
  8
SUNPOU
100
AcDbMText
 10
75916.39889159807
 20
66563.46252003162
 30
0.0
 40
3.5
 41
0.0
 71
     9
 72
     5
  1

1001
ACAD
1000
MTEXTBEGIN
1070
    73
1070
     1
1070
    44
1040
1.0
1070
    74
1070
     0
1000
MTEXTEND
  0
MTEXT
  5
5601
330
1A
100
AcDbEntity
  8
SUNPOU
100
AcDbMText
 10
75124.04436649058
 20
63402.1566819768
 30
0.0
 40
10.5
 41
0.0
 71
     9
 72
     5
  1

1001
ACAD
1000
MTEXTBEGIN
1070
    73
1070
     1
1070
    44
1040
1.0
1070
    74
1070
     0
1000
MTEXTEND
  0
MTEXT
  5
5602
330
1A
100
AcDbEntity
  8
SUNPOU
100
AcDbMText
 10
77067.4516132
 20
61601.1076020988
 30
0.0
 40
3.5
 41
0.0
 71
     9
 72
     5
  1

1001
ACAD
1000
MTEXTBEGIN
1070
    73
1070
     1
1070
    44
1040
1.0
1070
    74
1070
     0
1000
MTEXTEND
  0
MTEXT
  5
5603
330
1A
100
AcDbEntity
  8
SUNPOU
100
AcDbMText
 10
77012.54710378659
 20
61488.33571981449
 30
0.0
 40
3.5
 41
0.0
 71
     9
 72
     5
  1

1001
ACAD
1000
MTEXTBEGIN
1070
    73
1070
     1
1070
    44
1040
1.0
1070
    74
1070
     0
1000
MTEXTEND
  0
MTEXT
  5
5604
330
1A
100
AcDbEntity
  8
SUNPOU
100
AcDbMText
 10
76376.61896736668
 20
60677.01447874798
 30
0.0
 40
3.5
 41
0.0
 71
     9
 72
     5
  1

1001
ACAD
1000
MTEXTBEGIN
1070
    73
1070
     1
1070
    44
1040
1.0
1070
    74
1070
     0
1000
MTEXTEND
  0
MTEXT
  5
5605
330
1A
100
AcDbEntity
  8
SUNPOU
100
AcDbMText
 10
76375.37854794595
 20
60676.76650181048
 30
0.0
 40
10.5
 41
0.0
 71
     9
 72
     5
  1

1001
ACAD
1000
MTEXTBEGIN
1070
    73
1070
     1
1070
    44
1040
1.0
1070
    74
1070
     0
1000
MTEXTEND
  0
MTEXT
  5
5606
330
1A
100
AcDbEntity
  8
SUNPOU
100
AcDbMText
 10
84709.93991079748
 20
78034.0328293557
 30
0.0
 40
10.5
 41
0.0
 71
     9
 72
     5
  1

1001
ACAD
1000
MTEXTBEGIN
1070
    73
1070
     1
1070
    44
1040
1.0
1070
    74
1070
     0
1000
MTEXTEND
  0
MTEXT
  5
5607
330
1A
100
AcDbEntity
  8
SUNPOU
100
AcDbMText
 10
93432.10747671546
 20
85449.86736089315
 30
0.0
 40
10.5
 41
0.0
 71
     9
 72
     5
  1

1001
ACAD
1000
MTEXTBEGIN
1070
    73
1070
     1
1070
    44
1040
1.0
1070
    74
1070
     0
1000
MTEXTEND
  0
MTEXT
  5
5608
330
1A
100
AcDbEntity
  8
SUNPOU
100
AcDbMText
 10
112385.8661940454
 20
102916.4434133851
 30
0.0
 40
10.5
 41
0.0
 71
     9
 72
     5
  1

1001
ACAD
1000
MTEXTBEGIN
1070
    73
1070
     1
1070
    44
1040
1.0
1070
    74
1070
     0
1000
MTEXTEND
  0
MTEXT
  5
5609
330
1A
100
AcDbEntity
  8
SUNPOU
100
AcDbMText
 10
114329.2734407548
 20
101115.3943335072
 30
0.0
 40
3.5
 41
0.0
 71
     9
 72
     5
  1

1001
ACAD
1000
MTEXTBEGIN
1070
    73
1070
     1
1070
    44
1040
1.0
1070
    74
1070
     0
1000
MTEXTEND
  0
MTEXT
  5
560A
330
1A
100
AcDbEntity
  8
SUNPOU
100
AcDbMText
 10
145455.4532733745
 20
143610.3400011645
 30
0.0
 40
10.5
 41
0.0
 71
     9
 72
     5
  1

1001
ACAD
1000
MTEXTBEGIN
1070
    73
1070
     1
1070
    44
1040
1.0
1070
    74
1070
     0
1000
MTEXTEND
  0
MTEXT
  5
560B
330
1A
100
AcDbEntity
  8
SUNPOU
100
AcDbMText
 10
147398.8605200839
 20
141809.2909212864
 30
0.0
 40
3.5
 41
0.0
 71
     9
 72
     5
  1

1001
ACAD
1000
MTEXTBEGIN
1070
    73
1070
     1
1070
    44
1040
1.0
1070
    74
1070
     0
1000
MTEXTEND
  0
MTEXT
  5
560C
330
1A
100
AcDbEntity
  8
SUNPOU
100
AcDbMText
 10
95895.72097917011
 20
89443.50515613962
 30
0.0
 40
10.5
 41
0.0
 71
     9
 72
     5
  1

1001
ACAD
1000
MTEXTBEGIN
1070
    73
1070
     1
1070
    44
1040
1.0
1070
    74
1070
     0
1000
MTEXTEND
  0
MTEXT
  5
560D
330
1A
100
AcDbEntity
  8
SUNPOU
100
AcDbMText
 10
81947.72087879414
 20
70271.1060170274
 30
0.0
 40
3.5
 41
0.0
 71
     7
 72
     5
  1

1001
ACAD
1000
MTEXTBEGIN
1070
    73
1070
     1
1070
    44
1040
1.0
1070
    74
1070
     0
1000
MTEXTEND
  0
MTEXT
  5
560E
330
1A
100
AcDbEntity
  8
SUNPOU
100
AcDbMText
 10
62932.89027578729
 20
58033.25474784561
 30
0.0
 40
10.5
 41
0.0
 71
     7
 72
     5
  1

1001
ACAD
1000
MTEXTBEGIN
1070
    73
1070
     1
1070
    44
1040
1.0
1070
    74
1070
     0
1000
MTEXTEND
  0
MTEXT
  5
560F
330
1A
100
AcDbEntity
  8
SUNPOU
100
AcDbMText
 10
50475.66201083918
 20
42188.32316974718
 30
0.0
 40
35.0
 41
0.0
 71
     9
 72
     5
  1

1001
ACAD
1000
MTEXTBEGIN
1070
    73
1070
     1
1070
    44
1040
1.0
1070
    74
1070
     0
1000
MTEXTEND
  0
MTEXT
  5
5610
330
1A
100
AcDbEntity
  8
SUNPOU
100
AcDbMText
 10
49384.14706841413
 20
42797.0985797959
 30
0.0
 40
350.0000004171781
 41
0.0
 71
     7
 72
     5
  1

1001
ACAD
1000
MTEXTBEGIN
1070
    73
1070
     1
1070
    44
1040
1.0
1070
    74
1070
     0
1000
MTEXTEND
  0
MTEXT
  5
5611
330
1A
100
AcDbEntity
  8
0
100
AcDbMText
 10
55428.09782635704
 20
40777.0209419321
 30
0.0
 40
8.0
 41
0.0
 71
     7
 72
     5
  1

1001
ACAD
1000
MTEXTBEGIN
1070
    73
1070
     1
1070
    44
1040
1.0
1070
    74
1070
     0
1000
MTEXTEND
  0
MTEXT
  5
5612
330
1A
100
AcDbEntity
  8
0
100
AcDbMText
 10
57713.45551625192
 20
41747.81123668316
 30
0.0
 40
8.0
 41
0.0
 71
     7
 72
     5
  1

1001
ACAD
1000
MTEXTBEGIN
1070
    73
1070
     1
1070
    44
1040
1.0
1070
    74
1070
     0
1000
MTEXTEND
  0
MTEXT
  5
5613
330
1A
100
AcDbEntity
  8
SUNPOU
100
AcDbMText
 10
60379.35253693407
 20
51259.9226290583
 30
0.0
 40
10.5
 41
0.0
 71
     1
 72
     5
  1

1001
ACAD
1000
MTEXTBEGIN
1070
    73
1070
     1
1070
    44
1040
1.0
1070
    74
1070
     0
1000
MTEXTEND
  0
MTEXT
  5
5614
330
1A
100
AcDbEntity
  8
SUNPOU
100
AcDbMText
 10
52448.42934099813
 20
50313.12949514535
 30
0.0
 40
10.5
 41
0.0
 71
     7
 72
     5
  1

1001
ACAD
1000
MTEXTBEGIN
1070
    73
1070
     1
1070
    44
1040
1.0
1070
    74
1070
     0
1000
MTEXTEND
  0
MTEXT
  5
5615
330
1A
100
AcDbEntity
  8
SUNPOU
100
AcDbMText
 10
55397.4130055109
 20
55213.80556698819
 30
0.0
 40
10.5
 41
0.0
 71
     7
 72
     5
  1

1001
ACAD
1000
MTEXTBEGIN
1070
    73
1070
     1
1070
    44
1040
1.0
1070
    74
1070
     0
1000
MTEXTEND
  0
MTEXT
  5
5616
330
1A
100
AcDbEntity
  8
SUNPOU
100
AcDbMText
 10
59906.49113346147
 20
57650.10631460826
 30
0.0
 40
10.5
 41
0.0
 71
     7
 72
     5
  1

1001
ACAD
1000
MTEXTBEGIN
1070
    73
1070
     1
1070
    44
1040
1.0
1070
    74
1070
     0
1000
MTEXTEND
  0
MTEXT
  5
5617
330
1A
100
AcDbEntity
  8
SUNPOU
100
AcDbMText
 10
43507.32902022977
 20
36647.70246499718
 30
0.0
 40
10.5
 41
0.0
 71
     7
 72
     5
  1

1001
ACAD
1000
MTEXTBEGIN
1070
    73
1070
     1
1070
    44
1040
1.0
1070
    74
1070
     0
1000
MTEXTEND
  0
MTEXT
  5
5618
330
1A
100
AcDbEntity
  8
SUNPOU
100
AcDbMText
 10
94698.84745413006
 20
82320.68302864544
 30
0.0
 40
10.5
 41
0.0
 71
     9
 72
     5
  1

1001
ACAD
1000
MTEXTBEGIN
1070
    73
1070
     1
1070
    44
1040
1.0
1070
    74
1070
     0
1000
MTEXTEND
  0
MTEXT
  5
5619
330
1A
100
AcDbEntity
  8
SUNPOU
100
AcDbMText
 10
103421.015020048
 20
89736.5175601829
 30
0.0
 40
10.5
 41
0.0
 71
     9
 72
     5
  1

1001
ACAD
1000
MTEXTBEGIN
1070
    73
1070
     1
1070
    44
1040
1.0
1070
    74
1070
     0
1000
MTEXTEND
  0
MTEXT
  5
561A
330
1A
100
AcDbEntity
  8
SUNPOU
100
AcDbMText
 10
122374.773737378
 20
107203.0936126749
 30
0.0
 40
10.5
 41
0.0
 71
     9
 72
     5
  1

1001
ACAD
1000
MTEXTBEGIN
1070
    73
1070
     1
1070
    44
1040
1.0
1070
    74
1070
     0
1000
MTEXTEND
  0
MTEXT
  5
561B
330
1A
100
AcDbEntity
  8
SUNPOU
100
AcDbMText
 10
124318.1809840874
 20
105402.0445327969
 30
0.0
 40
3.5
 41
0.0
 71
     9
 72
     5
  1

1001
ACAD
1000
MTEXTBEGIN
1070
    73
1070
     1
1070
    44
1040
1.0
1070
    74
1070
     0
1000
MTEXTEND
  0
MTEXT
  5
561C
330
1A
100
AcDbEntity
  8
SUNPOU
100
AcDbMText
 10
155444.3608167071
 20
147896.9902004542
 30
0.0
 40
10.5
 41
0.0
 71
     9
 72
     5
  1

1001
ACAD
1000
MTEXTBEGIN
1070
    73
1070
     1
1070
    44
1040
1.0
1070
    74
1070
     0
1000
MTEXTEND
  0
MTEXT
  5
561D
330
1A
100
AcDbEntity
  8
SUNPOU
100
AcDbMText
 10
157387.7680634165
 20
146095.9411205762
 30
0.0
 40
3.5
 41
0.0
 71
     9
 72
     5
  1

1001
ACAD
1000
MTEXTBEGIN
1070
    73
1070
     1
1070
    44
1040
1.0
1070
    74
1070
     0
1000
MTEXTEND
  0
MTEXT
  5
561E
330
1A
100
AcDbEntity
  8
SUNPOU
100
AcDbMText
 10
105884.6285225027
 20
93730.15535542933
 30
0.0
 40
10.5
 41
0.0
 71
     9
 72
     5
  1

1001
ACAD
1000
MTEXTBEGIN
1070
    73
1070
     1
1070
    44
1040
1.0
1070
    74
1070
     0
1000
MTEXTEND
  0
MTEXT
  5
561F
330
1A
100
AcDbEntity
  8
SUNPOU
100
AcDbMText
 10
91936.6284221267
 20
74557.75621631714
 30
0.0
 40
3.5
 41
0.0
 71
     7
 72
     5
  1

1001
ACAD
1000
MTEXTBEGIN
1070
    73
1070
     1
1070
    44
1040
1.0
1070
    74
1070
     0
1000
MTEXTEND
  0
MTEXT
  5
5620
330
1A
100
AcDbEntity
  8
SUNPOU
100
AcDbMText
 10
72921.79781911986
 20
62319.90494713532
 30
0.0
 40
10.5
 41
0.0
 71
     7
 72
     5
  1

1001
ACAD
1000
MTEXTBEGIN
1070
    73
1070
     1
1070
    44
1040
1.0
1070
    74
1070
     0
1000
MTEXTEND
  0
MTEXT
  5
5621
330
1A
100
AcDbEntity
  8
SUNPOU
100
AcDbMText
 10
60464.56955417175
 20
46474.97336903692
 30
0.0
 40
35.0
 41
0.0
 71
     9
 72
     5
  1

1001
ACAD
1000
MTEXTBEGIN
1070
    73
1070
     1
1070
    44
1040
1.0
1070
    74
1070
     0
1000
MTEXTEND
  0
MTEXT
  5
5622
330
1A
100
AcDbEntity
  8
SUNPOU
100
AcDbMText
 10
59373.05461174673
 20
47083.74877908561
 30
0.0
 40
350.0000004171781
 41
0.0
 71
     7
 72
     5
  1

1001
ACAD
1000
MTEXTBEGIN
1070
    73
1070
     1
1070
    44
1040
1.0
1070
    74
1070
     0
1000
MTEXTEND
  0
MTEXT
  5
5623
330
1A
100
AcDbEntity
  8
0
100
AcDbMText
 10
65417.00536968963
 20
45063.67114122186
 30
0.0
 40
8.0
 41
0.0
 71
     7
 72
     5
  1

1001
ACAD
1000
MTEXTBEGIN
1070
    73
1070
     1
1070
    44
1040
1.0
1070
    74
1070
     0
1000
MTEXTEND
  0
MTEXT
  5
5624
330
1A
100
AcDbEntity
  8
0
100
AcDbMText
 10
67702.36305958452
 20
46034.46143597292
 30
0.0
 40
8.0
 41
0.0
 71
     7
 72
     5
  1

1001
ACAD
1000
MTEXTBEGIN
1070
    73
1070
     1
1070
    44
1040
1.0
1070
    74
1070
     0
1000
MTEXTEND
  0
MTEXT
  5
5625
330
1A
100
AcDbEntity
  8
SUNPOU
100
AcDbMText
 10
70368.26008026666
 20
55546.57282834803
 30
0.0
 40
10.5
 41
0.0
 71
     1
 72
     5
  1

1001
ACAD
1000
MTEXTBEGIN
1070
    73
1070
     1
1070
    44
1040
1.0
1070
    74
1070
     0
1000
MTEXTEND
  0
MTEXT
  5
5626
330
1A
100
AcDbEntity
  8
SUNPOU
100
AcDbMText
 10
62437.33688433072
 20
54599.77969443507
 30
0.0
 40
10.5
 41
0.0
 71
     7
 72
     5
  1

1001
ACAD
1000
MTEXTBEGIN
1070
    73
1070
     1
1070
    44
1040
1.0
1070
    74
1070
     0
1000
MTEXTEND
  0
MTEXT
  5
5627
330
1A
100
AcDbEntity
  8
SUNPOU
100
AcDbMText
 10
65386.32054884347
 20
59500.45576627792
 30
0.0
 40
10.5
 41
0.0
 71
     7
 72
     5
  1

1001
ACAD
1000
MTEXTBEGIN
1070
    73
1070
     1
1070
    44
1040
1.0
1070
    74
1070
     0
1000
MTEXTEND
  0
MTEXT
  5
5628
330
1A
100
AcDbEntity
  8
SUNPOU
100
AcDbMText
 10
69895.39867679405
 20
61936.756513898
 30
0.0
 40
10.5
 41
0.0
 71
     7
 72
     5
  1

1001
ACAD
1000
MTEXTBEGIN
1070
    73
1070
     1
1070
    44
1040
1.0
1070
    74
1070
     0
1000
MTEXTEND
  0
MTEXT
  5
5629
330
1A
100
AcDbEntity
  8
SUNPOU
100
AcDbMText
 10
53496.23656356237
 20
40934.35266428691
 30
0.0
 40
10.5
 41
0.0
 71
     7
 72
     5
  1

1001
ACAD
1000
MTEXTBEGIN
1070
    73
1070
     1
1070
    44
1040
1.0
1070
    74
1070
     0
1000
MTEXTEND
  0
MTEXT
  5
562A
330
1A
100
AcDbEntity
  8
SUNPOU
100
AcDbMText
 10
55306.99947493731
 20
47261.76665176546
 30
0.0
 40
10.5
 41
0.0
 71
     9
 72
     5
  1

1001
ACAD
1000
MTEXTBEGIN
1070
    73
1070
     1
1070
    44
1040
1.0
1070
    74
1070
     0
1000
MTEXTEND
  0
MTEXT
  5
562B
330
1A
100
AcDbEntity
  8
SUNPOU
100
AcDbMText
 10
64029.16704085527
 20
54677.60118330295
 30
0.0
 40
10.5
 41
0.0
 71
     9
 72
     5
  1

1001
ACAD
1000
MTEXTBEGIN
1070
    73
1070
     1
1070
    44
1040
1.0
1070
    74
1070
     0
1000
MTEXTEND
  0
MTEXT
  5
562C
330
1A
100
AcDbEntity
  8
SUNPOU
100
AcDbMText
 10
82982.92575818527
 20
72144.17723579499
 30
0.0
 40
10.5
 41
0.0
 71
     9
 72
     5
  1

1001
ACAD
1000
MTEXTBEGIN
1070
    73
1070
     1
1070
    44
1040
1.0
1070
    74
1070
     0
1000
MTEXTEND
  0
MTEXT
  5
562D
330
1A
100
AcDbEntity
  8
SUNPOU
100
AcDbMText
 10
84926.33300489467
 20
70343.12815591697
 30
0.0
 40
3.5
 41
0.0
 71
     9
 72
     5
  1

1001
ACAD
1000
MTEXTBEGIN
1070
    73
1070
     1
1070
    44
1040
1.0
1070
    74
1070
     0
1000
MTEXTEND
  0
MTEXT
  5
562E
330
1A
100
AcDbEntity
  8
SUNPOU
100
AcDbMText
 10
116052.5128375142
 20
112838.0738235742
 30
0.0
 40
10.5
 41
0.0
 71
     9
 72
     5
  1

1001
ACAD
1000
MTEXTBEGIN
1070
    73
1070
     1
1070
    44
1040
1.0
1070
    74
1070
     0
1000
MTEXTEND
  0
MTEXT
  5
562F
330
1A
100
AcDbEntity
  8
SUNPOU
100
AcDbMText
 10
117995.9200842238
 20
111037.0247436963
 30
0.0
 40
3.5
 41
0.0
 71
     9
 72
     5
  1

1001
ACAD
1000
MTEXTBEGIN
1070
    73
1070
     1
1070
    44
1040
1.0
1070
    74
1070
     0
1000
MTEXTEND
  0
MTEXT
  5
5630
330
1A
100
AcDbEntity
  8
SUNPOU
100
AcDbMText
 10
66492.78054330994
 20
58671.23897854939
 30
0.0
 40
10.5
 41
0.0
 71
     9
 72
     5
  1

1001
ACAD
1000
MTEXTBEGIN
1070
    73
1070
     1
1070
    44
1040
1.0
1070
    74
1070
     0
1000
MTEXTEND
  0
MTEXT
  5
5631
330
1A
100
AcDbEntity
  8
SUNPOU
100
AcDbMText
 10
52544.78044293397
 20
39498.83983943717
 30
0.0
 40
3.5
 41
0.0
 71
     7
 72
     5
  1

1001
ACAD
1000
MTEXTBEGIN
1070
    73
1070
     1
1070
    44
1040
1.0
1070
    74
1070
     0
1000
MTEXTEND
  0
MTEXT
  5
5632
330
1A
100
AcDbEntity
  8
SUNPOU
100
AcDbMText
 10
66237.13112570454
 20
48857.90306045851
 30
0.0
 40
10.5
 41
0.0
 71
     9
 72
     5
  1

1001
ACAD
1000
MTEXTBEGIN
1070
    73
1070
     1
1070
    44
1040
1.0
1070
    74
1070
     0
1000
MTEXTEND
  0
MTEXT
  5
5633
330
1A
100
AcDbEntity
  8
SUNPOU
100
AcDbMText
 10
74959.29869162253
 20
56273.73759199598
 30
0.0
 40
10.5
 41
0.0
 71
     9
 72
     5
  1

1001
ACAD
1000
MTEXTBEGIN
1070
    73
1070
     1
1070
    44
1040
1.0
1070
    74
1070
     0
1000
MTEXTEND
  0
MTEXT
  5
5634
330
1A
100
AcDbEntity
  8
SUNPOU
100
AcDbMText
 10
93913.0574089525
 20
73740.31364448805
 30
0.0
 40
10.5
 41
0.0
 71
     9
 72
     5
  1

1001
ACAD
1000
MTEXTBEGIN
1070
    73
1070
     1
1070
    44
1040
1.0
1070
    74
1070
     0
1000
MTEXTEND
  0
MTEXT
  5
5635
330
1A
100
AcDbEntity
  8
SUNPOU
100
AcDbMText
 10
95856.46465566192
 20
71939.26456461004
 30
0.0
 40
3.5
 41
0.0
 71
     9
 72
     5
  1

1001
ACAD
1000
MTEXTBEGIN
1070
    73
1070
     1
1070
    44
1040
1.0
1070
    74
1070
     0
1000
MTEXTEND
  0
MTEXT
  5
5636
330
1A
100
AcDbEntity
  8
SUNPOU
100
AcDbMText
 10
126982.6444882816
 20
114434.2102322673
 30
0.0
 40
10.5
 41
0.0
 71
     9
 72
     5
  1

1001
ACAD
1000
MTEXTBEGIN
1070
    73
1070
     1
1070
    44
1040
1.0
1070
    74
1070
     0
1000
MTEXTEND
  0
MTEXT
  5
5637
330
1A
100
AcDbEntity
  8
SUNPOU
100
AcDbMText
 10
128926.051734991
 20
112633.1611523893
 30
0.0
 40
3.5
 41
0.0
 71
     9
 72
     5
  1

1001
ACAD
1000
MTEXTBEGIN
1070
    73
1070
     1
1070
    44
1040
1.0
1070
    74
1070
     0
1000
MTEXTEND
  0
MTEXT
  5
5638
330
1A
100
AcDbEntity
  8
SUNPOU
100
AcDbMText
 10
77422.91219407717
 20
60267.37538724244
 30
0.0
 40
10.5
 41
0.0
 71
     9
 72
     5
  1

1001
ACAD
1000
MTEXTBEGIN
1070
    73
1070
     1
1070
    44
1040
1.0
1070
    74
1070
     0
1000
MTEXTEND
  0
MTEXT
  5
5639
330
1A
100
AcDbEntity
  8
SUNPOU
100
AcDbMText
 10
63474.91209370119
 20
41094.97624813023
 30
0.0
 40
3.5
 41
0.0
 71
     7
 72
     5
  1

1001
ACAD
1000
MTEXTBEGIN
1070
    73
1070
     1
1070
    44
1040
1.0
1070
    74
1070
     0
1000
MTEXTEND
  0
MTEXT
  5
563A
330
1A
100
AcDbEntity
  8
SUNPOU
100
AcDbMText
 10
48117.65086229006
 20
40806.11043916631
 30
0.0
 40
10.5
 41
0.0
 71
     9
 72
     5
  1

1001
ACAD
1000
MTEXTBEGIN
1070
    73
1070
     1
1070
    44
1040
1.0
1070
    74
1070
     0
1000
MTEXTEND
  0
MTEXT
  5
563B
330
1A
100
AcDbEntity
  8
SUNPOU
100
AcDbMText
 10
67071.40957962004
 20
58272.68649165838
 30
0.0
 40
10.5
 41
0.0
 71
     9
 72
     5
  1

1001
ACAD
1000
MTEXTBEGIN
1070
    73
1070
     1
1070
    44
1040
1.0
1070
    74
1070
     0
1000
MTEXTEND
  0
MTEXT
  5
563C
330
1A
100
AcDbEntity
  8
SUNPOU
100
AcDbMText
 10
69014.81682632945
 20
56471.63741178035
 30
0.0
 40
3.5
 41
0.0
 71
     9
 72
     5
  1

1001
ACAD
1000
MTEXTBEGIN
1070
    73
1070
     1
1070
    44
1040
1.0
1070
    74
1070
     0
1000
MTEXTEND
  0
MTEXT
  5
563D
330
1A
100
AcDbEntity
  8
SUNPOU
100
AcDbMText
 10
100140.9966589491
 20
98966.58307943773
 30
0.0
 40
10.5
 41
0.0
 71
     9
 72
     5
  1

1001
ACAD
1000
MTEXTBEGIN
1070
    73
1070
     1
1070
    44
1040
1.0
1070
    74
1070
     0
1000
MTEXTEND
  0
MTEXT
  5
563E
330
1A
100
AcDbEntity
  8
SUNPOU
100
AcDbMText
 10
102084.4039056586
 20
97165.53399955968
 30
0.0
 40
3.5
 41
0.0
 71
     9
 72
     5
  1

1001
ACAD
1000
MTEXTBEGIN
1070
    73
1070
     1
1070
    44
1040
1.0
1070
    74
1070
     0
1000
MTEXTEND
  0
MTEXT
  5
563F
330
1A
100
AcDbEntity
  8
SUNPOU
100
AcDbMText
 10
50581.26436474472
 20
44799.74823441275
 30
0.0
 40
10.5
 41
0.0
 71
     9
 72
     5
  1

1001
ACAD
1000
MTEXTBEGIN
1070
    73
1070
     1
1070
    44
1040
1.0
1070
    74
1070
     0
1000
MTEXTEND
  0
MTEXT
  5
5640
330
1A
100
AcDbEntity
  8
SUNPOU
100
AcDbMText
 10
36633.26426436873
 20
25627.34909530054
 30
0.0
 40
3.5
 41
0.0
 71
     7
 72
     5
  1

1001
ACAD
1000
MTEXTBEGIN
1070
    73
1070
     1
1070
    44
1040
1.0
1070
    74
1070
     0
1000
MTEXTEND
  0
MTEXT
  5
5641
330
1A
100
AcDbEntity
  8
SUNPOU
100
AcDbMText
 10
61069.42493315968
 20
52574.61207825771
 30
0.0
 40
10.5
 41
0.0
 71
     9
 72
     5
  1

1001
ACAD
1000
MTEXTBEGIN
1070
    73
1070
     1
1070
    44
1040
1.0
1070
    74
1070
     0
1000
MTEXTEND
  0
MTEXT
  5
5642
330
1A
100
AcDbEntity
  8
SUNPOU
100
AcDbMText
 10
80023.18365048967
 20
70041.18813074978
 30
0.0
 40
10.5
 41
0.0
 71
     9
 72
     5
  1

1001
ACAD
1000
MTEXTBEGIN
1070
    73
1070
     1
1070
    44
1040
1.0
1070
    74
1070
     0
1000
MTEXTEND
  0
MTEXT
  5
5643
330
1A
100
AcDbEntity
  8
SUNPOU
100
AcDbMText
 10
81966.59089719908
 20
68240.13905087176
 30
0.0
 40
3.5
 41
0.0
 71
     9
 72
     5
  1

1001
ACAD
1000
MTEXTBEGIN
1070
    73
1070
     1
1070
    44
1040
1.0
1070
    74
1070
     0
1000
MTEXTEND
  0
MTEXT
  5
5644
330
1A
100
AcDbEntity
  8
SUNPOU
100
AcDbMText
 10
113092.7707298186
 20
110735.0847185291
 30
0.0
 40
10.5
 41
0.0
 71
     9
 72
     5
  1

1001
ACAD
1000
MTEXTBEGIN
1070
    73
1070
     1
1070
    44
1040
1.0
1070
    74
1070
     0
1000
MTEXTEND
  0
MTEXT
  5
5645
330
1A
100
AcDbEntity
  8
SUNPOU
100
AcDbMText
 10
115036.1779765282
 20
108934.0356386511
 30
0.0
 40
3.5
 41
0.0
 71
     9
 72
     5
  1

1001
ACAD
1000
MTEXTBEGIN
1070
    73
1070
     1
1070
    44
1040
1.0
1070
    74
1070
     0
1000
MTEXTEND
  0
MTEXT
  5
5646
330
1A
100
AcDbEntity
  8
SUNPOU
100
AcDbMText
 10
63533.03843561432
 20
56568.24987350415
 30
0.0
 40
10.5
 41
0.0
 71
     9
 72
     5
  1

1001
ACAD
1000
MTEXTBEGIN
1070
    73
1070
     1
1070
    44
1040
1.0
1070
    74
1070
     0
1000
MTEXTEND
  0
MTEXT
  5
5647
330
1A
100
AcDbEntity
  8
SUNPOU
100
AcDbMText
 10
49585.03833523835
 20
37395.85073439196
 30
0.0
 40
3.5
 41
0.0
 71
     7
 72
     5
  1

1001
ACAD
1000
MTEXTBEGIN
1070
    73
1070
     1
1070
    44
1040
1.0
1070
    74
1070
     0
1000
MTEXTEND
  0
MTEXT
  5
5648
330
1A
100
AcDbEntity
  8
SUNPOU
100
AcDbMText
 10
77137.31641337052
 20
70907.11375048141
 30
0.0
 40
10.5
 41
0.0
 71
     9
 72
     5
  1

1001
ACAD
1000
MTEXTBEGIN
1070
    73
1070
     1
1070
    44
1040
1.0
1070
    74
1070
     0
1000
MTEXTEND
  0
MTEXT
  5
5649
330
1A
100
AcDbEntity
  8
SUNPOU
100
AcDbMText
 10
79080.72366007995
 20
69106.06467060339
 30
0.0
 40
3.5
 41
0.0
 71
     9
 72
     5
  1

1001
ACAD
1000
MTEXTBEGIN
1070
    73
1070
     1
1070
    44
1040
1.0
1070
    74
1070
     0
1000
MTEXTEND
  0
MTEXT
  5
564A
330
1A
100
AcDbEntity
  8
SUNPOU
100
AcDbMText
 10
110206.9034926996
 20
111601.0103382607
 30
0.0
 40
10.5
 41
0.0
 71
     9
 72
     5
  1

1001
ACAD
1000
MTEXTBEGIN
1070
    73
1070
     1
1070
    44
1040
1.0
1070
    74
1070
     0
1000
MTEXTEND
  0
MTEXT
  5
564B
330
1A
100
AcDbEntity
  8
SUNPOU
100
AcDbMText
 10
112150.310739409
 20
109799.9612583826
 30
0.0
 40
3.5
 41
0.0
 71
     9
 72
     5
  1

1001
ACAD
1000
MTEXTBEGIN
1070
    73
1070
     1
1070
    44
1040
1.0
1070
    74
1070
     0
1000
MTEXTEND
  0
MTEXT
  5
564C
330
1A
100
AcDbEntity
  8
SUNPOU
100
AcDbMText
 10
108819.1333204967
 20
110677.9087286761
 30
0.0
 40
10.5
 41
0.0
 71
     9
 72
     5
  1

1001
ACAD
1000
MTEXTBEGIN
1070
    73
1070
     1
1070
    44
1040
1.0
1070
    74
1070
     0
1000
MTEXTEND
  0
MTEXT
  5
564D
330
1A
100
AcDbEntity
  8
SUNPOU
100
AcDbMText
 10
110762.5405672062
 20
108876.8596487981
 30
0.0
 40
3.5
 41
0.0
 71
     9
 72
     5
  1

1001
ACAD
1000
MTEXTBEGIN
1070
    73
1070
     1
1070
    44
1040
1.0
1070
    74
1070
     0
1000
MTEXTEND
  0
MTEXT
  5
564E
330
1A
100
AcDbEntity
  8
SUNPOU
100
AcDbMText
 10
76303.05507956816
 20
68695.31179059812
 30
0.0
 40
10.5
 41
0.0
 71
     9
 72
     5
  1

1001
ACAD
1000
MTEXTBEGIN
1070
    73
1070
     1
1070
    44
1040
1.0
1070
    74
1070
     0
1000
MTEXTEND
  0
MTEXT
  5
564F
330
1A
100
AcDbEntity
  8
SUNPOU
100
AcDbMText
 10
79026.36128373271
 20
69099.99348217918
 30
0.0
 40
3.5
 41
0.0
 71
     9
 72
     5
  1

1001
ACAD
1000
MTEXTBEGIN
1070
    73
1070
     1
1070
    44
1040
1.0
1070
    74
1070
     0
1000
MTEXTEND
  0
MTEXT
  5
5650
330
1A
100
AcDbEntity
  8
SUNPOU
100
AcDbMText
 10
78234.00675862522
 20
65938.68764412436
 30
0.0
 40
10.5
 41
0.0
 71
     9
 72
     5
  1

1001
ACAD
1000
MTEXTBEGIN
1070
    73
1070
     1
1070
    44
1040
1.0
1070
    74
1070
     0
1000
MTEXTEND
  0
MTEXT
  5
5651
330
1A
100
AcDbEntity
  8
SUNPOU
100
AcDbMText
 10
80177.41400533465
 20
64137.63856424636
 30
0.0
 40
3.5
 41
0.0
 71
     9
 72
     5
  1

1001
ACAD
1000
MTEXTBEGIN
1070
    73
1070
     1
1070
    44
1040
1.0
1070
    74
1070
     0
1000
MTEXTEND
  0
MTEXT
  5
5652
330
1A
100
AcDbEntity
  8
SUNPOU
100
AcDbMText
 10
80122.50949592122
 20
64024.86668196204
 30
0.0
 40
3.5
 41
0.0
 71
     9
 72
     5
  1

1001
ACAD
1000
MTEXTBEGIN
1070
    73
1070
     1
1070
    44
1040
1.0
1070
    74
1070
     0
1000
MTEXTEND
  0
MTEXT
  5
5653
330
1A
100
AcDbEntity
  8
SUNPOU
100
AcDbMText
 10
79486.58135950133
 20
63213.54544089553
 30
0.0
 40
3.5
 41
0.0
 71
     9
 72
     5
  1

1001
ACAD
1000
MTEXTBEGIN
1070
    73
1070
     1
1070
    44
1040
1.0
1070
    74
1070
     0
1000
MTEXTEND
  0
MTEXT
  5
5654
330
1A
100
AcDbEntity
  8
SUNPOU
100
AcDbMText
 10
79485.3409400806
 20
63213.29746395804
 30
0.0
 40
10.5
 41
0.0
 71
     9
 72
     5
  1

1001
ACAD
1000
MTEXTBEGIN
1070
    73
1070
     1
1070
    44
1040
1.0
1070
    74
1070
     0
1000
MTEXTEND
  0
MTEXT
  5
5655
330
1A
100
AcDbEntity
  8
SUNPOU
100
AcDbMText
 10
85473.63363627567
 20
80747.76348077064
 30
0.0
 40
10.5
 41
0.0
 71
     9
 72
     5
  1

1001
ACAD
1000
MTEXTBEGIN
1070
    73
1070
     1
1070
    44
1040
1.0
1070
    74
1070
     0
1000
MTEXTEND
  0
MTEXT
  5
5656
330
1A
100
AcDbEntity
  8
SUNPOU
100
AcDbMText
 10
94195.80120219368
 20
88163.59801230806
 30
0.0
 40
10.5
 41
0.0
 71
     9
 72
     5
  1

1001
ACAD
1000
MTEXTBEGIN
1070
    73
1070
     1
1070
    44
1040
1.0
1070
    74
1070
     0
1000
MTEXTEND
  0
MTEXT
  5
5657
330
1A
100
AcDbEntity
  8
SUNPOU
100
AcDbMText
 10
113149.5599195236
 20
105630.1740648001
 30
0.0
 40
10.5
 41
0.0
 71
     9
 72
     5
  1

1001
ACAD
1000
MTEXTBEGIN
1070
    73
1070
     1
1070
    44
1040
1.0
1070
    74
1070
     0
1000
MTEXTEND
  0
MTEXT
  5
5658
330
1A
100
AcDbEntity
  8
SUNPOU
100
AcDbMText
 10
115092.967166233
 20
103829.1249849221
 30
0.0
 40
3.5
 41
0.0
 71
     9
 72
     5
  1

1001
ACAD
1000
MTEXTBEGIN
1070
    73
1070
     1
1070
    44
1040
1.0
1070
    74
1070
     0
1000
MTEXTEND
  0
MTEXT
  5
5659
330
1A
100
AcDbEntity
  8
SUNPOU
100
AcDbMText
 10
146219.1469988527
 20
146324.0706525794
 30
0.0
 40
10.5
 41
0.0
 71
     9
 72
     5
  1

1001
ACAD
1000
MTEXTBEGIN
1070
    73
1070
     1
1070
    44
1040
1.0
1070
    74
1070
     0
1000
MTEXTEND
  0
MTEXT
  5
565A
330
1A
100
AcDbEntity
  8
SUNPOU
100
AcDbMText
 10
148162.5542455621
 20
144523.0215727014
 30
0.0
 40
3.5
 41
0.0
 71
     9
 72
     5
  1

1001
ACAD
1000
MTEXTBEGIN
1070
    73
1070
     1
1070
    44
1040
1.0
1070
    74
1070
     0
1000
MTEXTEND
  0
MTEXT
  5
565B
330
1A
100
AcDbEntity
  8
SUNPOU
100
AcDbMText
 10
96659.41470464833
 20
92157.23580755453
 30
0.0
 40
10.5
 41
0.0
 71
     9
 72
     5
  1

1001
ACAD
1000
MTEXTBEGIN
1070
    73
1070
     1
1070
    44
1040
1.0
1070
    74
1070
     0
1000
MTEXTEND
  0
MTEXT
  5
565C
330
1A
100
AcDbEntity
  8
SUNPOU
100
AcDbMText
 10
82711.41460427234
 20
72984.83666844234
 30
0.0
 40
3.5
 41
0.0
 71
     7
 72
     5
  1

1001
ACAD
1000
MTEXTBEGIN
1070
    73
1070
     1
1070
    44
1040
1.0
1070
    74
1070
     0
1000
MTEXTEND
  0
MTEXT
  5
565D
330
1A
100
AcDbEntity
  8
SUNPOU
100
AcDbMText
 10
63696.58400126548
 20
60746.98539926055
 30
0.0
 40
10.5
 41
0.0
 71
     7
 72
     5
  1

1001
ACAD
1000
MTEXTBEGIN
1070
    73
1070
     1
1070
    44
1040
1.0
1070
    74
1070
     0
1000
MTEXTEND
  0
MTEXT
  5
565E
330
1A
100
AcDbEntity
  8
SUNPOU
100
AcDbMText
 10
51239.35573631738
 20
44902.05382116213
 30
0.0
 40
35.0
 41
0.0
 71
     9
 72
     5
  1

1001
ACAD
1000
MTEXTBEGIN
1070
    73
1070
     1
1070
    44
1040
1.0
1070
    74
1070
     0
1000
MTEXTEND
  0
MTEXT
  5
565F
330
1A
100
AcDbEntity
  8
SUNPOU
100
AcDbMText
 10
50147.84079389233
 20
45510.82923121084
 30
0.0
 40
350.0000004171781
 41
0.0
 71
     7
 72
     5
  1

1001
ACAD
1000
MTEXTBEGIN
1070
    73
1070
     1
1070
    44
1040
1.0
1070
    74
1070
     0
1000
MTEXTEND
  0
MTEXT
  5
5660
330
1A
100
AcDbEntity
  8
0
100
AcDbMText
 10
56191.79155183523
 20
43490.75159334705
 30
0.0
 40
8.0
 41
0.0
 71
     7
 72
     5
  1

1001
ACAD
1000
MTEXTBEGIN
1070
    73
1070
     1
1070
    44
1040
1.0
1070
    74
1070
     0
1000
MTEXTEND
  0
MTEXT
  5
5661
330
1A
100
AcDbEntity
  8
0
100
AcDbMText
 10
58477.14924173012
 20
44461.54188809812
 30
0.0
 40
8.0
 41
0.0
 71
     7
 72
     5
  1

1001
ACAD
1000
MTEXTBEGIN
1070
    73
1070
     1
1070
    44
1040
1.0
1070
    74
1070
     0
1000
MTEXTEND
  0
MTEXT
  5
5662
330
1A
100
AcDbEntity
  8
SUNPOU
100
AcDbMText
 10
61143.04626241227
 20
53973.65328047324
 30
0.0
 40
10.5
 41
0.0
 71
     1
 72
     5
  1

1001
ACAD
1000
MTEXTBEGIN
1070
    73
1070
     1
1070
    44
1040
1.0
1070
    74
1070
     0
1000
MTEXTEND
  0
MTEXT
  5
5663
330
1A
100
AcDbEntity
  8
SUNPOU
100
AcDbMText
 10
53212.12306647632
 20
53026.86014656028
 30
0.0
 40
10.5
 41
0.0
 71
     7
 72
     5
  1

1001
ACAD
1000
MTEXTBEGIN
1070
    73
1070
     1
1070
    44
1040
1.0
1070
    74
1070
     0
1000
MTEXTEND
  0
MTEXT
  5
5664
330
1A
100
AcDbEntity
  8
SUNPOU
100
AcDbMText
 10
56161.10673098909
 20
57927.53621840312
 30
0.0
 40
10.5
 41
0.0
 71
     7
 72
     5
  1

1001
ACAD
1000
MTEXTBEGIN
1070
    73
1070
     1
1070
    44
1040
1.0
1070
    74
1070
     0
1000
MTEXTEND
  0
MTEXT
  5
5665
330
1A
100
AcDbEntity
  8
SUNPOU
100
AcDbMText
 10
60670.18485893966
 20
60363.8369660232
 30
0.0
 40
10.5
 41
0.0
 71
     7
 72
     5
  1

1001
ACAD
1000
MTEXTBEGIN
1070
    73
1070
     1
1070
    44
1040
1.0
1070
    74
1070
     0
1000
MTEXTEND
  0
MTEXT
  5
5666
330
1A
100
AcDbEntity
  8
SUNPOU
100
AcDbMText
 10
44271.02274570799
 20
39361.43311641211
 30
0.0
 40
10.5
 41
0.0
 71
     7
 72
     5
  1

1001
ACAD
1000
MTEXTBEGIN
1070
    73
1070
     1
1070
    44
1040
1.0
1070
    74
1070
     0
1000
MTEXTEND
  0
MTEXT
  5
5667
330
1A
100
AcDbEntity
  8
SUNPOU
100
AcDbMText
 10
95462.54117960824
 20
85034.41368006038
 30
0.0
 40
10.5
 41
0.0
 71
     9
 72
     5
  1

1001
ACAD
1000
MTEXTBEGIN
1070
    73
1070
     1
1070
    44
1040
1.0
1070
    74
1070
     0
1000
MTEXTEND
  0
MTEXT
  5
5668
330
1A
100
AcDbEntity
  8
SUNPOU
100
AcDbMText
 10
104184.7087455262
 20
92450.24821159784
 30
0.0
 40
10.5
 41
0.0
 71
     9
 72
     5
  1

1001
ACAD
1000
MTEXTBEGIN
1070
    73
1070
     1
1070
    44
1040
1.0
1070
    74
1070
     0
1000
MTEXTEND
  0
MTEXT
  5
5669
330
1A
100
AcDbEntity
  8
SUNPOU
100
AcDbMText
 10
123138.4674628562
 20
109916.8242640898
 30
0.0
 40
10.5
 41
0.0
 71
     9
 72
     5
  1

1001
ACAD
1000
MTEXTBEGIN
1070
    73
1070
     1
1070
    44
1040
1.0
1070
    74
1070
     0
1000
MTEXTEND
  0
MTEXT
  5
566A
330
1A
100
AcDbEntity
  8
SUNPOU
100
AcDbMText
 10
125081.8747095656
 20
108115.7751842118
 30
0.0
 40
3.5
 41
0.0
 71
     9
 72
     5
  1

1001
ACAD
1000
MTEXTBEGIN
1070
    73
1070
     1
1070
    44
1040
1.0
1070
    74
1070
     0
1000
MTEXTEND
  0
MTEXT
  5
566B
330
1A
100
AcDbEntity
  8
SUNPOU
100
AcDbMText
 10
156208.0545421853
 20
150610.7208518691
 30
0.0
 40
10.5
 41
0.0
 71
     9
 72
     5
  1

1001
ACAD
1000
MTEXTBEGIN
1070
    73
1070
     1
1070
    44
1040
1.0
1070
    74
1070
     0
1000
MTEXTEND
  0
MTEXT
  5
566C
330
1A
100
AcDbEntity
  8
SUNPOU
100
AcDbMText
 10
158151.4617888947
 20
148809.6717719911
 30
0.0
 40
3.5
 41
0.0
 71
     9
 72
     5
  1

1001
ACAD
1000
MTEXTBEGIN
1070
    73
1070
     1
1070
    44
1040
1.0
1070
    74
1070
     0
1000
MTEXTEND
  0
MTEXT
  5
566D
330
1A
100
AcDbEntity
  8
SUNPOU
100
AcDbMText
 10
106648.3222479809
 20
96443.88600684427
 30
0.0
 40
10.5
 41
0.0
 71
     9
 72
     5
  1

1001
ACAD
1000
MTEXTBEGIN
1070
    73
1070
     1
1070
    44
1040
1.0
1070
    74
1070
     0
1000
MTEXTEND
  0
MTEXT
  5
566E
330
1A
100
AcDbEntity
  8
SUNPOU
100
AcDbMText
 10
92700.3221476049
 20
77271.48686773207
 30
0.0
 40
3.5
 41
0.0
 71
     7
 72
     5
  1

1001
ACAD
1000
MTEXTBEGIN
1070
    73
1070
     1
1070
    44
1040
1.0
1070
    74
1070
     0
1000
MTEXTEND
  0
MTEXT
  5
566F
330
1A
100
AcDbEntity
  8
SUNPOU
100
AcDbMText
 10
73685.49154459807
 20
65033.63559855027
 30
0.0
 40
10.5
 41
0.0
 71
     7
 72
     5
  1

1001
ACAD
1000
MTEXTBEGIN
1070
    73
1070
     1
1070
    44
1040
1.0
1070
    74
1070
     0
1000
MTEXTEND
  0
MTEXT
  5
5670
330
1A
100
AcDbEntity
  8
SUNPOU
100
AcDbMText
 10
61228.26327964995
 20
49188.70402045183
 30
0.0
 40
35.0
 41
0.0
 71
     9
 72
     5
  1

1001
ACAD
1000
MTEXTBEGIN
1070
    73
1070
     1
1070
    44
1040
1.0
1070
    74
1070
     0
1000
MTEXTEND
  0
MTEXT
  5
5671
330
1A
100
AcDbEntity
  8
SUNPOU
100
AcDbMText
 10
60136.74833722491
 20
49797.47943050056
 30
0.0
 40
350.0000004171781
 41
0.0
 71
     7
 72
     5
  1

1001
ACAD
1000
MTEXTBEGIN
1070
    73
1070
     1
1070
    44
1040
1.0
1070
    74
1070
     0
1000
MTEXTEND
  0
MTEXT
  5
5672
330
1A
100
AcDbEntity
  8
0
100
AcDbMText
 10
66180.69909516782
 20
47777.40179263677
 30
0.0
 40
8.0
 41
0.0
 71
     7
 72
     5
  1

1001
ACAD
1000
MTEXTBEGIN
1070
    73
1070
     1
1070
    44
1040
1.0
1070
    74
1070
     0
1000
MTEXTEND
  0
MTEXT
  5
5673
330
1A
100
AcDbEntity
  8
0
100
AcDbMText
 10
68466.05678506271
 20
48748.19208738784
 30
0.0
 40
8.0
 41
0.0
 71
     7
 72
     5
  1

1001
ACAD
1000
MTEXTBEGIN
1070
    73
1070
     1
1070
    44
1040
1.0
1070
    74
1070
     0
1000
MTEXTEND
  0
MTEXT
  5
5674
330
1A
100
AcDbEntity
  8
SUNPOU
100
AcDbMText
 10
71131.95380574485
 20
58260.30347976296
 30
0.0
 40
10.5
 41
0.0
 71
     1
 72
     5
  1

1001
ACAD
1000
MTEXTBEGIN
1070
    73
1070
     1
1070
    44
1040
1.0
1070
    74
1070
     0
1000
MTEXTEND
  0
MTEXT
  5
5675
330
1A
100
AcDbEntity
  8
SUNPOU
100
AcDbMText
 10
63201.03060980891
 20
57313.51034585003
 30
0.0
 40
10.5
 41
0.0
 71
     7
 72
     5
  1

1001
ACAD
1000
MTEXTBEGIN
1070
    73
1070
     1
1070
    44
1040
1.0
1070
    74
1070
     0
1000
MTEXTEND
  0
MTEXT
  5
5676
330
1A
100
AcDbEntity
  8
SUNPOU
100
AcDbMText
 10
66150.01427432169
 20
62214.18641769286
 30
0.0
 40
10.5
 41
0.0
 71
     7
 72
     5
  1

1001
ACAD
1000
MTEXTBEGIN
1070
    73
1070
     1
1070
    44
1040
1.0
1070
    74
1070
     0
1000
MTEXTEND
  0
MTEXT
  5
5677
330
1A
100
AcDbEntity
  8
SUNPOU
100
AcDbMText
 10
70659.09240227225
 20
64650.48716531294
 30
0.0
 40
10.5
 41
0.0
 71
     7
 72
     5
  1

1001
ACAD
1000
MTEXTBEGIN
1070
    73
1070
     1
1070
    44
1040
1.0
1070
    74
1070
     0
1000
MTEXTEND
  0
MTEXT
  5
5678
330
1A
100
AcDbEntity
  8
SUNPOU
100
AcDbMText
 10
54259.93028904056
 20
43648.08331570185
 30
0.0
 40
10.5
 41
0.0
 71
     7
 72
     5
  1

1001
ACAD
1000
MTEXTBEGIN
1070
    73
1070
     1
1070
    44
1040
1.0
1070
    74
1070
     0
1000
MTEXTEND
  0
MTEXT
  5
5679
330
1A
100
AcDbEntity
  8
SUNPOU
100
AcDbMText
 10
56070.69320041551
 20
49975.4973031804
 30
0.0
 40
10.5
 41
0.0
 71
     9
 72
     5
  1

1001
ACAD
1000
MTEXTBEGIN
1070
    73
1070
     1
1070
    44
1040
1.0
1070
    74
1070
     0
1000
MTEXTEND
  0
MTEXT
  5
567A
330
1A
100
AcDbEntity
  8
SUNPOU
100
AcDbMText
 10
64792.86076633347
 20
57391.33183471787
 30
0.0
 40
10.5
 41
0.0
 71
     9
 72
     5
  1

1001
ACAD
1000
MTEXTBEGIN
1070
    73
1070
     1
1070
    44
1040
1.0
1070
    74
1070
     0
1000
MTEXTEND
  0
MTEXT
  5
567B
330
1A
100
AcDbEntity
  8
SUNPOU
100
AcDbMText
 10
83746.61948366345
 20
74857.90788720994
 30
0.0
 40
10.5
 41
0.0
 71
     9
 72
     5
  1

1001
ACAD
1000
MTEXTBEGIN
1070
    73
1070
     1
1070
    44
1040
1.0
1070
    74
1070
     0
1000
MTEXTEND
  0
MTEXT
  5
567C
330
1A
100
AcDbEntity
  8
SUNPOU
100
AcDbMText
 10
85690.02673037287
 20
73056.85880733192
 30
0.0
 40
3.5
 41
0.0
 71
     9
 72
     5
  1

1001
ACAD
1000
MTEXTBEGIN
1070
    73
1070
     1
1070
    44
1040
1.0
1070
    74
1070
     0
1000
MTEXTEND
  0
MTEXT
  5
567D
330
1A
100
AcDbEntity
  8
SUNPOU
100
AcDbMText
 10
116816.2065629925
 20
115551.8044749892
 30
0.0
 40
10.5
 41
0.0
 71
     9
 72
     5
  1

1001
ACAD
1000
MTEXTBEGIN
1070
    73
1070
     1
1070
    44
1040
1.0
1070
    74
1070
     0
1000
MTEXTEND
  0
MTEXT
  5
567E
330
1A
100
AcDbEntity
  8
SUNPOU
100
AcDbMText
 10
118759.6138097019
 20
113750.7553951111
 30
0.0
 40
3.5
 41
0.0
 71
     9
 72
     5
  1

1001
ACAD
1000
MTEXTBEGIN
1070
    73
1070
     1
1070
    44
1040
1.0
1070
    74
1070
     0
1000
MTEXTEND
  0
MTEXT
  5
567F
330
1A
100
AcDbEntity
  8
SUNPOU
100
AcDbMText
 10
67256.47426878814
 20
61384.96962996432
 30
0.0
 40
10.5
 41
0.0
 71
     9
 72
     5
  1

1001
ACAD
1000
MTEXTBEGIN
1070
    73
1070
     1
1070
    44
1040
1.0
1070
    74
1070
     0
1000
MTEXTEND
  0
MTEXT
  5
5680
330
1A
100
AcDbEntity
  8
SUNPOU
100
AcDbMText
 10
53308.47416841216
 20
42212.57049085211
 30
0.0
 40
3.5
 41
0.0
 71
     7
 72
     5
  1

1001
ACAD
1000
MTEXTBEGIN
1070
    73
1070
     1
1070
    44
1040
1.0
1070
    74
1070
     0
1000
MTEXTEND
  0
MTEXT
  5
5681
330
1A
100
AcDbEntity
  8
SUNPOU
100
AcDbMText
 10
67000.82485118274
 20
51571.63371187343
 30
0.0
 40
10.5
 41
0.0
 71
     9
 72
     5
  1

1001
ACAD
1000
MTEXTBEGIN
1070
    73
1070
     1
1070
    44
1040
1.0
1070
    74
1070
     0
1000
MTEXTEND
  0
MTEXT
  5
5682
330
1A
100
AcDbEntity
  8
SUNPOU
100
AcDbMText
 10
75722.99241710071
 20
58987.46824341094
 30
0.0
 40
10.5
 41
0.0
 71
     9
 72
     5
  1

1001
ACAD
1000
MTEXTBEGIN
1070
    73
1070
     1
1070
    44
1040
1.0
1070
    74
1070
     0
1000
MTEXTEND
  0
MTEXT
  5
5683
330
1A
100
AcDbEntity
  8
SUNPOU
100
AcDbMText
 10
94676.75113443068
 20
76454.04429590299
 30
0.0
 40
10.5
 41
0.0
 71
     9
 72
     5
  1

1001
ACAD
1000
MTEXTBEGIN
1070
    73
1070
     1
1070
    44
1040
1.0
1070
    74
1070
     0
1000
MTEXTEND
  0
MTEXT
  5
5684
330
1A
100
AcDbEntity
  8
SUNPOU
100
AcDbMText
 10
96620.1583811401
 20
74652.99521602497
 30
0.0
 40
3.5
 41
0.0
 71
     9
 72
     5
  1

1001
ACAD
1000
MTEXTBEGIN
1070
    73
1070
     1
1070
    44
1040
1.0
1070
    74
1070
     0
1000
MTEXTEND
  0
MTEXT
  5
5685
330
1A
100
AcDbEntity
  8
SUNPOU
100
AcDbMText
 10
127746.3382137598
 20
117147.9408836822
 30
0.0
 40
10.5
 41
0.0
 71
     9
 72
     5
  1

1001
ACAD
1000
MTEXTBEGIN
1070
    73
1070
     1
1070
    44
1040
1.0
1070
    74
1070
     0
1000
MTEXTEND
  0
MTEXT
  5
5686
330
1A
100
AcDbEntity
  8
SUNPOU
100
AcDbMText
 10
129689.7454604692
 20
115346.8918038041
 30
0.0
 40
3.5
 41
0.0
 71
     9
 72
     5
  1

1001
ACAD
1000
MTEXTBEGIN
1070
    73
1070
     1
1070
    44
1040
1.0
1070
    74
1070
     0
1000
MTEXTEND
  0
MTEXT
  5
5687
330
1A
100
AcDbEntity
  8
SUNPOU
100
AcDbMText
 10
78186.60591955537
 20
62981.10603865737
 30
0.0
 40
10.5
 41
0.0
 71
     9
 72
     5
  1

1001
ACAD
1000
MTEXTBEGIN
1070
    73
1070
     1
1070
    44
1040
1.0
1070
    74
1070
     0
1000
MTEXTEND
  0
MTEXT
  5
5688
330
1A
100
AcDbEntity
  8
SUNPOU
100
AcDbMText
 10
64238.60581917939
 20
43808.70689954517
 30
0.0
 40
3.5
 41
0.0
 71
     7
 72
     5
  1

1001
ACAD
1000
MTEXTBEGIN
1070
    73
1070
     1
1070
    44
1040
1.0
1070
    74
1070
     0
1000
MTEXTEND
  0
MTEXT
  5
5689
330
1A
100
AcDbEntity
  8
SUNPOU
100
AcDbMText
 10
33428.13481137435
 20
32770.04710035563
 30
0.0
 40
10.5
 41
0.0
 71
     9
 72
     5
  1

1001
ACAD
1000
MTEXTBEGIN
1070
    73
1070
     1
1070
    44
1040
1.0
1070
    74
1070
     0
1000
MTEXTEND
  0
MTEXT
  5
568A
330
1A
100
AcDbEntity
  8
SUNPOU
100
AcDbMText
 10
52381.89352870431
 20
50236.62315284768
 30
0.0
 40
10.5
 41
0.0
 71
     9
 72
     5
  1

1001
ACAD
1000
MTEXTBEGIN
1070
    73
1070
     1
1070
    44
1040
1.0
1070
    74
1070
     0
1000
MTEXTEND
  0
MTEXT
  5
568B
330
1A
100
AcDbEntity
  8
SUNPOU
100
AcDbMText
 10
54325.30077541374
 20
48435.57407296968
 30
0.0
 40
3.5
 41
0.0
 71
     9
 72
     5
  1

1001
ACAD
1000
MTEXTBEGIN
1070
    73
1070
     1
1070
    44
1040
1.0
1070
    74
1070
     0
1000
MTEXTEND
  0
MTEXT
  5
568C
330
1A
100
AcDbEntity
  8
SUNPOU
100
AcDbMText
 10
85451.48060803342
 20
90930.51974062703
 30
0.0
 40
10.5
 41
0.0
 71
     9
 72
     5
  1

1001
ACAD
1000
MTEXTBEGIN
1070
    73
1070
     1
1070
    44
1040
1.0
1070
    74
1070
     0
1000
MTEXTEND
  0
MTEXT
  5
568D
330
1A
100
AcDbEntity
  8
SUNPOU
100
AcDbMText
 10
87394.88785474286
 20
89129.47066074901
 30
0.0
 40
3.5
 41
0.0
 71
     9
 72
     5
  1

1001
ACAD
1000
MTEXTBEGIN
1070
    73
1070
     1
1070
    44
1040
1.0
1070
    74
1070
     0
1000
MTEXTEND
  0
MTEXT
  5
568E
330
1A
100
AcDbEntity
  8
SUNPOU
100
AcDbMText
 10
35891.74831382901
 20
36763.68489560208
 30
0.0
 40
10.5
 41
0.0
 71
     9
 72
     5
  1

1001
ACAD
1000
MTEXTBEGIN
1070
    73
1070
     1
1070
    44
1040
1.0
1070
    74
1070
     0
1000
MTEXTEND
  0
MTEXT
  5
568F
330
1A
100
AcDbEntity
  8
SUNPOU
100
AcDbMText
 10
21943.74821345303
 20
17591.28575648985
 30
0.0
 40
3.5
 41
0.0
 71
     7
 72
     5
  1

1001
ACAD
1000
MTEXTBEGIN
1070
    73
1070
     1
1070
    44
1040
1.0
1070
    74
1070
     0
1000
MTEXTEND
  0
LINE
  5
11F02
330
1A
100
AcDbEntity
  8
ZISSEN1
100
AcDbLine
 10
-1562.085713490042
 20
1746.547331803991
 30
0.0
 11
-1561.085713490043
 21
1746.547331803991
 31
0.0
  0
LINE
  5
11F03
330
1A
100
AcDbEntity
  8
ZISSEN1
100
AcDbLine
 10
-1562.085713490042
 20
1747.254441803991
 30
0.0
 11
-1561.085713490043
 21
1747.254441803991
 31
0.0
  0
LINE
  5
11F04
330
1A
100
AcDbEntity
  8
ZISSEN1
100
AcDbLine
 10
-1562.085713490042
 20
1751.054441803991
 30
0.0
 11
-1561.085713490043
 21
1751.054441803991
 31
0.0
  0
LINE
  5
11F05
330
1A
100
AcDbEntity
  8
ZISSEN1
100
AcDbLine
 10
-1562.085713490042
 20
1751.761551803991
 30
0.0
 11
-1561.085713490043
 21
1751.761551803991
 31
0.0
  0
LINE
  5
11F06
330
1A
100
AcDbEntity
  8
ZISSEN1
100
AcDbLine
 10
-1562.085713490042
 20
1740.661551803991
 30
0.0
 11
-1561.085713490043
 21
1740.661551803991
 31
0.0
  0
LINE
  5
11F07
330
1A
100
AcDbEntity
  8
ZISSEN1
100
AcDbLine
 10
-1561.085713490043
 20
1827.247331803991
 30
0.0
 11
-1562.085713490042
 21
1827.247331803991
 31
0.0
  0
LINE
  5
11F08
330
1A
100
AcDbEntity
  8
ZISSEN1
100
AcDbLine
 10
-1562.085713490042
 20
1818.16153180399
 30
0.0
 11
-1561.085713490043
 21
1818.16153180399
 31
0.0
  0
LINE
  5
11F09
330
1A
100
AcDbEntity
  8
ZISSEN1
100
AcDbLine
 10
-1562.085713490042
 20
1817.454431803991
 30
0.0
 11
-1561.085713490043
 21
1817.454431803991
 31
0.0
  0
LINE
  5
11F0A
330
1A
100
AcDbEntity
  8
ZISSEN1
100
AcDbLine
 10
-1562.085713490042
 20
1808.454421803991
 30
0.0
 11
-1561.085713490043
 21
1808.454421803991
 31
0.0
  0
LINE
  5
11F0B
330
1A
100
AcDbEntity
  8
ZISSEN1
100
AcDbLine
 10
-1562.085713490042
 20
1807.747311803991
 30
0.0
 11
-1561.085713490043
 21
1807.747311803991
 31
0.0
  0
LINE
  5
11F0C
330
1A
100
AcDbEntity
  8
ZISSEN1
100
AcDbLine
 10
-1562.085713490042
 20
1739.954441803991
 30
0.0
 11
-1561.085713490043
 21
1739.954441803991
 31
0.0
  0
LINE
  5
11F0D
330
1A
100
AcDbEntity
  8
ZISSEN1
100
AcDbLine
 10
-1562.085713490042
 20
1827.954441803991
 30
0.0
 11
-1561.085713490043
 21
1827.954441803991
 31
0.0
  0
LINE
  5
11F0F
330
1A
100
AcDbEntity
  8
ZISSEN1
100
AcDbLine
 10
-1613.207561250035
 20
1740.672164096005
 30
0.0
 11
-1613.207561250035
 21
1819.257934096004
 31
0.0
  0
LINE
  5
11F10
330
1A
100
AcDbEntity
  8
ZISSEN1
100
AcDbLine
 10
-1562.085713490042
 20
1827.954441803991
 30
0.0
 11
-1562.085713490042
 21
1739.954441803991
 31
0.0
  0
LINE
  5
11F11
330
1A
100
AcDbEntity
  8
ZISSEN1
100
AcDbLine
 10
-1613.207541250035
 20
1746.557944096005
 30
0.0
 11
-1613.207541250035
 21
1740.672164096005
 31
0.0
  0
LINE
  5
11F12
330
1A
100
AcDbEntity
  8
ZISSEN1
100
AcDbLine
 10
-1680.707531250035
 20
1740.672164096005
 30
0.0
 11
-1680.707531250035
 21
1751.065034096004
 31
0.0
  0
LINE
  5
11F13
330
1A
100
AcDbEntity
  8
ZISSEN1
100
AcDbLine
 10
-1613.207561250035
 20
1807.257944096004
 30
0.0
 11
-1613.207561250035
 21
1740.672164096005
 31
0.0
  0
LINE
  5
11F14
330
1A
100
AcDbEntity
  8
ZISSEN1
100
AcDbLine
 10
-1687.207552250036
 20
1740.672164096005
 30
0.0
 11
-1687.207552250036
 21
1745.215034096005
 31
0.0
  0
LINE
  5
11F16
330
1A
100
AcDbEntity
  8
ZISSEN1
100
AcDbLine
 10
-1679.500445250035
 20
1739.965054096003
 30
0.0
 11
-1613.914671250036
 21
1739.965054096003
 31
0.0
  0
LINE
  5
11F1D
330
1A
100
AcDbEntity
  8
ZISSEN1
100
AcDbLine
 10
-1613.914641250036
 20
1739.965054096003
 30
0.0
 11
-1680.000422250036
 21
1739.965054096003
 31
0.0
  0
LINE
  5
11F1E
330
1A
100
AcDbEntity
  8
ZISSEN1
100
AcDbLine
 10
-1613.914671250036
 20
1739.965054096003
 30
0.0
 11
-1686.500444250036
 21
1739.965054096003
 31
0.0
  0
LINE
  5
11F55
330
1A
100
AcDbEntity
  8
ZISSEN1
100
AcDbLine
 10
-1687.207552250036
 20
1740.672164096005
 30
0.0
 11
-1686.500444250036
 21
1739.965054096003
 31
0.0
  0
LINE
  5
11F56
330
1A
100
AcDbEntity
  8
ZISSEN1
100
AcDbLine
 10
-1680.707531250035
 20
1740.672164096005
 30
0.0
 11
-1680.000422250036
 21
1739.965054096003
 31
0.0
  0
LINE
  5
11F69
330
1A
100
AcDbEntity
  8
ZISSEN1
100
AcDbLine
 10
-1613.914671250036
 20
1739.965054096003
 30
0.0
 11
-1613.207561250035
 21
1740.672164096005
 31
0.0
  0
LINE
  5
11F6A
330
1A
100
AcDbEntity
  8
ZISSEN1
100
AcDbLine
 10
-1613.914641250036
 20
1739.965054096003
 30
0.0
 11
-1613.207541250035
 21
1740.672164096005
 31
0.0
  0
LINE
  5
11F6B
330
1A
100
AcDbEntity
  8
ZISSEN1
100
AcDbLine
 10
-1613.914671250036
 20
1739.965054096003
 30
0.0
 11
-1613.207561250035
 21
1740.672164096005
 31
0.0
  0
LINE
  5
11F6C
330
1A
100
AcDbEntity
  8
ZISSEN1
100
AcDbLine
 10
-1608.914681250036
 20
1827.965054096004
 30
0.0
 11
-1663.757541250036
 21
1827.965054096004
 31
0.0
  0
LINE
  5
11F6D
330
1A
100
AcDbEntity
  8
ZISSEN1
100
AcDbLine
 10
-1621.857561250036
 20
1821.565064096004
 30
0.0
 11
-1635.657581250034
 21
1821.565064096004
 31
0.0
  0
LINE
  5
11F6E
330
1A
100
AcDbEntity
  8
ZISSEN1
100
AcDbLine
 10
-1635.657581250034
 20
1827.965054096004
 30
0.0
 11
-1621.857561250036
 21
1827.965054096004
 31
0.0
  0
LINE
  5
11F6F
330
1A
100
AcDbEntity
  8
ZISSEN1
100
AcDbLine
 10
-1615.914681250036
 20
1827.965054096004
 30
0.0
 11
-1649.607541250036
 21
1827.965054096004
 31
0.0
  0
LINE
  5
11F70
330
1A
100
AcDbEntity
  8
ZISSEN1
100
AcDbLine
 10
-1629.200411250036
 20
1819.465044096005
 30
0.0
 11
-1621.307531250035
 21
1819.465044096005
 31
0.0
  0
LINE
  5
11F71
330
1A
100
AcDbEntity
  8
ZISSEN1
100
AcDbLine
 10
-1629.807511250036
 20
1789.515054096003
 30
0.0
 11
-1629.807511250036
 21
1819.415034096005
 31
0.0
  0
LINE
  5
11F72
330
1A
100
AcDbEntity
  8
ZISSEN1
100
AcDbLine
 10
-1637.407501250034
 20
1789.515054096003
 30
0.0
 11
-1637.407501250034
 21
1819.415034096005
 31
0.0
  0
LINE
  5
11F73
330
1A
100
AcDbEntity
  8
ZISSEN1
100
AcDbLine
 10
-1639.807511250036
 20
1789.515054096003
 30
0.0
 11
-1639.807511250036
 21
1819.415034096005
 31
0.0
  0
LINE
  5
11F74
330
1A
100
AcDbEntity
  8
ZISSEN1
100
AcDbLine
 10
-1647.407501250036
 20
1789.515054096003
 30
0.0
 11
-1647.407501250036
 21
1819.415034096005
 31
0.0
  0
LINE
  5
11F75
330
1A
100
AcDbEntity
  8
ZISSEN1
100
AcDbLine
 10
-1649.807521250036
 20
1789.515054096003
 30
0.0
 11
-1649.807521250036
 21
1819.415034096005
 31
0.0
  0
LINE
  5
11F76
330
1A
100
AcDbEntity
  8
ZISSEN1
100
AcDbLine
 10
-1657.407511250036
 20
1789.515054096003
 30
0.0
 11
-1657.407511250036
 21
1819.415034096005
 31
0.0
  0
LINE
  5
11F77
330
1A
100
AcDbEntity
  8
ZISSEN1
100
AcDbLine
 10
-1659.807531250034
 20
1789.515054096003
 30
0.0
 11
-1659.807531250034
 21
1819.415034096005
 31
0.0
  0
LINE
  5
11F78
330
1A
100
AcDbEntity
  8
ZISSEN1
100
AcDbLine
 10
-1667.407521250036
 20
1789.515054096003
 30
0.0
 11
-1667.407521250036
 21
1819.415034096005
 31
0.0
  0
LINE
  5
11F79
330
1A
100
AcDbEntity
  8
ZISSEN1
100
AcDbLine
 10
-1670.407531250036
 20
1790.672154096005
 30
0.0
 11
-1670.407531250036
 21
1818.257934096005
 31
0.0
  0
LINE
  5
11F7A
330
1A
100
AcDbEntity
  8
ZISSEN1
100
AcDbLine
 10
-1682.707538250036
 20
1827.257944096004
 30
0.0
 11
-1682.707538250036
 21
1753.065044096004
 31
0.0
  0
LINE
  5
11F7B
330
1A
100
AcDbEntity
  8
ZISSEN1
100
AcDbLine
 10
-1670.407531250036
 20
1753.465054096005
 30
0.0
 11
-1629.907521250036
 21
1753.465054096005
 31
0.0
  0
LINE
  5
11F7C
330
1A
100
AcDbEntity
  8
ZISSEN1
100
AcDbLine
 10
-1659.807531250034
 20
1753.965054096005
 30
0.0
 11
-1659.807531250034
 21
1786.365044096005
 31
0.0
  0
LINE
  5
11F7D
330
1A
100
AcDbEntity
  8
ZISSEN1
100
AcDbLine
 10
-1667.407521250036
 20
1753.965054096005
 30
0.0
 11
-1667.407521250036
 21
1786.365044096005
 31
0.0
  0
LINE
  5
11F7E
330
1A
100
AcDbEntity
  8
ZISSEN1
100
AcDbLine
 10
-1668.207541250036
 20
1790.465054096005
 30
0.0
 11
-1668.207541250036
 21
1760.465054096004
 31
0.0
  0
LINE
  5
11F7F
330
1A
100
AcDbEntity
  8
ZISSEN1
100
AcDbLine
 10
-1679.707528250036
 20
1760.965054096005
 30
0.0
 11
-1679.707528250036
 21
1789.965044096004
 31
0.0
  0
LINE
  5
11F81
330
1A
100
AcDbEntity
  8
ZISSEN1
100
AcDbLine
 10
-1671.114641250035
 20
1760.965054096005
 30
0.0
 11
-1679.707528250036
 21
1760.965054096005
 31
0.0
  0
LINE
  5
11F82
330
1A
100
AcDbEntity
  8
CL1
100
AcDbLine
 10
-1680.207554250036
 20
1746.965054096005
 30
0.0
 11
-1686.207549250036
 21
1746.965054096005
 31
0.0
  0
LINE
  5
11F83
330
1A
100
AcDbEntity
  8
ZISSEN1
100
AcDbLine
 10
-1686.500444250036
 20
1750.965044096005
 30
0.0
 11
-1680.707531250035
 21
1750.965044096005
 31
0.0
  0
LINE
  5
11F84
330
1A
100
AcDbEntity
  8
ZISSEN1
100
AcDbLine
 10
-1683.207539250036
 20
1745.215034096005
 30
0.0
 11
-1687.207552250036
 21
1745.215034096005
 31
0.0
  0
LINE
  5
11F85
330
1A
100
AcDbEntity
  8
ZISSEN1
100
AcDbLine
 10
-1683.207539250036
 20
1748.715074096005
 30
0.0
 11
-1687.207552250036
 21
1748.715074096005
 31
0.0
  0
LINE
  5
11F86
330
1A
100
AcDbEntity
  8
ZISSEN1
100
AcDbLine
 10
-1686.500444250036
 20
1750.965044096005
 30
0.0
 11
-1687.207552250036
 21
1750.257934096005
 31
0.0
  0
LINE
  5
11F87
330
1A
100
AcDbEntity
  8
ZISSEN1
100
AcDbLine
 10
-1687.207552250036
 20
1750.257934096005
 30
0.0
 11
-1687.207552250036
 21
1748.715074096005
 31
0.0
  0
ARC
  5
11F88
330
1A
100
AcDbEntity
  8
ZISSEN1
100
AcDbCircle
 10
-1683.207539250036
 20
1746.965054096005
 30
0.0
 40
1.749999899999999
100
AcDbArc
 50
270.0
 51
90.0
  0
LINE
  5
11F89
330
1A
100
AcDbEntity
  8
ZISSEN1
100
AcDbLine
 10
-1682.707538250036
 20
1753.065044096004
 30
0.0
 11
-1680.707531250035
 21
1751.065034096004
 31
0.0
  0
LINE
  5
11F8A
330
1A
100
AcDbEntity
  8
ZISSEN1
100
AcDbLine
 10
-1670.407531250036
 20
1760.257944096005
 30
0.0
 11
-1670.407531250036
 21
1753.465054096005
 31
0.0
  0
LINE
  5
11F8B
330
1A
100
AcDbEntity
  8
ZISSEN1
100
AcDbLine
 10
-1659.807531250034
 20
1753.965054096005
 30
0.0
 11
-1667.407521250036
 21
1753.965054096005
 31
0.0
  0
LINE
  5
11F8C
330
1A
100
AcDbEntity
  8
ZISSEN1
100
AcDbLine
 10
-1670.614641250034
 20
1760.465054096004
 30
0.0
 11
-1668.207541250036
 21
1760.465054096004
 31
0.0
  0
LINE
  5
11F8D
330
1A
100
AcDbEntity
  8
ZISSEN1
100
AcDbLine
 10
-1671.114641250035
 20
1760.965054096005
 30
0.0
 11
-1670.407531250036
 21
1760.257944096005
 31
0.0
  0
LINE
  5
11F8E
330
1A
100
AcDbEntity
  8
ZISSEN1
100
AcDbLine
 10
-1671.114641250035
 20
1789.965044096004
 30
0.0
 11
-1679.707528250036
 21
1789.965044096004
 31
0.0
  0
LINE
  5
11F8F
330
1A
100
AcDbEntity
  8
ZISSEN1
100
AcDbLine
 10
-1670.407531250036
 20
1790.465054096005
 30
0.0
 11
-1668.207541250036
 21
1790.465054096005
 31
0.0
  0
LINE
  5
11F90
330
1A
100
AcDbEntity
  8
ZISSEN1
100
AcDbLine
 10
-1670.407531250036
 20
1790.465054096005
 30
0.0
 11
-1668.207541250036
 21
1790.465054096005
 31
0.0
  0
LINE
  5
11F91
330
1A
100
AcDbEntity
  8
ZISSEN1
100
AcDbLine
 10
-1671.114641250035
 20
1789.965044096004
 30
0.0
 11
-1670.407531250036
 21
1790.672154096005
 31
0.0
  0
LINE
  5
11F92
330
1A
100
AcDbEntity
  8
ZISSEN1
100
AcDbLine
 10
-1659.807531250034
 20
1789.515054096003
 30
0.0
 11
-1667.407521250036
 21
1789.515054096003
 31
0.0
  0
LINE
  5
11F93
330
1A
100
AcDbEntity
  8
ZISSEN1
100
AcDbLine
 10
-1659.807531250034
 20
1786.365044096005
 30
0.0
 11
-1667.407521250036
 21
1786.365044096005
 31
0.0
  0
LINE
  5
11F94
330
1A
100
AcDbEntity
  8
ZISSEN1
100
AcDbLine
 10
-1629.807511250036
 20
1753.965054096005
 30
0.0
 11
-1629.807511250036
 21
1786.365044096005
 31
0.0
  0
LINE
  5
11F95
330
1A
100
AcDbEntity
  8
ZISSEN1
100
AcDbLine
 10
-1637.407501250034
 20
1753.965054096005
 30
0.0
 11
-1637.407501250034
 21
1786.365044096005
 31
0.0
  0
LINE
  5
11F96
330
1A
100
AcDbEntity
  8
ZISSEN1
100
AcDbLine
 10
-1639.807511250036
 20
1753.965054096005
 30
0.0
 11
-1639.807511250036
 21
1786.365044096005
 31
0.0
  0
LINE
  5
11F97
330
1A
100
AcDbEntity
  8
ZISSEN1
100
AcDbLine
 10
-1647.407501250036
 20
1753.965054096005
 30
0.0
 11
-1647.407501250036
 21
1786.365044096005
 31
0.0
  0
LINE
  5
11F98
330
1A
100
AcDbEntity
  8
ZISSEN1
100
AcDbLine
 10
-1649.807521250036
 20
1753.965054096005
 30
0.0
 11
-1649.807521250036
 21
1786.365044096005
 31
0.0
  0
LINE
  5
11F99
330
1A
100
AcDbEntity
  8
ZISSEN1
100
AcDbLine
 10
-1657.407511250036
 20
1753.965054096005
 30
0.0
 11
-1657.407511250036
 21
1786.365044096005
 31
0.0
  0
LINE
  5
11F9A
330
1A
100
AcDbEntity
  8
ZISSEN1
100
AcDbLine
 10
-1639.807511250036
 20
1753.965054096005
 30
0.0
 11
-1647.407501250036
 21
1753.965054096005
 31
0.0
  0
LINE
  5
11F9B
330
1A
100
AcDbEntity
  8
ZISSEN1
100
AcDbLine
 10
-1649.807521250036
 20
1753.965054096005
 30
0.0
 11
-1657.407511250036
 21
1753.965054096005
 31
0.0
  0
LINE
  5
11F9C
330
1A
100
AcDbEntity
  8
ZISSEN1
100
AcDbLine
 10
-1629.807511250036
 20
1753.965054096005
 30
0.0
 11
-1637.407501250034
 21
1753.965054096005
 31
0.0
  0
LINE
  5
11F9D
330
1A
100
AcDbEntity
  8
ZISSEN1
100
AcDbLine
 10
-1629.907521250036
 20
1753.965054096005
 30
0.0
 11
-1629.907521250036
 21
1753.465054096005
 31
0.0
  0
LINE
  5
11F9E
330
1A
100
AcDbEntity
  8
ZISSEN1
100
AcDbLine
 10
-1639.807511250036
 20
1789.515054096003
 30
0.0
 11
-1647.407501250036
 21
1789.515054096003
 31
0.0
  0
LINE
  5
11F9F
330
1A
100
AcDbEntity
  8
ZISSEN1
100
AcDbLine
 10
-1639.807511250036
 20
1786.365044096005
 30
0.0
 11
-1647.407501250036
 21
1786.365044096005
 31
0.0
  0
LINE
  5
11FA0
330
1A
100
AcDbEntity
  8
ZISSEN1
100
AcDbLine
 10
-1649.807521250036
 20
1789.515054096003
 30
0.0
 11
-1657.407511250036
 21
1789.515054096003
 31
0.0
  0
LINE
  5
11FA1
330
1A
100
AcDbEntity
  8
ZISSEN1
100
AcDbLine
 10
-1649.807521250036
 20
1786.365044096005
 30
0.0
 11
-1657.407511250036
 21
1786.365044096005
 31
0.0
  0
LINE
  5
11FA2
330
1A
100
AcDbEntity
  8
ZISSEN1
100
AcDbLine
 10
-1629.807511250036
 20
1789.515054096003
 30
0.0
 11
-1637.407501250034
 21
1789.515054096003
 31
0.0
  0
LINE
  5
11FA3
330
1A
100
AcDbEntity
  8
ZISSEN1
100
AcDbLine
 10
-1629.807511250036
 20
1786.365044096005
 30
0.0
 11
-1637.407501250034
 21
1786.365044096005
 31
0.0
  0
LINE
  5
11FA4
330
1A
100
AcDbEntity
  8
ZISSEN1
100
AcDbLine
 10
-1629.907521250036
 20
1789.515054096003
 30
0.0
 11
-1629.907521250036
 21
1786.365044096005
 31
0.0
  0
LINE
  5
11FA5
330
1A
100
AcDbEntity
  8
ZISSEN1
100
AcDbLine
 10
-1657.252541250036
 20
1824.615064096004
 30
0.0
 11
-1663.607541250036
 21
1824.615064096004
 31
0.0
  0
LINE
  5
11FA6
330
1A
100
AcDbEntity
  8
ZISSEN1
100
AcDbLine
 10
-1657.252541250036
 20
1825.065034096003
 30
0.0
 11
-1663.607541250036
 21
1825.065034096003
 31
0.0
  0
LINE
  5
11FA7
330
1A
100
AcDbEntity
  8
ZISSEN1
100
AcDbLine
 10
-1657.252541250036
 20
1825.465044096004
 30
0.0
 11
-1663.607541250036
 21
1825.465044096004
 31
0.0
  0
LINE
  5
11FA8
330
1A
100
AcDbEntity
  8
ZISSEN1
100
AcDbLine
 10
-1663.607541250036
 20
1819.465044096005
 30
0.0
 11
-1649.607541250036
 21
1819.465044096005
 31
0.0
  0
LINE
  5
11FAA
330
1A
100
AcDbEntity
  8
ZISSEN1
100
AcDbLine
 10
-1679.500445250035
 20
1827.965054096004
 30
0.0
 11
-1673.657550250035
 21
1827.965054096004
 31
0.0
  0
LINE
  5
11FAB
330
1A
100
AcDbEntity
  8
ZISSEN1
100
AcDbLine
 10
-1679.500445250035
 20
1827.965054096004
 30
0.0
 11
-1673.657550250035
 21
1827.965054096004
 31
0.0
  0
LINE
  5
11FAC
330
1A
100
AcDbEntity
  8
ZISSEN1
100
AcDbLine
 10
-1673.657550250035
 20
1827.965054096004
 30
0.0
 11
-1679.500445250035
 21
1827.965054096004
 31
0.0
  0
LINE
  5
11FAD
330
1A
100
AcDbEntity
  8
ZISSEN1
100
AcDbLine
 10
-1674.914643250036
 20
1827.965054096004
 30
0.0
 11
-1682.000429250036
 21
1827.965054096004
 31
0.0
  0
LINE
  5
11FAE
330
1A
100
AcDbEntity
  8
ZISSEN1
100
AcDbLine
 10
-1682.707538250036
 20
1827.257944096004
 30
0.0
 11
-1682.000429250036
 21
1827.965054096004
 31
0.0
  0
LINE
  5
11FAF
330
1A
100
AcDbEntity
  8
ZISSEN1
100
AcDbLine
 10
-1663.607541250036
 20
1819.465044096005
 30
0.0
 11
-1663.607541250036
 21
1827.965054096004
 31
0.0
  0
LINE
  5
11FB0
330
1A
100
AcDbEntity
  8
ZISSEN1
100
AcDbLine
 10
-1663.757541250036
 20
1828.365034096005
 30
0.0
 11
-1663.757541250036
 21
1820.765044096004
 31
0.0
  0
LINE
  5
11FB1
330
1A
100
AcDbEntity
  8
ZISSEN1
100
AcDbLine
 10
-1673.657550250035
 20
1828.365034096005
 30
0.0
 11
-1673.657550250035
 21
1820.765044096004
 31
0.0
  0
LINE
  5
11FB2
330
1A
100
AcDbEntity
  8
ZISSEN1
100
AcDbLine
 10
-1663.607541250036
 20
1819.465044096005
 30
0.0
 11
-1663.607541250036
 21
1827.965054096004
 31
0.0
  0
LINE
  5
11FB3
330
1A
100
AcDbEntity
  8
ZISSEN1
100
AcDbLine
 10
-1674.207534250036
 20
1827.257944096004
 30
0.0
 11
-1674.207534250036
 21
1818.965044096005
 31
0.0
  0
LINE
  5
11FB4
330
1A
100
AcDbEntity
  8
ZISSEN1
100
AcDbLine
 10
-1663.757541250036
 20
1820.765044096004
 30
0.0
 11
-1673.657550250035
 21
1820.765044096004
 31
0.0
  0
LINE
  5
11FB5
330
1A
100
AcDbEntity
  8
ZISSEN1
100
AcDbLine
 10
-1671.114641250035
 20
1818.965044096005
 30
0.0
 11
-1674.207534250036
 21
1818.965044096005
 31
0.0
  0
LINE
  5
11FB6
330
1A
100
AcDbEntity
  8
ZISSEN1
100
AcDbLine
 10
-1670.407531250036
 20
1818.257934096005
 30
0.0
 11
-1671.114641250035
 21
1818.965044096005
 31
0.0
  0
LINE
  5
11FB7
330
1A
100
AcDbEntity
  8
ZISSEN1
100
AcDbLine
 10
-1659.807531250034
 20
1819.415034096005
 30
0.0
 11
-1667.407521250036
 21
1819.415034096005
 31
0.0
  0
LINE
  5
11FB8
330
1A
100
AcDbEntity
  8
ZISSEN1
100
AcDbLine
 10
-1663.757541250036
 20
1828.365034096005
 30
0.0
 11
-1673.657550250035
 21
1828.365034096005
 31
0.0
  0
LINE
  5
11FB9
330
1A
100
AcDbEntity
  8
ZISSEN1
100
AcDbLine
 10
-1674.207534250036
 20
1827.257944096004
 30
0.0
 11
-1674.914643250036
 21
1827.965054096004
 31
0.0
  0
LINE
  5
11FBA
330
1A
100
AcDbEntity
  8
ZISSEN1
100
AcDbLine
 10
-1663.757541250036
 20
1827.965054096004
 30
0.0
 11
-1663.607541250036
 21
1827.965054096004
 31
0.0
  0
LINE
  5
11FBB
330
1A
100
AcDbEntity
  8
ZISSEN1
100
AcDbLine
 10
-1663.757541250036
 20
1827.965054096004
 30
0.0
 11
-1663.607541250036
 21
1827.965054096004
 31
0.0
  0
LINE
  5
11FBC
330
1A
100
AcDbEntity
  8
ZISSEN1
100
AcDbLine
 10
-1635.857561250036
 20
1821.565064096004
 30
0.0
 11
-1649.657571250036
 21
1821.565064096004
 31
0.0
  0
LINE
  5
11FBD
330
1A
100
AcDbEntity
  8
ZISSEN1
100
AcDbLine
 10
-1649.657571250036
 20
1827.965054096004
 30
0.0
 11
-1635.857561250036
 21
1827.965054096004
 31
0.0
  0
LINE
  5
11FBE
330
1A
100
AcDbEntity
  8
ZISSEN1
100
AcDbLine
 10
-1639.807511250036
 20
1819.415034096005
 30
0.0
 11
-1647.407501250036
 21
1819.415034096005
 31
0.0
  0
LINE
  5
11FBF
330
1A
100
AcDbEntity
  8
ZISSEN1
100
AcDbLine
 10
-1649.657571250036
 20
1821.565064096004
 30
0.0
 11
-1649.657571250036
 21
1827.965054096004
 31
0.0
  0
LINE
  5
11FC0
330
1A
100
AcDbEntity
  8
ZISSEN1
100
AcDbLine
 10
-1649.752541250036
 20
1824.615064096004
 30
0.0
 11
-1656.662551250035
 21
1824.615064096004
 31
0.0
  0
LINE
  5
11FC1
330
1A
100
AcDbEntity
  8
ZISSEN1
100
AcDbLine
 10
-1649.752541250036
 20
1825.065034096003
 30
0.0
 11
-1656.662551250035
 21
1825.065034096003
 31
0.0
  0
LINE
  5
11FC2
330
1A
100
AcDbEntity
  8
ZISSEN1
100
AcDbLine
 10
-1649.752541250036
 20
1825.465044096004
 30
0.0
 11
-1656.662551250035
 21
1825.465044096004
 31
0.0
  0
LINE
  5
11FC3
330
1A
100
AcDbEntity
  8
ZISSEN1
100
AcDbLine
 10
-1649.807521250036
 20
1819.415034096005
 30
0.0
 11
-1657.407511250036
 21
1819.415034096005
 31
0.0
  0
LINE
  5
11FC4
330
1A
100
AcDbEntity
  8
ZISSEN1
100
AcDbLine
 10
-1657.252541250036
 20
1819.465044096005
 30
0.0
 11
-1657.252541250036
 21
1825.465044096004
 31
0.0
  0
LINE
  5
11FC5
330
1A
100
AcDbEntity
  8
ZISSEN1
100
AcDbLine
 10
-1656.662551250035
 20
1819.465044096005
 30
0.0
 11
-1656.662551250035
 21
1825.465044096004
 31
0.0
  0
LINE
  5
11FC6
330
1A
100
AcDbEntity
  8
ZISSEN1
100
AcDbLine
 10
-1649.752541250036
 20
1819.465044096005
 30
0.0
 11
-1649.752541250036
 21
1825.465044096004
 31
0.0
  0
LINE
  5
11FC7
330
1A
100
AcDbEntity
  8
ZISSEN1
100
AcDbLine
 10
-1649.607541250036
 20
1819.465044096005
 30
0.0
 11
-1649.607541250036
 21
1821.565064096004
 31
0.0
  0
LINE
  5
11FC8
330
1A
100
AcDbEntity
  8
ZISSEN1
100
AcDbLine
 10
-1635.657581250034
 20
1821.565064096004
 30
0.0
 11
-1635.657581250034
 21
1827.965054096004
 31
0.0
  0
LINE
  5
11FC9
330
1A
100
AcDbEntity
  8
ZISSEN1
100
AcDbLine
 10
-1635.857561250036
 20
1827.965054096004
 30
0.0
 11
-1635.857561250036
 21
1821.565064096004
 31
0.0
  0
LINE
  5
11FCA
330
1A
100
AcDbEntity
  8
ZISSEN1
100
AcDbLine
 10
-1629.807511250036
 20
1819.415034096005
 30
0.0
 11
-1637.407501250034
 21
1819.415034096005
 31
0.0
  0
LINE
  5
11FCB
330
1A
100
AcDbEntity
  8
ZISSEN1
100
AcDbLine
 10
-1629.807511250036
 20
1818.857954096005
 30
0.0
 11
-1629.200411250036
 21
1819.465044096005
 31
0.0
  0
LINE
  5
11FCC
330
1A
100
AcDbEntity
  8
ZISSEN1
100
AcDbLine
 10
-1570.085713490042
 20
1819.404421803991
 30
0.0
 11
-1570.085713490042
 21
1789.504441803991
 31
0.0
  0
LINE
  5
11FCD
330
1A
100
AcDbEntity
  8
ZISSEN1
100
AcDbLine
 10
-1613.207541250035
 20
1807.757924096004
 30
0.0
 11
-1613.207541250035
 21
1751.772164096004
 31
0.0
  0
LINE
  5
11FCE
330
1A
100
AcDbEntity
  8
ZISSEN1
100
AcDbLine
 10
-1613.914641250036
 20
1751.065054096005
 30
0.0
 11
-1621.507531250036
 21
1751.065054096005
 31
0.0
  0
LINE
  5
11FCF
330
1A
100
AcDbEntity
  8
ZISSEN1
100
AcDbLine
 10
-1613.914641250036
 20
1747.265054096005
 30
0.0
 11
-1621.507531250036
 21
1747.265054096005
 31
0.0
  0
LINE
  5
11FD0
330
1A
100
AcDbEntity
  8
ZISSEN1
100
AcDbLine
 10
-1621.507531250036
 20
1751.065054096005
 30
0.0
 11
-1621.507531250036
 21
1747.265054096005
 31
0.0
  0
LINE
  5
11FD1
330
1A
100
AcDbEntity
  8
ZISSEN1
100
AcDbLine
 10
-1615.207541250035
 20
1748.865044096005
 30
0.0
 11
-1616.807541250036
 21
1748.865044096005
 31
0.0
  0
LINE
  5
11FD2
330
1A
100
AcDbEntity
  8
ZISSEN1
100
AcDbLine
 10
-1615.207541250035
 20
1749.665064096005
 30
0.0
 11
-1615.207541250035
 21
1748.865044096005
 31
0.0
  0
LINE
  5
11FD3
330
1A
100
AcDbEntity
  8
ZISSEN1
100
AcDbLine
 10
-1616.807541250036
 20
1749.665064096005
 30
0.0
 11
-1615.207541250035
 21
1749.665064096005
 31
0.0
  0
LINE
  5
11FD4
330
1A
100
AcDbEntity
  8
ZISSEN1
100
AcDbLine
 10
-1616.807541250036
 20
1748.865044096005
 30
0.0
 11
-1616.807541250036
 21
1749.665064096005
 31
0.0
  0
LINE
  5
11FD5
330
1A
100
AcDbEntity
  8
ZISSEN1
100
AcDbLine
 10
-1613.914641250036
 20
1747.265054096005
 30
0.0
 11
-1613.207541250035
 21
1746.557944096005
 31
0.0
  0
LINE
  5
11FD6
330
1A
100
AcDbEntity
  8
ZISSEN1
100
AcDbLine
 10
-1613.207541250035
 20
1751.772164096004
 30
0.0
 11
-1613.914641250036
 21
1751.065054096005
 31
0.0
  0
LINE
  5
11FD7
330
1A
100
AcDbEntity
  8
ZISSEN1
100
AcDbLine
 10
-1570.085713490042
 20
1786.354431803991
 30
0.0
 11
-1570.085713490042
 21
1753.954441803991
 31
0.0
  0
LINE
  5
11FD8
330
1A
100
AcDbEntity
  8
ZISSEN1
100
AcDbLine
 10
-1570.085713490042
 20
1753.954441803991
 30
0.0
 11
-1562.085713490042
 21
1753.954441803991
 31
0.0
  0
LINE
  5
11FD9
330
1A
100
AcDbEntity
  8
ZISSEN1
100
AcDbLine
 10
-1570.085713490042
 20
1789.504441803991
 30
0.0
 11
-1562.085713490042
 21
1789.504441803991
 31
0.0
  0
LINE
  5
11FDA
330
1A
100
AcDbEntity
  8
ZISSEN1
100
AcDbLine
 10
-1570.085713490042
 20
1786.354431803991
 30
0.0
 11
-1562.085713490042
 21
1786.354431803991
 31
0.0
  0
LINE
  5
11FDB
330
1A
100
AcDbEntity
  8
ZISSEN1
100
AcDbLine
 10
-1622.857561250036
 20
1810.510054096004
 30
0.0
 11
-1622.857561250036
 21
1817.420054096004
 31
0.0
  0
LINE
  5
11FDC
330
1A
100
AcDbEntity
  8
ZISSEN1
100
AcDbLine
 10
-1616.557551250036
 20
1810.510054096004
 30
0.0
 11
-1616.557551250036
 21
1817.420054096004
 31
0.0
  0
LINE
  5
11FDD
330
1A
100
AcDbEntity
  8
ZISSEN1
100
AcDbLine
 10
-1616.107581250036
 20
1810.510054096004
 30
0.0
 11
-1616.107581250036
 21
1817.420054096004
 31
0.0
  0
LINE
  5
11FDE
330
1A
100
AcDbEntity
  8
ZISSEN1
100
AcDbLine
 10
-1615.707571250035
 20
1810.510054096004
 30
0.0
 11
-1615.707571250035
 21
1817.420054096004
 31
0.0
  0
LINE
  5
11FDF
330
1A
100
AcDbEntity
  8
ZISSEN1
100
AcDbLine
 10
-1622.907551250036
 20
1808.465034096005
 30
0.0
 11
-1622.907551250036
 21
1817.465044096005
 31
0.0
  0
LINE
  5
11FE0
330
1A
100
AcDbEntity
  8
ZISSEN1
100
AcDbLine
 10
-1622.907551250036
 20
1810.510054096004
 30
0.0
 11
-1615.707571250035
 21
1810.510054096004
 31
0.0
  0
LINE
  5
11FE1
330
1A
100
AcDbEntity
  8
ZISSEN1
100
AcDbLine
 10
-1613.914641250036
 20
1808.465034096005
 30
0.0
 11
-1622.907551250036
 21
1808.465034096005
 31
0.0
  0
LINE
  5
11FE2
330
1A
100
AcDbEntity
  8
ZISSEN1
100
AcDbLine
 10
-1613.914641250036
 20
1808.465034096005
 30
0.0
 11
-1613.207541250035
 21
1807.757924096004
 31
0.0
  0
CIRCLE
  5
11FE3
330
1A
100
AcDbEntity
  8
ZISSEN1
100
AcDbCircle
 10
-1611.207551250036
 20
1823.965064096005
 30
0.0
 40
1.749999899999999
  0
CIRCLE
  5
11FE4
330
1A
100
AcDbEntity
  8
ZISSEN1
100
AcDbCircle
 10
-1611.207551250036
 20
1823.965064096005
 30
0.0
 40
1.749999899999999
  0
LINE
  5
11FE5
330
1A
100
AcDbEntity
  8
ZISSEN1
100
AcDbLine
 10
-1608.914681250036
 20
1819.965044096004
 30
0.0
 11
-1615.207521250036
 21
1819.965044096004
 31
0.0
  0
LINE
  5
11FE6
330
1A
100
AcDbEntity
  8
CL1
100
AcDbLine
 10
-1614.207561250036
 20
1823.965064096005
 30
0.0
 11
-1608.207541250036
 21
1823.965064096005
 31
0.0
  0
LINE
  5
11FE8
330
1A
100
AcDbEntity
  8
ZISSEN1
100
AcDbLine
 10
-1621.857561250036
 20
1827.965054096004
 30
0.0
 11
-1621.857561250036
 21
1821.565064096004
 31
0.0
  0
LINE
  5
11FE9
330
1A
100
AcDbEntity
  8
ZISSEN1
100
AcDbLine
 10
-1615.207571250036
 20
1827.257944096004
 30
0.0
 11
-1615.207571250036
 21
1819.965044096004
 31
0.0
  0
LINE
  5
11FEA
330
1A
100
AcDbEntity
  8
ZISSEN1
100
AcDbLine
 10
-1621.307531250035
 20
1827.257944096004
 30
0.0
 11
-1621.307531250035
 21
1819.465044096005
 31
0.0
  0
LINE
  5
11FEB
330
1A
100
AcDbEntity
  8
ZISSEN1
100
AcDbLine
 10
-1615.207521250036
 20
1827.257944096004
 30
0.0
 11
-1615.207521250036
 21
1818.172144096005
 31
0.0
  0
LINE
  5
11FEC
330
1A
100
AcDbEntity
  8
CL1
100
AcDbLine
 10
-1611.207551250036
 20
1826.965074096005
 30
0.0
 11
-1611.207551250036
 21
1820.965054096004
 31
0.0
  0
LINE
  5
11FED
330
1A
100
AcDbEntity
  8
ZISSEN1
100
AcDbLine
 10
-1622.907551250036
 20
1817.420054096004
 30
0.0
 11
-1615.707571250035
 21
1817.420054096004
 31
0.0
  0
LINE
  5
11FEE
330
1A
100
AcDbEntity
  8
ZISSEN1
100
AcDbLine
 10
-1615.914651250036
 20
1817.465044096005
 30
0.0
 11
-1622.907551250036
 21
1817.465044096005
 31
0.0
  0
LINE
  5
11FEF
330
1A
100
AcDbEntity
  8
ZISSEN1
100
AcDbLine
 10
-1613.914671250036
 20
1819.965044096004
 30
0.0
 11
-1615.207571250036
 21
1819.965044096004
 31
0.0
  0
LINE
  5
11FF0
330
1A
100
AcDbEntity
  8
ZISSEN1
100
AcDbLine
 10
-1615.914651250036
 20
1817.465044096005
 30
0.0
 11
-1615.207521250036
 21
1818.172144096005
 31
0.0
  0
LINE
  5
11FF1
330
1A
100
AcDbEntity
  8
ZISSEN1
100
AcDbLine
 10
-1613.914671250036
 20
1819.965044096004
 30
0.0
 11
-1613.207561250035
 21
1819.257934096004
 31
0.0
  0
LINE
  5
11FF2
330
1A
100
AcDbEntity
  8
ZISSEN1
100
AcDbLine
 10
-1620.600421250036
 20
1827.965054096004
 30
0.0
 11
-1615.914651250036
 21
1827.965054096004
 31
0.0
  0
LINE
  5
11FF3
330
1A
100
AcDbEntity
  8
ZISSEN1
100
AcDbLine
 10
-1621.307531250035
 20
1827.257944096004
 30
0.0
 11
-1620.600421250036
 21
1827.965054096004
 31
0.0
  0
LINE
  5
11FF4
330
1A
100
AcDbEntity
  8
ZISSEN1
100
AcDbLine
 10
-1615.914681250036
 20
1827.965054096004
 30
0.0
 11
-1615.207571250036
 21
1827.257944096004
 31
0.0
  0
LINE
  5
11FF5
330
1A
100
AcDbEntity
  8
ZISSEN1
100
AcDbLine
 10
-1615.914651250036
 20
1827.965054096004
 30
0.0
 11
-1615.207521250036
 21
1827.257944096004
 31
0.0
  0
LINE
  5
11FF6
330
1A
100
AcDbEntity
  8
ZISSEN1
100
AcDbLine
 10
-1608.207541250036
 20
1827.257944096004
 30
0.0
 11
-1608.207541250036
 21
1820.672154096005
 31
0.0
  0
LINE
  5
11FF7
330
1A
100
AcDbEntity
  8
ZISSEN1
100
AcDbLine
 10
-1608.914681250036
 20
1819.965044096004
 30
0.0
 11
-1608.207541250036
 21
1820.672154096005
 31
0.0
  0
LINE
  5
11FF8
330
1A
100
AcDbEntity
  8
ZISSEN1
100
AcDbLine
 10
-1608.914681250036
 20
1827.965054096004
 30
0.0
 11
-1608.207541250036
 21
1827.257944096004
 31
0.0
  0
LINE
  5
11FFA
330
1A
100
AcDbEntity
  8
ZISSEN1
100
AcDbLine
 10
-1579.585901250036
 20
1821.565064096004
 30
0.0
 11
-1562.085713490042
 21
1821.565064096004
 31
0.0
  0
LINE
  5
11FFB
330
1A
100
AcDbEntity
  8
ZISSEN1
100
AcDbLine
 10
-1570.085713490042
 20
1819.404421803991
 30
0.0
 11
-1562.085713490042
 21
1819.404421803991
 31
0.0
  0
LINE
  5
11FFC
330
1A
100
AcDbEntity
  8
ZISSEN1
100
AcDbLine
 10
-1570.085713490042
 20
1820.754431803991
 30
0.0
 11
-1562.085713490042
 21
1820.754431803991
 31
0.0
  0
LINE
  5
11FFD
330
1A
100
AcDbEntity
  8
ZISSEN1
100
AcDbLine
 10
-1570.085713490042
 20
1820.754431803991
 30
0.0
 11
-1570.085713490042
 21
1821.554451803989
 31
0.0
  0
LINE
  5
11FFE
330
1A
100
AcDbEntity
  8
ZISSEN1
100
AcDbLine
 10
-1579.585901250036
 20
1827.965054096004
 30
0.0
 11
-1561.785901250036
 21
1827.965054096004
 31
0.0
  0
LINE
  5
11FFF
330
1A
100
AcDbEntity
  8
ZISSEN1
100
AcDbLine
 10
-1570.085713490042
 20
1828.354421803991
 30
0.0
 11
-1562.085713490042
 21
1828.354421803991
 31
0.0
  0
LINE
  5
12000
330
1A
100
AcDbEntity
  8
ZISSEN1
100
AcDbLine
 10
-1570.085713490042
 20
1827.954441803991
 30
0.0
 11
-1570.085713490042
 21
1828.354421803991
 31
0.0
  0
LINE
  5
12001
330
1A
100
AcDbEntity
  8
ZISSEN1
100
AcDbLine
 10
-1562.085713490042
 20
1827.954441803991
 30
0.0
 11
-1562.085713490042
 21
1828.354421803991
 31
0.0
  0
LINE
  5
12002
330
1A
100
AcDbEntity
  8
ZISSEN1
100
AcDbLine
 10
-1561.085713490043
 20
1827.954441803991
 30
0.0
 11
-1561.085713490043
 21
1739.954441803991
 31
0.0
  0
LINE
  5
12003
330
1A
100
AcDbEntity
  8
ZISSEN1
100
AcDbLine
 10
-1556.785911250035
 20
1827.965054096004
 30
0.0
 11
-1556.785911250035
 21
1739.965054096003
 31
0.0
  0
LINE
  5
12004
330
1A
100
AcDbEntity
  8
ZISSEN1
100
AcDbLine
 10
-1555.185921250036
 20
1827.965054096004
 30
0.0
 11
-1555.185921250036
 21
1739.965054096003
 31
0.0
  0
LINE
  5
12005
330
1A
100
AcDbEntity
  8
ZISSEN1
100
AcDbLine
 10
-1543.185931250036
 20
1827.965054096004
 30
0.0
 11
-1543.185931250036
 21
1739.965054096003
 31
0.0
  0
LINE
  5
12006
330
1A
100
AcDbEntity
  8
ZISSEN1
100
AcDbLine
 10
-1541.585931250036
 20
1827.965054096004
 30
0.0
 11
-1541.585931250036
 21
1739.965054096003
 31
0.0
  0
LINE
  5
12007
330
1A
100
AcDbEntity
  8
ZISSEN1
100
AcDbLine
 10
-1537.585941250036
 20
1827.965054096004
 30
0.0
 11
-1537.585941250036
 21
1739.965054096003
 31
0.0
  0
LINE
  5
12008
330
1A
100
AcDbEntity
  8
ZISSEN1
100
AcDbLine
 10
-1535.585941250036
 20
1827.965054096004
 30
0.0
 11
-1535.585941250036
 21
1739.965054096003
 31
0.0
  0
LINE
  5
12009
330
1A
100
AcDbEntity
  8
ZISSEN1
100
AcDbLine
 10
-1555.185921250036
 20
1740.965034096005
 30
0.0
 11
-1543.185931250036
 21
1740.965034096005
 31
0.0
  0
LINE
  5
1200A
330
1A
100
AcDbEntity
  8
ZISSEN1
100
AcDbLine
 10
-1555.185921250036
 20
1741.465034096005
 30
0.0
 11
-1543.185931250036
 21
1741.465034096005
 31
0.0
  0
LINE
  5
1200B
330
1A
100
AcDbEntity
  8
ZISSEN1
100
AcDbLine
 10
-1556.785911250035
 20
1741.465034096005
 30
0.0
 11
-1561.08421333778
 21
1741.465034096005
 31
0.0
  0
LINE
  5
1200C
330
1A
100
AcDbEntity
  8
ZISSEN1
100
AcDbLine
 10
-1556.785911250035
 20
1740.672164096005
 30
0.0
 11
-1555.185921250036
 21
1740.672164096005
 31
0.0
  0
LINE
  5
1200D
330
1A
100
AcDbEntity
  8
ZISSEN1
100
AcDbLine
 10
-1556.785911250035
 20
1739.965054096003
 30
0.0
 11
-1555.185921250036
 21
1739.965054096003
 31
0.0
  0
LINE
  5
1200E
330
1A
100
AcDbEntity
  8
ZISSEN1
100
AcDbLine
 10
-1537.585941250036
 20
1740.672164096005
 30
0.0
 11
-1535.585941250036
 21
1740.672164096005
 31
0.0
  0
LINE
  5
1200F
330
1A
100
AcDbEntity
  8
ZISSEN1
100
AcDbLine
 10
-1537.585941250036
 20
1739.965054096003
 30
0.0
 11
-1535.585941250036
 21
1739.965054096003
 31
0.0
  0
LINE
  5
12010
330
1A
100
AcDbEntity
  8
ZISSEN1
100
AcDbLine
 10
-1541.585931250036
 20
1741.465034096005
 30
0.0
 11
-1537.585941250036
 21
1741.465034096005
 31
0.0
  0
LINE
  5
12011
330
1A
100
AcDbEntity
  8
ZISSEN1
100
AcDbLine
 10
-1543.185931250036
 20
1740.672164096005
 30
0.0
 11
-1541.585931250036
 21
1740.672164096005
 31
0.0
  0
LINE
  5
12012
330
1A
100
AcDbEntity
  8
ZISSEN1
100
AcDbLine
 10
-1543.185931250036
 20
1739.965054096003
 30
0.0
 11
-1541.585931250036
 21
1739.965054096003
 31
0.0
  0
LINE
  5
12013
330
1A
100
AcDbEntity
  8
ZISSEN1
100
AcDbLine
 10
-1535.585941250036
 20
1798.431694096005
 30
0.0
 11
-1535.585941250036
 21
1769.498414096005
 31
0.0
  0
LINE
  5
12014
330
1A
100
AcDbEntity
  8
ZISSEN1
100
AcDbLine
 10
-1530.798401250036
 20
1786.046594096005
 30
0.0
 11
-1530.798401250036
 21
1800.214644096005
 31
0.0
  0
LINE
  5
12015
330
1A
100
AcDbEntity
  8
ZISSEN1
100
AcDbLine
 10
-1528.920201250036
 20
1766.612424096005
 30
0.0
 11
-1528.339761250036
 21
1766.612424096005
 31
0.0
  0
LINE
  5
12016
330
1A
100
AcDbEntity
  8
ZISSEN1
100
AcDbLine
 10
-1531.003921250036
 20
1764.398664096005
 30
0.0
 11
-1526.253591250036
 21
1764.398664096005
 31
0.0
  0
LINE
  5
12017
330
1A
100
AcDbEntity
  8
ZISSEN1
100
AcDbLine
 10
-1525.843861250036
 20
1762.416114096005
 30
0.0
 11
-1528.712501250035
 21
1761.910294096005
 31
0.0
  0
LINE
  5
12018
330
1A
100
AcDbEntity
  8
ZISSEN1
100
AcDbLine
 10
-1529.445421250034
 20
1763.049224096004
 30
0.0
 11
-1526.185821250036
 21
1763.624004096005
 31
0.0
  0
LINE
  5
12019
330
1A
100
AcDbEntity
  8
ZISSEN1
100
AcDbLine
 10
-1534.961451250036
 20
1768.249484096005
 30
0.0
 11
-1534.961451250036
 21
1767.056274096005
 31
0.0
  0
LINE
  5
1201A
330
1A
100
AcDbEntity
  8
ZISSEN1
100
AcDbLine
 10
-1530.798401250036
 20
1767.715454096005
 30
0.0
 11
-1530.798401250036
 21
1781.883514096005
 31
0.0
  0
LINE
  5
1201B
330
1A
100
AcDbEntity
  8
ZISSEN1
100
AcDbLine
 10
-1555.185921250036
 20
1747.965054096004
 30
0.0
 11
-1543.185931250036
 21
1747.965054096004
 31
0.0
  0
LINE
  5
1201C
330
1A
100
AcDbEntity
  8
ZISSEN1
100
AcDbLine
 10
-1555.185921250036
 20
1746.465054096005
 30
0.0
 11
-1543.185931250036
 21
1746.465054096005
 31
0.0
  0
LINE
  5
1201D
330
1A
100
AcDbEntity
  8
ZISSEN1
100
AcDbLine
 10
-1557.385901250036
 20
1749.665064096005
 30
0.0
 11
-1556.785911250035
 21
1749.665064096005
 31
0.0
  0
LINE
  5
1201E
330
1A
100
AcDbEntity
  8
ZISSEN1
100
AcDbLine
 10
-1557.385901250036
 20
1748.865044096005
 30
0.0
 11
-1556.785911250035
 21
1748.865044096005
 31
0.0
  0
LINE
  5
1201F
330
1A
100
AcDbEntity
  8
ZISSEN1
100
AcDbLine
 10
-1556.785911250035
 20
1746.465054096005
 30
0.0
 11
-1561.088009155144
 21
1746.465054096005
 31
0.0
  0
LINE
  5
12020
330
1A
100
AcDbEntity
  8
ZISSEN1
100
AcDbLine
 10
-1557.385901250036
 20
1749.665064096005
 30
0.0
 11
-1557.385901250036
 21
1748.865044096005
 31
0.0
  0
LINE
  5
12021
330
1A
100
AcDbEntity
  8
ZISSEN1
100
AcDbLine
 10
-1561.073855938678
 20
1753.965054096005
 30
0.0
 11
-1556.785911250035
 21
1753.965054096005
 31
0.0
  0
LINE
  5
12022
330
1A
100
AcDbEntity
  8
CL1
100
AcDbLine
 10
-1540.585951250036
 20
1746.965054096005
 30
0.0
 11
-1532.585931250036
 21
1746.965054096005
 31
0.0
  0
LINE
  5
12023
330
1A
100
AcDbEntity
  8
ZISSEN1
100
AcDbLine
 10
-1541.585931250036
 20
1746.465054096005
 30
0.0
 11
-1537.585941250036
 21
1746.465054096005
 31
0.0
  0
ARC
  5
12024
330
1A
100
AcDbEntity
  8
ZISSEN1
100
AcDbCircle
 10
-1528.820931250035
 20
1762.525254096005
 30
0.0
 40
0.6244598000000004
100
AcDbArc
 50
179.9999799999978
 51
279.9999500000018
  0
LINE
  5
12025
330
1A
100
AcDbEntity
  8
ZISSEN1
100
AcDbLine
 10
-1531.453441250036
 20
1767.212804096005
 30
0.0
 11
-1532.641151250036
 21
1767.531044096005
 31
0.0
  0
LINE
  5
12026
330
1A
100
AcDbEntity
  8
ZISSEN1
100
AcDbLine
 10
-1531.003921250036
 20
1764.398664096005
 30
0.0
 11
-1533.418661250036
 21
1765.045654096005
 31
0.0
  0
LINE
  5
12027
330
1A
100
AcDbEntity
  8
ZISSEN1
100
AcDbLine
 10
-1530.798401250036
 20
1765.959794096005
 30
0.0
 11
-1532.910541250036
 21
1766.525744096005
 31
0.0
  0
ARC
  5
12028
330
1A
100
AcDbEntity
  8
ZISSEN1
100
AcDbCircle
 10
-1532.775861250036
 20
1767.028394096004
 30
0.0
 40
0.5203829000000001
100
AcDbArc
 50
75.00000000000555
 51
254.9999800000044
  0
ARC
  5
12029
330
1A
100
AcDbEntity
  8
ZISSEN1
100
AcDbCircle
 10
-1532.879931250036
 20
1767.056274096005
 30
0.0
 40
2.081532899999999
100
AcDbArc
 50
180.0
 51
255.0000000000055
  0
ARC
  5
1202A
330
1A
100
AcDbEntity
  8
ZISSEN1
100
AcDbCircle
 10
-1531.318791250035
 20
1767.715454096005
 30
0.0
 40
0.5203832000000001
100
AcDbArc
 50
255.0000000000055
 51
359.9999799999979
  0
LINE
  5
1202B
330
1A
100
AcDbEntity
  8
ZISSEN1
100
AcDbLine
 10
-1529.355551250036
 20
1766.612424096005
 30
0.0
 11
-1528.920201250036
 21
1766.612424096005
 31
0.0
  0
LINE
  5
1202C
330
1A
100
AcDbEntity
  8
ZISSEN1
100
AcDbLine
 10
-1530.798401250036
 20
1765.959794096005
 30
0.0
 11
-1529.549471250036
 21
1765.959794096005
 31
0.0
  0
LINE
  5
1202D
330
1A
100
AcDbEntity
  8
ZISSEN1
100
AcDbLine
 10
-1529.445421250034
 20
1762.525254096005
 30
0.0
 11
-1529.445421250034
 21
1764.398664096005
 31
0.0
  0
LINE
  5
1202E
330
1A
100
AcDbEntity
  8
ZISSEN1
100
AcDbLine
 10
-1529.549471250036
 20
1765.959794096005
 30
0.0
 11
-1529.382471250036
 21
1766.582984096005
 31
0.0
  0
LINE
  5
1202F
330
1A
100
AcDbEntity
  8
ZISSEN1
100
AcDbLine
 10
-1561.085830219028
 20
1789.515054096003
 30
0.0
 11
-1556.785911250035
 21
1789.515054096003
 31
0.0
  0
LINE
  5
12030
330
1A
100
AcDbEntity
  8
ZISSEN1
100
AcDbLine
 10
-1561.085899148934
 20
1786.365044096005
 30
0.0
 11
-1556.785911250035
 21
1786.365044096005
 31
0.0
  0
ARC
  5
12031
330
1A
100
AcDbEntity
  8
ZISSEN1
100
AcDbCircle
 10
-1536.522591250036
 20
1768.249484096005
 30
0.0
 40
1.5611496
100
AcDbArc
 50
0.0
 51
53.1301869999975
  0
ARC
  5
12036
330
1A
100
AcDbEntity
  8
ZISSEN1
100
AcDbCircle
 10
-1528.501291250036
 20
1783.965054096005
 30
0.0
 40
3.3378866
100
AcDbArc
 50
141.4199000000041
 51
218.5800700000011
  0
LINE
  5
12037
330
1A
100
AcDbEntity
  8
ZISSEN1
100
AcDbLine
 10
-1530.798401250036
 20
1781.883514096005
 30
0.0
 11
-1531.110621250036
 21
1781.883514096005
 31
0.0
  0
LINE
  5
12038
330
1A
100
AcDbEntity
  8
ZISSEN1
100
AcDbLine
 10
-1530.798401250036
 20
1786.046594096005
 30
0.0
 11
-1531.110621250036
 21
1786.046594096005
 31
0.0
  0
ARC
  5
12039
330
1A
100
AcDbEntity
  8
ZISSEN1
100
AcDbCircle
 10
-1526.253591250036
 20
1764.008364096005
 30
0.0
 40
0.3902874
100
AcDbArc
 50
280.0000000000038
 51
89.99998400000361
  0
ARC
  5
1203A
330
1A
100
AcDbEntity
  8
ZISSEN1
100
AcDbCircle
 10
-1526.114931250036
 20
1763.953534096004
 30
0.0
 40
1.5611496
100
AcDbArc
 50
280.0000000000038
 51
0.0
  0
LINE
  5
1203B
330
1A
100
AcDbEntity
  8
ZISSEN1
100
AcDbLine
 10
-1524.711971250036
 20
1764.580864096005
 30
0.0
 11
-1524.857091250036
 21
1764.725964096004
 31
0.0
  0
LINE
  5
1203C
330
1A
100
AcDbEntity
  8
ZISSEN1
100
AcDbLine
 10
-1524.566851250036
 20
1763.855294096005
 30
0.0
 11
-1524.711971250036
 21
1764.580864096005
 31
0.0
  0
LINE
  5
1203D
330
1A
100
AcDbEntity
  8
ZISSEN1
100
AcDbLine
 10
-1524.857091250036
 20
1764.580864096005
 30
0.0
 11
-1524.857091250036
 21
1764.435764096004
 31
0.0
  0
LINE
  5
1203E
330
1A
100
AcDbEntity
  8
ZISSEN1
100
AcDbLine
 10
-1524.857091250036
 20
1765.306434096005
 30
0.0
 11
-1524.857091250036
 21
1764.580864096005
 31
0.0
  0
LINE
  5
1203F
330
1A
100
AcDbEntity
  8
ZISSEN1
100
AcDbLine
 10
-1525.437541250036
 20
1765.886874096004
 30
0.0
 11
-1524.857091250036
 21
1765.306434096005
 31
0.0
  0
LINE
  5
12040
330
1A
100
AcDbEntity
  8
ZISSEN1
100
AcDbLine
 10
-1526.017981250036
 20
1766.322194096004
 30
0.0
 11
-1525.437541250036
 21
1765.886874096004
 31
0.0
  0
LINE
  5
12041
330
1A
100
AcDbEntity
  8
ZISSEN1
100
AcDbLine
 10
-1526.598431250036
 20
1766.612424096005
 30
0.0
 11
-1526.017981250036
 21
1766.322194096004
 31
0.0
  0
LINE
  5
12042
330
1A
100
AcDbEntity
  8
ZISSEN1
100
AcDbLine
 10
-1527.178871250036
 20
1766.612424096005
 30
0.0
 11
-1526.598431250036
 21
1766.612424096005
 31
0.0
  0
LINE
  5
12043
330
1A
100
AcDbEntity
  8
ZISSEN1
100
AcDbLine
 10
-1527.759311250036
 20
1766.612424096005
 30
0.0
 11
-1527.178871250036
 21
1766.612424096005
 31
0.0
  0
LINE
  5
12044
330
1A
100
AcDbEntity
  8
ZISSEN1
100
AcDbLine
 10
-1528.339761250036
 20
1766.612424096005
 30
0.0
 11
-1527.759311250036
 21
1766.612424096005
 31
0.0
  0
LINE
  5
12045
330
1A
100
AcDbEntity
  8
ZISSEN1
100
AcDbLine
 10
-1528.484861250036
 20
1801.148984096005
 30
0.0
 11
-1527.904411250036
 21
1801.148984096005
 31
0.0
  0
LINE
  5
12046
330
1A
100
AcDbEntity
  8
ZISSEN1
100
AcDbLine
 10
-1525.843861250036
 20
1805.513994096004
 30
0.0
 11
-1528.712501250035
 21
1806.019814096005
 31
0.0
  0
LINE
  5
12047
330
1A
100
AcDbEntity
  8
ZISSEN1
100
AcDbLine
 10
-1531.003921250036
 20
1803.531454096004
 30
0.0
 11
-1526.253591250036
 21
1803.531454096004
 31
0.0
  0
LINE
  5
12048
330
1A
100
AcDbEntity
  8
ZISSEN1
100
AcDbLine
 10
-1529.445421250034
 20
1804.880864096005
 30
0.0
 11
-1526.185821250036
 21
1804.306114096005
 31
0.0
  0
LINE
  5
12049
330
1A
100
AcDbEntity
  8
ZISSEN1
100
AcDbLine
 10
-1556.985891250036
 20
1810.510054096004
 30
0.0
 11
-1556.985891250036
 21
1817.420054096004
 31
0.0
  0
LINE
  5
1204A
330
1A
100
AcDbEntity
  8
ZISSEN1
100
AcDbLine
 10
-1556.785911250035
 20
1810.510054096004
 30
0.0
 11
-1556.785911250035
 21
1817.420054096004
 31
0.0
  0
LINE
  5
1204B
330
1A
100
AcDbEntity
  8
ZISSEN1
100
AcDbLine
 10
-1559.085911250035
 20
1810.510054096004
 30
0.0
 11
-1559.085911250035
 21
1817.420054096004
 31
0.0
  0
LINE
  5
1204C
330
1A
100
AcDbEntity
  8
ZISSEN1
100
AcDbLine
 10
-1559.085911250035
 20
1810.510054096004
 30
0.0
 11
-1556.785911250035
 21
1810.510054096004
 31
0.0
  0
ARC
  5
1204D
330
1A
100
AcDbEntity
  8
ZISSEN1
100
AcDbCircle
 10
-1532.879931250036
 20
1800.873824096004
 30
0.0
 40
2.081532899999999
100
AcDbArc
 50
104.9999799999933
 51
180.0
  0
LINE
  5
1204E
330
1A
100
AcDbEntity
  8
ZISSEN1
100
AcDbLine
 10
-1530.798401250036
 20
1801.970304096005
 30
0.0
 11
-1532.910541250036
 21
1801.404364096005
 31
0.0
  0
LINE
  5
1204F
330
1A
100
AcDbEntity
  8
ZISSEN1
100
AcDbLine
 10
-1531.453441250036
 20
1800.717324096005
 30
0.0
 11
-1532.641151250036
 21
1800.399064096004
 31
0.0
  0
ARC
  5
12050
330
1A
100
AcDbEntity
  8
ZISSEN1
100
AcDbCircle
 10
-1536.522591250036
 20
1799.680624096005
 30
0.0
 40
1.5611496
100
AcDbArc
 50
306.8697900000027
 51
0.0
  0
ARC
  5
12051
330
1A
100
AcDbEntity
  8
ZISSEN1
100
AcDbCircle
 10
-1532.775861250036
 20
1800.901714096005
 30
0.0
 40
0.5203829000000001
100
AcDbArc
 50
104.9999999999944
 51
284.9999799999933
  0
LINE
  5
12052
330
1A
100
AcDbEntity
  8
ZISSEN1
100
AcDbLine
 10
-1534.961451250036
 20
1799.680624096005
 30
0.0
 11
-1534.961451250036
 21
1800.873824096004
 31
0.0
  0
ARC
  5
12053
330
1A
100
AcDbEntity
  8
ZISSEN1
100
AcDbCircle
 10
-1531.318791250035
 20
1800.214644096005
 30
0.0
 40
0.5203832000000001
100
AcDbArc
 50
0.0
 51
104.9999799999933
  0
LINE
  5
12054
330
1A
100
AcDbEntity
  8
ZISSEN1
100
AcDbLine
 10
-1529.065301250036
 20
1801.148984096005
 30
0.0
 11
-1529.382471250036
 21
1801.347134096005
 31
0.0
  0
LINE
  5
12055
330
1A
100
AcDbEntity
  8
ZISSEN1
100
AcDbLine
 10
-1529.500651250036
 20
1801.439204096005
 30
0.0
 11
-1529.065301250036
 21
1801.148984096005
 31
0.0
  0
LINE
  5
12056
330
1A
100
AcDbEntity
  8
ZISSEN1
100
AcDbLine
 10
-1529.065301250036
 20
1801.148984096005
 30
0.0
 11
-1528.484861250036
 21
1801.148984096005
 31
0.0
  0
LINE
  5
12057
330
1A
100
AcDbEntity
  8
ZISSEN1
100
AcDbLine
 10
-1530.798401250036
 20
1801.970304096005
 30
0.0
 11
-1529.549471250036
 21
1801.970304096005
 31
0.0
  0
LINE
  5
12058
330
1A
100
AcDbEntity
  8
ZISSEN1
100
AcDbLine
 10
-1529.549471250036
 20
1801.970304096005
 30
0.0
 11
-1529.382471250036
 21
1801.347134096005
 31
0.0
  0
LINE
  5
12059
330
1A
100
AcDbEntity
  8
ZISSEN1
100
AcDbLine
 10
-1537.585941250036
 20
1807.965054096005
 30
0.0
 11
-1535.585941250036
 21
1807.965054096005
 31
0.0
  0
LINE
  5
1205A
330
1A
100
AcDbEntity
  8
ZISSEN1
100
AcDbLine
 10
-1537.585941250036
 20
1807.257944096004
 30
0.0
 11
-1535.585941250036
 21
1807.257944096004
 31
0.0
  0
LINE
  5
1205B
330
1A
100
AcDbEntity
  8
ZISSEN1
100
AcDbLine
 10
-1531.003921250036
 20
1803.531454096004
 30
0.0
 11
-1533.418661250036
 21
1802.884424096005
 31
0.0
  0
ARC
  5
1205C
330
1A
100
AcDbEntity
  8
ZISSEN1
100
AcDbCircle
 10
-1528.820931250035
 20
1805.404844096005
 30
0.0
 40
0.6244598000000004
100
AcDbArc
 50
80.00002999999518
 51
180.0
  0
LINE
  5
1205D
330
1A
100
AcDbEntity
  8
ZISSEN1
100
AcDbLine
 10
-1529.445421250034
 20
1805.404844096005
 30
0.0
 11
-1529.445421250034
 21
1803.531454096004
 31
0.0
  0
LINE
  5
1205E
330
1A
100
AcDbEntity
  8
ZISSEN1
100
AcDbLine
 10
-1545.485931250036
 20
1818.555034096005
 30
0.0
 11
-1543.185931250036
 21
1818.555034096005
 31
0.0
  0
LINE
  5
1205F
330
1A
100
AcDbEntity
  8
ZISSEN1
100
AcDbLine
 10
-1555.185921250036
 20
1821.465054096005
 30
0.0
 11
-1543.185931250036
 21
1821.465054096005
 31
0.0
  0
LINE
  5
12060
330
1A
100
AcDbEntity
  8
ZISSEN1
100
AcDbLine
 10
-1555.185921250036
 20
1826.465064096003
 30
0.0
 11
-1543.185931250036
 21
1826.465064096003
 31
0.0
  0
LINE
  5
12061
330
1A
100
AcDbEntity
  8
ZISSEN1
100
AcDbLine
 10
-1559.085911250035
 20
1817.420054096004
 30
0.0
 11
-1556.785911250035
 21
1817.420054096004
 31
0.0
  0
LINE
  5
12062
330
1A
100
AcDbEntity
  8
ZISSEN1
100
AcDbLine
 10
-1561.084037636054
 20
1819.415034096005
 30
0.0
 11
-1556.785911250035
 21
1819.415034096005
 31
0.0
  0
LINE
  5
12063
330
1A
100
AcDbEntity
  8
ZISSEN1
100
AcDbLine
 10
-1556.785911250035
 20
1821.465054096005
 30
0.0
 11
-1561.082650952219
 21
1821.465054096005
 31
0.0
  0
LINE
  5
12064
330
1A
100
AcDbEntity
  8
ZISSEN1
100
AcDbLine
 10
-1545.485931250036
 20
1818.555034096005
 30
0.0
 11
-1545.485931250036
 21
1821.465054096005
 31
0.0
  0
LINE
  5
12065
330
1A
100
AcDbEntity
  8
ZISSEN1
100
AcDbLine
 10
-1556.785911250035
 20
1826.465064096003
 30
0.0
 11
-1561.084101064946
 21
1826.465064096003
 31
0.0
  0
LINE
  5
12066
330
1A
100
AcDbEntity
  8
ZISSEN1
100
AcDbLine
 10
-1555.185921250036
 20
1827.257944096004
 30
0.0
 11
-1556.785911250035
 21
1827.257944096004
 31
0.0
  0
LINE
  5
12067
330
1A
100
AcDbEntity
  8
ZISSEN1
100
AcDbLine
 10
-1556.785911250035
 20
1827.965054096004
 30
0.0
 11
-1555.185921250036
 21
1827.965054096004
 31
0.0
  0
LINE
  5
12068
330
1A
100
AcDbEntity
  8
CL1
100
AcDbLine
 10
-1540.585951250036
 20
1823.965064096005
 30
0.0
 11
-1532.585931250036
 21
1823.965064096005
 31
0.0
  0
LINE
  5
12069
330
1A
100
AcDbEntity
  8
ZISSEN1
100
AcDbLine
 10
-1537.585941250036
 20
1819.965044096004
 30
0.0
 11
-1535.585941250036
 21
1819.965044096004
 31
0.0
  0
LINE
  5
1206A
330
1A
100
AcDbEntity
  8
ZISSEN1
100
AcDbLine
 10
-1537.585941250036
 20
1820.672154096005
 30
0.0
 11
-1535.585941250036
 21
1820.672154096005
 31
0.0
  0
LINE
  5
1206B
330
1A
100
AcDbEntity
  8
ZISSEN1
100
AcDbLine
 10
-1543.385911250036
 20
1818.555034096005
 30
0.0
 11
-1543.385911250036
 21
1821.465054096005
 31
0.0
  0
LINE
  5
1206C
330
1A
100
AcDbEntity
  8
ZISSEN1
100
AcDbLine
 10
-1543.185931250036
 20
1818.555034096005
 30
0.0
 11
-1543.185931250036
 21
1825.465044096004
 31
0.0
  0
LINE
  5
1206D
330
1A
100
AcDbEntity
  8
ZISSEN1
100
AcDbLine
 10
-1541.585931250036
 20
1821.465054096005
 30
0.0
 11
-1537.585941250036
 21
1821.465054096005
 31
0.0
  0
LINE
  5
1206E
330
1A
100
AcDbEntity
  8
ZISSEN1
100
AcDbLine
 10
-1537.585941250036
 20
1827.257944096004
 30
0.0
 11
-1535.585941250036
 21
1827.257944096004
 31
0.0
  0
LINE
  5
1206F
330
1A
100
AcDbEntity
  8
ZISSEN1
100
AcDbLine
 10
-1537.585941250036
 20
1827.965054096004
 30
0.0
 11
-1535.585941250036
 21
1827.965054096004
 31
0.0
  0
LINE
  5
12070
330
1A
100
AcDbEntity
  8
ZISSEN1
100
AcDbLine
 10
-1541.585931250036
 20
1826.465064096003
 30
0.0
 11
-1537.585941250036
 21
1826.465064096003
 31
0.0
  0
LINE
  5
12071
330
1A
100
AcDbEntity
  8
ZISSEN1
100
AcDbLine
 10
-1541.585931250036
 20
1827.257944096004
 30
0.0
 11
-1543.185931250036
 21
1827.257944096004
 31
0.0
  0
LINE
  5
12072
330
1A
100
AcDbEntity
  8
ZISSEN1
100
AcDbLine
 10
-1543.185931250036
 20
1827.965054096004
 30
0.0
 11
-1541.585931250036
 21
1827.965054096004
 31
0.0
  0
LINE
  5
12073
330
1A
100
AcDbEntity
  8
ZISSEN1
100
AcDbLine
 10
-1524.566851250036
 20
1802.454994096003
 30
0.0
 11
-1524.566851250036
 21
1803.035434096005
 31
0.0
  0
LINE
  5
12074
330
1A
100
AcDbEntity
  8
ZISSEN1
100
AcDbLine
 10
-1525.002191250035
 20
1801.729424096005
 30
0.0
 11
-1524.566851250036
 21
1802.454994096003
 31
0.0
  0
LINE
  5
12075
330
1A
100
AcDbEntity
  8
ZISSEN1
100
AcDbLine
 10
-1525.582641250036
 20
1801.294104096005
 30
0.0
 11
-1525.002191250035
 21
1801.729424096005
 31
0.0
  0
LINE
  5
12076
330
1A
100
AcDbEntity
  8
ZISSEN1
100
AcDbLine
 10
-1526.163081250035
 20
1801.148984096005
 30
0.0
 11
-1525.582641250036
 21
1801.294104096005
 31
0.0
  0
LINE
  5
12077
330
1A
100
AcDbEntity
  8
ZISSEN1
100
AcDbLine
 10
-1526.743531250036
 20
1801.148984096005
 30
0.0
 11
-1526.163081250035
 21
1801.148984096005
 31
0.0
  0
LINE
  5
12078
330
1A
100
AcDbEntity
  8
ZISSEN1
100
AcDbLine
 10
-1527.323971250036
 20
1801.148984096005
 30
0.0
 11
-1526.743531250036
 21
1801.148984096005
 31
0.0
  0
LINE
  5
12079
330
1A
100
AcDbEntity
  8
ZISSEN1
100
AcDbLine
 10
-1527.904411250036
 20
1801.148984096005
 30
0.0
 11
-1527.323971250036
 21
1801.148984096005
 31
0.0
  0
ARC
  5
1207A
330
1A
100
AcDbEntity
  8
ZISSEN1
100
AcDbCircle
 10
-1526.253591250036
 20
1803.921744096004
 30
0.0
 40
0.3902874
100
AcDbArc
 50
270.0
 51
79.99998400000435
  0
ARC
  5
1207B
330
1A
100
AcDbEntity
  8
ZISSEN1
100
AcDbCircle
 10
-1526.114931250036
 20
1803.976604096003
 30
0.0
 40
1.5611496
100
AcDbArc
 50
0.0
 51
79.99998400000435
  0
LINE
  5
1207C
330
1A
100
AcDbEntity
  8
ZISSEN1
100
AcDbLine
 10
-1525.002191250035
 20
1803.035434096005
 30
0.0
 11
-1524.711971250036
 21
1803.035434096005
 31
0.0
  0
LINE
  5
1207D
330
1A
100
AcDbEntity
  8
ZISSEN1
100
AcDbLine
 10
-1524.421751250036
 20
1803.325664096004
 30
0.0
 11
-1525.002191250035
 21
1803.035434096005
 31
0.0
  0
LINE
  5
1207E
330
1A
100
AcDbEntity
  8
ZISSEN1
100
AcDbLine
 10
-1524.566851250036
 20
1803.906104096005
 30
0.0
 11
-1524.421751250036
 21
1803.325664096004
 31
0.0
  0
LINE
  5
1207F
330
1A
100
AcDbEntity
  8
ZISSEN1
100
AcDbLine
 10
-1524.566851250036
 20
1803.906104096005
 30
0.0
 11
-1524.553781250036
 21
1803.976604096003
 31
0.0
  0
MTEXT
  5
1208C
330
1A
100
AcDbEntity
  8
ZISSEN1
100
AcDbMText
 10
-1635.776898545787
 20
1862.713176396646
 30
0.0
 40
5.0
 41
76.77249999999998
 71
     1
 72
     5
  1
CB-34/IO　No.SS0001f20
  7
ゴシック体
1001
ACAD
1000
MTEXTBEGIN
1070
    73
1070
     1
1070
    44
1040
1.0
1070
    74
1070
     0
1000
MTEXTEND
  0
LINE
  5
12099
330
1A
100
AcDbEntity
  8
ZISSEN1
100
AcDbLine
 10
-1579.585901250036
 20
1827.965054096004
 30
0.0
 11
-1579.585901250036
 21
1821.565064096004
 31
0.0
  0
LINE
  5
120F2
330
1A
100
AcDbEntity
  8
CL1
100
AcDbLine
 10
-1684.207539250035
 20
1749.965044096005
 30
0.0
 11
-1684.207539250035
 21
1743.965074096004
 31
0.0
  0
CIRCLE
  5
12186
330
1A
100
AcDbEntity
  8
KAKURESEN1
100
AcDbCircle
 10
-1657.703723506958
 20
1783.961558248305
 30
0.0
 40
1.5
  0
LINE
  5
12187
330
1A
100
AcDbEntity
  8
CL1
100
AcDbLine
 10
-1661.703723506959
 20
1783.961558248305
 30
0.0
 11
-1657.703723506958
 21
1783.961558248305
 31
0.0
  0
LINE
  5
12188
330
1A
100
AcDbEntity
  8
CL1
100
AcDbLine
 10
-1657.703723506958
 20
1783.961558248305
 30
0.0
 11
-1661.703723506959
 21
1783.961558248305
 31
0.0
  0
CIRCLE
  5
12189
330
1A
100
AcDbEntity
  8
KAKURESEN1
100
AcDbCircle
 10
-1657.703723506958
 20
1783.961558248305
 30
0.0
 40
1.0
  0
LINE
  5
1218A
330
1A
100
AcDbEntity
  8
CL1
100
AcDbLine
 10
-1657.703723506958
 20
1783.961558248305
 30
0.0
 11
-1653.703723506959
 21
1783.961558248305
 31
0.0
  0
LINE
  5
1218B
330
1A
100
AcDbEntity
  8
CL1
100
AcDbLine
 10
-1657.703723506958
 20
1783.961558248305
 30
0.0
 11
-1657.703723506958
 21
1787.961558248305
 31
0.0
  0
LINE
  5
1218C
330
1A
100
AcDbEntity
  8
CL1
100
AcDbLine
 10
-1657.703723506958
 20
1779.961558248306
 30
0.0
 11
-1657.703723506958
 21
1783.961558248305
 31
0.0
  0
LINE
  5
1218D
330
1A
100
AcDbEntity
  8
CL1
100
AcDbLine
 10
-1657.703723506958
 20
1783.961558248305
 30
0.0
 11
-1657.703723506958
 21
1779.961558248306
 31
0.0
  0
LINE
  5
1218E
330
1A
100
AcDbEntity
  8
CL1
100
AcDbLine
 10
-1637.703723506958
 20
1783.961558248305
 30
0.0
 11
-1633.703723506958
 21
1783.961558248305
 31
0.0
  0
CIRCLE
  5
1218F
330
1A
100
AcDbEntity
  8
KAKURESEN1
100
AcDbCircle
 10
-1637.703723506958
 20
1783.961558248305
 30
0.0
 40
1.5
  0
CIRCLE
  5
12190
330
1A
100
AcDbEntity
  8
KAKURESEN1
100
AcDbCircle
 10
-1637.703723506958
 20
1783.961558248305
 30
0.0
 40
1.0
  0
LINE
  5
12191
330
1A
100
AcDbEntity
  8
CL1
100
AcDbLine
 10
-1637.703723506958
 20
1783.961558248305
 30
0.0
 11
-1641.703723506958
 21
1783.961558248305
 31
0.0
  0
LINE
  5
12192
330
1A
100
AcDbEntity
  8
CL1
100
AcDbLine
 10
-1637.703723506958
 20
1783.961558248305
 30
0.0
 11
-1637.703723506958
 21
1779.961558248306
 31
0.0
  0
LINE
  5
12193
330
1A
100
AcDbEntity
  8
CL1
100
AcDbLine
 10
-1637.703723506958
 20
1783.961558248305
 30
0.0
 11
-1637.703723506958
 21
1787.961558248305
 31
0.0
  0
LINE
  5
12203
330
1A
100
AcDbEntity
  8
CL1
100
AcDbLine
 10
-1534.763492873909
 20
1783.961558248305
 30
0.0
 11
-1538.763492873909
 21
1783.961558248305
 31
0.0
  0
LINE
  5
12205
330
1A
100
AcDbEntity
  8
CL1
100
AcDbLine
 10
-1534.798401250036
 20
1783.961558248305
 30
0.0
 11
-1530.798401250036
 21
1783.961558248305
 31
0.0
  0
LINE
  5
1222E
330
1A
100
AcDbEntity
  8
KAKURESEN1
100
AcDbLine
 10
-1537.585941250036
 20
1782.964274096005
 30
0.0
 11
-1531.672751250036
 21
1782.964274096005
 31
0.0
  0
LINE
  5
1222F
330
1A
100
AcDbEntity
  8
KAKURESEN1
100
AcDbLine
 10
-1537.585941250036
 20
1784.965814096005
 30
0.0
 11
-1531.672751250036
 21
1784.965814096005
 31
0.0
  0
LINE
  5
12232
330
1A
100
AcDbEntity
  8
KAKURESEN1
100
AcDbLine
 10
-1537.585941250036
 20
1785.466204096005
 30
0.0
 11
-1531.451591250036
 21
1785.466204096005
 31
0.0
  0
LINE
  5
12233
330
1A
100
AcDbEntity
  8
KAKURESEN1
100
AcDbLine
 10
-1537.585941250036
 20
1782.463904096004
 30
0.0
 11
-1531.451591250036
 21
1782.463904096004
 31
0.0
  0
DIMENSION
  5
122A7
330
1A
100
AcDbEntity
  8
SUNPOU
100
AcDbDimension
  2
*D25
 10
-1613.207561250035
 20
1835.687120433851
 30
0.0
 11
-1647.957549750036
 21
1838.437120433851
 31
0.0
 70
    32
  3
標準スタイル
100
AcDbAlignedDimension
 13
-1682.707538250036
 23
1827.257944096004
 33
0.0
 14
-1613.207561250035
 24
1819.257934096004
 34
0.0
100
AcDbRotatedDimension
1001
ACAD
1000
DSTYLE
1002
{
1070
    40
1040
1.0
1002
}
  0
DIMENSION
  5
122B4
330
1A
100
AcDbEntity
  8
SUNPOU
100
AcDbDimension
  2
*D26
 10
-1699.880157482844
 20
1783.961558248305
 30
0.0
 11
-1702.630157482844
 21
1805.963306172155
 31
0.0
 70
    32
  3
標準スタイル
100
AcDbAlignedDimension
 13
-1682.707538250036
 23
1827.965054096004
 33
0.0
 14
-1641.703723506958
 24
1783.961558248305
 34
0.0
 50
90.0
100
AcDbRotatedDimension
1001
ACAD
1000
DSTYLE
1002
{
1070
    40
1040
1.0
1002
}
  0
DIMENSION
  5
122C1
330
1A
100
AcDbEntity
  8
SUNPOU
100
AcDbDimension
  2
*D27
 10
-1699.880157482844
 20
1739.965054096003
 30
0.0
 11
-1702.630157482844
 21
1761.963306172155
 31
0.0
 70
    32
  3
標準スタイル
100
AcDbAlignedDimension
 13
-1642.203723506959
 23
1783.961558248305
 33
0.0
 14
-1686.500444250036
 24
1739.965054096003
 34
0.0
 50
90.0
100
AcDbRotatedDimension
1001
ACAD
1000
DSTYLE
1002
{
1070
    40
1040
1.0
1002
}
  0
DIMENSION
  5
122D7
330
1A
100
AcDbEntity
  8
SUNPOU
100
AcDbDimension
  2
*D28
 10
-1691.234429809171
 20
1745.215034096005
 30
0.0
 11
-1691.234429809172
 21
1758.895277141689
 31
0.0
 70
   160
  3
標準スタイル
100
AcDbAlignedDimension
 13
-1687.207552250036
 23
1748.715074096005
 33
0.0
 14
-1687.207552250036
 24
1745.215034096005
 34
0.0
 50
90.0
100
AcDbRotatedDimension
1001
ACAD
1000
DSTYLE
1002
{
1070
    40
1040
1.0
1002
}
  0
DIMENSION
  5
122FC
330
1A
100
AcDbEntity
  8
SUNPOU
100
AcDbDimension
  2
*D29
 10
-1711.616713027116
 20
1823.965064096005
 30
0.0
 11
-1711.616713027116
 21
1825.965059096004
 31
0.0
 70
   160
  3
標準スタイル
100
AcDbAlignedDimension
 13
-1682.000429250036
 23
1827.965054096004
 33
0.0
 14
-1614.207561250036
 24
1823.965064096005
 34
0.0
 50
90.0
100
AcDbRotatedDimension
1001
ACAD
1000
DSTYLE
1002
{
1070
    40
1040
1.0
1002
}
  0
DIMENSION
  5
1232A
330
1A
100
AcDbEntity
  8
SUNPOU
100
AcDbDimension
  2
*D30
 10
-1711.616713027116
 20
1746.965054096005
 30
0.0
 11
-1714.366713027116
 21
1785.465059096004
 31
0.0
 70
    32
  3
標準スタイル
100
AcDbAlignedDimension
 13
-1614.707561250035
 23
1823.965064096005
 33
0.0
 14
-1686.207549250036
 24
1746.965054096005
 34
0.0
 50
90.0
100
AcDbRotatedDimension
1001
ACAD
1000
DSTYLE
1002
{
1070
    40
1040
1.0
1002
}
  0
DIMENSION
  5
12337
330
1A
100
AcDbEntity
  8
SUNPOU
100
AcDbDimension
  2
*D31
 10
-1711.616713027116
 20
1739.965054096003
 30
0.0
 11
-1714.366713027116
 21
1743.465054096003
 31
0.0
 70
    32
  3
標準スタイル
100
AcDbAlignedDimension
 13
-1686.707549250035
 23
1746.965054096005
 33
0.0
 14
-1686.500444250036
 24
1739.965054096003
 34
0.0
 50
90.0
100
AcDbRotatedDimension
1001
ACAD
1000
DSTYLE
1002
{
1070
    40
1040
1.0
1002
}
  0
DIMENSION
  5
12351
330
1A
100
AcDbEntity
  8
SUNPOU
100
AcDbDimension
  2
*D32
 10
-1724.855483343079
 20
1739.965054096003
 30
0.0
 11
-1727.605483343079
 21
1783.965054096004
 31
0.0
 70
    32
  3
標準スタイル
100
AcDbAlignedDimension
 13
-1682.000429250036
 23
1827.965054096004
 33
0.0
 14
-1686.500444250036
 24
1739.965054096003
 34
0.0
 50
90.0
100
AcDbRotatedDimension
1001
ACAD
1000
DSTYLE
1002
{
1070
    40
1040
1.0
1002
}
  0
DIMENSION
  5
1235E
330
1A
100
AcDbEntity
  8
SUNPOU
100
AcDbDimension
  2
*D33
 10
-1657.703723506958
 20
1729.889257280211
 30
0.0
 11
-1672.455637878497
 21
1729.889257280211
 31
0.0
 70
   160
  3
標準スタイル
100
AcDbAlignedDimension
 13
-1687.207552250036
 23
1740.672164096005
 33
0.0
 14
-1657.703723506958
 24
1779.961558248306
 34
0.0
100
AcDbRotatedDimension
1001
ACAD
1000
DSTYLE
1002
{
1070
    40
1040
1.0
1002
}
  0
DIMENSION
  5
123B5
330
1A
100
AcDbEntity
  8
SUNPOU
100
AcDbDimension
  2
*D34
 10
-1637.703723506958
 20
1729.889257280211
 30
0.0
 11
-1647.703723506958
 21
1732.639257280211
 31
0.0
 70
    32
  3
標準スタイル
100
AcDbAlignedDimension
 13
-1657.703723506958
 23
1779.961558248306
 33
0.0
 14
-1637.703723506958
 24
1779.961558248306
 34
0.0
100
AcDbRotatedDimension
1001
ACAD
1000
DSTYLE
1002
{
1070
    40
1040
1.0
1002
}
  0
DIMENSION
  5
123C2
330
1A
100
AcDbEntity
  8
SUNPOU
100
AcDbDimension
  2
*D35
 10
-1608.207541250036
 20
1729.889257280211
 30
0.0
 11
-1622.955632378497
 21
1732.639257280211
 31
0.0
 70
    32
  3
標準スタイル
100
AcDbAlignedDimension
 13
-1637.703723506958
 23
1779.461558248305
 33
0.0
 14
-1608.207541250036
 24
1820.672154096005
 34
0.0
100
AcDbRotatedDimension
1001
ACAD
1000
DSTYLE
1002
{
1070
    40
1040
1.0
1002
}
  0
DIMENSION
  5
123CF
330
1A
100
AcDbEntity
  8
SUNPOU
100
AcDbDimension
  2
*D36
 10
-1684.207539250035
 20
1721.273556039855
 30
0.0
 11
-1696.561613163742
 21
1721.273556039855
 31
0.0
 70
   160
  1
(3)
  3
標準スタイル
100
AcDbAlignedDimension
 13
-1687.207552250036
 23
1740.672164096005
 33
0.0
 14
-1684.207539250035
 24
1743.965074096004
 34
0.0
100
AcDbRotatedDimension
1001
ACAD
1000
DSTYLE
1002
{
1070
    40
1040
1.0
1002
}
  0
DIMENSION
  5
123F4
330
1A
100
AcDbEntity
  8
SUNPOU
100
AcDbDimension
  2
*D37
 10
-1611.207551250036
 20
1721.273556039855
 30
0.0
 11
-1647.707545250036
 21
1724.023556039855
 31
0.0
 70
    32
  3
標準スタイル
100
AcDbAlignedDimension
 13
-1684.207539250035
 23
1743.965074096004
 33
0.0
 14
-1611.207551250036
 24
1820.965054096004
 34
0.0
100
AcDbRotatedDimension
1001
ACAD
1000
DSTYLE
1002
{
1070
    40
1040
1.0
1002
}
  0
DIMENSION
  5
12401
330
1A
100
AcDbEntity
  8
SUNPOU
100
AcDbDimension
  2
*D38
 10
-1608.207541250036
 20
1721.273556039855
 30
0.0
 11
-1598.85348033633
 21
1724.316703247977
 31
0.0
 70
    32
  1
(3)
  3
標準スタイル
100
AcDbAlignedDimension
 13
-1611.207551250036
 23
1820.965054096004
 33
0.0
 14
-1608.207541250036
 24
1820.672154096005
 34
0.0
100
AcDbRotatedDimension
1001
ACAD
1000
DSTYLE
1002
{
1070
    40
1040
1.0
1002
}
  0
DIMENSION
  5
12411
330
1A
100
AcDbEntity
  8
SUNPOU
100
AcDbDimension
  2
*D39
 10
-1608.207541250036
 20
1713.014748444889
 30
0.0
 11
-1647.707546750035
 21
1715.764748444889
 31
0.0
 70
    32
  3
標準スタイル
100
AcDbAlignedDimension
 13
-1687.207552250036
 23
1740.672164096005
 33
0.0
 14
-1608.207541250036
 24
1820.672154096005
 34
0.0
100
AcDbRotatedDimension
1001
ACAD
1000
DSTYLE
1002
{
1070
    40
1040
1.0
1002
}
  0
DIMENSION
  5
1241E
330
1A
100
AcDbEntity
  8
SUNPOU
100
AcDbDimension
  2
*D40
 10
-1598.178062306032
 20
1819.965044096004
 30
0.0
 11
-1600.928062306032
 21
1823.965049096004
 31
0.0
 70
    32
  3
標準スタイル
100
AcDbAlignedDimension
 13
-1608.914681250036
 23
1827.965054096004
 33
0.0
 14
-1608.914681250036
 24
1819.965044096004
 34
0.0
 50
90.0
100
AcDbRotatedDimension
1001
ACAD
1000
DSTYLE
1002
{
1070
    40
1040
1.0
1002
}
  0
DIMENSION
  5
12438
330
1A
100
AcDbEntity
  8
SUNPOU
100
AcDbDimension
  2
*D41
 10
-1535.585941250036
 20
1835.687120433851
 30
0.0
 11
-1557.585921250036
 21
1838.845749875475
 31
0.0
 70
    32
  1
44(コネクタ実装時)
  3
標準スタイル
100
AcDbAlignedDimension
 13
-1579.585901250036
 23
1827.965054096004
 33
0.0
 14
-1535.585941250036
 24
1827.965054096004
 34
0.0
100
AcDbRotatedDimension
1001
ACAD
1000
DSTYLE
1002
{
1070
    40
1040
1.0
1002
}
  0
DIMENSION
  5
1244F
330
1A
100
AcDbEntity
  8
SUNPOU
100
AcDbDimension
  2
*D42
 10
-1535.585941250036
 20
1729.889257280211
 30
0.0
 11
-1527.679849879478
 21
1732.639257280211
 31
0.0
 70
    32
  3
標準スタイル
100
AcDbAlignedDimension
 13
-1537.585941250036
 23
1739.965054096003
 33
0.0
 14
-1535.585941250036
 24
1740.672164096005
 34
0.0
100
AcDbRotatedDimension
1001
ACAD
1000
DSTYLE
1002
{
1070
    40
1040
1.0
1002
}
  0
DIMENSION
  5
1245E
330
1A
100
AcDbEntity
  8
SUNPOU
100
AcDbDimension
  2
*D43
 10
-1535.585941250036
 20
1721.273556039855
 30
0.0
 11
-1548.83582737004
 21
1724.023556039855
 31
0.0
 70
    32
  3
標準スタイル
100
AcDbAlignedDimension
 13
-1562.085713490042
 23
1739.954441803991
 33
0.0
 14
-1535.585941250036
 24
1739.965054096003
 34
0.0
100
AcDbRotatedDimension
1001
ACAD
1000
DSTYLE
1002
{
1070
    40
1040
1.0
1002
}
  0
LEADER
  5
12472
330
1A
100
AcDbEntity
  8
SUNPOU
100
AcDbLeader
  3
標準スタイル
 76
     3
 10
-1612.122180314921
 20
1825.45702700562
 30
0.0
 10
-1623.574902716659
 20
1844.045134442905
 30
0.0
 10
-1637.553874475793
 20
1844.045134442905
 30
0.0
1001
ACAD
1000
DSTYLE
1002
{
1070
     5
1000

1070
    77
1070
     0
1070
   147
1040
1.0
1002
}
  0
MTEXT
  5
12473
330
1A
100
AcDbEntity
  8
SUNPOU
100
AcDbMText
 10
-1637.553874475793
 20
1848.319523645455
 30
0.0
 40
3.5
 41
15.0981
 71
     1
 72
     5
  1
φ3.5
  7
ゴシック体
1001
ACAD
1000
MTEXTBEGIN
1070
    73
1070
     1
1070
    44
1040
1.0
1070
    74
1070
     0
1000
MTEXTEND
  0
VIEWPORT
  5
5D8F
330
5D8E
100
AcDbEntity
 67
     1
  8
0
100
AcDbViewport
 10
225.1141565370003
 20
374.9354302216565
 30
0.0
 40
648.3736193203858
 41
739.7667092777806
 68
     1
 69
     1
1001
ACAD
1000
MVIEW
1002
{
1070
    16
1010
0.0
1020
0.0
1030
0.0
1010
0.0
1020
0.0
1030
1.0
1040
0.0
1040
739.7667092777806
1040
225.1141565370003
1040
374.9354302216565
1040
50.0
1040
0.0
1040
0.0
1070
     0
1070
   100
1070
     1
1070
     0
1070
     0
1070
     0
1070
     0
1070
     0
1040
0.0
1040
0.0
1040
0.0
1040
1.0
1040
1.0
1040
10.0
1040
10.0
1070
     0
1002
{
1002
}
1002
}
  0
VIEWPORT
  5
6001
330
5D8E
100
AcDbEntity
 67
     1
  8
ZISSEN1
100
AcDbViewport
 10
221.786195552541
 20
157.6960273330388
 30
0.0
 40
385.4999999999997
 41
259.9999999999999
 68
     2
 69
     2
1001
ACAD
1000
MVIEW
1002
{
1070
    16
1010
0.0
1020
0.0
1030
0.0
1010
0.0
1020
0.0
1030
1.0
1040
0.0
1040
259.9999999999999
1040
-1627.05541000048
1040
1787.723502756842
1040
50.0
1040
0.0
1040
0.0
1070
     0
1070
   100
1070
     1
1070
     0
1070
     0
1070
     0
1070
     0
1070
     0
1040
0.0
1040
0.0
1040
0.0
1040
1.0
1040
1.0
1040
10.0
1040
10.0
1070
     0
1002
{
1002
}
1002
}
  0
TEXT
  5
716F
330
5D8E
100
AcDbEntity
 67
     1
  8
SUNPOU
 62
     0
100
AcDbText
 10
374.1863124306942
 20
60.86794705907585
 30
0.0
 40
3.5
  1
縮尺 1/1
  7
ゴシック体
100
AcDbText
  0
ENDSEC
  0
SECTION
  2
OBJECTS
  0
DICTIONARY
  5
C
330
0
100
AcDbDictionary
  3
ACAD_GROUP
350
D
  3
ACAD_LAYOUT
350
5C7D
  3
ACAD_MLINESTYLE
350
E
  3
ACAD_PLOTSETTINGS
350
5C7E
  3
ACAD_PLOTSTYLENAME
350
5C7B
  3
ACADDIM
350
1246E
  3
DWGPROPS
350
5E8E
  3
ACDBVARIABLEDICTIONARY
350
124C2
  3
ACDBHEADERROUNDTRIPXREC
350
124CD
  0
DICTIONARY
  5
124ED
330
1A
100
AcDbDictionary
280
     1
  3
ACAD_LAYOUTSELFREF
360
124EE
  0
DICTIONARY
  5
124EF
330
5D8E
100
AcDbDictionary
280
     1
  3
ACAD_LAYOUTSELFREF
360
124F0
  0
DICTIONARY
  5
D
102
{ACAD_REACTORS
330
C
102
}
330
C
100
AcDbDictionary
  3
*A1
350
477D
  3
*A2
350
477E
  3
*A3
350
477F
  3
*A4
350
4780
  3
*A5
350
4781
  3
*A6
350
4C0E
  3
*A7
350
4C0F
  3
*A8
350
4C10
  3
*A9
350
4C11
  3
*A10
350
4C12
  3
*A11
350
4C13
  3
*A12
350
4C14
  3
*A13
350
4C15
  3
*A14
350
4C16
  3
*A15
350
4C17
  0
DICTIONARY
  5
5C7D
102
{ACAD_REACTORS
330
C
102
}
330
C
100
AcDbDictionary
  0
DICTIONARY
  5
E
102
{ACAD_REACTORS
330
C
102
}
330
C
100
AcDbDictionary
  3
STANDARD
350
13
  0
DICTIONARY
  5
5C7E
102
{ACAD_REACTORS
330
C
102
}
330
C
100
AcDbDictionary
  0
ACDBDICTIONARYWDFLT
  5
5C7B
102
{ACAD_REACTORS
330
C
102
}
330
C
100
AcDbDictionary
281
     1
  3
Normal
350
5C7C
100
AcDbDictionaryWithDefault
340
5C7C
  0
XRECORD
  5
1246E
102
{ACAD_REACTORS
330
C
102
}
330
C
100
AcDbXrecord
 90
   990106
  3

 60
     0
 61
     0
 62
     1
 63
     3
 64
     0
 65
     0
 66
     0
 67
     3
 68
     1
 69
     0
 70
     0
 71
     0
 72
     0
 40
0.0
170
     0
  0
XRECORD
  5
5E8E
102
{ACAD_REACTORS
330
C
102
}
330
C
100
AcDbXrecord
  1
DWGPROPS COOKIE
  2

  3

  4

  6

  7

  8

  9

300
=
301
=
302
=
303
=
304
=
305
=
306
=
307
=
308
=
309
=
 40
0.586753587962963
 41
2450495.493631364
 42
2453208.662277431
  1

 90
        0
  0
DICTIONARY
  5
124C2
102
{ACAD_REACTORS
330
C
102
}
330
C
100
AcDbDictionary
  3
INDEXCTL
350
124C3
  0
DICTIONARY
  5
124CD
102
{ACAD_REACTORS
330
C
102
}
330
C
100
AcDbDictionary
  3
TSTACKALIGN
350
124CE
  3
TSTACKSIZE
350
124CF
  3
HYPERLINKBASE
350
124D0
  3
STYLESHEET
350
124D1
  3
LAYOUTDICT
350
124D2
  3
PLOTSETDICT
350
124D3
  3
PLOTSTYLNAMDICT
350
124D4
  3
LWETCUNION
350
124D5
  3
INSUNITS
350
124D6
  3
CEPSNTYPE
350
124D7
  3
FINGERPRINTGUID
350
124D8
  3
VERSIONGUID
350
124D9
  3
PSVPSCALE
350
124DA
  3
PUCSORTHOREF
350
124DB
  3
PUCSORTHOVIEW
350
124DC
  3
PUCSBASE
350
124DD
  3
PUCSORGTOP
350
124DE
  3
PUCSORGBOTTOM
350
124DF
  3
PUCSORGLEFT
350
124E0
  3
PUCSORGRIGHT
350
124E1
  3
PUCSORGFRONT
350
124E2
  3
PUCSORGBACK
350
124E3
  3
UCSORTHOREF
350
124E4
  3
UCSORTHOVIEW
350
124E5
  3
UCSBASE
350
124E6
  3
UCSORGTOP
350
124E7
  3
UCSORGBOTTOM
350
124E8
  3
UCSORGLEFT
350
124E9
  3
UCSORGRIGHT
350
124EA
  3
UCSORGFRONT
350
124EB
  3
UCSORGBACK
350
124EC
  0
XRECORD
  5
124EE
102
{ACAD_REACTORS
330
124ED
102
}
330
124ED
100
AcDbXrecord
340
1A
  0
XRECORD
  5
124F0
102
{ACAD_REACTORS
330
124EF
102
}
330
124EF
100
AcDbXrecord
340
5D8E
  0
GROUP
  5
477D
102
{ACAD_REACTORS
330
D
102
}
330
D
100
AcDbGroup
300

 70
     1
 71
     1
  0
GROUP
  5
477E
102
{ACAD_REACTORS
330
D
102
}
330
D
100
AcDbGroup
300

 70
     1
 71
     1
  0
GROUP
  5
477F
102
{ACAD_REACTORS
330
D
102
}
330
D
100
AcDbGroup
300

 70
     1
 71
     1
  0
GROUP
  5
4780
102
{ACAD_REACTORS
330
D
102
}
330
D
100
AcDbGroup
300

 70
     1
 71
     1
  0
GROUP
  5
4781
102
{ACAD_REACTORS
330
D
102
}
330
D
100
AcDbGroup
300

 70
     1
 71
     1
  0
GROUP
  5
4C0E
102
{ACAD_REACTORS
330
D
102
}
330
D
100
AcDbGroup
300

 70
     1
 71
     1
  0
GROUP
  5
4C0F
102
{ACAD_REACTORS
330
D
102
}
330
D
100
AcDbGroup
300

 70
     1
 71
     1
  0
GROUP
  5
4C10
102
{ACAD_REACTORS
330
D
102
}
330
D
100
AcDbGroup
300

 70
     1
 71
     1
  0
GROUP
  5
4C11
102
{ACAD_REACTORS
330
D
102
}
330
D
100
AcDbGroup
300

 70
     1
 71
     1
  0
GROUP
  5
4C12
102
{ACAD_REACTORS
330
D
102
}
330
D
100
AcDbGroup
300

 70
     1
 71
     1
  0
GROUP
  5
4C13
102
{ACAD_REACTORS
330
D
102
}
330
D
100
AcDbGroup
300

 70
     1
 71
     1
  0
GROUP
  5
4C14
102
{ACAD_REACTORS
330
D
102
}
330
D
100
AcDbGroup
300

 70
     1
 71
     1
  0
GROUP
  5
4C15
102
{ACAD_REACTORS
330
D
102
}
330
D
100
AcDbGroup
300

 70
     1
 71
     1
  0
GROUP
  5
4C16
102
{ACAD_REACTORS
330
D
102
}
330
D
100
AcDbGroup
300

 70
     1
 71
     1
  0
GROUP
  5
4C17
102
{ACAD_REACTORS
330
D
102
}
330
D
100
AcDbGroup
300

 70
     1
 71
     1
  0
MLINESTYLE
  5
13
102
{ACAD_REACTORS
330
E
102
}
330
E
100
AcDbMlineStyle
  2
STANDARD
 70
     0
  3

 62
     0
 51
90.0
 52
90.0
 71
     2
 49
0.5
 62
   256
  6
BYLAYER
 49
-0.5
 62
   256
  6
BYLAYER
  0
ACDBPLACEHOLDER
  5
5C7C
102
{ACAD_REACTORS
330
5C7B
102
}
330
5C7B
100
AcDbPlaceHolder
280
     0
  0
DICTIONARYVAR
  5
124C3
102
{ACAD_REACTORS
330
124C2
102
}
330
124C2
100
DictionaryVariables
280
     0
  1
-1
  0
XRECORD
  5
124CE
102
{ACAD_REACTORS
330
124CD
102
}
330
124CD
100
AcDbXrecord
 90
        1
  0
XRECORD
  5
124CF
102
{ACAD_REACTORS
330
124CD
102
}
330
124CD
100
AcDbXrecord
 90
       70
  0
XRECORD
  5
124D0
102
{ACAD_REACTORS
330
124CD
102
}
330
124CD
100
AcDbXrecord
  1

  0
XRECORD
  5
124D1
102
{ACAD_REACTORS
330
124CD
102
}
330
124CD
100
AcDbXrecord
  1

  0
XRECORD
  5
124D2
102
{ACAD_REACTORS
330
124CD
102
}
330
124CD
100
AcDbXrecord
340
5C7D
  0
XRECORD
  5
124D3
102
{ACAD_REACTORS
330
124CD
102
}
330
124CD
100
AcDbXrecord
340
5C7E
  0
XRECORD
  5
124D4
102
{ACAD_REACTORS
330
124CD
102
}
330
124CD
100
AcDbXrecord
340
5C7B
  0
XRECORD
  5
124D5
102
{ACAD_REACTORS
330
124CD
102
}
330
124CD
100
AcDbXrecord
 90
    10781
  0
XRECORD
  5
124D6
102
{ACAD_REACTORS
330
124CD
102
}
330
124CD
100
AcDbXrecord
 90
        0
  0
XRECORD
  5
124D7
102
{ACAD_REACTORS
330
124CD
102
}
330
124CD
100
AcDbXrecord
 90
        0
  0
XRECORD
  5
124D8
102
{ACAD_REACTORS
330
124CD
102
}
330
124CD
100
AcDbXrecord
  1
{225A7F0D-DA29-11D8-946A-0000E2416295}
  0
XRECORD
  5
124D9
102
{ACAD_REACTORS
330
124CD
102
}
330
124CD
100
AcDbXrecord
  1
{B90B2943-4C90-485B-A7DB-B36D85523A20}
  0
XRECORD
  5
124DA
102
{ACAD_REACTORS
330
124CD
102
}
330
124CD
100
AcDbXrecord
 40
0.0
  0
XRECORD
  5
124DB
102
{ACAD_REACTORS
330
124CD
102
}
330
124CD
100
AcDbXrecord
340
0
  0
XRECORD
  5
124DC
102
{ACAD_REACTORS
330
124CD
102
}
330
124CD
100
AcDbXrecord
 70
     0
  0
XRECORD
  5
124DD
102
{ACAD_REACTORS
330
124CD
102
}
330
124CD
100
AcDbXrecord
340
0
  0
XRECORD
  5
124DE
102
{ACAD_REACTORS
330
124CD
102
}
330
124CD
100
AcDbXrecord
 10
0.0
 20
0.0
 30
0.0
  0
XRECORD
  5
124DF
102
{ACAD_REACTORS
330
124CD
102
}
330
124CD
100
AcDbXrecord
 10
0.0
 20
0.0
 30
0.0
  0
XRECORD
  5
124E0
102
{ACAD_REACTORS
330
124CD
102
}
330
124CD
100
AcDbXrecord
 10
0.0
 20
0.0
 30
0.0
  0
XRECORD
  5
124E1
102
{ACAD_REACTORS
330
124CD
102
}
330
124CD
100
AcDbXrecord
 10
0.0
 20
0.0
 30
0.0
  0
XRECORD
  5
124E2
102
{ACAD_REACTORS
330
124CD
102
}
330
124CD
100
AcDbXrecord
 10
0.0
 20
0.0
 30
0.0
  0
XRECORD
  5
124E3
102
{ACAD_REACTORS
330
124CD
102
}
330
124CD
100
AcDbXrecord
 10
0.0
 20
0.0
 30
0.0
  0
XRECORD
  5
124E4
102
{ACAD_REACTORS
330
124CD
102
}
330
124CD
100
AcDbXrecord
340
0
  0
XRECORD
  5
124E5
102
{ACAD_REACTORS
330
124CD
102
}
330
124CD
100
AcDbXrecord
 70
     0
  0
XRECORD
  5
124E6
102
{ACAD_REACTORS
330
124CD
102
}
330
124CD
100
AcDbXrecord
340
0
  0
XRECORD
  5
124E7
102
{ACAD_REACTORS
330
124CD
102
}
330
124CD
100
AcDbXrecord
 10
0.0
 20
0.0
 30
0.0
  0
XRECORD
  5
124E8
102
{ACAD_REACTORS
330
124CD
102
}
330
124CD
100
AcDbXrecord
 10
0.0
 20
0.0
 30
0.0
  0
XRECORD
  5
124E9
102
{ACAD_REACTORS
330
124CD
102
}
330
124CD
100
AcDbXrecord
 10
0.0
 20
0.0
 30
0.0
  0
XRECORD
  5
124EA
102
{ACAD_REACTORS
330
124CD
102
}
330
124CD
100
AcDbXrecord
 10
0.0
 20
0.0
 30
0.0
  0
XRECORD
  5
124EB
102
{ACAD_REACTORS
330
124CD
102
}
330
124CD
100
AcDbXrecord
 10
0.0
 20
0.0
 30
0.0
  0
XRECORD
  5
124EC
102
{ACAD_REACTORS
330
124CD
102
}
330
124CD
100
AcDbXrecord
 10
0.0
 20
0.0
 30
0.0
  0
ENDSEC
  0
EOF
