  0
SECTION
  2
HEADER
  9
$ACADVER
  1
AC1014
  9
$ACADMAINTVER
 70
     9
  9
$DWGCODEPAGE
  3
ANSI_932
  9
$INSBASE
 10
0.0
 20
0.0
 30
0.0
  9
$EXTMIN
 10
-1741.210748181922
 20
1672.514898547991
 30
0.0
  9
$EXTMAX
 10
-1567.306532211293
 20
1851.146062059743
 30
0.0
  9
$LIMMIN
 10
0.0
 20
0.0
  9
$LIMMAX
 10
420.0
 20
297.0
  9
$ORTHOMODE
 70
     1
  9
$REGENMODE
 70
     1
  9
$FILLMODE
 70
     1
  9
$QTEXTMODE
 70
     0
  9
$MIRRTEXT
 70
     1
  9
$DRAGMODE
 70
     2
  9
$LTSCALE
 40
1.0
  9
$OSMODE
 70
    37
  9
$ATTMODE
 70
     1
  9
$TEXTSIZE
 40
2.5
  9
$TRACEWID
 40
1.0
  9
$TEXTSTYLE
  7
ゴシック体
  9
$CLAYER
  8
SUNPOU
  9
$CELTYPE
  6
BYLAYER
  9
$CECOLOR
 62
   256
  9
$CELTSCALE
 40
1.0
  9
$DELOBJ
 70
     1
  9
$DISPSILH
 70
     0
  9
$DIMSCALE
 40
0.0
  9
$DIMASZ
 40
3.0
  9
$DIMEXO
 40
0.5
  9
$DIMDLI
 40
0.5
  9
$DIMRND
 40
0.0
  9
$DIMDLE
 40
0.0
  9
$DIMEXE
 40
0.5
  9
$DIMTP
 40
0.0
  9
$DIMTM
 40
0.0
  9
$DIMTXT
 40
3.5
  9
$DIMCEN
 40
0.0
  9
$DIMTSZ
 40
0.0
  9
$DIMTOL
 70
     0
  9
$DIMLIM
 70
     0
  9
$DIMTIH
 70
     0
  9
$DIMTOH
 70
     0
  9
$DIMSE1
 70
     0
  9
$DIMSE2
 70
     0
  9
$DIMTAD
 70
     1
  9
$DIMZIN
 70
     8
  9
$DIMBLK
  1

  9
$DIMASO
 70
     1
  9
$DIMSHO
 70
     1
  9
$DIMPOST
  1

  9
$DIMAPOST
  1

  9
$DIMALT
 70
     0
  9
$DIMALTD
 70
     2
  9
$DIMALTF
 40
25.4
  9
$DIMLFAC
 40
1.0
  9
$DIMTOFL
 70
     1
  9
$DIMTVP
 40
0.0
  9
$DIMTIX
 70
     0
  9
$DIMSOXD
 70
     0
  9
$DIMSAH
 70
     0
  9
$DIMBLK1
  1

  9
$DIMBLK2
  1

  9
$DIMSTYLE
  2
標準スタイル
  9
$DIMCLRD
 70
     1
  9
$DIMCLRE
 70
     1
  9
$DIMCLRT
 70
     1
  9
$DIMTFAC
 40
1.0
  9
$DIMGAP
 40
1.0
  9
$DIMJUST
 70
     0
  9
$DIMSD1
 70
     0
  9
$DIMSD2
 70
     0
  9
$DIMTOLJ
 70
     1
  9
$DIMTZIN
 70
     8
  9
$DIMALTZ
 70
     0
  9
$DIMALTTZ
 70
     0
  9
$DIMFIT
 70
     3
  9
$DIMUPT
 70
     0
  9
$DIMUNIT
 70
     2
  9
$DIMDEC
 70
     2
  9
$DIMTDEC
 70
     2
  9
$DIMALTU
 70
     2
  9
$DIMALTTD
 70
     2
  9
$DIMTXSTY
  7
ゴシック体
  9
$DIMAUNIT
 70
     0
  9
$LUNITS
 70
     2
  9
$LUPREC
 70
     4
  9
$SKETCHINC
 40
1.0
  9
$FILLETRAD
 40
0.0
  9
$AUNITS
 70
     0
  9
$AUPREC
 70
     0
  9
$MENU
  1
.
  9
$ELEVATION
 40
0.0
  9
$PELEVATION
 40
0.0
  9
$THICKNESS
 40
0.0
  9
$LIMCHECK
 70
     0
  9
$BLIPMODE
 70
     0
  9
$CHAMFERA
 40
10.0
  9
$CHAMFERB
 40
10.0
  9
$CHAMFERC
 40
2.0
  9
$CHAMFERD
 40
0.7853981633974483
  9
$SKPOLY
 70
     0
  9
$TDCREATE
 40
2450495.493631365
  9
$TDUPDATE
 40
2453984.412657106
  9
$TDINDWG
 40
1.5005633333
  9
$TDUSRTIMER
 40
1.5005632176
  9
$USRTIMER
 70
     1
  9
$ANGBASE
 50
0.0
  9
$ANGDIR
 70
     0
  9
$PDMODE
 70
    99
  9
$PDSIZE
 40
0.0
  9
$PLINEWID
 40
0.0
  9
$COORDS
 70
     1
  9
$SPLFRAME
 70
     0
  9
$SPLINETYPE
 70
     6
  9
$SPLINESEGS
 70
     8
  9
$ATTDIA
 70
     0
  9
$ATTREQ
 70
     1
  9
$HANDLING
 70
 10241
  9
$HANDSEED
  5
11E2F
  9
$SURFTAB1
 70
     6
  9
$SURFTAB2
 70
     6
  9
$SURFTYPE
 70
     6
  9
$SURFU
 70
     6
  9
$SURFV
 70
     6
  9
$UCSNAME
  2

  9
$UCSORG
 10
0.0
 20
0.0
 30
0.0
  9
$UCSXDIR
 10
1.0
 20
0.0
 30
0.0
  9
$UCSYDIR
 10
0.0
 20
1.0
 30
0.0
  9
$PUCSNAME
  2

  9
$PUCSORG
 10
0.0
 20
0.0
 30
0.0
  9
$PUCSXDIR
 10
1.0
 20
0.0
 30
0.0
  9
$PUCSYDIR
 10
0.0
 20
1.0
 30
0.0
  9
$USERI1
 70
     0
  9
$USERI2
 70
     0
  9
$USERI3
 70
     0
  9
$USERI4
 70
     0
  9
$USERI5
 70
     0
  9
$USERR1
 40
0.0
  9
$USERR2
 40
0.0
  9
$USERR3
 40
0.0
  9
$USERR4
 40
0.0
  9
$USERR5
 40
0.0
  9
$WORLDVIEW
 70
     1
  9
$SHADEDGE
 70
     3
  9
$SHADEDIF
 70
    70
  9
$TILEMODE
 70
     1
  9
$MAXACTVP
 70
    16
  9
$PINSBASE
 10
0.0
 20
0.0
 30
0.0
  9
$PLIMCHECK
 70
     0
  9
$PEXTMIN
 10
29.03619555254121
 20
27.69602733303884
 30
0.0
  9
$PEXTMAX
 10
414.5361955525409
 20
287.6960273330388
 30
0.0
  9
$PLIMMIN
 10
15.15433780389673
 20
13.80781516542163
  9
$PLIMMAX
 10
435.1009930773342
 20
310.8184658001872
  9
$UNITMODE
 70
     0
  9
$VISRETAIN
 70
     0
  9
$PLINEGEN
 70
     0
  9
$PSLTSCALE
 70
     1
  9
$TREEDEPTH
 70
  3020
  9
$PICKSTYLE
 70
     1
  9
$CMLSTYLE
  2
STANDARD
  9
$CMLJUST
 70
     0
  9
$CMLSCALE
 40
1.0
  9
$PROXYGRAPHICS
 70
     1
  9
$MEASUREMENT
 70
     1
  0
ENDSEC
  0
SECTION
  2
CLASSES
  0
CLASS
  1
LWPOLYLINE
  2
AcDbPolyline
  3
AutoCAD 2000
 90
        0
280
     0
281
     1
  0
CLASS
  1
HATCH
  2
AcDbHatch
  3
AutoCAD 2000
 90
        0
280
     0
281
     1
  0
CLASS
  1
ACDBDICTIONARYWDFLT
  2
AcDbDictionaryWithDefault
  3
AutoCAD 2000
 90
        0
280
     0
281
     0
  0
CLASS
  1
ACDBPLACEHOLDER
  2
AcDbPlaceHolder
  3
AutoCAD 2000
 90
        0
280
     0
281
     0
  0
CLASS
  1
LAYOUT
  2
AcDbLayout
  3
AutoCAD 2000
 90
        0
280
     0
281
     0
  0
CLASS
  1
DICTIONARYVAR
  2
AcDbDictionaryVar
  3
AutoCAD 2000
 90
        0
280
     0
281
     0
  0
CLASS
  1
LONG_TRANSACTION
  2
AcDbLongTransaction
  3
AutoCAD 2000
 90
        0
280
     0
281
     0
  0
CLASS
  1
LWPOLYLINE
  2
AcDbPolyline
  3
AutoCAD 2000
 90
        0
280
     0
281
     1
  0
CLASS
  1
HATCH
  2
AcDbHatch
  3
AutoCAD 2000
 90
        0
280
     0
281
     1
  0
CLASS
  1
XRECORD
  2
AcDbXrecord
  3
AutoCAD 2000
 90
        0
280
     0
281
     0
  0
ENDSEC
  0
SECTION
  2
TABLES
  0
TABLE
  2
VPORT
  5
8
330
0
100
AcDbSymbolTable
 70
     2
  0
VPORT
  5
11E0A
330
8
100
AcDbSymbolTableRecord
100
AcDbViewportTableRecord
  2
*ACTIVE
 70
     0
 10
0.0
 20
0.0
 11
1.0
 21
1.0
 12
-1585.682011256482
 22
1765.138883625565
 13
0.0
 23
0.0
 14
5.0
 24
5.0
 15
0.0
 25
0.0
 16
0.0
 26
0.0
 36
1.0
 17
0.0
 27
0.0
 37
0.0
 40
221.6358149001488
 41
2.192560175054704
 42
50.0
 43
0.0
 44
0.0
 50
0.0
 51
0.0
 71
     0
 72
   100
 73
     1
 74
     0
 75
     0
 76
     0
 77
     0
 78
     0
  0
ENDTAB
  0
TABLE
  2
LTYPE
  5
5
330
0
100
AcDbSymbolTable
 70
    13
  0
LTYPE
  5
14
330
5
100
AcDbSymbolTableRecord
100
AcDbLinetypeTableRecord
  2
BYBLOCK
 70
     0
  3

 72
    65
 73
     0
 40
0.0
  0
LTYPE
  5
15
330
5
100
AcDbSymbolTableRecord
100
AcDbLinetypeTableRecord
  2
BYLAYER
 70
     0
  3

 72
    65
 73
     0
 40
0.0
  0
LTYPE
  5
16
330
5
100
AcDbSymbolTableRecord
100
AcDbLinetypeTableRecord
  2
CONTINUOUS
 70
     0
  3
Solid line
 72
    65
 73
     0
 40
0.0
  0
LTYPE
  5
1956
330
5
100
AcDbSymbolTableRecord
100
AcDbLinetypeTableRecord
  2
CENTERX2
 70
     0
  3
________  __  ________  __  ________  __  _____
 72
    65
 73
     4
 40
4.0
 49
2.5
 74
     0
 49
-0.5
 74
     0
 49
0.5
 74
     0
 49
-0.5
 74
     0
  0
ENDTAB
  0
TABLE
  2
LAYER
  5
2
330
0
100
AcDbSymbolTable
 70
    34
  0
LAYER
  5
F
330
2
100
AcDbSymbolTableRecord
100
AcDbLayerTableRecord
  2
0
 70
     0
 62
     7
  6
CONTINUOUS
  0
LAYER
  5
18F
330
2
100
AcDbSymbolTableRecord
100
AcDbLayerTableRecord
  2
ZISSEN1
 70
     0
 62
     7
  6
CONTINUOUS
  0
LAYER
  5
529
330
2
100
AcDbSymbolTableRecord
100
AcDbLayerTableRecord
  2
SUNPOU
 70
     0
 62
     1
  6
CONTINUOUS
  0
LAYER
  5
195A
330
2
100
AcDbSymbolTableRecord
100
AcDbLayerTableRecord
  2
CL1
 70
     0
 62
   210
  6
CENTERX2
  0
LAYER
  5
3A9B
330
2
100
AcDbSymbolTableRecord
100
AcDbLayerTableRecord
  2
DEFPOINTS
 70
     0
 62
     7
  6
CONTINUOUS
  0
ENDTAB
  0
TABLE
  2
STYLE
  5
3
330
0
100
AcDbSymbolTable
 70
     5
  0
STYLE
  5
10
330
3
100
AcDbSymbolTableRecord
100
AcDbTextStyleTableRecord
  2
STANDARD
 70
     0
 40
0.0
 41
1.0
 50
0.0
 71
     0
 42
3.0
  3
txt
  4
BigFont
  0
STYLE
  5
1960
330
3
100
AcDbSymbolTableRecord
100
AcDbTextStyleTableRecord
  2
ゴシック体
 70
     0
 40
0.0
 41
1.0
 50
0.0
 71
     0
 42
2.5
  3
MS Gothic.ttf
  4

1001
ACAD
1000
MS Gothic
1071
    32817
  0
ENDTAB
  0
TABLE
  2
VIEW
  5
6
330
0
100
AcDbSymbolTable
 70
     0
  0
ENDTAB
  0
TABLE
  2
UCS
  5
7
330
0
100
AcDbSymbolTable
 70
     0
  0
ENDTAB
  0
TABLE
  2
APPID
  5
9
330
0
100
AcDbSymbolTable
 70
     5
  0
APPID
  5
11
330
9
100
AcDbSymbolTableRecord
100
AcDbRegAppTableRecord
  2
ACAD
 70
     0
  0
APPID
  5
4005
330
9
100
AcDbSymbolTableRecord
100
AcDbRegAppTableRecord
  2
CONTENTTABDATA
 70
     0
  0
APPID
  5
4006
330
9
100
AcDbSymbolTableRecord
100
AcDbRegAppTableRecord
  2
CONTENTCURRENTTAB
 70
     0
  0
APPID
  5
477B
330
9
100
AcDbSymbolTableRecord
100
AcDbRegAppTableRecord
  2
CONTENTBLOCKDESCRIPTION
 70
     0
  0
APPID
  5
477C
330
9
100
AcDbSymbolTableRecord
100
AcDbRegAppTableRecord
  2
CONTENTBLOCKICON
 70
     0
  0
ENDTAB
  0
TABLE
  2
DIMSTYLE
  5
A
330
0
100
AcDbSymbolTable
 70
    12
  0
DIMSTYLE
105
1D
330
A
100
AcDbSymbolTableRecord
100
AcDbDimStyleTableRecord
  2
STANDARD
 70
     0
  3

  4

  5

  6

  7

 40
1.0
 41
0.18
 42
0.0625
 43
0.38
 44
0.18
 45
0.0
 46
0.0
 47
0.0
 48
0.0
140
0.18
141
0.09
142
0.0
143
25.4
144
1.0
145
0.0
146
1.0
147
0.09
 71
     0
 72
     0
 73
     1
 74
     1
 75
     0
 76
     0
 77
     0
 78
     0
170
     0
171
     2
172
     0
173
     0
174
     0
175
     0
176
     0
177
     0
178
     0
270
     2
271
     4
272
     4
273
     2
274
     2
340
10
275
     0
280
     0
281
     0
282
     0
283
     1
284
     0
285
     0
286
     0
287
     3
288
     0
  0
DIMSTYLE
105
52E
102
{ACAD_REACTORS
330
11CCC
330
11CDB
330
11CFA
330
11D10
330
11D2F
330
11D4E
330
11D5B
330
11D68
330
11D82
330
11D8F
330
11DAE
102
}
330
A
100
AcDbSymbolTableRecord
100
AcDbDimStyleTableRecord
  2
標準スタイル
 70
     0
  3

  4

  5

  6

  7

 40
0.0
 41
3.0
 42
0.5
 43
0.5
 44
0.5
 45
0.0
 46
0.0
 47
0.0
 48
0.0
140
3.5
141
0.0
142
0.0
143
25.4
144
1.0
145
0.0
146
1.0
147
1.0
 71
     0
 72
     0
 73
     0
 74
     0
 75
     0
 76
     0
 77
     1
 78
     8
170
     0
171
     2
172
     1
173
     0
174
     0
175
     0
176
     1
177
     1
178
     1
270
     2
271
     2
272
     2
273
     2
274
     2
340
1960
275
     0
280
     0
281
     0
282
     0
283
     1
284
     8
285
     0
286
     0
287
     3
288
     0
  0
ENDTAB
  0
TABLE
  2
BLOCK_RECORD
  5
1
330
0
100
AcDbSymbolTable
 70
    34
  0
BLOCK_RECORD
  5
1A
102
{ACAD_XDICTIONARY
360
11E2B
102
}
330
1
100
AcDbSymbolTableRecord
100
AcDbBlockTableRecord
  2
*MODEL_SPACE
  0
BLOCK_RECORD
  5
5D8E
102
{ACAD_XDICTIONARY
360
11E2D
102
}
330
1
100
AcDbSymbolTableRecord
100
AcDbBlockTableRecord
  2
*PAPER_SPACE
  0
BLOCK_RECORD
  5
11CCD
330
1
100
AcDbSymbolTableRecord
100
AcDbBlockTableRecord
  2
*D23
  0
BLOCK_RECORD
  5
11CDC
330
1
100
AcDbSymbolTableRecord
100
AcDbBlockTableRecord
  2
*D24
  0
BLOCK_RECORD
  5
11CFB
330
1
100
AcDbSymbolTableRecord
100
AcDbBlockTableRecord
  2
*D25
  0
BLOCK_RECORD
  5
11D11
330
1
100
AcDbSymbolTableRecord
100
AcDbBlockTableRecord
  2
*D26
  0
BLOCK_RECORD
  5
11D30
330
1
100
AcDbSymbolTableRecord
100
AcDbBlockTableRecord
  2
*D27
  0
BLOCK_RECORD
  5
11D4F
330
1
100
AcDbSymbolTableRecord
100
AcDbBlockTableRecord
  2
*D28
  0
BLOCK_RECORD
  5
11D5C
330
1
100
AcDbSymbolTableRecord
100
AcDbBlockTableRecord
  2
*D29
  0
BLOCK_RECORD
  5
11D69
330
1
100
AcDbSymbolTableRecord
100
AcDbBlockTableRecord
  2
*D30
  0
BLOCK_RECORD
  5
11D83
330
1
100
AcDbSymbolTableRecord
100
AcDbBlockTableRecord
  2
*D31
  0
BLOCK_RECORD
  5
11D90
330
1
100
AcDbSymbolTableRecord
100
AcDbBlockTableRecord
  2
*D32
  0
BLOCK_RECORD
  5
11DAF
330
1
100
AcDbSymbolTableRecord
100
AcDbBlockTableRecord
  2
*D33
  0
ENDTAB
  0
ENDSEC
  0
SECTION
  2
BLOCKS
  0
BLOCK
  5
1B
330
1A
100
AcDbEntity
  8
0
100
AcDbBlockBegin
  2
*MODEL_SPACE
 70
     0
 10
0.0
 20
0.0
 30
0.0
  3
*MODEL_SPACE
  1

  0
ENDBLK
  5
1C
330
1A
100
AcDbEntity
  8
0
100
AcDbBlockEnd
  0
BLOCK
  5
5E60
330
5D8E
100
AcDbEntity
 67
     1
  8
0
100
AcDbBlockBegin
  2
*PAPER_SPACE
 70
     0
 10
0.0
 20
0.0
 30
0.0
  3
*PAPER_SPACE
  1

  0
ENDBLK
  5
5E61
330
5D8E
100
AcDbEntity
 67
     1
  8
0
100
AcDbBlockEnd
  0
BLOCK
  5
11CD9
330
11CCD
100
AcDbEntity
  8
0
100
AcDbBlockBegin
  2
*D23
 70
     1
 10
0.0
 20
0.0
 30
0.0
  3
*D23
  1

  0
LINE
  5
11DD9
330
11CCD
100
AcDbEntity
  8
SUNPOU
 62
     1
100
AcDbLine
 10
-1710.108181211293
 20
1805.143808816387
 30
0.0
 11
-1718.922863440407
 21
1805.143808816387
 31
0.0
  0
LINE
  5
11DDA
330
11CCD
100
AcDbEntity
  8
SUNPOU
 62
     1
100
AcDbLine
 10
-1703.215301211294
 20
1813.143798816387
 30
0.0
 11
-1718.922863440407
 21
1813.143798816387
 31
0.0
  0
LINE
  5
11DDB
330
11CCD
100
AcDbEntity
  8
SUNPOU
 62
     1
100
AcDbLine
 10
-1718.422863440407
 20
1802.143808816387
 30
0.0
 11
-1718.422863440407
 21
1799.143808816388
 31
0.0
  0
LINE
  5
11DDC
330
11CCD
100
AcDbEntity
  8
SUNPOU
 62
     1
100
AcDbLine
 10
-1718.422863440407
 20
1816.143798816387
 30
0.0
 11
-1718.422863440407
 21
1819.143798816386
 31
0.0
  0
LINE
  5
11DDD
330
11CCD
100
AcDbEntity
  8
SUNPOU
 62
     1
100
AcDbLine
 10
-1718.422863440407
 20
1805.143808816387
 30
0.0
 11
-1718.422863440407
 21
1813.143798816387
 31
0.0
  0
SOLID
  5
11DDE
330
11CCD
100
AcDbEntity
  8
SUNPOU
 62
     1
100
AcDbTrace
 10
-1718.922863440407
 20
1802.143808816387
 30
0.0
 11
-1717.922863440407
 21
1802.143808816387
 31
0.0
 12
-1718.422863440407
 22
1805.143808816387
 32
0.0
 13
-1718.422863440407
 23
1805.143808816387
 33
0.0
  0
SOLID
  5
11DDF
330
11CCD
100
AcDbEntity
  8
SUNPOU
 62
     1
100
AcDbTrace
 10
-1718.922863440407
 20
1816.143798816387
 30
0.0
 11
-1717.922863440407
 21
1816.143798816387
 31
0.0
 12
-1718.422863440407
 22
1813.143798816387
 32
0.0
 13
-1718.422863440407
 23
1813.143798816387
 33
0.0
  0
MTEXT
  5
11DE0
330
11CCD
100
AcDbEntity
  8
SUNPOU
 62
     1
100
AcDbMText
 10
-1721.466010648529
 20
1809.143803816386
 30
0.0
 40
3.5
 41
0.0
 71
     5
 72
     1
  1
\A1;(8)
  7
ゴシック体
 11
0.0000000000000001
 21
1.0
 31
0.0
1001
ACAD
1000
MTEXTBEGIN
1070
    73
1070
     1
1070
    44
1040
1.0
1070
    74
1070
     0
1000
MTEXTEND
  0
POINT
  5
11DE1
330
11CCD
100
AcDbEntity
  8
DEFPOINTS
 62
     0
100
AcDbPoint
 10
-1709.608181211294
 20
1805.143808816387
 30
0.0
  0
POINT
  5
11DE2
330
11CCD
100
AcDbEntity
  8
DEFPOINTS
 62
     0
100
AcDbPoint
 10
-1702.715301211292
 20
1813.143798816387
 30
0.0
  0
POINT
  5
11DE3
330
11CCD
100
AcDbEntity
  8
DEFPOINTS
 62
     0
100
AcDbPoint
 10
-1718.422863440407
 20
1813.143798816387
 30
0.0
  0
ENDBLK
  5
11CDA
330
11CCD
100
AcDbEntity
  8
0
100
AcDbBlockEnd
  0
BLOCK
  5
11CE6
330
11CDC
100
AcDbEntity
  8
0
100
AcDbBlockBegin
  2
*D24
 70
     1
 10
0.0
 20
0.0
 30
0.0
  3
*D24
  1

  0
LINE
  5
11CF1
330
11CDC
100
AcDbEntity
  8
SUNPOU
 62
     1
100
AcDbLine
 10
-1715.815281211293
 20
1759.143812816386
 30
0.0
 11
-1728.995370157206
 21
1759.143812816386
 31
0.0
  0
LINE
  5
11CF2
330
11CDC
100
AcDbEntity
  8
SUNPOU
 62
     1
100
AcDbLine
 10
-1710.108181211293
 20
1805.143808816387
 30
0.0
 11
-1728.995370157206
 21
1805.143808816387
 31
0.0
  0
LINE
  5
11CF3
330
11CDC
100
AcDbEntity
  8
SUNPOU
 62
     1
100
AcDbLine
 10
-1728.495370157205
 20
1762.143812816387
 30
0.0
 11
-1728.495370157205
 21
1802.143808816387
 31
0.0
  0
SOLID
  5
11CF4
330
11CDC
100
AcDbEntity
  8
SUNPOU
 62
     1
100
AcDbTrace
 10
-1728.995370157206
 20
1762.143812816387
 30
0.0
 11
-1727.995370157205
 21
1762.143812816387
 31
0.0
 12
-1728.495370157205
 22
1759.143812816386
 32
0.0
 13
-1728.495370157205
 23
1759.143812816386
 33
0.0
  0
SOLID
  5
11CF5
330
11CDC
100
AcDbEntity
  8
SUNPOU
 62
     1
100
AcDbTrace
 10
-1728.995370157206
 20
1802.143808816387
 30
0.0
 11
-1727.995370157205
 21
1802.143808816387
 31
0.0
 12
-1728.495370157205
 22
1805.143808816387
 32
0.0
 13
-1728.495370157205
 23
1805.143808816387
 33
0.0
  0
MTEXT
  5
11CF6
330
11CDC
100
AcDbEntity
  8
SUNPOU
 62
     1
100
AcDbMText
 10
-1731.245370157206
 20
1782.143810816387
 30
0.0
 40
3.5
 41
0.0
 71
     5
 72
     1
  1
\A1;46
  7
ゴシック体
 11
0.0000000000000001
 21
1.0
 31
0.0
1001
ACAD
1000
MTEXTBEGIN
1070
    73
1070
     1
1070
    44
1040
1.0
1070
    74
1070
     0
1000
MTEXTEND
  0
POINT
  5
11CF7
330
11CDC
100
AcDbEntity
  8
DEFPOINTS
 62
     0
100
AcDbPoint
 10
-1715.315281211293
 20
1759.143812816386
 30
0.0
  0
POINT
  5
11CF8
330
11CDC
100
AcDbEntity
  8
DEFPOINTS
 62
     0
100
AcDbPoint
 10
-1709.608181211294
 20
1805.143808816387
 30
0.0
  0
POINT
  5
11CF9
330
11CDC
100
AcDbEntity
  8
DEFPOINTS
 62
     0
100
AcDbPoint
 10
-1728.495370157205
 20
1805.143808816387
 30
0.0
  0
ENDBLK
  5
11CE7
330
11CDC
100
AcDbEntity
  8
0
100
AcDbBlockEnd
  0
BLOCK
  5
11D05
330
11CFB
100
AcDbEntity
  8
0
100
AcDbBlockBegin
  2
*D25
 70
     1
 10
0.0
 20
0.0
 30
0.0
  3
*D25
  1

  0
LINE
  5
11D07
330
11CFB
100
AcDbEntity
  8
SUNPOU
 62
     1
100
AcDbLine
 10
-1669.827894571866
 20
1851.146062059743
 30
0.0
 11
-1728.995370157206
 21
1851.146062059743
 31
0.0
  0
LINE
  5
11D08
330
11CFB
100
AcDbEntity
  8
SUNPOU
 62
     1
100
AcDbLine
 10
-1710.108181211293
 20
1805.143808816387
 30
0.0
 11
-1728.995370157206
 21
1805.143808816387
 31
0.0
  0
LINE
  5
11D09
330
11CFB
100
AcDbEntity
  8
SUNPOU
 62
     1
100
AcDbLine
 10
-1728.495370157205
 20
1848.146062059744
 30
0.0
 11
-1728.495370157205
 21
1808.143808816387
 31
0.0
  0
SOLID
  5
11D0A
330
11CFB
100
AcDbEntity
  8
SUNPOU
 62
     1
100
AcDbTrace
 10
-1728.995370157206
 20
1848.146062059744
 30
0.0
 11
-1727.995370157205
 21
1848.146062059744
 31
0.0
 12
-1728.495370157205
 22
1851.146062059743
 32
0.0
 13
-1728.495370157205
 23
1851.146062059743
 33
0.0
  0
SOLID
  5
11D0B
330
11CFB
100
AcDbEntity
  8
SUNPOU
 62
     1
100
AcDbTrace
 10
-1728.995370157206
 20
1808.143808816387
 30
0.0
 11
-1727.995370157205
 21
1808.143808816387
 31
0.0
 12
-1728.495370157205
 22
1805.143808816387
 32
0.0
 13
-1728.495370157205
 23
1805.143808816387
 33
0.0
  0
MTEXT
  5
11D0C
330
11CFB
100
AcDbEntity
  8
SUNPOU
 62
     1
100
AcDbMText
 10
-1731.538517365327
 20
1828.144935438065
 30
0.0
 40
3.5
 41
0.0
 71
     5
 72
     1
  1
\A1;(46)
  7
ゴシック体
 11
0.0000000000000001
 21
1.0
 31
0.0
1001
ACAD
1000
MTEXTBEGIN
1070
    73
1070
     1
1070
    44
1040
1.0
1070
    74
1070
     0
1000
MTEXTEND
  0
POINT
  5
11D0D
330
11CFB
100
AcDbEntity
  8
DEFPOINTS
 62
     0
100
AcDbPoint
 10
-1669.327894571866
 20
1851.146062059743
 30
0.0
  0
POINT
  5
11D0E
330
11CFB
100
AcDbEntity
  8
DEFPOINTS
 62
     0
100
AcDbPoint
 10
-1709.608181211294
 20
1805.143808816387
 30
0.0
  0
POINT
  5
11D0F
330
11CFB
100
AcDbEntity
  8
DEFPOINTS
 62
     0
100
AcDbPoint
 10
-1728.495370157205
 20
1805.143808816387
 30
0.0
  0
ENDBLK
  5
11D06
330
11CFB
100
AcDbEntity
  8
0
100
AcDbBlockEnd
  0
BLOCK
  5
11D1B
330
11D11
100
AcDbEntity
  8
0
100
AcDbBlockBegin
  2
*D26
 70
     1
 10
0.0
 20
0.0
 30
0.0
  3
*D26
  1

  0
LINE
  5
11D26
330
11D11
100
AcDbEntity
  8
SUNPOU
 62
     1
100
AcDbLine
 10
-1710.315291211292
 20
1759.643809816386
 30
0.0
 11
-1710.315291211292
 21
1748.946844307689
 31
0.0
  0
LINE
  5
11D27
330
11D11
100
AcDbEntity
  8
SUNPOU
 62
     1
100
AcDbLine
 10
-1630.315281211293
 20
1759.643809816386
 30
0.0
 11
-1630.315281211293
 21
1748.946844307689
 31
0.0
  0
LINE
  5
11D28
330
11D11
100
AcDbEntity
  8
SUNPOU
 62
     1
100
AcDbLine
 10
-1707.315291211293
 20
1749.446844307689
 30
0.0
 11
-1633.315281211293
 21
1749.446844307689
 31
0.0
  0
SOLID
  5
11D29
330
11D11
100
AcDbEntity
  8
SUNPOU
 62
     1
100
AcDbTrace
 10
-1707.315291211293
 20
1749.946844307689
 30
0.0
 11
-1707.315291211293
 21
1748.946844307689
 31
0.0
 12
-1710.315291211292
 22
1749.446844307689
 32
0.0
 13
-1710.315291211292
 23
1749.446844307689
 33
0.0
  0
SOLID
  5
11D2A
330
11D11
100
AcDbEntity
  8
SUNPOU
 62
     1
100
AcDbTrace
 10
-1633.315281211293
 20
1749.946844307689
 30
0.0
 11
-1633.315281211293
 21
1748.946844307689
 31
0.0
 12
-1630.315281211293
 22
1749.446844307689
 32
0.0
 13
-1630.315281211293
 23
1749.446844307689
 33
0.0
  0
MTEXT
  5
11D2B
330
11D11
100
AcDbEntity
  8
SUNPOU
 62
     1
100
AcDbMText
 10
-1670.315286211293
 20
1752.196844307689
 30
0.0
 40
3.5
 41
0.0
 71
     5
 72
     1
  1
\A1;80
  7
ゴシック体
1001
ACAD
1000
MTEXTBEGIN
1070
    73
1070
     1
1070
    44
1040
1.0
1070
    74
1070
     0
1000
MTEXTEND
  0
POINT
  5
11D2C
330
11D11
100
AcDbEntity
  8
DEFPOINTS
 62
     0
100
AcDbPoint
 10
-1710.315291211292
 20
1760.143809816386
 30
0.0
  0
POINT
  5
11D2D
330
11D11
100
AcDbEntity
  8
DEFPOINTS
 62
     0
100
AcDbPoint
 10
-1630.315281211293
 20
1760.143809816386
 30
0.0
  0
POINT
  5
11D2E
330
11D11
100
AcDbEntity
  8
DEFPOINTS
 62
     0
100
AcDbPoint
 10
-1630.315281211293
 20
1749.446844307689
 30
0.0
  0
ENDBLK
  5
11D1C
330
11D11
100
AcDbEntity
  8
0
100
AcDbBlockEnd
  0
BLOCK
  5
11D3A
330
11D30
100
AcDbEntity
  8
0
100
AcDbBlockBegin
  2
*D27
 70
     1
 10
0.0
 20
0.0
 30
0.0
  3
*D27
  1

  0
LINE
  5
11D45
330
11D30
100
AcDbEntity
  8
SUNPOU
 62
     1
100
AcDbLine
 10
-1715.315281211293
 20
1758.643812816386
 30
0.0
 11
-1715.315281211293
 21
1739.992982329208
 31
0.0
  0
LINE
  5
11D46
330
11D30
100
AcDbEntity
  8
SUNPOU
 62
     1
100
AcDbLine
 10
-1625.315281211292
 20
1758.643812816386
 30
0.0
 11
-1625.315281211292
 21
1739.992982329208
 31
0.0
  0
LINE
  5
11D47
330
11D30
100
AcDbEntity
  8
SUNPOU
 62
     1
100
AcDbLine
 10
-1712.315281211293
 20
1740.492982329207
 30
0.0
 11
-1628.315281211293
 21
1740.492982329207
 31
0.0
  0
SOLID
  5
11D48
330
11D30
100
AcDbEntity
  8
SUNPOU
 62
     1
100
AcDbTrace
 10
-1712.315281211293
 20
1740.992982329208
 30
0.0
 11
-1712.315281211293
 21
1739.992982329208
 31
0.0
 12
-1715.315281211293
 22
1740.492982329207
 32
0.0
 13
-1715.315281211293
 23
1740.492982329207
 33
0.0
  0
SOLID
  5
11D49
330
11D30
100
AcDbEntity
  8
SUNPOU
 62
     1
100
AcDbTrace
 10
-1628.315281211293
 20
1740.992982329208
 30
0.0
 11
-1628.315281211293
 21
1739.992982329208
 31
0.0
 12
-1625.315281211292
 22
1740.492982329207
 32
0.0
 13
-1625.315281211292
 23
1740.492982329207
 33
0.0
  0
MTEXT
  5
11D4A
330
11D30
100
AcDbEntity
  8
SUNPOU
 62
     1
100
AcDbMText
 10
-1670.315281211292
 20
1743.242982329206
 30
0.0
 40
3.5
 41
0.0
 71
     5
 72
     1
  1
\A1;90
  7
ゴシック体
1001
ACAD
1000
MTEXTBEGIN
1070
    73
1070
     1
1070
    44
1040
1.0
1070
    74
1070
     0
1000
MTEXTEND
  0
POINT
  5
11D4B
330
11D30
100
AcDbEntity
  8
DEFPOINTS
 62
     0
100
AcDbPoint
 10
-1715.315281211293
 20
1759.143812816386
 30
0.0
  0
POINT
  5
11D4C
330
11D30
100
AcDbEntity
  8
DEFPOINTS
 62
     0
100
AcDbPoint
 10
-1625.315281211292
 20
1759.143812816386
 30
0.0
  0
POINT
  5
11D4D
330
11D30
100
AcDbEntity
  8
DEFPOINTS
 62
     0
100
AcDbPoint
 10
-1625.315281211292
 20
1740.492982329207
 30
0.0
  0
ENDBLK
  5
11D3B
330
11D30
100
AcDbEntity
  8
0
100
AcDbBlockEnd
  0
BLOCK
  5
11D59
330
11D4F
100
AcDbEntity
  8
0
100
AcDbBlockBegin
  2
*D28
 70
     1
 10
0.0
 20
0.0
 30
0.0
  3
*D28
  1

  0
LINE
  5
11D50
330
11D4F
100
AcDbEntity
  8
SUNPOU
 62
     1
100
AcDbLine
 10
-1583.306531211293
 20
1758.643812816386
 30
0.0
 11
-1583.306531211293
 21
1748.946844307689
 31
0.0
  0
LINE
  5
11D51
330
11D4F
100
AcDbEntity
  8
SUNPOU
 62
     1
100
AcDbLine
 10
-1567.306532211293
 20
1759.350920816387
 30
0.0
 11
-1567.306532211293
 21
1748.946844307689
 31
0.0
  0
LINE
  5
11D52
330
11D4F
100
AcDbEntity
  8
SUNPOU
 62
     1
100
AcDbLine
 10
-1580.306531211293
 20
1749.446844307689
 30
0.0
 11
-1570.306532211293
 21
1749.446844307689
 31
0.0
  0
SOLID
  5
11D53
330
11D4F
100
AcDbEntity
  8
SUNPOU
 62
     1
100
AcDbTrace
 10
-1580.306531211293
 20
1749.946844307689
 30
0.0
 11
-1580.306531211293
 21
1748.946844307689
 31
0.0
 12
-1583.306531211293
 22
1749.446844307689
 32
0.0
 13
-1583.306531211293
 23
1749.446844307689
 33
0.0
  0
SOLID
  5
11D54
330
11D4F
100
AcDbEntity
  8
SUNPOU
 62
     1
100
AcDbTrace
 10
-1570.306532211293
 20
1749.946844307689
 30
0.0
 11
-1570.306532211293
 21
1748.946844307689
 31
0.0
 12
-1567.306532211293
 22
1749.446844307689
 32
0.0
 13
-1567.306532211293
 23
1749.446844307689
 33
0.0
  0
MTEXT
  5
11D55
330
11D4F
100
AcDbEntity
  8
SUNPOU
 62
     1
100
AcDbMText
 10
-1575.306531711293
 20
1752.196844307689
 30
0.0
 40
3.5
 41
0.0
 71
     5
 72
     1
  1
\A1;16
  7
ゴシック体
1001
ACAD
1000
MTEXTBEGIN
1070
    73
1070
     1
1070
    44
1040
1.0
1070
    74
1070
     0
1000
MTEXTEND
  0
POINT
  5
11D56
330
11D4F
100
AcDbEntity
  8
DEFPOINTS
 62
     0
100
AcDbPoint
 10
-1583.306531211293
 20
1759.143812816386
 30
0.0
  0
POINT
  5
11D57
330
11D4F
100
AcDbEntity
  8
DEFPOINTS
 62
     0
100
AcDbPoint
 10
-1567.306532211293
 20
1759.850920816387
 30
0.0
  0
POINT
  5
11D58
330
11D4F
100
AcDbEntity
  8
DEFPOINTS
 62
     0
100
AcDbPoint
 10
-1567.306532211293
 20
1749.446844307689
 30
0.0
  0
ENDBLK
  5
11D5A
330
11D4F
100
AcDbEntity
  8
0
100
AcDbBlockEnd
  0
BLOCK
  5
11D66
330
11D5C
100
AcDbEntity
  8
0
100
AcDbBlockBegin
  2
*D29
 70
     1
 10
0.0
 20
0.0
 30
0.0
  3
*D29
  1

  0
LINE
  5
11D5D
330
11D5C
100
AcDbEntity
  8
SUNPOU
 62
     1
100
AcDbLine
 10
-1585.306531211293
 20
1795.133808816387
 30
0.0
 11
-1585.306531211293
 21
1739.992982329208
 31
0.0
  0
LINE
  5
11D5E
330
11D5C
100
AcDbEntity
  8
SUNPOU
 62
     1
100
AcDbLine
 10
-1567.306532211293
 20
1759.350920816387
 30
0.0
 11
-1567.306532211293
 21
1739.992982329208
 31
0.0
  0
LINE
  5
11D5F
330
11D5C
100
AcDbEntity
  8
SUNPOU
 62
     1
100
AcDbLine
 10
-1582.306531211293
 20
1740.492982329207
 30
0.0
 11
-1570.306532211293
 21
1740.492982329207
 31
0.0
  0
SOLID
  5
11D60
330
11D5C
100
AcDbEntity
  8
SUNPOU
 62
     1
100
AcDbTrace
 10
-1582.306531211293
 20
1740.992982329208
 30
0.0
 11
-1582.306531211293
 21
1739.992982329208
 31
0.0
 12
-1585.306531211293
 22
1740.492982329207
 32
0.0
 13
-1585.306531211293
 23
1740.492982329207
 33
0.0
  0
SOLID
  5
11D61
330
11D5C
100
AcDbEntity
  8
SUNPOU
 62
     1
100
AcDbTrace
 10
-1570.306532211293
 20
1740.992982329208
 30
0.0
 11
-1570.306532211293
 21
1739.992982329208
 31
0.0
 12
-1567.306532211293
 22
1740.492982329207
 32
0.0
 13
-1567.306532211293
 23
1740.492982329207
 33
0.0
  0
MTEXT
  5
11D62
330
11D5C
100
AcDbEntity
  8
SUNPOU
 62
     1
100
AcDbMText
 10
-1576.306531711293
 20
1743.242982329206
 30
0.0
 40
3.5
 41
0.0
 71
     5
 72
     1
  1
\A1;18
  7
ゴシック体
1001
ACAD
1000
MTEXTBEGIN
1070
    73
1070
     1
1070
    44
1040
1.0
1070
    74
1070
     0
1000
MTEXTEND
  0
POINT
  5
11D63
330
11D5C
100
AcDbEntity
  8
DEFPOINTS
 62
     0
100
AcDbPoint
 10
-1585.306531211293
 20
1795.633808816387
 30
0.0
  0
POINT
  5
11D64
330
11D5C
100
AcDbEntity
  8
DEFPOINTS
 62
     0
100
AcDbPoint
 10
-1567.306532211293
 20
1759.850920816387
 30
0.0
  0
POINT
  5
11D65
330
11D5C
100
AcDbEntity
  8
DEFPOINTS
 62
     0
100
AcDbPoint
 10
-1567.306532211293
 20
1740.492982329207
 30
0.0
  0
ENDBLK
  5
11D67
330
11D5C
100
AcDbEntity
  8
0
100
AcDbBlockEnd
  0
BLOCK
  5
11D75
330
11D69
100
AcDbEntity
  8
0
100
AcDbBlockBegin
  2
*D30
 70
     1
 10
0.0
 20
0.0
 30
0.0
  3
*D30
  1

  0
LINE
  5
11D77
330
11D69
100
AcDbEntity
  8
SUNPOU
 62
     1
100
AcDbLine
 10
-1715.788617865528
 20
1689.974890593723
 30
0.0
 11
-1721.902978642474
 21
1689.974890593723
 31
0.0
  0
LINE
  5
11D78
330
11D69
100
AcDbEntity
  8
SUNPOU
 62
     1
100
AcDbLine
 10
-1715.788617865528
 20
1686.474880593722
 30
0.0
 11
-1721.902978642474
 21
1686.474880593722
 31
0.0
  0
LINE
  5
11D79
330
11D69
100
AcDbEntity
  8
SUNPOU
 62
     1
100
AcDbLine
 10
-1721.402978642476
 20
1692.974890593722
 30
0.0
 11
-1721.402978642476
 21
1695.974890593722
 31
0.0
  0
LINE
  5
11D7A
330
11D69
100
AcDbEntity
  8
SUNPOU
 62
     1
100
AcDbLine
 10
-1721.402978642476
 20
1683.474880593723
 30
0.0
 11
-1721.402978642476
 21
1680.474880593723
 31
0.0
  0
LINE
  5
11D7B
330
11D69
100
AcDbEntity
  8
SUNPOU
 62
     1
100
AcDbLine
 10
-1721.402978642476
 20
1689.974890593723
 30
0.0
 11
-1721.402978642476
 21
1686.474880593722
 31
0.0
  0
SOLID
  5
11D7C
330
11D69
100
AcDbEntity
  8
SUNPOU
 62
     1
100
AcDbTrace
 10
-1721.902978642474
 20
1692.974890593722
 30
0.0
 11
-1720.902978642476
 21
1692.974890593722
 31
0.0
 12
-1721.402978642476
 22
1689.974890593723
 32
0.0
 13
-1721.402978642476
 23
1689.974890593723
 33
0.0
  0
SOLID
  5
11D7D
330
11D69
100
AcDbEntity
  8
SUNPOU
 62
     1
100
AcDbTrace
 10
-1721.902978642474
 20
1683.474880593723
 30
0.0
 11
-1720.902978642476
 21
1683.474880593723
 31
0.0
 12
-1721.402978642476
 22
1686.474880593722
 32
0.0
 13
-1721.402978642476
 23
1686.474880593722
 33
0.0
  0
MTEXT
  5
11D7E
330
11D69
100
AcDbEntity
  8
SUNPOU
 62
     1
100
AcDbMText
 10
-1724.152978642477
 20
1688.224885593722
 30
0.0
 40
3.5
 41
0.0
 71
     5
 72
     1
  1
\A1;3.5
  7
ゴシック体
 11
0.0000000000000001
 21
1.0
 31
0.0
1001
ACAD
1000
MTEXTBEGIN
1070
    73
1070
     1
1070
    44
1040
1.0
1070
    74
1070
     0
1000
MTEXTEND
  0
POINT
  5
11D7F
330
11D69
100
AcDbEntity
  8
DEFPOINTS
 62
     0
100
AcDbPoint
 10
-1715.288617865526
 20
1689.974890593723
 30
0.0
  0
POINT
  5
11D80
330
11D69
100
AcDbEntity
  8
DEFPOINTS
 62
     0
100
AcDbPoint
 10
-1715.288617865526
 20
1686.474880593722
 30
0.0
  0
POINT
  5
11D81
330
11D69
100
AcDbEntity
  8
DEFPOINTS
 62
     0
100
AcDbPoint
 10
-1721.402978642476
 20
1686.474880593722
 30
0.0
  0
ENDBLK
  5
11D76
330
11D69
100
AcDbEntity
  8
0
100
AcDbBlockEnd
  0
BLOCK
  5
11D8D
330
11D83
100
AcDbEntity
  8
0
100
AcDbBlockBegin
  2
*D31
 70
     1
 10
0.0
 20
0.0
 30
0.0
  3
*D31
  1

  0
LINE
  5
11D9C
330
11D83
100
AcDbEntity
  8
SUNPOU
 62
     1
100
AcDbLine
 10
-1714.788637865527
 20
1688.224890593722
 30
0.0
 11
-1728.995370157206
 21
1688.224890593722
 31
0.0
  0
LINE
  5
11D9D
330
11D83
100
AcDbEntity
  8
SUNPOU
 62
     1
100
AcDbLine
 10
-1715.081507865528
 20
1700.224890593721
 30
0.0
 11
-1728.995370157206
 21
1700.224890593721
 31
0.0
  0
LINE
  5
11D9E
330
11D83
100
AcDbEntity
  8
SUNPOU
 62
     1
100
AcDbLine
 10
-1728.495370157205
 20
1691.224890593723
 30
0.0
 11
-1728.495370157205
 21
1697.224890593722
 31
0.0
  0
SOLID
  5
11D9F
330
11D83
100
AcDbEntity
  8
SUNPOU
 62
     1
100
AcDbTrace
 10
-1728.995370157206
 20
1691.224890593723
 30
0.0
 11
-1727.995370157205
 21
1691.224890593723
 31
0.0
 12
-1728.495370157205
 22
1688.224890593722
 32
0.0
 13
-1728.495370157205
 23
1688.224890593722
 33
0.0
  0
SOLID
  5
11DA0
330
11D83
100
AcDbEntity
  8
SUNPOU
 62
     1
100
AcDbTrace
 10
-1728.995370157206
 20
1697.224890593722
 30
0.0
 11
-1727.995370157205
 21
1697.224890593722
 31
0.0
 12
-1728.495370157205
 22
1700.224890593721
 32
0.0
 13
-1728.495370157205
 23
1700.224890593721
 33
0.0
  0
MTEXT
  5
11DA1
330
11D83
100
AcDbEntity
  8
SUNPOU
 62
     1
100
AcDbMText
 10
-1731.245370157206
 20
1694.224890593722
 30
0.0
 40
3.5
 41
0.0
 71
     5
 72
     1
  1
\A1;12
  7
ゴシック体
 11
0.0000000000000001
 21
1.0
 31
0.0
1001
ACAD
1000
MTEXTBEGIN
1070
    73
1070
     1
1070
    44
1040
1.0
1070
    74
1070
     0
1000
MTEXTEND
  0
POINT
  5
11DA2
330
11D83
100
AcDbEntity
  8
DEFPOINTS
 62
     0
100
AcDbPoint
 10
-1714.288637865528
 20
1688.224890593722
 30
0.0
  0
POINT
  5
11DA3
330
11D83
100
AcDbEntity
  8
DEFPOINTS
 62
     0
100
AcDbPoint
 10
-1714.581507865528
 20
1700.224890593721
 30
0.0
  0
POINT
  5
11DA4
330
11D83
100
AcDbEntity
  8
DEFPOINTS
 62
     0
100
AcDbPoint
 10
-1728.495370157205
 20
1700.224890593721
 30
0.0
  0
ENDBLK
  5
11D8E
330
11D83
100
AcDbEntity
  8
0
100
AcDbBlockEnd
  0
BLOCK
  5
11D9A
330
11D90
100
AcDbEntity
  8
0
100
AcDbBlockBegin
  2
*D32
 70
     1
 10
0.0
 20
0.0
 30
0.0
  3
*D32
  1

  0
LINE
  5
11DA5
330
11D90
100
AcDbEntity
  8
SUNPOU
 62
     1
100
AcDbLine
 10
-1715.087023361638
 20
1684.224865383258
 30
0.0
 11
-1736.802118740299
 21
1684.224865383258
 31
0.0
  0
LINE
  5
11DA6
330
11D90
100
AcDbEntity
  8
SUNPOU
 62
     1
100
AcDbLine
 10
-1715.081507865528
 20
1700.224890593721
 30
0.0
 11
-1736.802118740299
 21
1700.224890593721
 31
0.0
  0
LINE
  5
11DA7
330
11D90
100
AcDbEntity
  8
SUNPOU
 62
     1
100
AcDbLine
 10
-1736.302118740297
 20
1687.224865383258
 30
0.0
 11
-1736.302118740297
 21
1697.224890593722
 31
0.0
  0
SOLID
  5
11DA8
330
11D90
100
AcDbEntity
  8
SUNPOU
 62
     1
100
AcDbTrace
 10
-1736.802118740299
 20
1687.224865383258
 30
0.0
 11
-1735.802118740298
 21
1687.224865383258
 31
0.0
 12
-1736.302118740297
 22
1684.224865383258
 32
0.0
 13
-1736.302118740297
 23
1684.224865383258
 33
0.0
  0
SOLID
  5
11DA9
330
11D90
100
AcDbEntity
  8
SUNPOU
 62
     1
100
AcDbTrace
 10
-1736.802118740299
 20
1697.224890593722
 30
0.0
 11
-1735.802118740298
 21
1697.224890593722
 31
0.0
 12
-1736.302118740297
 22
1700.224890593721
 32
0.0
 13
-1736.302118740297
 23
1700.224890593721
 33
0.0
  0
MTEXT
  5
11DAA
330
11D90
100
AcDbEntity
  8
SUNPOU
 62
     1
100
AcDbMText
 10
-1739.052118740297
 20
1692.22487798849
 30
0.0
 40
3.5
 41
0.0
 71
     5
 72
     1
  1
\A1;16
  7
ゴシック体
 11
0.0000000000000001
 21
1.0
 31
0.0
1001
ACAD
1000
MTEXTBEGIN
1070
    73
1070
     1
1070
    44
1040
1.0
1070
    74
1070
     0
1000
MTEXTEND
  0
POINT
  5
11DAB
330
11D90
100
AcDbEntity
  8
DEFPOINTS
 62
     0
100
AcDbPoint
 10
-1714.587023361637
 20
1684.224865383258
 30
0.0
  0
POINT
  5
11DAC
330
11D90
100
AcDbEntity
  8
DEFPOINTS
 62
     0
100
AcDbPoint
 10
-1714.581507865528
 20
1700.224890593721
 30
0.0
  0
POINT
  5
11DAD
330
11D90
100
AcDbEntity
  8
DEFPOINTS
 62
     0
100
AcDbPoint
 10
-1736.302118740297
 20
1700.224890593721
 30
0.0
  0
ENDBLK
  5
11D9B
330
11D90
100
AcDbEntity
  8
0
100
AcDbBlockEnd
  0
BLOCK
  5
11DB9
330
11DAF
100
AcDbEntity
  8
0
100
AcDbBlockBegin
  2
*D33
 70
     1
 10
0.0
 20
0.0
 30
0.0
  3
*D33
  1

  0
LINE
  5
11DC4
330
11DAF
100
AcDbEntity
  8
SUNPOU
 62
     1
100
AcDbLine
 10
-1712.288627865528
 20
1684.724890593722
 30
0.0
 11
-1712.288627865528
 21
1672.514898547991
 31
0.0
  0
LINE
  5
11DC5
330
11DAF
100
AcDbEntity
  8
SUNPOU
 62
     1
100
AcDbLine
 10
-1628.288607865527
 20
1684.724890593722
 30
0.0
 11
-1628.288607865527
 21
1672.514898547991
 31
0.0
  0
LINE
  5
11DC6
330
11DAF
100
AcDbEntity
  8
SUNPOU
 62
     1
100
AcDbLine
 10
-1709.288627865528
 20
1673.014898547991
 30
0.0
 11
-1631.288607865528
 21
1673.014898547991
 31
0.0
  0
SOLID
  5
11DC7
330
11DAF
100
AcDbEntity
  8
SUNPOU
 62
     1
100
AcDbTrace
 10
-1709.288627865528
 20
1673.514898547991
 30
0.0
 11
-1709.288627865528
 21
1672.514898547991
 31
0.0
 12
-1712.288627865528
 22
1673.014898547991
 32
0.0
 13
-1712.288627865528
 23
1673.014898547991
 33
0.0
  0
SOLID
  5
11DC8
330
11DAF
100
AcDbEntity
  8
SUNPOU
 62
     1
100
AcDbTrace
 10
-1631.288607865528
 20
1673.514898547991
 30
0.0
 11
-1631.288607865528
 21
1672.514898547991
 31
0.0
 12
-1628.288607865527
 22
1673.014898547991
 32
0.0
 13
-1628.288607865527
 23
1673.014898547991
 33
0.0
  0
MTEXT
  5
11DC9
330
11DAF
100
AcDbEntity
  8
SUNPOU
 62
     1
100
AcDbMText
 10
-1670.288617865528
 20
1675.764898547991
 30
0.0
 40
3.5
 41
0.0
 71
     5
 72
     1
  1
\A1;84
  7
ゴシック体
1001
ACAD
1000
MTEXTBEGIN
1070
    73
1070
     1
1070
    44
1040
1.0
1070
    74
1070
     0
1000
MTEXTEND
  0
POINT
  5
11DCA
330
11DAF
100
AcDbEntity
  8
DEFPOINTS
 62
     0
100
AcDbPoint
 10
-1712.288627865528
 20
1685.224890593723
 30
0.0
  0
POINT
  5
11DCB
330
11DAF
100
AcDbEntity
  8
DEFPOINTS
 62
     0
100
AcDbPoint
 10
-1628.288607865527
 20
1685.224890593723
 30
0.0
  0
POINT
  5
11DCC
330
11DAF
100
AcDbEntity
  8
DEFPOINTS
 62
     0
100
AcDbPoint
 10
-1628.288607865527
 20
1673.014898547991
 30
0.0
  0
ENDBLK
  5
11DBA
330
11DAF
100
AcDbEntity
  8
0
100
AcDbBlockEnd
  0
ENDSEC
  0
SECTION
  2
ENTITIES
  0
MTEXT
  5
5084
330
1A
100
AcDbEntity
  8
0
100
AcDbMText
 10
1985.239088685434
 20
-948.5420423450428
 30
0.0
 40
8.0
 41
0.0
 71
     7
 72
     5
  1

1001
ACAD
1000
MTEXTBEGIN
1070
    73
1070
     1
1070
    44
1040
1.0
1070
    74
1070
     0
1000
MTEXTEND
  0
MTEXT
  5
5085
330
1A
100
AcDbEntity
  8
0
100
AcDbMText
 10
4270.596778580329
 20
22.24825240601647
 30
0.0
 40
8.0
 41
0.0
 71
     7
 72
     5
  1

1001
ACAD
1000
MTEXTBEGIN
1070
    73
1070
     1
1070
    44
1040
1.0
1070
    74
1070
     0
1000
MTEXTEND
  0
MTEXT
  5
5343
330
1A
100
AcDbEntity
  8
SUNPOU
100
AcDbMText
 10
6936.493799262471
 20
9534.359644781137
 30
0.0
 40
10.5
 41
0.0
 71
     1
 72
     5
  1

1001
ACAD
1000
MTEXTBEGIN
1070
    73
1070
     1
1070
    44
1040
1.0
1070
    74
1070
     0
1000
MTEXTEND
  0
MTEXT
  5
544F
330
1A
100
AcDbEntity
  8
0
100
AcDbMText
 10
16317.2832773148
 20
12833.35428897674
 30
0.0
 40
8.0
 41
0.0
 71
     7
 72
     5
  1

1001
ACAD
1000
MTEXTBEGIN
1070
    73
1070
     1
1070
    44
1040
1.0
1070
    74
1070
     0
1000
MTEXTEND
  0
MTEXT
  5
5450
330
1A
100
AcDbEntity
  8
0
100
AcDbMText
 10
18602.64096720968
 20
13804.1445837278
 30
0.0
 40
8.0
 41
0.0
 71
     7
 72
     5
  1

1001
ACAD
1000
MTEXTBEGIN
1070
    73
1070
     1
1070
    44
1040
1.0
1070
    74
1070
     0
1000
MTEXTEND
  0
MTEXT
  5
5451
330
1A
100
AcDbEntity
  8
SUNPOU
100
AcDbMText
 10
21268.53798789184
 20
23316.25597610292
 30
0.0
 40
10.5
 41
0.0
 71
     1
 72
     5
  1

1001
ACAD
1000
MTEXTBEGIN
1070
    73
1070
     1
1070
    44
1040
1.0
1070
    74
1070
     0
1000
MTEXTEND
  0
MTEXT
  5
5452
330
1A
100
AcDbEntity
  8
SUNPOU
100
AcDbMText
 10
13337.6147919559
 20
22369.46284218996
 30
0.0
 40
10.5
 41
0.0
 71
     7
 72
     5
  1

1001
ACAD
1000
MTEXTBEGIN
1070
    73
1070
     1
1070
    44
1040
1.0
1070
    74
1070
     0
1000
MTEXTEND
  0
MTEXT
  5
5453
330
1A
100
AcDbEntity
  8
SUNPOU
100
AcDbMText
 10
16286.59845646867
 20
27270.13891403279
 30
0.0
 40
10.5
 41
0.0
 71
     7
 72
     5
  1

1001
ACAD
1000
MTEXTBEGIN
1070
    73
1070
     1
1070
    44
1040
1.0
1070
    74
1070
     0
1000
MTEXTEND
  0
MTEXT
  5
5454
330
1A
100
AcDbEntity
  8
SUNPOU
100
AcDbMText
 10
20795.67658441924
 20
29706.43966165288
 30
0.0
 40
10.5
 41
0.0
 71
     7
 72
     5
  1

1001
ACAD
1000
MTEXTBEGIN
1070
    73
1070
     1
1070
    44
1040
1.0
1070
    74
1070
     0
1000
MTEXTEND
  0
MTEXT
  5
5455
330
1A
100
AcDbEntity
  8
0
100
AcDbMText
 10
16611.93789220313
 20
14707.52144344448
 30
0.0
 40
8.0
 41
0.0
 71
     7
 72
     5
  1

1001
ACAD
1000
MTEXTBEGIN
1070
    73
1070
     1
1070
    44
1040
1.0
1070
    74
1070
     0
1000
MTEXTEND
  0
MTEXT
  5
5456
330
1A
100
AcDbEntity
  8
0
100
AcDbMText
 10
18897.29558209803
 20
15678.31173819554
 30
0.0
 40
8.0
 41
0.0
 71
     7
 72
     5
  1

1001
ACAD
1000
MTEXTBEGIN
1070
    73
1070
     1
1070
    44
1040
1.0
1070
    74
1070
     0
1000
MTEXTEND
  0
MTEXT
  5
5457
330
1A
100
AcDbEntity
  8
SUNPOU
100
AcDbMText
 10
21563.19260278019
 20
25190.42313057066
 30
0.0
 40
10.5
 41
0.0
 71
     1
 72
     5
  1

1001
ACAD
1000
MTEXTBEGIN
1070
    73
1070
     1
1070
    44
1040
1.0
1070
    74
1070
     0
1000
MTEXTEND
  0
MTEXT
  5
5458
330
1A
100
AcDbEntity
  8
SUNPOU
100
AcDbMText
 10
13632.26940684425
 20
24243.6299966577
 30
0.0
 40
10.5
 41
0.0
 71
     7
 72
     5
  1

1001
ACAD
1000
MTEXTBEGIN
1070
    73
1070
     1
1070
    44
1040
1.0
1070
    74
1070
     0
1000
MTEXTEND
  0
MTEXT
  5
5459
330
1A
100
AcDbEntity
  8
SUNPOU
100
AcDbMText
 10
16581.25307135702
 20
29144.30606850055
 30
0.0
 40
10.5
 41
0.0
 71
     7
 72
     5
  1

1001
ACAD
1000
MTEXTBEGIN
1070
    73
1070
     1
1070
    44
1040
1.0
1070
    74
1070
     0
1000
MTEXTEND
  0
MTEXT
  5
545A
330
1A
100
AcDbEntity
  8
SUNPOU
100
AcDbMText
 10
21090.33119930759
 20
31580.60681612062
 30
0.0
 40
10.5
 41
0.0
 71
     7
 72
     5
  1

1001
ACAD
1000
MTEXTBEGIN
1070
    73
1070
     1
1070
    44
1040
1.0
1070
    74
1070
     0
1000
MTEXTEND
  0
MTEXT
  5
545B
330
1A
100
AcDbEntity
  8
0
100
AcDbMText
 10
22871.60517627166
 20
23974.88367124799
 30
0.0
 40
8.0
 41
0.0
 71
     7
 72
     5
  1

1001
ACAD
1000
MTEXTBEGIN
1070
    73
1070
     1
1070
    44
1040
1.0
1070
    74
1070
     0
1000
MTEXTEND
  0
MTEXT
  5
545C
330
1A
100
AcDbEntity
  8
0
100
AcDbMText
 10
25156.96286616655
 20
24945.67396599904
 30
0.0
 40
8.0
 41
0.0
 71
     7
 72
     5
  1

1001
ACAD
1000
MTEXTBEGIN
1070
    73
1070
     1
1070
    44
1040
1.0
1070
    74
1070
     0
1000
MTEXTEND
  0
MTEXT
  5
545D
330
1A
100
AcDbEntity
  8
SUNPOU
100
AcDbMText
 10
27822.85988684871
 20
34457.78535837418
 30
0.0
 40
10.5
 41
0.0
 71
     1
 72
     5
  1

1001
ACAD
1000
MTEXTBEGIN
1070
    73
1070
     1
1070
    44
1040
1.0
1070
    74
1070
     0
1000
MTEXTEND
  0
MTEXT
  5
545E
330
1A
100
AcDbEntity
  8
SUNPOU
100
AcDbMText
 10
19891.93669091278
 20
33510.99222446122
 30
0.0
 40
10.5
 41
0.0
 71
     7
 72
     5
  1

1001
ACAD
1000
MTEXTBEGIN
1070
    73
1070
     1
1070
    44
1040
1.0
1070
    74
1070
     0
1000
MTEXTEND
  0
MTEXT
  5
545F
330
1A
100
AcDbEntity
  8
SUNPOU
100
AcDbMText
 10
22840.92035542555
 20
38411.66829630406
 30
0.0
 40
10.5
 41
0.0
 71
     7
 72
     5
  1

1001
ACAD
1000
MTEXTBEGIN
1070
    73
1070
     1
1070
    44
1040
1.0
1070
    74
1070
     0
1000
MTEXTEND
  0
MTEXT
  5
5460
330
1A
100
AcDbEntity
  8
SUNPOU
100
AcDbMText
 10
27349.99848337611
 20
40847.96904392415
 30
0.0
 40
10.5
 41
0.0
 71
     7
 72
     5
  1

1001
ACAD
1000
MTEXTBEGIN
1070
    73
1070
     1
1070
    44
1040
1.0
1070
    74
1070
     0
1000
MTEXTEND
  0
MTEXT
  5
55B7
330
1A
100
AcDbEntity
  8
SUNPOU
100
AcDbMText
 10
67424.23923338197
 20
64463.86602884816
 30
0.0
 40
10.5
 41
0.0
 71
     9
 72
     5
  1

1001
ACAD
1000
MTEXTBEGIN
1070
    73
1070
     1
1070
    44
1040
1.0
1070
    74
1070
     0
1000
MTEXTEND
  0
MTEXT
  5
55B8
330
1A
100
AcDbEntity
  8
SUNPOU
100
AcDbMText
 10
76146.40679929998
 20
71879.70056038563
 30
0.0
 40
10.5
 41
0.0
 71
     9
 72
     5
  1

1001
ACAD
1000
MTEXTBEGIN
1070
    73
1070
     1
1070
    44
1040
1.0
1070
    74
1070
     0
1000
MTEXTEND
  0
MTEXT
  5
55B9
330
1A
100
AcDbEntity
  8
SUNPOU
100
AcDbMText
 10
95100.16551662994
 20
89346.27661287766
 30
0.0
 40
10.5
 41
0.0
 71
     9
 72
     5
  1

1001
ACAD
1000
MTEXTBEGIN
1070
    73
1070
     1
1070
    44
1040
1.0
1070
    74
1070
     0
1000
MTEXTEND
  0
MTEXT
  5
55BA
330
1A
100
AcDbEntity
  8
SUNPOU
100
AcDbMText
 10
97043.57276333935
 20
87545.22753299966
 30
0.0
 40
3.5
 41
0.0
 71
     9
 72
     5
  1

1001
ACAD
1000
MTEXTBEGIN
1070
    73
1070
     1
1070
    44
1040
1.0
1070
    74
1070
     0
1000
MTEXTEND
  0
MTEXT
  5
55BB
330
1A
100
AcDbEntity
  8
SUNPOU
100
AcDbMText
 10
128169.7525959589
 20
130040.1732006569
 30
0.0
 40
10.5
 41
0.0
 71
     9
 72
     5
  1

1001
ACAD
1000
MTEXTBEGIN
1070
    73
1070
     1
1070
    44
1040
1.0
1070
    74
1070
     0
1000
MTEXTEND
  0
MTEXT
  5
55BC
330
1A
100
AcDbEntity
  8
SUNPOU
100
AcDbMText
 10
130113.1598426684
 20
128239.1241207789
 30
0.0
 40
3.5
 41
0.0
 71
     9
 72
     5
  1

1001
ACAD
1000
MTEXTBEGIN
1070
    73
1070
     1
1070
    44
1040
1.0
1070
    74
1070
     0
1000
MTEXTEND
  0
MTEXT
  5
55BD
330
1A
100
AcDbEntity
  8
SUNPOU
100
AcDbMText
 10
78610.02030175463
 20
75873.33835563206
 30
0.0
 40
10.5
 41
0.0
 71
     9
 72
     5
  1

1001
ACAD
1000
MTEXTBEGIN
1070
    73
1070
     1
1070
    44
1040
1.0
1070
    74
1070
     0
1000
MTEXTEND
  0
MTEXT
  5
55BE
330
1A
100
AcDbEntity
  8
SUNPOU
100
AcDbMText
 10
64662.02020137862
 20
56700.93921651987
 30
0.0
 40
3.5
 41
0.0
 71
     7
 72
     5
  1

1001
ACAD
1000
MTEXTBEGIN
1070
    73
1070
     1
1070
    44
1040
1.0
1070
    74
1070
     0
1000
MTEXTEND
  0
MTEXT
  5
55BF
330
1A
100
AcDbEntity
  8
SUNPOU
100
AcDbMText
 10
45647.18959837176
 20
44463.08794733806
 30
0.0
 40
10.5
 41
0.0
 71
     7
 72
     5
  1

1001
ACAD
1000
MTEXTBEGIN
1070
    73
1070
     1
1070
    44
1040
1.0
1070
    74
1070
     0
1000
MTEXTEND
  0
MTEXT
  5
55C0
330
1A
100
AcDbEntity
  8
SUNPOU
100
AcDbMText
 10
33189.96133342368
 20
28618.15636923965
 30
0.0
 40
35.0
 41
0.0
 71
     9
 72
     5
  1

1001
ACAD
1000
MTEXTBEGIN
1070
    73
1070
     1
1070
    44
1040
1.0
1070
    74
1070
     0
1000
MTEXTEND
  0
MTEXT
  5
55C1
330
1A
100
AcDbEntity
  8
SUNPOU
100
AcDbMText
 10
32098.44639099864
 20
29226.93177928834
 30
0.0
 40
350.0000004171781
 41
0.0
 71
     7
 72
     5
  1

1001
ACAD
1000
MTEXTBEGIN
1070
    73
1070
     1
1070
    44
1040
1.0
1070
    74
1070
     0
1000
MTEXTEND
  0
MTEXT
  5
55C2
330
1A
100
AcDbEntity
  8
0
100
AcDbMText
 10
38142.39714894154
 20
27206.85414142458
 30
0.0
 40
8.0
 41
0.0
 71
     7
 72
     5
  1

1001
ACAD
1000
MTEXTBEGIN
1070
    73
1070
     1
1070
    44
1040
1.0
1070
    74
1070
     0
1000
MTEXTEND
  0
MTEXT
  5
55C3
330
1A
100
AcDbEntity
  8
0
100
AcDbMText
 10
40427.75483883644
 20
28177.64443617564
 30
0.0
 40
8.0
 41
0.0
 71
     7
 72
     5
  1

1001
ACAD
1000
MTEXTBEGIN
1070
    73
1070
     1
1070
    44
1040
1.0
1070
    74
1070
     0
1000
MTEXTEND
  0
MTEXT
  5
55C4
330
1A
100
AcDbEntity
  8
SUNPOU
100
AcDbMText
 10
43093.65185951858
 20
37689.75582855077
 30
0.0
 40
10.5
 41
0.0
 71
     1
 72
     5
  1

1001
ACAD
1000
MTEXTBEGIN
1070
    73
1070
     1
1070
    44
1040
1.0
1070
    74
1070
     0
1000
MTEXTEND
  0
MTEXT
  5
55C5
330
1A
100
AcDbEntity
  8
SUNPOU
100
AcDbMText
 10
35162.72866358265
 20
36742.96269463781
 30
0.0
 40
10.5
 41
0.0
 71
     7
 72
     5
  1

1001
ACAD
1000
MTEXTBEGIN
1070
    73
1070
     1
1070
    44
1040
1.0
1070
    74
1070
     0
1000
MTEXTEND
  0
MTEXT
  5
55C6
330
1A
100
AcDbEntity
  8
SUNPOU
100
AcDbMText
 10
38111.71232809542
 20
41643.63876648065
 30
0.0
 40
10.5
 41
0.0
 71
     7
 72
     5
  1

1001
ACAD
1000
MTEXTBEGIN
1070
    73
1070
     1
1070
    44
1040
1.0
1070
    74
1070
     0
1000
MTEXTEND
  0
MTEXT
  5
55C7
330
1A
100
AcDbEntity
  8
SUNPOU
100
AcDbMText
 10
42620.79045604596
 20
44079.93951410074
 30
0.0
 40
10.5
 41
0.0
 71
     7
 72
     5
  1

1001
ACAD
1000
MTEXTBEGIN
1070
    73
1070
     1
1070
    44
1040
1.0
1070
    74
1070
     0
1000
MTEXTEND
  0
MTEXT
  5
55C8
330
1A
100
AcDbEntity
  8
SUNPOU
100
AcDbMText
 10
26221.62834281429
 20
23077.53566448964
 30
0.0
 40
10.5
 41
0.0
 71
     7
 72
     5
  1

1001
ACAD
1000
MTEXTBEGIN
1070
    73
1070
     1
1070
    44
1040
1.0
1070
    74
1070
     0
1000
MTEXTEND
  0
MTEXT
  5
55C9
330
1A
100
AcDbEntity
  8
SUNPOU
100
AcDbMText
 10
77413.14677671455
 20
68750.51622813789
 30
0.0
 40
10.5
 41
0.0
 71
     9
 72
     5
  1

1001
ACAD
1000
MTEXTBEGIN
1070
    73
1070
     1
1070
    44
1040
1.0
1070
    74
1070
     0
1000
MTEXTEND
  0
MTEXT
  5
55CA
330
1A
100
AcDbEntity
  8
SUNPOU
100
AcDbMText
 10
86135.31434263256
 20
76166.35075967536
 30
0.0
 40
10.5
 41
0.0
 71
     9
 72
     5
  1

1001
ACAD
1000
MTEXTBEGIN
1070
    73
1070
     1
1070
    44
1040
1.0
1070
    74
1070
     0
1000
MTEXTEND
  0
MTEXT
  5
55CB
330
1A
100
AcDbEntity
  8
SUNPOU
100
AcDbMText
 10
105089.0730599624
 20
93632.92681216739
 30
0.0
 40
10.5
 41
0.0
 71
     9
 72
     5
  1

1001
ACAD
1000
MTEXTBEGIN
1070
    73
1070
     1
1070
    44
1040
1.0
1070
    74
1070
     0
1000
MTEXTEND
  0
MTEXT
  5
55CC
330
1A
100
AcDbEntity
  8
SUNPOU
100
AcDbMText
 10
107032.4803066718
 20
91831.87773228937
 30
0.0
 40
3.5
 41
0.0
 71
     9
 72
     5
  1

1001
ACAD
1000
MTEXTBEGIN
1070
    73
1070
     1
1070
    44
1040
1.0
1070
    74
1070
     0
1000
MTEXTEND
  0
MTEXT
  5
55CD
330
1A
100
AcDbEntity
  8
SUNPOU
100
AcDbMText
 10
138158.6601392916
 20
134326.8233999467
 30
0.0
 40
10.5
 41
0.0
 71
     9
 72
     5
  1

1001
ACAD
1000
MTEXTBEGIN
1070
    73
1070
     1
1070
    44
1040
1.0
1070
    74
1070
     0
1000
MTEXTEND
  0
MTEXT
  5
55CE
330
1A
100
AcDbEntity
  8
SUNPOU
100
AcDbMText
 10
140102.067386001
 20
132525.7743200686
 30
0.0
 40
3.5
 41
0.0
 71
     9
 72
     5
  1

1001
ACAD
1000
MTEXTBEGIN
1070
    73
1070
     1
1070
    44
1040
1.0
1070
    74
1070
     0
1000
MTEXTEND
  0
MTEXT
  5
55CF
330
1A
100
AcDbEntity
  8
SUNPOU
100
AcDbMText
 10
88598.92784508721
 20
80159.98855492179
 30
0.0
 40
10.5
 41
0.0
 71
     9
 72
     5
  1

1001
ACAD
1000
MTEXTBEGIN
1070
    73
1070
     1
1070
    44
1040
1.0
1070
    74
1070
     0
1000
MTEXTEND
  0
MTEXT
  5
55D0
330
1A
100
AcDbEntity
  8
SUNPOU
100
AcDbMText
 10
74650.92774471121
 20
60987.58941580959
 30
0.0
 40
3.5
 41
0.0
 71
     7
 72
     5
  1

1001
ACAD
1000
MTEXTBEGIN
1070
    73
1070
     1
1070
    44
1040
1.0
1070
    74
1070
     0
1000
MTEXTEND
  0
MTEXT
  5
55D1
330
1A
100
AcDbEntity
  8
SUNPOU
100
AcDbMText
 10
55636.09714170436
 20
48749.73814662781
 30
0.0
 40
10.5
 41
0.0
 71
     7
 72
     5
  1

1001
ACAD
1000
MTEXTBEGIN
1070
    73
1070
     1
1070
    44
1040
1.0
1070
    74
1070
     0
1000
MTEXTEND
  0
MTEXT
  5
55D2
330
1A
100
AcDbEntity
  8
SUNPOU
100
AcDbMText
 10
43178.86887675626
 20
32904.80656852937
 30
0.0
 40
35.0
 41
0.0
 71
     9
 72
     5
  1

1001
ACAD
1000
MTEXTBEGIN
1070
    73
1070
     1
1070
    44
1040
1.0
1070
    74
1070
     0
1000
MTEXTEND
  0
MTEXT
  5
55D3
330
1A
100
AcDbEntity
  8
SUNPOU
100
AcDbMText
 10
42087.3539343312
 20
33513.58197857808
 30
0.0
 40
350.0000004171781
 41
0.0
 71
     7
 72
     5
  1

1001
ACAD
1000
MTEXTBEGIN
1070
    73
1070
     1
1070
    44
1040
1.0
1070
    74
1070
     0
1000
MTEXTEND
  0
MTEXT
  5
55D4
330
1A
100
AcDbEntity
  8
0
100
AcDbMText
 10
48131.30469227412
 20
31493.50434071431
 30
0.0
 40
8.0
 41
0.0
 71
     7
 72
     5
  1

1001
ACAD
1000
MTEXTBEGIN
1070
    73
1070
     1
1070
    44
1040
1.0
1070
    74
1070
     0
1000
MTEXTEND
  0
MTEXT
  5
55D5
330
1A
100
AcDbEntity
  8
0
100
AcDbMText
 10
50416.66238216901
 20
32464.29463546537
 30
0.0
 40
8.0
 41
0.0
 71
     7
 72
     5
  1

1001
ACAD
1000
MTEXTBEGIN
1070
    73
1070
     1
1070
    44
1040
1.0
1070
    74
1070
     0
1000
MTEXTEND
  0
MTEXT
  5
55D6
330
1A
100
AcDbEntity
  8
SUNPOU
100
AcDbMText
 10
53082.55940285115
 20
41976.4060278405
 30
0.0
 40
10.5
 41
0.0
 71
     1
 72
     5
  1

1001
ACAD
1000
MTEXTBEGIN
1070
    73
1070
     1
1070
    44
1040
1.0
1070
    74
1070
     0
1000
MTEXTEND
  0
MTEXT
  5
55D7
330
1A
100
AcDbEntity
  8
SUNPOU
100
AcDbMText
 10
45151.63620691521
 20
41029.61289392755
 30
0.0
 40
10.5
 41
0.0
 71
     7
 72
     5
  1

1001
ACAD
1000
MTEXTBEGIN
1070
    73
1070
     1
1070
    44
1040
1.0
1070
    74
1070
     0
1000
MTEXTEND
  0
MTEXT
  5
55D8
330
1A
100
AcDbEntity
  8
SUNPOU
100
AcDbMText
 10
48100.61987142798
 20
45930.28896577039
 30
0.0
 40
10.5
 41
0.0
 71
     7
 72
     5
  1

1001
ACAD
1000
MTEXTBEGIN
1070
    73
1070
     1
1070
    44
1040
1.0
1070
    74
1070
     0
1000
MTEXTEND
  0
MTEXT
  5
55D9
330
1A
100
AcDbEntity
  8
SUNPOU
100
AcDbMText
 10
52609.69799937853
 20
48366.58971339046
 30
0.0
 40
10.5
 41
0.0
 71
     7
 72
     5
  1

1001
ACAD
1000
MTEXTBEGIN
1070
    73
1070
     1
1070
    44
1040
1.0
1070
    74
1070
     0
1000
MTEXTEND
  0
MTEXT
  5
55DA
330
1A
100
AcDbEntity
  8
SUNPOU
100
AcDbMText
 10
36210.53588614687
 20
27364.18586377937
 30
0.0
 40
10.5
 41
0.0
 71
     7
 72
     5
  1

1001
ACAD
1000
MTEXTBEGIN
1070
    73
1070
     1
1070
    44
1040
1.0
1070
    74
1070
     0
1000
MTEXTEND
  0
MTEXT
  5
55DB
330
1A
100
AcDbEntity
  8
SUNPOU
100
AcDbMText
 10
38021.29879752181
 20
33691.59985125794
 30
0.0
 40
10.5
 41
0.0
 71
     9
 72
     5
  1

1001
ACAD
1000
MTEXTBEGIN
1070
    73
1070
     1
1070
    44
1040
1.0
1070
    74
1070
     0
1000
MTEXTEND
  0
MTEXT
  5
55DC
330
1A
100
AcDbEntity
  8
SUNPOU
100
AcDbMText
 10
46743.46636343979
 20
41107.4343827954
 30
0.0
 40
10.5
 41
0.0
 71
     9
 72
     5
  1

1001
ACAD
1000
MTEXTBEGIN
1070
    73
1070
     1
1070
    44
1040
1.0
1070
    74
1070
     0
1000
MTEXTEND
  0
MTEXT
  5
55DD
330
1A
100
AcDbEntity
  8
SUNPOU
100
AcDbMText
 10
65697.22508076974
 20
58574.01043528746
 30
0.0
 40
10.5
 41
0.0
 71
     9
 72
     5
  1

1001
ACAD
1000
MTEXTBEGIN
1070
    73
1070
     1
1070
    44
1040
1.0
1070
    74
1070
     0
1000
MTEXTEND
  0
MTEXT
  5
55DE
330
1A
100
AcDbEntity
  8
SUNPOU
100
AcDbMText
 10
67640.63232747917
 20
56772.96135540945
 30
0.0
 40
3.5
 41
0.0
 71
     9
 72
     5
  1

1001
ACAD
1000
MTEXTBEGIN
1070
    73
1070
     1
1070
    44
1040
1.0
1070
    74
1070
     0
1000
MTEXTEND
  0
MTEXT
  5
55DF
330
1A
100
AcDbEntity
  8
SUNPOU
100
AcDbMText
 10
98766.81216009886
 20
99267.9070230668
 30
0.0
 40
10.5
 41
0.0
 71
     9
 72
     5
  1

1001
ACAD
1000
MTEXTBEGIN
1070
    73
1070
     1
1070
    44
1040
1.0
1070
    74
1070
     0
1000
MTEXTEND
  0
MTEXT
  5
55E0
330
1A
100
AcDbEntity
  8
SUNPOU
100
AcDbMText
 10
100710.2194068083
 20
97466.85794318876
 30
0.0
 40
3.5
 41
0.0
 71
     9
 72
     5
  1

1001
ACAD
1000
MTEXTBEGIN
1070
    73
1070
     1
1070
    44
1040
1.0
1070
    74
1070
     0
1000
MTEXTEND
  0
MTEXT
  5
55E1
330
1A
100
AcDbEntity
  8
SUNPOU
100
AcDbMText
 10
49207.07986589443
 20
45101.07217804184
 30
0.0
 40
10.5
 41
0.0
 71
     9
 72
     5
  1

1001
ACAD
1000
MTEXTBEGIN
1070
    73
1070
     1
1070
    44
1040
1.0
1070
    74
1070
     0
1000
MTEXTEND
  0
MTEXT
  5
55E2
330
1A
100
AcDbEntity
  8
SUNPOU
100
AcDbMText
 10
35259.07976551845
 20
25928.67303892964
 30
0.0
 40
3.5
 41
0.0
 71
     7
 72
     5
  1

1001
ACAD
1000
MTEXTBEGIN
1070
    73
1070
     1
1070
    44
1040
1.0
1070
    74
1070
     0
1000
MTEXTEND
  0
MTEXT
  5
55E3
330
1A
100
AcDbEntity
  8
SUNPOU
100
AcDbMText
 10
48951.43044828905
 20
35287.73625995099
 30
0.0
 40
10.5
 41
0.0
 71
     9
 72
     5
  1

1001
ACAD
1000
MTEXTBEGIN
1070
    73
1070
     1
1070
    44
1040
1.0
1070
    74
1070
     0
1000
MTEXTEND
  0
MTEXT
  5
55E4
330
1A
100
AcDbEntity
  8
SUNPOU
100
AcDbMText
 10
57673.59801420702
 20
42703.57079148847
 30
0.0
 40
10.5
 41
0.0
 71
     9
 72
     5
  1

1001
ACAD
1000
MTEXTBEGIN
1070
    73
1070
     1
1070
    44
1040
1.0
1070
    74
1070
     0
1000
MTEXTEND
  0
MTEXT
  5
55E5
330
1A
100
AcDbEntity
  8
SUNPOU
100
AcDbMText
 10
76627.35673153699
 20
60170.14684398051
 30
0.0
 40
10.5
 41
0.0
 71
     9
 72
     5
  1

1001
ACAD
1000
MTEXTBEGIN
1070
    73
1070
     1
1070
    44
1040
1.0
1070
    74
1070
     0
1000
MTEXTEND
  0
MTEXT
  5
55E6
330
1A
100
AcDbEntity
  8
SUNPOU
100
AcDbMText
 10
78570.76397824641
 20
58369.09776410251
 30
0.0
 40
3.5
 41
0.0
 71
     9
 72
     5
  1

1001
ACAD
1000
MTEXTBEGIN
1070
    73
1070
     1
1070
    44
1040
1.0
1070
    74
1070
     0
1000
MTEXTEND
  0
MTEXT
  5
55E7
330
1A
100
AcDbEntity
  8
SUNPOU
100
AcDbMText
 10
109696.943810866
 20
100864.0434317598
 30
0.0
 40
10.5
 41
0.0
 71
     9
 72
     5
  1

1001
ACAD
1000
MTEXTBEGIN
1070
    73
1070
     1
1070
    44
1040
1.0
1070
    74
1070
     0
1000
MTEXTEND
  0
MTEXT
  5
55E8
330
1A
100
AcDbEntity
  8
SUNPOU
100
AcDbMText
 10
111640.3510575755
 20
99062.99435188183
 30
0.0
 40
3.5
 41
0.0
 71
     9
 72
     5
  1

1001
ACAD
1000
MTEXTBEGIN
1070
    73
1070
     1
1070
    44
1040
1.0
1070
    74
1070
     0
1000
MTEXTEND
  0
MTEXT
  5
55E9
330
1A
100
AcDbEntity
  8
SUNPOU
100
AcDbMText
 10
60137.21151666167
 20
46697.20858673491
 30
0.0
 40
10.5
 41
0.0
 71
     9
 72
     5
  1

1001
ACAD
1000
MTEXTBEGIN
1070
    73
1070
     1
1070
    44
1040
1.0
1070
    74
1070
     0
1000
MTEXTEND
  0
MTEXT
  5
55EA
330
1A
100
AcDbEntity
  8
SUNPOU
100
AcDbMText
 10
46189.21141628568
 20
27524.80944762269
 30
0.0
 40
3.5
 41
0.0
 71
     7
 72
     5
  1

1001
ACAD
1000
MTEXTBEGIN
1070
    73
1070
     1
1070
    44
1040
1.0
1070
    74
1070
     0
1000
MTEXTEND
  0
MTEXT
  5
55EB
330
1A
100
AcDbEntity
  8
SUNPOU
100
AcDbMText
 10
45007.68847015541
 20
38269.57947701873
 30
0.0
 40
10.5
 41
0.0
 71
     9
 72
     5
  1

1001
ACAD
1000
MTEXTBEGIN
1070
    73
1070
     1
1070
    44
1040
1.0
1070
    74
1070
     0
1000
MTEXTEND
  0
MTEXT
  5
55EC
330
1A
100
AcDbEntity
  8
SUNPOU
100
AcDbMText
 10
63961.44718748539
 20
55736.15552951081
 30
0.0
 40
10.5
 41
0.0
 71
     9
 72
     5
  1

1001
ACAD
1000
MTEXTBEGIN
1070
    73
1070
     1
1070
    44
1040
1.0
1070
    74
1070
     0
1000
MTEXTEND
  0
MTEXT
  5
55ED
330
1A
100
AcDbEntity
  8
SUNPOU
100
AcDbMText
 10
65904.85443419479
 20
53935.10644963278
 30
0.0
 40
3.5
 41
0.0
 71
     9
 72
     5
  1

1001
ACAD
1000
MTEXTBEGIN
1070
    73
1070
     1
1070
    44
1040
1.0
1070
    74
1070
     0
1000
MTEXTEND
  0
MTEXT
  5
55EE
330
1A
100
AcDbEntity
  8
SUNPOU
100
AcDbMText
 10
97031.03426681453
 20
96430.05211729015
 30
0.0
 40
10.5
 41
0.0
 71
     9
 72
     5
  1

1001
ACAD
1000
MTEXTBEGIN
1070
    73
1070
     1
1070
    44
1040
1.0
1070
    74
1070
     0
1000
MTEXTEND
  0
MTEXT
  5
55EF
330
1A
100
AcDbEntity
  8
SUNPOU
100
AcDbMText
 10
98974.44151352393
 20
94629.00303741212
 30
0.0
 40
3.5
 41
0.0
 71
     9
 72
     5
  1

1001
ACAD
1000
MTEXTBEGIN
1070
    73
1070
     1
1070
    44
1040
1.0
1070
    74
1070
     0
1000
MTEXTEND
  0
MTEXT
  5
55F0
330
1A
100
AcDbEntity
  8
SUNPOU
100
AcDbMText
 10
47471.30197261006
 20
42263.21727226519
 30
0.0
 40
10.5
 41
0.0
 71
     9
 72
     5
  1

1001
ACAD
1000
MTEXTBEGIN
1070
    73
1070
     1
1070
    44
1040
1.0
1070
    74
1070
     0
1000
MTEXTEND
  0
MTEXT
  5
55F1
330
1A
100
AcDbEntity
  8
SUNPOU
100
AcDbMText
 10
33523.30187223408
 20
23090.81813315298
 30
0.0
 40
3.5
 41
0.0
 71
     7
 72
     5
  1

1001
ACAD
1000
MTEXTBEGIN
1070
    73
1070
     1
1070
    44
1040
1.0
1070
    74
1070
     0
1000
MTEXTEND
  0
MTEXT
  5
55F2
330
1A
100
AcDbEntity
  8
SUNPOU
100
AcDbMText
 10
57959.46254102503
 20
50038.08111611014
 30
0.0
 40
10.5
 41
0.0
 71
     9
 72
     5
  1

1001
ACAD
1000
MTEXTBEGIN
1070
    73
1070
     1
1070
    44
1040
1.0
1070
    74
1070
     0
1000
MTEXTEND
  0
MTEXT
  5
55F3
330
1A
100
AcDbEntity
  8
SUNPOU
100
AcDbMText
 10
76913.22125835503
 20
67504.65716860222
 30
0.0
 40
10.5
 41
0.0
 71
     9
 72
     5
  1

1001
ACAD
1000
MTEXTBEGIN
1070
    73
1070
     1
1070
    44
1040
1.0
1070
    74
1070
     0
1000
MTEXTEND
  0
MTEXT
  5
55F4
330
1A
100
AcDbEntity
  8
SUNPOU
100
AcDbMText
 10
78856.62850506443
 20
65703.6080887242
 30
0.0
 40
3.5
 41
0.0
 71
     9
 72
     5
  1

1001
ACAD
1000
MTEXTBEGIN
1070
    73
1070
     1
1070
    44
1040
1.0
1070
    74
1070
     0
1000
MTEXTEND
  0
MTEXT
  5
55F5
330
1A
100
AcDbEntity
  8
SUNPOU
100
AcDbMText
 10
109982.8083376841
 20
108198.5537563815
 30
0.0
 40
10.5
 41
0.0
 71
     9
 72
     5
  1

1001
ACAD
1000
MTEXTBEGIN
1070
    73
1070
     1
1070
    44
1040
1.0
1070
    74
1070
     0
1000
MTEXTEND
  0
MTEXT
  5
55F6
330
1A
100
AcDbEntity
  8
SUNPOU
100
AcDbMText
 10
111926.2155843933
 20
106397.5046765035
 30
0.0
 40
3.5
 41
0.0
 71
     9
 72
     5
  1

1001
ACAD
1000
MTEXTBEGIN
1070
    73
1070
     1
1070
    44
1040
1.0
1070
    74
1070
     0
1000
MTEXTEND
  0
MTEXT
  5
55F7
330
1A
100
AcDbEntity
  8
SUNPOU
100
AcDbMText
 10
60423.07604347968
 20
54031.71891135658
 30
0.0
 40
10.5
 41
0.0
 71
     9
 72
     5
  1

1001
ACAD
1000
MTEXTBEGIN
1070
    73
1070
     1
1070
    44
1040
1.0
1070
    74
1070
     0
1000
MTEXTEND
  0
MTEXT
  5
55F8
330
1A
100
AcDbEntity
  8
SUNPOU
100
AcDbMText
 10
46475.07594310369
 20
34859.3197722444
 30
0.0
 40
3.5
 41
0.0
 71
     7
 72
     5
  1

1001
ACAD
1000
MTEXTBEGIN
1070
    73
1070
     1
1070
    44
1040
1.0
1070
    74
1070
     0
1000
MTEXTEND
  0
MTEXT
  5
55F9
330
1A
100
AcDbEntity
  8
SUNPOU
100
AcDbMText
 10
74027.35402123588
 20
68370.58278833383
 30
0.0
 40
10.5
 41
0.0
 71
     9
 72
     5
  1

1001
ACAD
1000
MTEXTBEGIN
1070
    73
1070
     1
1070
    44
1040
1.0
1070
    74
1070
     0
1000
MTEXTEND
  0
MTEXT
  5
55FA
330
1A
100
AcDbEntity
  8
SUNPOU
100
AcDbMText
 10
75970.7612679453
 20
66569.53370845583
 30
0.0
 40
3.5
 41
0.0
 71
     9
 72
     5
  1

1001
ACAD
1000
MTEXTBEGIN
1070
    73
1070
     1
1070
    44
1040
1.0
1070
    74
1070
     0
1000
MTEXTEND
  0
MTEXT
  5
55FB
330
1A
100
AcDbEntity
  8
SUNPOU
100
AcDbMText
 10
107096.941100565
 20
109064.4793761132
 30
0.0
 40
10.5
 41
0.0
 71
     9
 72
     5
  1

1001
ACAD
1000
MTEXTBEGIN
1070
    73
1070
     1
1070
    44
1040
1.0
1070
    74
1070
     0
1000
MTEXTEND
  0
MTEXT
  5
55FC
330
1A
100
AcDbEntity
  8
SUNPOU
100
AcDbMText
 10
109040.3483472744
 20
107263.430296235
 30
0.0
 40
3.5
 41
0.0
 71
     9
 72
     5
  1

1001
ACAD
1000
MTEXTBEGIN
1070
    73
1070
     1
1070
    44
1040
1.0
1070
    74
1070
     0
1000
MTEXTEND
  0
MTEXT
  5
55FD
330
1A
100
AcDbEntity
  8
SUNPOU
100
AcDbMText
 10
105709.1709283621
 20
108141.3777665285
 30
0.0
 40
10.5
 41
0.0
 71
     9
 72
     5
  1

1001
ACAD
1000
MTEXTBEGIN
1070
    73
1070
     1
1070
    44
1040
1.0
1070
    74
1070
     0
1000
MTEXTEND
  0
MTEXT
  5
55FE
330
1A
100
AcDbEntity
  8
SUNPOU
100
AcDbMText
 10
107652.5781750715
 20
106340.3286866505
 30
0.0
 40
3.5
 41
0.0
 71
     9
 72
     5
  1

1001
ACAD
1000
MTEXTBEGIN
1070
    73
1070
     1
1070
    44
1040
1.0
1070
    74
1070
     0
1000
MTEXTEND
  0
MTEXT
  5
55FF
330
1A
100
AcDbEntity
  8
SUNPOU
100
AcDbMText
 10
73193.09268743351
 20
66158.78082845057
 30
0.0
 40
10.5
 41
0.0
 71
     9
 72
     5
  1

1001
ACAD
1000
MTEXTBEGIN
1070
    73
1070
     1
1070
    44
1040
1.0
1070
    74
1070
     0
1000
MTEXTEND
  0
MTEXT
  5
5600
330
1A
100
AcDbEntity
  8
SUNPOU
100
AcDbMText
 10
75916.39889159807
 20
66563.46252003162
 30
0.0
 40
3.5
 41
0.0
 71
     9
 72
     5
  1

1001
ACAD
1000
MTEXTBEGIN
1070
    73
1070
     1
1070
    44
1040
1.0
1070
    74
1070
     0
1000
MTEXTEND
  0
MTEXT
  5
5601
330
1A
100
AcDbEntity
  8
SUNPOU
100
AcDbMText
 10
75124.04436649058
 20
63402.1566819768
 30
0.0
 40
10.5
 41
0.0
 71
     9
 72
     5
  1

1001
ACAD
1000
MTEXTBEGIN
1070
    73
1070
     1
1070
    44
1040
1.0
1070
    74
1070
     0
1000
MTEXTEND
  0
MTEXT
  5
5602
330
1A
100
AcDbEntity
  8
SUNPOU
100
AcDbMText
 10
77067.4516132
 20
61601.1076020988
 30
0.0
 40
3.5
 41
0.0
 71
     9
 72
     5
  1

1001
ACAD
1000
MTEXTBEGIN
1070
    73
1070
     1
1070
    44
1040
1.0
1070
    74
1070
     0
1000
MTEXTEND
  0
MTEXT
  5
5603
330
1A
100
AcDbEntity
  8
SUNPOU
100
AcDbMText
 10
77012.54710378659
 20
61488.33571981449
 30
0.0
 40
3.5
 41
0.0
 71
     9
 72
     5
  1

1001
ACAD
1000
MTEXTBEGIN
1070
    73
1070
     1
1070
    44
1040
1.0
1070
    74
1070
     0
1000
MTEXTEND
  0
MTEXT
  5
5604
330
1A
100
AcDbEntity
  8
SUNPOU
100
AcDbMText
 10
76376.61896736668
 20
60677.01447874798
 30
0.0
 40
3.5
 41
0.0
 71
     9
 72
     5
  1

1001
ACAD
1000
MTEXTBEGIN
1070
    73
1070
     1
1070
    44
1040
1.0
1070
    74
1070
     0
1000
MTEXTEND
  0
MTEXT
  5
5605
330
1A
100
AcDbEntity
  8
SUNPOU
100
AcDbMText
 10
76375.37854794595
 20
60676.76650181048
 30
0.0
 40
10.5
 41
0.0
 71
     9
 72
     5
  1

1001
ACAD
1000
MTEXTBEGIN
1070
    73
1070
     1
1070
    44
1040
1.0
1070
    74
1070
     0
1000
MTEXTEND
  0
MTEXT
  5
5606
330
1A
100
AcDbEntity
  8
SUNPOU
100
AcDbMText
 10
84709.93991079748
 20
78034.0328293557
 30
0.0
 40
10.5
 41
0.0
 71
     9
 72
     5
  1

1001
ACAD
1000
MTEXTBEGIN
1070
    73
1070
     1
1070
    44
1040
1.0
1070
    74
1070
     0
1000
MTEXTEND
  0
MTEXT
  5
5607
330
1A
100
AcDbEntity
  8
SUNPOU
100
AcDbMText
 10
93432.10747671546
 20
85449.86736089315
 30
0.0
 40
10.5
 41
0.0
 71
     9
 72
     5
  1

1001
ACAD
1000
MTEXTBEGIN
1070
    73
1070
     1
1070
    44
1040
1.0
1070
    74
1070
     0
1000
MTEXTEND
  0
MTEXT
  5
5608
330
1A
100
AcDbEntity
  8
SUNPOU
100
AcDbMText
 10
112385.8661940454
 20
102916.4434133851
 30
0.0
 40
10.5
 41
0.0
 71
     9
 72
     5
  1

1001
ACAD
1000
MTEXTBEGIN
1070
    73
1070
     1
1070
    44
1040
1.0
1070
    74
1070
     0
1000
MTEXTEND
  0
MTEXT
  5
5609
330
1A
100
AcDbEntity
  8
SUNPOU
100
AcDbMText
 10
114329.2734407548
 20
101115.3943335072
 30
0.0
 40
3.5
 41
0.0
 71
     9
 72
     5
  1

1001
ACAD
1000
MTEXTBEGIN
1070
    73
1070
     1
1070
    44
1040
1.0
1070
    74
1070
     0
1000
MTEXTEND
  0
MTEXT
  5
560A
330
1A
100
AcDbEntity
  8
SUNPOU
100
AcDbMText
 10
145455.4532733745
 20
143610.3400011645
 30
0.0
 40
10.5
 41
0.0
 71
     9
 72
     5
  1

1001
ACAD
1000
MTEXTBEGIN
1070
    73
1070
     1
1070
    44
1040
1.0
1070
    74
1070
     0
1000
MTEXTEND
  0
MTEXT
  5
560B
330
1A
100
AcDbEntity
  8
SUNPOU
100
AcDbMText
 10
147398.8605200839
 20
141809.2909212864
 30
0.0
 40
3.5
 41
0.0
 71
     9
 72
     5
  1

1001
ACAD
1000
MTEXTBEGIN
1070
    73
1070
     1
1070
    44
1040
1.0
1070
    74
1070
     0
1000
MTEXTEND
  0
MTEXT
  5
560C
330
1A
100
AcDbEntity
  8
SUNPOU
100
AcDbMText
 10
95895.72097917011
 20
89443.50515613962
 30
0.0
 40
10.5
 41
0.0
 71
     9
 72
     5
  1

1001
ACAD
1000
MTEXTBEGIN
1070
    73
1070
     1
1070
    44
1040
1.0
1070
    74
1070
     0
1000
MTEXTEND
  0
MTEXT
  5
560D
330
1A
100
AcDbEntity
  8
SUNPOU
100
AcDbMText
 10
81947.72087879414
 20
70271.1060170274
 30
0.0
 40
3.5
 41
0.0
 71
     7
 72
     5
  1

1001
ACAD
1000
MTEXTBEGIN
1070
    73
1070
     1
1070
    44
1040
1.0
1070
    74
1070
     0
1000
MTEXTEND
  0
MTEXT
  5
560E
330
1A
100
AcDbEntity
  8
SUNPOU
100
AcDbMText
 10
62932.89027578729
 20
58033.25474784561
 30
0.0
 40
10.5
 41
0.0
 71
     7
 72
     5
  1

1001
ACAD
1000
MTEXTBEGIN
1070
    73
1070
     1
1070
    44
1040
1.0
1070
    74
1070
     0
1000
MTEXTEND
  0
MTEXT
  5
560F
330
1A
100
AcDbEntity
  8
SUNPOU
100
AcDbMText
 10
50475.66201083918
 20
42188.32316974718
 30
0.0
 40
35.0
 41
0.0
 71
     9
 72
     5
  1

1001
ACAD
1000
MTEXTBEGIN
1070
    73
1070
     1
1070
    44
1040
1.0
1070
    74
1070
     0
1000
MTEXTEND
  0
MTEXT
  5
5610
330
1A
100
AcDbEntity
  8
SUNPOU
100
AcDbMText
 10
49384.14706841413
 20
42797.0985797959
 30
0.0
 40
350.0000004171781
 41
0.0
 71
     7
 72
     5
  1

1001
ACAD
1000
MTEXTBEGIN
1070
    73
1070
     1
1070
    44
1040
1.0
1070
    74
1070
     0
1000
MTEXTEND
  0
MTEXT
  5
5611
330
1A
100
AcDbEntity
  8
0
100
AcDbMText
 10
55428.09782635704
 20
40777.0209419321
 30
0.0
 40
8.0
 41
0.0
 71
     7
 72
     5
  1

1001
ACAD
1000
MTEXTBEGIN
1070
    73
1070
     1
1070
    44
1040
1.0
1070
    74
1070
     0
1000
MTEXTEND
  0
MTEXT
  5
5612
330
1A
100
AcDbEntity
  8
0
100
AcDbMText
 10
57713.45551625192
 20
41747.81123668316
 30
0.0
 40
8.0
 41
0.0
 71
     7
 72
     5
  1

1001
ACAD
1000
MTEXTBEGIN
1070
    73
1070
     1
1070
    44
1040
1.0
1070
    74
1070
     0
1000
MTEXTEND
  0
MTEXT
  5
5613
330
1A
100
AcDbEntity
  8
SUNPOU
100
AcDbMText
 10
60379.35253693407
 20
51259.9226290583
 30
0.0
 40
10.5
 41
0.0
 71
     1
 72
     5
  1

1001
ACAD
1000
MTEXTBEGIN
1070
    73
1070
     1
1070
    44
1040
1.0
1070
    74
1070
     0
1000
MTEXTEND
  0
MTEXT
  5
5614
330
1A
100
AcDbEntity
  8
SUNPOU
100
AcDbMText
 10
52448.42934099813
 20
50313.12949514535
 30
0.0
 40
10.5
 41
0.0
 71
     7
 72
     5
  1

1001
ACAD
1000
MTEXTBEGIN
1070
    73
1070
     1
1070
    44
1040
1.0
1070
    74
1070
     0
1000
MTEXTEND
  0
MTEXT
  5
5615
330
1A
100
AcDbEntity
  8
SUNPOU
100
AcDbMText
 10
55397.4130055109
 20
55213.80556698819
 30
0.0
 40
10.5
 41
0.0
 71
     7
 72
     5
  1

1001
ACAD
1000
MTEXTBEGIN
1070
    73
1070
     1
1070
    44
1040
1.0
1070
    74
1070
     0
1000
MTEXTEND
  0
MTEXT
  5
5616
330
1A
100
AcDbEntity
  8
SUNPOU
100
AcDbMText
 10
59906.49113346147
 20
57650.10631460826
 30
0.0
 40
10.5
 41
0.0
 71
     7
 72
     5
  1

1001
ACAD
1000
MTEXTBEGIN
1070
    73
1070
     1
1070
    44
1040
1.0
1070
    74
1070
     0
1000
MTEXTEND
  0
MTEXT
  5
5617
330
1A
100
AcDbEntity
  8
SUNPOU
100
AcDbMText
 10
43507.32902022977
 20
36647.70246499718
 30
0.0
 40
10.5
 41
0.0
 71
     7
 72
     5
  1

1001
ACAD
1000
MTEXTBEGIN
1070
    73
1070
     1
1070
    44
1040
1.0
1070
    74
1070
     0
1000
MTEXTEND
  0
MTEXT
  5
5618
330
1A
100
AcDbEntity
  8
SUNPOU
100
AcDbMText
 10
94698.84745413006
 20
82320.68302864544
 30
0.0
 40
10.5
 41
0.0
 71
     9
 72
     5
  1

1001
ACAD
1000
MTEXTBEGIN
1070
    73
1070
     1
1070
    44
1040
1.0
1070
    74
1070
     0
1000
MTEXTEND
  0
MTEXT
  5
5619
330
1A
100
AcDbEntity
  8
SUNPOU
100
AcDbMText
 10
103421.015020048
 20
89736.5175601829
 30
0.0
 40
10.5
 41
0.0
 71
     9
 72
     5
  1

1001
ACAD
1000
MTEXTBEGIN
1070
    73
1070
     1
1070
    44
1040
1.0
1070
    74
1070
     0
1000
MTEXTEND
  0
MTEXT
  5
561A
330
1A
100
AcDbEntity
  8
SUNPOU
100
AcDbMText
 10
122374.773737378
 20
107203.0936126749
 30
0.0
 40
10.5
 41
0.0
 71
     9
 72
     5
  1

1001
ACAD
1000
MTEXTBEGIN
1070
    73
1070
     1
1070
    44
1040
1.0
1070
    74
1070
     0
1000
MTEXTEND
  0
MTEXT
  5
561B
330
1A
100
AcDbEntity
  8
SUNPOU
100
AcDbMText
 10
124318.1809840874
 20
105402.0445327969
 30
0.0
 40
3.5
 41
0.0
 71
     9
 72
     5
  1

1001
ACAD
1000
MTEXTBEGIN
1070
    73
1070
     1
1070
    44
1040
1.0
1070
    74
1070
     0
1000
MTEXTEND
  0
MTEXT
  5
561C
330
1A
100
AcDbEntity
  8
SUNPOU
100
AcDbMText
 10
155444.3608167071
 20
147896.9902004542
 30
0.0
 40
10.5
 41
0.0
 71
     9
 72
     5
  1

1001
ACAD
1000
MTEXTBEGIN
1070
    73
1070
     1
1070
    44
1040
1.0
1070
    74
1070
     0
1000
MTEXTEND
  0
MTEXT
  5
561D
330
1A
100
AcDbEntity
  8
SUNPOU
100
AcDbMText
 10
157387.7680634165
 20
146095.9411205762
 30
0.0
 40
3.5
 41
0.0
 71
     9
 72
     5
  1

1001
ACAD
1000
MTEXTBEGIN
1070
    73
1070
     1
1070
    44
1040
1.0
1070
    74
1070
     0
1000
MTEXTEND
  0
MTEXT
  5
561E
330
1A
100
AcDbEntity
  8
SUNPOU
100
AcDbMText
 10
105884.6285225027
 20
93730.15535542933
 30
0.0
 40
10.5
 41
0.0
 71
     9
 72
     5
  1

1001
ACAD
1000
MTEXTBEGIN
1070
    73
1070
     1
1070
    44
1040
1.0
1070
    74
1070
     0
1000
MTEXTEND
  0
MTEXT
  5
561F
330
1A
100
AcDbEntity
  8
SUNPOU
100
AcDbMText
 10
91936.6284221267
 20
74557.75621631714
 30
0.0
 40
3.5
 41
0.0
 71
     7
 72
     5
  1

1001
ACAD
1000
MTEXTBEGIN
1070
    73
1070
     1
1070
    44
1040
1.0
1070
    74
1070
     0
1000
MTEXTEND
  0
MTEXT
  5
5620
330
1A
100
AcDbEntity
  8
SUNPOU
100
AcDbMText
 10
72921.79781911986
 20
62319.90494713532
 30
0.0
 40
10.5
 41
0.0
 71
     7
 72
     5
  1

1001
ACAD
1000
MTEXTBEGIN
1070
    73
1070
     1
1070
    44
1040
1.0
1070
    74
1070
     0
1000
MTEXTEND
  0
MTEXT
  5
5621
330
1A
100
AcDbEntity
  8
SUNPOU
100
AcDbMText
 10
60464.56955417175
 20
46474.97336903692
 30
0.0
 40
35.0
 41
0.0
 71
     9
 72
     5
  1

1001
ACAD
1000
MTEXTBEGIN
1070
    73
1070
     1
1070
    44
1040
1.0
1070
    74
1070
     0
1000
MTEXTEND
  0
MTEXT
  5
5622
330
1A
100
AcDbEntity
  8
SUNPOU
100
AcDbMText
 10
59373.05461174673
 20
47083.74877908561
 30
0.0
 40
350.0000004171781
 41
0.0
 71
     7
 72
     5
  1

1001
ACAD
1000
MTEXTBEGIN
1070
    73
1070
     1
1070
    44
1040
1.0
1070
    74
1070
     0
1000
MTEXTEND
  0
MTEXT
  5
5623
330
1A
100
AcDbEntity
  8
0
100
AcDbMText
 10
65417.00536968963
 20
45063.67114122186
 30
0.0
 40
8.0
 41
0.0
 71
     7
 72
     5
  1

1001
ACAD
1000
MTEXTBEGIN
1070
    73
1070
     1
1070
    44
1040
1.0
1070
    74
1070
     0
1000
MTEXTEND
  0
MTEXT
  5
5624
330
1A
100
AcDbEntity
  8
0
100
AcDbMText
 10
67702.36305958452
 20
46034.46143597292
 30
0.0
 40
8.0
 41
0.0
 71
     7
 72
     5
  1

1001
ACAD
1000
MTEXTBEGIN
1070
    73
1070
     1
1070
    44
1040
1.0
1070
    74
1070
     0
1000
MTEXTEND
  0
MTEXT
  5
5625
330
1A
100
AcDbEntity
  8
SUNPOU
100
AcDbMText
 10
70368.26008026666
 20
55546.57282834803
 30
0.0
 40
10.5
 41
0.0
 71
     1
 72
     5
  1

1001
ACAD
1000
MTEXTBEGIN
1070
    73
1070
     1
1070
    44
1040
1.0
1070
    74
1070
     0
1000
MTEXTEND
  0
MTEXT
  5
5626
330
1A
100
AcDbEntity
  8
SUNPOU
100
AcDbMText
 10
62437.33688433072
 20
54599.77969443507
 30
0.0
 40
10.5
 41
0.0
 71
     7
 72
     5
  1

1001
ACAD
1000
MTEXTBEGIN
1070
    73
1070
     1
1070
    44
1040
1.0
1070
    74
1070
     0
1000
MTEXTEND
  0
MTEXT
  5
5627
330
1A
100
AcDbEntity
  8
SUNPOU
100
AcDbMText
 10
65386.32054884347
 20
59500.45576627792
 30
0.0
 40
10.5
 41
0.0
 71
     7
 72
     5
  1

1001
ACAD
1000
MTEXTBEGIN
1070
    73
1070
     1
1070
    44
1040
1.0
1070
    74
1070
     0
1000
MTEXTEND
  0
MTEXT
  5
5628
330
1A
100
AcDbEntity
  8
SUNPOU
100
AcDbMText
 10
69895.39867679405
 20
61936.756513898
 30
0.0
 40
10.5
 41
0.0
 71
     7
 72
     5
  1

1001
ACAD
1000
MTEXTBEGIN
1070
    73
1070
     1
1070
    44
1040
1.0
1070
    74
1070
     0
1000
MTEXTEND
  0
MTEXT
  5
5629
330
1A
100
AcDbEntity
  8
SUNPOU
100
AcDbMText
 10
53496.23656356237
 20
40934.35266428691
 30
0.0
 40
10.5
 41
0.0
 71
     7
 72
     5
  1

1001
ACAD
1000
MTEXTBEGIN
1070
    73
1070
     1
1070
    44
1040
1.0
1070
    74
1070
     0
1000
MTEXTEND
  0
MTEXT
  5
562A
330
1A
100
AcDbEntity
  8
SUNPOU
100
AcDbMText
 10
55306.99947493731
 20
47261.76665176546
 30
0.0
 40
10.5
 41
0.0
 71
     9
 72
     5
  1

1001
ACAD
1000
MTEXTBEGIN
1070
    73
1070
     1
1070
    44
1040
1.0
1070
    74
1070
     0
1000
MTEXTEND
  0
MTEXT
  5
562B
330
1A
100
AcDbEntity
  8
SUNPOU
100
AcDbMText
 10
64029.16704085527
 20
54677.60118330295
 30
0.0
 40
10.5
 41
0.0
 71
     9
 72
     5
  1

1001
ACAD
1000
MTEXTBEGIN
1070
    73
1070
     1
1070
    44
1040
1.0
1070
    74
1070
     0
1000
MTEXTEND
  0
MTEXT
  5
562C
330
1A
100
AcDbEntity
  8
SUNPOU
100
AcDbMText
 10
82982.92575818527
 20
72144.17723579499
 30
0.0
 40
10.5
 41
0.0
 71
     9
 72
     5
  1

1001
ACAD
1000
MTEXTBEGIN
1070
    73
1070
     1
1070
    44
1040
1.0
1070
    74
1070
     0
1000
MTEXTEND
  0
MTEXT
  5
562D
330
1A
100
AcDbEntity
  8
SUNPOU
100
AcDbMText
 10
84926.33300489467
 20
70343.12815591697
 30
0.0
 40
3.5
 41
0.0
 71
     9
 72
     5
  1

1001
ACAD
1000
MTEXTBEGIN
1070
    73
1070
     1
1070
    44
1040
1.0
1070
    74
1070
     0
1000
MTEXTEND
  0
MTEXT
  5
562E
330
1A
100
AcDbEntity
  8
SUNPOU
100
AcDbMText
 10
116052.5128375142
 20
112838.0738235742
 30
0.0
 40
10.5
 41
0.0
 71
     9
 72
     5
  1

1001
ACAD
1000
MTEXTBEGIN
1070
    73
1070
     1
1070
    44
1040
1.0
1070
    74
1070
     0
1000
MTEXTEND
  0
MTEXT
  5
562F
330
1A
100
AcDbEntity
  8
SUNPOU
100
AcDbMText
 10
117995.9200842238
 20
111037.0247436963
 30
0.0
 40
3.5
 41
0.0
 71
     9
 72
     5
  1

1001
ACAD
1000
MTEXTBEGIN
1070
    73
1070
     1
1070
    44
1040
1.0
1070
    74
1070
     0
1000
MTEXTEND
  0
MTEXT
  5
5630
330
1A
100
AcDbEntity
  8
SUNPOU
100
AcDbMText
 10
66492.78054330994
 20
58671.23897854939
 30
0.0
 40
10.5
 41
0.0
 71
     9
 72
     5
  1

1001
ACAD
1000
MTEXTBEGIN
1070
    73
1070
     1
1070
    44
1040
1.0
1070
    74
1070
     0
1000
MTEXTEND
  0
MTEXT
  5
5631
330
1A
100
AcDbEntity
  8
SUNPOU
100
AcDbMText
 10
52544.78044293397
 20
39498.83983943717
 30
0.0
 40
3.5
 41
0.0
 71
     7
 72
     5
  1

1001
ACAD
1000
MTEXTBEGIN
1070
    73
1070
     1
1070
    44
1040
1.0
1070
    74
1070
     0
1000
MTEXTEND
  0
MTEXT
  5
5632
330
1A
100
AcDbEntity
  8
SUNPOU
100
AcDbMText
 10
66237.13112570454
 20
48857.90306045851
 30
0.0
 40
10.5
 41
0.0
 71
     9
 72
     5
  1

1001
ACAD
1000
MTEXTBEGIN
1070
    73
1070
     1
1070
    44
1040
1.0
1070
    74
1070
     0
1000
MTEXTEND
  0
MTEXT
  5
5633
330
1A
100
AcDbEntity
  8
SUNPOU
100
AcDbMText
 10
74959.29869162253
 20
56273.73759199598
 30
0.0
 40
10.5
 41
0.0
 71
     9
 72
     5
  1

1001
ACAD
1000
MTEXTBEGIN
1070
    73
1070
     1
1070
    44
1040
1.0
1070
    74
1070
     0
1000
MTEXTEND
  0
MTEXT
  5
5634
330
1A
100
AcDbEntity
  8
SUNPOU
100
AcDbMText
 10
93913.0574089525
 20
73740.31364448805
 30
0.0
 40
10.5
 41
0.0
 71
     9
 72
     5
  1

1001
ACAD
1000
MTEXTBEGIN
1070
    73
1070
     1
1070
    44
1040
1.0
1070
    74
1070
     0
1000
MTEXTEND
  0
MTEXT
  5
5635
330
1A
100
AcDbEntity
  8
SUNPOU
100
AcDbMText
 10
95856.46465566192
 20
71939.26456461004
 30
0.0
 40
3.5
 41
0.0
 71
     9
 72
     5
  1

1001
ACAD
1000
MTEXTBEGIN
1070
    73
1070
     1
1070
    44
1040
1.0
1070
    74
1070
     0
1000
MTEXTEND
  0
MTEXT
  5
5636
330
1A
100
AcDbEntity
  8
SUNPOU
100
AcDbMText
 10
126982.6444882816
 20
114434.2102322673
 30
0.0
 40
10.5
 41
0.0
 71
     9
 72
     5
  1

1001
ACAD
1000
MTEXTBEGIN
1070
    73
1070
     1
1070
    44
1040
1.0
1070
    74
1070
     0
1000
MTEXTEND
  0
MTEXT
  5
5637
330
1A
100
AcDbEntity
  8
SUNPOU
100
AcDbMText
 10
128926.051734991
 20
112633.1611523893
 30
0.0
 40
3.5
 41
0.0
 71
     9
 72
     5
  1

1001
ACAD
1000
MTEXTBEGIN
1070
    73
1070
     1
1070
    44
1040
1.0
1070
    74
1070
     0
1000
MTEXTEND
  0
MTEXT
  5
5638
330
1A
100
AcDbEntity
  8
SUNPOU
100
AcDbMText
 10
77422.91219407717
 20
60267.37538724244
 30
0.0
 40
10.5
 41
0.0
 71
     9
 72
     5
  1

1001
ACAD
1000
MTEXTBEGIN
1070
    73
1070
     1
1070
    44
1040
1.0
1070
    74
1070
     0
1000
MTEXTEND
  0
MTEXT
  5
5639
330
1A
100
AcDbEntity
  8
SUNPOU
100
AcDbMText
 10
63474.91209370119
 20
41094.97624813023
 30
0.0
 40
3.5
 41
0.0
 71
     7
 72
     5
  1

1001
ACAD
1000
MTEXTBEGIN
1070
    73
1070
     1
1070
    44
1040
1.0
1070
    74
1070
     0
1000
MTEXTEND
  0
MTEXT
  5
563A
330
1A
100
AcDbEntity
  8
SUNPOU
100
AcDbMText
 10
48117.65086229006
 20
40806.11043916631
 30
0.0
 40
10.5
 41
0.0
 71
     9
 72
     5
  1

1001
ACAD
1000
MTEXTBEGIN
1070
    73
1070
     1
1070
    44
1040
1.0
1070
    74
1070
     0
1000
MTEXTEND
  0
MTEXT
  5
563B
330
1A
100
AcDbEntity
  8
SUNPOU
100
AcDbMText
 10
67071.40957962004
 20
58272.68649165838
 30
0.0
 40
10.5
 41
0.0
 71
     9
 72
     5
  1

1001
ACAD
1000
MTEXTBEGIN
1070
    73
1070
     1
1070
    44
1040
1.0
1070
    74
1070
     0
1000
MTEXTEND
  0
MTEXT
  5
563C
330
1A
100
AcDbEntity
  8
SUNPOU
100
AcDbMText
 10
69014.81682632945
 20
56471.63741178035
 30
0.0
 40
3.5
 41
0.0
 71
     9
 72
     5
  1

1001
ACAD
1000
MTEXTBEGIN
1070
    73
1070
     1
1070
    44
1040
1.0
1070
    74
1070
     0
1000
MTEXTEND
  0
MTEXT
  5
563D
330
1A
100
AcDbEntity
  8
SUNPOU
100
AcDbMText
 10
100140.9966589491
 20
98966.58307943773
 30
0.0
 40
10.5
 41
0.0
 71
     9
 72
     5
  1

1001
ACAD
1000
MTEXTBEGIN
1070
    73
1070
     1
1070
    44
1040
1.0
1070
    74
1070
     0
1000
MTEXTEND
  0
MTEXT
  5
563E
330
1A
100
AcDbEntity
  8
SUNPOU
100
AcDbMText
 10
102084.4039056586
 20
97165.53399955968
 30
0.0
 40
3.5
 41
0.0
 71
     9
 72
     5
  1

1001
ACAD
1000
MTEXTBEGIN
1070
    73
1070
     1
1070
    44
1040
1.0
1070
    74
1070
     0
1000
MTEXTEND
  0
MTEXT
  5
563F
330
1A
100
AcDbEntity
  8
SUNPOU
100
AcDbMText
 10
50581.26436474472
 20
44799.74823441275
 30
0.0
 40
10.5
 41
0.0
 71
     9
 72
     5
  1

1001
ACAD
1000
MTEXTBEGIN
1070
    73
1070
     1
1070
    44
1040
1.0
1070
    74
1070
     0
1000
MTEXTEND
  0
MTEXT
  5
5640
330
1A
100
AcDbEntity
  8
SUNPOU
100
AcDbMText
 10
36633.26426436873
 20
25627.34909530054
 30
0.0
 40
3.5
 41
0.0
 71
     7
 72
     5
  1

1001
ACAD
1000
MTEXTBEGIN
1070
    73
1070
     1
1070
    44
1040
1.0
1070
    74
1070
     0
1000
MTEXTEND
  0
MTEXT
  5
5641
330
1A
100
AcDbEntity
  8
SUNPOU
100
AcDbMText
 10
61069.42493315968
 20
52574.61207825771
 30
0.0
 40
10.5
 41
0.0
 71
     9
 72
     5
  1

1001
ACAD
1000
MTEXTBEGIN
1070
    73
1070
     1
1070
    44
1040
1.0
1070
    74
1070
     0
1000
MTEXTEND
  0
MTEXT
  5
5642
330
1A
100
AcDbEntity
  8
SUNPOU
100
AcDbMText
 10
80023.18365048967
 20
70041.18813074978
 30
0.0
 40
10.5
 41
0.0
 71
     9
 72
     5
  1

1001
ACAD
1000
MTEXTBEGIN
1070
    73
1070
     1
1070
    44
1040
1.0
1070
    74
1070
     0
1000
MTEXTEND
  0
MTEXT
  5
5643
330
1A
100
AcDbEntity
  8
SUNPOU
100
AcDbMText
 10
81966.59089719908
 20
68240.13905087176
 30
0.0
 40
3.5
 41
0.0
 71
     9
 72
     5
  1

1001
ACAD
1000
MTEXTBEGIN
1070
    73
1070
     1
1070
    44
1040
1.0
1070
    74
1070
     0
1000
MTEXTEND
  0
MTEXT
  5
5644
330
1A
100
AcDbEntity
  8
SUNPOU
100
AcDbMText
 10
113092.7707298186
 20
110735.0847185291
 30
0.0
 40
10.5
 41
0.0
 71
     9
 72
     5
  1

1001
ACAD
1000
MTEXTBEGIN
1070
    73
1070
     1
1070
    44
1040
1.0
1070
    74
1070
     0
1000
MTEXTEND
  0
MTEXT
  5
5645
330
1A
100
AcDbEntity
  8
SUNPOU
100
AcDbMText
 10
115036.1779765282
 20
108934.0356386511
 30
0.0
 40
3.5
 41
0.0
 71
     9
 72
     5
  1

1001
ACAD
1000
MTEXTBEGIN
1070
    73
1070
     1
1070
    44
1040
1.0
1070
    74
1070
     0
1000
MTEXTEND
  0
MTEXT
  5
5646
330
1A
100
AcDbEntity
  8
SUNPOU
100
AcDbMText
 10
63533.03843561432
 20
56568.24987350415
 30
0.0
 40
10.5
 41
0.0
 71
     9
 72
     5
  1

1001
ACAD
1000
MTEXTBEGIN
1070
    73
1070
     1
1070
    44
1040
1.0
1070
    74
1070
     0
1000
MTEXTEND
  0
MTEXT
  5
5647
330
1A
100
AcDbEntity
  8
SUNPOU
100
AcDbMText
 10
49585.03833523835
 20
37395.85073439196
 30
0.0
 40
3.5
 41
0.0
 71
     7
 72
     5
  1

1001
ACAD
1000
MTEXTBEGIN
1070
    73
1070
     1
1070
    44
1040
1.0
1070
    74
1070
     0
1000
MTEXTEND
  0
MTEXT
  5
5648
330
1A
100
AcDbEntity
  8
SUNPOU
100
AcDbMText
 10
77137.31641337052
 20
70907.11375048141
 30
0.0
 40
10.5
 41
0.0
 71
     9
 72
     5
  1

1001
ACAD
1000
MTEXTBEGIN
1070
    73
1070
     1
1070
    44
1040
1.0
1070
    74
1070
     0
1000
MTEXTEND
  0
MTEXT
  5
5649
330
1A
100
AcDbEntity
  8
SUNPOU
100
AcDbMText
 10
79080.72366007995
 20
69106.06467060339
 30
0.0
 40
3.5
 41
0.0
 71
     9
 72
     5
  1

1001
ACAD
1000
MTEXTBEGIN
1070
    73
1070
     1
1070
    44
1040
1.0
1070
    74
1070
     0
1000
MTEXTEND
  0
MTEXT
  5
564A
330
1A
100
AcDbEntity
  8
SUNPOU
100
AcDbMText
 10
110206.9034926996
 20
111601.0103382607
 30
0.0
 40
10.5
 41
0.0
 71
     9
 72
     5
  1

1001
ACAD
1000
MTEXTBEGIN
1070
    73
1070
     1
1070
    44
1040
1.0
1070
    74
1070
     0
1000
MTEXTEND
  0
MTEXT
  5
564B
330
1A
100
AcDbEntity
  8
SUNPOU
100
AcDbMText
 10
112150.310739409
 20
109799.9612583826
 30
0.0
 40
3.5
 41
0.0
 71
     9
 72
     5
  1

1001
ACAD
1000
MTEXTBEGIN
1070
    73
1070
     1
1070
    44
1040
1.0
1070
    74
1070
     0
1000
MTEXTEND
  0
MTEXT
  5
564C
330
1A
100
AcDbEntity
  8
SUNPOU
100
AcDbMText
 10
108819.1333204967
 20
110677.9087286761
 30
0.0
 40
10.5
 41
0.0
 71
     9
 72
     5
  1

1001
ACAD
1000
MTEXTBEGIN
1070
    73
1070
     1
1070
    44
1040
1.0
1070
    74
1070
     0
1000
MTEXTEND
  0
MTEXT
  5
564D
330
1A
100
AcDbEntity
  8
SUNPOU
100
AcDbMText
 10
110762.5405672062
 20
108876.8596487981
 30
0.0
 40
3.5
 41
0.0
 71
     9
 72
     5
  1

1001
ACAD
1000
MTEXTBEGIN
1070
    73
1070
     1
1070
    44
1040
1.0
1070
    74
1070
     0
1000
MTEXTEND
  0
MTEXT
  5
564E
330
1A
100
AcDbEntity
  8
SUNPOU
100
AcDbMText
 10
76303.05507956816
 20
68695.31179059812
 30
0.0
 40
10.5
 41
0.0
 71
     9
 72
     5
  1

1001
ACAD
1000
MTEXTBEGIN
1070
    73
1070
     1
1070
    44
1040
1.0
1070
    74
1070
     0
1000
MTEXTEND
  0
MTEXT
  5
564F
330
1A
100
AcDbEntity
  8
SUNPOU
100
AcDbMText
 10
79026.36128373271
 20
69099.99348217918
 30
0.0
 40
3.5
 41
0.0
 71
     9
 72
     5
  1

1001
ACAD
1000
MTEXTBEGIN
1070
    73
1070
     1
1070
    44
1040
1.0
1070
    74
1070
     0
1000
MTEXTEND
  0
MTEXT
  5
5650
330
1A
100
AcDbEntity
  8
SUNPOU
100
AcDbMText
 10
78234.00675862522
 20
65938.68764412436
 30
0.0
 40
10.5
 41
0.0
 71
     9
 72
     5
  1

1001
ACAD
1000
MTEXTBEGIN
1070
    73
1070
     1
1070
    44
1040
1.0
1070
    74
1070
     0
1000
MTEXTEND
  0
MTEXT
  5
5651
330
1A
100
AcDbEntity
  8
SUNPOU
100
AcDbMText
 10
80177.41400533465
 20
64137.63856424636
 30
0.0
 40
3.5
 41
0.0
 71
     9
 72
     5
  1

1001
ACAD
1000
MTEXTBEGIN
1070
    73
1070
     1
1070
    44
1040
1.0
1070
    74
1070
     0
1000
MTEXTEND
  0
MTEXT
  5
5652
330
1A
100
AcDbEntity
  8
SUNPOU
100
AcDbMText
 10
80122.50949592122
 20
64024.86668196204
 30
0.0
 40
3.5
 41
0.0
 71
     9
 72
     5
  1

1001
ACAD
1000
MTEXTBEGIN
1070
    73
1070
     1
1070
    44
1040
1.0
1070
    74
1070
     0
1000
MTEXTEND
  0
MTEXT
  5
5653
330
1A
100
AcDbEntity
  8
SUNPOU
100
AcDbMText
 10
79486.58135950133
 20
63213.54544089553
 30
0.0
 40
3.5
 41
0.0
 71
     9
 72
     5
  1

1001
ACAD
1000
MTEXTBEGIN
1070
    73
1070
     1
1070
    44
1040
1.0
1070
    74
1070
     0
1000
MTEXTEND
  0
MTEXT
  5
5654
330
1A
100
AcDbEntity
  8
SUNPOU
100
AcDbMText
 10
79485.3409400806
 20
63213.29746395804
 30
0.0
 40
10.5
 41
0.0
 71
     9
 72
     5
  1

1001
ACAD
1000
MTEXTBEGIN
1070
    73
1070
     1
1070
    44
1040
1.0
1070
    74
1070
     0
1000
MTEXTEND
  0
MTEXT
  5
5655
330
1A
100
AcDbEntity
  8
SUNPOU
100
AcDbMText
 10
85473.63363627567
 20
80747.76348077064
 30
0.0
 40
10.5
 41
0.0
 71
     9
 72
     5
  1

1001
ACAD
1000
MTEXTBEGIN
1070
    73
1070
     1
1070
    44
1040
1.0
1070
    74
1070
     0
1000
MTEXTEND
  0
MTEXT
  5
5656
330
1A
100
AcDbEntity
  8
SUNPOU
100
AcDbMText
 10
94195.80120219368
 20
88163.59801230806
 30
0.0
 40
10.5
 41
0.0
 71
     9
 72
     5
  1

1001
ACAD
1000
MTEXTBEGIN
1070
    73
1070
     1
1070
    44
1040
1.0
1070
    74
1070
     0
1000
MTEXTEND
  0
MTEXT
  5
5657
330
1A
100
AcDbEntity
  8
SUNPOU
100
AcDbMText
 10
113149.5599195236
 20
105630.1740648001
 30
0.0
 40
10.5
 41
0.0
 71
     9
 72
     5
  1

1001
ACAD
1000
MTEXTBEGIN
1070
    73
1070
     1
1070
    44
1040
1.0
1070
    74
1070
     0
1000
MTEXTEND
  0
MTEXT
  5
5658
330
1A
100
AcDbEntity
  8
SUNPOU
100
AcDbMText
 10
115092.967166233
 20
103829.1249849221
 30
0.0
 40
3.5
 41
0.0
 71
     9
 72
     5
  1

1001
ACAD
1000
MTEXTBEGIN
1070
    73
1070
     1
1070
    44
1040
1.0
1070
    74
1070
     0
1000
MTEXTEND
  0
MTEXT
  5
5659
330
1A
100
AcDbEntity
  8
SUNPOU
100
AcDbMText
 10
146219.1469988527
 20
146324.0706525794
 30
0.0
 40
10.5
 41
0.0
 71
     9
 72
     5
  1

1001
ACAD
1000
MTEXTBEGIN
1070
    73
1070
     1
1070
    44
1040
1.0
1070
    74
1070
     0
1000
MTEXTEND
  0
MTEXT
  5
565A
330
1A
100
AcDbEntity
  8
SUNPOU
100
AcDbMText
 10
148162.5542455621
 20
144523.0215727014
 30
0.0
 40
3.5
 41
0.0
 71
     9
 72
     5
  1

1001
ACAD
1000
MTEXTBEGIN
1070
    73
1070
     1
1070
    44
1040
1.0
1070
    74
1070
     0
1000
MTEXTEND
  0
MTEXT
  5
565B
330
1A
100
AcDbEntity
  8
SUNPOU
100
AcDbMText
 10
96659.41470464833
 20
92157.23580755453
 30
0.0
 40
10.5
 41
0.0
 71
     9
 72
     5
  1

1001
ACAD
1000
MTEXTBEGIN
1070
    73
1070
     1
1070
    44
1040
1.0
1070
    74
1070
     0
1000
MTEXTEND
  0
MTEXT
  5
565C
330
1A
100
AcDbEntity
  8
SUNPOU
100
AcDbMText
 10
82711.41460427234
 20
72984.83666844234
 30
0.0
 40
3.5
 41
0.0
 71
     7
 72
     5
  1

1001
ACAD
1000
MTEXTBEGIN
1070
    73
1070
     1
1070
    44
1040
1.0
1070
    74
1070
     0
1000
MTEXTEND
  0
MTEXT
  5
565D
330
1A
100
AcDbEntity
  8
SUNPOU
100
AcDbMText
 10
63696.58400126548
 20
60746.98539926055
 30
0.0
 40
10.5
 41
0.0
 71
     7
 72
     5
  1

1001
ACAD
1000
MTEXTBEGIN
1070
    73
1070
     1
1070
    44
1040
1.0
1070
    74
1070
     0
1000
MTEXTEND
  0
MTEXT
  5
565E
330
1A
100
AcDbEntity
  8
SUNPOU
100
AcDbMText
 10
51239.35573631738
 20
44902.05382116213
 30
0.0
 40
35.0
 41
0.0
 71
     9
 72
     5
  1

1001
ACAD
1000
MTEXTBEGIN
1070
    73
1070
     1
1070
    44
1040
1.0
1070
    74
1070
     0
1000
MTEXTEND
  0
MTEXT
  5
565F
330
1A
100
AcDbEntity
  8
SUNPOU
100
AcDbMText
 10
50147.84079389233
 20
45510.82923121084
 30
0.0
 40
350.0000004171781
 41
0.0
 71
     7
 72
     5
  1

1001
ACAD
1000
MTEXTBEGIN
1070
    73
1070
     1
1070
    44
1040
1.0
1070
    74
1070
     0
1000
MTEXTEND
  0
MTEXT
  5
5660
330
1A
100
AcDbEntity
  8
0
100
AcDbMText
 10
56191.79155183523
 20
43490.75159334705
 30
0.0
 40
8.0
 41
0.0
 71
     7
 72
     5
  1

1001
ACAD
1000
MTEXTBEGIN
1070
    73
1070
     1
1070
    44
1040
1.0
1070
    74
1070
     0
1000
MTEXTEND
  0
MTEXT
  5
5661
330
1A
100
AcDbEntity
  8
0
100
AcDbMText
 10
58477.14924173012
 20
44461.54188809812
 30
0.0
 40
8.0
 41
0.0
 71
     7
 72
     5
  1

1001
ACAD
1000
MTEXTBEGIN
1070
    73
1070
     1
1070
    44
1040
1.0
1070
    74
1070
     0
1000
MTEXTEND
  0
MTEXT
  5
5662
330
1A
100
AcDbEntity
  8
SUNPOU
100
AcDbMText
 10
61143.04626241227
 20
53973.65328047324
 30
0.0
 40
10.5
 41
0.0
 71
     1
 72
     5
  1

1001
ACAD
1000
MTEXTBEGIN
1070
    73
1070
     1
1070
    44
1040
1.0
1070
    74
1070
     0
1000
MTEXTEND
  0
MTEXT
  5
5663
330
1A
100
AcDbEntity
  8
SUNPOU
100
AcDbMText
 10
53212.12306647632
 20
53026.86014656028
 30
0.0
 40
10.5
 41
0.0
 71
     7
 72
     5
  1

1001
ACAD
1000
MTEXTBEGIN
1070
    73
1070
     1
1070
    44
1040
1.0
1070
    74
1070
     0
1000
MTEXTEND
  0
MTEXT
  5
5664
330
1A
100
AcDbEntity
  8
SUNPOU
100
AcDbMText
 10
56161.10673098909
 20
57927.53621840312
 30
0.0
 40
10.5
 41
0.0
 71
     7
 72
     5
  1

1001
ACAD
1000
MTEXTBEGIN
1070
    73
1070
     1
1070
    44
1040
1.0
1070
    74
1070
     0
1000
MTEXTEND
  0
MTEXT
  5
5665
330
1A
100
AcDbEntity
  8
SUNPOU
100
AcDbMText
 10
60670.18485893966
 20
60363.8369660232
 30
0.0
 40
10.5
 41
0.0
 71
     7
 72
     5
  1

1001
ACAD
1000
MTEXTBEGIN
1070
    73
1070
     1
1070
    44
1040
1.0
1070
    74
1070
     0
1000
MTEXTEND
  0
MTEXT
  5
5666
330
1A
100
AcDbEntity
  8
SUNPOU
100
AcDbMText
 10
44271.02274570799
 20
39361.43311641211
 30
0.0
 40
10.5
 41
0.0
 71
     7
 72
     5
  1

1001
ACAD
1000
MTEXTBEGIN
1070
    73
1070
     1
1070
    44
1040
1.0
1070
    74
1070
     0
1000
MTEXTEND
  0
MTEXT
  5
5667
330
1A
100
AcDbEntity
  8
SUNPOU
100
AcDbMText
 10
95462.54117960824
 20
85034.41368006038
 30
0.0
 40
10.5
 41
0.0
 71
     9
 72
     5
  1

1001
ACAD
1000
MTEXTBEGIN
1070
    73
1070
     1
1070
    44
1040
1.0
1070
    74
1070
     0
1000
MTEXTEND
  0
MTEXT
  5
5668
330
1A
100
AcDbEntity
  8
SUNPOU
100
AcDbMText
 10
104184.7087455262
 20
92450.24821159784
 30
0.0
 40
10.5
 41
0.0
 71
     9
 72
     5
  1

1001
ACAD
1000
MTEXTBEGIN
1070
    73
1070
     1
1070
    44
1040
1.0
1070
    74
1070
     0
1000
MTEXTEND
  0
MTEXT
  5
5669
330
1A
100
AcDbEntity
  8
SUNPOU
100
AcDbMText
 10
123138.4674628562
 20
109916.8242640898
 30
0.0
 40
10.5
 41
0.0
 71
     9
 72
     5
  1

1001
ACAD
1000
MTEXTBEGIN
1070
    73
1070
     1
1070
    44
1040
1.0
1070
    74
1070
     0
1000
MTEXTEND
  0
MTEXT
  5
566A
330
1A
100
AcDbEntity
  8
SUNPOU
100
AcDbMText
 10
125081.8747095656
 20
108115.7751842118
 30
0.0
 40
3.5
 41
0.0
 71
     9
 72
     5
  1

1001
ACAD
1000
MTEXTBEGIN
1070
    73
1070
     1
1070
    44
1040
1.0
1070
    74
1070
     0
1000
MTEXTEND
  0
MTEXT
  5
566B
330
1A
100
AcDbEntity
  8
SUNPOU
100
AcDbMText
 10
156208.0545421853
 20
150610.7208518691
 30
0.0
 40
10.5
 41
0.0
 71
     9
 72
     5
  1

1001
ACAD
1000
MTEXTBEGIN
1070
    73
1070
     1
1070
    44
1040
1.0
1070
    74
1070
     0
1000
MTEXTEND
  0
MTEXT
  5
566C
330
1A
100
AcDbEntity
  8
SUNPOU
100
AcDbMText
 10
158151.4617888947
 20
148809.6717719911
 30
0.0
 40
3.5
 41
0.0
 71
     9
 72
     5
  1

1001
ACAD
1000
MTEXTBEGIN
1070
    73
1070
     1
1070
    44
1040
1.0
1070
    74
1070
     0
1000
MTEXTEND
  0
MTEXT
  5
566D
330
1A
100
AcDbEntity
  8
SUNPOU
100
AcDbMText
 10
106648.3222479809
 20
96443.88600684427
 30
0.0
 40
10.5
 41
0.0
 71
     9
 72
     5
  1

1001
ACAD
1000
MTEXTBEGIN
1070
    73
1070
     1
1070
    44
1040
1.0
1070
    74
1070
     0
1000
MTEXTEND
  0
MTEXT
  5
566E
330
1A
100
AcDbEntity
  8
SUNPOU
100
AcDbMText
 10
92700.3221476049
 20
77271.48686773207
 30
0.0
 40
3.5
 41
0.0
 71
     7
 72
     5
  1

1001
ACAD
1000
MTEXTBEGIN
1070
    73
1070
     1
1070
    44
1040
1.0
1070
    74
1070
     0
1000
MTEXTEND
  0
MTEXT
  5
566F
330
1A
100
AcDbEntity
  8
SUNPOU
100
AcDbMText
 10
73685.49154459807
 20
65033.63559855027
 30
0.0
 40
10.5
 41
0.0
 71
     7
 72
     5
  1

1001
ACAD
1000
MTEXTBEGIN
1070
    73
1070
     1
1070
    44
1040
1.0
1070
    74
1070
     0
1000
MTEXTEND
  0
MTEXT
  5
5670
330
1A
100
AcDbEntity
  8
SUNPOU
100
AcDbMText
 10
61228.26327964995
 20
49188.70402045183
 30
0.0
 40
35.0
 41
0.0
 71
     9
 72
     5
  1

1001
ACAD
1000
MTEXTBEGIN
1070
    73
1070
     1
1070
    44
1040
1.0
1070
    74
1070
     0
1000
MTEXTEND
  0
MTEXT
  5
5671
330
1A
100
AcDbEntity
  8
SUNPOU
100
AcDbMText
 10
60136.74833722491
 20
49797.47943050056
 30
0.0
 40
350.0000004171781
 41
0.0
 71
     7
 72
     5
  1

1001
ACAD
1000
MTEXTBEGIN
1070
    73
1070
     1
1070
    44
1040
1.0
1070
    74
1070
     0
1000
MTEXTEND
  0
MTEXT
  5
5672
330
1A
100
AcDbEntity
  8
0
100
AcDbMText
 10
66180.69909516782
 20
47777.40179263677
 30
0.0
 40
8.0
 41
0.0
 71
     7
 72
     5
  1

1001
ACAD
1000
MTEXTBEGIN
1070
    73
1070
     1
1070
    44
1040
1.0
1070
    74
1070
     0
1000
MTEXTEND
  0
MTEXT
  5
5673
330
1A
100
AcDbEntity
  8
0
100
AcDbMText
 10
68466.05678506271
 20
48748.19208738784
 30
0.0
 40
8.0
 41
0.0
 71
     7
 72
     5
  1

1001
ACAD
1000
MTEXTBEGIN
1070
    73
1070
     1
1070
    44
1040
1.0
1070
    74
1070
     0
1000
MTEXTEND
  0
MTEXT
  5
5674
330
1A
100
AcDbEntity
  8
SUNPOU
100
AcDbMText
 10
71131.95380574485
 20
58260.30347976296
 30
0.0
 40
10.5
 41
0.0
 71
     1
 72
     5
  1

1001
ACAD
1000
MTEXTBEGIN
1070
    73
1070
     1
1070
    44
1040
1.0
1070
    74
1070
     0
1000
MTEXTEND
  0
MTEXT
  5
5675
330
1A
100
AcDbEntity
  8
SUNPOU
100
AcDbMText
 10
63201.03060980891
 20
57313.51034585003
 30
0.0
 40
10.5
 41
0.0
 71
     7
 72
     5
  1

1001
ACAD
1000
MTEXTBEGIN
1070
    73
1070
     1
1070
    44
1040
1.0
1070
    74
1070
     0
1000
MTEXTEND
  0
MTEXT
  5
5676
330
1A
100
AcDbEntity
  8
SUNPOU
100
AcDbMText
 10
66150.01427432169
 20
62214.18641769286
 30
0.0
 40
10.5
 41
0.0
 71
     7
 72
     5
  1

1001
ACAD
1000
MTEXTBEGIN
1070
    73
1070
     1
1070
    44
1040
1.0
1070
    74
1070
     0
1000
MTEXTEND
  0
MTEXT
  5
5677
330
1A
100
AcDbEntity
  8
SUNPOU
100
AcDbMText
 10
70659.09240227225
 20
64650.48716531294
 30
0.0
 40
10.5
 41
0.0
 71
     7
 72
     5
  1

1001
ACAD
1000
MTEXTBEGIN
1070
    73
1070
     1
1070
    44
1040
1.0
1070
    74
1070
     0
1000
MTEXTEND
  0
MTEXT
  5
5678
330
1A
100
AcDbEntity
  8
SUNPOU
100
AcDbMText
 10
54259.93028904056
 20
43648.08331570185
 30
0.0
 40
10.5
 41
0.0
 71
     7
 72
     5
  1

1001
ACAD
1000
MTEXTBEGIN
1070
    73
1070
     1
1070
    44
1040
1.0
1070
    74
1070
     0
1000
MTEXTEND
  0
MTEXT
  5
5679
330
1A
100
AcDbEntity
  8
SUNPOU
100
AcDbMText
 10
56070.69320041551
 20
49975.4973031804
 30
0.0
 40
10.5
 41
0.0
 71
     9
 72
     5
  1

1001
ACAD
1000
MTEXTBEGIN
1070
    73
1070
     1
1070
    44
1040
1.0
1070
    74
1070
     0
1000
MTEXTEND
  0
MTEXT
  5
567A
330
1A
100
AcDbEntity
  8
SUNPOU
100
AcDbMText
 10
64792.86076633347
 20
57391.33183471787
 30
0.0
 40
10.5
 41
0.0
 71
     9
 72
     5
  1

1001
ACAD
1000
MTEXTBEGIN
1070
    73
1070
     1
1070
    44
1040
1.0
1070
    74
1070
     0
1000
MTEXTEND
  0
MTEXT
  5
567B
330
1A
100
AcDbEntity
  8
SUNPOU
100
AcDbMText
 10
83746.61948366345
 20
74857.90788720994
 30
0.0
 40
10.5
 41
0.0
 71
     9
 72
     5
  1

1001
ACAD
1000
MTEXTBEGIN
1070
    73
1070
     1
1070
    44
1040
1.0
1070
    74
1070
     0
1000
MTEXTEND
  0
MTEXT
  5
567C
330
1A
100
AcDbEntity
  8
SUNPOU
100
AcDbMText
 10
85690.02673037287
 20
73056.85880733192
 30
0.0
 40
3.5
 41
0.0
 71
     9
 72
     5
  1

1001
ACAD
1000
MTEXTBEGIN
1070
    73
1070
     1
1070
    44
1040
1.0
1070
    74
1070
     0
1000
MTEXTEND
  0
MTEXT
  5
567D
330
1A
100
AcDbEntity
  8
SUNPOU
100
AcDbMText
 10
116816.2065629925
 20
115551.8044749892
 30
0.0
 40
10.5
 41
0.0
 71
     9
 72
     5
  1

1001
ACAD
1000
MTEXTBEGIN
1070
    73
1070
     1
1070
    44
1040
1.0
1070
    74
1070
     0
1000
MTEXTEND
  0
MTEXT
  5
567E
330
1A
100
AcDbEntity
  8
SUNPOU
100
AcDbMText
 10
118759.6138097019
 20
113750.7553951111
 30
0.0
 40
3.5
 41
0.0
 71
     9
 72
     5
  1

1001
ACAD
1000
MTEXTBEGIN
1070
    73
1070
     1
1070
    44
1040
1.0
1070
    74
1070
     0
1000
MTEXTEND
  0
MTEXT
  5
567F
330
1A
100
AcDbEntity
  8
SUNPOU
100
AcDbMText
 10
67256.47426878814
 20
61384.96962996432
 30
0.0
 40
10.5
 41
0.0
 71
     9
 72
     5
  1

1001
ACAD
1000
MTEXTBEGIN
1070
    73
1070
     1
1070
    44
1040
1.0
1070
    74
1070
     0
1000
MTEXTEND
  0
MTEXT
  5
5680
330
1A
100
AcDbEntity
  8
SUNPOU
100
AcDbMText
 10
53308.47416841216
 20
42212.57049085211
 30
0.0
 40
3.5
 41
0.0
 71
     7
 72
     5
  1

1001
ACAD
1000
MTEXTBEGIN
1070
    73
1070
     1
1070
    44
1040
1.0
1070
    74
1070
     0
1000
MTEXTEND
  0
MTEXT
  5
5681
330
1A
100
AcDbEntity
  8
SUNPOU
100
AcDbMText
 10
67000.82485118274
 20
51571.63371187343
 30
0.0
 40
10.5
 41
0.0
 71
     9
 72
     5
  1

1001
ACAD
1000
MTEXTBEGIN
1070
    73
1070
     1
1070
    44
1040
1.0
1070
    74
1070
     0
1000
MTEXTEND
  0
MTEXT
  5
5682
330
1A
100
AcDbEntity
  8
SUNPOU
100
AcDbMText
 10
75722.99241710071
 20
58987.46824341094
 30
0.0
 40
10.5
 41
0.0
 71
     9
 72
     5
  1

1001
ACAD
1000
MTEXTBEGIN
1070
    73
1070
     1
1070
    44
1040
1.0
1070
    74
1070
     0
1000
MTEXTEND
  0
MTEXT
  5
5683
330
1A
100
AcDbEntity
  8
SUNPOU
100
AcDbMText
 10
94676.75113443068
 20
76454.04429590299
 30
0.0
 40
10.5
 41
0.0
 71
     9
 72
     5
  1

1001
ACAD
1000
MTEXTBEGIN
1070
    73
1070
     1
1070
    44
1040
1.0
1070
    74
1070
     0
1000
MTEXTEND
  0
MTEXT
  5
5684
330
1A
100
AcDbEntity
  8
SUNPOU
100
AcDbMText
 10
96620.1583811401
 20
74652.99521602497
 30
0.0
 40
3.5
 41
0.0
 71
     9
 72
     5
  1

1001
ACAD
1000
MTEXTBEGIN
1070
    73
1070
     1
1070
    44
1040
1.0
1070
    74
1070
     0
1000
MTEXTEND
  0
MTEXT
  5
5685
330
1A
100
AcDbEntity
  8
SUNPOU
100
AcDbMText
 10
127746.3382137598
 20
117147.9408836822
 30
0.0
 40
10.5
 41
0.0
 71
     9
 72
     5
  1

1001
ACAD
1000
MTEXTBEGIN
1070
    73
1070
     1
1070
    44
1040
1.0
1070
    74
1070
     0
1000
MTEXTEND
  0
MTEXT
  5
5686
330
1A
100
AcDbEntity
  8
SUNPOU
100
AcDbMText
 10
129689.7454604692
 20
115346.8918038041
 30
0.0
 40
3.5
 41
0.0
 71
     9
 72
     5
  1

1001
ACAD
1000
MTEXTBEGIN
1070
    73
1070
     1
1070
    44
1040
1.0
1070
    74
1070
     0
1000
MTEXTEND
  0
MTEXT
  5
5687
330
1A
100
AcDbEntity
  8
SUNPOU
100
AcDbMText
 10
78186.60591955537
 20
62981.10603865737
 30
0.0
 40
10.5
 41
0.0
 71
     9
 72
     5
  1

1001
ACAD
1000
MTEXTBEGIN
1070
    73
1070
     1
1070
    44
1040
1.0
1070
    74
1070
     0
1000
MTEXTEND
  0
MTEXT
  5
5688
330
1A
100
AcDbEntity
  8
SUNPOU
100
AcDbMText
 10
64238.60581917939
 20
43808.70689954517
 30
0.0
 40
3.5
 41
0.0
 71
     7
 72
     5
  1

1001
ACAD
1000
MTEXTBEGIN
1070
    73
1070
     1
1070
    44
1040
1.0
1070
    74
1070
     0
1000
MTEXTEND
  0
MTEXT
  5
5689
330
1A
100
AcDbEntity
  8
SUNPOU
100
AcDbMText
 10
33428.13481137435
 20
32770.04710035563
 30
0.0
 40
10.5
 41
0.0
 71
     9
 72
     5
  1

1001
ACAD
1000
MTEXTBEGIN
1070
    73
1070
     1
1070
    44
1040
1.0
1070
    74
1070
     0
1000
MTEXTEND
  0
MTEXT
  5
568A
330
1A
100
AcDbEntity
  8
SUNPOU
100
AcDbMText
 10
52381.89352870431
 20
50236.62315284768
 30
0.0
 40
10.5
 41
0.0
 71
     9
 72
     5
  1

1001
ACAD
1000
MTEXTBEGIN
1070
    73
1070
     1
1070
    44
1040
1.0
1070
    74
1070
     0
1000
MTEXTEND
  0
MTEXT
  5
568B
330
1A
100
AcDbEntity
  8
SUNPOU
100
AcDbMText
 10
54325.30077541374
 20
48435.57407296968
 30
0.0
 40
3.5
 41
0.0
 71
     9
 72
     5
  1

1001
ACAD
1000
MTEXTBEGIN
1070
    73
1070
     1
1070
    44
1040
1.0
1070
    74
1070
     0
1000
MTEXTEND
  0
MTEXT
  5
568C
330
1A
100
AcDbEntity
  8
SUNPOU
100
AcDbMText
 10
85451.48060803342
 20
90930.51974062703
 30
0.0
 40
10.5
 41
0.0
 71
     9
 72
     5
  1

1001
ACAD
1000
MTEXTBEGIN
1070
    73
1070
     1
1070
    44
1040
1.0
1070
    74
1070
     0
1000
MTEXTEND
  0
MTEXT
  5
568D
330
1A
100
AcDbEntity
  8
SUNPOU
100
AcDbMText
 10
87394.88785474286
 20
89129.47066074901
 30
0.0
 40
3.5
 41
0.0
 71
     9
 72
     5
  1

1001
ACAD
1000
MTEXTBEGIN
1070
    73
1070
     1
1070
    44
1040
1.0
1070
    74
1070
     0
1000
MTEXTEND
  0
MTEXT
  5
568E
330
1A
100
AcDbEntity
  8
SUNPOU
100
AcDbMText
 10
35891.74831382901
 20
36763.68489560208
 30
0.0
 40
10.5
 41
0.0
 71
     9
 72
     5
  1

1001
ACAD
1000
MTEXTBEGIN
1070
    73
1070
     1
1070
    44
1040
1.0
1070
    74
1070
     0
1000
MTEXTEND
  0
MTEXT
  5
568F
330
1A
100
AcDbEntity
  8
SUNPOU
100
AcDbMText
 10
21943.74821345303
 20
17591.28575648985
 30
0.0
 40
3.5
 41
0.0
 71
     7
 72
     5
  1

1001
ACAD
1000
MTEXTBEGIN
1070
    73
1070
     1
1070
    44
1040
1.0
1070
    74
1070
     0
1000
MTEXTEND
  0
LINE
  5
11A1A
330
1A
100
AcDbEntity
  8
ZISSEN1
100
AcDbLine
 10
-1709.581517865528
 20
1695.224900593721
 30
0.0
 11
-1709.581517865528
 21
1693.624900593722
 31
0.0
  0
LINE
  5
11A1B
330
1A
100
AcDbEntity
  8
ZISSEN1
100
AcDbLine
 10
-1630.995727865528
 20
1695.224900593721
 30
0.0
 11
-1630.995727865528
 21
1693.624900593722
 31
0.0
  0
LINE
  5
11A1C
330
1A
100
AcDbEntity
  8
ZISSEN1
100
AcDbLine
 10
-1630.288617865528
 20
1693.624900593722
 30
0.0
 11
-1630.288617865528
 21
1695.224900593721
 31
0.0
  0
LINE
  5
11A1D
330
1A
100
AcDbEntity
  8
ZISSEN1
100
AcDbLine
 10
-1710.288627865527
 20
1693.624900593722
 30
0.0
 11
-1710.288627865527
 21
1695.224900593721
 31
0.0
  0
LINE
  5
11A1E
330
1A
100
AcDbEntity
  8
ZISSEN1
100
AcDbLine
 10
-1625.288607865527
 20
1699.517780593722
 30
0.0
 11
-1625.288607865527
 21
1689.974890593723
 31
0.0
  0
LINE
  5
11A1F
330
1A
100
AcDbEntity
  8
ZISSEN1
100
AcDbLine
 10
-1715.288617865526
 20
1699.517780593722
 30
0.0
 11
-1715.288617865526
 21
1689.974890593723
 31
0.0
  0
LINE
  5
11A20
330
1A
100
AcDbEntity
  8
ZISSEN1
100
AcDbLine
 10
-1573.906532211293
 20
1760.143809816386
 30
0.0
 11
-1573.906532211293
 21
1805.143808816387
 31
0.0
  0
LINE
  5
11A21
330
1A
100
AcDbEntity
  8
ZISSEN1
100
AcDbLine
 10
-1572.306530211293
 20
1760.143809816386
 30
0.0
 11
-1572.306530211293
 21
1805.143808816387
 31
0.0
  0
LINE
  5
11A22
330
1A
100
AcDbEntity
  8
ZISSEN1
100
AcDbLine
 10
-1567.306532211293
 20
1759.850920816387
 30
0.0
 11
-1567.306532211293
 21
1805.143808816387
 31
0.0
  0
LINE
  5
11A23
330
1A
100
AcDbEntity
  8
ZISSEN1
100
AcDbLine
 10
-1568.306529211293
 20
1759.143812816386
 30
0.0
 11
-1568.306529211293
 21
1805.143808816387
 31
0.0
  0
LINE
  5
11A24
330
1A
100
AcDbEntity
  8
ZISSEN1
100
AcDbLine
 10
-1568.013641211293
 20
1759.143812816386
 30
0.0
 11
-1583.306531211293
 21
1759.143812816386
 31
0.0
  0
LINE
  5
11A25
330
1A
100
AcDbEntity
  8
ZISSEN1
100
AcDbLine
 10
-1583.306531211293
 20
1760.143809816386
 30
0.0
 11
-1568.306529211293
 21
1760.143809816386
 31
0.0
  0
LINE
  5
11A26
330
1A
100
AcDbEntity
  8
ZISSEN1
100
AcDbLine
 10
-1572.306530211293
 20
1761.643814816387
 30
0.0
 11
-1570.306530211293
 21
1761.643814816387
 31
0.0
  0
LINE
  5
11A27
330
1A
100
AcDbEntity
  8
ZISSEN1
100
AcDbLine
 10
-1567.306532211293
 20
1759.850920816387
 30
0.0
 11
-1568.013641211293
 21
1759.143812816386
 31
0.0
  0
LINE
  5
11A28
330
1A
100
AcDbEntity
  8
ZISSEN1
100
AcDbLine
 10
-1570.306530211293
 20
1760.143809816386
 30
0.0
 11
-1570.306530211293
 21
1761.643814816387
 31
0.0
  0
LINE
  5
11A29
330
1A
100
AcDbEntity
  8
ZISSEN1
100
AcDbLine
 10
-1576.306531211293
 20
1761.643814816387
 30
0.0
 11
-1574.306530211293
 21
1761.643814816387
 31
0.0
  0
LINE
  5
11A2A
330
1A
100
AcDbEntity
  8
ZISSEN1
100
AcDbLine
 10
-1576.306531211293
 20
1760.143809816386
 30
0.0
 11
-1576.306531211293
 21
1761.643814816387
 31
0.0
  0
LINE
  5
11A2B
330
1A
100
AcDbEntity
  8
ZISSEN1
100
AcDbLine
 10
-1574.306530211293
 20
1760.143809816386
 30
0.0
 11
-1574.306530211293
 21
1761.643814816387
 31
0.0
  0
LINE
  5
11A2C
330
1A
100
AcDbEntity
  8
ZISSEN1
100
AcDbLine
 10
-1572.306530211293
 20
1760.143809816386
 30
0.0
 11
-1572.306530211293
 21
1761.643814816387
 31
0.0
  0
LINE
  5
11A2D
330
1A
100
AcDbEntity
  8
ZISSEN1
100
AcDbLine
 10
-1582.599431211293
 20
1759.143812816386
 30
0.0
 11
-1582.599431211293
 21
1760.143809816386
 31
0.0
  0
LINE
  5
11A2E
330
1A
100
AcDbEntity
  8
CL1
100
AcDbLine
 10
-1579.306531211293
 20
1763.143806816387
 30
0.0
 11
-1579.306531211293
 21
1756.143814816387
 31
0.0
  0
LINE
  5
11A2F
330
1A
100
AcDbEntity
  8
ZISSEN1
100
AcDbLine
 10
-1583.306531211293
 20
1759.143812816386
 30
0.0
 11
-1583.306531211293
 21
1760.143809816386
 31
0.0
  0
LINE
  5
11A30
330
1A
100
AcDbEntity
  8
ZISSEN1
100
AcDbLine
 10
-1581.656531211293
 20
1798.093788816387
 30
0.0
 11
-1573.906532211293
 21
1798.093788816387
 31
0.0
  0
LINE
  5
11A31
330
1A
100
AcDbEntity
  8
ZISSEN1
100
AcDbLine
 10
-1581.656531211293
 20
1812.443788816388
 30
0.0
 11
-1573.906525211293
 21
1812.443788816388
 31
0.0
  0
LINE
  5
11A32
330
1A
100
AcDbEntity
  8
ZISSEN1
100
AcDbLine
 10
-1585.306531211293
 20
1795.633808816387
 30
0.0
 11
-1573.906532211293
 21
1795.633808816387
 31
0.0
  0
LINE
  5
11A33
330
1A
100
AcDbEntity
  8
ZISSEN1
100
AcDbLine
 10
-1580.306521211293
 20
1812.743798816388
 30
0.0
 11
-1573.906532211293
 21
1812.743798816388
 31
0.0
  0
LINE
  5
11A34
330
1A
100
AcDbEntity
  8
ZISSEN1
100
AcDbLine
 10
-1573.906532211293
 20
1802.143828816388
 30
0.0
 11
-1573.906532211293
 21
1794.143828816388
 31
0.0
  0
LINE
  5
11A35
330
1A
100
AcDbEntity
  8
ZISSEN1
100
AcDbLine
 10
-1572.306530211293
 20
1791.143818816387
 30
0.0
 11
-1568.306523211293
 21
1791.143818816387
 31
0.0
  0
LINE
  5
11A36
330
1A
100
AcDbEntity
  8
ZISSEN1
100
AcDbLine
 10
-1574.106537211292
 20
1794.143828816388
 30
0.0
 11
-1574.106537211292
 21
1795.633808816387
 31
0.0
  0
LINE
  5
11A37
330
1A
100
AcDbEntity
  8
ZISSEN1
100
AcDbLine
 10
-1576.206531211292
 20
1795.633808816387
 30
0.0
 11
-1576.206531211292
 21
1794.993828816387
 31
0.0
  0
LINE
  5
11A38
330
1A
100
AcDbEntity
  8
ZISSEN1
100
AcDbLine
 10
-1574.106537211292
 20
1794.543838816387
 30
0.0
 11
-1573.906532211293
 21
1794.543838816387
 31
0.0
  0
LINE
  5
11A39
330
1A
100
AcDbEntity
  8
ZISSEN1
100
AcDbLine
 10
-1574.106537211292
 20
1794.143828816388
 30
0.0
 11
-1573.906532211293
 21
1794.143828816388
 31
0.0
  0
LINE
  5
11A3A
330
1A
100
AcDbEntity
  8
ZISSEN1
100
AcDbLine
 10
-1576.206531211292
 20
1794.993828816387
 30
0.0
 11
-1574.106537211292
 21
1794.543838816387
 31
0.0
  0
LINE
  5
11A3B
330
1A
100
AcDbEntity
  8
ZISSEN1
100
AcDbLine
 10
-1573.906532211293
 20
1805.143808816387
 30
0.0
 11
-1573.906532211293
 21
1812.743798816388
 31
0.0
  0
LINE
  5
11A3C
330
1A
100
AcDbEntity
  8
ZISSEN1
100
AcDbLine
 10
-1572.306524211293
 20
1799.643818816387
 30
0.0
 11
-1568.306535211293
 21
1799.643818816387
 31
0.0
  0
LINE
  5
11A3D
330
1A
100
AcDbEntity
  8
ZISSEN1
100
AcDbLine
 10
-1572.306530211293
 20
1796.143808816387
 30
0.0
 11
-1568.306523211293
 21
1796.143808816387
 31
0.0
  0
LINE
  5
11A3E
330
1A
100
AcDbEntity
  8
ZISSEN1
100
AcDbLine
 10
-1572.306524211293
 20
1804.643808816387
 30
0.0
 11
-1568.306535211293
 21
1804.643808816387
 31
0.0
  0
LINE
  5
11A3F
330
1A
100
AcDbEntity
  8
ZISSEN1
100
AcDbLine
 10
-1568.306529211293
 20
1804.436698816386
 30
0.0
 11
-1567.306532211293
 21
1804.436698816386
 31
0.0
  0
LINE
  5
11A40
330
1A
100
AcDbEntity
  8
ZISSEN1
100
AcDbLine
 10
-1568.306529211293
 20
1805.143808816387
 30
0.0
 11
-1567.306532211293
 21
1805.143808816387
 31
0.0
  0
LINE
  5
11A41
330
1A
100
AcDbEntity
  8
ZISSEN1
100
AcDbLine
 10
-1572.306530211293
 20
1804.436698816386
 30
0.0
 11
-1573.906532211293
 21
1804.436698816386
 31
0.0
  0
LINE
  5
11A42
330
1A
100
AcDbEntity
  8
ZISSEN1
100
AcDbLine
 10
-1572.306530211293
 20
1805.143808816387
 30
0.0
 11
-1573.906532211293
 21
1805.143808816387
 31
0.0
  0
LINE
  5
11A44
330
1A
100
AcDbEntity
  8
ZISSEN1
100
AcDbLine
 10
-1580.306521211293
 20
1812.443788816388
 30
0.0
 11
-1580.306521211293
 21
1812.743798816388
 31
0.0
  0
LINE
  5
11A45
330
1A
100
AcDbEntity
  8
ZISSEN1
100
AcDbLine
 10
-1581.656531211293
 20
1798.093788816387
 30
0.0
 11
-1581.656531211293
 21
1812.443788816388
 31
0.0
  0
LINE
  5
11A46
330
1A
100
AcDbEntity
  8
ZISSEN1
100
AcDbLine
 10
-1585.306531211293
 20
1811.633808816387
 30
0.0
 11
-1581.656531211293
 21
1811.633808816387
 31
0.0
  0
LINE
  5
11A47
330
1A
100
AcDbEntity
  8
ZISSEN1
100
AcDbLine
 10
-1630.315281211293
 20
1804.436698816386
 30
0.0
 11
-1630.315281211293
 21
1762.143815816387
 31
0.0
  0
LINE
  5
11A48
330
1A
100
AcDbEntity
  8
ZISSEN1
100
AcDbLine
 10
-1710.315291211292
 20
1804.436698816386
 30
0.0
 11
-1710.315291211292
 21
1762.143815816387
 31
0.0
  0
LINE
  5
11A49
330
1A
100
AcDbEntity
  8
ZISSEN1
100
AcDbLine
 10
-1715.315281211293
 20
1760.143809816386
 30
0.0
 11
-1625.315271211293
 21
1760.143809816386
 31
0.0
  0
LINE
  5
11A4A
330
1A
100
AcDbEntity
  8
ZISSEN1
100
AcDbLine
 10
-1715.315281211293
 20
1759.143812816386
 30
0.0
 11
-1625.315281211292
 21
1759.143812816386
 31
0.0
  0
LINE
  5
11A4B
330
1A
100
AcDbEntity
  8
ZISSEN1
100
AcDbLine
 10
-1635.815291211294
 20
1761.643814816387
 30
0.0
 11
-1632.815281211293
 21
1761.643814816387
 31
0.0
  0
LINE
  5
11A4C
330
1A
100
AcDbEntity
  8
ZISSEN1
100
AcDbLine
 10
-1635.815291211294
 20
1760.643816816386
 30
0.0
 11
-1632.815281211293
 21
1760.643816816386
 31
0.0
  0
LINE
  5
11A4D
330
1A
100
AcDbEntity
  8
ZISSEN1
100
AcDbLine
 10
-1626.022381211293
 20
1760.143815816388
 30
0.0
 11
-1626.022381211293
 21
1759.143812816386
 31
0.0
  0
LINE
  5
11A4E
330
1A
100
AcDbEntity
  8
ZISSEN1
100
AcDbLine
 10
-1625.315281211292
 20
1759.143812816386
 30
0.0
 11
-1625.315281211292
 21
1760.143809816386
 31
0.0
  0
LINE
  5
11A50
330
1A
100
AcDbEntity
  8
ZISSEN1
100
AcDbLine
 10
-1634.315281211293
 20
1759.143812816386
 30
0.0
 11
-1634.315281211293
 21
1760.143809816386
 31
0.0
  0
LINE
  5
11A51
330
1A
100
AcDbEntity
  8
ZISSEN1
100
AcDbLine
 10
-1630.315281211293
 20
1762.143815816387
 30
0.0
 11
-1630.315281211293
 21
1760.143809816386
 31
0.0
  0
LINE
  5
11A52
330
1A
100
AcDbEntity
  8
ZISSEN1
100
AcDbLine
 10
-1632.815281211293
 20
1761.643814816387
 30
0.0
 11
-1631.815281211293
 21
1760.643816816386
 31
0.0
  0
LINE
  5
11A53
330
1A
100
AcDbEntity
  8
ZISSEN1
100
AcDbLine
 10
-1632.315281211293
 20
1760.143809816386
 30
0.0
 11
-1632.815281211293
 21
1760.643816816386
 31
0.0
  0
LINE
  5
11A54
330
1A
100
AcDbEntity
  8
ZISSEN1
100
AcDbLine
 10
-1631.815281211293
 20
1760.643816816386
 30
0.0
 11
-1631.315271211293
 21
1760.143809816386
 31
0.0
  0
LINE
  5
11A55
330
1A
100
AcDbEntity
  8
ZISSEN1
100
AcDbLine
 10
-1636.315271211294
 20
1760.143809816386
 30
0.0
 11
-1635.815291211294
 21
1760.643786816387
 31
0.0
  0
LINE
  5
11A56
330
1A
100
AcDbEntity
  8
ZISSEN1
100
AcDbLine
 10
-1635.815291211294
 20
1761.643814816387
 30
0.0
 11
-1637.315291211293
 21
1760.143809816386
 31
0.0
  0
LINE
  5
11A57
330
1A
100
AcDbEntity
  8
ZISSEN1
100
AcDbLine
 10
-1704.815271211293
 20
1761.643814816387
 30
0.0
 11
-1703.815271211293
 21
1760.643816816386
 31
0.0
  0
LINE
  5
11A58
330
1A
100
AcDbEntity
  8
ZISSEN1
100
AcDbLine
 10
-1704.315271211293
 20
1760.143809816386
 30
0.0
 11
-1704.815271211293
 21
1760.643816816386
 31
0.0
  0
LINE
  5
11A59
330
1A
100
AcDbEntity
  8
ZISSEN1
100
AcDbLine
 10
-1703.815271211293
 20
1760.643816816386
 30
0.0
 11
-1703.315261211294
 21
1760.143809816386
 31
0.0
  0
LINE
  5
11A5A
330
1A
100
AcDbEntity
  8
ZISSEN1
100
AcDbLine
 10
-1710.315291211292
 20
1762.143815816387
 30
0.0
 11
-1710.315291211292
 21
1760.143809816386
 31
0.0
  0
LINE
  5
11A5B
330
1A
100
AcDbEntity
  8
ZISSEN1
100
AcDbLine
 10
-1707.815281211293
 20
1761.643814816387
 30
0.0
 11
-1704.815271211293
 21
1761.643814816387
 31
0.0
  0
LINE
  5
11A5C
330
1A
100
AcDbEntity
  8
ZISSEN1
100
AcDbLine
 10
-1707.815281211293
 20
1760.643816816386
 30
0.0
 11
-1704.815271211293
 21
1760.643816816386
 31
0.0
  0
LINE
  5
11A5D
330
1A
100
AcDbEntity
  8
ZISSEN1
100
AcDbLine
 10
-1708.315261211293
 20
1760.143809816386
 30
0.0
 11
-1707.815281211293
 21
1760.643786816387
 31
0.0
  0
LINE
  5
11A5E
330
1A
100
AcDbEntity
  8
ZISSEN1
100
AcDbLine
 10
-1707.815281211293
 20
1761.643814816387
 30
0.0
 11
-1709.315281211293
 21
1760.143809816386
 31
0.0
  0
LINE
  5
11A5F
330
1A
100
AcDbEntity
  8
ZISSEN1
100
AcDbLine
 10
-1714.608171211293
 20
1760.143815816388
 30
0.0
 11
-1714.608171211293
 21
1759.143812816386
 31
0.0
  0
LINE
  5
11A61
330
1A
100
AcDbEntity
  8
ZISSEN1
100
AcDbLine
 10
-1715.315281211293
 20
1759.143812816386
 30
0.0
 11
-1715.315281211293
 21
1760.143809816386
 31
0.0
  0
LINE
  5
11A62
330
1A
100
AcDbEntity
  8
ZISSEN1
100
AcDbLine
 10
-1669.335271211292
 20
1805.143808816387
 30
0.0
 11
-1688.915281211293
 21
1805.143808816387
 31
0.0
  0
LINE
  5
11A63
330
1A
100
AcDbEntity
  8
ZISSEN1
100
AcDbLine
 10
-1653.835271211294
 20
1811.633808816387
 30
0.0
 11
-1653.835271211294
 21
1795.633808816387
 31
0.0
  0
LINE
  5
11A64
330
1A
100
AcDbEntity
  8
ZISSEN1
100
AcDbLine
 10
-1641.795291211293
 20
1795.633808816387
 30
0.0
 11
-1641.795291211293
 21
1811.633808816387
 31
0.0
  0
LINE
  5
11A65
330
1A
100
AcDbEntity
  8
ZISSEN1
100
AcDbLine
 10
-1669.335271211292
 20
1811.633808816387
 30
0.0
 11
-1669.335271211292
 21
1795.633808816387
 31
0.0
  0
LINE
  5
11A66
330
1A
100
AcDbEntity
  8
ZISSEN1
100
AcDbLine
 10
-1657.295291211293
 20
1795.633808816387
 30
0.0
 11
-1657.295291211293
 21
1811.633808816387
 31
0.0
  0
LINE
  5
11A67
330
1A
100
AcDbEntity
  8
ZISSEN1
100
AcDbLine
 10
-1641.795291211293
 20
1795.633808816387
 30
0.0
 11
-1653.835271211294
 21
1795.633808816387
 31
0.0
  0
LINE
  5
11A69
330
1A
100
AcDbEntity
  8
ZISSEN1
100
AcDbLine
 10
-1657.295291211293
 20
1795.633808816387
 30
0.0
 11
-1669.335271211292
 21
1795.633808816387
 31
0.0
  0
LINE
  5
11A6A
330
1A
100
AcDbEntity
  8
ZISSEN1
100
AcDbLine
 10
-1641.795291211293
 20
1811.633808816387
 30
0.0
 11
-1653.835271211294
 21
1811.633808816387
 31
0.0
  0
LINE
  5
11A6B
330
1A
100
AcDbEntity
  8
ZISSEN1
100
AcDbLine
 10
-1640.265281211292
 20
1812.443788816388
 30
0.0
 11
-1630.365291211293
 21
1812.443788816388
 31
0.0
  0
LINE
  5
11A6C
330
1A
100
AcDbEntity
  8
ZISSEN1
100
AcDbLine
 10
-1640.265281211292
 20
1798.093788816387
 30
0.0
 11
-1630.365291211293
 21
1798.093788816387
 31
0.0
  0
LINE
  5
11A6D
330
1A
100
AcDbEntity
  8
ZISSEN1
100
AcDbLine
 10
-1630.365291211293
 20
1812.443788816388
 30
0.0
 11
-1630.365291211293
 21
1798.093788816387
 31
0.0
  0
LINE
  5
11A6E
330
1A
100
AcDbEntity
  8
ZISSEN1
100
AcDbLine
 10
-1640.265281211292
 20
1812.443788816388
 30
0.0
 11
-1640.265281211292
 21
1798.093788816387
 31
0.0
  0
LINE
  5
11A6F
330
1A
100
AcDbEntity
  8
ZISSEN1
100
AcDbLine
 10
-1640.265281211292
 20
1805.143808816387
 30
0.0
 11
-1641.795291211293
 21
1805.143808816387
 31
0.0
  0
LINE
  5
11A70
330
1A
100
AcDbEntity
  8
ZISSEN1
100
AcDbLine
 10
-1657.295291211293
 20
1811.633808816387
 30
0.0
 11
-1669.335271211292
 21
1811.633808816387
 31
0.0
  0
LINE
  5
11A71
330
1A
100
AcDbEntity
  8
ZISSEN1
100
AcDbLine
 10
-1653.835271211294
 20
1805.143808816387
 30
0.0
 11
-1657.295291211293
 21
1805.143808816387
 31
0.0
  0
LINE
  5
11A72
330
1A
100
AcDbEntity
  8
ZISSEN1
100
AcDbLine
 10
-1679.860291211292
 20
1794.143828816388
 30
0.0
 11
-1679.860291211292
 21
1802.143798816388
 31
0.0
  0
LINE
  5
11A73
330
1A
100
AcDbEntity
  8
ZISSEN1
100
AcDbLine
 10
-1686.770301211293
 20
1794.143828816388
 30
0.0
 11
-1686.770301211293
 21
1802.143798816388
 31
0.0
  0
LINE
  5
11A74
330
1A
100
AcDbEntity
  8
ZISSEN1
100
AcDbLine
 10
-1679.860291211292
 20
1794.993808816387
 30
0.0
 11
-1686.770301211293
 21
1794.993808816387
 31
0.0
  0
LINE
  5
11A75
330
1A
100
AcDbEntity
  8
ZISSEN1
100
AcDbLine
 10
-1679.860291211292
 20
1794.543838816387
 30
0.0
 11
-1686.770301211293
 21
1794.543838816387
 31
0.0
  0
LINE
  5
11A76
330
1A
100
AcDbEntity
  8
ZISSEN1
100
AcDbLine
 10
-1679.860291211292
 20
1794.143828816388
 30
0.0
 11
-1686.770301211293
 21
1794.143828816388
 31
0.0
  0
LINE
  5
11A78
330
1A
100
AcDbEntity
  8
ZISSEN1
100
AcDbLine
 10
-1688.315291211293
 20
1798.143798816387
 30
0.0
 11
-1703.315291211293
 21
1798.143798816387
 31
0.0
  0
LINE
  5
11A79
330
1A
100
AcDbEntity
  8
ZISSEN1
100
AcDbLine
 10
-1703.315291211293
 20
1799.743798816387
 30
0.0
 11
-1688.315291211293
 21
1799.743798816387
 31
0.0
  0
LINE
  5
11A7A
330
1A
100
AcDbEntity
  8
ZISSEN1
100
AcDbLine
 10
-1688.915281211293
 20
1799.743798816387
 30
0.0
 11
-1688.915281211293
 21
1813.143798816387
 31
0.0
  0
LINE
  5
11A7B
330
1A
100
AcDbEntity
  8
ZISSEN1
100
AcDbLine
 10
-1679.860291211292
 20
1801.293818816388
 30
0.0
 11
-1686.770301211293
 21
1801.293818816388
 31
0.0
  0
LINE
  5
11A7C
330
1A
100
AcDbEntity
  8
ZISSEN1
100
AcDbLine
 10
-1679.860291211292
 20
1801.743788816386
 30
0.0
 11
-1686.770301211293
 21
1801.743788816386
 31
0.0
  0
LINE
  5
11A7D
330
1A
100
AcDbEntity
  8
ZISSEN1
100
AcDbLine
 10
-1679.860291211292
 20
1802.143798816388
 30
0.0
 11
-1686.770301211293
 21
1802.143798816388
 31
0.0
  0
LINE
  5
11A7E
330
1A
100
AcDbEntity
  8
ZISSEN1
100
AcDbLine
 10
-1678.315281211293
 20
1802.643818816386
 30
0.0
 11
-1672.315291211293
 21
1802.643818816386
 31
0.0
  0
LINE
  5
11A7F
330
1A
100
AcDbEntity
  8
ZISSEN1
100
AcDbLine
 10
-1672.315291211293
 20
1796.643798816387
 30
0.0
 11
-1678.315281211293
 21
1796.643798816387
 31
0.0
  0
LINE
  5
11A80
330
1A
100
AcDbEntity
  8
ZISSEN1
100
AcDbLine
 10
-1672.315291211293
 20
1802.643818816386
 30
0.0
 11
-1672.315291211293
 21
1796.643798816387
 31
0.0
  0
LINE
  5
11A81
330
1A
100
AcDbEntity
  8
ZISSEN1
100
AcDbLine
 10
-1678.315281211293
 20
1796.643798816387
 30
0.0
 11
-1678.315281211293
 21
1802.643818816386
 31
0.0
  0
LINE
  5
11A82
330
1A
100
AcDbEntity
  8
ZISSEN1
100
AcDbLine
 10
-1688.315291211293
 20
1799.743798816387
 30
0.0
 11
-1688.315291211293
 21
1798.143798816387
 31
0.0
  0
LINE
  5
11A83
330
1A
100
AcDbEntity
  8
ZISSEN1
100
AcDbLine
 10
-1702.715301211292
 20
1799.743798816387
 30
0.0
 11
-1702.715301211292
 21
1813.143798816387
 31
0.0
  0
LINE
  5
11A84
330
1A
100
AcDbEntity
  8
ZISSEN1
100
AcDbLine
 10
-1702.715301211292
 20
1805.143808816387
 30
0.0
 11
-1709.608181211294
 21
1805.143808816387
 31
0.0
  0
LINE
  5
11A85
330
1A
100
AcDbEntity
  8
ZISSEN1
100
AcDbLine
 10
-1703.315291211293
 20
1799.743798816387
 30
0.0
 11
-1703.315291211293
 21
1798.143798816387
 31
0.0
  0
LINE
  5
11A87
330
1A
100
AcDbEntity
  8
ZISSEN1
100
AcDbLine
 10
-1710.315291211292
 20
1804.436698816386
 30
0.0
 11
-1709.608181211294
 21
1805.143808816387
 31
0.0
  0
LINE
  5
11A88
330
1A
100
AcDbEntity
  8
ZISSEN1
100
AcDbLine
 10
-1669.314123361638
 20
1684.224865383258
 30
0.0
 11
-1714.587023361637
 21
1684.224865383258
 31
0.0
  0
LINE
  5
11A89
330
1A
100
AcDbEntity
  8
ZISSEN1
100
AcDbLine
 10
-1710.288627865527
 20
1693.624900593722
 30
0.0
 11
-1630.288617865528
 21
1693.624900593722
 31
0.0
  0
LINE
  5
11A8B
330
1A
100
AcDbEntity
  8
ZISSEN1
100
AcDbLine
 10
-1640.238617865528
 20
1685.874900593722
 30
0.0
 11
-1630.338627865528
 21
1685.874900593722
 31
0.0
  0
LINE
  5
11A8C
330
1A
100
AcDbEntity
  8
ZISSEN1
100
AcDbLine
 10
-1626.001233361637
 20
1684.224865383258
 30
0.0
 11
-1641.774143361637
 21
1684.224865383258
 31
0.0
  0
LINE
  5
11A8D
330
1A
100
AcDbEntity
  8
ZISSEN1
100
AcDbLine
 10
-1630.338627865528
 20
1685.874900593722
 30
0.0
 11
-1630.338627865528
 21
1693.624900593722
 31
0.0
  0
LINE
  5
11A8E
330
1A
100
AcDbEntity
  8
ZISSEN1
100
AcDbLine
 10
-1625.294123361638
 20
1684.931975383258
 30
0.0
 11
-1625.288607865527
 21
1686.474880593722
 31
0.0
  0
LINE
  5
11A90
330
1A
100
AcDbEntity
  8
ZISSEN1
100
AcDbLine
 10
-1625.294123361638
 20
1684.931975383258
 30
0.0
 11
-1626.001233361637
 21
1684.224865383258
 31
0.0
  0
LINE
  5
11A91
330
1A
100
AcDbEntity
  8
CL1
100
AcDbLine
 10
-1632.288597865527
 20
1688.224890593722
 30
0.0
 11
-1626.288607865527
 21
1688.224890593722
 31
0.0
  0
LINE
  5
11A92
330
1A
100
AcDbEntity
  8
ZISSEN1
100
AcDbLine
 10
-1629.288607865526
 20
1689.974890593723
 30
0.0
 11
-1625.288607865527
 21
1689.974890593723
 31
0.0
  0
LINE
  5
11A93
330
1A
100
AcDbEntity
  8
ZISSEN1
100
AcDbLine
 10
-1629.288607865526
 20
1686.474880593722
 30
0.0
 11
-1625.288607865527
 21
1686.474880593722
 31
0.0
  0
ARC
  5
11A94
330
1A
100
AcDbEntity
  8
ZISSEN1
100
AcDbCircle
 10
-1629.288607865526
 20
1688.224890593722
 30
0.0
 40
1.749999899999999
100
AcDbArc
 50
233.1290399999992
 51
270.0
  0
ARC
  5
11A95
330
1A
100
AcDbEntity
  8
ZISSEN1
100
AcDbCircle
 10
-1629.288607865526
 20
1688.224890593722
 30
0.0
 40
1.749999899999999
100
AcDbArc
 50
90.0
 51
126.8709559999951
  0
LINE
  5
11A96
330
1A
100
AcDbEntity
  8
ZISSEN1
100
AcDbLine
 10
-1640.238617865528
 20
1685.874900593722
 30
0.0
 11
-1640.238617865528
 21
1693.624900593722
 31
0.0
  0
LINE
  5
11A97
330
1A
100
AcDbEntity
  8
ZISSEN1
100
AcDbLine
 10
-1641.774143361637
 20
1682.224895383258
 30
0.0
 11
-1641.768627865528
 21
1693.624900593722
 31
0.0
  0
LINE
  5
11A99
330
1A
100
AcDbEntity
  8
ZISSEN1
100
AcDbLine
 10
-1653.814123361637
 20
1682.224895383258
 30
0.0
 11
-1653.808607865528
 21
1693.624900593722
 31
0.0
  0
LINE
  5
11A9A
330
1A
100
AcDbEntity
  8
ZISSEN1
100
AcDbLine
 10
-1657.274143361638
 20
1682.224895383258
 30
0.0
 11
-1657.268627865527
 21
1693.624900593722
 31
0.0
  0
LINE
  5
11A9B
330
1A
100
AcDbEntity
  8
ZISSEN1
100
AcDbLine
 10
-1653.814123361637
 20
1684.224865383258
 30
0.0
 11
-1657.274143361638
 21
1684.224865383258
 31
0.0
  0
LINE
  5
11A9C
330
1A
100
AcDbEntity
  8
ZISSEN1
100
AcDbLine
 10
-1669.314123361638
 20
1682.224895383258
 30
0.0
 11
-1669.308607865526
 21
1693.624900593722
 31
0.0
  0
LINE
  5
11A9D
330
1A
100
AcDbEntity
  8
ZISSEN1
100
AcDbLine
 10
-1703.288627865528
 20
1687.224900593722
 30
0.0
 11
-1688.288627865528
 21
1687.224900593722
 31
0.0
  0
LINE
  5
11A9E
330
1A
100
AcDbEntity
  8
ZISSEN1
100
AcDbLine
 10
-1679.833627865527
 20
1693.424900593722
 30
0.0
 11
-1686.743637865528
 21
1693.424900593722
 31
0.0
  0
LINE
  5
11A9F
330
1A
100
AcDbEntity
  8
ZISSEN1
100
AcDbLine
 10
-1679.833627865527
 20
1693.624900593722
 30
0.0
 11
-1686.743637865528
 21
1693.624900593722
 31
0.0
  0
LINE
  5
11AA0
330
1A
100
AcDbEntity
  8
ZISSEN1
100
AcDbLine
 10
-1679.833627865527
 20
1691.324900593721
 30
0.0
 11
-1686.743637865528
 21
1691.324900593721
 31
0.0
  0
LINE
  5
11AA1
330
1A
100
AcDbEntity
  8
ZISSEN1
100
AcDbLine
 10
-1678.288617865528
 20
1686.324910593723
 30
0.0
 11
-1678.288617865528
 21
1693.624900593722
 31
0.0
  0
LINE
  5
11AA2
330
1A
100
AcDbEntity
  8
ZISSEN1
100
AcDbLine
 10
-1672.288627865528
 20
1686.324910593723
 30
0.0
 11
-1672.288627865528
 21
1693.624900593722
 31
0.0
  0
LINE
  5
11AA3
330
1A
100
AcDbEntity
  8
ZISSEN1
100
AcDbLine
 10
-1678.288617865528
 20
1686.324910593723
 30
0.0
 11
-1672.288627865528
 21
1686.324910593723
 31
0.0
  0
LINE
  5
11AA4
330
1A
100
AcDbEntity
  8
ZISSEN1
100
AcDbLine
 10
-1679.833627865527
 20
1691.324900593721
 30
0.0
 11
-1679.833627865527
 21
1693.624900593722
 31
0.0
  0
LINE
  5
11AA5
330
1A
100
AcDbEntity
  8
ZISSEN1
100
AcDbLine
 10
-1686.743637865528
 20
1691.324900593721
 30
0.0
 11
-1686.743637865528
 21
1693.624900593722
 31
0.0
  0
LINE
  5
11AA6
330
1A
100
AcDbEntity
  8
ZISSEN1
100
AcDbLine
 10
-1688.288627865528
 20
1687.224900593722
 30
0.0
 11
-1688.288627865528
 21
1693.624900593722
 31
0.0
  0
LINE
  5
11AA7
330
1A
100
AcDbEntity
  8
ZISSEN1
100
AcDbLine
 10
-1688.888617865528
 20
1687.224900593722
 30
0.0
 11
-1688.888617865528
 21
1693.624900593722
 31
0.0
  0
LINE
  5
11AA8
330
1A
100
AcDbEntity
  8
ZISSEN1
100
AcDbLine
 10
-1709.288617865528
 20
1691.224870593722
 30
0.0
 11
-1703.288597865528
 21
1691.224870593722
 31
0.0
  0
LINE
  5
11AA9
330
1A
100
AcDbEntity
  8
ZISSEN1
100
AcDbLine
 10
-1709.288617865528
 20
1693.224870593722
 30
0.0
 11
-1703.288597865528
 21
1693.224870593722
 31
0.0
  0
LINE
  5
11AAA
330
1A
100
AcDbEntity
  8
ZISSEN1
100
AcDbLine
 10
-1702.688637865528
 20
1687.224900593722
 30
0.0
 11
-1702.688637865528
 21
1693.624900593722
 31
0.0
  0
LINE
  5
11AAB
330
1A
100
AcDbEntity
  8
ZISSEN1
100
AcDbLine
 10
-1703.288627865528
 20
1687.224900593722
 30
0.0
 11
-1703.288627865528
 21
1693.624900593722
 31
0.0
  0
LINE
  5
11AAC
330
1A
100
AcDbEntity
  8
ZISSEN1
100
AcDbLine
 10
-1703.288597865528
 20
1691.224880593722
 30
0.0
 11
-1703.288597865528
 21
1693.224870593722
 31
0.0
  0
LINE
  5
11AAD
330
1A
100
AcDbEntity
  8
ZISSEN1
100
AcDbLine
 10
-1715.294133361638
 20
1684.931975383258
 30
0.0
 11
-1715.288617865526
 21
1686.474880593722
 31
0.0
  0
LINE
  5
11AAF
330
1A
100
AcDbEntity
  8
ZISSEN1
100
AcDbLine
 10
-1714.587023361637
 20
1684.224865383258
 30
0.0
 11
-1715.294133361638
 21
1684.931975383258
 31
0.0
  0
ARC
  5
11AB0
330
1A
100
AcDbEntity
  8
ZISSEN1
100
AcDbCircle
 10
-1711.288627865528
 20
1688.224890593722
 30
0.0
 40
1.749999899999999
100
AcDbArc
 50
270.0
 51
90.0
  0
LINE
  5
11AB1
330
1A
100
AcDbEntity
  8
CL1
100
AcDbLine
 10
-1714.288637865528
 20
1688.224890593722
 30
0.0
 11
-1708.288617865528
 21
1688.224890593722
 31
0.0
  0
LINE
  5
11AB2
330
1A
100
AcDbEntity
  8
ZISSEN1
100
AcDbLine
 10
-1704.788607865527
 20
1691.224880593722
 30
0.0
 11
-1704.788607865527
 21
1693.224870593722
 31
0.0
  0
LINE
  5
11AB3
330
1A
100
AcDbEntity
  8
ZISSEN1
100
AcDbLine
 10
-1707.788617865528
 20
1691.224880593722
 30
0.0
 11
-1707.788617865528
 21
1693.224870593722
 31
0.0
  0
LINE
  5
11AB4
330
1A
100
AcDbEntity
  8
ZISSEN1
100
AcDbLine
 10
-1709.288617865528
 20
1691.224880593722
 30
0.0
 11
-1709.288617865528
 21
1693.224870593722
 31
0.0
  0
LINE
  5
11AB5
330
1A
100
AcDbEntity
  8
ZISSEN1
100
AcDbLine
 10
-1711.288627865528
 20
1686.474880593722
 30
0.0
 11
-1715.288617865526
 21
1686.474880593722
 31
0.0
  0
LINE
  5
11AB6
330
1A
100
AcDbEntity
  8
ZISSEN1
100
AcDbLine
 10
-1711.288627865528
 20
1689.974890593723
 30
0.0
 11
-1715.288617865526
 21
1689.974890593723
 31
0.0
  0
LINE
  5
11AB7
330
1A
100
AcDbEntity
  8
ZISSEN1
100
AcDbLine
 10
-1710.288627865527
 20
1695.224900593721
 30
0.0
 11
-1630.288617865528
 21
1695.224900593721
 31
0.0
  0
LINE
  5
11AB8
330
1A
100
AcDbEntity
  8
ZISSEN1
100
AcDbLine
 10
-1625.995717865528
 20
1700.224890593721
 30
0.0
 11
-1714.581507865528
 21
1700.224890593721
 31
0.0
  0
LINE
  5
11AB9
330
1A
100
AcDbEntity
  8
ZISSEN1
100
AcDbLine
 10
-1710.288627865527
 20
1699.224890593722
 30
0.0
 11
-1630.288617865528
 21
1699.224890593722
 31
0.0
  0
LINE
  5
11ABA
330
1A
100
AcDbEntity
  8
ZISSEN1
100
AcDbLine
 10
-1637.288627865528
 20
1695.224870593722
 30
0.0
 11
-1631.288607865528
 21
1695.224870593722
 31
0.0
  0
LINE
  5
11ABB
330
1A
100
AcDbEntity
  8
ZISSEN1
100
AcDbLine
 10
-1625.288607865527
 20
1699.517780593722
 30
0.0
 11
-1625.995717865528
 21
1700.224890593721
 31
0.0
  0
LINE
  5
11ABC
330
1A
100
AcDbEntity
  8
ZISSEN1
100
AcDbLine
 10
-1630.788617865528
 20
1695.224870593722
 30
0.0
 11
-1630.788617865528
 21
1699.224890593722
 31
0.0
  0
LINE
  5
11ABD
330
1A
100
AcDbEntity
  8
ZISSEN1
100
AcDbLine
 10
-1630.995727865528
 20
1699.224890593722
 30
0.0
 11
-1630.995727865528
 21
1700.224890593721
 31
0.0
  0
LINE
  5
11ABE
330
1A
100
AcDbEntity
  8
ZISSEN1
100
AcDbLine
 10
-1630.288617865528
 20
1699.224890593722
 30
0.0
 11
-1630.288617865528
 21
1700.224890593721
 31
0.0
  0
LINE
  5
11ABF
330
1A
100
AcDbEntity
  8
ZISSEN1
100
AcDbLine
 10
-1635.788617865528
 20
1695.224870593722
 30
0.0
 11
-1635.788617865528
 21
1699.224890593722
 31
0.0
  0
LINE
  5
11AC0
330
1A
100
AcDbEntity
  8
ZISSEN1
100
AcDbLine
 10
-1637.288627865528
 20
1697.224880593723
 30
0.0
 11
-1635.788617865528
 21
1697.224880593723
 31
0.0
  0
LINE
  5
11AC1
330
1A
100
AcDbEntity
  8
ZISSEN1
100
AcDbLine
 10
-1635.788627865528
 20
1695.224870593722
 30
0.0
 11
-1635.788627865528
 21
1697.224880593723
 31
0.0
  0
LINE
  5
11AC2
330
1A
100
AcDbEntity
  8
ZISSEN1
100
AcDbLine
 10
-1637.288627865528
 20
1695.224870593722
 30
0.0
 11
-1637.288627865528
 21
1697.224880593723
 31
0.0
  0
LINE
  5
11AC3
330
1A
100
AcDbEntity
  8
ZISSEN1
100
AcDbLine
 10
-1704.788607865527
 20
1697.224880593723
 30
0.0
 11
-1703.288597865528
 21
1697.224880593723
 31
0.0
  0
LINE
  5
11AC4
330
1A
100
AcDbEntity
  8
ZISSEN1
100
AcDbLine
 10
-1709.288617865528
 20
1695.224870593722
 30
0.0
 11
-1703.288597865528
 21
1695.224870593722
 31
0.0
  0
LINE
  5
11AC5
330
1A
100
AcDbEntity
  8
ZISSEN1
100
AcDbLine
 10
-1703.288597865528
 20
1695.224870593722
 30
0.0
 11
-1703.288597865528
 21
1697.224880593723
 31
0.0
  0
LINE
  5
11AC6
330
1A
100
AcDbEntity
  8
ZISSEN1
100
AcDbLine
 10
-1704.788607865527
 20
1695.224870593722
 30
0.0
 11
-1704.788607865527
 21
1699.224890593722
 31
0.0
  0
LINE
  5
11AC7
330
1A
100
AcDbEntity
  8
ZISSEN1
100
AcDbLine
 10
-1709.788617865528
 20
1695.224870593722
 30
0.0
 11
-1709.788617865528
 21
1699.224890593722
 31
0.0
  0
LINE
  5
11AC8
330
1A
100
AcDbEntity
  8
ZISSEN1
100
AcDbLine
 10
-1704.788607865527
 20
1695.224870593722
 30
0.0
 11
-1704.788607865527
 21
1697.224880593723
 31
0.0
  0
LINE
  5
11AC9
330
1A
100
AcDbEntity
  8
ZISSEN1
100
AcDbLine
 10
-1709.581517865528
 20
1699.224890593722
 30
0.0
 11
-1709.581517865528
 21
1700.224890593721
 31
0.0
  0
LINE
  5
11ACA
330
1A
100
AcDbEntity
  8
ZISSEN1
100
AcDbLine
 10
-1710.288627865527
 20
1699.224890593722
 30
0.0
 11
-1710.288627865527
 21
1700.224890593721
 31
0.0
  0
LINE
  5
11ACB
330
1A
100
AcDbEntity
  8
ZISSEN1
100
AcDbLine
 10
-1715.288617865526
 20
1699.517780593722
 30
0.0
 11
-1714.581507865528
 21
1700.224890593721
 31
0.0
  0
MTEXT
  5
11AD8
330
1A
100
AcDbEntity
  8
ZISSEN1
100
AcDbMText
 10
-1643.345470740734
 20
1848.679545182131
 30
0.0
 40
5.0
 41
84.564
 71
     1
 72
     5
  1
CB-23/USB　No.SS0001f19
  7
ゴシック体
1001
ACAD
1000
MTEXTBEGIN
1070
    73
1070
     1
1070
    44
1040
1.0
1070
    74
1070
     0
1000
MTEXTEND
  0
LINE
  5
11AFC
330
1A
100
AcDbEntity
  8
ZISSEN1
100
AcDbLine
 10
-1702.715301211292
 20
1813.143798816387
 30
0.0
 11
-1688.915281211293
 21
1813.143798816387
 31
0.0
  0
LINE
  5
11B01
330
1A
100
AcDbEntity
  8
ZISSEN1
100
AcDbLine
 10
-1669.327894571866
 20
1851.146062059743
 30
0.0
 11
-1657.287894782839
 21
1851.143808124067
 31
0.0
  0
LINE
  5
11B13
330
1A
100
AcDbEntity
  8
ZISSEN1
100
AcDbLine
 10
-1657.295291211293
 20
1811.633808816387
 30
0.0
 11
-1657.287894782839
 21
1851.143808124067
 31
0.0
  0
LINE
  5
11B16
330
1A
100
AcDbEntity
  8
ZISSEN1
100
AcDbLine
 10
-1669.33529100032
 20
1811.636062752064
 30
0.0
 11
-1669.327894571866
 21
1851.146062059743
 31
0.0
  0
LINE
  5
11B41
330
1A
100
AcDbEntity
  8
ZISSEN1
100
AcDbLine
 10
-1585.306531211293
 20
1795.633808816387
 30
0.0
 11
-1585.306531211293
 21
1811.633808816387
 31
0.0
  0
LINE
  5
11B95
330
1A
100
AcDbEntity
  8
ZISSEN1
100
AcDbLine
 10
-1653.814123361637
 20
1682.224895383258
 30
0.0
 11
-1641.774143361637
 21
1682.224895383258
 31
0.0
  0
LINE
  5
11B96
330
1A
100
AcDbEntity
  8
ZISSEN1
100
AcDbLine
 10
-1669.314123361638
 20
1682.224895383258
 30
0.0
 11
-1657.274143361638
 21
1682.224895383258
 31
0.0
  0
LINE
  5
11BF3
330
1A
100
AcDbEntity
  8
CL1
100
AcDbLine
 10
-1712.315291211293
 20
1763.143788816386
 30
0.0
 11
-1712.315291211293
 21
1756.143814816387
 31
0.0
  0
LINE
  5
11BF4
330
1A
100
AcDbEntity
  8
CL1
100
AcDbLine
 10
-1628.315271211293
 20
1763.143800816387
 30
0.0
 11
-1628.315271211293
 21
1756.143814816387
 31
0.0
  0
LINE
  5
11C25
330
1A
100
AcDbEntity
  8
CL1
100
AcDbLine
 10
-1712.288627865528
 20
1685.224890593723
 30
0.0
 11
-1712.288627865528
 21
1691.224880593722
 31
0.0
  0
LINE
  5
11C26
330
1A
100
AcDbEntity
  8
CL1
100
AcDbLine
 10
-1628.288607865527
 20
1685.224890593723
 30
0.0
 11
-1628.288607865527
 21
1691.224880593722
 31
0.0
  0
DIMENSION
  5
11CCC
330
1A
100
AcDbEntity
  8
SUNPOU
100
AcDbDimension
  2
*D23
 10
-1718.422863440407
 20
1813.143798816387
 30
0.0
 11
-1721.466010648529
 21
1809.143803816386
 31
0.0
 70
    32
  1
(<>)
  3
標準スタイル
100
AcDbAlignedDimension
 13
-1709.608181211294
 23
1805.143808816387
 33
0.0
 14
-1702.715301211292
 24
1813.143798816387
 34
0.0
 50
90.0
100
AcDbRotatedDimension
1001
ACAD
1000
DSTYLE
1002
{
1070
    40
1040
1.0
1002
}
  0
DIMENSION
  5
11CDB
330
1A
100
AcDbEntity
  8
SUNPOU
100
AcDbDimension
  2
*D24
 10
-1728.495370157205
 20
1805.143808816387
 30
0.0
 11
-1731.245370157206
 21
1782.143810816387
 31
0.0
 70
    32
  3
標準スタイル
100
AcDbAlignedDimension
 13
-1715.315281211293
 23
1759.143812816386
 33
0.0
 14
-1709.608181211294
 24
1805.143808816387
 34
0.0
 50
90.0
100
AcDbRotatedDimension
1001
ACAD
1000
DSTYLE
1002
{
1070
    40
1040
1.0
1002
}
  0
DIMENSION
  5
11CFA
330
1A
100
AcDbEntity
  8
SUNPOU
100
AcDbDimension
  2
*D25
 10
-1728.495370157205
 20
1805.143808816387
 30
0.0
 11
-1731.538517365327
 21
1828.144935438065
 31
0.0
 70
    32
  1
(46)
  3
標準スタイル
100
AcDbAlignedDimension
 13
-1669.327894571866
 23
1851.146062059743
 33
0.0
 14
-1709.608181211294
 24
1805.143808816387
 34
0.0
 50
90.0
100
AcDbRotatedDimension
1001
ACAD
1000
DSTYLE
1002
{
1070
    40
1040
1.0
1002
}
  0
DIMENSION
  5
11D10
330
1A
100
AcDbEntity
  8
SUNPOU
100
AcDbDimension
  2
*D26
 10
-1630.315281211293
 20
1749.446844307689
 30
0.0
 11
-1670.315286211293
 21
1749.446844307689
 31
0.0
 70
   160
  3
標準スタイル
100
AcDbAlignedDimension
 13
-1710.315291211292
 23
1760.143809816386
 33
0.0
 14
-1630.315281211293
 24
1760.143809816386
 34
0.0
100
AcDbRotatedDimension
1001
ACAD
1000
DSTYLE
1002
{
1070
    40
1040
1.0
1002
}
  0
DIMENSION
  5
11D2F
330
1A
100
AcDbEntity
  8
SUNPOU
100
AcDbDimension
  2
*D27
 10
-1625.315281211292
 20
1740.492982329207
 30
0.0
 11
-1670.315281211292
 21
1743.242982329206
 31
0.0
 70
    32
  3
標準スタイル
100
AcDbAlignedDimension
 13
-1715.315281211293
 23
1759.143812816386
 33
0.0
 14
-1625.315281211292
 24
1759.143812816386
 34
0.0
100
AcDbRotatedDimension
1001
ACAD
1000
DSTYLE
1002
{
1070
    40
1040
1.0
1002
}
  0
DIMENSION
  5
11D4E
330
1A
100
AcDbEntity
  8
SUNPOU
100
AcDbDimension
  2
*D28
 10
-1567.306532211293
 20
1749.446844307689
 30
0.0
 11
-1575.306531711293
 21
1752.196844307689
 31
0.0
 70
    32
  3
標準スタイル
100
AcDbAlignedDimension
 13
-1583.306531211293
 23
1759.143812816386
 33
0.0
 14
-1567.306532211293
 24
1759.850920816387
 34
0.0
100
AcDbRotatedDimension
1001
ACAD
1000
DSTYLE
1002
{
1070
    40
1040
1.0
1002
}
  0
DIMENSION
  5
11D5B
330
1A
100
AcDbEntity
  8
SUNPOU
100
AcDbDimension
  2
*D29
 10
-1567.306532211293
 20
1740.492982329207
 30
0.0
 11
-1576.306531711293
 21
1743.242982329206
 31
0.0
 70
    32
  3
標準スタイル
100
AcDbAlignedDimension
 13
-1585.306531211293
 23
1795.633808816387
 33
0.0
 14
-1567.306532211293
 24
1759.850920816387
 34
0.0
100
AcDbRotatedDimension
1001
ACAD
1000
DSTYLE
1002
{
1070
    40
1040
1.0
1002
}
  0
DIMENSION
  5
11D68
330
1A
100
AcDbEntity
  8
SUNPOU
100
AcDbDimension
  2
*D30
 10
-1721.402978642476
 20
1686.474880593722
 30
0.0
 11
-1721.402978642477
 21
1688.224885593722
 31
0.0
 70
   160
  3
標準スタイル
100
AcDbAlignedDimension
 13
-1715.288617865526
 23
1689.974890593723
 33
0.0
 14
-1715.288617865526
 24
1686.474880593722
 34
0.0
 50
90.0
100
AcDbRotatedDimension
1001
ACAD
1000
DSTYLE
1002
{
1070
    40
1040
1.0
1002
}
  0
DIMENSION
  5
11D82
330
1A
100
AcDbEntity
  8
SUNPOU
100
AcDbDimension
  2
*D31
 10
-1728.495370157205
 20
1700.224890593721
 30
0.0
 11
-1731.245370157206
 21
1694.224890593722
 31
0.0
 70
    32
  3
標準スタイル
100
AcDbAlignedDimension
 13
-1714.288637865528
 23
1688.224890593722
 33
0.0
 14
-1714.581507865528
 24
1700.224890593721
 34
0.0
 50
90.0
100
AcDbRotatedDimension
1001
ACAD
1000
DSTYLE
1002
{
1070
    40
1040
1.0
1002
}
  0
DIMENSION
  5
11D8F
330
1A
100
AcDbEntity
  8
SUNPOU
100
AcDbDimension
  2
*D32
 10
-1736.302118740297
 20
1700.224890593721
 30
0.0
 11
-1736.302118740297
 21
1692.22487798849
 31
0.0
 70
   160
  3
標準スタイル
100
AcDbAlignedDimension
 13
-1714.587023361637
 23
1684.224865383258
 33
0.0
 14
-1714.581507865528
 24
1700.224890593721
 34
0.0
 50
90.0
100
AcDbRotatedDimension
1001
ACAD
1000
DSTYLE
1002
{
1070
    40
1040
1.0
1002
}
  0
DIMENSION
  5
11DAE
330
1A
100
AcDbEntity
  8
SUNPOU
100
AcDbDimension
  2
*D33
 10
-1628.288607865527
 20
1673.014898547991
 30
0.0
 11
-1670.288617865528
 21
1675.764898547991
 31
0.0
 70
    32
  3
標準スタイル
100
AcDbAlignedDimension
 13
-1712.288627865528
 23
1685.224890593723
 33
0.0
 14
-1628.288607865527
 24
1685.224890593723
 34
0.0
100
AcDbRotatedDimension
1001
ACAD
1000
DSTYLE
1002
{
1070
    40
1040
1.0
1002
}
  0
VIEWPORT
  5
5D8F
330
5D8E
100
AcDbEntity
 67
     1
  8
0
100
AcDbViewport
 10
282.6294676085613
 20
440.513177552838
 30
0.0
 40
763.5735393525477
 41
871.2049159102207
 68
     1
 69
     1
1001
ACAD
1000
MVIEW
1002
{
1070
    16
1010
0.0
1020
0.0
1030
0.0
1010
0.0
1020
0.0
1030
1.0
1040
0.0
1040
871.2049159102207
1040
282.6294676085613
1040
440.513177552838
1040
50.0
1040
0.0
1040
0.0
1070
     0
1070
   100
1070
     1
1070
     0
1070
     0
1070
     0
1070
     0
1070
     0
1040
0.0
1040
0.0
1040
0.0
1040
1.0
1040
1.0
1040
10.0
1040
10.0
1070
     0
1002
{
1002
}
1002
}
  0
VIEWPORT
  5
6001
330
5D8E
100
AcDbEntity
 67
     1
  8
ZISSEN1
100
AcDbViewport
 10
221.786195552541
 20
157.6960273330388
 30
0.0
 40
385.4999999999997
 41
259.9999999999999
 68
     2
 69
     2
1001
ACAD
1000
MVIEW
1002
{
1070
    16
1010
0.0
1020
0.0
1030
0.0
1010
0.0
1020
0.0
1030
1.0
1040
0.0
1040
259.9999999999999
1040
-1654.285925122795
1040
1761.856957249792
1040
50.0
1040
0.0
1040
0.0
1070
     0
1070
   100
1070
     1
1070
     0
1070
     0
1070
     0
1070
     0
1070
     0
1040
0.0
1040
0.0
1040
0.0
1040
1.0
1040
1.0
1040
10.0
1040
10.0
1070
     0
1002
{
1002
}
1002
}
  0
TEXT
  5
716F
330
5D8E
100
AcDbEntity
 67
     1
  8
SUNPOU
 62
     0
100
AcDbText
 10
374.1863124306942
 20
60.86794705907585
 30
0.0
 40
3.5
  1
縮尺 1/1
  7
ゴシック体
100
AcDbText
  0
ENDSEC
  0
SECTION
  2
OBJECTS
  0
DICTIONARY
  5
C
330
0
100
AcDbDictionary
  3
ACAD_GROUP
350
D
  3
ACAD_LAYOUT
350
5C7D
  3
ACAD_MLINESTYLE
350
E
  3
ACAD_PLOTSETTINGS
350
5C7E
  3
ACAD_PLOTSTYLENAME
350
5C7B
  3
DWGPROPS
350
5E8E
  3
ACDBVARIABLEDICTIONARY
350
11E00
  3
ACDBHEADERROUNDTRIPXREC
350
11E0B
  0
DICTIONARY
  5
11E2B
330
1A
100
AcDbDictionary
280
     1
  3
ACAD_LAYOUTSELFREF
360
11E2C
  0
DICTIONARY
  5
11E2D
330
5D8E
100
AcDbDictionary
280
     1
  3
ACAD_LAYOUTSELFREF
360
11E2E
  0
DICTIONARY
  5
D
102
{ACAD_REACTORS
330
C
102
}
330
C
100
AcDbDictionary
  3
*A1
350
477D
  3
*A2
350
4C10
  3
*A3
350
4C11
  3
*A4
350
4C12
  3
*A5
350
4C13
  3
*A6
350
4C14
  3
*A7
350
4C15
  3
*A8
350
4C16
  3
*A9
350
4C17
  3
*A10
350
477E
  3
*A11
350
477F
  3
*A12
350
4780
  3
*A13
350
4781
  3
*A14
350
4C0E
  3
*A15
350
4C0F
  0
DICTIONARY
  5
5C7D
102
{ACAD_REACTORS
330
C
102
}
330
C
100
AcDbDictionary
  0
DICTIONARY
  5
E
102
{ACAD_REACTORS
330
C
102
}
330
C
100
AcDbDictionary
  3
STANDARD
350
13
  0
DICTIONARY
  5
5C7E
102
{ACAD_REACTORS
330
C
102
}
330
C
100
AcDbDictionary
  0
ACDBDICTIONARYWDFLT
  5
5C7B
102
{ACAD_REACTORS
330
C
102
}
330
C
100
AcDbDictionary
281
     1
  3
Normal
350
5C7C
100
AcDbDictionaryWithDefault
340
5C7C
  0
XRECORD
  5
5E8E
102
{ACAD_REACTORS
330
C
102
}
330
C
100
AcDbXrecord
  1
DWGPROPS COOKIE
  2

  3

  4

  6

  7

  8

  9

300
=
301
=
302
=
303
=
304
=
305
=
306
=
307
=
308
=
309
=
 40
0.586753587962963
 41
2450495.493631364
 42
2453208.662277431
  1

 90
        0
  0
DICTIONARY
  5
11E00
102
{ACAD_REACTORS
330
C
102
}
330
C
100
AcDbDictionary
  3
INDEXCTL
350
11E01
  0
DICTIONARY
  5
11E0B
102
{ACAD_REACTORS
330
C
102
}
330
C
100
AcDbDictionary
  3
TSTACKALIGN
350
11E0C
  3
TSTACKSIZE
350
11E0D
  3
HYPERLINKBASE
350
11E0E
  3
STYLESHEET
350
11E0F
  3
LAYOUTDICT
350
11E10
  3
PLOTSETDICT
350
11E11
  3
PLOTSTYLNAMDICT
350
11E12
  3
LWETCUNION
350
11E13
  3
INSUNITS
350
11E14
  3
CEPSNTYPE
350
11E15
  3
FINGERPRINTGUID
350
11E16
  3
VERSIONGUID
350
11E17
  3
PSVPSCALE
350
11E18
  3
PUCSORTHOREF
350
11E19
  3
PUCSORTHOVIEW
350
11E1A
  3
PUCSBASE
350
11E1B
  3
PUCSORGTOP
350
11E1C
  3
PUCSORGBOTTOM
350
11E1D
  3
PUCSORGLEFT
350
11E1E
  3
PUCSORGRIGHT
350
11E1F
  3
PUCSORGFRONT
350
11E20
  3
PUCSORGBACK
350
11E21
  3
UCSORTHOREF
350
11E22
  3
UCSORTHOVIEW
350
11E23
  3
UCSBASE
350
11E24
  3
UCSORGTOP
350
11E25
  3
UCSORGBOTTOM
350
11E26
  3
UCSORGLEFT
350
11E27
  3
UCSORGRIGHT
350
11E28
  3
UCSORGFRONT
350
11E29
  3
UCSORGBACK
350
11E2A
  0
XRECORD
  5
11E2C
102
{ACAD_REACTORS
330
11E2B
102
}
330
11E2B
100
AcDbXrecord
340
1A
  0
XRECORD
  5
11E2E
102
{ACAD_REACTORS
330
11E2D
102
}
330
11E2D
100
AcDbXrecord
340
5D8E
  0
GROUP
  5
477D
102
{ACAD_REACTORS
330
D
102
}
330
D
100
AcDbGroup
300

 70
     1
 71
     1
  0
GROUP
  5
4C10
102
{ACAD_REACTORS
330
D
102
}
330
D
100
AcDbGroup
300

 70
     1
 71
     1
  0
GROUP
  5
4C11
102
{ACAD_REACTORS
330
D
102
}
330
D
100
AcDbGroup
300

 70
     1
 71
     1
  0
GROUP
  5
4C12
102
{ACAD_REACTORS
330
D
102
}
330
D
100
AcDbGroup
300

 70
     1
 71
     1
  0
GROUP
  5
4C13
102
{ACAD_REACTORS
330
D
102
}
330
D
100
AcDbGroup
300

 70
     1
 71
     1
  0
GROUP
  5
4C14
102
{ACAD_REACTORS
330
D
102
}
330
D
100
AcDbGroup
300

 70
     1
 71
     1
  0
GROUP
  5
4C15
102
{ACAD_REACTORS
330
D
102
}
330
D
100
AcDbGroup
300

 70
     1
 71
     1
  0
GROUP
  5
4C16
102
{ACAD_REACTORS
330
D
102
}
330
D
100
AcDbGroup
300

 70
     1
 71
     1
  0
GROUP
  5
4C17
102
{ACAD_REACTORS
330
D
102
}
330
D
100
AcDbGroup
300

 70
     1
 71
     1
  0
GROUP
  5
477E
102
{ACAD_REACTORS
330
D
102
}
330
D
100
AcDbGroup
300

 70
     1
 71
     1
  0
GROUP
  5
477F
102
{ACAD_REACTORS
330
D
102
}
330
D
100
AcDbGroup
300

 70
     1
 71
     1
  0
GROUP
  5
4780
102
{ACAD_REACTORS
330
D
102
}
330
D
100
AcDbGroup
300

 70
     1
 71
     1
  0
GROUP
  5
4781
102
{ACAD_REACTORS
330
D
102
}
330
D
100
AcDbGroup
300

 70
     1
 71
     1
  0
GROUP
  5
4C0E
102
{ACAD_REACTORS
330
D
102
}
330
D
100
AcDbGroup
300

 70
     1
 71
     1
  0
GROUP
  5
4C0F
102
{ACAD_REACTORS
330
D
102
}
330
D
100
AcDbGroup
300

 70
     1
 71
     1
  0
MLINESTYLE
  5
13
102
{ACAD_REACTORS
330
E
102
}
330
E
100
AcDbMlineStyle
  2
STANDARD
 70
     0
  3

 62
     0
 51
90.0
 52
90.0
 71
     2
 49
0.5
 62
   256
  6
BYLAYER
 49
-0.5
 62
   256
  6
BYLAYER
  0
ACDBPLACEHOLDER
  5
5C7C
102
{ACAD_REACTORS
330
5C7B
102
}
330
5C7B
100
AcDbPlaceHolder
280
     0
  0
DICTIONARYVAR
  5
11E01
102
{ACAD_REACTORS
330
11E00
102
}
330
11E00
100
DictionaryVariables
280
     0
  1
-1
  0
XRECORD
  5
11E0C
102
{ACAD_REACTORS
330
11E0B
102
}
330
11E0B
100
AcDbXrecord
 90
        1
  0
XRECORD
  5
11E0D
102
{ACAD_REACTORS
330
11E0B
102
}
330
11E0B
100
AcDbXrecord
 90
       70
  0
XRECORD
  5
11E0E
102
{ACAD_REACTORS
330
11E0B
102
}
330
11E0B
100
AcDbXrecord
  1

  0
XRECORD
  5
11E0F
102
{ACAD_REACTORS
330
11E0B
102
}
330
11E0B
100
AcDbXrecord
  1

  0
XRECORD
  5
11E10
102
{ACAD_REACTORS
330
11E0B
102
}
330
11E0B
100
AcDbXrecord
340
5C7D
  0
XRECORD
  5
11E11
102
{ACAD_REACTORS
330
11E0B
102
}
330
11E0B
100
AcDbXrecord
340
5C7E
  0
XRECORD
  5
11E12
102
{ACAD_REACTORS
330
11E0B
102
}
330
11E0B
100
AcDbXrecord
340
5C7B
  0
XRECORD
  5
11E13
102
{ACAD_REACTORS
330
11E0B
102
}
330
11E0B
100
AcDbXrecord
 90
    10781
  0
XRECORD
  5
11E14
102
{ACAD_REACTORS
330
11E0B
102
}
330
11E0B
100
AcDbXrecord
 90
        0
  0
XRECORD
  5
11E15
102
{ACAD_REACTORS
330
11E0B
102
}
330
11E0B
100
AcDbXrecord
 90
        0
  0
XRECORD
  5
11E16
102
{ACAD_REACTORS
330
11E0B
102
}
330
11E0B
100
AcDbXrecord
  1
{225A7F0D-DA29-11D8-946A-0000E2416295}
  0
XRECORD
  5
11E17
102
{ACAD_REACTORS
330
11E0B
102
}
330
11E0B
100
AcDbXrecord
  1
{5725C75A-F54A-4551-BD17-8FD296A51405}
  0
XRECORD
  5
11E18
102
{ACAD_REACTORS
330
11E0B
102
}
330
11E0B
100
AcDbXrecord
 40
0.0
  0
XRECORD
  5
11E19
102
{ACAD_REACTORS
330
11E0B
102
}
330
11E0B
100
AcDbXrecord
340
0
  0
XRECORD
  5
11E1A
102
{ACAD_REACTORS
330
11E0B
102
}
330
11E0B
100
AcDbXrecord
 70
     0
  0
XRECORD
  5
11E1B
102
{ACAD_REACTORS
330
11E0B
102
}
330
11E0B
100
AcDbXrecord
340
0
  0
XRECORD
  5
11E1C
102
{ACAD_REACTORS
330
11E0B
102
}
330
11E0B
100
AcDbXrecord
 10
0.0
 20
0.0
 30
0.0
  0
XRECORD
  5
11E1D
102
{ACAD_REACTORS
330
11E0B
102
}
330
11E0B
100
AcDbXrecord
 10
0.0
 20
0.0
 30
0.0
  0
XRECORD
  5
11E1E
102
{ACAD_REACTORS
330
11E0B
102
}
330
11E0B
100
AcDbXrecord
 10
0.0
 20
0.0
 30
0.0
  0
XRECORD
  5
11E1F
102
{ACAD_REACTORS
330
11E0B
102
}
330
11E0B
100
AcDbXrecord
 10
0.0
 20
0.0
 30
0.0
  0
XRECORD
  5
11E20
102
{ACAD_REACTORS
330
11E0B
102
}
330
11E0B
100
AcDbXrecord
 10
0.0
 20
0.0
 30
0.0
  0
XRECORD
  5
11E21
102
{ACAD_REACTORS
330
11E0B
102
}
330
11E0B
100
AcDbXrecord
 10
0.0
 20
0.0
 30
0.0
  0
XRECORD
  5
11E22
102
{ACAD_REACTORS
330
11E0B
102
}
330
11E0B
100
AcDbXrecord
340
0
  0
XRECORD
  5
11E23
102
{ACAD_REACTORS
330
11E0B
102
}
330
11E0B
100
AcDbXrecord
 70
     0
  0
XRECORD
  5
11E24
102
{ACAD_REACTORS
330
11E0B
102
}
330
11E0B
100
AcDbXrecord
340
0
  0
XRECORD
  5
11E25
102
{ACAD_REACTORS
330
11E0B
102
}
330
11E0B
100
AcDbXrecord
 10
0.0
 20
0.0
 30
0.0
  0
XRECORD
  5
11E26
102
{ACAD_REACTORS
330
11E0B
102
}
330
11E0B
100
AcDbXrecord
 10
0.0
 20
0.0
 30
0.0
  0
XRECORD
  5
11E27
102
{ACAD_REACTORS
330
11E0B
102
}
330
11E0B
100
AcDbXrecord
 10
0.0
 20
0.0
 30
0.0
  0
XRECORD
  5
11E28
102
{ACAD_REACTORS
330
11E0B
102
}
330
11E0B
100
AcDbXrecord
 10
0.0
 20
0.0
 30
0.0
  0
XRECORD
  5
11E29
102
{ACAD_REACTORS
330
11E0B
102
}
330
11E0B
100
AcDbXrecord
 10
0.0
 20
0.0
 30
0.0
  0
XRECORD
  5
11E2A
102
{ACAD_REACTORS
330
11E0B
102
}
330
11E0B
100
AcDbXrecord
 10
0.0
 20
0.0
 30
0.0
  0
ENDSEC
  0
EOF
