  0
SECTION
  2
HEADER
  9
$ACADVER
  1
AC1014
  9
$ACADMAINTVER
 70
     9
  9
$DWGCODEPAGE
  3
ANSI_932
  9
$INSBASE
 10
0.0
 20
0.0
 30
0.0
  9
$EXTMIN
 10
-2031.292703010138
 20
1722.002016759606
 30
-0.00000001
  9
$EXTMAX
 10
-1813.899028246255
 20
1894.667638836827
 30
0.00000001
  9
$LIMMIN
 10
0.0
 20
0.0
  9
$LIMMAX
 10
420.0
 20
297.0
  9
$ORTHOMODE
 70
     1
  9
$REGENMODE
 70
     1
  9
$FILLMODE
 70
     1
  9
$QTEXTMODE
 70
     0
  9
$MIRRTEXT
 70
     1
  9
$DRAGMODE
 70
     2
  9
$LTSCALE
 40
1.0
  9
$OSMODE
 70
    37
  9
$ATTMODE
 70
     1
  9
$TEXTSIZE
 40
2.5
  9
$TRACEWID
 40
1.0
  9
$TEXTSTYLE
  7
ゴシック体
  9
$CLAYER
  8
SUNPOU
  9
$CELTYPE
  6
BYLAYER
  9
$CECOLOR
 62
   256
  9
$CELTSCALE
 40
1.0
  9
$DELOBJ
 70
     1
  9
$DISPSILH
 70
     0
  9
$DIMSCALE
 40
0.0
  9
$DIMASZ
 40
3.0
  9
$DIMEXO
 40
0.5
  9
$DIMDLI
 40
0.5
  9
$DIMRND
 40
0.0
  9
$DIMDLE
 40
0.0
  9
$DIMEXE
 40
0.5
  9
$DIMTP
 40
0.0
  9
$DIMTM
 40
0.0
  9
$DIMTXT
 40
3.5
  9
$DIMCEN
 40
0.0
  9
$DIMTSZ
 40
0.0
  9
$DIMTOL
 70
     0
  9
$DIMLIM
 70
     0
  9
$DIMTIH
 70
     0
  9
$DIMTOH
 70
     0
  9
$DIMSE1
 70
     0
  9
$DIMSE2
 70
     0
  9
$DIMTAD
 70
     1
  9
$DIMZIN
 70
     8
  9
$DIMBLK
  1

  9
$DIMASO
 70
     1
  9
$DIMSHO
 70
     1
  9
$DIMPOST
  1

  9
$DIMAPOST
  1

  9
$DIMALT
 70
     0
  9
$DIMALTD
 70
     2
  9
$DIMALTF
 40
25.4
  9
$DIMLFAC
 40
1.0
  9
$DIMTOFL
 70
     1
  9
$DIMTVP
 40
0.0
  9
$DIMTIX
 70
     0
  9
$DIMSOXD
 70
     0
  9
$DIMSAH
 70
     0
  9
$DIMBLK1
  1

  9
$DIMBLK2
  1

  9
$DIMSTYLE
  2
標準スタイル
  9
$DIMCLRD
 70
     1
  9
$DIMCLRE
 70
     1
  9
$DIMCLRT
 70
     1
  9
$DIMTFAC
 40
1.0
  9
$DIMGAP
 40
1.0
  9
$DIMJUST
 70
     0
  9
$DIMSD1
 70
     0
  9
$DIMSD2
 70
     0
  9
$DIMTOLJ
 70
     1
  9
$DIMTZIN
 70
     8
  9
$DIMALTZ
 70
     0
  9
$DIMALTTZ
 70
     0
  9
$DIMFIT
 70
     3
  9
$DIMUPT
 70
     0
  9
$DIMUNIT
 70
     2
  9
$DIMDEC
 70
     2
  9
$DIMTDEC
 70
     2
  9
$DIMALTU
 70
     2
  9
$DIMALTTD
 70
     2
  9
$DIMTXSTY
  7
ゴシック体
  9
$DIMAUNIT
 70
     0
  9
$LUNITS
 70
     2
  9
$LUPREC
 70
     4
  9
$SKETCHINC
 40
1.0
  9
$FILLETRAD
 40
0.0
  9
$AUNITS
 70
     0
  9
$AUPREC
 70
     0
  9
$MENU
  1
.
  9
$ELEVATION
 40
0.0
  9
$PELEVATION
 40
0.0
  9
$THICKNESS
 40
0.0
  9
$LIMCHECK
 70
     0
  9
$BLIPMODE
 70
     0
  9
$CHAMFERA
 40
10.0
  9
$CHAMFERB
 40
10.0
  9
$CHAMFERC
 40
2.0
  9
$CHAMFERD
 40
0.7853981633974483
  9
$SKPOLY
 70
     0
  9
$TDCREATE
 40
2450495.493631365
  9
$TDUPDATE
 40
2453984.414485659
  9
$TDINDWG
 40
1.5866551042
  9
$TDUSRTIMER
 40
1.5866547569
  9
$USRTIMER
 70
     1
  9
$ANGBASE
 50
0.0
  9
$ANGDIR
 70
     0
  9
$PDMODE
 70
    99
  9
$PDSIZE
 40
0.0
  9
$PLINEWID
 40
0.0
  9
$COORDS
 70
     1
  9
$SPLFRAME
 70
     0
  9
$SPLINETYPE
 70
     6
  9
$SPLINESEGS
 70
     8
  9
$ATTDIA
 70
     0
  9
$ATTREQ
 70
     1
  9
$HANDLING
 70
 10241
  9
$HANDSEED
  5
12BF3
  9
$SURFTAB1
 70
     6
  9
$SURFTAB2
 70
     6
  9
$SURFTYPE
 70
     6
  9
$SURFU
 70
     6
  9
$SURFV
 70
     6
  9
$UCSNAME
  2

  9
$UCSORG
 10
0.0
 20
0.0
 30
0.0
  9
$UCSXDIR
 10
1.0
 20
0.0
 30
0.0
  9
$UCSYDIR
 10
0.0
 20
1.0
 30
0.0
  9
$PUCSNAME
  2

  9
$PUCSORG
 10
0.0
 20
0.0
 30
0.0
  9
$PUCSXDIR
 10
1.0
 20
0.0
 30
0.0
  9
$PUCSYDIR
 10
0.0
 20
1.0
 30
0.0
  9
$USERI1
 70
     0
  9
$USERI2
 70
     0
  9
$USERI3
 70
     0
  9
$USERI4
 70
     0
  9
$USERI5
 70
     0
  9
$USERR1
 40
0.0
  9
$USERR2
 40
0.0
  9
$USERR3
 40
0.0
  9
$USERR4
 40
0.0
  9
$USERR5
 40
0.0
  9
$WORLDVIEW
 70
     1
  9
$SHADEDGE
 70
     3
  9
$SHADEDIF
 70
    70
  9
$TILEMODE
 70
     1
  9
$MAXACTVP
 70
    16
  9
$PINSBASE
 10
0.0
 20
0.0
 30
0.0
  9
$PLIMCHECK
 70
     0
  9
$PEXTMIN
 10
29.03619555254121
 20
27.69602733303884
 30
0.0
  9
$PEXTMAX
 10
414.5361955525409
 20
287.6960273330388
 30
0.0
  9
$PLIMMIN
 10
15.15433780389673
 20
13.80781516542163
  9
$PLIMMAX
 10
435.1009930773342
 20
310.8184658001872
  9
$UNITMODE
 70
     0
  9
$VISRETAIN
 70
     0
  9
$PLINEGEN
 70
     0
  9
$PSLTSCALE
 70
     1
  9
$TREEDEPTH
 70
  3020
  9
$PICKSTYLE
 70
     1
  9
$CMLSTYLE
  2
STANDARD
  9
$CMLJUST
 70
     0
  9
$CMLSCALE
 40
1.0
  9
$PROXYGRAPHICS
 70
     1
  9
$MEASUREMENT
 70
     1
  0
ENDSEC
  0
SECTION
  2
CLASSES
  0
CLASS
  1
LWPOLYLINE
  2
AcDbPolyline
  3
AutoCAD 2000
 90
        0
280
     0
281
     1
  0
CLASS
  1
HATCH
  2
AcDbHatch
  3
AutoCAD 2000
 90
        0
280
     0
281
     1
  0
CLASS
  1
ACDBDICTIONARYWDFLT
  2
AcDbDictionaryWithDefault
  3
AutoCAD 2000
 90
        0
280
     0
281
     0
  0
CLASS
  1
ACDBPLACEHOLDER
  2
AcDbPlaceHolder
  3
AutoCAD 2000
 90
        0
280
     0
281
     0
  0
CLASS
  1
LAYOUT
  2
AcDbLayout
  3
AutoCAD 2000
 90
        0
280
     0
281
     0
  0
CLASS
  1
DICTIONARYVAR
  2
AcDbDictionaryVar
  3
AutoCAD 2000
 90
        0
280
     0
281
     0
  0
CLASS
  1
LONG_TRANSACTION
  2
AcDbLongTransaction
  3
AutoCAD 2000
 90
        0
280
     0
281
     0
  0
CLASS
  1
LWPOLYLINE
  2
AcDbPolyline
  3
AutoCAD 2000
 90
        0
280
     0
281
     1
  0
CLASS
  1
HATCH
  2
AcDbHatch
  3
AutoCAD 2000
 90
        0
280
     0
281
     1
  0
CLASS
  1
XRECORD
  2
AcDbXrecord
  3
AutoCAD 2000
 90
        0
280
     0
281
     0
  0
ENDSEC
  0
SECTION
  2
TABLES
  0
TABLE
  2
VPORT
  5
8
330
0
100
AcDbSymbolTable
 70
     2
  0
VPORT
  5
12BCE
330
8
100
AcDbSymbolTableRecord
100
AcDbViewportTableRecord
  2
*ACTIVE
 70
     0
 10
0.0
 20
0.0
 11
1.0
 21
1.0
 12
-1911.176969231137
 22
1808.355842557634
 13
0.0
 23
0.0
 14
5.0
 24
5.0
 15
0.0
 25
0.0
 16
0.0
 26
0.0
 36
1.0
 17
0.0
 27
0.0
 37
0.0
 40
174.8674469390157
 41
2.192560175054704
 42
50.0
 43
0.0
 44
0.0
 50
0.0
 51
0.0
 71
     0
 72
   100
 73
     1
 74
     0
 75
     0
 76
     0
 77
     0
 78
     0
  0
ENDTAB
  0
TABLE
  2
LTYPE
  5
5
330
0
100
AcDbSymbolTable
 70
    13
  0
LTYPE
  5
14
330
5
100
AcDbSymbolTableRecord
100
AcDbLinetypeTableRecord
  2
BYBLOCK
 70
     0
  3

 72
    65
 73
     0
 40
0.0
  0
LTYPE
  5
15
330
5
100
AcDbSymbolTableRecord
100
AcDbLinetypeTableRecord
  2
BYLAYER
 70
     0
  3

 72
    65
 73
     0
 40
0.0
  0
LTYPE
  5
16
330
5
100
AcDbSymbolTableRecord
100
AcDbLinetypeTableRecord
  2
CONTINUOUS
 70
     0
  3
Solid line
 72
    65
 73
     0
 40
0.0
  0
LTYPE
  5
329
330
5
100
AcDbSymbolTableRecord
100
AcDbLinetypeTableRecord
  2
DASHEDX2
 70
     0
  3
____  ____  ____  ____  ____  ____  ____  ____ 
 72
    65
 73
     2
 40
1.5
 49
1.0
 74
     0
 49
-0.5
 74
     0
  0
LTYPE
  5
1956
330
5
100
AcDbSymbolTableRecord
100
AcDbLinetypeTableRecord
  2
CENTERX2
 70
     0
  3
________  __  ________  __  ________  __  _____
 72
    65
 73
     4
 40
4.0
 49
2.5
 74
     0
 49
-0.5
 74
     0
 49
0.5
 74
     0
 49
-0.5
 74
     0
  0
ENDTAB
  0
TABLE
  2
LAYER
  5
2
330
0
100
AcDbSymbolTable
 70
    35
  0
LAYER
  5
F
330
2
100
AcDbSymbolTableRecord
100
AcDbLayerTableRecord
  2
0
 70
     0
 62
     7
  6
CONTINUOUS
  0
LAYER
  5
18F
330
2
100
AcDbSymbolTableRecord
100
AcDbLayerTableRecord
  2
ZISSEN1
 70
     0
 62
     7
  6
CONTINUOUS
  0
LAYER
  5
191
330
2
100
AcDbSymbolTableRecord
100
AcDbLayerTableRecord
  2
SAISEN
 70
     0
 62
     1
  6
CONTINUOUS
  0
LAYER
  5
529
330
2
100
AcDbSymbolTableRecord
100
AcDbLayerTableRecord
  2
SUNPOU
 70
     0
 62
     1
  6
CONTINUOUS
  0
LAYER
  5
1959
330
2
100
AcDbSymbolTableRecord
100
AcDbLayerTableRecord
  2
KAKURESEN1
 70
     0
 62
     3
  6
DASHEDX2
  0
LAYER
  5
195A
330
2
100
AcDbSymbolTableRecord
100
AcDbLayerTableRecord
  2
CL1
 70
     0
 62
   210
  6
CENTERX2
  0
LAYER
  5
3A9B
330
2
100
AcDbSymbolTableRecord
100
AcDbLayerTableRecord
  2
DEFPOINTS
 70
     0
 62
     7
  6
CONTINUOUS
  0
ENDTAB
  0
TABLE
  2
STYLE
  5
3
330
0
100
AcDbSymbolTable
 70
     5
  0
STYLE
  5
10
330
3
100
AcDbSymbolTableRecord
100
AcDbTextStyleTableRecord
  2
STANDARD
 70
     0
 40
0.0
 41
1.0
 50
0.0
 71
     0
 42
3.0
  3
txt
  4
BigFont
  0
STYLE
  5
1960
330
3
100
AcDbSymbolTableRecord
100
AcDbTextStyleTableRecord
  2
ゴシック体
 70
     0
 40
0.0
 41
1.0
 50
0.0
 71
     0
 42
2.5
  3
MS Gothic.ttf
  4

1001
ACAD
1000
MS Gothic
1071
    32817
  0
ENDTAB
  0
TABLE
  2
VIEW
  5
6
330
0
100
AcDbSymbolTable
 70
     0
  0
ENDTAB
  0
TABLE
  2
UCS
  5
7
330
0
100
AcDbSymbolTable
 70
     0
  0
ENDTAB
  0
TABLE
  2
APPID
  5
9
330
0
100
AcDbSymbolTable
 70
     5
  0
APPID
  5
11
330
9
100
AcDbSymbolTableRecord
100
AcDbRegAppTableRecord
  2
ACAD
 70
     0
  0
APPID
  5
4005
330
9
100
AcDbSymbolTableRecord
100
AcDbRegAppTableRecord
  2
CONTENTTABDATA
 70
     0
  0
APPID
  5
4006
330
9
100
AcDbSymbolTableRecord
100
AcDbRegAppTableRecord
  2
CONTENTCURRENTTAB
 70
     0
  0
APPID
  5
477B
330
9
100
AcDbSymbolTableRecord
100
AcDbRegAppTableRecord
  2
CONTENTBLOCKDESCRIPTION
 70
     0
  0
APPID
  5
477C
330
9
100
AcDbSymbolTableRecord
100
AcDbRegAppTableRecord
  2
CONTENTBLOCKICON
 70
     0
  0
ENDTAB
  0
TABLE
  2
DIMSTYLE
  5
A
330
0
100
AcDbSymbolTable
 70
    12
  0
DIMSTYLE
105
1D
330
A
100
AcDbSymbolTableRecord
100
AcDbDimStyleTableRecord
  2
STANDARD
 70
     0
  3

  4

  5

  6

  7

 40
1.0
 41
0.18
 42
0.0625
 43
0.38
 44
0.18
 45
0.0
 46
0.0
 47
0.0
 48
0.0
140
0.18
141
0.09
142
0.0
143
25.4
144
1.0
145
0.0
146
1.0
147
0.09
 71
     0
 72
     0
 73
     1
 74
     1
 75
     0
 76
     0
 77
     0
 78
     0
170
     0
171
     2
172
     0
173
     0
174
     0
175
     0
176
     0
177
     0
178
     0
270
     2
271
     4
272
     4
273
     2
274
     2
340
10
275
     0
280
     0
281
     0
282
     0
283
     1
284
     0
285
     0
286
     0
287
     3
288
     0
  0
DIMSTYLE
105
52E
102
{ACAD_REACTORS
330
128A4
330
128C4
330
128E3
330
128F2
330
12928
330
12935
330
12966
330
12973
330
1298D
330
129BD
330
12A03
330
12A54
330
12A9D
330
12AD0
330
12ADF
330
12AEC
330
12AFB
330
12B0A
330
12B28
330
12B4D
330
12B90
102
}
330
A
100
AcDbSymbolTableRecord
100
AcDbDimStyleTableRecord
  2
標準スタイル
 70
     0
  3

  4

  5

  6

  7

 40
0.0
 41
3.0
 42
0.5
 43
0.5
 44
0.5
 45
0.0
 46
0.0
 47
0.0
 48
0.0
140
3.5
141
0.0
142
0.0
143
25.4
144
1.0
145
0.0
146
1.0
147
1.0
 71
     0
 72
     0
 73
     0
 74
     0
 75
     0
 76
     0
 77
     1
 78
     8
170
     0
171
     2
172
     1
173
     0
174
     0
175
     0
176
     1
177
     1
178
     1
270
     2
271
     2
272
     2
273
     2
274
     2
340
1960
275
     0
280
     0
281
     0
282
     0
283
     1
284
     8
285
     0
286
     0
287
     3
288
     0
  0
ENDTAB
  0
TABLE
  2
BLOCK_RECORD
  5
1
330
0
100
AcDbSymbolTable
 70
    44
  0
BLOCK_RECORD
  5
1A
102
{ACAD_XDICTIONARY
360
12BEF
102
}
330
1
100
AcDbSymbolTableRecord
100
AcDbBlockTableRecord
  2
*MODEL_SPACE
  0
BLOCK_RECORD
  5
5D8E
102
{ACAD_XDICTIONARY
360
12BF1
102
}
330
1
100
AcDbSymbolTableRecord
100
AcDbBlockTableRecord
  2
*PAPER_SPACE
  0
BLOCK_RECORD
  5
128A5
330
1
100
AcDbSymbolTableRecord
100
AcDbBlockTableRecord
  2
*D23
  0
BLOCK_RECORD
  5
128C5
330
1
100
AcDbSymbolTableRecord
100
AcDbBlockTableRecord
  2
*D24
  0
BLOCK_RECORD
  5
128E4
330
1
100
AcDbSymbolTableRecord
100
AcDbBlockTableRecord
  2
*D25
  0
BLOCK_RECORD
  5
128F3
330
1
100
AcDbSymbolTableRecord
100
AcDbBlockTableRecord
  2
*D26
  0
BLOCK_RECORD
  5
12929
330
1
100
AcDbSymbolTableRecord
100
AcDbBlockTableRecord
  2
*D27
  0
BLOCK_RECORD
  5
12936
330
1
100
AcDbSymbolTableRecord
100
AcDbBlockTableRecord
  2
*D28
  0
BLOCK_RECORD
  5
12967
330
1
100
AcDbSymbolTableRecord
100
AcDbBlockTableRecord
  2
*D29
  0
BLOCK_RECORD
  5
12974
330
1
100
AcDbSymbolTableRecord
100
AcDbBlockTableRecord
  2
*D30
  0
BLOCK_RECORD
  5
1298E
330
1
100
AcDbSymbolTableRecord
100
AcDbBlockTableRecord
  2
*D31
  0
BLOCK_RECORD
  5
129BE
330
1
100
AcDbSymbolTableRecord
100
AcDbBlockTableRecord
  2
*D32
  0
BLOCK_RECORD
  5
12A04
330
1
100
AcDbSymbolTableRecord
100
AcDbBlockTableRecord
  2
*D33
  0
BLOCK_RECORD
  5
12A55
330
1
100
AcDbSymbolTableRecord
100
AcDbBlockTableRecord
  2
*D34
  0
BLOCK_RECORD
  5
12A9E
330
1
100
AcDbSymbolTableRecord
100
AcDbBlockTableRecord
  2
*D35
  0
BLOCK_RECORD
  5
12AD1
330
1
100
AcDbSymbolTableRecord
100
AcDbBlockTableRecord
  2
*D36
  0
BLOCK_RECORD
  5
12AE0
330
1
100
AcDbSymbolTableRecord
100
AcDbBlockTableRecord
  2
*D37
  0
BLOCK_RECORD
  5
12AED
330
1
100
AcDbSymbolTableRecord
100
AcDbBlockTableRecord
  2
*D38
  0
BLOCK_RECORD
  5
12AFC
330
1
100
AcDbSymbolTableRecord
100
AcDbBlockTableRecord
  2
*D39
  0
BLOCK_RECORD
  5
12B0B
330
1
100
AcDbSymbolTableRecord
100
AcDbBlockTableRecord
  2
*D40
  0
BLOCK_RECORD
  5
12B29
330
1
100
AcDbSymbolTableRecord
100
AcDbBlockTableRecord
  2
*D41
  0
BLOCK_RECORD
  5
12B4E
330
1
100
AcDbSymbolTableRecord
100
AcDbBlockTableRecord
  2
*D42
  0
BLOCK_RECORD
  5
12B91
330
1
100
AcDbSymbolTableRecord
100
AcDbBlockTableRecord
  2
*D43
  0
ENDTAB
  0
ENDSEC
  0
SECTION
  2
BLOCKS
  0
BLOCK
  5
1B
330
1A
100
AcDbEntity
  8
0
100
AcDbBlockBegin
  2
*MODEL_SPACE
 70
     0
 10
0.0
 20
0.0
 30
0.0
  3
*MODEL_SPACE
  1

  0
ENDBLK
  5
1C
330
1A
100
AcDbEntity
  8
0
100
AcDbBlockEnd
  0
BLOCK
  5
5E60
330
5D8E
100
AcDbEntity
 67
     1
  8
0
100
AcDbBlockBegin
  2
*PAPER_SPACE
 70
     0
 10
0.0
 20
0.0
 30
0.0
  3
*PAPER_SPACE
  1

  0
ENDBLK
  5
5E61
330
5D8E
100
AcDbEntity
 67
     1
  8
0
100
AcDbBlockEnd
  0
BLOCK
  5
128AF
330
128A5
100
AcDbEntity
  8
0
100
AcDbBlockBegin
  2
*D23
 70
     1
 10
0.0
 20
0.0
 30
0.0
  3
*D23
  1

  0
LINE
  5
12B70
330
128A5
100
AcDbEntity
  8
SUNPOU
 62
     1
100
AcDbLine
 10
-1890.703139634189
 20
1847.409180360751
 30
0.0
 11
-1890.703139634189
 21
1853.869462435241
 31
0.0
  0
LINE
  5
12B71
330
128A5
100
AcDbEntity
  8
SUNPOU
 62
     1
100
AcDbLine
 10
-1846.704638027943
 20
1847.409180486632
 30
0.0
 11
-1846.704638027943
 21
1853.869462435241
 31
0.0
  0
LINE
  5
12B72
330
128A5
100
AcDbEntity
  8
SUNPOU
 62
     1
100
AcDbLine
 10
-1887.703139634189
 20
1853.369462435241
 30
0.0
 11
-1849.704638027944
 21
1853.369462435241
 31
0.0
  0
SOLID
  5
12B73
330
128A5
100
AcDbEntity
  8
SUNPOU
 62
     1
100
AcDbTrace
 10
-1887.703139634189
 20
1853.869462435241
 30
0.0
 11
-1887.703139634189
 21
1852.869462435241
 31
0.0
 12
-1890.703139634189
 22
1853.369462435241
 32
0.0
 13
-1890.703139634189
 23
1853.369462435241
 33
0.0
  0
SOLID
  5
12B74
330
128A5
100
AcDbEntity
  8
SUNPOU
 62
     1
100
AcDbTrace
 10
-1849.704638027944
 20
1853.869462435241
 30
0.0
 11
-1849.704638027944
 21
1852.869462435241
 31
0.0
 12
-1846.704638027943
 22
1853.369462435241
 32
0.0
 13
-1846.704638027943
 23
1853.369462435241
 33
0.0
  0
MTEXT
  5
12B75
330
128A5
100
AcDbEntity
  8
SUNPOU
 62
     1
100
AcDbMText
 10
-1868.703888831067
 20
1856.528091876865
 30
0.0
 40
3.5
 41
0.0
 71
     5
 72
     1
  1
\A1;44(コネクタ実装時)
  7
ゴシック体
1001
ACAD
1000
MTEXTBEGIN
1070
    73
1070
     1
1070
    44
1040
1.0
1070
    74
1070
     0
1000
MTEXTEND
  0
POINT
  5
12B76
330
128A5
100
AcDbEntity
  8
DEFPOINTS
 62
     0
100
AcDbPoint
 10
-1890.703139634189
 20
1846.909180360752
 30
0.0
  0
POINT
  5
12B77
330
128A5
100
AcDbEntity
  8
DEFPOINTS
 62
     0
100
AcDbPoint
 10
-1846.704638027943
 20
1846.909180486631
 30
0.0
  0
POINT
  5
12B78
330
128A5
100
AcDbEntity
  8
DEFPOINTS
 62
     0
100
AcDbPoint
 10
-1846.704638027943
 20
1853.369462435241
 30
0.0
  0
ENDBLK
  5
128B0
330
128A5
100
AcDbEntity
  8
0
100
AcDbBlockEnd
  0
BLOCK
  5
128CF
330
128C5
100
AcDbEntity
  8
0
100
AcDbBlockBegin
  2
*D24
 70
     1
 10
0.0
 20
0.0
 30
0.0
  3
*D24
  1

  0
LINE
  5
128DA
330
128C5
100
AcDbEntity
  8
SUNPOU
 62
     1
100
AcDbLine
 10
-1965.701703057447
 20
1804.412452563622
 30
0.0
 11
-2026.884073568512
 21
1804.412452563622
 31
0.0
  0
LINE
  5
128DB
330
128C5
100
AcDbEntity
  8
SUNPOU
 62
     1
100
AcDbLine
 10
-2010.204638027944
 20
1761.909180486632
 30
0.0
 11
-2026.884073568512
 21
1761.909180486632
 31
0.0
  0
LINE
  5
128DC
330
128C5
100
AcDbEntity
  8
SUNPOU
 62
     1
100
AcDbLine
 10
-2026.384073568511
 20
1801.412452563622
 30
0.0
 11
-2026.384073568511
 21
1764.909180486632
 31
0.0
  0
SOLID
  5
128DD
330
128C5
100
AcDbEntity
  8
SUNPOU
 62
     1
100
AcDbTrace
 10
-2026.884073568512
 20
1801.412452563622
 30
0.0
 11
-2025.884073568513
 21
1801.412452563622
 31
0.0
 12
-2026.384073568511
 22
1804.412452563622
 32
0.0
 13
-2026.384073568511
 23
1804.412452563622
 33
0.0
  0
SOLID
  5
128DE
330
128C5
100
AcDbEntity
  8
SUNPOU
 62
     1
100
AcDbTrace
 10
-2026.884073568512
 20
1764.909180486632
 30
0.0
 11
-2025.884073568513
 21
1764.909180486632
 31
0.0
 12
-2026.384073568511
 22
1761.909180486632
 32
0.0
 13
-2026.384073568511
 23
1761.909180486632
 33
0.0
  0
MTEXT
  5
128DF
330
128C5
100
AcDbEntity
  8
SUNPOU
 62
     1
100
AcDbMText
 10
-2029.134073568514
 20
1783.160816525126
 30
0.0
 40
3.5
 41
0.0
 71
     5
 72
     1
  1
\A1;42.5
  7
ゴシック体
 11
0.0000000000000001
 21
1.0
 31
0.0
1001
ACAD
1000
MTEXTBEGIN
1070
    73
1070
     1
1070
    44
1040
1.0
1070
    74
1070
     0
1000
MTEXTEND
  0
POINT
  5
128E0
330
128C5
100
AcDbEntity
  8
DEFPOINTS
 62
     0
100
AcDbPoint
 10
-1965.201703057447
 20
1804.412452563622
 30
0.0
  0
POINT
  5
128E1
330
128C5
100
AcDbEntity
  8
DEFPOINTS
 62
     0
100
AcDbPoint
 10
-2009.704638027943
 20
1761.909180486632
 30
0.0
  0
POINT
  5
128E2
330
128C5
100
AcDbEntity
  8
DEFPOINTS
 62
     0
100
AcDbPoint
 10
-2026.384073568511
 20
1761.909180486632
 30
0.0
  0
ENDBLK
  5
128D0
330
128C5
100
AcDbEntity
  8
0
100
AcDbBlockEnd
  0
BLOCK
  5
128F0
330
128E4
100
AcDbEntity
  8
0
100
AcDbBlockBegin
  2
*D25
 70
     1
 10
0.0
 20
0.0
 30
0.0
  3
*D25
  1

  0
LINE
  5
128E5
330
128E4
100
AcDbEntity
  8
SUNPOU
 62
     1
100
AcDbLine
 10
-2011.204638027944
 20
1764.159180486632
 30
0.0
 11
-2018.226490088124
 21
1764.159180486632
 31
0.0
  0
LINE
  5
128E6
330
128E4
100
AcDbEntity
  8
SUNPOU
 62
     1
100
AcDbLine
 10
-2011.204638027944
 20
1767.659180486631
 30
0.0
 11
-2018.226490088124
 21
1767.659180486631
 31
0.0
  0
LINE
  5
128E7
330
128E4
100
AcDbEntity
  8
SUNPOU
 62
     1
100
AcDbLine
 10
-2017.726490088122
 20
1761.159180486632
 30
0.0
 11
-2017.726490088122
 21
1758.159180486632
 31
0.0
  0
LINE
  5
128E8
330
128E4
100
AcDbEntity
  8
SUNPOU
 62
     1
100
AcDbLine
 10
-2017.726490088122
 20
1770.659180486632
 30
0.0
 11
-2017.726490088122
 21
1782.019586578002
 31
0.0
  0
LINE
  5
128E9
330
128E4
100
AcDbEntity
  8
SUNPOU
 62
     1
100
AcDbLine
 10
-2017.726490088122
 20
1764.159180486632
 30
0.0
 11
-2017.726490088122
 21
1767.659180486631
 31
0.0
  0
SOLID
  5
128EA
330
128E4
100
AcDbEntity
  8
SUNPOU
 62
     1
100
AcDbTrace
 10
-2018.226490088124
 20
1761.159180486632
 30
0.0
 11
-2017.226490088124
 21
1761.159180486632
 31
0.0
 12
-2017.726490088122
 22
1764.159180486632
 32
0.0
 13
-2017.726490088122
 23
1764.159180486632
 33
0.0
  0
SOLID
  5
128EB
330
128E4
100
AcDbEntity
  8
SUNPOU
 62
     1
100
AcDbTrace
 10
-2018.226490088124
 20
1770.659180486632
 30
0.0
 11
-2017.226490088124
 21
1770.659180486632
 31
0.0
 12
-2017.726490088122
 22
1767.659180486631
 32
0.0
 13
-2017.726490088122
 23
1767.659180486631
 33
0.0
  0
MTEXT
  5
128EC
330
128E4
100
AcDbEntity
  8
SUNPOU
 62
     1
100
AcDbMText
 10
-2020.476490088124
 20
1777.839383532317
 30
0.0
 40
3.5
 41
0.0
 71
     5
 72
     1
  1
\A1;3.5
  7
ゴシック体
 11
0.0000000000000001
 21
1.0
 31
0.0
1001
ACAD
1000
MTEXTBEGIN
1070
    73
1070
     1
1070
    44
1040
1.0
1070
    74
1070
     0
1000
MTEXTEND
  0
POINT
  5
128ED
330
128E4
100
AcDbEntity
  8
DEFPOINTS
 62
     0
100
AcDbPoint
 10
-2010.704638027943
 20
1764.159180486632
 30
0.0
  0
POINT
  5
128EE
330
128E4
100
AcDbEntity
  8
DEFPOINTS
 62
     0
100
AcDbPoint
 10
-2010.704638027943
 20
1767.659180486631
 30
0.0
  0
POINT
  5
128EF
330
128E4
100
AcDbEntity
  8
DEFPOINTS
 62
     0
100
AcDbPoint
 10
-2017.726490088122
 20
1767.659180486631
 30
0.0
  0
ENDBLK
  5
128F1
330
128E4
100
AcDbEntity
  8
0
100
AcDbBlockEnd
  0
BLOCK
  5
128FD
330
128F3
100
AcDbEntity
  8
0
100
AcDbBlockBegin
  2
*D26
 70
     1
 10
0.0
 20
0.0
 30
0.0
  3
*D26
  1

  0
LINE
  5
12942
330
128F3
100
AcDbEntity
  8
SUNPOU
 62
     1
100
AcDbLine
 10
-1981.201703057447
 20
1799.912452563622
 30
0.0
 11
-1981.201703057447
 21
1753.987810368679
 31
0.0
  0
LINE
  5
12943
330
128F3
100
AcDbEntity
  8
SUNPOU
 62
     1
100
AcDbLine
 10
-1961.201703057446
 20
1799.912452563622
 30
0.0
 11
-1961.201703057446
 21
1753.987810368679
 31
0.0
  0
LINE
  5
12944
330
128F3
100
AcDbEntity
  8
SUNPOU
 62
     1
100
AcDbLine
 10
-1978.201703057447
 20
1754.487810368678
 30
0.0
 11
-1964.201703057447
 21
1754.487810368678
 31
0.0
  0
SOLID
  5
12945
330
128F3
100
AcDbEntity
  8
SUNPOU
 62
     1
100
AcDbTrace
 10
-1978.201703057447
 20
1754.987810368677
 30
0.0
 11
-1978.201703057447
 21
1753.987810368679
 31
0.0
 12
-1981.201703057447
 22
1754.487810368678
 32
0.0
 13
-1981.201703057447
 23
1754.487810368678
 33
0.0
  0
SOLID
  5
12946
330
128F3
100
AcDbEntity
  8
SUNPOU
 62
     1
100
AcDbTrace
 10
-1964.201703057447
 20
1754.987810368677
 30
0.0
 11
-1964.201703057447
 21
1753.987810368679
 31
0.0
 12
-1961.201703057446
 22
1754.487810368678
 32
0.0
 13
-1961.201703057446
 23
1754.487810368678
 33
0.0
  0
MTEXT
  5
12947
330
128F3
100
AcDbEntity
  8
SUNPOU
 62
     1
100
AcDbMText
 10
-1971.201703057445
 20
1757.237810368678
 30
0.0
 40
3.5
 41
0.0
 71
     5
 72
     1
  1
\A1;20
  7
ゴシック体
1001
ACAD
1000
MTEXTBEGIN
1070
    73
1070
     1
1070
    44
1040
1.0
1070
    74
1070
     0
1000
MTEXTEND
  0
POINT
  5
12948
330
128F3
100
AcDbEntity
  8
DEFPOINTS
 62
     0
100
AcDbPoint
 10
-1981.201703057447
 20
1800.412452563622
 30
0.0
  0
POINT
  5
12949
330
128F3
100
AcDbEntity
  8
DEFPOINTS
 62
     0
100
AcDbPoint
 10
-1961.201703057446
 20
1800.412452563622
 30
0.0
  0
POINT
  5
1294A
330
128F3
100
AcDbEntity
  8
DEFPOINTS
 62
     0
100
AcDbPoint
 10
-1961.201703057446
 20
1754.487810368678
 30
0.0
  0
ENDBLK
  5
128FE
330
128F3
100
AcDbEntity
  8
0
100
AcDbBlockEnd
  0
BLOCK
  5
12933
330
12929
100
AcDbEntity
  8
0
100
AcDbBlockBegin
  2
*D27
 70
     1
 10
0.0
 20
0.0
 30
0.0
  3
*D27
  1

  0
LINE
  5
1294B
330
12929
100
AcDbEntity
  8
SUNPOU
 62
     1
100
AcDbLine
 10
-2010.704638027943
 20
1762.409180486632
 30
0.0
 11
-2010.704638027943
 21
1753.987810368679
 31
0.0
  0
LINE
  5
1294C
330
12929
100
AcDbEntity
  8
SUNPOU
 62
     1
100
AcDbLine
 10
-1981.201703057447
 20
1761.409180486632
 30
0.0
 11
-1981.201703057447
 21
1753.987810368679
 31
0.0
  0
LINE
  5
1294D
330
12929
100
AcDbEntity
  8
SUNPOU
 62
     1
100
AcDbLine
 10
-2007.704638027944
 20
1754.487810368678
 30
0.0
 11
-1984.201703057446
 21
1754.487810368678
 31
0.0
  0
SOLID
  5
1294E
330
12929
100
AcDbEntity
  8
SUNPOU
 62
     1
100
AcDbTrace
 10
-2007.704638027944
 20
1754.987810368677
 30
0.0
 11
-2007.704638027944
 21
1753.987810368679
 31
0.0
 12
-2010.704638027943
 22
1754.487810368678
 32
0.0
 13
-2010.704638027943
 23
1754.487810368678
 33
0.0
  0
SOLID
  5
1294F
330
12929
100
AcDbEntity
  8
SUNPOU
 62
     1
100
AcDbTrace
 10
-1984.201703057446
 20
1754.987810368677
 30
0.0
 11
-1984.201703057446
 21
1753.987810368679
 31
0.0
 12
-1981.201703057447
 22
1754.487810368678
 32
0.0
 13
-1981.201703057447
 23
1754.487810368678
 33
0.0
  0
MTEXT
  5
12950
330
12929
100
AcDbEntity
  8
SUNPOU
 62
     1
100
AcDbMText
 10
-1995.953170542696
 20
1757.237810368678
 30
0.0
 40
3.5
 41
0.0
 71
     5
 72
     1
  1
\A1;29.5
  7
ゴシック体
1001
ACAD
1000
MTEXTBEGIN
1070
    73
1070
     1
1070
    44
1040
1.0
1070
    74
1070
     0
1000
MTEXTEND
  0
POINT
  5
12951
330
12929
100
AcDbEntity
  8
DEFPOINTS
 62
     0
100
AcDbPoint
 10
-2010.704638027943
 20
1762.909180486632
 30
0.0
  0
POINT
  5
12952
330
12929
100
AcDbEntity
  8
DEFPOINTS
 62
     0
100
AcDbPoint
 10
-1981.201703057447
 20
1761.909180486632
 30
0.0
  0
POINT
  5
12953
330
12929
100
AcDbEntity
  8
DEFPOINTS
 62
     0
100
AcDbPoint
 10
-1981.201703057447
 20
1754.487810368678
 30
0.0
  0
ENDBLK
  5
12934
330
12929
100
AcDbEntity
  8
0
100
AcDbBlockEnd
  0
BLOCK
  5
12940
330
12936
100
AcDbEntity
  8
0
100
AcDbBlockBegin
  2
*D28
 70
     1
 10
0.0
 20
0.0
 30
0.0
  3
*D28
  1

  0
LINE
  5
1295D
330
12936
100
AcDbEntity
  8
SUNPOU
 62
     1
100
AcDbLine
 10
-1961.201703057446
 20
1754.987810368677
 30
0.0
 11
-1961.201703057446
 21
1753.987810368679
 31
0.0
  0
LINE
  5
1295E
330
12936
100
AcDbEntity
  8
SUNPOU
 62
     1
100
AcDbLine
 10
-1931.704638027944
 20
1838.409180486632
 30
0.0
 11
-1931.704638027944
 21
1753.987810368679
 31
0.0
  0
LINE
  5
1295F
330
12936
100
AcDbEntity
  8
SUNPOU
 62
     1
100
AcDbLine
 10
-1958.201703057445
 20
1754.487810368678
 30
0.0
 11
-1934.704638027944
 21
1754.487810368678
 31
0.0
  0
SOLID
  5
12960
330
12936
100
AcDbEntity
  8
SUNPOU
 62
     1
100
AcDbTrace
 10
-1958.201703057445
 20
1754.987810368677
 30
0.0
 11
-1958.201703057445
 21
1753.987810368679
 31
0.0
 12
-1961.201703057446
 22
1754.487810368678
 32
0.0
 13
-1961.201703057446
 23
1754.487810368678
 33
0.0
  0
SOLID
  5
12961
330
12936
100
AcDbEntity
  8
SUNPOU
 62
     1
100
AcDbTrace
 10
-1934.704638027944
 20
1754.987810368677
 30
0.0
 11
-1934.704638027944
 21
1753.987810368679
 31
0.0
 12
-1931.704638027944
 22
1754.487810368678
 32
0.0
 13
-1931.704638027944
 23
1754.487810368678
 33
0.0
  0
MTEXT
  5
12962
330
12936
100
AcDbEntity
  8
SUNPOU
 62
     1
100
AcDbMText
 10
-1946.453170542696
 20
1757.237810368678
 30
0.0
 40
3.5
 41
0.0
 71
     5
 72
     1
  1
\A1;29.5
  7
ゴシック体
1001
ACAD
1000
MTEXTBEGIN
1070
    73
1070
     1
1070
    44
1040
1.0
1070
    74
1070
     0
1000
MTEXTEND
  0
POINT
  5
12963
330
12936
100
AcDbEntity
  8
DEFPOINTS
 62
     0
100
AcDbPoint
 10
-1961.201703057446
 20
1755.487810368679
 30
0.0
  0
POINT
  5
12964
330
12936
100
AcDbEntity
  8
DEFPOINTS
 62
     0
100
AcDbPoint
 10
-1931.704638027944
 20
1838.909180486632
 30
0.0
  0
POINT
  5
12965
330
12936
100
AcDbEntity
  8
DEFPOINTS
 62
     0
100
AcDbPoint
 10
-1931.704638027944
 20
1754.487810368678
 30
0.0
  0
ENDBLK
  5
12941
330
12936
100
AcDbEntity
  8
0
100
AcDbBlockEnd
  0
BLOCK
  5
12971
330
12967
100
AcDbEntity
  8
0
100
AcDbBlockBegin
  2
*D29
 70
     1
 10
0.0
 20
0.0
 30
0.0
  3
*D29
  1

  0
LINE
  5
12968
330
12967
100
AcDbEntity
  8
SUNPOU
 62
     1
100
AcDbLine
 10
-2003.704638027943
 20
1761.409180486632
 30
0.0
 11
-2003.704638027943
 21
1746.216974264703
 31
0.0
  0
LINE
  5
12969
330
12967
100
AcDbEntity
  8
SUNPOU
 62
     1
100
AcDbLine
 10
-1938.704638027942
 20
1762.409180486632
 30
0.0
 11
-1938.704638027942
 21
1746.216974264703
 31
0.0
  0
LINE
  5
1296A
330
12967
100
AcDbEntity
  8
SUNPOU
 62
     1
100
AcDbLine
 10
-2000.704638027944
 20
1746.716974264703
 30
0.0
 11
-1941.704638027944
 21
1746.716974264703
 31
0.0
  0
SOLID
  5
1296B
330
12967
100
AcDbEntity
  8
SUNPOU
 62
     1
100
AcDbTrace
 10
-2000.704638027944
 20
1747.216974264703
 30
0.0
 11
-2000.704638027944
 21
1746.216974264703
 31
0.0
 12
-2003.704638027943
 22
1746.716974264703
 32
0.0
 13
-2003.704638027943
 23
1746.716974264703
 33
0.0
  0
SOLID
  5
1296C
330
12967
100
AcDbEntity
  8
SUNPOU
 62
     1
100
AcDbTrace
 10
-1941.704638027944
 20
1747.216974264703
 30
0.0
 11
-1941.704638027944
 21
1746.216974264703
 31
0.0
 12
-1938.704638027942
 22
1746.716974264703
 32
0.0
 13
-1938.704638027942
 23
1746.716974264703
 33
0.0
  0
MTEXT
  5
1296D
330
12967
100
AcDbEntity
  8
SUNPOU
 62
     1
100
AcDbMText
 10
-1971.204638027943
 20
1749.466974264703
 30
0.0
 40
3.5
 41
0.0
 71
     5
 72
     1
  1
\A1;65
  7
ゴシック体
1001
ACAD
1000
MTEXTBEGIN
1070
    73
1070
     1
1070
    44
1040
1.0
1070
    74
1070
     0
1000
MTEXTEND
  0
POINT
  5
1296E
330
12967
100
AcDbEntity
  8
DEFPOINTS
 62
     0
100
AcDbPoint
 10
-2003.704638027943
 20
1761.909180486632
 30
0.0
  0
POINT
  5
1296F
330
12967
100
AcDbEntity
  8
DEFPOINTS
 62
     0
100
AcDbPoint
 10
-1938.704638027942
 20
1762.909180486632
 30
0.0
  0
POINT
  5
12970
330
12967
100
AcDbEntity
  8
DEFPOINTS
 62
     0
100
AcDbPoint
 10
-1938.704638027942
 20
1746.716974264703
 30
0.0
  0
ENDBLK
  5
12972
330
12967
100
AcDbEntity
  8
0
100
AcDbBlockEnd
  0
BLOCK
  5
12980
330
12974
100
AcDbEntity
  8
0
100
AcDbBlockBegin
  2
*D30
 70
     1
 10
0.0
 20
0.0
 30
0.0
  3
*D30
  1

  0
LINE
  5
12982
330
12974
100
AcDbEntity
  8
SUNPOU
 62
     1
100
AcDbLine
 10
-2010.704638027943
 20
1762.409180486632
 30
0.0
 11
-2010.704638027943
 21
1746.216974264703
 31
0.0
  0
LINE
  5
12983
330
12974
100
AcDbEntity
  8
SUNPOU
 62
     1
100
AcDbLine
 10
-2003.704638027943
 20
1760.909180486632
 30
0.0
 11
-2003.704638027943
 21
1746.216974264703
 31
0.0
  0
LINE
  5
12984
330
12974
100
AcDbEntity
  8
SUNPOU
 62
     1
100
AcDbLine
 10
-2000.704638027944
 20
1746.716974264703
 30
0.0
 11
-1997.704638027943
 21
1746.716974264703
 31
0.0
  0
LINE
  5
12985
330
12974
100
AcDbEntity
  8
SUNPOU
 62
     1
100
AcDbLine
 10
-2013.704638027943
 20
1746.716974264703
 30
0.0
 11
-2020.392455286827
 21
1746.716974264703
 31
0.0
  0
LINE
  5
12986
330
12974
100
AcDbEntity
  8
SUNPOU
 62
     1
100
AcDbLine
 10
-2003.704638027943
 20
1746.716974264703
 30
0.0
 11
-2010.704638027943
 21
1746.716974264703
 31
0.0
  0
SOLID
  5
12987
330
12974
100
AcDbEntity
  8
SUNPOU
 62
     1
100
AcDbTrace
 10
-2000.704638027944
 20
1747.216974264703
 30
0.0
 11
-2000.704638027944
 21
1746.216974264703
 31
0.0
 12
-2003.704638027943
 22
1746.716974264703
 32
0.0
 13
-2003.704638027943
 23
1746.716974264703
 33
0.0
  0
SOLID
  5
12988
330
12974
100
AcDbEntity
  8
SUNPOU
 62
     1
100
AcDbTrace
 10
-2013.704638027943
 20
1747.216974264703
 30
0.0
 11
-2013.704638027943
 21
1746.216974264703
 31
0.0
 12
-2010.704638027943
 22
1746.716974264703
 32
0.0
 13
-2010.704638027943
 23
1746.716974264703
 33
0.0
  0
MTEXT
  5
12989
330
12974
100
AcDbEntity
  8
SUNPOU
 62
     1
100
AcDbMText
 10
-2018.548546657386
 20
1749.466974264703
 30
0.0
 40
3.5
 41
0.0
 71
     5
 72
     1
  1
\A1;7
  7
ゴシック体
1001
ACAD
1000
MTEXTBEGIN
1070
    73
1070
     1
1070
    44
1040
1.0
1070
    74
1070
     0
1000
MTEXTEND
  0
POINT
  5
1298A
330
12974
100
AcDbEntity
  8
DEFPOINTS
 62
     0
100
AcDbPoint
 10
-2010.704638027943
 20
1762.909180486632
 30
0.0
  0
POINT
  5
1298B
330
12974
100
AcDbEntity
  8
DEFPOINTS
 62
     0
100
AcDbPoint
 10
-2003.704638027943
 20
1761.409180486632
 30
0.0
  0
POINT
  5
1298C
330
12974
100
AcDbEntity
  8
DEFPOINTS
 62
     0
100
AcDbPoint
 10
-2003.704638027943
 20
1746.716974264703
 30
0.0
  0
ENDBLK
  5
12981
330
12974
100
AcDbEntity
  8
0
100
AcDbBlockEnd
  0
BLOCK
  5
1299A
330
1298E
100
AcDbEntity
  8
0
100
AcDbBlockBegin
  2
*D31
 70
     1
 10
0.0
 20
0.0
 30
0.0
  3
*D31
  1

  0
LINE
  5
129B2
330
1298E
100
AcDbEntity
  8
SUNPOU
 62
     1
100
AcDbLine
 10
-1938.704638027942
 20
1761.909180486632
 30
0.0
 11
-1938.704638027942
 21
1746.216974264703
 31
0.0
  0
LINE
  5
129B3
330
1298E
100
AcDbEntity
  8
SUNPOU
 62
     1
100
AcDbLine
 10
-1931.704638027944
 20
1838.409180486632
 30
0.0
 11
-1931.704638027944
 21
1746.216974264703
 31
0.0
  0
LINE
  5
129B4
330
1298E
100
AcDbEntity
  8
SUNPOU
 62
     1
100
AcDbLine
 10
-1941.704638027944
 20
1746.716974264703
 30
0.0
 11
-1944.704638027944
 21
1746.716974264703
 31
0.0
  0
LINE
  5
129B5
330
1298E
100
AcDbEntity
  8
SUNPOU
 62
     1
100
AcDbLine
 10
-1928.704638027944
 20
1746.716974264703
 30
0.0
 11
-1922.016820769061
 21
1746.716974264703
 31
0.0
  0
LINE
  5
129B6
330
1298E
100
AcDbEntity
  8
SUNPOU
 62
     1
100
AcDbLine
 10
-1938.704638027942
 20
1746.716974264703
 30
0.0
 11
-1931.704638027944
 21
1746.716974264703
 31
0.0
  0
SOLID
  5
129B7
330
1298E
100
AcDbEntity
  8
SUNPOU
 62
     1
100
AcDbTrace
 10
-1941.704638027944
 20
1747.216974264703
 30
0.0
 11
-1941.704638027944
 21
1746.216974264703
 31
0.0
 12
-1938.704638027942
 22
1746.716974264703
 32
0.0
 13
-1938.704638027942
 23
1746.716974264703
 33
0.0
  0
SOLID
  5
129B8
330
1298E
100
AcDbEntity
  8
SUNPOU
 62
     1
100
AcDbTrace
 10
-1928.704638027944
 20
1747.216974264703
 30
0.0
 11
-1928.704638027944
 21
1746.216974264703
 31
0.0
 12
-1931.704638027944
 22
1746.716974264703
 32
0.0
 13
-1931.704638027944
 23
1746.716974264703
 33
0.0
  0
MTEXT
  5
129B9
330
1298E
100
AcDbEntity
  8
SUNPOU
 62
     1
100
AcDbMText
 10
-1923.860729398503
 20
1749.466974264703
 30
0.0
 40
3.5
 41
0.0
 71
     5
 72
     1
  1
\A1;7
  7
ゴシック体
1001
ACAD
1000
MTEXTBEGIN
1070
    73
1070
     1
1070
    44
1040
1.0
1070
    74
1070
     0
1000
MTEXTEND
  0
POINT
  5
129BA
330
1298E
100
AcDbEntity
  8
DEFPOINTS
 62
     0
100
AcDbPoint
 10
-1938.704638027942
 20
1762.409180486632
 30
0.0
  0
POINT
  5
129BB
330
1298E
100
AcDbEntity
  8
DEFPOINTS
 62
     0
100
AcDbPoint
 10
-1931.704638027944
 20
1838.909180486632
 30
0.0
  0
POINT
  5
129BC
330
1298E
100
AcDbEntity
  8
DEFPOINTS
 62
     0
100
AcDbPoint
 10
-1931.704638027944
 20
1746.716974264703
 30
0.0
  0
ENDBLK
  5
1299B
330
1298E
100
AcDbEntity
  8
0
100
AcDbBlockEnd
  0
BLOCK
  5
129CA
330
129BE
100
AcDbEntity
  8
0
100
AcDbBlockBegin
  2
*D32
 70
     1
 10
0.0
 20
0.0
 30
0.0
  3
*D32
  1

  0
LINE
  5
12B5A
330
129BE
100
AcDbEntity
  8
SUNPOU
 62
     1
100
AcDbLine
 10
-2010.704638027943
 20
1762.409180486632
 30
0.0
 11
-2010.704638027943
 21
1730.586232407741
 31
0.0
  0
LINE
  5
12B5B
330
129BE
100
AcDbEntity
  8
SUNPOU
 62
     1
100
AcDbLine
 10
-2007.704638027944
 20
1761.236490251809
 30
0.0
 11
-2007.704638027944
 21
1730.586232407741
 31
0.0
  0
LINE
  5
12B5C
330
129BE
100
AcDbEntity
  8
SUNPOU
 62
     1
100
AcDbLine
 10
-2004.704638027944
 20
1731.086232407741
 30
0.0
 11
-2001.704638027943
 21
1731.086232407741
 31
0.0
  0
LINE
  5
12B5D
330
129BE
100
AcDbEntity
  8
SUNPOU
 62
     1
100
AcDbLine
 10
-2013.704638027943
 20
1731.086232407741
 30
0.0
 11
-2020.516820769061
 21
1731.086232407741
 31
0.0
  0
LINE
  5
12B5E
330
129BE
100
AcDbEntity
  8
SUNPOU
 62
     1
100
AcDbLine
 10
-2007.704638027944
 20
1731.086232407741
 30
0.0
 11
-2010.704638027943
 21
1731.086232407741
 31
0.0
  0
SOLID
  5
12B5F
330
129BE
100
AcDbEntity
  8
SUNPOU
 62
     1
100
AcDbTrace
 10
-2004.704638027944
 20
1731.586232407741
 30
0.0
 11
-2004.704638027944
 21
1730.586232407741
 31
0.0
 12
-2007.704638027944
 22
1731.086232407741
 32
0.0
 13
-2007.704638027944
 23
1731.086232407741
 33
0.0
  0
SOLID
  5
12B60
330
129BE
100
AcDbEntity
  8
SUNPOU
 62
     1
100
AcDbTrace
 10
-2013.704638027943
 20
1731.586232407741
 30
0.0
 11
-2013.704638027943
 21
1730.586232407741
 31
0.0
 12
-2010.704638027943
 22
1731.086232407741
 32
0.0
 13
-2010.704638027943
 23
1731.086232407741
 33
0.0
  0
MTEXT
  5
12B61
330
129BE
100
AcDbEntity
  8
SUNPOU
 62
     1
100
AcDbMText
 10
-2018.610729398502
 20
1733.836232407741
 30
0.0
 40
3.5
 41
0.0
 71
     5
 72
     1
  1
\A1;3
  7
ゴシック体
1001
ACAD
1000
MTEXTBEGIN
1070
    73
1070
     1
1070
    44
1040
1.0
1070
    74
1070
     0
1000
MTEXTEND
  0
POINT
  5
12B62
330
129BE
100
AcDbEntity
  8
DEFPOINTS
 62
     0
100
AcDbPoint
 10
-2010.704638027943
 20
1762.909180486632
 30
0.0
  0
POINT
  5
12B63
330
129BE
100
AcDbEntity
  8
DEFPOINTS
 62
     0
100
AcDbPoint
 10
-2007.704638027944
 20
1761.736490251809
 30
0.0
  0
POINT
  5
12B64
330
129BE
100
AcDbEntity
  8
DEFPOINTS
 62
     0
100
AcDbPoint
 10
-2007.704638027944
 20
1731.086232407741
 30
0.0
  0
ENDBLK
  5
129CB
330
129BE
100
AcDbEntity
  8
0
100
AcDbBlockEnd
  0
BLOCK
  5
12A0E
330
12A04
100
AcDbEntity
  8
0
100
AcDbBlockBegin
  2
*D33
 70
     1
 10
0.0
 20
0.0
 30
0.0
  3
*D33
  1

  0
LINE
  5
12A89
330
12A04
100
AcDbEntity
  8
SUNPOU
 62
     1
100
AcDbLine
 10
-2007.704638027944
 20
1761.409180486632
 30
0.0
 11
-2007.704638027944
 21
1730.586232407741
 31
0.0
  0
LINE
  5
12A8A
330
12A04
100
AcDbEntity
  8
SUNPOU
 62
     1
100
AcDbLine
 10
-1934.704638027944
 20
1837.409180486632
 30
0.0
 11
-1934.704638027944
 21
1730.586232407741
 31
0.0
  0
LINE
  5
12A8B
330
12A04
100
AcDbEntity
  8
SUNPOU
 62
     1
100
AcDbLine
 10
-2004.704638027944
 20
1731.086232407741
 30
0.0
 11
-1937.704638027943
 21
1731.086232407741
 31
0.0
  0
SOLID
  5
12A8C
330
12A04
100
AcDbEntity
  8
SUNPOU
 62
     1
100
AcDbTrace
 10
-2004.704638027944
 20
1731.586232407741
 30
0.0
 11
-2004.704638027944
 21
1730.586232407741
 31
0.0
 12
-2007.704638027944
 22
1731.086232407741
 32
0.0
 13
-2007.704638027944
 23
1731.086232407741
 33
0.0
  0
SOLID
  5
12A8D
330
12A04
100
AcDbEntity
  8
SUNPOU
 62
     1
100
AcDbTrace
 10
-1937.704638027943
 20
1731.586232407741
 30
0.0
 11
-1937.704638027943
 21
1730.586232407741
 31
0.0
 12
-1934.704638027944
 22
1731.086232407741
 32
0.0
 13
-1934.704638027944
 23
1731.086232407741
 33
0.0
  0
MTEXT
  5
12A8E
330
12A04
100
AcDbEntity
  8
SUNPOU
 62
     1
100
AcDbMText
 10
-1971.204638027943
 20
1733.836232407741
 30
0.0
 40
3.5
 41
0.0
 71
     5
 72
     1
  1
\A1;73
  7
ゴシック体
1001
ACAD
1000
MTEXTBEGIN
1070
    73
1070
     1
1070
    44
1040
1.0
1070
    74
1070
     0
1000
MTEXTEND
  0
POINT
  5
12A8F
330
12A04
100
AcDbEntity
  8
DEFPOINTS
 62
     0
100
AcDbPoint
 10
-2007.704638027944
 20
1761.909180486632
 30
0.0
  0
POINT
  5
12A90
330
12A04
100
AcDbEntity
  8
DEFPOINTS
 62
     0
100
AcDbPoint
 10
-1934.704638027944
 20
1837.909180486632
 30
0.0
  0
POINT
  5
12A91
330
12A04
100
AcDbEntity
  8
DEFPOINTS
 62
     0
100
AcDbPoint
 10
-1934.704638027944
 20
1731.086232407741
 30
0.0
  0
ENDBLK
  5
12A0F
330
12A04
100
AcDbEntity
  8
0
100
AcDbBlockEnd
  0
BLOCK
  5
12A5F
330
12A55
100
AcDbEntity
  8
0
100
AcDbBlockBegin
  2
*D34
 70
     1
 10
0.0
 20
0.0
 30
0.0
  3
*D34
  1

  0
LINE
  5
12A80
330
12A55
100
AcDbEntity
  8
SUNPOU
 62
     1
100
AcDbLine
 10
-2009.704638027943
 20
1814.409180486632
 30
0.0
 11
-2009.704638027943
 21
1738.833309235213
 31
0.0
  0
LINE
  5
12A81
330
12A55
100
AcDbEntity
  8
SUNPOU
 62
     1
100
AcDbLine
 10
-1938.704638027942
 20
1762.409180486632
 30
0.0
 11
-1938.704638027942
 21
1738.833309235213
 31
0.0
  0
LINE
  5
12A82
330
12A55
100
AcDbEntity
  8
SUNPOU
 62
     1
100
AcDbLine
 10
-2006.704638027943
 20
1739.333309235211
 30
0.0
 11
-1941.704638027944
 21
1739.333309235211
 31
0.0
  0
SOLID
  5
12A83
330
12A55
100
AcDbEntity
  8
SUNPOU
 62
     1
100
AcDbTrace
 10
-2006.704638027943
 20
1739.833309235212
 30
0.0
 11
-2006.704638027943
 21
1738.833309235213
 31
0.0
 12
-2009.704638027943
 22
1739.333309235211
 32
0.0
 13
-2009.704638027943
 23
1739.333309235211
 33
0.0
  0
SOLID
  5
12A84
330
12A55
100
AcDbEntity
  8
SUNPOU
 62
     1
100
AcDbTrace
 10
-1941.704638027944
 20
1739.833309235212
 30
0.0
 11
-1941.704638027944
 21
1738.833309235213
 31
0.0
 12
-1938.704638027942
 22
1739.333309235211
 32
0.0
 13
-1938.704638027942
 23
1739.333309235211
 33
0.0
  0
MTEXT
  5
12A85
330
12A55
100
AcDbEntity
  8
SUNPOU
 62
     1
100
AcDbMText
 10
-1974.204638027944
 20
1742.083309235213
 30
0.0
 40
3.5
 41
0.0
 71
     5
 72
     1
  1
\A1;71
  7
ゴシック体
1001
ACAD
1000
MTEXTBEGIN
1070
    73
1070
     1
1070
    44
1040
1.0
1070
    74
1070
     0
1000
MTEXTEND
  0
POINT
  5
12A86
330
12A55
100
AcDbEntity
  8
DEFPOINTS
 62
     0
100
AcDbPoint
 10
-2009.704638027943
 20
1814.909180486631
 30
0.0
  0
POINT
  5
12A87
330
12A55
100
AcDbEntity
  8
DEFPOINTS
 62
     0
100
AcDbPoint
 10
-1938.704638027942
 20
1762.909180486632
 30
0.0
  0
POINT
  5
12A88
330
12A55
100
AcDbEntity
  8
DEFPOINTS
 62
     0
100
AcDbPoint
 10
-1938.704638027942
 20
1739.333309235211
 30
0.0
  0
ENDBLK
  5
12A60
330
12A55
100
AcDbEntity
  8
0
100
AcDbBlockEnd
  0
BLOCK
  5
12AA8
330
12A9E
100
AcDbEntity
  8
0
100
AcDbBlockBegin
  2
*D35
 70
     1
 10
0.0
 20
0.0
 30
0.0
  3
*D35
  1

  0
LINE
  5
12ABC
330
12A9E
100
AcDbEntity
  8
SUNPOU
 62
     1
100
AcDbLine
 10
-2010.704638027943
 20
1762.409180486632
 30
0.0
 11
-2010.704638027943
 21
1722.002016759606
 31
0.0
  0
LINE
  5
12ABD
330
12A9E
100
AcDbEntity
  8
SUNPOU
 62
     1
100
AcDbLine
 10
-1931.704638027944
 20
1838.409180486632
 30
0.0
 11
-1931.704638027944
 21
1722.002016759606
 31
0.0
  0
LINE
  5
12ABE
330
12A9E
100
AcDbEntity
  8
SUNPOU
 62
     1
100
AcDbLine
 10
-2007.704638027944
 20
1722.502016759607
 30
0.0
 11
-1934.704638027944
 21
1722.502016759607
 31
0.0
  0
SOLID
  5
12ABF
330
12A9E
100
AcDbEntity
  8
SUNPOU
 62
     1
100
AcDbTrace
 10
-2007.704638027944
 20
1723.002016759607
 30
0.0
 11
-2007.704638027944
 21
1722.002016759606
 31
0.0
 12
-2010.704638027943
 22
1722.502016759607
 32
0.0
 13
-2010.704638027943
 23
1722.502016759607
 33
0.0
  0
SOLID
  5
12AC0
330
12A9E
100
AcDbEntity
  8
SUNPOU
 62
     1
100
AcDbTrace
 10
-1934.704638027944
 20
1723.002016759607
 30
0.0
 11
-1934.704638027944
 21
1722.002016759606
 31
0.0
 12
-1931.704638027944
 22
1722.502016759607
 32
0.0
 13
-1931.704638027944
 23
1722.502016759607
 33
0.0
  0
MTEXT
  5
12AC1
330
12A9E
100
AcDbEntity
  8
SUNPOU
 62
     1
100
AcDbMText
 10
-1971.204638027943
 20
1725.252016759607
 30
0.0
 40
3.5
 41
0.0
 71
     5
 72
     1
  1
\A1;79
  7
ゴシック体
1001
ACAD
1000
MTEXTBEGIN
1070
    73
1070
     1
1070
    44
1040
1.0
1070
    74
1070
     0
1000
MTEXTEND
  0
POINT
  5
12AC2
330
12A9E
100
AcDbEntity
  8
DEFPOINTS
 62
     0
100
AcDbPoint
 10
-2010.704638027943
 20
1762.909180486632
 30
0.0
  0
POINT
  5
12AC3
330
12A9E
100
AcDbEntity
  8
DEFPOINTS
 62
     0
100
AcDbPoint
 10
-1931.704638027944
 20
1838.909180486632
 30
0.0
  0
POINT
  5
12AC4
330
12A9E
100
AcDbEntity
  8
DEFPOINTS
 62
     0
100
AcDbPoint
 10
-1931.704638027944
 20
1722.502016759607
 30
0.0
  0
ENDBLK
  5
12AA9
330
12A9E
100
AcDbEntity
  8
0
100
AcDbBlockEnd
  0
BLOCK
  5
12ADD
330
12AD1
100
AcDbEntity
  8
0
100
AcDbBlockBegin
  2
*D36
 70
     1
 10
0.0
 20
0.0
 30
0.0
  3
*D36
  1

  0
LINE
  5
12AD2
330
12AD1
100
AcDbEntity
  8
SUNPOU
 62
     1
100
AcDbLine
 10
-1939.204638027943
 20
1761.909180486632
 30
0.0
 11
-1923.638023639636
 21
1761.909180486632
 31
0.0
  0
LINE
  5
12AD3
330
12AD1
100
AcDbEntity
  8
SUNPOU
 62
     1
100
AcDbLine
 10
-2001.859257558299
 20
1765.909180486632
 30
0.0
 11
-1923.638023639636
 21
1765.909180486632
 31
0.0
  0
LINE
  5
12AD4
330
12AD1
100
AcDbEntity
  8
SUNPOU
 62
     1
100
AcDbLine
 10
-1924.138023639636
 20
1758.909180486632
 30
0.0
 11
-1924.138023639636
 21
1755.90918048663
 31
0.0
  0
LINE
  5
12AD5
330
12AD1
100
AcDbEntity
  8
SUNPOU
 62
     1
100
AcDbLine
 10
-1924.138023639636
 20
1768.909180486632
 30
0.0
 11
-1924.138023639636
 21
1771.90918048663
 31
0.0
  0
LINE
  5
12AD6
330
12AD1
100
AcDbEntity
  8
SUNPOU
 62
     1
100
AcDbLine
 10
-1924.138023639636
 20
1761.909180486632
 30
0.0
 11
-1924.138023639636
 21
1765.909180486632
 31
0.0
  0
SOLID
  5
12AD7
330
12AD1
100
AcDbEntity
  8
SUNPOU
 62
     1
100
AcDbTrace
 10
-1924.638023639635
 20
1758.909180486632
 30
0.0
 11
-1923.638023639636
 21
1758.909180486632
 31
0.0
 12
-1924.138023639636
 22
1761.909180486632
 32
0.0
 13
-1924.138023639636
 23
1761.909180486632
 33
0.0
  0
SOLID
  5
12AD8
330
12AD1
100
AcDbEntity
  8
SUNPOU
 62
     1
100
AcDbTrace
 10
-1924.638023639635
 20
1768.909180486632
 30
0.0
 11
-1923.638023639636
 21
1768.909180486632
 31
0.0
 12
-1924.138023639636
 22
1765.909180486632
 32
0.0
 13
-1924.138023639636
 23
1765.909180486632
 33
0.0
  0
MTEXT
  5
12AD9
330
12AD1
100
AcDbEntity
  8
SUNPOU
 62
     1
100
AcDbMText
 10
-1926.888023639637
 20
1763.909180486631
 30
0.0
 40
3.5
 41
0.0
 71
     5
 72
     1
  1
\A1;4
  7
ゴシック体
 11
0.0000000000000001
 21
1.0
 31
0.0
1001
ACAD
1000
MTEXTBEGIN
1070
    73
1070
     1
1070
    44
1040
1.0
1070
    74
1070
     0
1000
MTEXTEND
  0
POINT
  5
12ADA
330
12AD1
100
AcDbEntity
  8
DEFPOINTS
 62
     0
100
AcDbPoint
 10
-1939.704638027944
 20
1761.909180486632
 30
0.0
  0
POINT
  5
12ADB
330
12AD1
100
AcDbEntity
  8
DEFPOINTS
 62
     0
100
AcDbPoint
 10
-2002.359257558298
 20
1765.909180486632
 30
0.0
  0
POINT
  5
12ADC
330
12AD1
100
AcDbEntity
  8
DEFPOINTS
 62
     0
100
AcDbPoint
 10
-1924.138023639636
 20
1765.909180486632
 30
0.0
  0
ENDBLK
  5
12ADE
330
12AD1
100
AcDbEntity
  8
0
100
AcDbBlockEnd
  0
BLOCK
  5
12AEA
330
12AE0
100
AcDbEntity
  8
0
100
AcDbBlockBegin
  2
*D37
 70
     1
 10
0.0
 20
0.0
 30
0.0
  3
*D37
  1

  0
LINE
  5
12AE1
330
12AE0
100
AcDbEntity
  8
SUNPOU
 62
     1
100
AcDbLine
 10
-1938.204638027944
 20
1765.909180486632
 30
0.0
 11
-1923.638023639636
 21
1765.909180486632
 31
0.0
  0
LINE
  5
12AE2
330
12AE0
100
AcDbEntity
  8
SUNPOU
 62
     1
100
AcDbLine
 10
-1929.204638027944
 20
1842.909180486632
 30
0.0
 11
-1923.638023639636
 21
1842.909180486632
 31
0.0
  0
LINE
  5
12AE3
330
12AE0
100
AcDbEntity
  8
SUNPOU
 62
     1
100
AcDbLine
 10
-1924.138023639636
 20
1768.909180486632
 30
0.0
 11
-1924.138023639636
 21
1839.909180486632
 31
0.0
  0
SOLID
  5
12AE4
330
12AE0
100
AcDbEntity
  8
SUNPOU
 62
     1
100
AcDbTrace
 10
-1924.638023639635
 20
1768.909180486632
 30
0.0
 11
-1923.638023639636
 21
1768.909180486632
 31
0.0
 12
-1924.138023639636
 22
1765.909180486632
 32
0.0
 13
-1924.138023639636
 23
1765.909180486632
 33
0.0
  0
SOLID
  5
12AE5
330
12AE0
100
AcDbEntity
  8
SUNPOU
 62
     1
100
AcDbTrace
 10
-1924.638023639635
 20
1839.909180486632
 30
0.0
 11
-1923.638023639636
 21
1839.909180486632
 31
0.0
 12
-1924.138023639636
 22
1842.909180486632
 32
0.0
 13
-1924.138023639636
 23
1842.909180486632
 33
0.0
  0
MTEXT
  5
12AE6
330
12AE0
100
AcDbEntity
  8
SUNPOU
 62
     1
100
AcDbMText
 10
-1926.888023639637
 20
1804.40918048663
 30
0.0
 40
3.5
 41
0.0
 71
     5
 72
     1
  1
\A1;77
  7
ゴシック体
 11
0.0000000000000001
 21
1.0
 31
0.0
1001
ACAD
1000
MTEXTBEGIN
1070
    73
1070
     1
1070
    44
1040
1.0
1070
    74
1070
     0
1000
MTEXTEND
  0
POINT
  5
12AE7
330
12AE0
100
AcDbEntity
  8
DEFPOINTS
 62
     0
100
AcDbPoint
 10
-1938.704638027942
 20
1765.909180486632
 30
0.0
  0
POINT
  5
12AE8
330
12AE0
100
AcDbEntity
  8
DEFPOINTS
 62
     0
100
AcDbPoint
 10
-1929.704638027944
 20
1842.909180486632
 30
0.0
  0
POINT
  5
12AE9
330
12AE0
100
AcDbEntity
  8
DEFPOINTS
 62
     0
100
AcDbPoint
 10
-1924.138023639636
 20
1842.909180486632
 30
0.0
  0
ENDBLK
  5
12AEB
330
12AE0
100
AcDbEntity
  8
0
100
AcDbBlockEnd
  0
BLOCK
  5
12AF9
330
12AED
100
AcDbEntity
  8
0
100
AcDbBlockBegin
  2
*D38
 70
     1
 10
0.0
 20
0.0
 30
0.0
  3
*D38
  1

  0
LINE
  5
12AEE
330
12AED
100
AcDbEntity
  8
SUNPOU
 62
     1
100
AcDbLine
 10
-1932.204638027943
 20
1846.909180486631
 30
0.0
 11
-1923.638023639636
 21
1846.909180486631
 31
0.0
  0
LINE
  5
12AEF
330
12AED
100
AcDbEntity
  8
SUNPOU
 62
     1
100
AcDbLine
 10
-1928.704638027944
 20
1842.909180486632
 30
0.0
 11
-1923.638023639636
 21
1842.909180486632
 31
0.0
  0
LINE
  5
12AF0
330
12AED
100
AcDbEntity
  8
SUNPOU
 62
     1
100
AcDbLine
 10
-1924.138023639636
 20
1849.909180486632
 30
0.0
 11
-1924.138023639636
 21
1852.909180486632
 31
0.0
  0
LINE
  5
12AF1
330
12AED
100
AcDbEntity
  8
SUNPOU
 62
     1
100
AcDbLine
 10
-1924.138023639636
 20
1839.909180486632
 30
0.0
 11
-1924.138023639636
 21
1836.909180486632
 31
0.0
  0
LINE
  5
12AF2
330
12AED
100
AcDbEntity
  8
SUNPOU
 62
     1
100
AcDbLine
 10
-1924.138023639636
 20
1846.909180486631
 30
0.0
 11
-1924.138023639636
 21
1842.909180486632
 31
0.0
  0
SOLID
  5
12AF3
330
12AED
100
AcDbEntity
  8
SUNPOU
 62
     1
100
AcDbTrace
 10
-1924.638023639635
 20
1849.909180486632
 30
0.0
 11
-1923.638023639636
 21
1849.909180486632
 31
0.0
 12
-1924.138023639636
 22
1846.909180486631
 32
0.0
 13
-1924.138023639636
 23
1846.909180486631
 33
0.0
  0
SOLID
  5
12AF4
330
12AED
100
AcDbEntity
  8
SUNPOU
 62
     1
100
AcDbTrace
 10
-1924.638023639635
 20
1839.909180486632
 30
0.0
 11
-1923.638023639636
 21
1839.909180486632
 31
0.0
 12
-1924.138023639636
 22
1842.909180486632
 32
0.0
 13
-1924.138023639636
 23
1842.909180486632
 33
0.0
  0
MTEXT
  5
12AF5
330
12AED
100
AcDbEntity
  8
SUNPOU
 62
     1
100
AcDbMText
 10
-1926.888023639637
 20
1844.909180486632
 30
0.0
 40
3.5
 41
0.0
 71
     5
 72
     1
  1
\A1;4
  7
ゴシック体
 11
0.0000000000000001
 21
1.0
 31
0.0
1001
ACAD
1000
MTEXTBEGIN
1070
    73
1070
     1
1070
    44
1040
1.0
1070
    74
1070
     0
1000
MTEXTEND
  0
POINT
  5
12AF6
330
12AED
100
AcDbEntity
  8
DEFPOINTS
 62
     0
100
AcDbPoint
 10
-1932.704638027944
 20
1846.909180486631
 30
0.0
  0
POINT
  5
12AF7
330
12AED
100
AcDbEntity
  8
DEFPOINTS
 62
     0
100
AcDbPoint
 10
-1929.204638027944
 20
1842.909180486632
 30
0.0
  0
POINT
  5
12AF8
330
12AED
100
AcDbEntity
  8
DEFPOINTS
 62
     0
100
AcDbPoint
 10
-1924.138023639636
 20
1842.909180486632
 30
0.0
  0
ENDBLK
  5
12AFA
330
12AED
100
AcDbEntity
  8
0
100
AcDbBlockEnd
  0
BLOCK
  5
12B08
330
12AFC
100
AcDbEntity
  8
0
100
AcDbBlockBegin
  2
*D39
 70
     1
 10
0.0
 20
0.0
 30
0.0
  3
*D39
  1

  0
LINE
  5
12AFD
330
12AFC
100
AcDbEntity
  8
SUNPOU
 62
     1
100
AcDbLine
 10
-1931.704638027944
 20
1846.909180486631
 30
0.0
 11
-1915.412877407199
 21
1846.909180486631
 31
0.0
  0
LINE
  5
12AFE
330
12AFC
100
AcDbEntity
  8
SUNPOU
 62
     1
100
AcDbLine
 10
-1931.204638027944
 20
1838.909180486632
 30
0.0
 11
-1915.412877407199
 21
1838.909180486632
 31
0.0
  0
LINE
  5
12AFF
330
12AFC
100
AcDbEntity
  8
SUNPOU
 62
     1
100
AcDbLine
 10
-1915.912877407199
 20
1849.909180486632
 30
0.0
 11
-1915.912877407199
 21
1852.909180486632
 31
0.0
  0
LINE
  5
12B00
330
12AFC
100
AcDbEntity
  8
SUNPOU
 62
     1
100
AcDbLine
 10
-1915.912877407199
 20
1835.909180486632
 30
0.0
 11
-1915.912877407199
 21
1832.90918048663
 31
0.0
  0
LINE
  5
12B01
330
12AFC
100
AcDbEntity
  8
SUNPOU
 62
     1
100
AcDbLine
 10
-1915.912877407199
 20
1846.909180486631
 30
0.0
 11
-1915.912877407199
 21
1838.909180486632
 31
0.0
  0
SOLID
  5
12B02
330
12AFC
100
AcDbEntity
  8
SUNPOU
 62
     1
100
AcDbTrace
 10
-1916.412877407199
 20
1849.909180486632
 30
0.0
 11
-1915.412877407199
 21
1849.909180486632
 31
0.0
 12
-1915.912877407199
 22
1846.909180486631
 32
0.0
 13
-1915.912877407199
 23
1846.909180486631
 33
0.0
  0
SOLID
  5
12B03
330
12AFC
100
AcDbEntity
  8
SUNPOU
 62
     1
100
AcDbTrace
 10
-1916.412877407199
 20
1835.909180486632
 30
0.0
 11
-1915.412877407199
 21
1835.909180486632
 31
0.0
 12
-1915.912877407199
 22
1838.909180486632
 32
0.0
 13
-1915.912877407199
 23
1838.909180486632
 33
0.0
  0
MTEXT
  5
12B04
330
12AFC
100
AcDbEntity
  8
SUNPOU
 62
     1
100
AcDbMText
 10
-1918.662877407199
 20
1842.909180486631
 30
0.0
 40
3.5
 41
0.0
 71
     5
 72
     1
  1
\A1;8
  7
ゴシック体
 11
0.0000000000000001
 21
1.0
 31
0.0
1001
ACAD
1000
MTEXTBEGIN
1070
    73
1070
     1
1070
    44
1040
1.0
1070
    74
1070
     0
1000
MTEXTEND
  0
POINT
  5
12B05
330
12AFC
100
AcDbEntity
  8
DEFPOINTS
 62
     0
100
AcDbPoint
 10
-1932.204638027943
 20
1846.909180486631
 30
0.0
  0
POINT
  5
12B06
330
12AFC
100
AcDbEntity
  8
DEFPOINTS
 62
     0
100
AcDbPoint
 10
-1931.704638027944
 20
1838.909180486632
 30
0.0
  0
POINT
  5
12B07
330
12AFC
100
AcDbEntity
  8
DEFPOINTS
 62
     0
100
AcDbPoint
 10
-1915.912877407199
 20
1838.909180486632
 30
0.0
  0
ENDBLK
  5
12B09
330
12AFC
100
AcDbEntity
  8
0
100
AcDbBlockEnd
  0
BLOCK
  5
12B15
330
12B0B
100
AcDbEntity
  8
0
100
AcDbBlockBegin
  2
*D40
 70
     1
 10
0.0
 20
0.0
 30
0.0
  3
*D40
  1

  0
LINE
  5
12B0C
330
12B0B
100
AcDbEntity
  8
SUNPOU
 62
     1
100
AcDbLine
 10
-1932.204638027943
 20
1846.909180486631
 30
0.0
 11
-1908.362752065109
 21
1846.909180486631
 31
0.0
  0
LINE
  5
12B0D
330
12B0B
100
AcDbEntity
  8
SUNPOU
 62
     1
100
AcDbLine
 10
-1939.204638027943
 20
1761.909180486632
 30
0.0
 11
-1908.362752065109
 21
1761.909180486632
 31
0.0
  0
LINE
  5
12B0E
330
12B0B
100
AcDbEntity
  8
SUNPOU
 62
     1
100
AcDbLine
 10
-1908.862752065109
 20
1843.909180486632
 30
0.0
 11
-1908.862752065109
 21
1764.909180486632
 31
0.0
  0
SOLID
  5
12B0F
330
12B0B
100
AcDbEntity
  8
SUNPOU
 62
     1
100
AcDbTrace
 10
-1909.362752065107
 20
1843.909180486632
 30
0.0
 11
-1908.362752065109
 21
1843.909180486632
 31
0.0
 12
-1908.862752065109
 22
1846.909180486631
 32
0.0
 13
-1908.862752065109
 23
1846.909180486631
 33
0.0
  0
SOLID
  5
12B10
330
12B0B
100
AcDbEntity
  8
SUNPOU
 62
     1
100
AcDbTrace
 10
-1909.362752065107
 20
1764.909180486632
 30
0.0
 11
-1908.362752065109
 21
1764.909180486632
 31
0.0
 12
-1908.862752065109
 22
1761.909180486632
 32
0.0
 13
-1908.862752065109
 23
1761.909180486632
 33
0.0
  0
MTEXT
  5
12B11
330
12B0B
100
AcDbEntity
  8
SUNPOU
 62
     1
100
AcDbMText
 10
-1911.61275206511
 20
1804.40918048663
 30
0.0
 40
3.5
 41
0.0
 71
     5
 72
     1
  1
\A1;85
  7
ゴシック体
 11
0.0000000000000001
 21
1.0
 31
0.0
1001
ACAD
1000
MTEXTBEGIN
1070
    73
1070
     1
1070
    44
1040
1.0
1070
    74
1070
     0
1000
MTEXTEND
  0
POINT
  5
12B12
330
12B0B
100
AcDbEntity
  8
DEFPOINTS
 62
     0
100
AcDbPoint
 10
-1932.704638027944
 20
1846.909180486631
 30
0.0
  0
POINT
  5
12B13
330
12B0B
100
AcDbEntity
  8
DEFPOINTS
 62
     0
100
AcDbPoint
 10
-1939.704638027944
 20
1761.909180486632
 30
0.0
  0
POINT
  5
12B14
330
12B0B
100
AcDbEntity
  8
DEFPOINTS
 62
     0
100
AcDbPoint
 10
-1908.862752065109
 20
1761.909180486632
 30
0.0
  0
ENDBLK
  5
12B16
330
12B0B
100
AcDbEntity
  8
0
100
AcDbBlockEnd
  0
BLOCK
  5
12B35
330
12B29
100
AcDbEntity
  8
0
100
AcDbBlockBegin
  2
*D41
 70
     1
 10
0.0
 20
0.0
 30
0.0
  3
*D41
  1

  0
LINE
  5
12B42
330
12B29
100
AcDbEntity
  8
SUNPOU
 62
     1
100
AcDbLine
 10
-1848.704638027944
 20
1761.409180486632
 30
0.0
 11
-1848.704638027944
 21
1753.987810368679
 31
0.0
  0
LINE
  5
12B43
330
12B29
100
AcDbEntity
  8
SUNPOU
 62
     1
100
AcDbLine
 10
-1846.704638027943
 20
1761.409180486632
 30
0.0
 11
-1846.704638027943
 21
1753.987810368679
 31
0.0
  0
LINE
  5
12B44
330
12B29
100
AcDbEntity
  8
SUNPOU
 62
     1
100
AcDbLine
 10
-1843.704638027944
 20
1754.487810368678
 30
0.0
 11
-1840.704638027943
 21
1754.487810368678
 31
0.0
  0
LINE
  5
12B45
330
12B29
100
AcDbEntity
  8
SUNPOU
 62
     1
100
AcDbLine
 10
-1851.704638027944
 20
1754.487810368678
 30
0.0
 11
-1858.516820769061
 21
1754.487810368678
 31
0.0
  0
LINE
  5
12B46
330
12B29
100
AcDbEntity
  8
SUNPOU
 62
     1
100
AcDbLine
 10
-1846.704638027943
 20
1754.487810368678
 30
0.0
 11
-1848.704638027944
 21
1754.487810368678
 31
0.0
  0
SOLID
  5
12B47
330
12B29
100
AcDbEntity
  8
SUNPOU
 62
     1
100
AcDbTrace
 10
-1843.704638027944
 20
1754.987810368677
 30
0.0
 11
-1843.704638027944
 21
1753.987810368679
 31
0.0
 12
-1846.704638027943
 22
1754.487810368678
 32
0.0
 13
-1846.704638027943
 23
1754.487810368678
 33
0.0
  0
SOLID
  5
12B48
330
12B29
100
AcDbEntity
  8
SUNPOU
 62
     1
100
AcDbTrace
 10
-1851.704638027944
 20
1754.987810368677
 30
0.0
 11
-1851.704638027944
 21
1753.987810368679
 31
0.0
 12
-1848.704638027944
 22
1754.487810368678
 32
0.0
 13
-1848.704638027944
 23
1754.487810368678
 33
0.0
  0
MTEXT
  5
12B49
330
12B29
100
AcDbEntity
  8
SUNPOU
 62
     1
100
AcDbMText
 10
-1856.610729398502
 20
1757.237810368678
 30
0.0
 40
3.5
 41
0.0
 71
     5
 72
     1
  1
\A1;2
  7
ゴシック体
1001
ACAD
1000
MTEXTBEGIN
1070
    73
1070
     1
1070
    44
1040
1.0
1070
    74
1070
     0
1000
MTEXTEND
  0
POINT
  5
12B4A
330
12B29
100
AcDbEntity
  8
DEFPOINTS
 62
     0
100
AcDbPoint
 10
-1848.704638027944
 20
1761.909180486632
 30
0.0
  0
POINT
  5
12B4B
330
12B29
100
AcDbEntity
  8
DEFPOINTS
 62
     0
100
AcDbPoint
 10
-1846.704638027943
 20
1761.909180486632
 30
0.0
  0
POINT
  5
12B4C
330
12B29
100
AcDbEntity
  8
DEFPOINTS
 62
     0
100
AcDbPoint
 10
-1846.704638027943
 20
1754.487810368678
 30
0.0
  0
ENDBLK
  5
12B36
330
12B29
100
AcDbEntity
  8
0
100
AcDbBlockEnd
  0
BLOCK
  5
12B58
330
12B4E
100
AcDbEntity
  8
0
100
AcDbBlockBegin
  2
*D42
 70
     1
 10
0.0
 20
0.0
 30
0.0
  3
*D42
  1

  0
LINE
  5
12B4F
330
12B4E
100
AcDbEntity
  8
SUNPOU
 62
     1
100
AcDbLine
 10
-1873.203
 20
1761.361445139977
 30
0.0
 11
-1873.203
 21
1746.216974264703
 31
0.0
  0
LINE
  5
12B50
330
12B4E
100
AcDbEntity
  8
SUNPOU
 62
     1
100
AcDbLine
 10
-1846.704638027943
 20
1761.409180486632
 30
0.0
 11
-1846.704638027943
 21
1746.216974264703
 31
0.0
  0
LINE
  5
12B51
330
12B4E
100
AcDbEntity
  8
SUNPOU
 62
     1
100
AcDbLine
 10
-1870.203
 20
1746.716974264703
 30
0.0
 11
-1849.704638027944
 21
1746.716974264703
 31
0.0
  0
SOLID
  5
12B52
330
12B4E
100
AcDbEntity
  8
SUNPOU
 62
     1
100
AcDbTrace
 10
-1870.203
 20
1747.216974264703
 30
0.0
 11
-1870.203
 21
1746.216974264703
 31
0.0
 12
-1873.203
 22
1746.716974264703
 32
0.0
 13
-1873.203
 23
1746.716974264703
 33
0.0
  0
SOLID
  5
12B53
330
12B4E
100
AcDbEntity
  8
SUNPOU
 62
     1
100
AcDbTrace
 10
-1849.704638027944
 20
1747.216974264703
 30
0.0
 11
-1849.704638027944
 21
1746.216974264703
 31
0.0
 12
-1846.704638027943
 22
1746.716974264703
 32
0.0
 13
-1846.704638027943
 23
1746.716974264703
 33
0.0
  0
MTEXT
  5
12B54
330
12B4E
100
AcDbEntity
  8
SUNPOU
 62
     1
100
AcDbMText
 10
-1859.953819013972
 20
1749.466974264703
 30
0.0
 40
3.5
 41
0.0
 71
     5
 72
     1
  1
\A1;26.5
  7
ゴシック体
1001
ACAD
1000
MTEXTBEGIN
1070
    73
1070
     1
1070
    44
1040
1.0
1070
    74
1070
     0
1000
MTEXTEND
  0
POINT
  5
12B55
330
12B4E
100
AcDbEntity
  8
DEFPOINTS
 62
     0
100
AcDbPoint
 10
-1873.203
 20
1761.861445139977
 30
0.0
  0
POINT
  5
12B56
330
12B4E
100
AcDbEntity
  8
DEFPOINTS
 62
     0
100
AcDbPoint
 10
-1846.704638027943
 20
1761.909180486632
 30
0.0
  0
POINT
  5
12B57
330
12B4E
100
AcDbEntity
  8
DEFPOINTS
 62
     0
100
AcDbPoint
 10
-1846.704638027943
 20
1746.716974264703
 30
0.0
  0
ENDBLK
  5
12B59
330
12B4E
100
AcDbEntity
  8
0
100
AcDbBlockEnd
  0
BLOCK
  5
12B9D
330
12B91
100
AcDbEntity
  8
0
100
AcDbBlockBegin
  2
*D43
 70
     1
 10
0.0
 20
0.0
 30
0.0
  3
*D43
  1

  0
LINE
  5
12B92
330
12B91
100
AcDbEntity
  8
SUNPOU
 62
     1
100
AcDbLine
 10
-1934.704638027944
 20
1836.909180486632
 30
0.0
 11
-1934.704638027944
 21
1730.586232407741
 31
0.0
  0
LINE
  5
12B93
330
12B91
100
AcDbEntity
  8
SUNPOU
 62
     1
100
AcDbLine
 10
-1931.704638027944
 20
1837.909180486632
 30
0.0
 11
-1931.704638027944
 21
1730.586232407741
 31
0.0
  0
LINE
  5
12B94
330
12B91
100
AcDbEntity
  8
SUNPOU
 62
     1
100
AcDbLine
 10
-1937.704638027943
 20
1731.086232407741
 30
0.0
 11
-1940.704638027943
 21
1731.086232407741
 31
0.0
  0
LINE
  5
12B95
330
12B91
100
AcDbEntity
  8
SUNPOU
 62
     1
100
AcDbLine
 10
-1928.704638027944
 20
1731.086232407741
 30
0.0
 11
-1921.892455286825
 21
1731.086232407741
 31
0.0
  0
LINE
  5
12B96
330
12B91
100
AcDbEntity
  8
SUNPOU
 62
     1
100
AcDbLine
 10
-1934.704638027944
 20
1731.086232407741
 30
0.0
 11
-1931.704638027944
 21
1731.086232407741
 31
0.0
  0
SOLID
  5
12B97
330
12B91
100
AcDbEntity
  8
SUNPOU
 62
     1
100
AcDbTrace
 10
-1937.704638027943
 20
1731.586232407741
 30
0.0
 11
-1937.704638027943
 21
1730.586232407741
 31
0.0
 12
-1934.704638027944
 22
1731.086232407741
 32
0.0
 13
-1934.704638027944
 23
1731.086232407741
 33
0.0
  0
SOLID
  5
12B98
330
12B91
100
AcDbEntity
  8
SUNPOU
 62
     1
100
AcDbTrace
 10
-1928.704638027944
 20
1731.586232407741
 30
0.0
 11
-1928.704638027944
 21
1730.586232407741
 31
0.0
 12
-1931.704638027944
 22
1731.086232407741
 32
0.0
 13
-1931.704638027944
 23
1731.086232407741
 33
0.0
  0
MTEXT
  5
12B99
330
12B91
100
AcDbEntity
  8
SUNPOU
 62
     1
100
AcDbMText
 10
-1923.798546657386
 20
1733.836232407741
 30
0.0
 40
3.5
 41
0.0
 71
     5
 72
     1
  1
\A1;3
  7
ゴシック体
1001
ACAD
1000
MTEXTBEGIN
1070
    73
1070
     1
1070
    44
1040
1.0
1070
    74
1070
     0
1000
MTEXTEND
  0
POINT
  5
12B9A
330
12B91
100
AcDbEntity
  8
DEFPOINTS
 62
     0
100
AcDbPoint
 10
-1934.704638027944
 20
1837.409180486632
 30
0.0
  0
POINT
  5
12B9B
330
12B91
100
AcDbEntity
  8
DEFPOINTS
 62
     0
100
AcDbPoint
 10
-1931.704638027944
 20
1838.409180486632
 30
0.0
  0
POINT
  5
12B9C
330
12B91
100
AcDbEntity
  8
DEFPOINTS
 62
     0
100
AcDbPoint
 10
-1931.704638027944
 20
1731.086232407741
 30
0.0
  0
ENDBLK
  5
12B9E
330
12B91
100
AcDbEntity
  8
0
100
AcDbBlockEnd
  0
ENDSEC
  0
SECTION
  2
ENTITIES
  0
MTEXT
  5
5084
330
1A
100
AcDbEntity
  8
0
100
AcDbMText
 10
1985.239088685434
 20
-948.5420423450428
 30
0.0
 40
8.0
 41
0.0
 71
     7
 72
     5
  1

1001
ACAD
1000
MTEXTBEGIN
1070
    73
1070
     1
1070
    44
1040
1.0
1070
    74
1070
     0
1000
MTEXTEND
  0
MTEXT
  5
5085
330
1A
100
AcDbEntity
  8
0
100
AcDbMText
 10
4270.596778580329
 20
22.24825240601647
 30
0.0
 40
8.0
 41
0.0
 71
     7
 72
     5
  1

1001
ACAD
1000
MTEXTBEGIN
1070
    73
1070
     1
1070
    44
1040
1.0
1070
    74
1070
     0
1000
MTEXTEND
  0
MTEXT
  5
5343
330
1A
100
AcDbEntity
  8
SUNPOU
100
AcDbMText
 10
6936.493799262471
 20
9534.359644781137
 30
0.0
 40
10.5
 41
0.0
 71
     1
 72
     5
  1

1001
ACAD
1000
MTEXTBEGIN
1070
    73
1070
     1
1070
    44
1040
1.0
1070
    74
1070
     0
1000
MTEXTEND
  0
MTEXT
  5
544F
330
1A
100
AcDbEntity
  8
0
100
AcDbMText
 10
16317.2832773148
 20
12833.35428897674
 30
0.0
 40
8.0
 41
0.0
 71
     7
 72
     5
  1

1001
ACAD
1000
MTEXTBEGIN
1070
    73
1070
     1
1070
    44
1040
1.0
1070
    74
1070
     0
1000
MTEXTEND
  0
MTEXT
  5
5450
330
1A
100
AcDbEntity
  8
0
100
AcDbMText
 10
18602.64096720968
 20
13804.1445837278
 30
0.0
 40
8.0
 41
0.0
 71
     7
 72
     5
  1

1001
ACAD
1000
MTEXTBEGIN
1070
    73
1070
     1
1070
    44
1040
1.0
1070
    74
1070
     0
1000
MTEXTEND
  0
MTEXT
  5
5451
330
1A
100
AcDbEntity
  8
SUNPOU
100
AcDbMText
 10
21268.53798789184
 20
23316.25597610292
 30
0.0
 40
10.5
 41
0.0
 71
     1
 72
     5
  1

1001
ACAD
1000
MTEXTBEGIN
1070
    73
1070
     1
1070
    44
1040
1.0
1070
    74
1070
     0
1000
MTEXTEND
  0
MTEXT
  5
5452
330
1A
100
AcDbEntity
  8
SUNPOU
100
AcDbMText
 10
13337.6147919559
 20
22369.46284218996
 30
0.0
 40
10.5
 41
0.0
 71
     7
 72
     5
  1

1001
ACAD
1000
MTEXTBEGIN
1070
    73
1070
     1
1070
    44
1040
1.0
1070
    74
1070
     0
1000
MTEXTEND
  0
MTEXT
  5
5453
330
1A
100
AcDbEntity
  8
SUNPOU
100
AcDbMText
 10
16286.59845646867
 20
27270.13891403279
 30
0.0
 40
10.5
 41
0.0
 71
     7
 72
     5
  1

1001
ACAD
1000
MTEXTBEGIN
1070
    73
1070
     1
1070
    44
1040
1.0
1070
    74
1070
     0
1000
MTEXTEND
  0
MTEXT
  5
5454
330
1A
100
AcDbEntity
  8
SUNPOU
100
AcDbMText
 10
20795.67658441924
 20
29706.43966165288
 30
0.0
 40
10.5
 41
0.0
 71
     7
 72
     5
  1

1001
ACAD
1000
MTEXTBEGIN
1070
    73
1070
     1
1070
    44
1040
1.0
1070
    74
1070
     0
1000
MTEXTEND
  0
MTEXT
  5
5455
330
1A
100
AcDbEntity
  8
0
100
AcDbMText
 10
16611.93789220313
 20
14707.52144344448
 30
0.0
 40
8.0
 41
0.0
 71
     7
 72
     5
  1

1001
ACAD
1000
MTEXTBEGIN
1070
    73
1070
     1
1070
    44
1040
1.0
1070
    74
1070
     0
1000
MTEXTEND
  0
MTEXT
  5
5456
330
1A
100
AcDbEntity
  8
0
100
AcDbMText
 10
18897.29558209803
 20
15678.31173819554
 30
0.0
 40
8.0
 41
0.0
 71
     7
 72
     5
  1

1001
ACAD
1000
MTEXTBEGIN
1070
    73
1070
     1
1070
    44
1040
1.0
1070
    74
1070
     0
1000
MTEXTEND
  0
MTEXT
  5
5457
330
1A
100
AcDbEntity
  8
SUNPOU
100
AcDbMText
 10
21563.19260278019
 20
25190.42313057066
 30
0.0
 40
10.5
 41
0.0
 71
     1
 72
     5
  1

1001
ACAD
1000
MTEXTBEGIN
1070
    73
1070
     1
1070
    44
1040
1.0
1070
    74
1070
     0
1000
MTEXTEND
  0
MTEXT
  5
5458
330
1A
100
AcDbEntity
  8
SUNPOU
100
AcDbMText
 10
13632.26940684425
 20
24243.6299966577
 30
0.0
 40
10.5
 41
0.0
 71
     7
 72
     5
  1

1001
ACAD
1000
MTEXTBEGIN
1070
    73
1070
     1
1070
    44
1040
1.0
1070
    74
1070
     0
1000
MTEXTEND
  0
MTEXT
  5
5459
330
1A
100
AcDbEntity
  8
SUNPOU
100
AcDbMText
 10
16581.25307135702
 20
29144.30606850055
 30
0.0
 40
10.5
 41
0.0
 71
     7
 72
     5
  1

1001
ACAD
1000
MTEXTBEGIN
1070
    73
1070
     1
1070
    44
1040
1.0
1070
    74
1070
     0
1000
MTEXTEND
  0
MTEXT
  5
545A
330
1A
100
AcDbEntity
  8
SUNPOU
100
AcDbMText
 10
21090.33119930759
 20
31580.60681612062
 30
0.0
 40
10.5
 41
0.0
 71
     7
 72
     5
  1

1001
ACAD
1000
MTEXTBEGIN
1070
    73
1070
     1
1070
    44
1040
1.0
1070
    74
1070
     0
1000
MTEXTEND
  0
MTEXT
  5
545B
330
1A
100
AcDbEntity
  8
0
100
AcDbMText
 10
22871.60517627166
 20
23974.88367124799
 30
0.0
 40
8.0
 41
0.0
 71
     7
 72
     5
  1

1001
ACAD
1000
MTEXTBEGIN
1070
    73
1070
     1
1070
    44
1040
1.0
1070
    74
1070
     0
1000
MTEXTEND
  0
MTEXT
  5
545C
330
1A
100
AcDbEntity
  8
0
100
AcDbMText
 10
25156.96286616655
 20
24945.67396599904
 30
0.0
 40
8.0
 41
0.0
 71
     7
 72
     5
  1

1001
ACAD
1000
MTEXTBEGIN
1070
    73
1070
     1
1070
    44
1040
1.0
1070
    74
1070
     0
1000
MTEXTEND
  0
MTEXT
  5
545D
330
1A
100
AcDbEntity
  8
SUNPOU
100
AcDbMText
 10
27822.85988684871
 20
34457.78535837418
 30
0.0
 40
10.5
 41
0.0
 71
     1
 72
     5
  1

1001
ACAD
1000
MTEXTBEGIN
1070
    73
1070
     1
1070
    44
1040
1.0
1070
    74
1070
     0
1000
MTEXTEND
  0
MTEXT
  5
545E
330
1A
100
AcDbEntity
  8
SUNPOU
100
AcDbMText
 10
19891.93669091278
 20
33510.99222446122
 30
0.0
 40
10.5
 41
0.0
 71
     7
 72
     5
  1

1001
ACAD
1000
MTEXTBEGIN
1070
    73
1070
     1
1070
    44
1040
1.0
1070
    74
1070
     0
1000
MTEXTEND
  0
MTEXT
  5
545F
330
1A
100
AcDbEntity
  8
SUNPOU
100
AcDbMText
 10
22840.92035542555
 20
38411.66829630406
 30
0.0
 40
10.5
 41
0.0
 71
     7
 72
     5
  1

1001
ACAD
1000
MTEXTBEGIN
1070
    73
1070
     1
1070
    44
1040
1.0
1070
    74
1070
     0
1000
MTEXTEND
  0
MTEXT
  5
5460
330
1A
100
AcDbEntity
  8
SUNPOU
100
AcDbMText
 10
27349.99848337611
 20
40847.96904392415
 30
0.0
 40
10.5
 41
0.0
 71
     7
 72
     5
  1

1001
ACAD
1000
MTEXTBEGIN
1070
    73
1070
     1
1070
    44
1040
1.0
1070
    74
1070
     0
1000
MTEXTEND
  0
MTEXT
  5
55B7
330
1A
100
AcDbEntity
  8
SUNPOU
100
AcDbMText
 10
67424.23923338197
 20
64463.86602884816
 30
0.0
 40
10.5
 41
0.0
 71
     9
 72
     5
  1

1001
ACAD
1000
MTEXTBEGIN
1070
    73
1070
     1
1070
    44
1040
1.0
1070
    74
1070
     0
1000
MTEXTEND
  0
MTEXT
  5
55B8
330
1A
100
AcDbEntity
  8
SUNPOU
100
AcDbMText
 10
76146.40679929998
 20
71879.70056038563
 30
0.0
 40
10.5
 41
0.0
 71
     9
 72
     5
  1

1001
ACAD
1000
MTEXTBEGIN
1070
    73
1070
     1
1070
    44
1040
1.0
1070
    74
1070
     0
1000
MTEXTEND
  0
MTEXT
  5
55B9
330
1A
100
AcDbEntity
  8
SUNPOU
100
AcDbMText
 10
95100.16551662994
 20
89346.27661287766
 30
0.0
 40
10.5
 41
0.0
 71
     9
 72
     5
  1

1001
ACAD
1000
MTEXTBEGIN
1070
    73
1070
     1
1070
    44
1040
1.0
1070
    74
1070
     0
1000
MTEXTEND
  0
MTEXT
  5
55BA
330
1A
100
AcDbEntity
  8
SUNPOU
100
AcDbMText
 10
97043.57276333935
 20
87545.22753299966
 30
0.0
 40
3.5
 41
0.0
 71
     9
 72
     5
  1

1001
ACAD
1000
MTEXTBEGIN
1070
    73
1070
     1
1070
    44
1040
1.0
1070
    74
1070
     0
1000
MTEXTEND
  0
MTEXT
  5
55BB
330
1A
100
AcDbEntity
  8
SUNPOU
100
AcDbMText
 10
128169.7525959589
 20
130040.1732006569
 30
0.0
 40
10.5
 41
0.0
 71
     9
 72
     5
  1

1001
ACAD
1000
MTEXTBEGIN
1070
    73
1070
     1
1070
    44
1040
1.0
1070
    74
1070
     0
1000
MTEXTEND
  0
MTEXT
  5
55BC
330
1A
100
AcDbEntity
  8
SUNPOU
100
AcDbMText
 10
130113.1598426684
 20
128239.1241207789
 30
0.0
 40
3.5
 41
0.0
 71
     9
 72
     5
  1

1001
ACAD
1000
MTEXTBEGIN
1070
    73
1070
     1
1070
    44
1040
1.0
1070
    74
1070
     0
1000
MTEXTEND
  0
MTEXT
  5
55BD
330
1A
100
AcDbEntity
  8
SUNPOU
100
AcDbMText
 10
78610.02030175463
 20
75873.33835563206
 30
0.0
 40
10.5
 41
0.0
 71
     9
 72
     5
  1

1001
ACAD
1000
MTEXTBEGIN
1070
    73
1070
     1
1070
    44
1040
1.0
1070
    74
1070
     0
1000
MTEXTEND
  0
MTEXT
  5
55BE
330
1A
100
AcDbEntity
  8
SUNPOU
100
AcDbMText
 10
64662.02020137862
 20
56700.93921651987
 30
0.0
 40
3.5
 41
0.0
 71
     7
 72
     5
  1

1001
ACAD
1000
MTEXTBEGIN
1070
    73
1070
     1
1070
    44
1040
1.0
1070
    74
1070
     0
1000
MTEXTEND
  0
MTEXT
  5
55BF
330
1A
100
AcDbEntity
  8
SUNPOU
100
AcDbMText
 10
45647.18959837176
 20
44463.08794733806
 30
0.0
 40
10.5
 41
0.0
 71
     7
 72
     5
  1

1001
ACAD
1000
MTEXTBEGIN
1070
    73
1070
     1
1070
    44
1040
1.0
1070
    74
1070
     0
1000
MTEXTEND
  0
MTEXT
  5
55C0
330
1A
100
AcDbEntity
  8
SUNPOU
100
AcDbMText
 10
33189.96133342368
 20
28618.15636923965
 30
0.0
 40
35.0
 41
0.0
 71
     9
 72
     5
  1

1001
ACAD
1000
MTEXTBEGIN
1070
    73
1070
     1
1070
    44
1040
1.0
1070
    74
1070
     0
1000
MTEXTEND
  0
MTEXT
  5
55C1
330
1A
100
AcDbEntity
  8
SUNPOU
100
AcDbMText
 10
32098.44639099864
 20
29226.93177928834
 30
0.0
 40
350.0000004171781
 41
0.0
 71
     7
 72
     5
  1

1001
ACAD
1000
MTEXTBEGIN
1070
    73
1070
     1
1070
    44
1040
1.0
1070
    74
1070
     0
1000
MTEXTEND
  0
MTEXT
  5
55C2
330
1A
100
AcDbEntity
  8
0
100
AcDbMText
 10
38142.39714894154
 20
27206.85414142458
 30
0.0
 40
8.0
 41
0.0
 71
     7
 72
     5
  1

1001
ACAD
1000
MTEXTBEGIN
1070
    73
1070
     1
1070
    44
1040
1.0
1070
    74
1070
     0
1000
MTEXTEND
  0
MTEXT
  5
55C3
330
1A
100
AcDbEntity
  8
0
100
AcDbMText
 10
40427.75483883644
 20
28177.64443617564
 30
0.0
 40
8.0
 41
0.0
 71
     7
 72
     5
  1

1001
ACAD
1000
MTEXTBEGIN
1070
    73
1070
     1
1070
    44
1040
1.0
1070
    74
1070
     0
1000
MTEXTEND
  0
MTEXT
  5
55C4
330
1A
100
AcDbEntity
  8
SUNPOU
100
AcDbMText
 10
43093.65185951858
 20
37689.75582855077
 30
0.0
 40
10.5
 41
0.0
 71
     1
 72
     5
  1

1001
ACAD
1000
MTEXTBEGIN
1070
    73
1070
     1
1070
    44
1040
1.0
1070
    74
1070
     0
1000
MTEXTEND
  0
MTEXT
  5
55C5
330
1A
100
AcDbEntity
  8
SUNPOU
100
AcDbMText
 10
35162.72866358265
 20
36742.96269463781
 30
0.0
 40
10.5
 41
0.0
 71
     7
 72
     5
  1

1001
ACAD
1000
MTEXTBEGIN
1070
    73
1070
     1
1070
    44
1040
1.0
1070
    74
1070
     0
1000
MTEXTEND
  0
MTEXT
  5
55C6
330
1A
100
AcDbEntity
  8
SUNPOU
100
AcDbMText
 10
38111.71232809542
 20
41643.63876648065
 30
0.0
 40
10.5
 41
0.0
 71
     7
 72
     5
  1

1001
ACAD
1000
MTEXTBEGIN
1070
    73
1070
     1
1070
    44
1040
1.0
1070
    74
1070
     0
1000
MTEXTEND
  0
MTEXT
  5
55C7
330
1A
100
AcDbEntity
  8
SUNPOU
100
AcDbMText
 10
42620.79045604596
 20
44079.93951410074
 30
0.0
 40
10.5
 41
0.0
 71
     7
 72
     5
  1

1001
ACAD
1000
MTEXTBEGIN
1070
    73
1070
     1
1070
    44
1040
1.0
1070
    74
1070
     0
1000
MTEXTEND
  0
MTEXT
  5
55C8
330
1A
100
AcDbEntity
  8
SUNPOU
100
AcDbMText
 10
26221.62834281429
 20
23077.53566448964
 30
0.0
 40
10.5
 41
0.0
 71
     7
 72
     5
  1

1001
ACAD
1000
MTEXTBEGIN
1070
    73
1070
     1
1070
    44
1040
1.0
1070
    74
1070
     0
1000
MTEXTEND
  0
MTEXT
  5
55C9
330
1A
100
AcDbEntity
  8
SUNPOU
100
AcDbMText
 10
77413.14677671455
 20
68750.51622813789
 30
0.0
 40
10.5
 41
0.0
 71
     9
 72
     5
  1

1001
ACAD
1000
MTEXTBEGIN
1070
    73
1070
     1
1070
    44
1040
1.0
1070
    74
1070
     0
1000
MTEXTEND
  0
MTEXT
  5
55CA
330
1A
100
AcDbEntity
  8
SUNPOU
100
AcDbMText
 10
86135.31434263256
 20
76166.35075967536
 30
0.0
 40
10.5
 41
0.0
 71
     9
 72
     5
  1

1001
ACAD
1000
MTEXTBEGIN
1070
    73
1070
     1
1070
    44
1040
1.0
1070
    74
1070
     0
1000
MTEXTEND
  0
MTEXT
  5
55CB
330
1A
100
AcDbEntity
  8
SUNPOU
100
AcDbMText
 10
105089.0730599624
 20
93632.92681216739
 30
0.0
 40
10.5
 41
0.0
 71
     9
 72
     5
  1

1001
ACAD
1000
MTEXTBEGIN
1070
    73
1070
     1
1070
    44
1040
1.0
1070
    74
1070
     0
1000
MTEXTEND
  0
MTEXT
  5
55CC
330
1A
100
AcDbEntity
  8
SUNPOU
100
AcDbMText
 10
107032.4803066718
 20
91831.87773228937
 30
0.0
 40
3.5
 41
0.0
 71
     9
 72
     5
  1

1001
ACAD
1000
MTEXTBEGIN
1070
    73
1070
     1
1070
    44
1040
1.0
1070
    74
1070
     0
1000
MTEXTEND
  0
MTEXT
  5
55CD
330
1A
100
AcDbEntity
  8
SUNPOU
100
AcDbMText
 10
138158.6601392916
 20
134326.8233999467
 30
0.0
 40
10.5
 41
0.0
 71
     9
 72
     5
  1

1001
ACAD
1000
MTEXTBEGIN
1070
    73
1070
     1
1070
    44
1040
1.0
1070
    74
1070
     0
1000
MTEXTEND
  0
MTEXT
  5
55CE
330
1A
100
AcDbEntity
  8
SUNPOU
100
AcDbMText
 10
140102.067386001
 20
132525.7743200686
 30
0.0
 40
3.5
 41
0.0
 71
     9
 72
     5
  1

1001
ACAD
1000
MTEXTBEGIN
1070
    73
1070
     1
1070
    44
1040
1.0
1070
    74
1070
     0
1000
MTEXTEND
  0
MTEXT
  5
55CF
330
1A
100
AcDbEntity
  8
SUNPOU
100
AcDbMText
 10
88598.92784508721
 20
80159.98855492179
 30
0.0
 40
10.5
 41
0.0
 71
     9
 72
     5
  1

1001
ACAD
1000
MTEXTBEGIN
1070
    73
1070
     1
1070
    44
1040
1.0
1070
    74
1070
     0
1000
MTEXTEND
  0
MTEXT
  5
55D0
330
1A
100
AcDbEntity
  8
SUNPOU
100
AcDbMText
 10
74650.92774471121
 20
60987.58941580959
 30
0.0
 40
3.5
 41
0.0
 71
     7
 72
     5
  1

1001
ACAD
1000
MTEXTBEGIN
1070
    73
1070
     1
1070
    44
1040
1.0
1070
    74
1070
     0
1000
MTEXTEND
  0
MTEXT
  5
55D1
330
1A
100
AcDbEntity
  8
SUNPOU
100
AcDbMText
 10
55636.09714170436
 20
48749.73814662781
 30
0.0
 40
10.5
 41
0.0
 71
     7
 72
     5
  1

1001
ACAD
1000
MTEXTBEGIN
1070
    73
1070
     1
1070
    44
1040
1.0
1070
    74
1070
     0
1000
MTEXTEND
  0
MTEXT
  5
55D2
330
1A
100
AcDbEntity
  8
SUNPOU
100
AcDbMText
 10
43178.86887675626
 20
32904.80656852937
 30
0.0
 40
35.0
 41
0.0
 71
     9
 72
     5
  1

1001
ACAD
1000
MTEXTBEGIN
1070
    73
1070
     1
1070
    44
1040
1.0
1070
    74
1070
     0
1000
MTEXTEND
  0
MTEXT
  5
55D3
330
1A
100
AcDbEntity
  8
SUNPOU
100
AcDbMText
 10
42087.3539343312
 20
33513.58197857808
 30
0.0
 40
350.0000004171781
 41
0.0
 71
     7
 72
     5
  1

1001
ACAD
1000
MTEXTBEGIN
1070
    73
1070
     1
1070
    44
1040
1.0
1070
    74
1070
     0
1000
MTEXTEND
  0
MTEXT
  5
55D4
330
1A
100
AcDbEntity
  8
0
100
AcDbMText
 10
48131.30469227412
 20
31493.50434071431
 30
0.0
 40
8.0
 41
0.0
 71
     7
 72
     5
  1

1001
ACAD
1000
MTEXTBEGIN
1070
    73
1070
     1
1070
    44
1040
1.0
1070
    74
1070
     0
1000
MTEXTEND
  0
MTEXT
  5
55D5
330
1A
100
AcDbEntity
  8
0
100
AcDbMText
 10
50416.66238216901
 20
32464.29463546537
 30
0.0
 40
8.0
 41
0.0
 71
     7
 72
     5
  1

1001
ACAD
1000
MTEXTBEGIN
1070
    73
1070
     1
1070
    44
1040
1.0
1070
    74
1070
     0
1000
MTEXTEND
  0
MTEXT
  5
55D6
330
1A
100
AcDbEntity
  8
SUNPOU
100
AcDbMText
 10
53082.55940285115
 20
41976.4060278405
 30
0.0
 40
10.5
 41
0.0
 71
     1
 72
     5
  1

1001
ACAD
1000
MTEXTBEGIN
1070
    73
1070
     1
1070
    44
1040
1.0
1070
    74
1070
     0
1000
MTEXTEND
  0
MTEXT
  5
55D7
330
1A
100
AcDbEntity
  8
SUNPOU
100
AcDbMText
 10
45151.63620691521
 20
41029.61289392755
 30
0.0
 40
10.5
 41
0.0
 71
     7
 72
     5
  1

1001
ACAD
1000
MTEXTBEGIN
1070
    73
1070
     1
1070
    44
1040
1.0
1070
    74
1070
     0
1000
MTEXTEND
  0
MTEXT
  5
55D8
330
1A
100
AcDbEntity
  8
SUNPOU
100
AcDbMText
 10
48100.61987142798
 20
45930.28896577039
 30
0.0
 40
10.5
 41
0.0
 71
     7
 72
     5
  1

1001
ACAD
1000
MTEXTBEGIN
1070
    73
1070
     1
1070
    44
1040
1.0
1070
    74
1070
     0
1000
MTEXTEND
  0
MTEXT
  5
55D9
330
1A
100
AcDbEntity
  8
SUNPOU
100
AcDbMText
 10
52609.69799937853
 20
48366.58971339046
 30
0.0
 40
10.5
 41
0.0
 71
     7
 72
     5
  1

1001
ACAD
1000
MTEXTBEGIN
1070
    73
1070
     1
1070
    44
1040
1.0
1070
    74
1070
     0
1000
MTEXTEND
  0
MTEXT
  5
55DA
330
1A
100
AcDbEntity
  8
SUNPOU
100
AcDbMText
 10
36210.53588614687
 20
27364.18586377937
 30
0.0
 40
10.5
 41
0.0
 71
     7
 72
     5
  1

1001
ACAD
1000
MTEXTBEGIN
1070
    73
1070
     1
1070
    44
1040
1.0
1070
    74
1070
     0
1000
MTEXTEND
  0
MTEXT
  5
55DB
330
1A
100
AcDbEntity
  8
SUNPOU
100
AcDbMText
 10
38021.29879752181
 20
33691.59985125794
 30
0.0
 40
10.5
 41
0.0
 71
     9
 72
     5
  1

1001
ACAD
1000
MTEXTBEGIN
1070
    73
1070
     1
1070
    44
1040
1.0
1070
    74
1070
     0
1000
MTEXTEND
  0
MTEXT
  5
55DC
330
1A
100
AcDbEntity
  8
SUNPOU
100
AcDbMText
 10
46743.46636343979
 20
41107.4343827954
 30
0.0
 40
10.5
 41
0.0
 71
     9
 72
     5
  1

1001
ACAD
1000
MTEXTBEGIN
1070
    73
1070
     1
1070
    44
1040
1.0
1070
    74
1070
     0
1000
MTEXTEND
  0
MTEXT
  5
55DD
330
1A
100
AcDbEntity
  8
SUNPOU
100
AcDbMText
 10
65697.22508076974
 20
58574.01043528746
 30
0.0
 40
10.5
 41
0.0
 71
     9
 72
     5
  1

1001
ACAD
1000
MTEXTBEGIN
1070
    73
1070
     1
1070
    44
1040
1.0
1070
    74
1070
     0
1000
MTEXTEND
  0
MTEXT
  5
55DE
330
1A
100
AcDbEntity
  8
SUNPOU
100
AcDbMText
 10
67640.63232747917
 20
56772.96135540945
 30
0.0
 40
3.5
 41
0.0
 71
     9
 72
     5
  1

1001
ACAD
1000
MTEXTBEGIN
1070
    73
1070
     1
1070
    44
1040
1.0
1070
    74
1070
     0
1000
MTEXTEND
  0
MTEXT
  5
55DF
330
1A
100
AcDbEntity
  8
SUNPOU
100
AcDbMText
 10
98766.81216009886
 20
99267.9070230668
 30
0.0
 40
10.5
 41
0.0
 71
     9
 72
     5
  1

1001
ACAD
1000
MTEXTBEGIN
1070
    73
1070
     1
1070
    44
1040
1.0
1070
    74
1070
     0
1000
MTEXTEND
  0
MTEXT
  5
55E0
330
1A
100
AcDbEntity
  8
SUNPOU
100
AcDbMText
 10
100710.2194068083
 20
97466.85794318876
 30
0.0
 40
3.5
 41
0.0
 71
     9
 72
     5
  1

1001
ACAD
1000
MTEXTBEGIN
1070
    73
1070
     1
1070
    44
1040
1.0
1070
    74
1070
     0
1000
MTEXTEND
  0
MTEXT
  5
55E1
330
1A
100
AcDbEntity
  8
SUNPOU
100
AcDbMText
 10
49207.07986589443
 20
45101.07217804184
 30
0.0
 40
10.5
 41
0.0
 71
     9
 72
     5
  1

1001
ACAD
1000
MTEXTBEGIN
1070
    73
1070
     1
1070
    44
1040
1.0
1070
    74
1070
     0
1000
MTEXTEND
  0
MTEXT
  5
55E2
330
1A
100
AcDbEntity
  8
SUNPOU
100
AcDbMText
 10
35259.07976551845
 20
25928.67303892964
 30
0.0
 40
3.5
 41
0.0
 71
     7
 72
     5
  1

1001
ACAD
1000
MTEXTBEGIN
1070
    73
1070
     1
1070
    44
1040
1.0
1070
    74
1070
     0
1000
MTEXTEND
  0
MTEXT
  5
55E3
330
1A
100
AcDbEntity
  8
SUNPOU
100
AcDbMText
 10
48951.43044828905
 20
35287.73625995099
 30
0.0
 40
10.5
 41
0.0
 71
     9
 72
     5
  1

1001
ACAD
1000
MTEXTBEGIN
1070
    73
1070
     1
1070
    44
1040
1.0
1070
    74
1070
     0
1000
MTEXTEND
  0
MTEXT
  5
55E4
330
1A
100
AcDbEntity
  8
SUNPOU
100
AcDbMText
 10
57673.59801420702
 20
42703.57079148847
 30
0.0
 40
10.5
 41
0.0
 71
     9
 72
     5
  1

1001
ACAD
1000
MTEXTBEGIN
1070
    73
1070
     1
1070
    44
1040
1.0
1070
    74
1070
     0
1000
MTEXTEND
  0
MTEXT
  5
55E5
330
1A
100
AcDbEntity
  8
SUNPOU
100
AcDbMText
 10
76627.35673153699
 20
60170.14684398051
 30
0.0
 40
10.5
 41
0.0
 71
     9
 72
     5
  1

1001
ACAD
1000
MTEXTBEGIN
1070
    73
1070
     1
1070
    44
1040
1.0
1070
    74
1070
     0
1000
MTEXTEND
  0
MTEXT
  5
55E6
330
1A
100
AcDbEntity
  8
SUNPOU
100
AcDbMText
 10
78570.76397824641
 20
58369.09776410251
 30
0.0
 40
3.5
 41
0.0
 71
     9
 72
     5
  1

1001
ACAD
1000
MTEXTBEGIN
1070
    73
1070
     1
1070
    44
1040
1.0
1070
    74
1070
     0
1000
MTEXTEND
  0
MTEXT
  5
55E7
330
1A
100
AcDbEntity
  8
SUNPOU
100
AcDbMText
 10
109696.943810866
 20
100864.0434317598
 30
0.0
 40
10.5
 41
0.0
 71
     9
 72
     5
  1

1001
ACAD
1000
MTEXTBEGIN
1070
    73
1070
     1
1070
    44
1040
1.0
1070
    74
1070
     0
1000
MTEXTEND
  0
MTEXT
  5
55E8
330
1A
100
AcDbEntity
  8
SUNPOU
100
AcDbMText
 10
111640.3510575755
 20
99062.99435188183
 30
0.0
 40
3.5
 41
0.0
 71
     9
 72
     5
  1

1001
ACAD
1000
MTEXTBEGIN
1070
    73
1070
     1
1070
    44
1040
1.0
1070
    74
1070
     0
1000
MTEXTEND
  0
MTEXT
  5
55E9
330
1A
100
AcDbEntity
  8
SUNPOU
100
AcDbMText
 10
60137.21151666167
 20
46697.20858673491
 30
0.0
 40
10.5
 41
0.0
 71
     9
 72
     5
  1

1001
ACAD
1000
MTEXTBEGIN
1070
    73
1070
     1
1070
    44
1040
1.0
1070
    74
1070
     0
1000
MTEXTEND
  0
MTEXT
  5
55EA
330
1A
100
AcDbEntity
  8
SUNPOU
100
AcDbMText
 10
46189.21141628568
 20
27524.80944762269
 30
0.0
 40
3.5
 41
0.0
 71
     7
 72
     5
  1

1001
ACAD
1000
MTEXTBEGIN
1070
    73
1070
     1
1070
    44
1040
1.0
1070
    74
1070
     0
1000
MTEXTEND
  0
MTEXT
  5
55EB
330
1A
100
AcDbEntity
  8
SUNPOU
100
AcDbMText
 10
45007.68847015541
 20
38269.57947701873
 30
0.0
 40
10.5
 41
0.0
 71
     9
 72
     5
  1

1001
ACAD
1000
MTEXTBEGIN
1070
    73
1070
     1
1070
    44
1040
1.0
1070
    74
1070
     0
1000
MTEXTEND
  0
MTEXT
  5
55EC
330
1A
100
AcDbEntity
  8
SUNPOU
100
AcDbMText
 10
63961.44718748539
 20
55736.15552951081
 30
0.0
 40
10.5
 41
0.0
 71
     9
 72
     5
  1

1001
ACAD
1000
MTEXTBEGIN
1070
    73
1070
     1
1070
    44
1040
1.0
1070
    74
1070
     0
1000
MTEXTEND
  0
MTEXT
  5
55ED
330
1A
100
AcDbEntity
  8
SUNPOU
100
AcDbMText
 10
65904.85443419479
 20
53935.10644963278
 30
0.0
 40
3.5
 41
0.0
 71
     9
 72
     5
  1

1001
ACAD
1000
MTEXTBEGIN
1070
    73
1070
     1
1070
    44
1040
1.0
1070
    74
1070
     0
1000
MTEXTEND
  0
MTEXT
  5
55EE
330
1A
100
AcDbEntity
  8
SUNPOU
100
AcDbMText
 10
97031.03426681453
 20
96430.05211729015
 30
0.0
 40
10.5
 41
0.0
 71
     9
 72
     5
  1

1001
ACAD
1000
MTEXTBEGIN
1070
    73
1070
     1
1070
    44
1040
1.0
1070
    74
1070
     0
1000
MTEXTEND
  0
MTEXT
  5
55EF
330
1A
100
AcDbEntity
  8
SUNPOU
100
AcDbMText
 10
98974.44151352393
 20
94629.00303741212
 30
0.0
 40
3.5
 41
0.0
 71
     9
 72
     5
  1

1001
ACAD
1000
MTEXTBEGIN
1070
    73
1070
     1
1070
    44
1040
1.0
1070
    74
1070
     0
1000
MTEXTEND
  0
MTEXT
  5
55F0
330
1A
100
AcDbEntity
  8
SUNPOU
100
AcDbMText
 10
47471.30197261006
 20
42263.21727226519
 30
0.0
 40
10.5
 41
0.0
 71
     9
 72
     5
  1

1001
ACAD
1000
MTEXTBEGIN
1070
    73
1070
     1
1070
    44
1040
1.0
1070
    74
1070
     0
1000
MTEXTEND
  0
MTEXT
  5
55F1
330
1A
100
AcDbEntity
  8
SUNPOU
100
AcDbMText
 10
33523.30187223408
 20
23090.81813315298
 30
0.0
 40
3.5
 41
0.0
 71
     7
 72
     5
  1

1001
ACAD
1000
MTEXTBEGIN
1070
    73
1070
     1
1070
    44
1040
1.0
1070
    74
1070
     0
1000
MTEXTEND
  0
MTEXT
  5
55F2
330
1A
100
AcDbEntity
  8
SUNPOU
100
AcDbMText
 10
57959.46254102503
 20
50038.08111611014
 30
0.0
 40
10.5
 41
0.0
 71
     9
 72
     5
  1

1001
ACAD
1000
MTEXTBEGIN
1070
    73
1070
     1
1070
    44
1040
1.0
1070
    74
1070
     0
1000
MTEXTEND
  0
MTEXT
  5
55F3
330
1A
100
AcDbEntity
  8
SUNPOU
100
AcDbMText
 10
76913.22125835503
 20
67504.65716860222
 30
0.0
 40
10.5
 41
0.0
 71
     9
 72
     5
  1

1001
ACAD
1000
MTEXTBEGIN
1070
    73
1070
     1
1070
    44
1040
1.0
1070
    74
1070
     0
1000
MTEXTEND
  0
MTEXT
  5
55F4
330
1A
100
AcDbEntity
  8
SUNPOU
100
AcDbMText
 10
78856.62850506443
 20
65703.6080887242
 30
0.0
 40
3.5
 41
0.0
 71
     9
 72
     5
  1

1001
ACAD
1000
MTEXTBEGIN
1070
    73
1070
     1
1070
    44
1040
1.0
1070
    74
1070
     0
1000
MTEXTEND
  0
MTEXT
  5
55F5
330
1A
100
AcDbEntity
  8
SUNPOU
100
AcDbMText
 10
109982.8083376841
 20
108198.5537563815
 30
0.0
 40
10.5
 41
0.0
 71
     9
 72
     5
  1

1001
ACAD
1000
MTEXTBEGIN
1070
    73
1070
     1
1070
    44
1040
1.0
1070
    74
1070
     0
1000
MTEXTEND
  0
MTEXT
  5
55F6
330
1A
100
AcDbEntity
  8
SUNPOU
100
AcDbMText
 10
111926.2155843933
 20
106397.5046765035
 30
0.0
 40
3.5
 41
0.0
 71
     9
 72
     5
  1

1001
ACAD
1000
MTEXTBEGIN
1070
    73
1070
     1
1070
    44
1040
1.0
1070
    74
1070
     0
1000
MTEXTEND
  0
MTEXT
  5
55F7
330
1A
100
AcDbEntity
  8
SUNPOU
100
AcDbMText
 10
60423.07604347968
 20
54031.71891135658
 30
0.0
 40
10.5
 41
0.0
 71
     9
 72
     5
  1

1001
ACAD
1000
MTEXTBEGIN
1070
    73
1070
     1
1070
    44
1040
1.0
1070
    74
1070
     0
1000
MTEXTEND
  0
MTEXT
  5
55F8
330
1A
100
AcDbEntity
  8
SUNPOU
100
AcDbMText
 10
46475.07594310369
 20
34859.3197722444
 30
0.0
 40
3.5
 41
0.0
 71
     7
 72
     5
  1

1001
ACAD
1000
MTEXTBEGIN
1070
    73
1070
     1
1070
    44
1040
1.0
1070
    74
1070
     0
1000
MTEXTEND
  0
MTEXT
  5
55F9
330
1A
100
AcDbEntity
  8
SUNPOU
100
AcDbMText
 10
74027.35402123588
 20
68370.58278833383
 30
0.0
 40
10.5
 41
0.0
 71
     9
 72
     5
  1

1001
ACAD
1000
MTEXTBEGIN
1070
    73
1070
     1
1070
    44
1040
1.0
1070
    74
1070
     0
1000
MTEXTEND
  0
MTEXT
  5
55FA
330
1A
100
AcDbEntity
  8
SUNPOU
100
AcDbMText
 10
75970.7612679453
 20
66569.53370845583
 30
0.0
 40
3.5
 41
0.0
 71
     9
 72
     5
  1

1001
ACAD
1000
MTEXTBEGIN
1070
    73
1070
     1
1070
    44
1040
1.0
1070
    74
1070
     0
1000
MTEXTEND
  0
MTEXT
  5
55FB
330
1A
100
AcDbEntity
  8
SUNPOU
100
AcDbMText
 10
107096.941100565
 20
109064.4793761132
 30
0.0
 40
10.5
 41
0.0
 71
     9
 72
     5
  1

1001
ACAD
1000
MTEXTBEGIN
1070
    73
1070
     1
1070
    44
1040
1.0
1070
    74
1070
     0
1000
MTEXTEND
  0
MTEXT
  5
55FC
330
1A
100
AcDbEntity
  8
SUNPOU
100
AcDbMText
 10
109040.3483472744
 20
107263.430296235
 30
0.0
 40
3.5
 41
0.0
 71
     9
 72
     5
  1

1001
ACAD
1000
MTEXTBEGIN
1070
    73
1070
     1
1070
    44
1040
1.0
1070
    74
1070
     0
1000
MTEXTEND
  0
MTEXT
  5
55FD
330
1A
100
AcDbEntity
  8
SUNPOU
100
AcDbMText
 10
105709.1709283621
 20
108141.3777665285
 30
0.0
 40
10.5
 41
0.0
 71
     9
 72
     5
  1

1001
ACAD
1000
MTEXTBEGIN
1070
    73
1070
     1
1070
    44
1040
1.0
1070
    74
1070
     0
1000
MTEXTEND
  0
MTEXT
  5
55FE
330
1A
100
AcDbEntity
  8
SUNPOU
100
AcDbMText
 10
107652.5781750715
 20
106340.3286866505
 30
0.0
 40
3.5
 41
0.0
 71
     9
 72
     5
  1

1001
ACAD
1000
MTEXTBEGIN
1070
    73
1070
     1
1070
    44
1040
1.0
1070
    74
1070
     0
1000
MTEXTEND
  0
MTEXT
  5
55FF
330
1A
100
AcDbEntity
  8
SUNPOU
100
AcDbMText
 10
73193.09268743351
 20
66158.78082845057
 30
0.0
 40
10.5
 41
0.0
 71
     9
 72
     5
  1

1001
ACAD
1000
MTEXTBEGIN
1070
    73
1070
     1
1070
    44
1040
1.0
1070
    74
1070
     0
1000
MTEXTEND
  0
MTEXT
  5
5600
330
1A
100
AcDbEntity
  8
SUNPOU
100
AcDbMText
 10
75916.39889159807
 20
66563.46252003162
 30
0.0
 40
3.5
 41
0.0
 71
     9
 72
     5
  1

1001
ACAD
1000
MTEXTBEGIN
1070
    73
1070
     1
1070
    44
1040
1.0
1070
    74
1070
     0
1000
MTEXTEND
  0
MTEXT
  5
5601
330
1A
100
AcDbEntity
  8
SUNPOU
100
AcDbMText
 10
75124.04436649058
 20
63402.1566819768
 30
0.0
 40
10.5
 41
0.0
 71
     9
 72
     5
  1

1001
ACAD
1000
MTEXTBEGIN
1070
    73
1070
     1
1070
    44
1040
1.0
1070
    74
1070
     0
1000
MTEXTEND
  0
MTEXT
  5
5602
330
1A
100
AcDbEntity
  8
SUNPOU
100
AcDbMText
 10
77067.4516132
 20
61601.1076020988
 30
0.0
 40
3.5
 41
0.0
 71
     9
 72
     5
  1

1001
ACAD
1000
MTEXTBEGIN
1070
    73
1070
     1
1070
    44
1040
1.0
1070
    74
1070
     0
1000
MTEXTEND
  0
MTEXT
  5
5603
330
1A
100
AcDbEntity
  8
SUNPOU
100
AcDbMText
 10
77012.54710378659
 20
61488.33571981449
 30
0.0
 40
3.5
 41
0.0
 71
     9
 72
     5
  1

1001
ACAD
1000
MTEXTBEGIN
1070
    73
1070
     1
1070
    44
1040
1.0
1070
    74
1070
     0
1000
MTEXTEND
  0
MTEXT
  5
5604
330
1A
100
AcDbEntity
  8
SUNPOU
100
AcDbMText
 10
76376.61896736668
 20
60677.01447874798
 30
0.0
 40
3.5
 41
0.0
 71
     9
 72
     5
  1

1001
ACAD
1000
MTEXTBEGIN
1070
    73
1070
     1
1070
    44
1040
1.0
1070
    74
1070
     0
1000
MTEXTEND
  0
MTEXT
  5
5605
330
1A
100
AcDbEntity
  8
SUNPOU
100
AcDbMText
 10
76375.37854794595
 20
60676.76650181048
 30
0.0
 40
10.5
 41
0.0
 71
     9
 72
     5
  1

1001
ACAD
1000
MTEXTBEGIN
1070
    73
1070
     1
1070
    44
1040
1.0
1070
    74
1070
     0
1000
MTEXTEND
  0
MTEXT
  5
5606
330
1A
100
AcDbEntity
  8
SUNPOU
100
AcDbMText
 10
84709.93991079748
 20
78034.0328293557
 30
0.0
 40
10.5
 41
0.0
 71
     9
 72
     5
  1

1001
ACAD
1000
MTEXTBEGIN
1070
    73
1070
     1
1070
    44
1040
1.0
1070
    74
1070
     0
1000
MTEXTEND
  0
MTEXT
  5
5607
330
1A
100
AcDbEntity
  8
SUNPOU
100
AcDbMText
 10
93432.10747671546
 20
85449.86736089315
 30
0.0
 40
10.5
 41
0.0
 71
     9
 72
     5
  1

1001
ACAD
1000
MTEXTBEGIN
1070
    73
1070
     1
1070
    44
1040
1.0
1070
    74
1070
     0
1000
MTEXTEND
  0
MTEXT
  5
5608
330
1A
100
AcDbEntity
  8
SUNPOU
100
AcDbMText
 10
112385.8661940454
 20
102916.4434133851
 30
0.0
 40
10.5
 41
0.0
 71
     9
 72
     5
  1

1001
ACAD
1000
MTEXTBEGIN
1070
    73
1070
     1
1070
    44
1040
1.0
1070
    74
1070
     0
1000
MTEXTEND
  0
MTEXT
  5
5609
330
1A
100
AcDbEntity
  8
SUNPOU
100
AcDbMText
 10
114329.2734407548
 20
101115.3943335072
 30
0.0
 40
3.5
 41
0.0
 71
     9
 72
     5
  1

1001
ACAD
1000
MTEXTBEGIN
1070
    73
1070
     1
1070
    44
1040
1.0
1070
    74
1070
     0
1000
MTEXTEND
  0
MTEXT
  5
560A
330
1A
100
AcDbEntity
  8
SUNPOU
100
AcDbMText
 10
145455.4532733745
 20
143610.3400011645
 30
0.0
 40
10.5
 41
0.0
 71
     9
 72
     5
  1

1001
ACAD
1000
MTEXTBEGIN
1070
    73
1070
     1
1070
    44
1040
1.0
1070
    74
1070
     0
1000
MTEXTEND
  0
MTEXT
  5
560B
330
1A
100
AcDbEntity
  8
SUNPOU
100
AcDbMText
 10
147398.8605200839
 20
141809.2909212864
 30
0.0
 40
3.5
 41
0.0
 71
     9
 72
     5
  1

1001
ACAD
1000
MTEXTBEGIN
1070
    73
1070
     1
1070
    44
1040
1.0
1070
    74
1070
     0
1000
MTEXTEND
  0
MTEXT
  5
560C
330
1A
100
AcDbEntity
  8
SUNPOU
100
AcDbMText
 10
95895.72097917011
 20
89443.50515613962
 30
0.0
 40
10.5
 41
0.0
 71
     9
 72
     5
  1

1001
ACAD
1000
MTEXTBEGIN
1070
    73
1070
     1
1070
    44
1040
1.0
1070
    74
1070
     0
1000
MTEXTEND
  0
MTEXT
  5
560D
330
1A
100
AcDbEntity
  8
SUNPOU
100
AcDbMText
 10
81947.72087879414
 20
70271.1060170274
 30
0.0
 40
3.5
 41
0.0
 71
     7
 72
     5
  1

1001
ACAD
1000
MTEXTBEGIN
1070
    73
1070
     1
1070
    44
1040
1.0
1070
    74
1070
     0
1000
MTEXTEND
  0
MTEXT
  5
560E
330
1A
100
AcDbEntity
  8
SUNPOU
100
AcDbMText
 10
62932.89027578729
 20
58033.25474784561
 30
0.0
 40
10.5
 41
0.0
 71
     7
 72
     5
  1

1001
ACAD
1000
MTEXTBEGIN
1070
    73
1070
     1
1070
    44
1040
1.0
1070
    74
1070
     0
1000
MTEXTEND
  0
MTEXT
  5
560F
330
1A
100
AcDbEntity
  8
SUNPOU
100
AcDbMText
 10
50475.66201083918
 20
42188.32316974718
 30
0.0
 40
35.0
 41
0.0
 71
     9
 72
     5
  1

1001
ACAD
1000
MTEXTBEGIN
1070
    73
1070
     1
1070
    44
1040
1.0
1070
    74
1070
     0
1000
MTEXTEND
  0
MTEXT
  5
5610
330
1A
100
AcDbEntity
  8
SUNPOU
100
AcDbMText
 10
49384.14706841413
 20
42797.0985797959
 30
0.0
 40
350.0000004171781
 41
0.0
 71
     7
 72
     5
  1

1001
ACAD
1000
MTEXTBEGIN
1070
    73
1070
     1
1070
    44
1040
1.0
1070
    74
1070
     0
1000
MTEXTEND
  0
MTEXT
  5
5611
330
1A
100
AcDbEntity
  8
0
100
AcDbMText
 10
55428.09782635704
 20
40777.0209419321
 30
0.0
 40
8.0
 41
0.0
 71
     7
 72
     5
  1

1001
ACAD
1000
MTEXTBEGIN
1070
    73
1070
     1
1070
    44
1040
1.0
1070
    74
1070
     0
1000
MTEXTEND
  0
MTEXT
  5
5612
330
1A
100
AcDbEntity
  8
0
100
AcDbMText
 10
57713.45551625192
 20
41747.81123668316
 30
0.0
 40
8.0
 41
0.0
 71
     7
 72
     5
  1

1001
ACAD
1000
MTEXTBEGIN
1070
    73
1070
     1
1070
    44
1040
1.0
1070
    74
1070
     0
1000
MTEXTEND
  0
MTEXT
  5
5613
330
1A
100
AcDbEntity
  8
SUNPOU
100
AcDbMText
 10
60379.35253693407
 20
51259.9226290583
 30
0.0
 40
10.5
 41
0.0
 71
     1
 72
     5
  1

1001
ACAD
1000
MTEXTBEGIN
1070
    73
1070
     1
1070
    44
1040
1.0
1070
    74
1070
     0
1000
MTEXTEND
  0
MTEXT
  5
5614
330
1A
100
AcDbEntity
  8
SUNPOU
100
AcDbMText
 10
52448.42934099813
 20
50313.12949514535
 30
0.0
 40
10.5
 41
0.0
 71
     7
 72
     5
  1

1001
ACAD
1000
MTEXTBEGIN
1070
    73
1070
     1
1070
    44
1040
1.0
1070
    74
1070
     0
1000
MTEXTEND
  0
MTEXT
  5
5615
330
1A
100
AcDbEntity
  8
SUNPOU
100
AcDbMText
 10
55397.4130055109
 20
55213.80556698819
 30
0.0
 40
10.5
 41
0.0
 71
     7
 72
     5
  1

1001
ACAD
1000
MTEXTBEGIN
1070
    73
1070
     1
1070
    44
1040
1.0
1070
    74
1070
     0
1000
MTEXTEND
  0
MTEXT
  5
5616
330
1A
100
AcDbEntity
  8
SUNPOU
100
AcDbMText
 10
59906.49113346147
 20
57650.10631460826
 30
0.0
 40
10.5
 41
0.0
 71
     7
 72
     5
  1

1001
ACAD
1000
MTEXTBEGIN
1070
    73
1070
     1
1070
    44
1040
1.0
1070
    74
1070
     0
1000
MTEXTEND
  0
MTEXT
  5
5617
330
1A
100
AcDbEntity
  8
SUNPOU
100
AcDbMText
 10
43507.32902022977
 20
36647.70246499718
 30
0.0
 40
10.5
 41
0.0
 71
     7
 72
     5
  1

1001
ACAD
1000
MTEXTBEGIN
1070
    73
1070
     1
1070
    44
1040
1.0
1070
    74
1070
     0
1000
MTEXTEND
  0
MTEXT
  5
5618
330
1A
100
AcDbEntity
  8
SUNPOU
100
AcDbMText
 10
94698.84745413006
 20
82320.68302864544
 30
0.0
 40
10.5
 41
0.0
 71
     9
 72
     5
  1

1001
ACAD
1000
MTEXTBEGIN
1070
    73
1070
     1
1070
    44
1040
1.0
1070
    74
1070
     0
1000
MTEXTEND
  0
MTEXT
  5
5619
330
1A
100
AcDbEntity
  8
SUNPOU
100
AcDbMText
 10
103421.015020048
 20
89736.5175601829
 30
0.0
 40
10.5
 41
0.0
 71
     9
 72
     5
  1

1001
ACAD
1000
MTEXTBEGIN
1070
    73
1070
     1
1070
    44
1040
1.0
1070
    74
1070
     0
1000
MTEXTEND
  0
MTEXT
  5
561A
330
1A
100
AcDbEntity
  8
SUNPOU
100
AcDbMText
 10
122374.773737378
 20
107203.0936126749
 30
0.0
 40
10.5
 41
0.0
 71
     9
 72
     5
  1

1001
ACAD
1000
MTEXTBEGIN
1070
    73
1070
     1
1070
    44
1040
1.0
1070
    74
1070
     0
1000
MTEXTEND
  0
MTEXT
  5
561B
330
1A
100
AcDbEntity
  8
SUNPOU
100
AcDbMText
 10
124318.1809840874
 20
105402.0445327969
 30
0.0
 40
3.5
 41
0.0
 71
     9
 72
     5
  1

1001
ACAD
1000
MTEXTBEGIN
1070
    73
1070
     1
1070
    44
1040
1.0
1070
    74
1070
     0
1000
MTEXTEND
  0
MTEXT
  5
561C
330
1A
100
AcDbEntity
  8
SUNPOU
100
AcDbMText
 10
155444.3608167071
 20
147896.9902004542
 30
0.0
 40
10.5
 41
0.0
 71
     9
 72
     5
  1

1001
ACAD
1000
MTEXTBEGIN
1070
    73
1070
     1
1070
    44
1040
1.0
1070
    74
1070
     0
1000
MTEXTEND
  0
MTEXT
  5
561D
330
1A
100
AcDbEntity
  8
SUNPOU
100
AcDbMText
 10
157387.7680634165
 20
146095.9411205762
 30
0.0
 40
3.5
 41
0.0
 71
     9
 72
     5
  1

1001
ACAD
1000
MTEXTBEGIN
1070
    73
1070
     1
1070
    44
1040
1.0
1070
    74
1070
     0
1000
MTEXTEND
  0
MTEXT
  5
561E
330
1A
100
AcDbEntity
  8
SUNPOU
100
AcDbMText
 10
105884.6285225027
 20
93730.15535542933
 30
0.0
 40
10.5
 41
0.0
 71
     9
 72
     5
  1

1001
ACAD
1000
MTEXTBEGIN
1070
    73
1070
     1
1070
    44
1040
1.0
1070
    74
1070
     0
1000
MTEXTEND
  0
MTEXT
  5
561F
330
1A
100
AcDbEntity
  8
SUNPOU
100
AcDbMText
 10
91936.6284221267
 20
74557.75621631714
 30
0.0
 40
3.5
 41
0.0
 71
     7
 72
     5
  1

1001
ACAD
1000
MTEXTBEGIN
1070
    73
1070
     1
1070
    44
1040
1.0
1070
    74
1070
     0
1000
MTEXTEND
  0
MTEXT
  5
5620
330
1A
100
AcDbEntity
  8
SUNPOU
100
AcDbMText
 10
72921.79781911986
 20
62319.90494713532
 30
0.0
 40
10.5
 41
0.0
 71
     7
 72
     5
  1

1001
ACAD
1000
MTEXTBEGIN
1070
    73
1070
     1
1070
    44
1040
1.0
1070
    74
1070
     0
1000
MTEXTEND
  0
MTEXT
  5
5621
330
1A
100
AcDbEntity
  8
SUNPOU
100
AcDbMText
 10
60464.56955417175
 20
46474.97336903692
 30
0.0
 40
35.0
 41
0.0
 71
     9
 72
     5
  1

1001
ACAD
1000
MTEXTBEGIN
1070
    73
1070
     1
1070
    44
1040
1.0
1070
    74
1070
     0
1000
MTEXTEND
  0
MTEXT
  5
5622
330
1A
100
AcDbEntity
  8
SUNPOU
100
AcDbMText
 10
59373.05461174673
 20
47083.74877908561
 30
0.0
 40
350.0000004171781
 41
0.0
 71
     7
 72
     5
  1

1001
ACAD
1000
MTEXTBEGIN
1070
    73
1070
     1
1070
    44
1040
1.0
1070
    74
1070
     0
1000
MTEXTEND
  0
MTEXT
  5
5623
330
1A
100
AcDbEntity
  8
0
100
AcDbMText
 10
65417.00536968963
 20
45063.67114122186
 30
0.0
 40
8.0
 41
0.0
 71
     7
 72
     5
  1

1001
ACAD
1000
MTEXTBEGIN
1070
    73
1070
     1
1070
    44
1040
1.0
1070
    74
1070
     0
1000
MTEXTEND
  0
MTEXT
  5
5624
330
1A
100
AcDbEntity
  8
0
100
AcDbMText
 10
67702.36305958452
 20
46034.46143597292
 30
0.0
 40
8.0
 41
0.0
 71
     7
 72
     5
  1

1001
ACAD
1000
MTEXTBEGIN
1070
    73
1070
     1
1070
    44
1040
1.0
1070
    74
1070
     0
1000
MTEXTEND
  0
MTEXT
  5
5625
330
1A
100
AcDbEntity
  8
SUNPOU
100
AcDbMText
 10
70368.26008026666
 20
55546.57282834803
 30
0.0
 40
10.5
 41
0.0
 71
     1
 72
     5
  1

1001
ACAD
1000
MTEXTBEGIN
1070
    73
1070
     1
1070
    44
1040
1.0
1070
    74
1070
     0
1000
MTEXTEND
  0
MTEXT
  5
5626
330
1A
100
AcDbEntity
  8
SUNPOU
100
AcDbMText
 10
62437.33688433072
 20
54599.77969443507
 30
0.0
 40
10.5
 41
0.0
 71
     7
 72
     5
  1

1001
ACAD
1000
MTEXTBEGIN
1070
    73
1070
     1
1070
    44
1040
1.0
1070
    74
1070
     0
1000
MTEXTEND
  0
MTEXT
  5
5627
330
1A
100
AcDbEntity
  8
SUNPOU
100
AcDbMText
 10
65386.32054884347
 20
59500.45576627792
 30
0.0
 40
10.5
 41
0.0
 71
     7
 72
     5
  1

1001
ACAD
1000
MTEXTBEGIN
1070
    73
1070
     1
1070
    44
1040
1.0
1070
    74
1070
     0
1000
MTEXTEND
  0
MTEXT
  5
5628
330
1A
100
AcDbEntity
  8
SUNPOU
100
AcDbMText
 10
69895.39867679405
 20
61936.756513898
 30
0.0
 40
10.5
 41
0.0
 71
     7
 72
     5
  1

1001
ACAD
1000
MTEXTBEGIN
1070
    73
1070
     1
1070
    44
1040
1.0
1070
    74
1070
     0
1000
MTEXTEND
  0
MTEXT
  5
5629
330
1A
100
AcDbEntity
  8
SUNPOU
100
AcDbMText
 10
53496.23656356237
 20
40934.35266428691
 30
0.0
 40
10.5
 41
0.0
 71
     7
 72
     5
  1

1001
ACAD
1000
MTEXTBEGIN
1070
    73
1070
     1
1070
    44
1040
1.0
1070
    74
1070
     0
1000
MTEXTEND
  0
MTEXT
  5
562A
330
1A
100
AcDbEntity
  8
SUNPOU
100
AcDbMText
 10
55306.99947493731
 20
47261.76665176546
 30
0.0
 40
10.5
 41
0.0
 71
     9
 72
     5
  1

1001
ACAD
1000
MTEXTBEGIN
1070
    73
1070
     1
1070
    44
1040
1.0
1070
    74
1070
     0
1000
MTEXTEND
  0
MTEXT
  5
562B
330
1A
100
AcDbEntity
  8
SUNPOU
100
AcDbMText
 10
64029.16704085527
 20
54677.60118330295
 30
0.0
 40
10.5
 41
0.0
 71
     9
 72
     5
  1

1001
ACAD
1000
MTEXTBEGIN
1070
    73
1070
     1
1070
    44
1040
1.0
1070
    74
1070
     0
1000
MTEXTEND
  0
MTEXT
  5
562C
330
1A
100
AcDbEntity
  8
SUNPOU
100
AcDbMText
 10
82982.92575818527
 20
72144.17723579499
 30
0.0
 40
10.5
 41
0.0
 71
     9
 72
     5
  1

1001
ACAD
1000
MTEXTBEGIN
1070
    73
1070
     1
1070
    44
1040
1.0
1070
    74
1070
     0
1000
MTEXTEND
  0
MTEXT
  5
562D
330
1A
100
AcDbEntity
  8
SUNPOU
100
AcDbMText
 10
84926.33300489467
 20
70343.12815591697
 30
0.0
 40
3.5
 41
0.0
 71
     9
 72
     5
  1

1001
ACAD
1000
MTEXTBEGIN
1070
    73
1070
     1
1070
    44
1040
1.0
1070
    74
1070
     0
1000
MTEXTEND
  0
MTEXT
  5
562E
330
1A
100
AcDbEntity
  8
SUNPOU
100
AcDbMText
 10
116052.5128375142
 20
112838.0738235742
 30
0.0
 40
10.5
 41
0.0
 71
     9
 72
     5
  1

1001
ACAD
1000
MTEXTBEGIN
1070
    73
1070
     1
1070
    44
1040
1.0
1070
    74
1070
     0
1000
MTEXTEND
  0
MTEXT
  5
562F
330
1A
100
AcDbEntity
  8
SUNPOU
100
AcDbMText
 10
117995.9200842238
 20
111037.0247436963
 30
0.0
 40
3.5
 41
0.0
 71
     9
 72
     5
  1

1001
ACAD
1000
MTEXTBEGIN
1070
    73
1070
     1
1070
    44
1040
1.0
1070
    74
1070
     0
1000
MTEXTEND
  0
MTEXT
  5
5630
330
1A
100
AcDbEntity
  8
SUNPOU
100
AcDbMText
 10
66492.78054330994
 20
58671.23897854939
 30
0.0
 40
10.5
 41
0.0
 71
     9
 72
     5
  1

1001
ACAD
1000
MTEXTBEGIN
1070
    73
1070
     1
1070
    44
1040
1.0
1070
    74
1070
     0
1000
MTEXTEND
  0
MTEXT
  5
5631
330
1A
100
AcDbEntity
  8
SUNPOU
100
AcDbMText
 10
52544.78044293397
 20
39498.83983943717
 30
0.0
 40
3.5
 41
0.0
 71
     7
 72
     5
  1

1001
ACAD
1000
MTEXTBEGIN
1070
    73
1070
     1
1070
    44
1040
1.0
1070
    74
1070
     0
1000
MTEXTEND
  0
MTEXT
  5
5632
330
1A
100
AcDbEntity
  8
SUNPOU
100
AcDbMText
 10
66237.13112570454
 20
48857.90306045851
 30
0.0
 40
10.5
 41
0.0
 71
     9
 72
     5
  1

1001
ACAD
1000
MTEXTBEGIN
1070
    73
1070
     1
1070
    44
1040
1.0
1070
    74
1070
     0
1000
MTEXTEND
  0
MTEXT
  5
5633
330
1A
100
AcDbEntity
  8
SUNPOU
100
AcDbMText
 10
74959.29869162253
 20
56273.73759199598
 30
0.0
 40
10.5
 41
0.0
 71
     9
 72
     5
  1

1001
ACAD
1000
MTEXTBEGIN
1070
    73
1070
     1
1070
    44
1040
1.0
1070
    74
1070
     0
1000
MTEXTEND
  0
MTEXT
  5
5634
330
1A
100
AcDbEntity
  8
SUNPOU
100
AcDbMText
 10
93913.0574089525
 20
73740.31364448805
 30
0.0
 40
10.5
 41
0.0
 71
     9
 72
     5
  1

1001
ACAD
1000
MTEXTBEGIN
1070
    73
1070
     1
1070
    44
1040
1.0
1070
    74
1070
     0
1000
MTEXTEND
  0
MTEXT
  5
5635
330
1A
100
AcDbEntity
  8
SUNPOU
100
AcDbMText
 10
95856.46465566192
 20
71939.26456461004
 30
0.0
 40
3.5
 41
0.0
 71
     9
 72
     5
  1

1001
ACAD
1000
MTEXTBEGIN
1070
    73
1070
     1
1070
    44
1040
1.0
1070
    74
1070
     0
1000
MTEXTEND
  0
MTEXT
  5
5636
330
1A
100
AcDbEntity
  8
SUNPOU
100
AcDbMText
 10
126982.6444882816
 20
114434.2102322673
 30
0.0
 40
10.5
 41
0.0
 71
     9
 72
     5
  1

1001
ACAD
1000
MTEXTBEGIN
1070
    73
1070
     1
1070
    44
1040
1.0
1070
    74
1070
     0
1000
MTEXTEND
  0
MTEXT
  5
5637
330
1A
100
AcDbEntity
  8
SUNPOU
100
AcDbMText
 10
128926.051734991
 20
112633.1611523893
 30
0.0
 40
3.5
 41
0.0
 71
     9
 72
     5
  1

1001
ACAD
1000
MTEXTBEGIN
1070
    73
1070
     1
1070
    44
1040
1.0
1070
    74
1070
     0
1000
MTEXTEND
  0
MTEXT
  5
5638
330
1A
100
AcDbEntity
  8
SUNPOU
100
AcDbMText
 10
77422.91219407717
 20
60267.37538724244
 30
0.0
 40
10.5
 41
0.0
 71
     9
 72
     5
  1

1001
ACAD
1000
MTEXTBEGIN
1070
    73
1070
     1
1070
    44
1040
1.0
1070
    74
1070
     0
1000
MTEXTEND
  0
MTEXT
  5
5639
330
1A
100
AcDbEntity
  8
SUNPOU
100
AcDbMText
 10
63474.91209370119
 20
41094.97624813023
 30
0.0
 40
3.5
 41
0.0
 71
     7
 72
     5
  1

1001
ACAD
1000
MTEXTBEGIN
1070
    73
1070
     1
1070
    44
1040
1.0
1070
    74
1070
     0
1000
MTEXTEND
  0
MTEXT
  5
563A
330
1A
100
AcDbEntity
  8
SUNPOU
100
AcDbMText
 10
48117.65086229006
 20
40806.11043916631
 30
0.0
 40
10.5
 41
0.0
 71
     9
 72
     5
  1

1001
ACAD
1000
MTEXTBEGIN
1070
    73
1070
     1
1070
    44
1040
1.0
1070
    74
1070
     0
1000
MTEXTEND
  0
MTEXT
  5
563B
330
1A
100
AcDbEntity
  8
SUNPOU
100
AcDbMText
 10
67071.40957962004
 20
58272.68649165838
 30
0.0
 40
10.5
 41
0.0
 71
     9
 72
     5
  1

1001
ACAD
1000
MTEXTBEGIN
1070
    73
1070
     1
1070
    44
1040
1.0
1070
    74
1070
     0
1000
MTEXTEND
  0
MTEXT
  5
563C
330
1A
100
AcDbEntity
  8
SUNPOU
100
AcDbMText
 10
69014.81682632945
 20
56471.63741178035
 30
0.0
 40
3.5
 41
0.0
 71
     9
 72
     5
  1

1001
ACAD
1000
MTEXTBEGIN
1070
    73
1070
     1
1070
    44
1040
1.0
1070
    74
1070
     0
1000
MTEXTEND
  0
MTEXT
  5
563D
330
1A
100
AcDbEntity
  8
SUNPOU
100
AcDbMText
 10
100140.9966589491
 20
98966.58307943773
 30
0.0
 40
10.5
 41
0.0
 71
     9
 72
     5
  1

1001
ACAD
1000
MTEXTBEGIN
1070
    73
1070
     1
1070
    44
1040
1.0
1070
    74
1070
     0
1000
MTEXTEND
  0
MTEXT
  5
563E
330
1A
100
AcDbEntity
  8
SUNPOU
100
AcDbMText
 10
102084.4039056586
 20
97165.53399955968
 30
0.0
 40
3.5
 41
0.0
 71
     9
 72
     5
  1

1001
ACAD
1000
MTEXTBEGIN
1070
    73
1070
     1
1070
    44
1040
1.0
1070
    74
1070
     0
1000
MTEXTEND
  0
MTEXT
  5
563F
330
1A
100
AcDbEntity
  8
SUNPOU
100
AcDbMText
 10
50581.26436474472
 20
44799.74823441275
 30
0.0
 40
10.5
 41
0.0
 71
     9
 72
     5
  1

1001
ACAD
1000
MTEXTBEGIN
1070
    73
1070
     1
1070
    44
1040
1.0
1070
    74
1070
     0
1000
MTEXTEND
  0
MTEXT
  5
5640
330
1A
100
AcDbEntity
  8
SUNPOU
100
AcDbMText
 10
36633.26426436873
 20
25627.34909530054
 30
0.0
 40
3.5
 41
0.0
 71
     7
 72
     5
  1

1001
ACAD
1000
MTEXTBEGIN
1070
    73
1070
     1
1070
    44
1040
1.0
1070
    74
1070
     0
1000
MTEXTEND
  0
MTEXT
  5
5641
330
1A
100
AcDbEntity
  8
SUNPOU
100
AcDbMText
 10
61069.42493315968
 20
52574.61207825771
 30
0.0
 40
10.5
 41
0.0
 71
     9
 72
     5
  1

1001
ACAD
1000
MTEXTBEGIN
1070
    73
1070
     1
1070
    44
1040
1.0
1070
    74
1070
     0
1000
MTEXTEND
  0
MTEXT
  5
5642
330
1A
100
AcDbEntity
  8
SUNPOU
100
AcDbMText
 10
80023.18365048967
 20
70041.18813074978
 30
0.0
 40
10.5
 41
0.0
 71
     9
 72
     5
  1

1001
ACAD
1000
MTEXTBEGIN
1070
    73
1070
     1
1070
    44
1040
1.0
1070
    74
1070
     0
1000
MTEXTEND
  0
MTEXT
  5
5643
330
1A
100
AcDbEntity
  8
SUNPOU
100
AcDbMText
 10
81966.59089719908
 20
68240.13905087176
 30
0.0
 40
3.5
 41
0.0
 71
     9
 72
     5
  1

1001
ACAD
1000
MTEXTBEGIN
1070
    73
1070
     1
1070
    44
1040
1.0
1070
    74
1070
     0
1000
MTEXTEND
  0
MTEXT
  5
5644
330
1A
100
AcDbEntity
  8
SUNPOU
100
AcDbMText
 10
113092.7707298186
 20
110735.0847185291
 30
0.0
 40
10.5
 41
0.0
 71
     9
 72
     5
  1

1001
ACAD
1000
MTEXTBEGIN
1070
    73
1070
     1
1070
    44
1040
1.0
1070
    74
1070
     0
1000
MTEXTEND
  0
MTEXT
  5
5645
330
1A
100
AcDbEntity
  8
SUNPOU
100
AcDbMText
 10
115036.1779765282
 20
108934.0356386511
 30
0.0
 40
3.5
 41
0.0
 71
     9
 72
     5
  1

1001
ACAD
1000
MTEXTBEGIN
1070
    73
1070
     1
1070
    44
1040
1.0
1070
    74
1070
     0
1000
MTEXTEND
  0
MTEXT
  5
5646
330
1A
100
AcDbEntity
  8
SUNPOU
100
AcDbMText
 10
63533.03843561432
 20
56568.24987350415
 30
0.0
 40
10.5
 41
0.0
 71
     9
 72
     5
  1

1001
ACAD
1000
MTEXTBEGIN
1070
    73
1070
     1
1070
    44
1040
1.0
1070
    74
1070
     0
1000
MTEXTEND
  0
MTEXT
  5
5647
330
1A
100
AcDbEntity
  8
SUNPOU
100
AcDbMText
 10
49585.03833523835
 20
37395.85073439196
 30
0.0
 40
3.5
 41
0.0
 71
     7
 72
     5
  1

1001
ACAD
1000
MTEXTBEGIN
1070
    73
1070
     1
1070
    44
1040
1.0
1070
    74
1070
     0
1000
MTEXTEND
  0
MTEXT
  5
5648
330
1A
100
AcDbEntity
  8
SUNPOU
100
AcDbMText
 10
77137.31641337052
 20
70907.11375048141
 30
0.0
 40
10.5
 41
0.0
 71
     9
 72
     5
  1

1001
ACAD
1000
MTEXTBEGIN
1070
    73
1070
     1
1070
    44
1040
1.0
1070
    74
1070
     0
1000
MTEXTEND
  0
MTEXT
  5
5649
330
1A
100
AcDbEntity
  8
SUNPOU
100
AcDbMText
 10
79080.72366007995
 20
69106.06467060339
 30
0.0
 40
3.5
 41
0.0
 71
     9
 72
     5
  1

1001
ACAD
1000
MTEXTBEGIN
1070
    73
1070
     1
1070
    44
1040
1.0
1070
    74
1070
     0
1000
MTEXTEND
  0
MTEXT
  5
564A
330
1A
100
AcDbEntity
  8
SUNPOU
100
AcDbMText
 10
110206.9034926996
 20
111601.0103382607
 30
0.0
 40
10.5
 41
0.0
 71
     9
 72
     5
  1

1001
ACAD
1000
MTEXTBEGIN
1070
    73
1070
     1
1070
    44
1040
1.0
1070
    74
1070
     0
1000
MTEXTEND
  0
MTEXT
  5
564B
330
1A
100
AcDbEntity
  8
SUNPOU
100
AcDbMText
 10
112150.310739409
 20
109799.9612583826
 30
0.0
 40
3.5
 41
0.0
 71
     9
 72
     5
  1

1001
ACAD
1000
MTEXTBEGIN
1070
    73
1070
     1
1070
    44
1040
1.0
1070
    74
1070
     0
1000
MTEXTEND
  0
MTEXT
  5
564C
330
1A
100
AcDbEntity
  8
SUNPOU
100
AcDbMText
 10
108819.1333204967
 20
110677.9087286761
 30
0.0
 40
10.5
 41
0.0
 71
     9
 72
     5
  1

1001
ACAD
1000
MTEXTBEGIN
1070
    73
1070
     1
1070
    44
1040
1.0
1070
    74
1070
     0
1000
MTEXTEND
  0
MTEXT
  5
564D
330
1A
100
AcDbEntity
  8
SUNPOU
100
AcDbMText
 10
110762.5405672062
 20
108876.8596487981
 30
0.0
 40
3.5
 41
0.0
 71
     9
 72
     5
  1

1001
ACAD
1000
MTEXTBEGIN
1070
    73
1070
     1
1070
    44
1040
1.0
1070
    74
1070
     0
1000
MTEXTEND
  0
MTEXT
  5
564E
330
1A
100
AcDbEntity
  8
SUNPOU
100
AcDbMText
 10
76303.05507956816
 20
68695.31179059812
 30
0.0
 40
10.5
 41
0.0
 71
     9
 72
     5
  1

1001
ACAD
1000
MTEXTBEGIN
1070
    73
1070
     1
1070
    44
1040
1.0
1070
    74
1070
     0
1000
MTEXTEND
  0
MTEXT
  5
564F
330
1A
100
AcDbEntity
  8
SUNPOU
100
AcDbMText
 10
79026.36128373271
 20
69099.99348217918
 30
0.0
 40
3.5
 41
0.0
 71
     9
 72
     5
  1

1001
ACAD
1000
MTEXTBEGIN
1070
    73
1070
     1
1070
    44
1040
1.0
1070
    74
1070
     0
1000
MTEXTEND
  0
MTEXT
  5
5650
330
1A
100
AcDbEntity
  8
SUNPOU
100
AcDbMText
 10
78234.00675862522
 20
65938.68764412436
 30
0.0
 40
10.5
 41
0.0
 71
     9
 72
     5
  1

1001
ACAD
1000
MTEXTBEGIN
1070
    73
1070
     1
1070
    44
1040
1.0
1070
    74
1070
     0
1000
MTEXTEND
  0
MTEXT
  5
5651
330
1A
100
AcDbEntity
  8
SUNPOU
100
AcDbMText
 10
80177.41400533465
 20
64137.63856424636
 30
0.0
 40
3.5
 41
0.0
 71
     9
 72
     5
  1

1001
ACAD
1000
MTEXTBEGIN
1070
    73
1070
     1
1070
    44
1040
1.0
1070
    74
1070
     0
1000
MTEXTEND
  0
MTEXT
  5
5652
330
1A
100
AcDbEntity
  8
SUNPOU
100
AcDbMText
 10
80122.50949592122
 20
64024.86668196204
 30
0.0
 40
3.5
 41
0.0
 71
     9
 72
     5
  1

1001
ACAD
1000
MTEXTBEGIN
1070
    73
1070
     1
1070
    44
1040
1.0
1070
    74
1070
     0
1000
MTEXTEND
  0
MTEXT
  5
5653
330
1A
100
AcDbEntity
  8
SUNPOU
100
AcDbMText
 10
79486.58135950133
 20
63213.54544089553
 30
0.0
 40
3.5
 41
0.0
 71
     9
 72
     5
  1

1001
ACAD
1000
MTEXTBEGIN
1070
    73
1070
     1
1070
    44
1040
1.0
1070
    74
1070
     0
1000
MTEXTEND
  0
MTEXT
  5
5654
330
1A
100
AcDbEntity
  8
SUNPOU
100
AcDbMText
 10
79485.3409400806
 20
63213.29746395804
 30
0.0
 40
10.5
 41
0.0
 71
     9
 72
     5
  1

1001
ACAD
1000
MTEXTBEGIN
1070
    73
1070
     1
1070
    44
1040
1.0
1070
    74
1070
     0
1000
MTEXTEND
  0
MTEXT
  5
5655
330
1A
100
AcDbEntity
  8
SUNPOU
100
AcDbMText
 10
85473.63363627567
 20
80747.76348077064
 30
0.0
 40
10.5
 41
0.0
 71
     9
 72
     5
  1

1001
ACAD
1000
MTEXTBEGIN
1070
    73
1070
     1
1070
    44
1040
1.0
1070
    74
1070
     0
1000
MTEXTEND
  0
MTEXT
  5
5656
330
1A
100
AcDbEntity
  8
SUNPOU
100
AcDbMText
 10
94195.80120219368
 20
88163.59801230806
 30
0.0
 40
10.5
 41
0.0
 71
     9
 72
     5
  1

1001
ACAD
1000
MTEXTBEGIN
1070
    73
1070
     1
1070
    44
1040
1.0
1070
    74
1070
     0
1000
MTEXTEND
  0
MTEXT
  5
5657
330
1A
100
AcDbEntity
  8
SUNPOU
100
AcDbMText
 10
113149.5599195236
 20
105630.1740648001
 30
0.0
 40
10.5
 41
0.0
 71
     9
 72
     5
  1

1001
ACAD
1000
MTEXTBEGIN
1070
    73
1070
     1
1070
    44
1040
1.0
1070
    74
1070
     0
1000
MTEXTEND
  0
MTEXT
  5
5658
330
1A
100
AcDbEntity
  8
SUNPOU
100
AcDbMText
 10
115092.967166233
 20
103829.1249849221
 30
0.0
 40
3.5
 41
0.0
 71
     9
 72
     5
  1

1001
ACAD
1000
MTEXTBEGIN
1070
    73
1070
     1
1070
    44
1040
1.0
1070
    74
1070
     0
1000
MTEXTEND
  0
MTEXT
  5
5659
330
1A
100
AcDbEntity
  8
SUNPOU
100
AcDbMText
 10
146219.1469988527
 20
146324.0706525794
 30
0.0
 40
10.5
 41
0.0
 71
     9
 72
     5
  1

1001
ACAD
1000
MTEXTBEGIN
1070
    73
1070
     1
1070
    44
1040
1.0
1070
    74
1070
     0
1000
MTEXTEND
  0
MTEXT
  5
565A
330
1A
100
AcDbEntity
  8
SUNPOU
100
AcDbMText
 10
148162.5542455621
 20
144523.0215727014
 30
0.0
 40
3.5
 41
0.0
 71
     9
 72
     5
  1

1001
ACAD
1000
MTEXTBEGIN
1070
    73
1070
     1
1070
    44
1040
1.0
1070
    74
1070
     0
1000
MTEXTEND
  0
MTEXT
  5
565B
330
1A
100
AcDbEntity
  8
SUNPOU
100
AcDbMText
 10
96659.41470464833
 20
92157.23580755453
 30
0.0
 40
10.5
 41
0.0
 71
     9
 72
     5
  1

1001
ACAD
1000
MTEXTBEGIN
1070
    73
1070
     1
1070
    44
1040
1.0
1070
    74
1070
     0
1000
MTEXTEND
  0
MTEXT
  5
565C
330
1A
100
AcDbEntity
  8
SUNPOU
100
AcDbMText
 10
82711.41460427234
 20
72984.83666844234
 30
0.0
 40
3.5
 41
0.0
 71
     7
 72
     5
  1

1001
ACAD
1000
MTEXTBEGIN
1070
    73
1070
     1
1070
    44
1040
1.0
1070
    74
1070
     0
1000
MTEXTEND
  0
MTEXT
  5
565D
330
1A
100
AcDbEntity
  8
SUNPOU
100
AcDbMText
 10
63696.58400126548
 20
60746.98539926055
 30
0.0
 40
10.5
 41
0.0
 71
     7
 72
     5
  1

1001
ACAD
1000
MTEXTBEGIN
1070
    73
1070
     1
1070
    44
1040
1.0
1070
    74
1070
     0
1000
MTEXTEND
  0
MTEXT
  5
565E
330
1A
100
AcDbEntity
  8
SUNPOU
100
AcDbMText
 10
51239.35573631738
 20
44902.05382116213
 30
0.0
 40
35.0
 41
0.0
 71
     9
 72
     5
  1

1001
ACAD
1000
MTEXTBEGIN
1070
    73
1070
     1
1070
    44
1040
1.0
1070
    74
1070
     0
1000
MTEXTEND
  0
MTEXT
  5
565F
330
1A
100
AcDbEntity
  8
SUNPOU
100
AcDbMText
 10
50147.84079389233
 20
45510.82923121084
 30
0.0
 40
350.0000004171781
 41
0.0
 71
     7
 72
     5
  1

1001
ACAD
1000
MTEXTBEGIN
1070
    73
1070
     1
1070
    44
1040
1.0
1070
    74
1070
     0
1000
MTEXTEND
  0
MTEXT
  5
5660
330
1A
100
AcDbEntity
  8
0
100
AcDbMText
 10
56191.79155183523
 20
43490.75159334705
 30
0.0
 40
8.0
 41
0.0
 71
     7
 72
     5
  1

1001
ACAD
1000
MTEXTBEGIN
1070
    73
1070
     1
1070
    44
1040
1.0
1070
    74
1070
     0
1000
MTEXTEND
  0
MTEXT
  5
5661
330
1A
100
AcDbEntity
  8
0
100
AcDbMText
 10
58477.14924173012
 20
44461.54188809812
 30
0.0
 40
8.0
 41
0.0
 71
     7
 72
     5
  1

1001
ACAD
1000
MTEXTBEGIN
1070
    73
1070
     1
1070
    44
1040
1.0
1070
    74
1070
     0
1000
MTEXTEND
  0
MTEXT
  5
5662
330
1A
100
AcDbEntity
  8
SUNPOU
100
AcDbMText
 10
61143.04626241227
 20
53973.65328047324
 30
0.0
 40
10.5
 41
0.0
 71
     1
 72
     5
  1

1001
ACAD
1000
MTEXTBEGIN
1070
    73
1070
     1
1070
    44
1040
1.0
1070
    74
1070
     0
1000
MTEXTEND
  0
MTEXT
  5
5663
330
1A
100
AcDbEntity
  8
SUNPOU
100
AcDbMText
 10
53212.12306647632
 20
53026.86014656028
 30
0.0
 40
10.5
 41
0.0
 71
     7
 72
     5
  1

1001
ACAD
1000
MTEXTBEGIN
1070
    73
1070
     1
1070
    44
1040
1.0
1070
    74
1070
     0
1000
MTEXTEND
  0
MTEXT
  5
5664
330
1A
100
AcDbEntity
  8
SUNPOU
100
AcDbMText
 10
56161.10673098909
 20
57927.53621840312
 30
0.0
 40
10.5
 41
0.0
 71
     7
 72
     5
  1

1001
ACAD
1000
MTEXTBEGIN
1070
    73
1070
     1
1070
    44
1040
1.0
1070
    74
1070
     0
1000
MTEXTEND
  0
MTEXT
  5
5665
330
1A
100
AcDbEntity
  8
SUNPOU
100
AcDbMText
 10
60670.18485893966
 20
60363.8369660232
 30
0.0
 40
10.5
 41
0.0
 71
     7
 72
     5
  1

1001
ACAD
1000
MTEXTBEGIN
1070
    73
1070
     1
1070
    44
1040
1.0
1070
    74
1070
     0
1000
MTEXTEND
  0
MTEXT
  5
5666
330
1A
100
AcDbEntity
  8
SUNPOU
100
AcDbMText
 10
44271.02274570799
 20
39361.43311641211
 30
0.0
 40
10.5
 41
0.0
 71
     7
 72
     5
  1

1001
ACAD
1000
MTEXTBEGIN
1070
    73
1070
     1
1070
    44
1040
1.0
1070
    74
1070
     0
1000
MTEXTEND
  0
MTEXT
  5
5667
330
1A
100
AcDbEntity
  8
SUNPOU
100
AcDbMText
 10
95462.54117960824
 20
85034.41368006038
 30
0.0
 40
10.5
 41
0.0
 71
     9
 72
     5
  1

1001
ACAD
1000
MTEXTBEGIN
1070
    73
1070
     1
1070
    44
1040
1.0
1070
    74
1070
     0
1000
MTEXTEND
  0
MTEXT
  5
5668
330
1A
100
AcDbEntity
  8
SUNPOU
100
AcDbMText
 10
104184.7087455262
 20
92450.24821159784
 30
0.0
 40
10.5
 41
0.0
 71
     9
 72
     5
  1

1001
ACAD
1000
MTEXTBEGIN
1070
    73
1070
     1
1070
    44
1040
1.0
1070
    74
1070
     0
1000
MTEXTEND
  0
MTEXT
  5
5669
330
1A
100
AcDbEntity
  8
SUNPOU
100
AcDbMText
 10
123138.4674628562
 20
109916.8242640898
 30
0.0
 40
10.5
 41
0.0
 71
     9
 72
     5
  1

1001
ACAD
1000
MTEXTBEGIN
1070
    73
1070
     1
1070
    44
1040
1.0
1070
    74
1070
     0
1000
MTEXTEND
  0
MTEXT
  5
566A
330
1A
100
AcDbEntity
  8
SUNPOU
100
AcDbMText
 10
125081.8747095656
 20
108115.7751842118
 30
0.0
 40
3.5
 41
0.0
 71
     9
 72
     5
  1

1001
ACAD
1000
MTEXTBEGIN
1070
    73
1070
     1
1070
    44
1040
1.0
1070
    74
1070
     0
1000
MTEXTEND
  0
MTEXT
  5
566B
330
1A
100
AcDbEntity
  8
SUNPOU
100
AcDbMText
 10
156208.0545421853
 20
150610.7208518691
 30
0.0
 40
10.5
 41
0.0
 71
     9
 72
     5
  1

1001
ACAD
1000
MTEXTBEGIN
1070
    73
1070
     1
1070
    44
1040
1.0
1070
    74
1070
     0
1000
MTEXTEND
  0
MTEXT
  5
566C
330
1A
100
AcDbEntity
  8
SUNPOU
100
AcDbMText
 10
158151.4617888947
 20
148809.6717719911
 30
0.0
 40
3.5
 41
0.0
 71
     9
 72
     5
  1

1001
ACAD
1000
MTEXTBEGIN
1070
    73
1070
     1
1070
    44
1040
1.0
1070
    74
1070
     0
1000
MTEXTEND
  0
MTEXT
  5
566D
330
1A
100
AcDbEntity
  8
SUNPOU
100
AcDbMText
 10
106648.3222479809
 20
96443.88600684427
 30
0.0
 40
10.5
 41
0.0
 71
     9
 72
     5
  1

1001
ACAD
1000
MTEXTBEGIN
1070
    73
1070
     1
1070
    44
1040
1.0
1070
    74
1070
     0
1000
MTEXTEND
  0
MTEXT
  5
566E
330
1A
100
AcDbEntity
  8
SUNPOU
100
AcDbMText
 10
92700.3221476049
 20
77271.48686773207
 30
0.0
 40
3.5
 41
0.0
 71
     7
 72
     5
  1

1001
ACAD
1000
MTEXTBEGIN
1070
    73
1070
     1
1070
    44
1040
1.0
1070
    74
1070
     0
1000
MTEXTEND
  0
MTEXT
  5
566F
330
1A
100
AcDbEntity
  8
SUNPOU
100
AcDbMText
 10
73685.49154459807
 20
65033.63559855027
 30
0.0
 40
10.5
 41
0.0
 71
     7
 72
     5
  1

1001
ACAD
1000
MTEXTBEGIN
1070
    73
1070
     1
1070
    44
1040
1.0
1070
    74
1070
     0
1000
MTEXTEND
  0
MTEXT
  5
5670
330
1A
100
AcDbEntity
  8
SUNPOU
100
AcDbMText
 10
61228.26327964995
 20
49188.70402045183
 30
0.0
 40
35.0
 41
0.0
 71
     9
 72
     5
  1

1001
ACAD
1000
MTEXTBEGIN
1070
    73
1070
     1
1070
    44
1040
1.0
1070
    74
1070
     0
1000
MTEXTEND
  0
MTEXT
  5
5671
330
1A
100
AcDbEntity
  8
SUNPOU
100
AcDbMText
 10
60136.74833722491
 20
49797.47943050056
 30
0.0
 40
350.0000004171781
 41
0.0
 71
     7
 72
     5
  1

1001
ACAD
1000
MTEXTBEGIN
1070
    73
1070
     1
1070
    44
1040
1.0
1070
    74
1070
     0
1000
MTEXTEND
  0
MTEXT
  5
5672
330
1A
100
AcDbEntity
  8
0
100
AcDbMText
 10
66180.69909516782
 20
47777.40179263677
 30
0.0
 40
8.0
 41
0.0
 71
     7
 72
     5
  1

1001
ACAD
1000
MTEXTBEGIN
1070
    73
1070
     1
1070
    44
1040
1.0
1070
    74
1070
     0
1000
MTEXTEND
  0
MTEXT
  5
5673
330
1A
100
AcDbEntity
  8
0
100
AcDbMText
 10
68466.05678506271
 20
48748.19208738784
 30
0.0
 40
8.0
 41
0.0
 71
     7
 72
     5
  1

1001
ACAD
1000
MTEXTBEGIN
1070
    73
1070
     1
1070
    44
1040
1.0
1070
    74
1070
     0
1000
MTEXTEND
  0
MTEXT
  5
5674
330
1A
100
AcDbEntity
  8
SUNPOU
100
AcDbMText
 10
71131.95380574485
 20
58260.30347976296
 30
0.0
 40
10.5
 41
0.0
 71
     1
 72
     5
  1

1001
ACAD
1000
MTEXTBEGIN
1070
    73
1070
     1
1070
    44
1040
1.0
1070
    74
1070
     0
1000
MTEXTEND
  0
MTEXT
  5
5675
330
1A
100
AcDbEntity
  8
SUNPOU
100
AcDbMText
 10
63201.03060980891
 20
57313.51034585003
 30
0.0
 40
10.5
 41
0.0
 71
     7
 72
     5
  1

1001
ACAD
1000
MTEXTBEGIN
1070
    73
1070
     1
1070
    44
1040
1.0
1070
    74
1070
     0
1000
MTEXTEND
  0
MTEXT
  5
5676
330
1A
100
AcDbEntity
  8
SUNPOU
100
AcDbMText
 10
66150.01427432169
 20
62214.18641769286
 30
0.0
 40
10.5
 41
0.0
 71
     7
 72
     5
  1

1001
ACAD
1000
MTEXTBEGIN
1070
    73
1070
     1
1070
    44
1040
1.0
1070
    74
1070
     0
1000
MTEXTEND
  0
MTEXT
  5
5677
330
1A
100
AcDbEntity
  8
SUNPOU
100
AcDbMText
 10
70659.09240227225
 20
64650.48716531294
 30
0.0
 40
10.5
 41
0.0
 71
     7
 72
     5
  1

1001
ACAD
1000
MTEXTBEGIN
1070
    73
1070
     1
1070
    44
1040
1.0
1070
    74
1070
     0
1000
MTEXTEND
  0
MTEXT
  5
5678
330
1A
100
AcDbEntity
  8
SUNPOU
100
AcDbMText
 10
54259.93028904056
 20
43648.08331570185
 30
0.0
 40
10.5
 41
0.0
 71
     7
 72
     5
  1

1001
ACAD
1000
MTEXTBEGIN
1070
    73
1070
     1
1070
    44
1040
1.0
1070
    74
1070
     0
1000
MTEXTEND
  0
MTEXT
  5
5679
330
1A
100
AcDbEntity
  8
SUNPOU
100
AcDbMText
 10
56070.69320041551
 20
49975.4973031804
 30
0.0
 40
10.5
 41
0.0
 71
     9
 72
     5
  1

1001
ACAD
1000
MTEXTBEGIN
1070
    73
1070
     1
1070
    44
1040
1.0
1070
    74
1070
     0
1000
MTEXTEND
  0
MTEXT
  5
567A
330
1A
100
AcDbEntity
  8
SUNPOU
100
AcDbMText
 10
64792.86076633347
 20
57391.33183471787
 30
0.0
 40
10.5
 41
0.0
 71
     9
 72
     5
  1

1001
ACAD
1000
MTEXTBEGIN
1070
    73
1070
     1
1070
    44
1040
1.0
1070
    74
1070
     0
1000
MTEXTEND
  0
MTEXT
  5
567B
330
1A
100
AcDbEntity
  8
SUNPOU
100
AcDbMText
 10
83746.61948366345
 20
74857.90788720994
 30
0.0
 40
10.5
 41
0.0
 71
     9
 72
     5
  1

1001
ACAD
1000
MTEXTBEGIN
1070
    73
1070
     1
1070
    44
1040
1.0
1070
    74
1070
     0
1000
MTEXTEND
  0
MTEXT
  5
567C
330
1A
100
AcDbEntity
  8
SUNPOU
100
AcDbMText
 10
85690.02673037287
 20
73056.85880733192
 30
0.0
 40
3.5
 41
0.0
 71
     9
 72
     5
  1

1001
ACAD
1000
MTEXTBEGIN
1070
    73
1070
     1
1070
    44
1040
1.0
1070
    74
1070
     0
1000
MTEXTEND
  0
MTEXT
  5
567D
330
1A
100
AcDbEntity
  8
SUNPOU
100
AcDbMText
 10
116816.2065629925
 20
115551.8044749892
 30
0.0
 40
10.5
 41
0.0
 71
     9
 72
     5
  1

1001
ACAD
1000
MTEXTBEGIN
1070
    73
1070
     1
1070
    44
1040
1.0
1070
    74
1070
     0
1000
MTEXTEND
  0
MTEXT
  5
567E
330
1A
100
AcDbEntity
  8
SUNPOU
100
AcDbMText
 10
118759.6138097019
 20
113750.7553951111
 30
0.0
 40
3.5
 41
0.0
 71
     9
 72
     5
  1

1001
ACAD
1000
MTEXTBEGIN
1070
    73
1070
     1
1070
    44
1040
1.0
1070
    74
1070
     0
1000
MTEXTEND
  0
MTEXT
  5
567F
330
1A
100
AcDbEntity
  8
SUNPOU
100
AcDbMText
 10
67256.47426878814
 20
61384.96962996432
 30
0.0
 40
10.5
 41
0.0
 71
     9
 72
     5
  1

1001
ACAD
1000
MTEXTBEGIN
1070
    73
1070
     1
1070
    44
1040
1.0
1070
    74
1070
     0
1000
MTEXTEND
  0
MTEXT
  5
5680
330
1A
100
AcDbEntity
  8
SUNPOU
100
AcDbMText
 10
53308.47416841216
 20
42212.57049085211
 30
0.0
 40
3.5
 41
0.0
 71
     7
 72
     5
  1

1001
ACAD
1000
MTEXTBEGIN
1070
    73
1070
     1
1070
    44
1040
1.0
1070
    74
1070
     0
1000
MTEXTEND
  0
MTEXT
  5
5681
330
1A
100
AcDbEntity
  8
SUNPOU
100
AcDbMText
 10
67000.82485118274
 20
51571.63371187343
 30
0.0
 40
10.5
 41
0.0
 71
     9
 72
     5
  1

1001
ACAD
1000
MTEXTBEGIN
1070
    73
1070
     1
1070
    44
1040
1.0
1070
    74
1070
     0
1000
MTEXTEND
  0
MTEXT
  5
5682
330
1A
100
AcDbEntity
  8
SUNPOU
100
AcDbMText
 10
75722.99241710071
 20
58987.46824341094
 30
0.0
 40
10.5
 41
0.0
 71
     9
 72
     5
  1

1001
ACAD
1000
MTEXTBEGIN
1070
    73
1070
     1
1070
    44
1040
1.0
1070
    74
1070
     0
1000
MTEXTEND
  0
MTEXT
  5
5683
330
1A
100
AcDbEntity
  8
SUNPOU
100
AcDbMText
 10
94676.75113443068
 20
76454.04429590299
 30
0.0
 40
10.5
 41
0.0
 71
     9
 72
     5
  1

1001
ACAD
1000
MTEXTBEGIN
1070
    73
1070
     1
1070
    44
1040
1.0
1070
    74
1070
     0
1000
MTEXTEND
  0
MTEXT
  5
5684
330
1A
100
AcDbEntity
  8
SUNPOU
100
AcDbMText
 10
96620.1583811401
 20
74652.99521602497
 30
0.0
 40
3.5
 41
0.0
 71
     9
 72
     5
  1

1001
ACAD
1000
MTEXTBEGIN
1070
    73
1070
     1
1070
    44
1040
1.0
1070
    74
1070
     0
1000
MTEXTEND
  0
MTEXT
  5
5685
330
1A
100
AcDbEntity
  8
SUNPOU
100
AcDbMText
 10
127746.3382137598
 20
117147.9408836822
 30
0.0
 40
10.5
 41
0.0
 71
     9
 72
     5
  1

1001
ACAD
1000
MTEXTBEGIN
1070
    73
1070
     1
1070
    44
1040
1.0
1070
    74
1070
     0
1000
MTEXTEND
  0
MTEXT
  5
5686
330
1A
100
AcDbEntity
  8
SUNPOU
100
AcDbMText
 10
129689.7454604692
 20
115346.8918038041
 30
0.0
 40
3.5
 41
0.0
 71
     9
 72
     5
  1

1001
ACAD
1000
MTEXTBEGIN
1070
    73
1070
     1
1070
    44
1040
1.0
1070
    74
1070
     0
1000
MTEXTEND
  0
MTEXT
  5
5687
330
1A
100
AcDbEntity
  8
SUNPOU
100
AcDbMText
 10
78186.60591955537
 20
62981.10603865737
 30
0.0
 40
10.5
 41
0.0
 71
     9
 72
     5
  1

1001
ACAD
1000
MTEXTBEGIN
1070
    73
1070
     1
1070
    44
1040
1.0
1070
    74
1070
     0
1000
MTEXTEND
  0
MTEXT
  5
5688
330
1A
100
AcDbEntity
  8
SUNPOU
100
AcDbMText
 10
64238.60581917939
 20
43808.70689954517
 30
0.0
 40
3.5
 41
0.0
 71
     7
 72
     5
  1

1001
ACAD
1000
MTEXTBEGIN
1070
    73
1070
     1
1070
    44
1040
1.0
1070
    74
1070
     0
1000
MTEXTEND
  0
MTEXT
  5
5689
330
1A
100
AcDbEntity
  8
SUNPOU
100
AcDbMText
 10
33428.13481137435
 20
32770.04710035563
 30
0.0
 40
10.5
 41
0.0
 71
     9
 72
     5
  1

1001
ACAD
1000
MTEXTBEGIN
1070
    73
1070
     1
1070
    44
1040
1.0
1070
    74
1070
     0
1000
MTEXTEND
  0
MTEXT
  5
568A
330
1A
100
AcDbEntity
  8
SUNPOU
100
AcDbMText
 10
52381.89352870431
 20
50236.62315284768
 30
0.0
 40
10.5
 41
0.0
 71
     9
 72
     5
  1

1001
ACAD
1000
MTEXTBEGIN
1070
    73
1070
     1
1070
    44
1040
1.0
1070
    74
1070
     0
1000
MTEXTEND
  0
MTEXT
  5
568B
330
1A
100
AcDbEntity
  8
SUNPOU
100
AcDbMText
 10
54325.30077541374
 20
48435.57407296968
 30
0.0
 40
3.5
 41
0.0
 71
     9
 72
     5
  1

1001
ACAD
1000
MTEXTBEGIN
1070
    73
1070
     1
1070
    44
1040
1.0
1070
    74
1070
     0
1000
MTEXTEND
  0
MTEXT
  5
568C
330
1A
100
AcDbEntity
  8
SUNPOU
100
AcDbMText
 10
85451.48060803342
 20
90930.51974062703
 30
0.0
 40
10.5
 41
0.0
 71
     9
 72
     5
  1

1001
ACAD
1000
MTEXTBEGIN
1070
    73
1070
     1
1070
    44
1040
1.0
1070
    74
1070
     0
1000
MTEXTEND
  0
MTEXT
  5
568D
330
1A
100
AcDbEntity
  8
SUNPOU
100
AcDbMText
 10
87394.88785474286
 20
89129.47066074901
 30
0.0
 40
3.5
 41
0.0
 71
     9
 72
     5
  1

1001
ACAD
1000
MTEXTBEGIN
1070
    73
1070
     1
1070
    44
1040
1.0
1070
    74
1070
     0
1000
MTEXTEND
  0
MTEXT
  5
568E
330
1A
100
AcDbEntity
  8
SUNPOU
100
AcDbMText
 10
35891.74831382901
 20
36763.68489560208
 30
0.0
 40
10.5
 41
0.0
 71
     9
 72
     5
  1

1001
ACAD
1000
MTEXTBEGIN
1070
    73
1070
     1
1070
    44
1040
1.0
1070
    74
1070
     0
1000
MTEXTEND
  0
MTEXT
  5
568F
330
1A
100
AcDbEntity
  8
SUNPOU
100
AcDbMText
 10
21943.74821345303
 20
17591.28575648985
 30
0.0
 40
3.5
 41
0.0
 71
     7
 72
     5
  1

1001
ACAD
1000
MTEXTBEGIN
1070
    73
1070
     1
1070
    44
1040
1.0
1070
    74
1070
     0
1000
MTEXTEND
  0
MTEXT
  5
123CD
330
1A
100
AcDbEntity
  8
ZISSEN1
100
AcDbMText
 10
-1961.126561224387
 20
1894.08388249165
 30
0.0
 40
5.0
 41
90.3852
 71
     1
 72
     5
  1
C-771 No.SS0001f16
  7
ゴシック体
1001
ACAD
1000
MTEXTBEGIN
1070
    73
1070
     1
1070
    44
1040
1.0
1070
    74
1070
     0
1000
MTEXTEND
  0
LINE
  5
12531
330
1A
100
AcDbEntity
  8
ZISSEN1
100
AcDbLine
 10
-2010.704638027943
 20
1762.909180486632
 30
0.0
 11
-2010.704638027943
 21
1764.159180486632
 31
0.0
  0
LINE
  5
12532
330
1A
100
AcDbEntity
  8
ZISSEN1
100
AcDbLine
 10
-2002.704638027944
 20
1846.909180486631
 30
0.0
 11
-1997.154638027944
 21
1846.909180486631
 31
0.0
  0
LINE
  5
12534
330
1A
100
AcDbEntity
  8
ZISSEN1
100
AcDbLine
 10
-2003.704638027943
 20
1761.909180486632
 30
0.0
 11
-1939.704638027944
 21
1761.909180486632
 31
0.0
  0
LINE
  5
12535
330
1A
100
AcDbEntity
  8
ZISSEN1
100
AcDbLine
 10
-1997.154638027944
 20
1839.709180486632
 30
0.0
 11
-1997.154638027944
 21
1847.309180486632
 31
0.0
  0
LINE
  5
12536
330
1A
100
AcDbEntity
  8
ZISSEN1
100
AcDbLine
 10
-1997.154638027944
 20
1847.309180486632
 30
0.0
 11
-1987.254638027944
 21
1847.309180486632
 31
0.0
  0
ARC
  5
12537
330
1A
100
AcDbEntity
  8
ZISSEN1
100
AcDbCircle
 10
-2006.704638027943
 20
1765.909180486632
 30
0.0
 40
1.75
100
AcDbArc
 50
270.0
 51
90.0
  0
LINE
  5
12538
330
1A
100
AcDbEntity
  8
CL1
100
AcDbLine
 10
-2007.704638027944
 20
1761.736490251809
 30
0.0
 11
-2007.704638027944
 21
1770.081870721454
 31
0.0
  0
LINE
  5
12539
330
1A
100
AcDbEntity
  8
ZISSEN1
100
AcDbLine
 10
-2010.704638027943
 20
1764.159180486632
 30
0.0
 11
-2006.704638027943
 21
1764.159180486632
 31
0.0
  0
LINE
  5
1253A
330
1A
100
AcDbEntity
  8
CL1
100
AcDbLine
 10
-2011.050018497589
 20
1765.909180486632
 30
0.0
 11
-2002.359257558298
 21
1765.909180486632
 31
0.0
  0
LINE
  5
1253B
330
1A
100
AcDbEntity
  8
ZISSEN1
100
AcDbLine
 10
-2010.704638027943
 20
1767.659180486631
 30
0.0
 11
-2006.704638027943
 21
1767.659180486631
 31
0.0
  0
LINE
  5
1253C
330
1A
100
AcDbEntity
  8
ZISSEN1
100
AcDbLine
 10
-2010.704638027943
 20
1767.659180486631
 30
0.0
 11
-2010.704638027943
 21
1768.909180486632
 31
0.0
  0
LINE
  5
1253D
330
1A
100
AcDbEntity
  8
ZISSEN1
100
AcDbLine
 10
-2009.704638027943
 20
1761.909180486632
 30
0.0
 11
-2003.704638027943
 21
1761.909180486632
 31
0.0
  0
LINE
  5
1253E
330
1A
100
AcDbEntity
  8
ZISSEN1
100
AcDbLine
 10
-2003.704638027943
 20
1769.909180486632
 30
0.0
 11
-2003.704638027943
 21
1761.909180486632
 31
0.0
  0
LINE
  5
1253F
330
1A
100
AcDbEntity
  8
ZISSEN1
100
AcDbLine
 10
-2009.704638027943
 20
1769.909180486632
 30
0.0
 11
-2003.704638027943
 21
1769.909180486632
 31
0.0
  0
LINE
  5
12540
330
1A
100
AcDbEntity
  8
ZISSEN1
100
AcDbLine
 10
-2003.704638027943
 20
1845.909180486632
 30
0.0
 11
-2003.704638027943
 21
1838.909180486632
 31
0.0
  0
LINE
  5
12541
330
1A
100
AcDbEntity
  8
ZISSEN1
100
AcDbLine
 10
-2008.704638027944
 20
1838.909180486632
 30
0.0
 11
-2003.704638027943
 21
1838.909180486632
 31
0.0
  0
LINE
  5
12542
330
1A
100
AcDbEntity
  8
ZISSEN1
100
AcDbLine
 10
-2009.704638027943
 20
1837.909180486632
 30
0.0
 11
-2009.704638027943
 21
1814.909180486631
 31
0.0
  0
LINE
  5
12543
330
1A
100
AcDbEntity
  8
ZISSEN1
100
AcDbLine
 10
-2008.704638027944
 20
1813.909180486632
 30
0.0
 11
-2006.204638027944
 21
1813.909180486632
 31
0.0
  0
LINE
  5
12544
330
1A
100
AcDbEntity
  8
ZISSEN1
100
AcDbLine
 10
-2006.204638027944
 20
1813.909180486632
 30
0.0
 11
-2006.204638027944
 21
1771.90918048663
 31
0.0
  0
LINE
  5
12545
330
1A
100
AcDbEntity
  8
ZISSEN1
100
AcDbLine
 10
-2006.204638027944
 20
1771.90918048663
 30
0.0
 11
-2003.704638027943
 21
1769.909180486632
 31
0.0
  0
LINE
  5
12546
330
1A
100
AcDbEntity
  8
ZISSEN1
100
AcDbLine
 10
-1931.704638027944
 20
1845.909180486632
 30
0.0
 11
-1931.704638027944
 21
1838.909180486632
 31
0.0
  0
LINE
  5
12547
330
1A
100
AcDbEntity
  8
ZISSEN1
100
AcDbLine
 10
-1938.704638027942
 20
1838.909180486632
 30
0.0
 11
-1931.704638027944
 21
1838.909180486632
 31
0.0
  0
LINE
  5
12548
330
1A
100
AcDbEntity
  8
ZISSEN1
100
AcDbLine
 10
-1938.704638027942
 20
1762.909180486632
 30
0.0
 11
-1938.704638027942
 21
1827.409180486632
 31
0.0
  0
LINE
  5
12549
330
1A
100
AcDbEntity
  8
CL1
100
AcDbLine
 10
-1934.704638027944
 20
1847.909180486632
 30
0.0
 11
-1934.704638027944
 21
1837.909180486632
 31
0.0
  0
LINE
  5
1254A
330
1A
100
AcDbEntity
  8
CL1
100
AcDbLine
 10
-1939.704638027944
 20
1842.909180486632
 30
0.0
 11
-1929.704638027944
 21
1842.909180486632
 31
0.0
  0
CIRCLE
  5
1254B
330
1A
100
AcDbEntity
  8
ZISSEN1
100
AcDbCircle
 10
-1934.704638027944
 20
1842.909180486632
 30
0.0
 40
1.75
  0
LINE
  5
1254C
330
1A
100
AcDbEntity
  8
ZISSEN1
100
AcDbLine
 10
-1931.704638027944
 20
1838.909180486632
 30
0.0
 11
-1931.704638027944
 21
1845.909180486632
 31
0.0
  0
LINE
  5
1254D
330
1A
100
AcDbEntity
  8
CL1
100
AcDbLine
 10
-2006.204638027944
 20
1813.909180486632
 30
0.0
 11
-2006.204638027944
 21
1841.909180486632
 31
0.0
  0
LINE
  5
1254E
330
1A
100
AcDbEntity
  8
CL1
100
AcDbLine
 10
-2010.704638027943
 20
1835.409180486632
 30
0.0
 11
-2001.704638027943
 21
1835.409180486632
 31
0.0
  0
LINE
  5
1254F
330
1A
100
AcDbEntity
  8
CL1
100
AcDbLine
 10
-2010.704638027943
 20
1829.409180486632
 30
0.0
 11
-2001.704638027943
 21
1829.409180486632
 31
0.0
  0
CIRCLE
  5
12550
330
1A
100
AcDbEntity
  8
SAISEN
100
AcDbCircle
 10
-2006.204638027944
 20
1835.409180486632
 30
0.0
 40
1.3
  0
LINE
  5
12551
330
1A
100
AcDbEntity
  8
ZISSEN1
100
AcDbLine
 10
-1987.104638027944
 20
1846.909180486631
 30
0.0
 11
-1987.104638027944
 21
1838.409180486632
 31
0.0
  0
LINE
  5
12552
330
1A
100
AcDbEntity
  8
ZISSEN1
100
AcDbLine
 10
-1987.104638027944
 20
1838.409180486632
 30
0.0
 11
-1973.104638027944
 21
1838.409180486632
 31
0.0
  0
LINE
  5
12553
330
1A
100
AcDbEntity
  8
ZISSEN1
100
AcDbLine
 10
-1973.104638027944
 20
1840.50918048663
 30
0.0
 11
-1973.104638027944
 21
1838.409180486632
 31
0.0
  0
LINE
  5
12554
330
1A
100
AcDbEntity
  8
ZISSEN1
100
AcDbLine
 10
-2008.704638027944
 20
1838.909180486632
 30
0.0
 11
-2009.704638027943
 21
1837.909180486632
 31
0.0
  0
LINE
  5
12555
330
1A
100
AcDbEntity
  8
ZISSEN1
100
AcDbLine
 10
-2009.704638027943
 20
1814.909180486631
 30
0.0
 11
-2008.704638027944
 21
1813.909180486632
 31
0.0
  0
LINE
  5
12556
330
1A
100
AcDbEntity
  8
ZISSEN1
100
AcDbLine
 10
-1938.704638027942
 20
1762.909180486632
 30
0.0
 11
-1939.704638027944
 21
1761.909180486632
 31
0.0
  0
LINE
  5
12557
330
1A
100
AcDbEntity
  8
ZISSEN1
100
AcDbLine
 10
-1932.704638027944
 20
1846.909180486631
 30
0.0
 11
-1931.704638027944
 21
1845.909180486632
 31
0.0
  0
LINE
  5
12558
330
1A
100
AcDbEntity
  8
ZISSEN1
100
AcDbLine
 10
-2009.704638027943
 20
1769.909180486632
 30
0.0
 11
-2010.704638027943
 21
1768.909180486632
 31
0.0
  0
LINE
  5
12559
330
1A
100
AcDbEntity
  8
ZISSEN1
100
AcDbLine
 10
-2010.704638027943
 20
1762.909180486632
 30
0.0
 11
-2009.704638027943
 21
1761.909180486632
 31
0.0
  0
LINE
  5
1255A
330
1A
100
AcDbEntity
  8
ZISSEN1
100
AcDbLine
 10
-1890.703139353716
 20
1846.931155382014
 30
0.0
 11
-1890.703139353716
 21
1840.531155382013
 31
0.0
  0
LINE
  5
1255B
330
1A
100
AcDbEntity
  8
ZISSEN1
100
AcDbLine
 10
-1873.202991699825
 20
1846.940566573923
 30
0.0
 11
-1872.202991699825
 21
1846.940566573923
 31
0.0
  0
LINE
  5
1255C
330
1A
100
AcDbEntity
  8
ZISSEN1
100
AcDbLine
 10
-1873.202991699825
 20
1761.940566573922
 30
0.0
 11
-1872.202991699825
 21
1761.940566573922
 31
0.0
  0
LINE
  5
1255D
330
1A
100
AcDbEntity
  8
ZISSEN1
100
AcDbLine
 10
-1846.704638027943
 20
1846.909180486631
 30
0.0
 11
-1846.704638027943
 21
1761.909180486632
 31
0.0
  0
LINE
  5
1255E
330
1A
100
AcDbEntity
  8
ZISSEN1
100
AcDbLine
 10
-1846.704638027943
 20
1846.909180486631
 30
0.0
 11
-1846.704638027943
 21
1761.909180486632
 31
0.0
  0
LINE
  5
1255F
330
1A
100
AcDbEntity
  8
ZISSEN1
100
AcDbLine
 10
-1848.704638027944
 20
1846.909180486631
 30
0.0
 11
-1848.704638027944
 21
1761.909180486632
 31
0.0
  0
LINE
  5
12560
330
1A
100
AcDbEntity
  8
ZISSEN1
100
AcDbLine
 10
-1848.704638027944
 20
1761.909180486632
 30
0.0
 11
-1846.704638027943
 21
1761.909180486632
 31
0.0
  0
LINE
  5
12561
330
1A
100
AcDbEntity
  8
ZISSEN1
100
AcDbLine
 10
-1848.704638027944
 20
1846.909180486631
 30
0.0
 11
-1846.704638027943
 21
1846.909180486631
 31
0.0
  0
LINE
  5
12562
330
1A
100
AcDbEntity
  8
ZISSEN1
100
AcDbLine
 10
-1852.704638027944
 20
1845.409180486631
 30
0.0
 11
-1848.704638027944
 21
1845.409180486631
 31
0.0
  0
LINE
  5
12563
330
1A
100
AcDbEntity
  8
ZISSEN1
100
AcDbLine
 10
-1852.704638027944
 20
1840.409180486632
 30
0.0
 11
-1848.704638027944
 21
1840.409180486632
 31
0.0
  0
LINE
  5
12564
330
1A
100
AcDbEntity
  8
ZISSEN1
100
AcDbLine
 10
-1852.704638027944
 20
1763.409180486632
 30
0.0
 11
-1848.704638027944
 21
1763.409180486632
 31
0.0
  0
LINE
  5
12565
330
1A
100
AcDbEntity
  8
ZISSEN1
100
AcDbLine
 10
-1852.704638027944
 20
1768.409180486631
 30
0.0
 11
-1848.704638027944
 21
1768.409180486631
 31
0.0
  0
LINE
  5
12566
330
1A
100
AcDbEntity
  8
ZISSEN1
100
AcDbLine
 10
-1852.704638027944
 20
1846.909180486631
 30
0.0
 11
-1852.704638027944
 21
1761.909180486632
 31
0.0
  0
LINE
  5
12567
330
1A
100
AcDbEntity
  8
ZISSEN1
100
AcDbLine
 10
-1854.304638027944
 20
1846.909180486631
 30
0.0
 11
-1852.704638027944
 21
1846.909180486631
 31
0.0
  0
LINE
  5
12568
330
1A
100
AcDbEntity
  8
ZISSEN1
100
AcDbLine
 10
-1854.304638027944
 20
1761.909180486632
 30
0.0
 11
-1852.704638027944
 21
1761.909180486632
 31
0.0
  0
LINE
  5
12569
330
1A
100
AcDbEntity
  8
ZISSEN1
100
AcDbLine
 10
-1854.304638027944
 20
1846.909180486631
 30
0.0
 11
-1854.304638027944
 21
1761.909180486632
 31
0.0
  0
LINE
  5
1256A
330
1A
100
AcDbEntity
  8
ZISSEN1
100
AcDbLine
 10
-1866.304638027943
 20
1763.409180486632
 30
0.0
 11
-1854.304638027944
 21
1763.409180486632
 31
0.0
  0
LINE
  5
1256B
330
1A
100
AcDbEntity
  8
ZISSEN1
100
AcDbLine
 10
-1866.304638027943
 20
1768.409180486631
 30
0.0
 11
-1854.304638027944
 21
1768.409180486631
 31
0.0
  0
LINE
  5
1256C
330
1A
100
AcDbEntity
  8
ZISSEN1
100
AcDbLine
 10
-1866.304638027943
 20
1840.409180486632
 30
0.0
 11
-1854.304638027944
 21
1840.409180486632
 31
0.0
  0
LINE
  5
1256D
330
1A
100
AcDbEntity
  8
ZISSEN1
100
AcDbLine
 10
-1866.304638027943
 20
1845.409180486631
 30
0.0
 11
-1854.304638027944
 21
1845.409180486631
 31
0.0
  0
LINE
  5
1256E
330
1A
100
AcDbEntity
  8
ZISSEN1
100
AcDbLine
 10
-1866.304638027943
 20
1846.909180486631
 30
0.0
 11
-1866.304638027943
 21
1788.409180486632
 31
0.0
  0
LINE
  5
1256F
330
1A
100
AcDbEntity
  8
ZISSEN1
100
AcDbLine
 10
-1867.904638027944
 20
1846.909180486631
 30
0.0
 11
-1866.304638027943
 21
1846.909180486631
 31
0.0
  0
LINE
  5
12570
330
1A
100
AcDbEntity
  8
ZISSEN1
100
AcDbLine
 10
-1867.904638027944
 20
1761.909180486632
 30
0.0
 11
-1866.304638027943
 21
1761.909180486632
 31
0.0
  0
LINE
  5
12571
330
1A
100
AcDbEntity
  8
ZISSEN1
100
AcDbLine
 10
-1867.904638027944
 20
1846.909180486631
 30
0.0
 11
-1867.904638027944
 21
1788.409180486632
 31
0.0
  0
LINE
  5
12572
330
1A
100
AcDbEntity
  8
ZISSEN1
100
AcDbLine
 10
-1872.2046
 20
1768.409180486631
 30
0.0
 11
-1867.904638027944
 21
1768.409180486631
 31
0.0
  0
LINE
  5
12573
330
1A
100
AcDbEntity
  8
ZISSEN1
100
AcDbLine
 10
-1872.2046
 20
1763.409180486632
 30
0.0
 11
-1867.904638027944
 21
1763.409180486632
 31
0.0
  0
LINE
  5
12574
330
1A
100
AcDbEntity
  8
ZISSEN1
100
AcDbLine
 10
-1872.2046
 20
1840.409180486632
 30
0.0
 11
-1867.904638027944
 21
1840.409180486632
 31
0.0
  0
LINE
  5
12575
330
1A
100
AcDbEntity
  8
ZISSEN1
100
AcDbLine
 10
-1872.2046
 20
1845.409180486631
 30
0.0
 11
-1867.904638027944
 21
1845.409180486631
 31
0.0
  0
LINE
  5
12576
330
1A
100
AcDbEntity
  8
ZISSEN1
100
AcDbLine
 10
-1872.202991699825
 20
1846.940566573923
 30
0.0
 11
-1872.202991699825
 21
1788.440566573923
 31
0.0
  0
LINE
  5
12577
330
1A
100
AcDbEntity
  8
ZISSEN1
100
AcDbLine
 10
-1948.664638027944
 20
1836.40918048663
 30
0.0
 11
-1939.704638027944
 21
1836.40918048663
 31
0.0
  0
LINE
  5
12578
330
1A
100
AcDbEntity
  8
ZISSEN1
100
AcDbLine
 10
-1948.664638027944
 20
1836.40918048663
 30
0.0
 11
-1948.664638027944
 21
1827.409180486632
 31
0.0
  0
LINE
  5
12579
330
1A
100
AcDbEntity
  8
ZISSEN1
100
AcDbLine
 10
-1948.664638027944
 20
1827.409180486632
 30
0.0
 11
-1939.704638027944
 21
1827.409180486632
 31
0.0
  0
LINE
  5
1257A
330
1A
100
AcDbEntity
  8
ZISSEN1
100
AcDbLine
 10
-1938.704638027942
 20
1836.40918048663
 30
0.0
 11
-1938.704638027942
 21
1826.409180486632
 31
0.0
  0
LINE
  5
1257B
330
1A
100
AcDbEntity
  8
ZISSEN1
100
AcDbLine
 10
-1948.354638027944
 20
1836.36418048663
 30
0.0
 11
-1942.054638027943
 21
1836.36418048663
 31
0.0
  0
LINE
  5
1257C
330
1A
100
AcDbEntity
  8
ZISSEN1
100
AcDbLine
 10
-1942.054638027943
 20
1829.454180486632
 30
0.0
 11
-1942.054638027943
 21
1836.36418048663
 31
0.0
  0
LINE
  5
1257D
330
1A
100
AcDbEntity
  8
ZISSEN1
100
AcDbLine
 10
-1948.354638027944
 20
1829.454180486632
 30
0.0
 11
-1942.054638027943
 21
1829.454180486632
 31
0.0
  0
LINE
  5
1257E
330
1A
100
AcDbEntity
  8
ZISSEN1
100
AcDbLine
 10
-1948.354638027944
 20
1829.454180486632
 30
0.0
 11
-1948.354638027944
 21
1836.36418048663
 31
0.0
  0
LINE
  5
1257F
330
1A
100
AcDbEntity
  8
ZISSEN1
100
AcDbLine
 10
-1987.254638027944
 20
1839.709180486632
 30
0.0
 11
-1987.254638027944
 21
1847.309180486632
 31
0.0
  0
LINE
  5
12580
330
1A
100
AcDbEntity
  8
ZISSEN1
100
AcDbLine
 10
-1997.154638027944
 20
1839.709180486632
 30
0.0
 11
-1987.254638027944
 21
1839.709180486632
 31
0.0
  0
LINE
  5
12581
330
1A
100
AcDbEntity
  8
ZISSEN1
100
AcDbLine
 10
-1987.254638027944
 20
1846.909180486631
 30
0.0
 11
-1932.704638027944
 21
1846.909180486631
 31
0.0
  0
LINE
  5
12582
330
1A
100
AcDbEntity
  8
ZISSEN1
100
AcDbLine
 10
-1991.104638027944
 20
1838.409180486632
 30
0.0
 11
-1983.504638027944
 21
1838.409180486632
 31
0.0
  0
LINE
  5
12583
330
1A
100
AcDbEntity
  8
ZISSEN1
100
AcDbLine
 10
-1991.104638027944
 20
1838.409180486632
 30
0.0
 11
-1991.104638027944
 21
1821.009180486631
 31
0.0
  0
LINE
  5
12584
330
1A
100
AcDbEntity
  8
ZISSEN1
100
AcDbLine
 10
-1983.504638027944
 20
1838.409180486632
 30
0.0
 11
-1983.504638027944
 21
1821.009180486631
 31
0.0
  0
LINE
  5
12585
330
1A
100
AcDbEntity
  8
ZISSEN1
100
AcDbLine
 10
-1991.104638027944
 20
1821.009180486631
 30
0.0
 11
-1983.504638027944
 21
1821.009180486631
 31
0.0
  0
LINE
  5
12586
330
1A
100
AcDbEntity
  8
ZISSEN1
100
AcDbLine
 10
-1981.104638027943
 20
1821.009180486631
 30
0.0
 11
-1973.504638027944
 21
1821.009180486631
 31
0.0
  0
LINE
  5
12587
330
1A
100
AcDbEntity
  8
ZISSEN1
100
AcDbLine
 10
-1981.104638027943
 20
1838.409180486632
 30
0.0
 11
-1973.504638027944
 21
1838.409180486632
 31
0.0
  0
LINE
  5
12588
330
1A
100
AcDbEntity
  8
ZISSEN1
100
AcDbLine
 10
-1981.104638027943
 20
1838.409180486632
 30
0.0
 11
-1981.104638027943
 21
1821.009180486631
 31
0.0
  0
LINE
  5
12589
330
1A
100
AcDbEntity
  8
ZISSEN1
100
AcDbLine
 10
-1973.504638027944
 20
1838.409180486632
 30
0.0
 11
-1973.504638027944
 21
1821.009180486631
 31
0.0
  0
LINE
  5
1258A
330
1A
100
AcDbEntity
  8
ZISSEN1
100
AcDbLine
 10
-1963.504638027944
 20
1821.009180486631
 30
0.0
 11
-1963.504638027944
 21
1838.409180486632
 31
0.0
  0
LINE
  5
1258B
330
1A
100
AcDbEntity
  8
ZISSEN1
100
AcDbLine
 10
-1971.104638027944
 20
1838.409180486632
 30
0.0
 11
-1963.504638027944
 21
1838.409180486632
 31
0.0
  0
LINE
  5
1258C
330
1A
100
AcDbEntity
  8
ZISSEN1
100
AcDbLine
 10
-1953.504638027944
 20
1821.009180486631
 30
0.0
 11
-1953.504638027944
 21
1838.409180486632
 31
0.0
  0
LINE
  5
1258D
330
1A
100
AcDbEntity
  8
ZISSEN1
100
AcDbLine
 10
-1961.104638027943
 20
1838.409180486632
 30
0.0
 11
-1953.504638027944
 21
1838.409180486632
 31
0.0
  0
LINE
  5
1258E
330
1A
100
AcDbEntity
  8
ZISSEN1
100
AcDbLine
 10
-1961.104638027943
 20
1821.009180486631
 30
0.0
 11
-1953.504638027944
 21
1821.009180486631
 31
0.0
  0
LINE
  5
1258F
330
1A
100
AcDbEntity
  8
ZISSEN1
100
AcDbLine
 10
-1971.104638027944
 20
1821.009180486631
 30
0.0
 11
-1963.504638027944
 21
1821.009180486631
 31
0.0
  0
LINE
  5
12590
330
1A
100
AcDbEntity
  8
ZISSEN1
100
AcDbLine
 10
-1961.104638027943
 20
1821.009180486631
 30
0.0
 11
-1961.104638027943
 21
1838.409180486632
 31
0.0
  0
LINE
  5
12591
330
1A
100
AcDbEntity
  8
ZISSEN1
100
AcDbLine
 10
-1971.104638027944
 20
1821.009180486631
 30
0.0
 11
-1971.104638027944
 21
1838.409180486632
 31
0.0
  0
LINE
  5
12592
330
1A
100
AcDbEntity
  8
ZISSEN1
100
AcDbLine
 10
-1971.104638027944
 20
1780.809180486632
 30
0.0
 11
-1963.504638027944
 21
1780.809180486632
 31
0.0
  0
LINE
  5
12593
330
1A
100
AcDbEntity
  8
ZISSEN1
100
AcDbLine
 10
-1971.104638027944
 20
1808.20918048663
 30
0.0
 11
-1963.504638027944
 21
1808.20918048663
 31
0.0
  0
LINE
  5
12594
330
1A
100
AcDbEntity
  8
ZISSEN1
100
AcDbLine
 10
-1971.104638027944
 20
1780.809180486632
 30
0.0
 11
-1971.104638027944
 21
1808.20918048663
 31
0.0
  0
LINE
  5
12595
330
1A
100
AcDbEntity
  8
ZISSEN1
100
AcDbLine
 10
-1961.104638027943
 20
1780.809180486632
 30
0.0
 11
-1961.104638027943
 21
1808.20918048663
 31
0.0
  0
LINE
  5
12596
330
1A
100
AcDbEntity
  8
ZISSEN1
100
AcDbLine
 10
-1953.504638027944
 20
1780.809180486632
 30
0.0
 11
-1953.504638027944
 21
1808.20918048663
 31
0.0
  0
LINE
  5
12597
330
1A
100
AcDbEntity
  8
ZISSEN1
100
AcDbLine
 10
-1963.504638027944
 20
1780.809180486632
 30
0.0
 11
-1963.504638027944
 21
1808.20918048663
 31
0.0
  0
LINE
  5
12598
330
1A
100
AcDbEntity
  8
ZISSEN1
100
AcDbLine
 10
-1961.104638027943
 20
1780.809180486632
 30
0.0
 11
-1953.504638027944
 21
1780.809180486632
 31
0.0
  0
LINE
  5
12599
330
1A
100
AcDbEntity
  8
ZISSEN1
100
AcDbLine
 10
-1961.104638027943
 20
1808.20918048663
 30
0.0
 11
-1953.504638027944
 21
1808.20918048663
 31
0.0
  0
LINE
  5
1259A
330
1A
100
AcDbEntity
  8
ZISSEN1
100
AcDbLine
 10
-1991.104638027944
 20
1808.20918048663
 30
0.0
 11
-1983.504638027944
 21
1808.20918048663
 31
0.0
  0
LINE
  5
1259B
330
1A
100
AcDbEntity
  8
ZISSEN1
100
AcDbLine
 10
-1991.104638027944
 20
1780.809180486632
 30
0.0
 11
-1991.104638027944
 21
1808.20918048663
 31
0.0
  0
LINE
  5
1259C
330
1A
100
AcDbEntity
  8
ZISSEN1
100
AcDbLine
 10
-1981.104638027943
 20
1780.809180486632
 30
0.0
 11
-1981.104638027943
 21
1808.20918048663
 31
0.0
  0
LINE
  5
1259D
330
1A
100
AcDbEntity
  8
ZISSEN1
100
AcDbLine
 10
-1981.104638027943
 20
1780.809180486632
 30
0.0
 11
-1973.504638027944
 21
1780.809180486632
 31
0.0
  0
LINE
  5
1259E
330
1A
100
AcDbEntity
  8
ZISSEN1
100
AcDbLine
 10
-1991.104638027944
 20
1780.809180486632
 30
0.0
 11
-1983.504638027944
 21
1780.809180486632
 31
0.0
  0
LINE
  5
1259F
330
1A
100
AcDbEntity
  8
ZISSEN1
100
AcDbLine
 10
-1983.504638027944
 20
1780.809180486632
 30
0.0
 11
-1983.504638027944
 21
1808.20918048663
 31
0.0
  0
LINE
  5
125A0
330
1A
100
AcDbEntity
  8
ZISSEN1
100
AcDbLine
 10
-2002.704638027944
 20
1846.909180486631
 30
0.0
 11
-2003.704638027943
 21
1845.909180486632
 31
0.0
  0
LINE
  5
125A1
330
1A
100
AcDbEntity
  8
ZISSEN1
100
AcDbLine
 10
-2002.504638027944
 20
1772.909180486632
 30
0.0
 11
-1992.504638027943
 21
1772.909180486632
 31
0.0
  0
LINE
  5
125A2
330
1A
100
AcDbEntity
  8
ZISSEN1
100
AcDbLine
 10
-2002.504638027944
 20
1808.409180486632
 30
0.0
 11
-1992.504638027943
 21
1808.409180486632
 31
0.0
  0
LINE
  5
125A3
330
1A
100
AcDbEntity
  8
ZISSEN1
100
AcDbLine
 10
-2002.504638027944
 20
1772.909180486632
 30
0.0
 11
-2002.504638027944
 21
1808.409180486632
 31
0.0
  0
LINE
  5
125A4
330
1A
100
AcDbEntity
  8
ZISSEN1
100
AcDbLine
 10
-1992.504638027943
 20
1772.909180486632
 30
0.0
 11
-1992.504638027943
 21
1808.409180486632
 31
0.0
  0
LINE
  5
125A5
330
1A
100
AcDbEntity
  8
ZISSEN1
100
AcDbLine
 10
-1992.504638027943
 20
1772.909180486632
 30
0.0
 11
-1992.504638027943
 21
1808.409180486632
 31
0.0
  0
LINE
  5
125A6
330
1A
100
AcDbEntity
  8
ZISSEN1
100
AcDbLine
 10
-1959.154638027944
 20
1840.50918048663
 30
0.0
 11
-1945.354638027944
 21
1840.50918048663
 31
0.0
  0
LINE
  5
125A7
330
1A
100
AcDbEntity
  8
ZISSEN1
100
AcDbLine
 10
-1958.004638027944
 20
1846.909180486631
 30
0.0
 11
-1944.204638027944
 21
1846.909180486631
 31
0.0
  0
LINE
  5
125A8
330
1A
100
AcDbEntity
  8
ZISSEN1
100
AcDbLine
 10
-1959.154638027944
 20
1846.909180486631
 30
0.0
 11
-1959.154638027944
 21
1840.50918048663
 31
0.0
  0
LINE
  5
125A9
330
1A
100
AcDbEntity
  8
ZISSEN1
100
AcDbLine
 10
-1945.354638027944
 20
1846.909180486631
 30
0.0
 11
-1945.354638027944
 21
1840.50918048663
 31
0.0
  0
LINE
  5
125AA
330
1A
100
AcDbEntity
  8
ZISSEN1
100
AcDbLine
 10
-1973.154638027944
 20
1840.50918048663
 30
0.0
 11
-1959.354638027944
 21
1840.50918048663
 31
0.0
  0
LINE
  5
125AB
330
1A
100
AcDbEntity
  8
ZISSEN1
100
AcDbLine
 10
-1972.004638027944
 20
1846.909180486631
 30
0.0
 11
-1958.204638027944
 21
1846.909180486631
 31
0.0
  0
LINE
  5
125AC
330
1A
100
AcDbEntity
  8
ZISSEN1
100
AcDbLine
 10
-1973.154638027944
 20
1846.909180486631
 30
0.0
 11
-1973.154638027944
 21
1840.50918048663
 31
0.0
  0
LINE
  5
125AD
330
1A
100
AcDbEntity
  8
ZISSEN1
100
AcDbLine
 10
-1959.354638027944
 20
1846.909180486631
 30
0.0
 11
-1959.354638027944
 21
1840.50918048663
 31
0.0
  0
LINE
  5
125AE
330
1A
100
AcDbEntity
  8
ZISSEN1
100
AcDbLine
 10
-1981.104638027943
 20
1808.20918048663
 30
0.0
 11
-1973.504638027944
 21
1808.20918048663
 31
0.0
  0
LINE
  5
125AF
330
1A
100
AcDbEntity
  8
ZISSEN1
100
AcDbLine
 10
-1973.504638027944
 20
1780.809180486632
 30
0.0
 11
-1973.504638027944
 21
1808.20918048663
 31
0.0
  0
LINE
  5
125B0
330
1A
100
AcDbEntity
  8
ZISSEN1
100
AcDbLine
 10
-1938.704638027942
 20
1808.409180486632
 30
0.0
 11
-1938.704638027942
 21
1846.909180486631
 31
0.0
  0
LINE
  5
125B1
330
1A
100
AcDbEntity
  8
ZISSEN1
100
AcDbLine
 10
-1880.303139353716
 20
1808.431155382012
 30
0.0
 11
-1873.203139353716
 21
1808.431155382012
 31
0.0
  0
LINE
  5
125B2
330
1A
100
AcDbEntity
  8
ZISSEN1
100
AcDbLine
 10
-1880.303139353716
 20
1772.931155382013
 30
0.0
 11
-1873.203139353716
 21
1772.931155382013
 31
0.0
  0
LINE
  5
125B3
330
1A
100
AcDbEntity
  8
ZISSEN1
100
AcDbLine
 10
-1873.202991699825
 20
1827.440566573923
 30
0.0
 11
-1872.202991699825
 21
1827.440566573923
 31
0.0
  0
LINE
  5
125B4
330
1A
100
AcDbEntity
  8
ZISSEN1
100
AcDbLine
 10
-1873.202991699825
 20
1782.570566573923
 30
0.0
 11
-1872.202991699825
 21
1782.570566573923
 31
0.0
  0
LINE
  5
125B5
330
1A
100
AcDbEntity
  8
ZISSEN1
100
AcDbLine
 10
-1880.303139353716
 20
1772.931155382013
 30
0.0
 11
-1880.303139353716
 21
1808.431155382012
 31
0.0
  0
LINE
  5
125B6
330
1A
100
AcDbEntity
  8
ZISSEN1
100
AcDbLine
 10
-1866.304638027943
 20
1788.409180486632
 30
0.0
 11
-1866.304638027943
 21
1761.909180486632
 31
0.0
  0
LINE
  5
125B7
330
1A
100
AcDbEntity
  8
ZISSEN1
100
AcDbLine
 10
-1867.904638027944
 20
1788.409180486632
 30
0.0
 11
-1867.904638027944
 21
1761.909180486632
 31
0.0
  0
LINE
  5
125B8
330
1A
100
AcDbEntity
  8
ZISSEN1
100
AcDbLine
 10
-1872.202991699825
 20
1788.440566573923
 30
0.0
 11
-1872.202991699825
 21
1761.940566573922
 31
0.0
  0
LINE
  5
125B9
330
1A
100
AcDbEntity
  8
ZISSEN1
100
AcDbLine
 10
-1873.202991699825
 20
1846.940566573923
 30
0.0
 11
-1873.203
 21
1761.861445139977
 31
0.0
  0
LINE
  5
125BA
330
1A
100
AcDbEntity
  8
ZISSEN1
100
AcDbLine
 10
-1890.704638027943
 20
1846.909180486631
 30
0.0
 11
-1867.904638027944
 21
1846.909180486631
 31
0.0
  0
LINE
  5
125BB
330
1A
100
AcDbEntity
  8
ZISSEN1
100
AcDbLine
 10
-1890.703139353716
 20
1840.531155382013
 30
0.0
 11
-1873.203139353716
 21
1840.531155382013
 31
0.0
  0
LINE
  5
125BC
330
1A
100
AcDbEntity
  8
ZISSEN1
100
AcDbLine
 10
-1870.204638027944
 20
1829.454180486632
 30
0.0
 11
-1867.904638027944
 21
1829.454180486632
 31
0.0
  0
LINE
  5
125BD
330
1A
100
AcDbEntity
  8
ZISSEN1
100
AcDbLine
 10
-1870.204638027944
 20
1836.36418048663
 30
0.0
 11
-1867.904638027944
 21
1836.36418048663
 31
0.0
  0
LINE
  5
125BE
330
1A
100
AcDbEntity
  8
ZISSEN1
100
AcDbLine
 10
-1870.204638027944
 20
1829.454180486632
 30
0.0
 11
-1870.204638027944
 21
1836.36418048663
 31
0.0
  0
LINE
  5
125BF
330
1A
100
AcDbEntity
  8
ZISSEN1
100
AcDbLine
 10
-1879.703114613193
 20
1821.027302629508
 30
0.0
 11
-1879.703114613193
 21
1838.427302629508
 31
0.0
  0
LINE
  5
125C0
330
1A
100
AcDbEntity
  8
ZISSEN1
100
AcDbLine
 10
-1879.703114613193
 20
1821.027302629508
 30
0.0
 11
-1873.203139353716
 21
1821.031155382013
 31
0.0
  0
LINE
  5
125C1
330
1A
100
AcDbEntity
  8
ZISSEN1
100
AcDbLine
 10
-1879.703114613193
 20
1820.827302629508
 30
0.0
 11
-1879.703114613193
 21
1808.427302629508
 31
0.0
  0
LINE
  5
125C2
330
1A
100
AcDbEntity
  8
ZISSEN1
100
AcDbLine
 10
-1879.403139353716
 20
1808.431155382012
 30
0.0
 11
-1873.903139353716
 21
1808.431155382012
 31
0.0
  0
LINE
  5
125C3
330
1A
100
AcDbEntity
  8
ZISSEN1
100
AcDbLine
 10
-1879.703114613193
 20
1780.827302629508
 30
0.0
 11
-1873.203139353716
 21
1780.831155382013
 31
0.0
  0
LINE
  5
125C4
330
1A
100
AcDbEntity
  8
ZISSEN1
100
AcDbLine
 10
-1866.304638027943
 20
1808.409180486632
 30
0.0
 11
-1854.304638027944
 21
1808.409180486632
 31
0.0
  0
LINE
  5
125C5
330
1A
100
AcDbEntity
  8
CL1
100
AcDbLine
 10
-1850.704638027944
 20
1804.409180486632
 30
0.0
 11
-1840.704638027943
 21
1804.409180486632
 31
0.0
  0
LINE
  5
125C6
330
1A
100
AcDbEntity
  8
ZISSEN1
100
AcDbLine
 10
-1873.202991699825
 20
1836.440566573923
 30
0.0
 11
-1872.202991699825
 21
1836.440566573923
 31
0.0
  0
LINE
  5
125E8
330
1A
100
AcDbEntity
  8
ZISSEN1
100
AcDbLine
 10
-1987.104638027944
 20
1843.559180486632
 30
0.0
 11
-1980.549638027944
 21
1843.559180486632
 31
0.0
  0
LINE
  5
125E9
330
1A
100
AcDbEntity
  8
ZISSEN1
100
AcDbLine
 10
-1980.549638027944
 20
1838.409180486632
 30
0.0
 11
-1980.549638027944
 21
1843.559180486632
 31
0.0
  0
LINE
  5
125EA
330
1A
100
AcDbEntity
  8
ZISSEN1
100
AcDbLine
 10
-1979.959638027944
 20
1838.409180486632
 30
0.0
 11
-1979.959638027944
 21
1843.559180486632
 31
0.0
  0
LINE
  5
1260F
330
1A
100
AcDbEntity
  8
ZISSEN1
100
AcDbLine
 10
-1879.703114613193
 20
1820.827302629508
 30
0.0
 11
-1873.203139353716
 21
1820.831155382014
 31
0.0
  0
LINE
  5
12610
330
1A
100
AcDbEntity
  8
ZISSEN1
100
AcDbLine
 10
-1879.703114613193
 20
1838.427302629508
 30
0.0
 11
-1873.203139353716
 21
1838.431155382014
 31
0.0
  0
LINE
  5
12611
330
1A
100
AcDbEntity
  8
ZISSEN1
100
AcDbLine
 10
-1842.104638027944
 20
1806.409180486632
 30
0.0
 11
-1842.104638027944
 21
1820.022291619801
 31
0.0
  0
LINE
  5
12612
330
1A
100
AcDbEntity
  8
ZISSEN1
100
AcDbLine
 10
-1846.704638027943
 20
1818.309180486632
 30
0.0
 11
-1846.704638027943
 21
1790.509180486631
 31
0.0
  0
LINE
  5
12613
330
1A
100
AcDbEntity
  8
ZISSEN1
100
AcDbLine
 10
-1842.104638027944
 20
1788.796069353463
 30
0.0
 11
-1842.104638027944
 21
1802.40918048663
 31
0.0
  0
LINE
  5
12614
330
1A
100
AcDbEntity
  8
ZISSEN1
100
AcDbLine
 10
-1840.904638027944
 20
1787.109180486632
 30
0.0
 11
-1840.744194296472
 21
1787.707964644241
 31
0.0
  0
ELLIPSE
  5
12615
330
1A
100
AcDbEntity
  8
ZISSEN1
100
AcDbEllipse
 10
-1840.604638027944
 20
1785.181511724425
 30
0.0
 11
4.499999999999978
 21
-0.0000000000000211
 31
0.0
210
0.0
220
0.0
230
1.0
 40
0.5617041693757391
 41
0.0
 42
1.601814260048788
  0
ARC
  5
12616
330
1A
100
AcDbEntity
  8
ZISSEN1
100
AcDbCircle
 10
-1844.104638027944
 20
1788.162716961697
 30
0.0
 40
2.0
100
AcDbArc
 50
180.0
 51
255.0000000000055
  0
LINE
  5
12617
330
1A
100
AcDbEntity
  8
ZISSEN1
100
AcDbLine
 10
-1842.104638027944
 20
1787.109180486632
 30
0.0
 11
-1844.134047885754
 21
1787.652959219143
 31
0.0
  0
ARC
  5
12618
330
1A
100
AcDbEntity
  8
ZISSEN1
100
AcDbCircle
 10
-1837.604638027944
 20
1785.181511724425
 30
0.0
 40
1.5
100
AcDbArc
 50
280.0000000000038
 51
0.0
  0
ARC
  5
12619
330
1A
100
AcDbEntity
  8
ZISSEN1
100
AcDbCircle
 10
-1840.204638067326
 20
1783.809180486632
 30
0.0
 40
0.6
100
AcDbArc
 50
179.999992109329
 51
279.9999598291372
  0
LINE
  5
1261A
330
1A
100
AcDbEntity
  8
ZISSEN1
100
AcDbLine
 10
-1842.302116774325
 20
1785.609180486632
 30
0.0
 11
-1844.622276118149
 21
1786.230865309121
 31
0.0
  0
ARC
  5
1261B
330
1A
100
AcDbEntity
  8
ZISSEN1
100
AcDbCircle
 10
-1837.737856905254
 20
1785.234180345863
 30
0.0
 40
0.375
100
AcDbArc
 50
280.0000000000038
 51
89.99999685775446
  0
LINE
  5
1261C
330
1A
100
AcDbEntity
  8
ZISSEN1
100
AcDbLine
 10
-1840.804638067326
 20
1783.809182012511
 30
0.0
 11
-1840.804638067326
 21
1785.609180513117
 31
0.0
  0
LINE
  5
1261D
330
1A
100
AcDbEntity
  8
ZISSEN1
100
AcDbLine
 10
-1840.804638037792
 20
1784.312639108811
 30
0.0
 11
-1837.672738838629
 21
1784.864877438483
 31
0.0
  0
LINE
  5
1261E
330
1A
100
AcDbEntity
  8
ZISSEN1
100
AcDbLine
 10
-1837.344166103583
 20
1783.704302035278
 30
0.0
 11
-1840.100449426397
 21
1783.218294918988
 31
0.0
  0
LINE
  5
1261F
330
1A
100
AcDbEntity
  8
ZISSEN1
100
AcDbLine
 10
-1842.302116774325
 20
1785.609180596178
 30
0.0
 11
-1837.737856884689
 21
1785.609180345863
 31
0.0
  0
LINE
  5
12620
330
1A
100
AcDbEntity
  8
ZISSEN1
100
AcDbLine
 10
-1842.104637476601
 20
1787.109180486632
 30
0.0
 11
-1840.904638027944
 21
1787.109180486632
 31
0.0
  0
LINE
  5
12621
330
1A
100
AcDbEntity
  8
ZISSEN1
100
AcDbLine
 10
-1842.734047550496
 20
1788.313106440318
 30
0.0
 11
-1843.875228840651
 21
1788.618885045433
 31
0.0
  0
ARC
  5
12622
330
1A
100
AcDbEntity
  8
ZISSEN1
100
AcDbCircle
 10
-1842.604638027944
 20
1788.796069353463
 30
0.0
 40
0.5
100
AcDbArc
 50
255.0000000000055
 51
0.0
  0
ARC
  5
12623
330
1A
100
AcDbEntity
  8
ZISSEN1
100
AcDbCircle
 10
-1847.604636159977
 20
1789.309179085658
 30
0.0
 40
1.5
100
AcDbArc
 50
0.0
 51
53.13019154294721
  0
ARC
  5
12624
330
1A
100
AcDbEntity
  8
ZISSEN1
100
AcDbCircle
 10
-1844.004638294271
 20
1788.135922389542
 30
0.0
 40
0.4999997336718372
100
AcDbArc
 50
75.00000000000555
 51
255.0000000000055
  0
LINE
  5
12625
330
1A
100
AcDbEntity
  8
ZISSEN1
100
AcDbLine
 10
-1846.104638027944
 20
1789.309179085658
 30
0.0
 11
-1846.104638027944
 21
1788.162716961697
 31
0.0
  0
ARC
  5
12626
330
1A
100
AcDbEntity
  8
ZISSEN1
100
AcDbCircle
 10
-1839.897495210189
 20
1804.409180486637
 30
0.0
 40
3.207142857140693
100
AcDbArc
 50
141.4199075616089
 51
218.5800924385294
  0
LINE
  5
12627
330
1A
100
AcDbEntity
  8
ZISSEN1
100
AcDbLine
 10
-1842.104638027944
 20
1802.40918048663
 30
0.0
 11
-1842.404638067326
 21
1802.40918048663
 31
0.0
  0
LINE
  5
12628
330
1A
100
AcDbEntity
  8
ZISSEN1
100
AcDbLine
 10
-1842.104638027944
 20
1806.409180486632
 30
0.0
 11
-1842.404638067326
 21
1806.409180486632
 31
0.0
  0
LINE
  5
12629
330
1A
100
AcDbEntity
  8
ZISSEN1
100
AcDbLine
 10
-1846.104638027944
 20
1819.509181887604
 30
0.0
 11
-1846.104638027944
 21
1820.655644011564
 31
0.0
  0
ARC
  5
1262A
330
1A
100
AcDbEntity
  8
ZISSEN1
100
AcDbCircle
 10
-1842.604638027944
 20
1820.022291619801
 30
0.0
 40
0.5
100
AcDbArc
 50
0.0
 51
104.9999999999944
  0
ARC
  5
1262B
330
1A
100
AcDbEntity
  8
ZISSEN1
100
AcDbCircle
 10
-1844.004638294271
 20
1820.682438583721
 30
0.0
 40
0.4999997336718372
100
AcDbArc
 50
104.9999999999944
 51
284.9999999999943
  0
ARC
  5
1262C
330
1A
100
AcDbEntity
  8
ZISSEN1
100
AcDbCircle
 10
-1847.604636159977
 20
1819.509181887604
 30
0.0
 40
1.5
100
AcDbArc
 50
306.8698084570526
 51
0.0
  0
ELLIPSE
  5
1262D
330
1A
100
AcDbEntity
  8
ZISSEN1
100
AcDbEllipse
 10
-1840.604638027944
 20
1823.636849248839
 30
0.0
 11
4.499999999999978
 21
0.000000000000007
 31
0.0
210
0.0
220
0.0
230
1.0
 40
0.5617041693757391
 41
-1.601814260048788
 42
0.0
  0
ARC
  5
1262E
330
1A
100
AcDbEntity
  8
ZISSEN1
100
AcDbCircle
 10
-1837.604638027944
 20
1823.636849248839
 30
0.0
 40
1.5
100
AcDbArc
 50
0.0
 51
79.99999999999609
  0
LINE
  5
1262F
330
1A
100
AcDbEntity
  8
ZISSEN1
100
AcDbLine
 10
-1840.804638037792
 20
1824.505721864452
 30
0.0
 11
-1837.672738838629
 21
1823.95348353478
 31
0.0
  0
LINE
  5
12630
330
1A
100
AcDbEntity
  8
ZISSEN1
100
AcDbLine
 10
-1840.804638067326
 20
1825.009178960753
 30
0.0
 11
-1840.804638067326
 21
1823.209180460147
 31
0.0
  0
LINE
  5
12631
330
1A
100
AcDbEntity
  8
ZISSEN1
100
AcDbLine
 10
-1842.302116774325
 20
1823.209180486632
 30
0.0
 11
-1844.622276118149
 21
1822.587495664143
 31
0.0
  0
LINE
  5
12632
330
1A
100
AcDbEntity
  8
ZISSEN1
100
AcDbLine
 10
-1842.734047550496
 20
1820.505254532945
 30
0.0
 11
-1843.875228840651
 21
1820.199475927831
 31
0.0
  0
LINE
  5
12633
330
1A
100
AcDbEntity
  8
ZISSEN1
100
AcDbLine
 10
-1842.104638027944
 20
1821.709180486632
 30
0.0
 11
-1844.134047885754
 21
1821.16540175412
 31
0.0
  0
LINE
  5
12634
330
1A
100
AcDbEntity
  8
ZISSEN1
100
AcDbLine
 10
-1840.904638027944
 20
1821.709180486632
 30
0.0
 11
-1840.744194296472
 21
1821.110396329021
 31
0.0
  0
LINE
  5
12635
330
1A
100
AcDbEntity
  8
ZISSEN1
100
AcDbLine
 10
-1842.104637476601
 20
1821.709180486632
 30
0.0
 11
-1840.904638027944
 21
1821.709180486632
 31
0.0
  0
LINE
  5
12636
330
1A
100
AcDbEntity
  8
ZISSEN1
100
AcDbLine
 10
-1842.302116774325
 20
1823.209180377085
 30
0.0
 11
-1837.737856884689
 21
1823.209180627401
 31
0.0
  0
ARC
  5
12637
330
1A
100
AcDbEntity
  8
ZISSEN1
100
AcDbCircle
 10
-1837.737856905254
 20
1823.584180627401
 30
0.0
 40
0.375
100
AcDbArc
 50
270.0000031422454
 51
79.99999999999609
  0
ARC
  5
12638
330
1A
100
AcDbEntity
  8
ZISSEN1
100
AcDbCircle
 10
-1844.104638027944
 20
1820.655644011564
 30
0.0
 40
2.0
100
AcDbArc
 50
104.9999999999944
 51
180.0
  0
ARC
  5
12639
330
1A
100
AcDbEntity
  8
ZISSEN1
100
AcDbCircle
 10
-1840.204638067326
 20
1825.00918048663
 30
0.0
 40
0.6
100
AcDbArc
 50
80.00004017086281
 51
180.0000078906709
  0
LINE
  5
1263A
330
1A
100
AcDbEntity
  8
ZISSEN1
100
AcDbLine
 10
-1837.344166103583
 20
1825.114058937986
 30
0.0
 11
-1840.100449426397
 21
1825.600066054274
 31
0.0
  0
LINE
  5
1263D
330
1A
100
AcDbEntity
  8
ZISSEN1
100
AcDbLine
 10
-1938.704638027942
 20
1769.209180486631
 30
0.0
 11
-1938.704638027942
 21
1779.209180486632
 31
0.0
  0
LINE
  5
1263E
330
1A
100
AcDbEntity
  8
ZISSEN1
100
AcDbLine
 10
-1946.404638027944
 20
1770.289180486632
 30
0.0
 11
-1946.404638027944
 21
1782.539180486632
 31
0.0
  0
LINE
  5
1263F
330
1A
100
AcDbEntity
  8
ZISSEN1
100
AcDbLine
 10
-1946.404638027944
 20
1770.289180486632
 30
0.0
 11
-1939.704638027944
 21
1770.289180486632
 31
0.0
  0
LINE
  5
12640
330
1A
100
AcDbEntity
  8
ZISSEN1
100
AcDbLine
 10
-1946.404638027944
 20
1782.539180486632
 30
0.0
 11
-1939.704638027944
 21
1782.539180486632
 31
0.0
  0
LINE
  5
12641
330
1A
100
AcDbEntity
  8
ZISSEN1
100
AcDbLine
 10
-1848.704638027944
 20
1838.909180486632
 30
0.0
 11
-1846.704638027943
 21
1838.909180486632
 31
0.0
  0
CIRCLE
  5
12642
330
1A
100
AcDbEntity
  8
ZISSEN1
100
AcDbCircle
 10
-2006.204638027944
 20
1835.409180486632
 30
0.0
 40
0.85
  0
CIRCLE
  5
12643
330
1A
100
AcDbEntity
  8
ZISSEN1
100
AcDbCircle
 10
-2006.204638027944
 20
1829.409180486632
 30
0.0
 40
0.85
  0
CIRCLE
  5
12644
330
1A
100
AcDbEntity
  8
SAISEN
100
AcDbCircle
 10
-2006.204638027944
 20
1829.409180486632
 30
0.0
 40
1.3
  0
LINE
  5
12645
330
1A
100
AcDbEntity
  8
KAKURESEN1
100
AcDbLine
 10
-1848.704638027944
 20
1802.909180486632
 30
0.0
 11
-1842.732237756893
 21
1802.909180486632
 31
0.0
  0
LINE
  5
12646
330
1A
100
AcDbEntity
  8
KAKURESEN1
100
AcDbLine
 10
-1848.704638027944
 20
1805.90918048663
 30
0.0
 11
-1842.732237756899
 21
1805.90918048663
 31
0.0
  0
LINE
  5
12647
330
1A
100
AcDbEntity
  8
KAKURESEN1
100
AcDbLine
 10
-1848.704638027944
 20
1803.409180486632
 30
0.0
 11
-1842.944750582832
 21
1803.409180486632
 31
0.0
  0
LINE
  5
12648
330
1A
100
AcDbEntity
  8
KAKURESEN1
100
AcDbLine
 10
-1848.704638027944
 20
1805.409180486632
 30
0.0
 11
-1842.944750582836
 21
1805.409180486632
 31
0.0
  0
LINE
  5
12656
330
1A
100
AcDbEntity
  8
CL1
100
AcDbLine
 10
-2010.704638027943
 20
1823.409180486632
 30
0.0
 11
-2001.704638027943
 21
1823.409180486632
 31
0.0
  0
LINE
  5
12657
330
1A
100
AcDbEntity
  8
CL1
100
AcDbLine
 10
-2010.704638027943
 20
1817.409180486632
 30
0.0
 11
-2001.704638027943
 21
1817.409180486632
 31
0.0
  0
CIRCLE
  5
12658
330
1A
100
AcDbEntity
  8
SAISEN
100
AcDbCircle
 10
-2006.204638027944
 20
1823.409180486632
 30
0.0
 40
1.3
  0
CIRCLE
  5
12659
330
1A
100
AcDbEntity
  8
ZISSEN1
100
AcDbCircle
 10
-2006.204638027944
 20
1823.409180486632
 30
0.0
 40
0.85
  0
CIRCLE
  5
1265A
330
1A
100
AcDbEntity
  8
ZISSEN1
100
AcDbCircle
 10
-2006.204638027944
 20
1817.409180486632
 30
0.0
 40
0.85
  0
CIRCLE
  5
1265B
330
1A
100
AcDbEntity
  8
SAISEN
100
AcDbCircle
 10
-2006.204638027944
 20
1817.409180486632
 30
0.0
 40
1.3
  0
LINE
  5
1265C
330
1A
100
AcDbEntity
  8
ZISSEN1
100
AcDbLine
 10
-1991.104638027944
 20
1808.409180486632
 30
0.0
 11
-1983.504638027944
 21
1808.409180486632
 31
0.0
  0
LINE
  5
1265D
330
1A
100
AcDbEntity
  8
ZISSEN1
100
AcDbLine
 10
-1981.104638027943
 20
1808.409180486632
 30
0.0
 11
-1973.504638027944
 21
1808.409180486632
 31
0.0
  0
LINE
  5
1265E
330
1A
100
AcDbEntity
  8
ZISSEN1
100
AcDbLine
 10
-1971.104638027944
 20
1808.409180486632
 30
0.0
 11
-1963.504638027944
 21
1808.409180486632
 31
0.0
  0
LINE
  5
1265F
330
1A
100
AcDbEntity
  8
ZISSEN1
100
AcDbLine
 10
-1961.104638027943
 20
1808.409180486632
 30
0.0
 11
-1953.504638027944
 21
1808.409180486632
 31
0.0
  0
LINE
  5
12660
330
1A
100
AcDbEntity
  8
ZISSEN1
100
AcDbLine
 10
-1991.104638027944
 20
1820.809180486632
 30
0.0
 11
-1983.504638027944
 21
1820.809180486632
 31
0.0
  0
LINE
  5
12661
330
1A
100
AcDbEntity
  8
ZISSEN1
100
AcDbLine
 10
-1981.104638027943
 20
1820.809180486632
 30
0.0
 11
-1973.504638027944
 21
1820.809180486632
 31
0.0
  0
LINE
  5
12662
330
1A
100
AcDbEntity
  8
ZISSEN1
100
AcDbLine
 10
-1971.104638027944
 20
1820.809180486632
 30
0.0
 11
-1963.504638027944
 21
1820.809180486632
 31
0.0
  0
LINE
  5
12663
330
1A
100
AcDbEntity
  8
ZISSEN1
100
AcDbLine
 10
-1961.104638027943
 20
1820.809180486632
 30
0.0
 11
-1953.504638027944
 21
1820.809180486632
 31
0.0
  0
LINE
  5
12664
330
1A
100
AcDbEntity
  8
ZISSEN1
100
AcDbLine
 10
-1991.104638027944
 20
1808.409180486632
 30
0.0
 11
-1991.104638027944
 21
1820.809180486632
 31
0.0
  0
LINE
  5
12665
330
1A
100
AcDbEntity
  8
ZISSEN1
100
AcDbLine
 10
-1983.504638027944
 20
1808.409180486632
 30
0.0
 11
-1983.504638027944
 21
1820.809180486632
 31
0.0
  0
LINE
  5
12666
330
1A
100
AcDbEntity
  8
ZISSEN1
100
AcDbLine
 10
-1983.504638027944
 20
1820.809180486632
 30
0.0
 11
-1983.504638027944
 21
1820.809180486632
 31
0.0
  0
LINE
  5
12667
330
1A
100
AcDbEntity
  8
ZISSEN1
100
AcDbLine
 10
-1983.504638027944
 20
1820.809180486632
 30
0.0
 11
-1983.504638027944
 21
1820.809180486632
 31
0.0
  0
LINE
  5
12668
330
1A
100
AcDbEntity
  8
ZISSEN1
100
AcDbLine
 10
-1981.104638027943
 20
1808.409180486632
 30
0.0
 11
-1981.104638027943
 21
1820.809180486632
 31
0.0
  0
LINE
  5
12669
330
1A
100
AcDbEntity
  8
ZISSEN1
100
AcDbLine
 10
-1973.504638027944
 20
1808.409180486632
 30
0.0
 11
-1973.504638027944
 21
1820.809180486632
 31
0.0
  0
LINE
  5
1266A
330
1A
100
AcDbEntity
  8
ZISSEN1
100
AcDbLine
 10
-1971.104638027944
 20
1808.409180486632
 30
0.0
 11
-1971.104638027944
 21
1820.809180486632
 31
0.0
  0
LINE
  5
1266B
330
1A
100
AcDbEntity
  8
ZISSEN1
100
AcDbLine
 10
-1963.504638027944
 20
1808.409180486632
 30
0.0
 11
-1963.504638027944
 21
1820.809180486632
 31
0.0
  0
LINE
  5
1266C
330
1A
100
AcDbEntity
  8
ZISSEN1
100
AcDbLine
 10
-1961.104638027943
 20
1808.409180486632
 30
0.0
 11
-1961.104638027943
 21
1820.809180486632
 31
0.0
  0
LINE
  5
1266D
330
1A
100
AcDbEntity
  8
ZISSEN1
100
AcDbLine
 10
-1953.504638027944
 20
1808.409180486632
 30
0.0
 11
-1953.504638027944
 21
1820.809180486632
 31
0.0
  0
LINE
  5
1266E
330
1A
100
AcDbEntity
  8
ZISSEN1
100
AcDbLine
 10
-1939.704638027944
 20
1782.539180486632
 30
0.0
 11
-1939.704638027944
 21
1782.539180486632
 31
0.0
  0
LINE
  5
1266F
330
1A
100
AcDbEntity
  8
ZISSEN1
100
AcDbLine
 10
-1939.704638027944
 20
1782.539180486632
 30
0.0
 11
-1939.704638027944
 21
1782.539180486632
 31
0.0
  0
LINE
  5
12670
330
1A
100
AcDbEntity
  8
ZISSEN1
100
AcDbLine
 10
-1939.704638027944
 20
1782.539180486632
 30
0.0
 11
-1939.704638027944
 21
1782.539180486632
 31
0.0
  0
LINE
  5
12671
330
1A
100
AcDbEntity
  8
ZISSEN1
100
AcDbLine
 10
-1939.704638027944
 20
1782.539180486632
 30
0.0
 11
-1938.704638027942
 21
1783.539180486632
 31
0.0
  0
LINE
  5
12672
330
1A
100
AcDbEntity
  8
ZISSEN1
100
AcDbLine
 10
-1939.704638174533
 20
1770.289180349625
 30
0.0
 11
-1938.704638174533
 21
1769.289180486632
 31
0.0
  0
LINE
  5
12673
330
1A
100
AcDbEntity
  8
ZISSEN1
100
AcDbLine
 10
-1939.704638027944
 20
1836.40918048663
 30
0.0
 11
-1938.704638027942
 21
1837.409180486632
 31
0.0
  0
LINE
  5
12674
330
1A
100
AcDbEntity
  8
ZISSEN1
100
AcDbLine
 10
-1939.704638027944
 20
1827.409180486632
 30
0.0
 11
-1938.704638027942
 21
1826.409180486632
 31
0.0
  0
LINE
  5
12675
330
1A
100
AcDbEntity
  8
ZISSEN1
100
AcDbLine
 10
-1879.703114613193
 20
1808.227302629508
 30
0.0
 11
-1879.703114613193
 21
1780.827302629508
 31
0.0
  0
LINE
  5
12676
330
1A
100
AcDbEntity
  8
ZISSEN1
100
AcDbLine
 10
-1879.703114613193
 20
1808.227302629508
 30
0.0
 11
-1873.203139353716
 21
1808.231155323325
 31
0.0
  0
LINE
  5
12677
330
1A
100
AcDbEntity
  8
ZISSEN1
100
AcDbLine
 10
-1873.202991699825
 20
1770.320566573922
 30
0.0
 11
-1872.202991699825
 21
1770.320566573922
 31
0.0
  0
LINE
  5
12678
330
1A
100
AcDbEntity
  8
ZISSEN1
100
AcDbLine
 10
-1866.304638027943
 20
1772.909180486632
 30
0.0
 11
-1854.304638027944
 21
1772.909180486632
 31
0.0
  0
LINE
  5
12679
330
1A
100
AcDbEntity
  8
ZISSEN1
100
AcDbLine
 10
-1872.2046
 20
1772.909180486632
 30
0.0
 11
-1867.904638027944
 21
1772.909180486632
 31
0.0
  0
LINE
  5
1267A
330
1A
100
AcDbEntity
  8
ZISSEN1
100
AcDbLine
 10
-1866.304638027943
 20
1808.409180486632
 30
0.0
 11
-1854.304638027944
 21
1808.409180486632
 31
0.0
  0
LINE
  5
1267B
330
1A
100
AcDbEntity
  8
ZISSEN1
100
AcDbLine
 10
-1872.2046
 20
1808.409180486632
 30
0.0
 11
-1867.904638027944
 21
1808.409180486632
 31
0.0
  0
LINE
  5
1267C
330
1A
100
AcDbEntity
  8
ZISSEN1
100
AcDbLine
 10
-1872.2046
 20
1838.409180486632
 30
0.0
 11
-1867.904638027944
 21
1838.409180486632
 31
0.0
  0
LINE
  5
1267D
330
1A
100
AcDbEntity
  8
ZISSEN1
100
AcDbLine
 10
-1872.2046
 20
1820.809180486632
 30
0.0
 11
-1867.904638027944
 21
1820.809180486632
 31
0.0
  0
LINE
  5
1267E
330
1A
100
AcDbEntity
  8
ZISSEN1
100
AcDbLine
 10
-1872.2046
 20
1821.009180486631
 30
0.0
 11
-1867.904638027944
 21
1821.009180486631
 31
0.0
  0
LINE
  5
1267F
330
1A
100
AcDbEntity
  8
ZISSEN1
100
AcDbLine
 10
-1872.2046
 20
1808.209180442339
 30
0.0
 11
-1867.904638027944
 21
1808.20918048663
 31
0.0
  0
LINE
  5
12680
330
1A
100
AcDbEntity
  8
ZISSEN1
100
AcDbLine
 10
-1872.2046
 20
1780.809180486632
 30
0.0
 11
-1867.904638027944
 21
1780.809180486632
 31
0.0
  0
LINE
  5
12685
330
1A
100
AcDbEntity
  8
ZISSEN1
100
AcDbLine
 10
-1856.604638027944
 20
1837.259180486632
 30
0.0
 11
-1854.304638027944
 21
1837.259180486632
 31
0.0
  0
LINE
  5
12686
330
1A
100
AcDbEntity
  8
ZISSEN1
100
AcDbLine
 10
-1856.604638027944
 20
1837.259180486632
 30
0.0
 11
-1856.604638027944
 21
1840.409180486632
 31
0.0
  0
LINE
  5
12688
330
1A
100
AcDbEntity
  8
ZISSEN1
100
AcDbLine
 10
-1979.959638027944
 20
1843.559180486632
 30
0.0
 11
-1973.154638027944
 21
1843.559180486632
 31
0.0
  0
LINE
  5
1271E
330
1A
100
AcDbEntity
  8
ZISSEN1
100
AcDbLine
 10
-2003.704638027943
 20
1761.909180486632
 30
0.0
 11
-2003.704638027943
 21
1761.909180486632
 31
0.0
  0
LINE
  5
1271F
330
1A
100
AcDbEntity
  8
ZISSEN1
100
AcDbLine
 10
-2003.704638027943
 20
1761.909180486632
 30
0.0
 11
-2003.704638027943
 21
1761.909180486632
 31
0.0
  0
LINE
  5
12720
330
1A
100
AcDbEntity
  8
ZISSEN1
100
AcDbLine
 10
-2003.704638027943
 20
1761.909180486632
 30
0.0
 11
-2003.704638027943
 21
1761.909180486632
 31
0.0
  0
LINE
  5
12721
330
1A
100
AcDbEntity
  8
ZISSEN1
100
AcDbLine
 10
-2003.704638027943
 20
1761.909180486632
 30
0.0
 11
-2003.704638027943
 21
1761.909180486632
 31
0.0
  0
LINE
  5
12722
330
1A
100
AcDbEntity
  8
ZISSEN1
100
AcDbLine
 10
-2003.704638027943
 20
1761.909180486632
 30
0.0
 11
-2003.704638027943
 21
1761.909180486632
 31
0.0
  0
LINE
  5
12723
330
1A
100
AcDbEntity
  8
ZISSEN1
100
AcDbLine
 10
-2003.704638027943
 20
1761.909180486632
 30
0.0
 11
-2003.704638027943
 21
1761.909180486632
 31
0.0
  0
LINE
  5
12724
330
1A
100
AcDbEntity
  8
ZISSEN1
100
AcDbLine
 10
-2003.704638027943
 20
1761.909180486632
 30
0.0
 11
-2003.704638027943
 21
1761.909180486632
 31
0.0
  0
LINE
  5
127CF
330
1A
100
AcDbEntity
  8
CL1
100
AcDbLine
 10
-1981.201703057447
 20
1804.412452563622
 30
0.0
 11
-1985.201703057446
 21
1804.412452563622
 31
0.0
  0
LINE
  5
127D0
330
1A
100
AcDbEntity
  8
CL1
100
AcDbLine
 10
-1985.201703057446
 20
1804.412452563622
 30
0.0
 11
-1981.201703057447
 21
1804.412452563622
 31
0.0
  0
LINE
  5
127D1
330
1A
100
AcDbEntity
  8
CL1
100
AcDbLine
 10
-1981.201703057447
 20
1804.412452563622
 30
0.0
 11
-1981.201703057447
 21
1800.412452563622
 31
0.0
  0
LINE
  5
127D2
330
1A
100
AcDbEntity
  8
CL1
100
AcDbLine
 10
-1981.201703057447
 20
1800.412452563622
 30
0.0
 11
-1981.201703057447
 21
1804.412452563622
 31
0.0
  0
LINE
  5
127D3
330
1A
100
AcDbEntity
  8
CL1
100
AcDbLine
 10
-1981.201703057447
 20
1804.412452563622
 30
0.0
 11
-1981.201703057447
 21
1808.41245256362
 31
0.0
  0
LINE
  5
127D4
330
1A
100
AcDbEntity
  8
CL1
100
AcDbLine
 10
-1981.201703057447
 20
1804.412452563622
 30
0.0
 11
-1977.201703057446
 21
1804.412452563622
 31
0.0
  0
CIRCLE
  5
127D5
330
1A
100
AcDbEntity
  8
KAKURESEN1
100
AcDbCircle
 10
-1981.201703057447
 20
1804.412452563622
 30
0.0
 40
1.0
  0
CIRCLE
  5
127D6
330
1A
100
AcDbEntity
  8
KAKURESEN1
100
AcDbCircle
 10
-1981.201703057447
 20
1804.412452563622
 30
0.0
 40
1.5
  0
LINE
  5
127D7
330
1A
100
AcDbEntity
  8
CL1
100
AcDbLine
 10
-1961.201703057446
 20
1804.412452563622
 30
0.0
 11
-1957.201703057446
 21
1804.412452563622
 31
0.0
  0
LINE
  5
127D8
330
1A
100
AcDbEntity
  8
CL1
100
AcDbLine
 10
-1961.201703057446
 20
1804.412452563622
 30
0.0
 11
-1961.201703057446
 21
1808.41245256362
 31
0.0
  0
LINE
  5
127D9
330
1A
100
AcDbEntity
  8
CL1
100
AcDbLine
 10
-1961.201703057446
 20
1804.412452563622
 30
0.0
 11
-1961.201703057446
 21
1800.412452563622
 31
0.0
  0
LINE
  5
127DA
330
1A
100
AcDbEntity
  8
CL1
100
AcDbLine
 10
-1961.201703057446
 20
1804.412452563622
 30
0.0
 11
-1965.201703057447
 21
1804.412452563622
 31
0.0
  0
CIRCLE
  5
127DB
330
1A
100
AcDbEntity
  8
KAKURESEN1
100
AcDbCircle
 10
-1961.201703057446
 20
1804.412452563622
 30
0.0
 40
1.0
  0
CIRCLE
  5
127DC
330
1A
100
AcDbEntity
  8
KAKURESEN1
100
AcDbCircle
 10
-1961.201703057446
 20
1804.412452563622
 30
0.0
 40
1.5
  0
LINE
  5
12854
330
1A
100
AcDbEntity
  8
CL1
100
AcDbLine
 10
-1850.775606557535
 20
1842.909180486632
 30
0.0
 11
-1844.068009886577
 21
1842.909180486632
 31
0.0
  0
LINE
  5
12863
330
1A
100
AcDbEntity
  8
CL1
100
AcDbLine
 10
-1850.775606557535
 20
1765.909180486632
 30
0.0
 11
-1844.068009886577
 21
1765.909180486632
 31
0.0
  0
MTEXT
  5
1288E
330
1A
100
AcDbEntity
  8
SUNPOU
100
AcDbMText
 10
-2029.568535960942
 20
1863.758133604526
 30
0.0
 40
3.5
 41
69.329
 71
     1
 72
     5
  1
マウンティングフット取り付け孔\P2-M3
  7
ゴシック体
1001
ACAD
1000
MTEXTBEGIN
1070
    73
1070
     1
1070
    44
1040
1.0
1070
    74
1070
     0
1000
MTEXTEND
  0
MTEXT
  5
1288F
330
1A
100
AcDbEntity
  8
SUNPOU
100
AcDbMText
 10
-1956.182379205452
 20
1857.758699704448
 30
0.0
 40
3.5
 41
14.68144680265466
 71
     1
 72
     5
  1
φ3.5
  7
ゴシック体
1001
ACAD
1000
MTEXTBEGIN
1070
    73
1070
     1
1070
    44
1040
1.0
1070
    74
1070
     0
1000
MTEXTEND
  0
DIMENSION
  5
128A4
330
1A
100
AcDbEntity
  8
SUNPOU
100
AcDbDimension
  2
*D23
 10
-1846.704638027943
 20
1853.369462435241
 30
0.0
 11
-1868.703888831067
 21
1856.528091876865
 31
0.0
 70
    32
  1
44(コネクタ実装時)
  3
標準スタイル
100
AcDbAlignedDimension
 13
-1890.703139634189
 23
1846.909180360752
 33
0.0
 14
-1846.704638027943
 24
1846.909180486631
 34
0.0
100
AcDbRotatedDimension
1001
ACAD
1000
DSTYLE
1002
{
1070
    40
1040
1.0
1002
}
  0
DIMENSION
  5
128C4
330
1A
100
AcDbEntity
  8
SUNPOU
100
AcDbDimension
  2
*D24
 10
-2026.384073568511
 20
1761.909180486632
 30
0.0
 11
-2026.384073568514
 21
1783.160816525126
 31
0.0
 70
   160
  3
標準スタイル
100
AcDbAlignedDimension
 13
-1965.201703057447
 23
1804.412452563622
 33
0.0
 14
-2009.704638027943
 24
1761.909180486632
 34
0.0
 50
90.0
100
AcDbRotatedDimension
1001
ACAD
1000
DSTYLE
1002
{
1070
    40
1040
1.0
1002
}
  0
DIMENSION
  5
128E3
330
1A
100
AcDbEntity
  8
SUNPOU
100
AcDbDimension
  2
*D25
 10
-2017.726490088122
 20
1767.659180486631
 30
0.0
 11
-2020.476490088124
 21
1777.839383532317
 31
0.0
 70
    32
  3
標準スタイル
100
AcDbAlignedDimension
 13
-2010.704638027943
 23
1764.159180486632
 33
0.0
 14
-2010.704638027943
 24
1767.659180486631
 34
0.0
 50
90.0
100
AcDbRotatedDimension
1001
ACAD
1000
DSTYLE
1002
{
1070
    40
1040
1.0
1002
}
  0
DIMENSION
  5
128F2
330
1A
100
AcDbEntity
  8
SUNPOU
100
AcDbDimension
  2
*D26
 10
-1961.201703057446
 20
1754.487810368678
 30
0.0
 11
-1971.201703057445
 21
1757.237810368678
 31
0.0
 70
    32
  3
標準スタイル
100
AcDbAlignedDimension
 13
-1981.201703057447
 23
1800.412452563622
 33
0.0
 14
-1961.201703057446
 24
1800.412452563622
 34
0.0
100
AcDbRotatedDimension
1001
ACAD
1000
DSTYLE
1002
{
1070
    40
1040
1.0
1002
}
  0
DIMENSION
  5
12928
330
1A
100
AcDbEntity
  8
SUNPOU
100
AcDbDimension
  2
*D27
 10
-1981.201703057447
 20
1754.487810368678
 30
0.0
 11
-1995.953170542696
 21
1757.237810368678
 31
0.0
 70
    32
  3
標準スタイル
100
AcDbAlignedDimension
 13
-2010.704638027943
 23
1762.909180486632
 33
0.0
 14
-1981.201703057447
 24
1761.909180486632
 34
0.0
100
AcDbRotatedDimension
1001
ACAD
1000
DSTYLE
1002
{
1070
    40
1040
1.0
1002
}
  0
DIMENSION
  5
12935
330
1A
100
AcDbEntity
  8
SUNPOU
100
AcDbDimension
  2
*D28
 10
-1931.704638027944
 20
1754.487810368678
 30
0.0
 11
-1946.453170542696
 21
1757.237810368678
 31
0.0
 70
    32
  3
標準スタイル
100
AcDbAlignedDimension
 13
-1961.201703057446
 23
1755.487810368679
 33
0.0
 14
-1931.704638027944
 24
1838.909180486632
 34
0.0
100
AcDbRotatedDimension
1001
ACAD
1000
DSTYLE
1002
{
1070
    40
1040
1.0
1002
}
  0
DIMENSION
  5
12966
330
1A
100
AcDbEntity
  8
SUNPOU
100
AcDbDimension
  2
*D29
 10
-1938.704638027942
 20
1746.716974264703
 30
0.0
 11
-1971.204638027943
 21
1749.466974264703
 31
0.0
 70
    32
  3
標準スタイル
100
AcDbAlignedDimension
 13
-2003.704638027943
 23
1761.909180486632
 33
0.0
 14
-1938.704638027942
 24
1762.909180486632
 34
0.0
100
AcDbRotatedDimension
1001
ACAD
1000
DSTYLE
1002
{
1070
    40
1040
1.0
1002
}
  0
DIMENSION
  5
12973
330
1A
100
AcDbEntity
  8
SUNPOU
100
AcDbDimension
  2
*D30
 10
-2003.704638027943
 20
1746.716974264703
 30
0.0
 11
-2018.548546657386
 21
1746.716974264703
 31
0.0
 70
   160
  3
標準スタイル
100
AcDbAlignedDimension
 13
-2010.704638027943
 23
1762.909180486632
 33
0.0
 14
-2003.704638027943
 24
1761.409180486632
 34
0.0
100
AcDbRotatedDimension
1001
ACAD
1000
DSTYLE
1002
{
1070
    40
1040
1.0
1002
}
  0
DIMENSION
  5
1298D
330
1A
100
AcDbEntity
  8
SUNPOU
100
AcDbDimension
  2
*D31
 10
-1931.704638027944
 20
1746.716974264703
 30
0.0
 11
-1923.860729398503
 21
1746.716974264703
 31
0.0
 70
   160
  3
標準スタイル
100
AcDbAlignedDimension
 13
-1938.704638027942
 23
1762.409180486632
 33
0.0
 14
-1931.704638027944
 24
1838.909180486632
 34
0.0
100
AcDbRotatedDimension
1001
ACAD
1000
DSTYLE
1002
{
1070
    40
1040
1.0
1002
}
  0
DIMENSION
  5
129BD
330
1A
100
AcDbEntity
  8
SUNPOU
100
AcDbDimension
  2
*D32
 10
-2007.704638027944
 20
1731.086232407741
 30
0.0
 11
-2018.610729398502
 21
1731.086232407741
 31
0.0
 70
   160
  3
標準スタイル
100
AcDbAlignedDimension
 13
-2010.704638027943
 23
1762.909180486632
 33
0.0
 14
-2007.704638027944
 24
1761.736490251809
 34
0.0
100
AcDbRotatedDimension
1001
ACAD
1000
DSTYLE
1002
{
1070
    40
1040
1.0
1002
}
  0
DIMENSION
  5
12A03
330
1A
100
AcDbEntity
  8
SUNPOU
100
AcDbDimension
  2
*D33
 10
-1934.704638027944
 20
1731.086232407741
 30
0.0
 11
-1971.204638027943
 21
1731.086232407741
 31
0.0
 70
   160
  3
標準スタイル
100
AcDbAlignedDimension
 13
-2007.704638027944
 23
1761.909180486632
 33
0.0
 14
-1934.704638027944
 24
1837.909180486632
 34
0.0
100
AcDbRotatedDimension
1001
ACAD
1000
DSTYLE
1002
{
1070
    40
1040
1.0
1002
}
  0
DIMENSION
  5
12A54
330
1A
100
AcDbEntity
  8
SUNPOU
100
AcDbDimension
  2
*D34
 10
-1938.704638027942
 20
1739.333309235211
 30
0.0
 11
-1974.204638027944
 21
1739.333309235211
 31
0.0
 70
   160
  3
標準スタイル
100
AcDbAlignedDimension
 13
-2009.704638027943
 23
1814.909180486631
 33
0.0
 14
-1938.704638027942
 24
1762.909180486632
 34
0.0
100
AcDbRotatedDimension
1001
ACAD
1000
DSTYLE
1002
{
1070
    40
1040
1.0
1002
}
  0
DIMENSION
  5
12A9D
330
1A
100
AcDbEntity
  8
SUNPOU
100
AcDbDimension
  2
*D35
 10
-1931.704638027944
 20
1722.502016759607
 30
0.0
 11
-1971.204638027943
 21
1725.252016759607
 31
0.0
 70
    32
  3
標準スタイル
100
AcDbAlignedDimension
 13
-2010.704638027943
 23
1762.909180486632
 33
0.0
 14
-1931.704638027944
 24
1838.909180486632
 34
0.0
100
AcDbRotatedDimension
1001
ACAD
1000
DSTYLE
1002
{
1070
    40
1040
1.0
1002
}
  0
DIMENSION
  5
12AD0
330
1A
100
AcDbEntity
  8
SUNPOU
100
AcDbDimension
  2
*D36
 10
-1924.138023639636
 20
1765.909180486632
 30
0.0
 11
-1926.888023639637
 21
1763.909180486631
 31
0.0
 70
    32
  3
標準スタイル
100
AcDbAlignedDimension
 13
-1939.704638027944
 23
1761.909180486632
 33
0.0
 14
-2002.359257558298
 24
1765.909180486632
 34
0.0
 50
90.0
100
AcDbRotatedDimension
1001
ACAD
1000
DSTYLE
1002
{
1070
    40
1040
1.0
1002
}
  0
DIMENSION
  5
12ADF
330
1A
100
AcDbEntity
  8
SUNPOU
100
AcDbDimension
  2
*D37
 10
-1924.138023639636
 20
1842.909180486632
 30
0.0
 11
-1926.888023639637
 21
1804.40918048663
 31
0.0
 70
    32
  3
標準スタイル
100
AcDbAlignedDimension
 13
-1938.704638027942
 23
1765.909180486632
 33
0.0
 14
-1929.704638027944
 24
1842.909180486632
 34
0.0
 50
90.0
100
AcDbRotatedDimension
1001
ACAD
1000
DSTYLE
1002
{
1070
    40
1040
1.0
1002
}
  0
DIMENSION
  5
12AEC
330
1A
100
AcDbEntity
  8
SUNPOU
100
AcDbDimension
  2
*D38
 10
-1924.138023639636
 20
1842.909180486632
 30
0.0
 11
-1926.888023639637
 21
1844.909180486632
 31
0.0
 70
    32
  3
標準スタイル
100
AcDbAlignedDimension
 13
-1932.704638027944
 23
1846.909180486631
 33
0.0
 14
-1929.204638027944
 24
1842.909180486632
 34
0.0
 50
90.0
100
AcDbRotatedDimension
1001
ACAD
1000
DSTYLE
1002
{
1070
    40
1040
1.0
1002
}
  0
DIMENSION
  5
12AFB
330
1A
100
AcDbEntity
  8
SUNPOU
100
AcDbDimension
  2
*D39
 10
-1915.912877407199
 20
1838.909180486632
 30
0.0
 11
-1918.662877407199
 21
1842.909180486631
 31
0.0
 70
    32
  3
標準スタイル
100
AcDbAlignedDimension
 13
-1932.204638027943
 23
1846.909180486631
 33
0.0
 14
-1931.704638027944
 24
1838.909180486632
 34
0.0
 50
90.0
100
AcDbRotatedDimension
1001
ACAD
1000
DSTYLE
1002
{
1070
    40
1040
1.0
1002
}
  0
DIMENSION
  5
12B0A
330
1A
100
AcDbEntity
  8
SUNPOU
100
AcDbDimension
  2
*D40
 10
-1908.862752065109
 20
1761.909180486632
 30
0.0
 11
-1911.61275206511
 21
1804.40918048663
 31
0.0
 70
    32
  3
標準スタイル
100
AcDbAlignedDimension
 13
-1932.704638027944
 23
1846.909180486631
 33
0.0
 14
-1939.704638027944
 24
1761.909180486632
 34
0.0
 50
90.0
100
AcDbRotatedDimension
1001
ACAD
1000
DSTYLE
1002
{
1070
    40
1040
1.0
1002
}
  0
LEADER
  5
12B1E
330
1A
100
AcDbEntity
  8
SUNPOU
100
AcDbLeader
  3
標準スタイル
 76
     3
 10
-1982.083801941256
 20
1805.625672065271
 30
0.0
 10
-2016.797012647935
 20
1853.369462435241
 30
0.0
 10
-2030.573227369552
 20
1853.369462435241
 30
0.0
1001
ACAD
1000
DSTYLE
1002
{
1070
     5
1000

1070
    77
1070
     0
1070
   147
1040
1.0
1002
}
  0
LEADER
  5
12B21
330
1A
100
AcDbEntity
  8
SUNPOU
100
AcDbLeader
  3
標準スタイル
 76
     3
 10
-1935.805494799577
 20
1844.269553365055
 30
0.0
 10
-1943.16942911498
 20
1853.369462435241
 30
0.0
 10
-1956.556346269258
 20
1853.369462435241
 30
0.0
1001
ACAD
1000
DSTYLE
1002
{
1070
     5
1000

1070
    77
1070
     0
1070
   147
1040
1.0
1002
}
  0
MTEXT
  5
12B27
330
1A
100
AcDbEntity
  8
SUNPOU
100
AcDbMText
 10
-1859.381261748793
 20
1743.372950311875
 30
0.0
 40
3.5
 41
57.72344856958746
 71
     1
 72
     5
  1
マウンティングフット\Pを装着した状態
  7
ゴシック体
1001
ACAD
1000
MTEXTBEGIN
1070
    73
1070
     1
1070
    44
1040
1.0
1070
    74
1070
     0
1000
MTEXTEND
  0
DIMENSION
  5
12B28
330
1A
100
AcDbEntity
  8
SUNPOU
100
AcDbDimension
  2
*D41
 10
-1846.704638027943
 20
1754.487810368678
 30
0.0
 11
-1856.610729398502
 21
1754.487810368678
 31
0.0
 70
   160
  3
標準スタイル
100
AcDbAlignedDimension
 13
-1848.704638027944
 23
1761.909180486632
 33
0.0
 14
-1846.704638027943
 24
1761.909180486632
 34
0.0
100
AcDbRotatedDimension
1001
ACAD
1000
DSTYLE
1002
{
1070
    40
1040
1.0
1002
}
  0
DIMENSION
  5
12B4D
330
1A
100
AcDbEntity
  8
SUNPOU
100
AcDbDimension
  2
*D42
 10
-1846.704638027943
 20
1746.716974264703
 30
0.0
 11
-1859.953819013972
 21
1749.466974264703
 31
0.0
 70
    32
  3
標準スタイル
100
AcDbAlignedDimension
 13
-1873.203
 23
1761.861445139977
 33
0.0
 14
-1846.704638027943
 24
1761.909180486632
 34
0.0
100
AcDbRotatedDimension
1001
ACAD
1000
DSTYLE
1002
{
1070
    40
1040
1.0
1002
}
  0
DIMENSION
  5
12B90
330
1A
100
AcDbEntity
  8
SUNPOU
100
AcDbDimension
  2
*D43
 10
-1931.704638027944
 20
1731.086232407741
 30
0.0
 11
-1923.798546657386
 21
1733.836232407741
 31
0.0
 70
    32
  3
標準スタイル
100
AcDbAlignedDimension
 13
-1934.704638027944
 23
1837.409180486632
 33
0.0
 14
-1931.704638027944
 24
1838.409180486632
 34
0.0
100
AcDbRotatedDimension
1001
ACAD
1000
DSTYLE
1002
{
1070
    40
1040
1.0
1002
}
  0
LEADER
  5
12BAD
330
1A
100
AcDbEntity
  8
SUNPOU
100
AcDbLeader
  3
標準スタイル
 76
     2
 10
-1838.816110610848
 20
1782.570566573923
 30
0.0
 10
-1838.816110610848
 20
1743.921297353555
 30
0.0
1001
ACAD
1000
DSTYLE
1002
{
1070
     5
1000

1070
    77
1070
     0
1070
   147
1040
1.0
1002
}
  0
VIEWPORT
  5
5D8F
330
5D8E
100
AcDbEntity
 67
     1
  8
0
100
AcDbViewport
 10
225.1276654406154
 20
374.8294736343932
 30
0.0
 40
647.9872576907554
 41
739.3258870992927
 68
     1
 69
     1
1001
ACAD
1000
MVIEW
1002
{
1070
    16
1010
0.0
1020
0.0
1030
0.0
1010
0.0
1020
0.0
1030
1.0
1040
0.0
1040
739.3258870992927
1040
225.1276654406154
1040
374.8294736343932
1040
50.0
1040
0.0
1040
0.0
1070
     0
1070
   100
1070
     1
1070
     0
1070
     0
1070
     0
1070
     0
1070
     0
1040
0.0
1040
0.0
1040
0.0
1040
1.0
1040
1.0
1040
10.0
1040
10.0
1070
     0
1002
{
1002
}
1002
}
  0
VIEWPORT
  5
6001
330
5D8E
100
AcDbEntity
 67
     1
  8
ZISSEN1
100
AcDbViewport
 10
221.786195552541
 20
157.6960273330388
 30
0.0
 40
385.4999999999997
 41
259.9999999999999
 68
     2
 69
     2
1001
ACAD
1000
MVIEW
1002
{
1070
    16
1010
0.0
1020
0.0
1030
0.0
1010
0.0
1020
0.0
1030
1.0
1040
0.0
1040
259.9999999999999
1040
-1922.594052169741
1040
1808.33875536826
1040
50.0
1040
0.0
1040
0.0
1070
     0
1070
   100
1070
     1
1070
     0
1070
     0
1070
     0
1070
     0
1070
     0
1040
0.0
1040
0.0
1040
0.0
1040
1.0
1040
1.0
1040
10.0
1040
10.0
1070
     0
1002
{
1002
}
1002
}
  0
TEXT
  5
716F
330
5D8E
100
AcDbEntity
 67
     1
  8
SUNPOU
 62
     0
100
AcDbText
 10
374.1863124306942
 20
60.86794705907585
 30
0.0
 40
3.5
  1
縮尺 1/1
  7
ゴシック体
100
AcDbText
  0
ENDSEC
  0
SECTION
  2
OBJECTS
  0
DICTIONARY
  5
C
330
0
100
AcDbDictionary
  3
ACAD_GROUP
350
D
  3
ACAD_LAYOUT
350
5C7D
  3
ACAD_MLINESTYLE
350
E
  3
ACAD_PLOTSETTINGS
350
5C7E
  3
ACAD_PLOTSTYLENAME
350
5C7B
  3
DWGPROPS
350
5E8E
  3
ACDBVARIABLEDICTIONARY
350
12BC4
  3
ACDBHEADERROUNDTRIPXREC
350
12BCF
  0
DICTIONARY
  5
12BEF
330
1A
100
AcDbDictionary
280
     1
  3
ACAD_LAYOUTSELFREF
360
12BF0
  0
DICTIONARY
  5
12BF1
330
5D8E
100
AcDbDictionary
280
     1
  3
ACAD_LAYOUTSELFREF
360
12BF2
  0
DICTIONARY
  5
D
102
{ACAD_REACTORS
330
C
102
}
330
C
100
AcDbDictionary
  3
*A1
350
477D
  3
*A2
350
4C12
  3
*A3
350
4C13
  3
*A4
350
4C14
  3
*A5
350
4C15
  3
*A6
350
4C16
  3
*A7
350
4C17
  3
*A8
350
477E
  3
*A9
350
477F
  3
*A10
350
4780
  3
*A11
350
4781
  3
*A12
350
4C0E
  3
*A13
350
4C0F
  3
*A14
350
4C10
  3
*A15
350
4C11
  0
DICTIONARY
  5
5C7D
102
{ACAD_REACTORS
330
C
102
}
330
C
100
AcDbDictionary
  0
DICTIONARY
  5
E
102
{ACAD_REACTORS
330
C
102
}
330
C
100
AcDbDictionary
  3
STANDARD
350
13
  0
DICTIONARY
  5
5C7E
102
{ACAD_REACTORS
330
C
102
}
330
C
100
AcDbDictionary
  0
ACDBDICTIONARYWDFLT
  5
5C7B
102
{ACAD_REACTORS
330
C
102
}
330
C
100
AcDbDictionary
281
     1
  3
Normal
350
5C7C
100
AcDbDictionaryWithDefault
340
5C7C
  0
XRECORD
  5
5E8E
102
{ACAD_REACTORS
330
C
102
}
330
C
100
AcDbXrecord
  1
DWGPROPS COOKIE
  2

  3

  4

  6

  7

  8

  9

300
=
301
=
302
=
303
=
304
=
305
=
306
=
307
=
308
=
309
=
 40
0.586753587962963
 41
2450495.493631364
 42
2453208.662277431
  1

 90
        0
  0
DICTIONARY
  5
12BC4
102
{ACAD_REACTORS
330
C
102
}
330
C
100
AcDbDictionary
  3
INDEXCTL
350
12BC5
  0
DICTIONARY
  5
12BCF
102
{ACAD_REACTORS
330
C
102
}
330
C
100
AcDbDictionary
  3
TSTACKALIGN
350
12BD0
  3
TSTACKSIZE
350
12BD1
  3
HYPERLINKBASE
350
12BD2
  3
STYLESHEET
350
12BD3
  3
LAYOUTDICT
350
12BD4
  3
PLOTSETDICT
350
12BD5
  3
PLOTSTYLNAMDICT
350
12BD6
  3
LWETCUNION
350
12BD7
  3
INSUNITS
350
12BD8
  3
CEPSNTYPE
350
12BD9
  3
FINGERPRINTGUID
350
12BDA
  3
VERSIONGUID
350
12BDB
  3
PSVPSCALE
350
12BDC
  3
PUCSORTHOREF
350
12BDD
  3
PUCSORTHOVIEW
350
12BDE
  3
PUCSBASE
350
12BDF
  3
PUCSORGTOP
350
12BE0
  3
PUCSORGBOTTOM
350
12BE1
  3
PUCSORGLEFT
350
12BE2
  3
PUCSORGRIGHT
350
12BE3
  3
PUCSORGFRONT
350
12BE4
  3
PUCSORGBACK
350
12BE5
  3
UCSORTHOREF
350
12BE6
  3
UCSORTHOVIEW
350
12BE7
  3
UCSBASE
350
12BE8
  3
UCSORGTOP
350
12BE9
  3
UCSORGBOTTOM
350
12BEA
  3
UCSORGLEFT
350
12BEB
  3
UCSORGRIGHT
350
12BEC
  3
UCSORGFRONT
350
12BED
  3
UCSORGBACK
350
12BEE
  0
XRECORD
  5
12BF0
102
{ACAD_REACTORS
330
12BEF
102
}
330
12BEF
100
AcDbXrecord
340
1A
  0
XRECORD
  5
12BF2
102
{ACAD_REACTORS
330
12BF1
102
}
330
12BF1
100
AcDbXrecord
340
5D8E
  0
GROUP
  5
477D
102
{ACAD_REACTORS
330
D
102
}
330
D
100
AcDbGroup
300

 70
     1
 71
     1
  0
GROUP
  5
4C12
102
{ACAD_REACTORS
330
D
102
}
330
D
100
AcDbGroup
300

 70
     1
 71
     1
  0
GROUP
  5
4C13
102
{ACAD_REACTORS
330
D
102
}
330
D
100
AcDbGroup
300

 70
     1
 71
     1
  0
GROUP
  5
4C14
102
{ACAD_REACTORS
330
D
102
}
330
D
100
AcDbGroup
300

 70
     1
 71
     1
  0
GROUP
  5
4C15
102
{ACAD_REACTORS
330
D
102
}
330
D
100
AcDbGroup
300

 70
     1
 71
     1
  0
GROUP
  5
4C16
102
{ACAD_REACTORS
330
D
102
}
330
D
100
AcDbGroup
300

 70
     1
 71
     1
  0
GROUP
  5
4C17
102
{ACAD_REACTORS
330
D
102
}
330
D
100
AcDbGroup
300

 70
     1
 71
     1
  0
GROUP
  5
477E
102
{ACAD_REACTORS
330
D
102
}
330
D
100
AcDbGroup
300

 70
     1
 71
     1
  0
GROUP
  5
477F
102
{ACAD_REACTORS
330
D
102
}
330
D
100
AcDbGroup
300

 70
     1
 71
     1
  0
GROUP
  5
4780
102
{ACAD_REACTORS
330
D
102
}
330
D
100
AcDbGroup
300

 70
     1
 71
     1
  0
GROUP
  5
4781
102
{ACAD_REACTORS
330
D
102
}
330
D
100
AcDbGroup
300

 70
     1
 71
     1
  0
GROUP
  5
4C0E
102
{ACAD_REACTORS
330
D
102
}
330
D
100
AcDbGroup
300

 70
     1
 71
     1
  0
GROUP
  5
4C0F
102
{ACAD_REACTORS
330
D
102
}
330
D
100
AcDbGroup
300

 70
     1
 71
     1
  0
GROUP
  5
4C10
102
{ACAD_REACTORS
330
D
102
}
330
D
100
AcDbGroup
300

 70
     1
 71
     1
  0
GROUP
  5
4C11
102
{ACAD_REACTORS
330
D
102
}
330
D
100
AcDbGroup
300

 70
     1
 71
     1
  0
MLINESTYLE
  5
13
102
{ACAD_REACTORS
330
E
102
}
330
E
100
AcDbMlineStyle
  2
STANDARD
 70
     0
  3

 62
     0
 51
90.0
 52
90.0
 71
     2
 49
0.5
 62
   256
  6
BYLAYER
 49
-0.5
 62
   256
  6
BYLAYER
  0
ACDBPLACEHOLDER
  5
5C7C
102
{ACAD_REACTORS
330
5C7B
102
}
330
5C7B
100
AcDbPlaceHolder
280
     0
  0
DICTIONARYVAR
  5
12BC5
102
{ACAD_REACTORS
330
12BC4
102
}
330
12BC4
100
DictionaryVariables
280
     0
  1
-1
  0
XRECORD
  5
12BD0
102
{ACAD_REACTORS
330
12BCF
102
}
330
12BCF
100
AcDbXrecord
 90
        1
  0
XRECORD
  5
12BD1
102
{ACAD_REACTORS
330
12BCF
102
}
330
12BCF
100
AcDbXrecord
 90
       70
  0
XRECORD
  5
12BD2
102
{ACAD_REACTORS
330
12BCF
102
}
330
12BCF
100
AcDbXrecord
  1

  0
XRECORD
  5
12BD3
102
{ACAD_REACTORS
330
12BCF
102
}
330
12BCF
100
AcDbXrecord
  1

  0
XRECORD
  5
12BD4
102
{ACAD_REACTORS
330
12BCF
102
}
330
12BCF
100
AcDbXrecord
340
5C7D
  0
XRECORD
  5
12BD5
102
{ACAD_REACTORS
330
12BCF
102
}
330
12BCF
100
AcDbXrecord
340
5C7E
  0
XRECORD
  5
12BD6
102
{ACAD_REACTORS
330
12BCF
102
}
330
12BCF
100
AcDbXrecord
340
5C7B
  0
XRECORD
  5
12BD7
102
{ACAD_REACTORS
330
12BCF
102
}
330
12BCF
100
AcDbXrecord
 90
    10781
  0
XRECORD
  5
12BD8
102
{ACAD_REACTORS
330
12BCF
102
}
330
12BCF
100
AcDbXrecord
 90
        0
  0
XRECORD
  5
12BD9
102
{ACAD_REACTORS
330
12BCF
102
}
330
12BCF
100
AcDbXrecord
 90
        0
  0
XRECORD
  5
12BDA
102
{ACAD_REACTORS
330
12BCF
102
}
330
12BCF
100
AcDbXrecord
  1
{225A7F0D-DA29-11D8-946A-0000E2416295}
  0
XRECORD
  5
12BDB
102
{ACAD_REACTORS
330
12BCF
102
}
330
12BCF
100
AcDbXrecord
  1
{BE8C72C3-2CA3-432D-8B9F-9A18EE2019AC}
  0
XRECORD
  5
12BDC
102
{ACAD_REACTORS
330
12BCF
102
}
330
12BCF
100
AcDbXrecord
 40
0.0
  0
XRECORD
  5
12BDD
102
{ACAD_REACTORS
330
12BCF
102
}
330
12BCF
100
AcDbXrecord
340
0
  0
XRECORD
  5
12BDE
102
{ACAD_REACTORS
330
12BCF
102
}
330
12BCF
100
AcDbXrecord
 70
     0
  0
XRECORD
  5
12BDF
102
{ACAD_REACTORS
330
12BCF
102
}
330
12BCF
100
AcDbXrecord
340
0
  0
XRECORD
  5
12BE0
102
{ACAD_REACTORS
330
12BCF
102
}
330
12BCF
100
AcDbXrecord
 10
0.0
 20
0.0
 30
0.0
  0
XRECORD
  5
12BE1
102
{ACAD_REACTORS
330
12BCF
102
}
330
12BCF
100
AcDbXrecord
 10
0.0
 20
0.0
 30
0.0
  0
XRECORD
  5
12BE2
102
{ACAD_REACTORS
330
12BCF
102
}
330
12BCF
100
AcDbXrecord
 10
0.0
 20
0.0
 30
0.0
  0
XRECORD
  5
12BE3
102
{ACAD_REACTORS
330
12BCF
102
}
330
12BCF
100
AcDbXrecord
 10
0.0
 20
0.0
 30
0.0
  0
XRECORD
  5
12BE4
102
{ACAD_REACTORS
330
12BCF
102
}
330
12BCF
100
AcDbXrecord
 10
0.0
 20
0.0
 30
0.0
  0
XRECORD
  5
12BE5
102
{ACAD_REACTORS
330
12BCF
102
}
330
12BCF
100
AcDbXrecord
 10
0.0
 20
0.0
 30
0.0
  0
XRECORD
  5
12BE6
102
{ACAD_REACTORS
330
12BCF
102
}
330
12BCF
100
AcDbXrecord
340
0
  0
XRECORD
  5
12BE7
102
{ACAD_REACTORS
330
12BCF
102
}
330
12BCF
100
AcDbXrecord
 70
     0
  0
XRECORD
  5
12BE8
102
{ACAD_REACTORS
330
12BCF
102
}
330
12BCF
100
AcDbXrecord
340
0
  0
XRECORD
  5
12BE9
102
{ACAD_REACTORS
330
12BCF
102
}
330
12BCF
100
AcDbXrecord
 10
0.0
 20
0.0
 30
0.0
  0
XRECORD
  5
12BEA
102
{ACAD_REACTORS
330
12BCF
102
}
330
12BCF
100
AcDbXrecord
 10
0.0
 20
0.0
 30
0.0
  0
XRECORD
  5
12BEB
102
{ACAD_REACTORS
330
12BCF
102
}
330
12BCF
100
AcDbXrecord
 10
0.0
 20
0.0
 30
0.0
  0
XRECORD
  5
12BEC
102
{ACAD_REACTORS
330
12BCF
102
}
330
12BCF
100
AcDbXrecord
 10
0.0
 20
0.0
 30
0.0
  0
XRECORD
  5
12BED
102
{ACAD_REACTORS
330
12BCF
102
}
330
12BCF
100
AcDbXrecord
 10
0.0
 20
0.0
 30
0.0
  0
XRECORD
  5
12BEE
102
{ACAD_REACTORS
330
12BCF
102
}
330
12BCF
100
AcDbXrecord
 10
0.0
 20
0.0
 30
0.0
  0
ENDSEC
  0
EOF
