  0
SECTION
  2
HEADER
  9
$ACADVER
  1
AC1014
  9
$ACADMAINTVER
 70
     9
  9
$DWGCODEPAGE
  3
ANSI_932
  9
$INSBASE
 10
0.0
 20
0.0
 30
0.0
  9
$EXTMIN
 10
-1462.714858384626
 20
1754.280949657875
 30
0.0
  9
$EXTMAX
 10
-1298.492839124728
 20
1913.468033484644
 30
0.0
  9
$LIMMIN
 10
0.0
 20
0.0
  9
$LIMMAX
 10
420.0
 20
297.0
  9
$ORTHOMODE
 70
     1
  9
$REGENMODE
 70
     1
  9
$FILLMODE
 70
     1
  9
$QTEXTMODE
 70
     0
  9
$MIRRTEXT
 70
     1
  9
$DRAGMODE
 70
     2
  9
$LTSCALE
 40
1.0
  9
$OSMODE
 70
    37
  9
$ATTMODE
 70
     1
  9
$TEXTSIZE
 40
2.5
  9
$TRACEWID
 40
1.0
  9
$TEXTSTYLE
  7
ゴシック体
  9
$CLAYER
  8
SUNPOU
  9
$CELTYPE
  6
BYLAYER
  9
$CECOLOR
 62
   256
  9
$CELTSCALE
 40
1.0
  9
$DELOBJ
 70
     1
  9
$DISPSILH
 70
     0
  9
$DIMSCALE
 40
0.0
  9
$DIMASZ
 40
3.0
  9
$DIMEXO
 40
0.5
  9
$DIMDLI
 40
0.5
  9
$DIMRND
 40
0.0
  9
$DIMDLE
 40
0.0
  9
$DIMEXE
 40
0.5
  9
$DIMTP
 40
0.0
  9
$DIMTM
 40
0.0
  9
$DIMTXT
 40
3.5
  9
$DIMCEN
 40
0.0
  9
$DIMTSZ
 40
0.0
  9
$DIMTOL
 70
     0
  9
$DIMLIM
 70
     0
  9
$DIMTIH
 70
     0
  9
$DIMTOH
 70
     0
  9
$DIMSE1
 70
     0
  9
$DIMSE2
 70
     0
  9
$DIMTAD
 70
     1
  9
$DIMZIN
 70
     8
  9
$DIMBLK
  1

  9
$DIMASO
 70
     1
  9
$DIMSHO
 70
     1
  9
$DIMPOST
  1

  9
$DIMAPOST
  1

  9
$DIMALT
 70
     0
  9
$DIMALTD
 70
     2
  9
$DIMALTF
 40
25.4
  9
$DIMLFAC
 40
1.0
  9
$DIMTOFL
 70
     1
  9
$DIMTVP
 40
0.0
  9
$DIMTIX
 70
     0
  9
$DIMSOXD
 70
     0
  9
$DIMSAH
 70
     0
  9
$DIMBLK1
  1

  9
$DIMBLK2
  1

  9
$DIMSTYLE
  2
標準スタイル
  9
$DIMCLRD
 70
     1
  9
$DIMCLRE
 70
     1
  9
$DIMCLRT
 70
     1
  9
$DIMTFAC
 40
1.0
  9
$DIMGAP
 40
1.0
  9
$DIMJUST
 70
     0
  9
$DIMSD1
 70
     0
  9
$DIMSD2
 70
     0
  9
$DIMTOLJ
 70
     1
  9
$DIMTZIN
 70
     8
  9
$DIMALTZ
 70
     0
  9
$DIMALTTZ
 70
     0
  9
$DIMFIT
 70
     3
  9
$DIMUPT
 70
     0
  9
$DIMUNIT
 70
     2
  9
$DIMDEC
 70
     2
  9
$DIMTDEC
 70
     2
  9
$DIMALTU
 70
     2
  9
$DIMALTTD
 70
     2
  9
$DIMTXSTY
  7
ゴシック体
  9
$DIMAUNIT
 70
     0
  9
$LUNITS
 70
     2
  9
$LUPREC
 70
     4
  9
$SKETCHINC
 40
1.0
  9
$FILLETRAD
 40
1.0
  9
$AUNITS
 70
     0
  9
$AUPREC
 70
     0
  9
$MENU
  1
.
  9
$ELEVATION
 40
0.0
  9
$PELEVATION
 40
0.0
  9
$THICKNESS
 40
0.0
  9
$LIMCHECK
 70
     0
  9
$BLIPMODE
 70
     0
  9
$CHAMFERA
 40
1.0
  9
$CHAMFERB
 40
1.0
  9
$CHAMFERC
 40
2.0
  9
$CHAMFERD
 40
0.7853981633974483
  9
$SKPOLY
 70
     0
  9
$TDCREATE
 40
2450495.493631365
  9
$TDUPDATE
 40
2458872.419070764
  9
$TDINDWG
 40
2.7721996759
  9
$TDUSRTIMER
 40
2.7721996759
  9
$USRTIMER
 70
     1
  9
$ANGBASE
 50
0.0
  9
$ANGDIR
 70
     0
  9
$PDMODE
 70
    99
  9
$PDSIZE
 40
0.0
  9
$PLINEWID
 40
0.0
  9
$COORDS
 70
     0
  9
$SPLFRAME
 70
     0
  9
$SPLINETYPE
 70
     6
  9
$SPLINESEGS
 70
     8
  9
$ATTDIA
 70
     0
  9
$ATTREQ
 70
     1
  9
$HANDLING
 70
 10241
  9
$HANDSEED
  5
16BEA
  9
$SURFTAB1
 70
     6
  9
$SURFTAB2
 70
     6
  9
$SURFTYPE
 70
     6
  9
$SURFU
 70
     6
  9
$SURFV
 70
     6
  9
$UCSNAME
  2

  9
$UCSORG
 10
0.0
 20
0.0
 30
0.0
  9
$UCSXDIR
 10
1.0
 20
0.0
 30
0.0
  9
$UCSYDIR
 10
0.0
 20
1.0
 30
0.0
  9
$PUCSNAME
  2

  9
$PUCSORG
 10
0.0
 20
0.0
 30
0.0
  9
$PUCSXDIR
 10
1.0
 20
0.0
 30
0.0
  9
$PUCSYDIR
 10
0.0
 20
1.0
 30
0.0
  9
$USERI1
 70
     0
  9
$USERI2
 70
     0
  9
$USERI3
 70
     0
  9
$USERI4
 70
     0
  9
$USERI5
 70
     0
  9
$USERR1
 40
0.0
  9
$USERR2
 40
0.0
  9
$USERR3
 40
0.0
  9
$USERR4
 40
0.0
  9
$USERR5
 40
0.0
  9
$WORLDVIEW
 70
     1
  9
$SHADEDGE
 70
     3
  9
$SHADEDIF
 70
    70
  9
$TILEMODE
 70
     0
  9
$MAXACTVP
 70
    16
  9
$PINSBASE
 10
0.0
 20
0.0
 30
0.0
  9
$PLIMCHECK
 70
     0
  9
$PEXTMIN
 10
29.03619555254135
 20
27.69602733303884
 30
0.0
  9
$PEXTMAX
 10
414.5361955525411
 20
287.6960273330388
 30
0.0
  9
$PLIMMIN
 10
15.15433780389673
 20
13.80781516542163
  9
$PLIMMAX
 10
435.1009930773342
 20
310.8184658001872
  9
$UNITMODE
 70
     0
  9
$VISRETAIN
 70
     0
  9
$PLINEGEN
 70
     0
  9
$PSLTSCALE
 70
     1
  9
$TREEDEPTH
 70
  3020
  9
$PICKSTYLE
 70
     1
  9
$CMLSTYLE
  2
STANDARD
  9
$CMLJUST
 70
     0
  9
$CMLSCALE
 40
1.0
  9
$PROXYGRAPHICS
 70
     1
  9
$MEASUREMENT
 70
     0
  0
ENDSEC
  0
SECTION
  2
CLASSES
  0
CLASS
  1
LWPOLYLINE
  2
AcDbPolyline
  3
AutoCAD 2000
 90
        0
280
     0
281
     1
  0
CLASS
  1
HATCH
  2
AcDbHatch
  3
AutoCAD 2000
 90
        0
280
     0
281
     1
  0
CLASS
  1
ACDBDICTIONARYWDFLT
  2
AcDbDictionaryWithDefault
  3
AutoCAD 2000
 90
        0
280
     0
281
     0
  0
CLASS
  1
ACDBPLACEHOLDER
  2
AcDbPlaceHolder
  3
AutoCAD 2000
 90
        0
280
     0
281
     0
  0
CLASS
  1
LAYOUT
  2
AcDbLayout
  3
AutoCAD 2000
 90
        0
280
     0
281
     0
  0
CLASS
  1
DICTIONARYVAR
  2
AcDbDictionaryVar
  3
AutoCAD 2000
 90
        0
280
     0
281
     0
  0
CLASS
  1
LONG_TRANSACTION
  2
AcDbLongTransaction
  3
AutoCAD 2000
 90
        0
280
     0
281
     0
  0
CLASS
  1
LWPOLYLINE
  2
AcDbPolyline
  3
AutoCAD 2000
 90
        0
280
     0
281
     1
  0
CLASS
  1
HATCH
  2
AcDbHatch
  3
AutoCAD 2000
 90
        0
280
     0
281
     1
  0
CLASS
  1
XRECORD
  2
AcDbXrecord
  3
AutoCAD 2000
 90
        0
280
     0
281
     0
  0
ENDSEC
  0
SECTION
  2
TABLES
  0
TABLE
  2
VPORT
  5
8
330
0
100
AcDbSymbolTable
 70
     3
  0
VPORT
  5
16B87
330
8
100
AcDbSymbolTableRecord
100
AcDbViewportTableRecord
  2
*ACTIVE
 70
     0
 10
0.0
 20
0.0
 11
1.0
 21
1.0
 12
-1380.608061576421
 22
1833.842800968066
 13
0.0
 23
0.0
 14
5.0
 24
5.0
 15
0.0
 25
0.0
 16
0.0
 26
0.0
 36
1.0
 17
0.0
 27
0.0
 37
0.0
 40
161.227820803454
 41
1.778625954198473
 42
50.0
 43
0.0
 44
0.0
 50
0.0
 51
0.0
 71
     0
 72
   100
 73
     1
 74
     0
 75
     0
 76
     0
 77
     0
 78
     0
  0
ENDTAB
  0
TABLE
  2
LTYPE
  5
5
330
0
100
AcDbSymbolTable
 70
    13
  0
LTYPE
  5
14
330
5
100
AcDbSymbolTableRecord
100
AcDbLinetypeTableRecord
  2
BYBLOCK
 70
     0
  3

 72
    65
 73
     0
 40
0.0
  0
LTYPE
  5
15
330
5
100
AcDbSymbolTableRecord
100
AcDbLinetypeTableRecord
  2
BYLAYER
 70
     0
  3

 72
    65
 73
     0
 40
0.0
  0
LTYPE
  5
16
330
5
100
AcDbSymbolTableRecord
100
AcDbLinetypeTableRecord
  2
CONTINUOUS
 70
     0
  3
Solid line
 72
    65
 73
     0
 40
0.0
  0
LTYPE
  5
1956
330
5
100
AcDbSymbolTableRecord
100
AcDbLinetypeTableRecord
  2
CENTERX2
 70
     0
  3
________  __  ________  __  ________  __  _____
 72
    65
 73
     4
 40
4.0
 49
2.5
 74
     0
 49
-0.5
 74
     0
 49
0.5
 74
     0
 49
-0.5
 74
     0
  0
ENDTAB
  0
TABLE
  2
LAYER
  5
2
330
0
100
AcDbSymbolTable
 70
    42
  0
LAYER
  5
F
330
2
100
AcDbSymbolTableRecord
100
AcDbLayerTableRecord
  2
0
 70
     0
 62
     7
  6
CONTINUOUS
  0
LAYER
  5
18F
330
2
100
AcDbSymbolTableRecord
100
AcDbLayerTableRecord
  2
ZISSEN1
 70
     0
 62
     7
  6
CONTINUOUS
  0
LAYER
  5
529
330
2
100
AcDbSymbolTableRecord
100
AcDbLayerTableRecord
  2
SUNPOU
 70
     0
 62
     1
  6
CONTINUOUS
  0
LAYER
  5
195A
330
2
100
AcDbSymbolTableRecord
100
AcDbLayerTableRecord
  2
CL1
 70
     0
 62
   210
  6
CENTERX2
  0
LAYER
  5
3A9B
330
2
100
AcDbSymbolTableRecord
100
AcDbLayerTableRecord
  2
DEFPOINTS
 70
     0
 62
     7
  6
CONTINUOUS
  0
LAYER
  5
16746
330
2
100
AcDbSymbolTableRecord
100
AcDbLayerTableRecord
  2
_0-3__0-4__0-8__0-7__2-4_
 70
     0
 62
     7
  6
CONTINUOUS
  0
LAYER
  5
16747
330
2
100
AcDbSymbolTableRecord
100
AcDbLayerTableRecord
  2
_0-4__0-5__0-3__0-2__0-2__
 70
     0
 62
     7
  6
CONTINUOUS
  0
LAYER
  5
16748
330
2
100
AcDbSymbolTableRecord
100
AcDbLayerTableRecord
  2
_0-5__0-3__2-4_
 70
     0
 62
     7
  6
CONTINUOUS
  0
ENDTAB
  0
TABLE
  2
STYLE
  5
3
330
0
100
AcDbSymbolTable
 70
     5
  0
STYLE
  5
10
330
3
100
AcDbSymbolTableRecord
100
AcDbTextStyleTableRecord
  2
STANDARD
 70
     0
 40
0.0
 41
1.0
 50
0.0
 71
     0
 42
3.0
  3
txt
  4
BigFont
  0
STYLE
  5
1960
330
3
100
AcDbSymbolTableRecord
100
AcDbTextStyleTableRecord
  2
ゴシック体
 70
     0
 40
0.0
 41
1.0
 50
0.0
 71
     0
 42
2.5
  3
MS Gothic.ttf
  4

1001
ACAD
1000
MS Gothic
1071
    32817
  0
ENDTAB
  0
TABLE
  2
VIEW
  5
6
330
0
100
AcDbSymbolTable
 70
     0
  0
ENDTAB
  0
TABLE
  2
UCS
  5
7
330
0
100
AcDbSymbolTable
 70
     0
  0
ENDTAB
  0
TABLE
  2
APPID
  5
9
330
0
100
AcDbSymbolTable
 70
     5
  0
APPID
  5
11
330
9
100
AcDbSymbolTableRecord
100
AcDbRegAppTableRecord
  2
ACAD
 70
     0
  0
APPID
  5
4005
330
9
100
AcDbSymbolTableRecord
100
AcDbRegAppTableRecord
  2
CONTENTTABDATA
 70
     0
  0
APPID
  5
4006
330
9
100
AcDbSymbolTableRecord
100
AcDbRegAppTableRecord
  2
CONTENTCURRENTTAB
 70
     0
  0
APPID
  5
477B
330
9
100
AcDbSymbolTableRecord
100
AcDbRegAppTableRecord
  2
CONTENTBLOCKDESCRIPTION
 70
     0
  0
APPID
  5
477C
330
9
100
AcDbSymbolTableRecord
100
AcDbRegAppTableRecord
  2
CONTENTBLOCKICON
 70
     0
  0
ENDTAB
  0
TABLE
  2
DIMSTYLE
  5
A
330
0
100
AcDbSymbolTable
 70
    13
  0
DIMSTYLE
105
1D
330
A
100
AcDbSymbolTableRecord
100
AcDbDimStyleTableRecord
  2
STANDARD
 70
     0
  3

  4

  5

  6

  7

 40
1.0
 41
0.18
 42
0.0625
 43
0.38
 44
0.18
 45
0.0
 46
0.0
 47
0.0
 48
0.0
140
0.18
141
0.09
142
0.0
143
25.4
144
1.0
145
0.0
146
1.0
147
0.09
 71
     0
 72
     0
 73
     1
 74
     1
 75
     0
 76
     0
 77
     0
 78
     0
170
     0
171
     2
172
     0
173
     0
174
     0
175
     0
176
     0
177
     0
178
     0
270
     2
271
     4
272
     4
273
     2
274
     2
340
10
275
     0
280
     0
281
     0
282
     0
283
     1
284
     0
285
     0
286
     0
287
     3
288
     0
  0
DIMSTYLE
105
52E
102
{ACAD_REACTORS
330
1683C
330
1696B
330
16A13
330
16A20
330
16A30
330
16A04
330
16A70
330
16A8C
330
16A99
330
16A7D
330
16AFE
330
16B1A
330
16B35
330
15AD7
330
15AAA
330
15AA9
330
15AA8
330
15AA2
330
15ADE
330
15ADD
330
15ADC
330
15AEC
330
15AEB
330
15AF1
330
15AFA
330
15AF8
330
15B06
330
16978
102
}
330
A
100
AcDbSymbolTableRecord
100
AcDbDimStyleTableRecord
  2
標準スタイル
 70
     0
  3

  4

  5

  6

  7

 40
0.0
 41
3.0
 42
0.5
 43
0.5
 44
0.5
 45
0.0
 46
0.0
 47
0.0
 48
0.0
140
3.5
141
0.0
142
0.0
143
25.4
144
1.0
145
0.0
146
1.0
147
1.0
 71
     0
 72
     0
 73
     0
 74
     0
 75
     0
 76
     0
 77
     1
 78
     8
170
     0
171
     2
172
     1
173
     0
174
     0
175
     0
176
     1
177
     1
178
     1
270
     2
271
     2
272
     2
273
     2
274
     2
340
1960
275
     0
280
     0
281
     0
282
     0
283
     1
284
     8
285
     0
286
     0
287
     3
288
     0
  0
ENDTAB
  0
TABLE
  2
BLOCK_RECORD
  5
1
330
0
100
AcDbSymbolTable
 70
   101
  0
BLOCK_RECORD
  5
1A
102
{ACAD_XDICTIONARY
360
16BA8
102
}
330
1
100
AcDbSymbolTableRecord
100
AcDbBlockTableRecord
  2
*MODEL_SPACE
  0
BLOCK_RECORD
  5
15176
102
{ACAD_XDICTIONARY
360
16BAA
102
}
330
1
100
AcDbSymbolTableRecord
100
AcDbBlockTableRecord
  2
*PAPER_SPACE
  0
BLOCK_RECORD
  5
163C0
330
1
100
AcDbSymbolTableRecord
100
AcDbBlockTableRecord
  2
-000-53375-1210_A
  0
BLOCK_RECORD
  5
16458
330
1
100
AcDbSymbolTableRecord
100
AcDbBlockTableRecord
  2
-001-SA-7252TB_C
  0
BLOCK_RECORD
  5
16464
330
1
100
AcDbSymbolTableRecord
100
AcDbBlockTableRecord
  2
-002-CHS-04TA1_C
  0
BLOCK_RECORD
  5
16472
330
1
100
AcDbSymbolTableRecord
100
AcDbBlockTableRecord
  2
-003-MHL350ADA331MJA0G_A
  0
BLOCK_RECORD
  5
16482
330
1
100
AcDbSymbolTableRecord
100
AcDbBlockTableRecord
  2
-004-インダクタ上
  0
BLOCK_RECORD
  5
16504
330
1
100
AcDbSymbolTableRecord
100
AcDbBlockTableRecord
  2
-005-CHS-04TA1_A
  0
BLOCK_RECORD
  5
16533
330
1
100
AcDbSymbolTableRecord
100
AcDbBlockTableRecord
  2
-006-SA-7252TB_A
  0
BLOCK_RECORD
  5
1654F
330
1
100
AcDbSymbolTableRecord
100
AcDbBlockTableRecord
  2
-007-53375-1210_B
  0
BLOCK_RECORD
  5
1657C
330
1
100
AcDbSymbolTableRecord
100
AcDbBlockTableRecord
  2
-008-MHL350ADA331MJA0G_B
  0
BLOCK_RECORD
  5
16589
330
1
100
AcDbSymbolTableRecord
100
AcDbBlockTableRecord
  2
-009-インダクタ側面１
  0
BLOCK_RECORD
  5
16668
330
1
100
AcDbSymbolTableRecord
100
AcDbBlockTableRecord
  2
-010-53375_C
  0
BLOCK_RECORD
  5
16677
330
1
100
AcDbSymbolTableRecord
100
AcDbBlockTableRecord
  2
-011-53375-0510_A
  0
BLOCK_RECORD
  5
166C6
330
1
100
AcDbSymbolTableRecord
100
AcDbBlockTableRecord
  2
-012-53375-0210_A
  0
BLOCK_RECORD
  5
166F1
330
1
100
AcDbSymbolTableRecord
100
AcDbBlockTableRecord
  2
-013-53375-0510_B
  0
BLOCK_RECORD
  5
16717
330
1
100
AcDbSymbolTableRecord
100
AcDbBlockTableRecord
  2
-014-53375-0210_B
  0
BLOCK_RECORD
  5
16734
330
1
100
AcDbSymbolTableRecord
100
AcDbBlockTableRecord
  2
-015-53375_C_2_
  0
BLOCK_RECORD
  5
1683D
330
1
100
AcDbSymbolTableRecord
100
AcDbBlockTableRecord
  2
*D81
  0
BLOCK_RECORD
  5
1696C
330
1
100
AcDbSymbolTableRecord
100
AcDbBlockTableRecord
  2
*D85
  0
BLOCK_RECORD
  5
16979
330
1
100
AcDbSymbolTableRecord
100
AcDbBlockTableRecord
  2
*D86
  0
BLOCK_RECORD
  5
16A05
330
1
100
AcDbSymbolTableRecord
100
AcDbBlockTableRecord
  2
*D89
  0
BLOCK_RECORD
  5
16A14
330
1
100
AcDbSymbolTableRecord
100
AcDbBlockTableRecord
  2
*D90
  0
BLOCK_RECORD
  5
16A21
330
1
100
AcDbSymbolTableRecord
100
AcDbBlockTableRecord
  2
*D91
  0
BLOCK_RECORD
  5
16A31
330
1
100
AcDbSymbolTableRecord
100
AcDbBlockTableRecord
  2
*D92
  0
BLOCK_RECORD
  5
16A71
330
1
100
AcDbSymbolTableRecord
100
AcDbBlockTableRecord
  2
*D93
  0
BLOCK_RECORD
  5
16A7E
330
1
100
AcDbSymbolTableRecord
100
AcDbBlockTableRecord
  2
*D94
  0
BLOCK_RECORD
  5
16A8D
330
1
100
AcDbSymbolTableRecord
100
AcDbBlockTableRecord
  2
*D95
  0
BLOCK_RECORD
  5
16A9A
330
1
100
AcDbSymbolTableRecord
100
AcDbBlockTableRecord
  2
*D96
  0
BLOCK_RECORD
  5
16AFF
330
1
100
AcDbSymbolTableRecord
100
AcDbBlockTableRecord
  2
*D97
  0
BLOCK_RECORD
  5
16B1B
330
1
100
AcDbSymbolTableRecord
100
AcDbBlockTableRecord
  2
*D99
  0
BLOCK_RECORD
  5
16B36
330
1
100
AcDbSymbolTableRecord
100
AcDbBlockTableRecord
  2
*D100
  0
ENDTAB
  0
ENDSEC
  0
SECTION
  2
BLOCKS
  0
BLOCK
  5
1B
330
1A
100
AcDbEntity
  8
0
100
AcDbBlockBegin
  2
*MODEL_SPACE
 70
     0
 10
0.0
 20
0.0
 30
0.0
  3
*MODEL_SPACE
  1

  0
ENDBLK
  5
1C
330
1A
100
AcDbEntity
  8
0
100
AcDbBlockEnd
  0
BLOCK
  5
1517A
330
15176
100
AcDbEntity
 67
     1
  8
0
100
AcDbBlockBegin
  2
*PAPER_SPACE
 70
     0
 10
0.0
 20
0.0
 30
0.0
  3
*PAPER_SPACE
  1

  0
ENDBLK
  5
1517B
330
15176
100
AcDbEntity
 67
     1
  8
0
100
AcDbBlockEnd
  0
BLOCK
  5
16456
330
163C0
100
AcDbEntity
  8
0
100
AcDbBlockBegin
  2
-000-53375-1210_A
 70
     0
 10
0.0
 20
0.0
 30
0.0
  3
-000-53375-1210_A
  1

  0
LINE
  5
163C1
330
163C0
100
AcDbEntity
  8
_0-3__0-4__0-8__0-7__2-4_
  6
CONTINUOUS
 62
     7
100
AcDbLine
 10
-0.7935855263164056
 20
3.920723684210486
 30
0.0
 11
-0.4935855263163375
 21
3.920723684210486
 31
0.0
  0
LINE
  5
163C2
330
163C0
100
AcDbEntity
  8
_0-3__0-4__0-8__0-7__2-4_
  6
CONTINUOUS
 62
     7
100
AcDbLine
 10
-0.7935855263164056
 20
3.920723684210486
 30
0.0
 11
-0.9435855263163828
 21
3.420723684210486
 31
0.0
  0
LINE
  5
163C3
330
163C0
100
AcDbEntity
  8
_0-3__0-4__0-8__0-7__2-4_
  6
CONTINUOUS
 62
     7
100
AcDbLine
 10
-0.4935855263163375
 20
3.920723684210486
 30
0.0
 11
-0.3435855263164738
 21
3.420723684210486
 31
0.0
  0
LINE
  5
163C4
330
163C0
100
AcDbEntity
  8
_0-3__0-4__0-8__0-7__2-4_
  6
CONTINUOUS
 62
     7
100
AcDbLine
 10
-2.393585526316428
 20
0.5207236842104522
 30
0.0
 11
-1.393585526316428
 21
0.5207236842104522
 31
0.0
  0
LINE
  5
163C5
330
163C0
100
AcDbEntity
  8
_0-3__0-4__0-8__0-7__2-4_
  6
CONTINUOUS
 62
     7
100
AcDbLine
 10
-1.393585526316428
 20
0.220723684210469
 30
0.0
 11
0.1064144736835714
 21
0.220723684210469
 31
0.0
  0
LINE
  5
163C6
330
163C0
100
AcDbEntity
  8
_0-3__0-4__0-8__0-7__2-4_
  6
CONTINUOUS
 62
     7
100
AcDbLine
 10
-3.293585526316405
 20
3.920723684210486
 30
0.0
 11
-2.993585526316337
 21
3.920723684210486
 31
0.0
  0
LINE
  5
163C7
330
163C0
100
AcDbEntity
  8
_0-3__0-4__0-8__0-7__2-4_
  6
CONTINUOUS
 62
     7
100
AcDbLine
 10
-3.293585526316405
 20
3.920723684210486
 30
0.0
 11
-3.443585526316383
 21
3.420723684210486
 31
0.0
  0
LINE
  5
163C8
330
163C0
100
AcDbEntity
  8
_0-3__0-4__0-8__0-7__2-4_
  6
CONTINUOUS
 62
     7
100
AcDbLine
 10
-2.993585526316337
 20
3.920723684210486
 30
0.0
 11
-2.843585526316473
 21
3.420723684210486
 31
0.0
  0
LINE
  5
163C9
330
163C0
100
AcDbEntity
  8
_0-3__0-4__0-8__0-7__2-4_
  6
CONTINUOUS
 62
     7
100
AcDbLine
 10
-4.893585526316428
 20
0.5207236842104522
 30
0.0
 11
-3.893585526316428
 21
0.5207236842104522
 31
0.0
  0
LINE
  5
163CA
330
163C0
100
AcDbEntity
  8
_0-3__0-4__0-8__0-7__2-4_
  6
CONTINUOUS
 62
     7
100
AcDbLine
 10
-4.893585526316428
 20
-0.5792763157895422
 30
0.0
 11
-4.893585526316428
 21
0.5207236842104522
 31
0.0
  0
LINE
  5
163CB
330
163C0
100
AcDbEntity
  8
_0-3__0-4__0-8__0-7__2-4_
  6
CONTINUOUS
 62
     7
100
AcDbLine
 10
-5.793585526316405
 20
3.920723684210486
 30
0.0
 11
-5.493585526316337
 21
3.920723684210486
 31
0.0
  0
LINE
  5
163CC
330
163C0
100
AcDbEntity
  8
_0-3__0-4__0-8__0-7__2-4_
  6
CONTINUOUS
 62
     7
100
AcDbLine
 10
-5.793585526316405
 20
3.920723684210486
 30
0.0
 11
-5.943585526316383
 21
3.420723684210486
 31
0.0
  0
LINE
  5
163CD
330
163C0
100
AcDbEntity
  8
_0-3__0-4__0-8__0-7__2-4_
  6
CONTINUOUS
 62
     7
100
AcDbLine
 10
-5.493585526316337
 20
3.920723684210486
 30
0.0
 11
-5.343585526316473
 21
3.420723684210486
 31
0.0
  0
LINE
  5
163CE
330
163C0
100
AcDbEntity
  8
_0-3__0-4__0-8__0-7__2-4_
  6
CONTINUOUS
 62
     7
100
AcDbLine
 10
-2.393585526316428
 20
0.220723684210469
 30
0.0
 11
-3.893585526316428
 21
0.220723684210469
 31
0.0
  0
LINE
  5
163CF
330
163C0
100
AcDbEntity
  8
_0-3__0-4__0-8__0-7__2-4_
  6
CONTINUOUS
 62
     7
100
AcDbLine
 10
-4.893585526316428
 20
0.220723684210469
 30
0.0
 11
-6.393585526316428
 21
0.220723684210469
 31
0.0
  0
LINE
  5
163D0
330
163C0
100
AcDbEntity
  8
_0-3__0-4__0-8__0-7__2-4_
  6
CONTINUOUS
 62
     7
100
AcDbLine
 10
1.706414473683594
 20
3.920723684210486
 30
0.0
 11
2.006414473683662
 21
3.920723684210486
 31
0.0
  0
LINE
  5
163D1
330
163C0
100
AcDbEntity
  8
_0-3__0-4__0-8__0-7__2-4_
  6
CONTINUOUS
 62
     7
100
AcDbLine
 10
1.706414473683594
 20
3.920723684210486
 30
0.0
 11
1.556414473683616
 21
3.420723684210486
 31
0.0
  0
LINE
  5
163D2
330
163C0
100
AcDbEntity
  8
_0-3__0-4__0-8__0-7__2-4_
  6
CONTINUOUS
 62
     7
100
AcDbLine
 10
2.006414473683662
 20
3.920723684210486
 30
0.0
 11
2.156414473683526
 21
3.420723684210486
 31
0.0
  0
LINE
  5
163D3
330
163C0
100
AcDbEntity
  8
_0-3__0-4__0-8__0-7__2-4_
  6
CONTINUOUS
 62
     7
100
AcDbLine
 10
0.1064144736835714
 20
0.5207236842104522
 30
0.0
 11
1.106414473683571
 21
0.5207236842104522
 31
0.0
  0
LINE
  5
163D4
330
163C0
100
AcDbEntity
  8
_0-3__0-4__0-8__0-7__2-4_
  6
CONTINUOUS
 62
     7
100
AcDbLine
 10
2.606414473683571
 20
0.5207236842104522
 30
0.0
 11
3.606414473683571
 21
0.5207236842104522
 31
0.0
  0
LINE
  5
163D5
330
163C0
100
AcDbEntity
  8
_0-3__0-4__0-8__0-7__2-4_
  6
CONTINUOUS
 62
     7
100
AcDbLine
 10
1.106414473683571
 20
0.220723684210469
 30
0.0
 11
2.606414473683571
 21
0.220723684210469
 31
0.0
  0
LINE
  5
163D6
330
163C0
100
AcDbEntity
  8
_0-3__0-4__0-8__0-7__2-4_
  6
CONTINUOUS
 62
     7
100
AcDbLine
 10
4.206414473683593
 20
3.920723684210486
 30
0.0
 11
4.506414473683662
 21
3.920723684210486
 31
0.0
  0
LINE
  5
163D7
330
163C0
100
AcDbEntity
  8
_0-3__0-4__0-8__0-7__2-4_
  6
CONTINUOUS
 62
     7
100
AcDbLine
 10
4.206414473683593
 20
3.920723684210486
 30
0.0
 11
4.056414473683616
 21
3.420723684210486
 31
0.0
  0
LINE
  5
163D8
330
163C0
100
AcDbEntity
  8
_0-3__0-4__0-8__0-7__2-4_
  6
CONTINUOUS
 62
     7
100
AcDbLine
 10
4.506414473683662
 20
3.920723684210486
 30
0.0
 11
4.656414473683526
 21
3.420723684210486
 31
0.0
  0
LINE
  5
163D9
330
163C0
100
AcDbEntity
  8
_0-3__0-4__0-8__0-7__2-4_
  6
CONTINUOUS
 62
     7
100
AcDbLine
 10
5.106414473683572
 20
0.5207236842104522
 30
0.0
 11
6.106414473683572
 21
0.5207236842104522
 31
0.0
  0
LINE
  5
163DA
330
163C0
100
AcDbEntity
  8
_0-3__0-4__0-8__0-7__2-4_
  6
CONTINUOUS
 62
     7
100
AcDbLine
 10
6.706414473683593
 20
3.920723684210486
 30
0.0
 11
7.006414473683662
 21
3.920723684210486
 31
0.0
  0
LINE
  5
163DB
330
163C0
100
AcDbEntity
  8
_0-3__0-4__0-8__0-7__2-4_
  6
CONTINUOUS
 62
     7
100
AcDbLine
 10
6.706414473683593
 20
3.920723684210486
 30
0.0
 11
6.556414473683616
 21
3.420723684210486
 31
0.0
  0
LINE
  5
163DC
330
163C0
100
AcDbEntity
  8
_0-3__0-4__0-8__0-7__2-4_
  6
CONTINUOUS
 62
     7
100
AcDbLine
 10
7.006414473683662
 20
3.920723684210486
 30
0.0
 11
7.156414473683526
 21
3.420723684210486
 31
0.0
  0
LINE
  5
163DD
330
163C0
100
AcDbEntity
  8
_0-3__0-4__0-8__0-7__2-4_
  6
CONTINUOUS
 62
     7
100
AcDbLine
 10
3.606414473683571
 20
0.220723684210469
 30
0.0
 11
5.106414473683572
 21
0.220723684210469
 31
0.0
  0
LINE
  5
163DE
330
163C0
100
AcDbEntity
  8
_0-3__0-4__0-8__0-7__2-4_
  6
CONTINUOUS
 62
     7
100
AcDbLine
 10
6.106414473683572
 20
0.220723684210469
 30
0.0
 11
7.606414473683571
 21
0.220723684210469
 31
0.0
  0
LINE
  5
163DF
330
163C0
100
AcDbEntity
  8
_0-3__0-4__0-8__0-7__2-4_
  6
CONTINUOUS
 62
     7
100
AcDbLine
 10
-13.2935855263164
 20
3.920723684210486
 30
0.0
 11
-12.99358552631633
 21
3.920723684210486
 31
0.0
  0
LINE
  5
163E0
330
163C0
100
AcDbEntity
  8
_0-3__0-4__0-8__0-7__2-4_
  6
CONTINUOUS
 62
     7
100
AcDbLine
 10
-13.2935855263164
 20
3.920723684210486
 30
0.0
 11
-13.44358552631638
 21
3.420723684210486
 31
0.0
  0
LINE
  5
163E1
330
163C0
100
AcDbEntity
  8
_0-3__0-4__0-8__0-7__2-4_
  6
CONTINUOUS
 62
     7
100
AcDbLine
 10
-12.99358552631633
 20
3.920723684210486
 30
0.0
 11
-12.84358552631647
 21
3.420723684210486
 31
0.0
  0
LINE
  5
163E2
330
163C0
100
AcDbEntity
  8
_0-3__0-4__0-8__0-7__2-4_
  6
CONTINUOUS
 62
     7
100
AcDbLine
 10
-12.39358552631642
 20
0.5207236842104522
 30
0.0
 11
-11.39358552631642
 21
0.5207236842104522
 31
0.0
  0
LINE
  5
163E3
330
163C0
100
AcDbEntity
  8
_0-3__0-4__0-8__0-7__2-4_
  6
CONTINUOUS
 62
     7
100
AcDbLine
 10
-12.39358552631642
 20
-0.5792763157895422
 30
0.0
 11
-12.39358552631642
 21
0.5207236842104522
 31
0.0
  0
LINE
  5
163E4
330
163C0
100
AcDbEntity
  8
_0-3__0-4__0-8__0-7__2-4_
  6
CONTINUOUS
 62
     7
100
AcDbLine
 10
-11.39358552631642
 20
-0.5792763157895422
 30
0.0
 11
-11.39358552631642
 21
0.5207236842104522
 31
0.0
  0
LINE
  5
163E5
330
163C0
100
AcDbEntity
  8
_0-3__0-4__0-8__0-7__2-4_
  6
CONTINUOUS
 62
     7
100
AcDbLine
 10
-12.39358552631642
 20
0.220723684210469
 30
0.0
 11
-13.89358552631642
 21
0.220723684210469
 31
0.0
  0
LINE
  5
163E6
330
163C0
100
AcDbEntity
  8
_0-3__0-4__0-8__0-7__2-4_
  6
CONTINUOUS
 62
     7
100
AcDbLine
 10
-15.59358552631647
 20
-10.97927631578954
 30
0.0
 11
-15.59358552631647
 21
0.5207236842104522
 31
0.0
  0
LINE
  5
163E7
330
163C0
100
AcDbEntity
  8
_0-3__0-4__0-8__0-7__2-4_
  6
CONTINUOUS
 62
     7
100
AcDbLine
 10
-15.59358552631647
 20
0.5207236842104522
 30
0.0
 11
-14.59358552631647
 21
0.5207236842104522
 31
0.0
  0
LINE
  5
163E8
330
163C0
100
AcDbEntity
  8
_0-3__0-4__0-8__0-7__2-4_
  6
CONTINUOUS
 62
     7
100
AcDbLine
 10
-14.59358552631647
 20
2.170723684210457
 30
0.0
 11
-14.89358552631642
 21
2.170723684210457
 31
0.0
  0
LINE
  5
163E9
330
163C0
100
AcDbEntity
  8
_0-3__0-4__0-8__0-7__2-4_
  6
CONTINUOUS
 62
     7
100
AcDbLine
 10
-15.04358552631629
 20
0.5207236842104522
 30
0.0
 11
-13.89358552631642
 21
0.5207236842104522
 31
0.0
  0
LINE
  5
163EA
330
163C0
100
AcDbEntity
  8
_0-3__0-4__0-8__0-7__2-4_
  6
CONTINUOUS
 62
     7
100
AcDbLine
 10
-13.89358552631642
 20
-0.5792763157895422
 30
0.0
 11
-13.89358552631642
 21
0.5207236842104522
 31
0.0
  0
LINE
  5
163EB
330
163C0
100
AcDbEntity
  8
_0-3__0-4__0-8__0-7__2-4_
  6
CONTINUOUS
 62
     7
100
AcDbLine
 10
-13.59358552631647
 20
-10.97927631578954
 30
0.0
 11
-15.59358552631647
 21
-10.97927631578954
 31
0.0
  0
LINE
  5
163EC
330
163C0
100
AcDbEntity
  8
_0-3__0-4__0-8__0-7__2-4_
  6
CONTINUOUS
 62
     7
100
AcDbLine
 10
-13.59358552631647
 20
-10.97927631578954
 30
0.0
 11
-13.09358552631647
 21
-10.47927631578954
 31
0.0
  0
LINE
  5
163ED
330
163C0
100
AcDbEntity
  8
_0-3__0-4__0-8__0-7__2-4_
  6
CONTINUOUS
 62
     7
100
AcDbLine
 10
-13.09358552631647
 20
-9.479276315789549
 30
0.0
 11
-13.09358552631647
 21
-10.47927631578954
 31
0.0
  0
ARC
  5
163EE
330
163C0
100
AcDbEntity
  8
_0-3__0-4__0-8__0-7__2-4_
  6
CONTINUOUS
 62
     7
100
AcDbCircle
 10
-12.59358552631647
 20
-9.479276315789549
 30
0.0
 40
0.5
100
AcDbArc
 50
90.0
 51
180.0
  0
LINE
  5
163EF
330
163C0
100
AcDbEntity
  8
_0-3__0-4__0-8__0-7__2-4_
  6
CONTINUOUS
 62
     7
100
AcDbLine
 10
14.20641447368359
 20
3.920723684210486
 30
0.0
 11
14.50641447368366
 21
3.920723684210486
 31
0.0
  0
LINE
  5
163F0
330
163C0
100
AcDbEntity
  8
_0-3__0-4__0-8__0-7__2-4_
  6
CONTINUOUS
 62
     7
100
AcDbLine
 10
14.20641447368359
 20
3.920723684210486
 30
0.0
 11
14.05641447368361
 21
3.420723684210486
 31
0.0
  0
LINE
  5
163F1
330
163C0
100
AcDbEntity
  8
_0-3__0-4__0-8__0-7__2-4_
  6
CONTINUOUS
 62
     7
100
AcDbLine
 10
14.50641447368366
 20
3.920723684210486
 30
0.0
 11
14.65641447368352
 21
3.420723684210486
 31
0.0
  0
LINE
  5
163F2
330
163C0
100
AcDbEntity
  8
_0-3__0-4__0-8__0-7__2-4_
  6
CONTINUOUS
 62
     7
100
AcDbLine
 10
15.10641447368357
 20
-0.5792763157895422
 30
0.0
 11
15.10641447368357
 21
0.5207236842104522
 31
0.0
  0
LINE
  5
163F3
330
163C0
100
AcDbEntity
  8
_0-3__0-4__0-8__0-7__2-4_
  6
CONTINUOUS
 62
     7
100
AcDbLine
 10
12.60641447368357
 20
0.5207236842104522
 30
0.0
 11
13.60641447368357
 21
0.5207236842104522
 31
0.0
  0
LINE
  5
163F4
330
163C0
100
AcDbEntity
  8
_0-3__0-4__0-8__0-7__2-4_
  6
CONTINUOUS
 62
     7
100
AcDbLine
 10
12.60641447368357
 20
-0.5792763157895422
 30
0.0
 11
12.60641447368357
 21
0.5207236842104522
 31
0.0
  0
LINE
  5
163F5
330
163C0
100
AcDbEntity
  8
_0-3__0-4__0-8__0-7__2-4_
  6
CONTINUOUS
 62
     7
100
AcDbLine
 10
13.60641447368357
 20
-0.5792763157895422
 30
0.0
 11
13.60641447368357
 21
0.5207236842104522
 31
0.0
  0
LINE
  5
163F6
330
163C0
100
AcDbEntity
  8
_0-3__0-4__0-8__0-7__2-4_
  6
CONTINUOUS
 62
     7
100
AcDbLine
 10
13.60641447368357
 20
0.220723684210469
 30
0.0
 11
15.10641447368357
 21
0.220723684210469
 31
0.0
  0
LINE
  5
163F7
330
163C0
100
AcDbEntity
  8
_0-3__0-4__0-8__0-7__2-4_
  6
CONTINUOUS
 62
     7
100
AcDbLine
 10
16.80641447368361
 20
-10.97927631578954
 30
0.0
 11
16.80641447368361
 21
0.5207236842104522
 31
0.0
  0
LINE
  5
163F8
330
163C0
100
AcDbEntity
  8
_0-3__0-4__0-8__0-7__2-4_
  6
CONTINUOUS
 62
     7
100
AcDbLine
 10
15.10641447368357
 20
0.5207236842104522
 30
0.0
 11
16.80641447368361
 21
0.5207236842104522
 31
0.0
  0
LINE
  5
163F9
330
163C0
100
AcDbEntity
  8
_0-3__0-4__0-8__0-7__2-4_
  6
CONTINUOUS
 62
     7
100
AcDbLine
 10
14.80641447368361
 20
-10.97927631578954
 30
0.0
 11
16.80641447368361
 21
-10.97927631578954
 31
0.0
  0
LINE
  5
163FA
330
163C0
100
AcDbEntity
  8
_0-3__0-4__0-8__0-7__2-4_
  6
CONTINUOUS
 62
     7
100
AcDbLine
 10
14.30641447368361
 20
-10.47927631578954
 30
0.0
 11
14.80641447368361
 21
-10.97927631578954
 31
0.0
  0
LINE
  5
163FB
330
163C0
100
AcDbEntity
  8
_0-3__0-4__0-8__0-7__2-4_
  6
CONTINUOUS
 62
     7
100
AcDbLine
 10
14.30641447368361
 20
-9.479276315789549
 30
0.0
 11
14.30641447368361
 21
-10.47927631578954
 31
0.0
  0
ARC
  5
163FC
330
163C0
100
AcDbEntity
  8
_0-3__0-4__0-8__0-7__2-4_
  6
CONTINUOUS
 62
     7
100
AcDbCircle
 10
13.80641447368361
 20
-9.479276315789549
 30
0.0
 40
0.5
100
AcDbArc
 50
0.0
 51
90.0
  0
LINE
  5
163FD
330
163C0
100
AcDbEntity
  8
_0-3__0-4__0-8__0-7__2-4_
  6
CONTINUOUS
 62
     7
100
AcDbLine
 10
13.80641447368361
 20
-8.979276315789549
 30
0.0
 11
-12.59358552631647
 21
-8.979276315789549
 31
0.0
  0
LINE
  5
163FE
330
163C0
100
AcDbEntity
  8
_0-3__0-4__0-8__0-7__2-4_
  6
CONTINUOUS
 62
     7
100
AcDbLine
 10
-7.393585526316428
 20
0.5207236842104522
 30
0.0
 11
-6.393585526316428
 21
0.5207236842104522
 31
0.0
  0
LINE
  5
163FF
330
163C0
100
AcDbEntity
  8
_0-3__0-4__0-8__0-7__2-4_
  6
CONTINUOUS
 62
     7
100
AcDbLine
 10
-7.393585526316428
 20
-0.5792763157895422
 30
0.0
 11
-7.393585526316428
 21
0.5207236842104522
 31
0.0
  0
LINE
  5
16400
330
163C0
100
AcDbEntity
  8
_0-3__0-4__0-8__0-7__2-4_
  6
CONTINUOUS
 62
     7
100
AcDbLine
 10
-6.393585526316428
 20
-0.5792763157895422
 30
0.0
 11
-6.393585526316428
 21
0.5207236842104522
 31
0.0
  0
LINE
  5
16401
330
163C0
100
AcDbEntity
  8
_0-3__0-4__0-8__0-7__2-4_
  6
CONTINUOUS
 62
     7
100
AcDbLine
 10
-8.293585526316405
 20
3.920723684210486
 30
0.0
 11
-7.993585526316337
 21
3.920723684210486
 31
0.0
  0
LINE
  5
16402
330
163C0
100
AcDbEntity
  8
_0-3__0-4__0-8__0-7__2-4_
  6
CONTINUOUS
 62
     7
100
AcDbLine
 10
-8.293585526316405
 20
3.920723684210486
 30
0.0
 11
-8.443585526316383
 21
3.420723684210486
 31
0.0
  0
LINE
  5
16403
330
163C0
100
AcDbEntity
  8
_0-3__0-4__0-8__0-7__2-4_
  6
CONTINUOUS
 62
     7
100
AcDbLine
 10
-7.993585526316337
 20
3.920723684210486
 30
0.0
 11
-7.843585526316473
 21
3.420723684210486
 31
0.0
  0
LINE
  5
16404
330
163C0
100
AcDbEntity
  8
_0-3__0-4__0-8__0-7__2-4_
  6
CONTINUOUS
 62
     7
100
AcDbLine
 10
-7.393585526316428
 20
0.220723684210469
 30
0.0
 11
-8.893585526316428
 21
0.220723684210469
 31
0.0
  0
LINE
  5
16405
330
163C0
100
AcDbEntity
  8
_0-3__0-4__0-8__0-7__2-4_
  6
CONTINUOUS
 62
     7
100
AcDbLine
 10
-9.893585526316428
 20
0.5207236842104522
 30
0.0
 11
-8.893585526316428
 21
0.5207236842104522
 31
0.0
  0
LINE
  5
16406
330
163C0
100
AcDbEntity
  8
_0-3__0-4__0-8__0-7__2-4_
  6
CONTINUOUS
 62
     7
100
AcDbLine
 10
-9.893585526316428
 20
-0.5792763157895422
 30
0.0
 11
-9.893585526316428
 21
0.5207236842104522
 31
0.0
  0
LINE
  5
16407
330
163C0
100
AcDbEntity
  8
_0-3__0-4__0-8__0-7__2-4_
  6
CONTINUOUS
 62
     7
100
AcDbLine
 10
-8.893585526316428
 20
-0.5792763157895422
 30
0.0
 11
-8.893585526316428
 21
0.5207236842104522
 31
0.0
  0
LINE
  5
16408
330
163C0
100
AcDbEntity
  8
_0-3__0-4__0-8__0-7__2-4_
  6
CONTINUOUS
 62
     7
100
AcDbLine
 10
-10.7935855263164
 20
3.920723684210486
 30
0.0
 11
-10.49358552631633
 21
3.920723684210486
 31
0.0
  0
LINE
  5
16409
330
163C0
100
AcDbEntity
  8
_0-3__0-4__0-8__0-7__2-4_
  6
CONTINUOUS
 62
     7
100
AcDbLine
 10
-10.7935855263164
 20
3.920723684210486
 30
0.0
 11
-10.94358552631638
 21
3.420723684210486
 31
0.0
  0
LINE
  5
1640A
330
163C0
100
AcDbEntity
  8
_0-3__0-4__0-8__0-7__2-4_
  6
CONTINUOUS
 62
     7
100
AcDbLine
 10
-10.49358552631633
 20
3.920723684210486
 30
0.0
 11
-10.34358552631647
 21
3.420723684210486
 31
0.0
  0
LINE
  5
1640B
330
163C0
100
AcDbEntity
  8
_0-3__0-4__0-8__0-7__2-4_
  6
CONTINUOUS
 62
     7
100
AcDbLine
 10
-9.893585526316428
 20
0.220723684210469
 30
0.0
 11
-11.39358552631642
 21
0.220723684210469
 31
0.0
  0
LINE
  5
1640C
330
163C0
100
AcDbEntity
  8
_0-3__0-4__0-8__0-7__2-4_
  6
CONTINUOUS
 62
     7
100
AcDbLine
 10
7.606414473683571
 20
0.5207236842104522
 30
0.0
 11
8.606414473683571
 21
0.5207236842104522
 31
0.0
  0
LINE
  5
1640D
330
163C0
100
AcDbEntity
  8
_0-3__0-4__0-8__0-7__2-4_
  6
CONTINUOUS
 62
     7
100
AcDbLine
 10
7.606414473683571
 20
-0.5792763157895422
 30
0.0
 11
7.606414473683571
 21
0.5207236842104522
 31
0.0
  0
LINE
  5
1640E
330
163C0
100
AcDbEntity
  8
_0-3__0-4__0-8__0-7__2-4_
  6
CONTINUOUS
 62
     7
100
AcDbLine
 10
8.606414473683571
 20
-0.5792763157895422
 30
0.0
 11
8.606414473683571
 21
0.5207236842104522
 31
0.0
  0
LINE
  5
1640F
330
163C0
100
AcDbEntity
  8
_0-3__0-4__0-8__0-7__2-4_
  6
CONTINUOUS
 62
     7
100
AcDbLine
 10
9.206414473683594
 20
3.920723684210486
 30
0.0
 11
9.506414473683662
 21
3.920723684210486
 31
0.0
  0
LINE
  5
16410
330
163C0
100
AcDbEntity
  8
_0-3__0-4__0-8__0-7__2-4_
  6
CONTINUOUS
 62
     7
100
AcDbLine
 10
9.206414473683594
 20
3.920723684210486
 30
0.0
 11
9.056414473683616
 21
3.420723684210486
 31
0.0
  0
LINE
  5
16411
330
163C0
100
AcDbEntity
  8
_0-3__0-4__0-8__0-7__2-4_
  6
CONTINUOUS
 62
     7
100
AcDbLine
 10
9.506414473683662
 20
3.920723684210486
 30
0.0
 11
9.656414473683526
 21
3.420723684210486
 31
0.0
  0
LINE
  5
16412
330
163C0
100
AcDbEntity
  8
_0-3__0-4__0-8__0-7__2-4_
  6
CONTINUOUS
 62
     7
100
AcDbLine
 10
8.606414473683571
 20
0.220723684210469
 30
0.0
 11
10.10641447368357
 21
0.220723684210469
 31
0.0
  0
LINE
  5
16413
330
163C0
100
AcDbEntity
  8
_0-3__0-4__0-8__0-7__2-4_
  6
CONTINUOUS
 62
     7
100
AcDbLine
 10
10.10641447368357
 20
0.5207236842104522
 30
0.0
 11
11.10641447368357
 21
0.5207236842104522
 31
0.0
  0
LINE
  5
16414
330
163C0
100
AcDbEntity
  8
_0-3__0-4__0-8__0-7__2-4_
  6
CONTINUOUS
 62
     7
100
AcDbLine
 10
10.10641447368357
 20
-0.5792763157895422
 30
0.0
 11
10.10641447368357
 21
0.5207236842104522
 31
0.0
  0
LINE
  5
16415
330
163C0
100
AcDbEntity
  8
_0-3__0-4__0-8__0-7__2-4_
  6
CONTINUOUS
 62
     7
100
AcDbLine
 10
11.10641447368357
 20
-0.5792763157895422
 30
0.0
 11
11.10641447368357
 21
0.5207236842104522
 31
0.0
  0
LINE
  5
16416
330
163C0
100
AcDbEntity
  8
_0-3__0-4__0-8__0-7__2-4_
  6
CONTINUOUS
 62
     7
100
AcDbLine
 10
11.70641447368359
 20
3.920723684210486
 30
0.0
 11
12.00641447368366
 21
3.920723684210486
 31
0.0
  0
LINE
  5
16417
330
163C0
100
AcDbEntity
  8
_0-3__0-4__0-8__0-7__2-4_
  6
CONTINUOUS
 62
     7
100
AcDbLine
 10
11.70641447368359
 20
3.920723684210486
 30
0.0
 11
11.55641447368361
 21
3.420723684210486
 31
0.0
  0
LINE
  5
16418
330
163C0
100
AcDbEntity
  8
_0-3__0-4__0-8__0-7__2-4_
  6
CONTINUOUS
 62
     7
100
AcDbLine
 10
12.00641447368366
 20
3.920723684210486
 30
0.0
 11
12.15641447368352
 21
3.420723684210486
 31
0.0
  0
LINE
  5
16419
330
163C0
100
AcDbEntity
  8
_0-3__0-4__0-8__0-7__2-4_
  6
CONTINUOUS
 62
     7
100
AcDbLine
 10
11.10641447368357
 20
0.220723684210469
 30
0.0
 11
12.60641447368357
 21
0.220723684210469
 31
0.0
  0
LINE
  5
1641A
330
163C0
100
AcDbEntity
  8
_0-3__0-4__0-8__0-7__2-4_
  6
CONTINUOUS
 62
     7
100
AcDbLine
 10
-2.393585526316428
 20
0.5207236842104522
 30
0.0
 11
-2.393585526316428
 21
-0.5792763157895422
 31
0.0
  0
LINE
  5
1641B
330
163C0
100
AcDbEntity
  8
_0-3__0-4__0-8__0-7__2-4_
  6
CONTINUOUS
 62
     7
100
AcDbLine
 10
-1.393585526316428
 20
0.5207236842104522
 30
0.0
 11
-1.393585526316428
 21
-0.5792763157895422
 31
0.0
  0
LINE
  5
1641C
330
163C0
100
AcDbEntity
  8
_0-3__0-4__0-8__0-7__2-4_
  6
CONTINUOUS
 62
     7
100
AcDbLine
 10
-3.893585526316428
 20
0.5207236842104522
 30
0.0
 11
-3.893585526316428
 21
-0.5792763157895422
 31
0.0
  0
LINE
  5
1641D
330
163C0
100
AcDbEntity
  8
_0-3__0-4__0-8__0-7__2-4_
  6
CONTINUOUS
 62
     7
100
AcDbLine
 10
0.1064144736835714
 20
0.5207236842104522
 30
0.0
 11
0.1064144736835714
 21
-0.5792763157895422
 31
0.0
  0
LINE
  5
1641E
330
163C0
100
AcDbEntity
  8
_0-3__0-4__0-8__0-7__2-4_
  6
CONTINUOUS
 62
     7
100
AcDbLine
 10
1.106414473683571
 20
0.5207236842104522
 30
0.0
 11
1.106414473683571
 21
-0.5792763157895422
 31
0.0
  0
LINE
  5
1641F
330
163C0
100
AcDbEntity
  8
_0-3__0-4__0-8__0-7__2-4_
  6
CONTINUOUS
 62
     7
100
AcDbLine
 10
2.606414473683571
 20
0.5207236842104522
 30
0.0
 11
2.606414473683571
 21
-0.5792763157895422
 31
0.0
  0
LINE
  5
16420
330
163C0
100
AcDbEntity
  8
_0-3__0-4__0-8__0-7__2-4_
  6
CONTINUOUS
 62
     7
100
AcDbLine
 10
3.606414473683571
 20
0.5207236842104522
 30
0.0
 11
3.606414473683571
 21
-0.5792763157895422
 31
0.0
  0
LINE
  5
16421
330
163C0
100
AcDbEntity
  8
_0-3__0-4__0-8__0-7__2-4_
  6
CONTINUOUS
 62
     7
100
AcDbLine
 10
5.106414473683572
 20
0.5207236842104522
 30
0.0
 11
5.106414473683572
 21
-0.5792763157895422
 31
0.0
  0
LINE
  5
16422
330
163C0
100
AcDbEntity
  8
_0-3__0-4__0-8__0-7__2-4_
  6
CONTINUOUS
 62
     7
100
AcDbLine
 10
6.106414473683572
 20
0.5207236842104522
 30
0.0
 11
6.106414473683572
 21
-0.5792763157895422
 31
0.0
  0
LINE
  5
16423
330
163C0
100
AcDbEntity
  8
_0-3__0-4__0-8__0-7__2-4_
  6
CONTINUOUS
 62
     7
100
AcDbLine
 10
-13.89358552631642
 20
-0.5792763157895422
 30
0.0
 11
15.10641447368357
 21
-0.5792763157895422
 31
0.0
  0
LINE
  5
16424
330
163C0
100
AcDbEntity
  8
_0-3__0-4__0-8__0-7__2-4_
  6
CONTINUOUS
 62
     7
100
AcDbLine
 10
-14.9324744152054
 20
2.120723684210332
 30
0.0
 11
-14.89358552631642
 21
2.170723684210457
 31
0.0
  0
LINE
  5
16425
330
163C0
100
AcDbEntity
  8
_0-3__0-4__0-8__0-7__2-4_
  6
CONTINUOUS
 62
     7
100
AcDbLine
 10
-14.55469663742748
 20
2.120723684210332
 30
0.0
 11
-14.59358552631647
 21
2.170723684210457
 31
0.0
  0
LINE
  5
16426
330
163C0
100
AcDbEntity
  8
_0-3__0-4__0-8__0-7__2-4_
  6
CONTINUOUS
 62
     7
100
AcDbLine
 10
-13.44358552631638
 20
2.120723684210332
 30
0.0
 11
-13.44358552631638
 21
3.420723684210486
 31
0.0
  0
LINE
  5
16427
330
163C0
100
AcDbEntity
  8
_0-3__0-4__0-8__0-7__2-4_
  6
CONTINUOUS
 62
     7
100
AcDbLine
 10
-12.84358552631647
 20
2.120723684210332
 30
0.0
 11
-12.84358552631647
 21
3.420723684210486
 31
0.0
  0
LINE
  5
16428
330
163C0
100
AcDbEntity
  8
_0-3__0-4__0-8__0-7__2-4_
  6
CONTINUOUS
 62
     7
100
AcDbLine
 10
-13.44358552631638
 20
0.220723684210469
 30
0.0
 11
-13.44358552631638
 21
0.520723684210395
 31
0.0
  0
LINE
  5
16429
330
163C0
100
AcDbEntity
  8
_0-3__0-4__0-8__0-7__2-4_
  6
CONTINUOUS
 62
     7
100
AcDbLine
 10
-12.84358552631647
 20
0.220723684210469
 30
0.0
 11
-12.84358552631647
 21
0.520723684210395
 31
0.0
  0
LINE
  5
1642A
330
163C0
100
AcDbEntity
  8
_0-3__0-4__0-8__0-7__2-4_
  6
CONTINUOUS
 62
     7
100
AcDbLine
 10
-10.94358552631638
 20
2.120723684210332
 30
0.0
 11
-10.94358552631638
 21
3.420723684210486
 31
0.0
  0
LINE
  5
1642B
330
163C0
100
AcDbEntity
  8
_0-3__0-4__0-8__0-7__2-4_
  6
CONTINUOUS
 62
     7
100
AcDbLine
 10
-10.34358552631647
 20
2.120723684210332
 30
0.0
 11
-10.34358552631647
 21
3.420723684210486
 31
0.0
  0
LINE
  5
1642C
330
163C0
100
AcDbEntity
  8
_0-3__0-4__0-8__0-7__2-4_
  6
CONTINUOUS
 62
     7
100
AcDbLine
 10
-10.94358552631638
 20
0.220723684210469
 30
0.0
 11
-10.94358552631638
 21
0.520723684210395
 31
0.0
  0
LINE
  5
1642D
330
163C0
100
AcDbEntity
  8
_0-3__0-4__0-8__0-7__2-4_
  6
CONTINUOUS
 62
     7
100
AcDbLine
 10
-10.34358552631647
 20
0.220723684210469
 30
0.0
 11
-10.34358552631647
 21
0.520723684210395
 31
0.0
  0
LINE
  5
1642E
330
163C0
100
AcDbEntity
  8
_0-3__0-4__0-8__0-7__2-4_
  6
CONTINUOUS
 62
     7
100
AcDbLine
 10
-8.443585526316383
 20
2.120723684210332
 30
0.0
 11
-8.443585526316383
 21
3.420723684210486
 31
0.0
  0
LINE
  5
1642F
330
163C0
100
AcDbEntity
  8
_0-3__0-4__0-8__0-7__2-4_
  6
CONTINUOUS
 62
     7
100
AcDbLine
 10
-7.843585526316473
 20
2.120723684210332
 30
0.0
 11
-7.843585526316473
 21
3.420723684210486
 31
0.0
  0
LINE
  5
16430
330
163C0
100
AcDbEntity
  8
_0-3__0-4__0-8__0-7__2-4_
  6
CONTINUOUS
 62
     7
100
AcDbLine
 10
-8.443585526316383
 20
0.220723684210469
 30
0.0
 11
-8.443585526316383
 21
0.520723684210395
 31
0.0
  0
LINE
  5
16431
330
163C0
100
AcDbEntity
  8
_0-3__0-4__0-8__0-7__2-4_
  6
CONTINUOUS
 62
     7
100
AcDbLine
 10
-7.843585526316473
 20
0.220723684210469
 30
0.0
 11
-7.843585526316473
 21
0.520723684210395
 31
0.0
  0
LINE
  5
16432
330
163C0
100
AcDbEntity
  8
_0-3__0-4__0-8__0-7__2-4_
  6
CONTINUOUS
 62
     7
100
AcDbLine
 10
-5.943585526316383
 20
2.120723684210332
 30
0.0
 11
-5.943585526316383
 21
3.420723684210486
 31
0.0
  0
LINE
  5
16433
330
163C0
100
AcDbEntity
  8
_0-3__0-4__0-8__0-7__2-4_
  6
CONTINUOUS
 62
     7
100
AcDbLine
 10
-5.343585526316473
 20
2.120723684210332
 30
0.0
 11
-5.343585526316473
 21
3.420723684210486
 31
0.0
  0
LINE
  5
16434
330
163C0
100
AcDbEntity
  8
_0-3__0-4__0-8__0-7__2-4_
  6
CONTINUOUS
 62
     7
100
AcDbLine
 10
-5.943585526316383
 20
0.220723684210469
 30
0.0
 11
-5.943585526316383
 21
0.520723684210395
 31
0.0
  0
LINE
  5
16435
330
163C0
100
AcDbEntity
  8
_0-3__0-4__0-8__0-7__2-4_
  6
CONTINUOUS
 62
     7
100
AcDbLine
 10
-5.343585526316473
 20
0.220723684210469
 30
0.0
 11
-5.343585526316473
 21
0.520723684210395
 31
0.0
  0
LINE
  5
16436
330
163C0
100
AcDbEntity
  8
_0-3__0-4__0-8__0-7__2-4_
  6
CONTINUOUS
 62
     7
100
AcDbLine
 10
-3.443585526316383
 20
2.120723684210332
 30
0.0
 11
-3.443585526316383
 21
3.420723684210486
 31
0.0
  0
LINE
  5
16437
330
163C0
100
AcDbEntity
  8
_0-3__0-4__0-8__0-7__2-4_
  6
CONTINUOUS
 62
     7
100
AcDbLine
 10
-2.843585526316473
 20
2.120723684210332
 30
0.0
 11
-2.843585526316473
 21
3.420723684210486
 31
0.0
  0
LINE
  5
16438
330
163C0
100
AcDbEntity
  8
_0-3__0-4__0-8__0-7__2-4_
  6
CONTINUOUS
 62
     7
100
AcDbLine
 10
-3.443585526316383
 20
0.220723684210469
 30
0.0
 11
-3.443585526316383
 21
0.520723684210395
 31
0.0
  0
LINE
  5
16439
330
163C0
100
AcDbEntity
  8
_0-3__0-4__0-8__0-7__2-4_
  6
CONTINUOUS
 62
     7
100
AcDbLine
 10
-2.843585526316473
 20
0.220723684210469
 30
0.0
 11
-2.843585526316473
 21
0.520723684210395
 31
0.0
  0
LINE
  5
1643A
330
163C0
100
AcDbEntity
  8
_0-3__0-4__0-8__0-7__2-4_
  6
CONTINUOUS
 62
     7
100
AcDbLine
 10
-0.9435855263163828
 20
2.120723684210332
 30
0.0
 11
-0.9435855263163828
 21
3.420723684210486
 31
0.0
  0
LINE
  5
1643B
330
163C0
100
AcDbEntity
  8
_0-3__0-4__0-8__0-7__2-4_
  6
CONTINUOUS
 62
     7
100
AcDbLine
 10
-0.3435855263164738
 20
2.120723684210332
 30
0.0
 11
-0.3435855263164738
 21
3.420723684210486
 31
0.0
  0
LINE
  5
1643C
330
163C0
100
AcDbEntity
  8
_0-3__0-4__0-8__0-7__2-4_
  6
CONTINUOUS
 62
     7
100
AcDbLine
 10
-0.9435855263163828
 20
0.220723684210469
 30
0.0
 11
-0.9435855263163828
 21
0.520723684210395
 31
0.0
  0
LINE
  5
1643D
330
163C0
100
AcDbEntity
  8
_0-3__0-4__0-8__0-7__2-4_
  6
CONTINUOUS
 62
     7
100
AcDbLine
 10
-0.3435855263164738
 20
0.220723684210469
 30
0.0
 11
-0.3435855263164738
 21
0.520723684210395
 31
0.0
  0
LINE
  5
1643E
330
163C0
100
AcDbEntity
  8
_0-3__0-4__0-8__0-7__2-4_
  6
CONTINUOUS
 62
     7
100
AcDbLine
 10
1.556414473683616
 20
2.120723684210332
 30
0.0
 11
1.556414473683616
 21
3.420723684210486
 31
0.0
  0
LINE
  5
1643F
330
163C0
100
AcDbEntity
  8
_0-3__0-4__0-8__0-7__2-4_
  6
CONTINUOUS
 62
     7
100
AcDbLine
 10
2.156414473683526
 20
2.120723684210332
 30
0.0
 11
2.156414473683526
 21
3.420723684210486
 31
0.0
  0
LINE
  5
16440
330
163C0
100
AcDbEntity
  8
_0-3__0-4__0-8__0-7__2-4_
  6
CONTINUOUS
 62
     7
100
AcDbLine
 10
1.556414473683616
 20
0.220723684210469
 30
0.0
 11
1.556414473683616
 21
0.520723684210395
 31
0.0
  0
LINE
  5
16441
330
163C0
100
AcDbEntity
  8
_0-3__0-4__0-8__0-7__2-4_
  6
CONTINUOUS
 62
     7
100
AcDbLine
 10
2.156414473683526
 20
0.220723684210469
 30
0.0
 11
2.156414473683526
 21
0.520723684210395
 31
0.0
  0
LINE
  5
16442
330
163C0
100
AcDbEntity
  8
_0-3__0-4__0-8__0-7__2-4_
  6
CONTINUOUS
 62
     7
100
AcDbLine
 10
4.056414473683616
 20
2.120723684210332
 30
0.0
 11
4.056414473683616
 21
3.420723684210486
 31
0.0
  0
LINE
  5
16443
330
163C0
100
AcDbEntity
  8
_0-3__0-4__0-8__0-7__2-4_
  6
CONTINUOUS
 62
     7
100
AcDbLine
 10
4.656414473683526
 20
2.120723684210332
 30
0.0
 11
4.656414473683526
 21
3.420723684210486
 31
0.0
  0
LINE
  5
16444
330
163C0
100
AcDbEntity
  8
_0-3__0-4__0-8__0-7__2-4_
  6
CONTINUOUS
 62
     7
100
AcDbLine
 10
4.056414473683616
 20
0.220723684210469
 30
0.0
 11
4.056414473683616
 21
0.520723684210395
 31
0.0
  0
LINE
  5
16445
330
163C0
100
AcDbEntity
  8
_0-3__0-4__0-8__0-7__2-4_
  6
CONTINUOUS
 62
     7
100
AcDbLine
 10
4.656414473683526
 20
0.220723684210469
 30
0.0
 11
4.656414473683526
 21
0.520723684210395
 31
0.0
  0
LINE
  5
16446
330
163C0
100
AcDbEntity
  8
_0-3__0-4__0-8__0-7__2-4_
  6
CONTINUOUS
 62
     7
100
AcDbLine
 10
6.556414473683616
 20
2.120723684210332
 30
0.0
 11
6.556414473683616
 21
3.420723684210486
 31
0.0
  0
LINE
  5
16447
330
163C0
100
AcDbEntity
  8
_0-3__0-4__0-8__0-7__2-4_
  6
CONTINUOUS
 62
     7
100
AcDbLine
 10
7.156414473683526
 20
2.120723684210332
 30
0.0
 11
7.156414473683526
 21
3.420723684210486
 31
0.0
  0
LINE
  5
16448
330
163C0
100
AcDbEntity
  8
_0-3__0-4__0-8__0-7__2-4_
  6
CONTINUOUS
 62
     7
100
AcDbLine
 10
6.556414473683616
 20
0.220723684210469
 30
0.0
 11
6.556414473683616
 21
0.520723684210395
 31
0.0
  0
LINE
  5
16449
330
163C0
100
AcDbEntity
  8
_0-3__0-4__0-8__0-7__2-4_
  6
CONTINUOUS
 62
     7
100
AcDbLine
 10
7.156414473683526
 20
0.220723684210469
 30
0.0
 11
7.156414473683526
 21
0.520723684210395
 31
0.0
  0
LINE
  5
1644A
330
163C0
100
AcDbEntity
  8
_0-3__0-4__0-8__0-7__2-4_
  6
CONTINUOUS
 62
     7
100
AcDbLine
 10
9.056414473683616
 20
2.120723684210332
 30
0.0
 11
9.056414473683616
 21
3.420723684210486
 31
0.0
  0
LINE
  5
1644B
330
163C0
100
AcDbEntity
  8
_0-3__0-4__0-8__0-7__2-4_
  6
CONTINUOUS
 62
     7
100
AcDbLine
 10
9.656414473683526
 20
2.120723684210332
 30
0.0
 11
9.656414473683526
 21
3.420723684210486
 31
0.0
  0
LINE
  5
1644C
330
163C0
100
AcDbEntity
  8
_0-3__0-4__0-8__0-7__2-4_
  6
CONTINUOUS
 62
     7
100
AcDbLine
 10
9.056414473683616
 20
0.220723684210469
 30
0.0
 11
9.056414473683616
 21
0.520723684210395
 31
0.0
  0
LINE
  5
1644D
330
163C0
100
AcDbEntity
  8
_0-3__0-4__0-8__0-7__2-4_
  6
CONTINUOUS
 62
     7
100
AcDbLine
 10
9.656414473683526
 20
0.220723684210469
 30
0.0
 11
9.656414473683526
 21
0.520723684210395
 31
0.0
  0
LINE
  5
1644E
330
163C0
100
AcDbEntity
  8
_0-3__0-4__0-8__0-7__2-4_
  6
CONTINUOUS
 62
     7
100
AcDbLine
 10
11.55641447368361
 20
2.120723684210332
 30
0.0
 11
11.55641447368361
 21
3.420723684210486
 31
0.0
  0
LINE
  5
1644F
330
163C0
100
AcDbEntity
  8
_0-3__0-4__0-8__0-7__2-4_
  6
CONTINUOUS
 62
     7
100
AcDbLine
 10
12.15641447368352
 20
2.120723684210332
 30
0.0
 11
12.15641447368352
 21
3.420723684210486
 31
0.0
  0
LINE
  5
16450
330
163C0
100
AcDbEntity
  8
_0-3__0-4__0-8__0-7__2-4_
  6
CONTINUOUS
 62
     7
100
AcDbLine
 10
11.55641447368361
 20
0.220723684210469
 30
0.0
 11
11.55641447368361
 21
0.520723684210395
 31
0.0
  0
LINE
  5
16451
330
163C0
100
AcDbEntity
  8
_0-3__0-4__0-8__0-7__2-4_
  6
CONTINUOUS
 62
     7
100
AcDbLine
 10
12.15641447368352
 20
0.220723684210469
 30
0.0
 11
12.15641447368352
 21
0.520723684210395
 31
0.0
  0
LINE
  5
16452
330
163C0
100
AcDbEntity
  8
_0-3__0-4__0-8__0-7__2-4_
  6
CONTINUOUS
 62
     7
100
AcDbLine
 10
14.05641447368361
 20
2.120723684210332
 30
0.0
 11
14.05641447368361
 21
3.420723684210486
 31
0.0
  0
LINE
  5
16453
330
163C0
100
AcDbEntity
  8
_0-3__0-4__0-8__0-7__2-4_
  6
CONTINUOUS
 62
     7
100
AcDbLine
 10
14.65641447368352
 20
2.120723684210332
 30
0.0
 11
14.65641447368352
 21
3.420723684210486
 31
0.0
  0
LINE
  5
16454
330
163C0
100
AcDbEntity
  8
_0-3__0-4__0-8__0-7__2-4_
  6
CONTINUOUS
 62
     7
100
AcDbLine
 10
14.05641447368361
 20
0.220723684210469
 30
0.0
 11
14.05641447368361
 21
0.520723684210395
 31
0.0
  0
LINE
  5
16455
330
163C0
100
AcDbEntity
  8
_0-3__0-4__0-8__0-7__2-4_
  6
CONTINUOUS
 62
     7
100
AcDbLine
 10
14.65641447368352
 20
0.220723684210469
 30
0.0
 11
14.65641447368352
 21
0.520723684210395
 31
0.0
  0
ENDBLK
  5
16457
330
163C0
100
AcDbEntity
  8
0
100
AcDbBlockEnd
  0
BLOCK
  5
16462
330
16458
100
AcDbEntity
  8
0
100
AcDbBlockBegin
  2
-001-SA-7252TB_C
 70
     0
 10
0.0
 20
0.0
 30
0.0
  3
-001-SA-7252TB_C
  1

  0
LINE
  5
16459
330
16458
100
AcDbEntity
  8
_0-3__0-4__0-8__0-7__2-4_
  6
CONTINUOUS
 62
     7
100
AcDbLine
 10
-1.779166666666668
 20
5.642083333333375
 30
0.0
 11
-1.779166666666668
 21
-1.957916666666619
 31
0.0
  0
LINE
  5
1645A
330
16458
100
AcDbEntity
  8
_0-3__0-4__0-8__0-7__2-4_
  6
CONTINUOUS
 62
     7
100
AcDbLine
 10
-1.779166666666668
 20
5.642083333333375
 30
0.0
 11
1.820833333333325
 21
5.642083333333375
 31
0.0
  0
LINE
  5
1645B
330
16458
100
AcDbEntity
  8
_0-3__0-4__0-8__0-7__2-4_
  6
CONTINUOUS
 62
     7
100
AcDbLine
 10
-1.779166666666668
 20
-1.957916666666619
 30
0.0
 11
1.820833333333325
 21
-1.957916666666619
 31
0.0
  0
LINE
  5
1645C
330
16458
100
AcDbEntity
  8
_0-3__0-4__0-8__0-7__2-4_
  6
CONTINUOUS
 62
     7
100
AcDbLine
 10
1.820833333333325
 20
5.642083333333375
 30
0.0
 11
1.820833333333325
 21
-1.957916666666619
 31
0.0
  0
LINE
  5
1645D
330
16458
100
AcDbEntity
  8
_0-3__0-4__0-8__0-7__2-4_
  6
CONTINUOUS
 62
     7
100
AcDbLine
 10
1.820833333333325
 20
-1.957916666666619
 30
0.0
 11
2.820833333333325
 21
-1.957916666666619
 31
0.0
  0
LINE
  5
1645E
330
16458
100
AcDbEntity
  8
_0-3__0-4__0-8__0-7__2-4_
  6
CONTINUOUS
 62
     7
100
AcDbLine
 10
2.820833333333325
 20
-1.957916666666619
 30
0.0
 11
2.820833333333325
 21
-1.807916666666614
 31
0.0
  0
LINE
  5
1645F
330
16458
100
AcDbEntity
  8
_0-3__0-4__0-8__0-7__2-4_
  6
CONTINUOUS
 62
     7
100
AcDbLine
 10
2.820833333333325
 20
-1.807916666666614
 30
0.0
 11
1.820833333333325
 21
-1.807916666666614
 31
0.0
  0
LINE
  5
16460
330
16458
100
AcDbEntity
  8
_0-3__0-4__0-8__0-7__2-4_
  6
CONTINUOUS
 62
     7
100
AcDbLine
 10
-2.48916666666662
 20
-1.777916666666612
 30
0.0
 11
-1.779166666666668
 21
-1.777916666666612
 31
0.0
  0
LINE
  5
16461
330
16458
100
AcDbEntity
  8
_0-3__0-4__0-8__0-7__2-4_
  6
CONTINUOUS
 62
     7
100
AcDbLine
 10
-1.779166666666668
 20
-1.957916666666619
 30
0.0
 11
-2.489166666666648
 21
-1.957916666666619
 31
0.0
  0
ENDBLK
  5
16463
330
16458
100
AcDbEntity
  8
0
100
AcDbBlockEnd
  0
BLOCK
  5
16470
330
16464
100
AcDbEntity
  8
0
100
AcDbBlockBegin
  2
-002-CHS-04TA1_C
 70
     0
 10
0.0
 20
0.0
 30
0.0
  3
-002-CHS-04TA1_C
  1

  0
LINE
  5
16465
330
16464
100
AcDbEntity
  8
_0-3__0-4__0-8__0-7__2-4_
  6
CONTINUOUS
 62
     7
100
AcDbLine
 10
-1.753571428571433
 20
2.700000000000016
 30
0.0
 11
0.6464285714285723
 21
2.700000000000016
 31
0.0
  0
LINE
  5
16466
330
16464
100
AcDbEntity
  8
_0-3__0-4__0-8__0-7__2-4_
  6
CONTINUOUS
 62
     7
100
AcDbLine
 10
0.7464285714285665
 20
-2.799999999999982
 30
0.0
 11
-0.2535714285714332
 21
-2.799999999999982
 31
0.0
  0
LINE
  5
16467
330
16464
100
AcDbEntity
  8
_0-3__0-4__0-8__0-7__2-4_
  6
CONTINUOUS
 62
     7
100
AcDbLine
 10
-0.2535714285714332
 20
-2.799999999999982
 30
0.0
 11
-0.2535714285714332
 21
-2.699999999999988
 31
0.0
  0
LINE
  5
16468
330
16464
100
AcDbEntity
  8
_0-3__0-4__0-8__0-7__2-4_
  6
CONTINUOUS
 62
     7
100
AcDbLine
 10
-0.2535714285714332
 20
2.700000000000016
 30
0.0
 11
-0.2535714285714332
 21
2.800000000000011
 31
0.0
  0
LINE
  5
16469
330
16464
100
AcDbEntity
  8
_0-3__0-4__0-8__0-7__2-4_
  6
CONTINUOUS
 62
     7
100
AcDbLine
 10
-0.2535714285714332
 20
2.800000000000011
 30
0.0
 11
0.7464285714285665
 21
2.800000000000011
 31
0.0
  0
LINE
  5
1646A
330
16464
100
AcDbEntity
  8
_0-3__0-4__0-8__0-7__2-4_
  6
CONTINUOUS
 62
     7
100
AcDbLine
 10
0.6464285714285723
 20
2.700000000000016
 30
0.0
 11
0.6464285714285723
 21
2.50999999999999
 31
0.0
  0
LINE
  5
1646B
330
16464
100
AcDbEntity
  8
_0-3__0-4__0-8__0-7__2-4_
  6
CONTINUOUS
 62
     7
100
AcDbLine
 10
-0.1535714285714391
 20
1.50999999999999
 30
0.0
 11
-0.1535714285714391
 21
2.700000000000016
 31
0.0
  0
LINE
  5
1646C
330
16464
100
AcDbEntity
  8
_0-3__0-4__0-8__0-7__2-4_
  6
CONTINUOUS
 62
     7
100
AcDbLine
 10
-1.753571428571433
 20
2.700000000000016
 30
0.0
 11
-1.753571428571433
 21
1.50999999999999
 31
0.0
  0
LINE
  5
1646D
330
16464
100
AcDbEntity
  8
_0-3__0-4__0-8__0-7__2-4_
  6
CONTINUOUS
 62
     7
100
AcDbLine
 10
-1.753571428571433
 20
-2.090000000000003
 30
0.0
 11
-1.753571428571433
 21
-2.699999999999988
 31
0.0
  0
LINE
  5
1646E
330
16464
100
AcDbEntity
  8
_0-3__0-4__0-8__0-7__2-4_
  6
CONTINUOUS
 62
     7
100
AcDbLine
 10
-0.1535714285714391
 20
-2.699999999999988
 30
0.0
 11
-0.1535714285714391
 21
-2.090000000000003
 31
0.0
  0
LINE
  5
1646F
330
16464
100
AcDbEntity
  8
_0-3__0-4__0-8__0-7__2-4_
  6
CONTINUOUS
 62
     7
100
AcDbLine
 10
-1.753571428571433
 20
-2.699999999999988
 30
0.0
 11
0.5664285714285598
 21
-2.699999999999988
 31
0.0
  0
ENDBLK
  5
16471
330
16464
100
AcDbEntity
  8
0
100
AcDbBlockEnd
  0
BLOCK
  5
16480
330
16472
100
AcDbEntity
  8
0
100
AcDbBlockBegin
  2
-003-MHL350ADA331MJA0G_A
 70
     0
 10
0.0
 20
0.0
 30
0.0
  3
-003-MHL350ADA331MJA0G_A
  1

  0
CIRCLE
  5
16473
330
16472
100
AcDbEntity
  8
_0-4__0-5__0-3__0-2__0-2__
  6
CONTINUOUS
 62
     7
100
AcDbCircle
 10
-0.0000000000000284
 20
-0.2515151515150648
 30
0.0
 40
5.0
  0
LINE
  5
16474
330
16472
100
AcDbEntity
  8
_0-4__0-5__0-3__0-2__0-2__
  6
CONTINUOUS
 62
     7
100
AcDbLine
 10
-5.150000000000033
 20
-5.401515151515071
 30
0.0
 11
5.149999999999963
 21
-5.401515151515071
 31
0.0
  0
LINE
  5
16475
330
16472
100
AcDbEntity
  8
_0-4__0-5__0-3__0-2__0-2__
  6
CONTINUOUS
 62
     7
100
AcDbLine
 10
0.4499999999999745
 20
4.89848484848494
 30
0.0
 11
0.4499999999999745
 21
5.248484848484935
 31
0.0
  0
LINE
  5
16476
330
16472
100
AcDbEntity
  8
_0-4__0-5__0-3__0-2__0-2__
  6
CONTINUOUS
 62
     7
100
AcDbLine
 10
-0.4500000000000312
 20
4.89848484848494
 30
0.0
 11
-0.4500000000000312
 21
5.248484848484935
 31
0.0
  0
LINE
  5
16477
330
16472
100
AcDbEntity
  8
_0-4__0-5__0-3__0-2__0-2__
  6
CONTINUOUS
 62
     7
100
AcDbLine
 10
0.4499999999999745
 20
-5.751515151515064
 30
0.0
 11
0.4499999999999745
 21
-5.401515151515071
 31
0.0
  0
LINE
  5
16478
330
16472
100
AcDbEntity
  8
_0-4__0-5__0-3__0-2__0-2__
  6
CONTINUOUS
 62
     7
100
AcDbLine
 10
-0.4500000000000312
 20
-5.751515151515064
 30
0.0
 11
-0.4500000000000312
 21
-5.401515151515071
 31
0.0
  0
LINE
  5
16479
330
16472
100
AcDbEntity
  8
_0-4__0-5__0-3__0-2__0-2__
  6
CONTINUOUS
 62
     7
100
AcDbLine
 10
-0.4500000000000312
 20
-5.751515151515064
 30
0.0
 11
0.4499999999999745
 21
-5.751515151515064
 31
0.0
  0
LINE
  5
1647A
330
16472
100
AcDbEntity
  8
_0-4__0-5__0-3__0-2__0-2__
  6
CONTINUOUS
 62
     7
100
AcDbLine
 10
-0.4500000000000312
 20
5.248484848484935
 30
0.0
 11
0.4499999999999745
 21
5.248484848484935
 31
0.0
  0
LINE
  5
1647B
330
16472
100
AcDbEntity
  8
_0-4__0-5__0-3__0-2__0-2__
  6
CONTINUOUS
 62
     7
100
AcDbLine
 10
-5.150000000000033
 20
3.89848484848494
 30
0.0
 11
-5.150000000000033
 21
-5.401515151515071
 31
0.0
  0
LINE
  5
1647C
330
16472
100
AcDbEntity
  8
_0-4__0-5__0-3__0-2__0-2__
  6
CONTINUOUS
 62
     7
100
AcDbLine
 10
-5.150000000000033
 20
3.89848484848494
 30
0.0
 11
-4.150000000000033
 21
4.89848484848494
 31
0.0
  0
LINE
  5
1647D
330
16472
100
AcDbEntity
  8
_0-4__0-5__0-3__0-2__0-2__
  6
CONTINUOUS
 62
     7
100
AcDbLine
 10
4.149999999999963
 20
4.89848484848494
 30
0.0
 11
-4.150000000000033
 21
4.89848484848494
 31
0.0
  0
LINE
  5
1647E
330
16472
100
AcDbEntity
  8
_0-4__0-5__0-3__0-2__0-2__
  6
CONTINUOUS
 62
     7
100
AcDbLine
 10
5.149999999999963
 20
3.89848484848494
 30
0.0
 11
5.149999999999963
 21
-5.401515151515071
 31
0.0
  0
LINE
  5
1647F
330
16472
100
AcDbEntity
  8
_0-4__0-5__0-3__0-2__0-2__
  6
CONTINUOUS
 62
     7
100
AcDbLine
 10
4.149999999999963
 20
4.89848484848494
 30
0.0
 11
5.149999999999963
 21
3.89848484848494
 31
0.0
  0
ENDBLK
  5
16481
330
16472
100
AcDbEntity
  8
0
100
AcDbBlockEnd
  0
BLOCK
  5
16502
330
16482
100
AcDbEntity
  8
0
100
AcDbBlockBegin
  2
-004-インダクタ上
 70
     0
 10
0.0
 20
0.0
 30
0.0
  3
-004-インダクタ上
  1

  0
LINE
  5
16483
330
16482
100
AcDbEntity
  8
_0-4__0-5__0-3__0-2__0-2__
  6
CONTINUOUS
 62
     7
100
AcDbLine
 10
-6.459764507169737
 20
1.075102259172084
 30
0.0
 11
-6.459764507169737
 21
-0.9248977408279156
 31
0.0
  0
LINE
  5
16484
330
16482
100
AcDbEntity
  8
_0-4__0-5__0-3__0-2__0-2__
  6
CONTINUOUS
 62
     7
100
AcDbLine
 10
-5.959764507169737
 20
1.075102259172084
 30
0.0
 11
-6.459764507169752
 21
1.075102259172084
 31
0.0
  0
LINE
  5
16485
330
16482
100
AcDbEntity
  8
_0-4__0-5__0-3__0-2__0-2__
  6
CONTINUOUS
 62
     7
100
AcDbLine
 10
-6.459764507169737
 20
2.075102259172084
 30
0.0
 11
-6.159764507169739
 21
2.075102259172084
 31
0.0
  0
LINE
  5
16486
330
16482
100
AcDbEntity
  8
_0-4__0-5__0-3__0-2__0-2__
  6
CONTINUOUS
 62
     7
100
AcDbLine
 10
-6.459764507169737
 20
3.500718941359586
 30
0.0
 11
-6.459764507169737
 21
1.075102259172084
 31
0.0
  0
LINE
  5
16487
330
16482
100
AcDbEntity
  8
_0-4__0-5__0-3__0-2__0-2__
  6
CONTINUOUS
 62
     7
100
AcDbLine
 10
6.34023549283026
 20
0.9912750410357098
 30
0.0
 11
6.34023549283026
 21
-0.9248977408279266
 31
0.0
  0
LINE
  5
16488
330
16482
100
AcDbEntity
  8
_0-4__0-5__0-3__0-2__0-2__
  6
CONTINUOUS
 62
     7
100
AcDbLine
 10
4.038380871603961
 20
-5.555346569649393
 30
0.0
 11
3.452852519811699
 21
-5.424363558356184
 31
0.0
  0
ARC
  5
16489
330
16482
100
AcDbEntity
  8
_0-4__0-5__0-3__0-2__0-2__
  6
CONTINUOUS
 62
     7
100
AcDbCircle
 10
-0.0597645071697313
 20
0.0751022591720413
 30
0.0
 40
4.9
100
AcDbArc
 50
259.5243183036101
 51
344.1733798681279
  0
CIRCLE
  5
1648A
330
16482
100
AcDbEntity
  8
_0-4__0-5__0-3__0-2__0-2__
  6
CONTINUOUS
 62
     7
100
AcDbCircle
 10
-0.0597645071697313
 20
0.0751022591720802
 30
0.0
 40
4.2
  0
CIRCLE
  5
1648B
330
16482
100
AcDbEntity
  8
_0-4__0-5__0-3__0-2__0-2__
  6
CONTINUOUS
 62
     7
100
AcDbCircle
 10
-0.0597645071697313
 20
0.0751022591720802
 30
0.0
 40
4.599999999999999
  0
LINE
  5
1648C
330
16482
100
AcDbEntity
  8
_0-4__0-5__0-3__0-2__0-2__
  6
CONTINUOUS
 62
     7
100
AcDbLine
 10
-5.959764507169737
 20
-0.9248977408279156
 30
0.0
 11
-6.459764507169752
 21
-0.9248977408279156
 31
0.0
  0
ARC
  5
1648D
330
16482
100
AcDbEntity
  8
_0-4__0-5__0-3__0-2__0-2__
  6
CONTINUOUS
 62
     7
100
AcDbCircle
 10
-5.959764507169737
 20
0.6251022591720848
 30
0.0
 40
0.45
100
AcDbArc
 50
12.91624548563761
 51
90.0
  0
ARC
  5
1648E
330
16482
100
AcDbEntity
  8
_0-4__0-5__0-3__0-2__0-2__
  6
CONTINUOUS
 62
     7
100
AcDbCircle
 10
-5.959764507169737
 20
-0.4748977408279166
 30
0.0
 40
0.45
100
AcDbArc
 50
270.0
 51
347.0837545143613
  0
LINE
  5
1648F
330
16482
100
AcDbEntity
  8
_0-4__0-5__0-3__0-2__0-2__
  6
CONTINUOUS
 62
     7
100
AcDbLine
 10
5.84023549283026
 20
1.075102259172073
 30
0.0
 11
6.34023549283026
 21
1.075102259172073
 31
0.0
  0
LINE
  5
16490
330
16482
100
AcDbEntity
  8
_0-4__0-5__0-3__0-2__0-2__
  6
CONTINUOUS
 62
     7
100
AcDbLine
 10
5.84023549283026
 20
-0.9248977408279266
 30
0.0
 11
6.34023549283026
 21
-0.9248977408279266
 31
0.0
  0
ARC
  5
16491
330
16482
100
AcDbEntity
  8
_0-4__0-5__0-3__0-2__0-2__
  6
CONTINUOUS
 62
     7
100
AcDbCircle
 10
5.84023549283026
 20
-0.474897740827927
 30
0.0
 40
0.45
100
AcDbArc
 50
192.9162454856401
 51
269.9999999999999
  0
ARC
  5
16492
330
16482
100
AcDbEntity
  8
_0-4__0-5__0-3__0-2__0-2__
  6
CONTINUOUS
 62
     7
100
AcDbCircle
 10
5.84023549283026
 20
0.6251022591720739
 30
0.0
 40
0.45
100
AcDbArc
 50
89.99999999999991
 51
167.083754514363
  0
LINE
  5
16493
330
16482
100
AcDbEntity
  8
_0-4__0-5__0-3__0-2__0-2__
  6
CONTINUOUS
 62
     7
100
AcDbLine
 10
-6.459764507169752
 20
-0.9248977408279156
 30
0.0
 11
-6.459764507169752
 21
-1.924897740827915
 31
0.0
  0
LINE
  5
16494
330
16482
100
AcDbEntity
  8
_0-4__0-5__0-3__0-2__0-2__
  6
CONTINUOUS
 62
     7
100
AcDbLine
 10
-6.459764507169752
 20
-1.924897740827915
 30
0.0
 11
-6.159764507169739
 21
-1.924897740827915
 31
0.0
  0
LINE
  5
16495
330
16482
100
AcDbEntity
  8
_0-4__0-5__0-3__0-2__0-2__
  6
CONTINUOUS
 62
     7
100
AcDbLine
 10
-6.159764507169739
 20
-2.709089523657087
 30
0.0
 11
-6.159764507169739
 21
-0.9248977408279156
 31
0.0
  0
ARC
  5
16496
330
16482
100
AcDbEntity
  8
_0-4__0-5__0-3__0-2__0-2__
  6
CONTINUOUS
 62
     7
100
AcDbCircle
 10
-3.659764507169739
 20
-2.709089523657087
 30
0.0
 40
2.5
100
AcDbArc
 50
180.0
 51
226.3047119788745
  0
LINE
  5
16497
330
16482
100
AcDbEntity
  8
_0-4__0-5__0-3__0-2__0-2__
  6
CONTINUOUS
 62
     7
100
AcDbLine
 10
-4.375994901260121
 20
-5.482457644128579
 30
0.0
 11
-5.386821887797217
 21
-4.516649426957708
 31
0.0
  0
ARC
  5
16498
330
16482
100
AcDbEntity
  8
_0-4__0-5__0-3__0-2__0-2__
  6
CONTINUOUS
 62
     7
100
AcDbCircle
 10
-2.648937520632642
 20
-3.674897740827957
 30
0.0
 40
2.5
100
AcDbArc
 50
226.3047119788745
 51
270.0
  0
ARC
  5
16499
330
16482
100
AcDbEntity
  8
_0-4__0-5__0-3__0-2__0-2__
  6
CONTINUOUS
 62
     7
100
AcDbCircle
 10
-2.648937520632642
 20
-3.674897740827957
 30
0.0
 40
2.2
100
AcDbArc
 50
226.3047119788745
 51
270.0
  0
LINE
  5
1649A
330
16482
100
AcDbEntity
  8
_0-4__0-5__0-3__0-2__0-2__
  6
CONTINUOUS
 62
     7
100
AcDbLine
 10
-4.168748015584824
 20
-5.265550455732504
 30
0.0
 11
-5.179575002121922
 21
-4.299742238561633
 31
0.0
  0
LINE
  5
1649B
330
16482
100
AcDbEntity
  8
_0-4__0-5__0-3__0-2__0-2__
  6
CONTINUOUS
 62
     7
100
AcDbLine
 10
6.040235492830262
 20
2.859294042001245
 30
0.0
 11
6.040235492830262
 21
1.075102259172091
 31
0.0
  0
ARC
  5
1649C
330
16482
100
AcDbEntity
  8
_0-4__0-5__0-3__0-2__0-2__
  6
CONTINUOUS
 62
     7
100
AcDbCircle
 10
3.540235492830262
 20
2.859294042001245
 30
0.0
 40
2.5
100
AcDbArc
 50
0.0
 51
46.30471197887427
  0
LINE
  5
1649D
330
16482
100
AcDbEntity
  8
_0-4__0-5__0-3__0-2__0-2__
  6
CONTINUOUS
 62
     7
100
AcDbLine
 10
5.267292873457748
 20
4.666853945301859
 30
0.0
 11
4.256465886920736
 21
5.632662162472663
 31
0.0
  0
ARC
  5
1649E
330
16482
100
AcDbEntity
  8
_0-4__0-5__0-3__0-2__0-2__
  6
CONTINUOUS
 62
     7
100
AcDbCircle
 10
2.52940850629325
 20
3.825102259172048
 30
0.0
 40
2.5
100
AcDbArc
 50
46.30471197887431
 51
90.0
  0
LINE
  5
1649F
330
16482
100
AcDbEntity
  8
_0-4__0-5__0-3__0-2__0-2__
  6
CONTINUOUS
 62
     7
100
AcDbLine
 10
5.060045987782459
 20
4.449946756905784
 30
0.0
 11
4.049219001245432
 21
5.415754974076588
 31
0.0
  0
ARC
  5
164A0
330
16482
100
AcDbEntity
  8
_0-4__0-5__0-3__0-2__0-2__
  6
CONTINUOUS
 62
     7
100
AcDbCircle
 10
2.52940850629325
 20
3.825102259172048
 30
0.0
 40
2.2
100
AcDbArc
 50
46.30471197887431
 51
90.0
  0
ARC
  5
164A1
330
16482
100
AcDbEntity
  8
_0-4__0-5__0-3__0-2__0-2__
  6
CONTINUOUS
 62
     7
100
AcDbCircle
 10
3.540235492830262
 20
2.859294042001245
 30
0.0
 40
2.2
100
AcDbArc
 50
0.0
 51
46.30471197887427
  0
LINE
  5
164A2
330
16482
100
AcDbEntity
  8
_0-4__0-5__0-3__0-2__0-2__
  6
CONTINUOUS
 62
     7
100
AcDbLine
 10
-1.059764507169738
 20
-5.33322465402395
 30
0.0
 11
-0.8961281435333674
 21
-4.448225704591834
 31
0.0
  0
LINE
  5
164A3
330
16482
100
AcDbEntity
  8
_0-4__0-5__0-3__0-2__0-2__
  6
CONTINUOUS
 62
     7
100
AcDbLine
 10
0.9402354928302829
 20
5.483429172368097
 30
0.0
 11
0.7765991291939116
 21
4.59843022293598
 31
0.0
  0
ARC
  5
164A4
330
16482
100
AcDbEntity
  8
_0-4__0-5__0-3__0-2__0-2__
  6
CONTINUOUS
 62
     7
100
AcDbCircle
 10
-0.0597645071697313
 20
0.0751022591720413
 30
0.0
 40
4.9
100
AcDbArc
 50
79.52431830360997
 51
164.1733798681271
  0
LINE
  5
164A5
330
16482
100
AcDbEntity
  8
_0-4__0-5__0-3__0-2__0-2__
  6
CONTINUOUS
 62
     7
100
AcDbLine
 10
-5.351267129298911
 20
1.575102259172084
 30
0.0
 11
-4.485384882041415
 21
1.329647713717538
 31
0.0
  0
LINE
  5
164A6
330
16482
100
AcDbEntity
  8
_0-4__0-5__0-3__0-2__0-2__
  6
CONTINUOUS
 62
     7
100
AcDbLine
 10
5.231738114959455
 20
-1.424897740827937
 30
0.0
 11
4.365855867701966
 21
-1.179443195373391
 31
0.0
  0
LINE
  5
164A7
330
16482
100
AcDbEntity
  8
_0-4__0-5__0-3__0-2__0-2__
  6
CONTINUOUS
 62
     7
100
AcDbLine
 10
-2.648937520632642
 20
-5.874897740827957
 30
0.0
 11
-0.7597645071697344
 21
-5.874897740827957
 31
0.0
  0
LINE
  5
164A8
330
16482
100
AcDbEntity
  8
_0-4__0-5__0-3__0-2__0-2__
  6
CONTINUOUS
 62
     7
100
AcDbLine
 10
-0.0597645071697313
 20
6.325102259172041
 30
0.0
 11
-0.0597645071697313
 21
5.375102259172088
 31
0.0
  0
LINE
  5
164A9
330
16482
100
AcDbEntity
  8
_0-4__0-5__0-3__0-2__0-2__
  6
CONTINUOUS
 62
     7
100
AcDbLine
 10
0.6402354928302571
 20
6.325102259172041
 30
0.0
 11
0.6402354928302571
 21
5.328672473797556
 31
0.0
  0
LINE
  5
164AA
330
16482
100
AcDbEntity
  8
_0-4__0-5__0-3__0-2__0-2__
  6
CONTINUOUS
 62
     7
100
AcDbLine
 10
2.52940850629325
 20
6.025102259172044
 30
0.0
 11
0.6402354928302571
 21
6.025102259172044
 31
0.0
  0
LINE
  5
164AB
330
16482
100
AcDbEntity
  8
_0-4__0-5__0-3__0-2__0-2__
  6
CONTINUOUS
 62
     7
100
AcDbLine
 10
-2.648937520632713
 20
6.325102259172048
 30
0.0
 11
2.52940850629325
 21
6.325102259172048
 31
0.0
  0
LINE
  5
164AC
330
16482
100
AcDbEntity
  8
_0-4__0-5__0-3__0-2__0-2__
  6
CONTINUOUS
 62
     7
100
AcDbLine
 10
6.040235492830262
 20
2.075102259172073
 30
0.0
 11
6.34023549283026
 21
2.075102259172073
 31
0.0
  0
LINE
  5
164AD
330
16482
100
AcDbEntity
  8
_0-4__0-5__0-3__0-2__0-2__
  6
CONTINUOUS
 62
     7
100
AcDbLine
 10
6.34023549283026
 20
1.075102259172073
 30
0.0
 11
6.34023549283026
 21
2.075102259172073
 31
0.0
  0
LINE
  5
164AE
330
16482
100
AcDbEntity
  8
_0-4__0-5__0-3__0-2__0-2__
  6
CONTINUOUS
 62
     7
100
AcDbLine
 10
3.24387745953031
 20
-6.174897740827957
 30
0.0
 11
-2.648937520632642
 21
-6.174897740827957
 31
0.0
  0
LINE
  5
164AF
330
16482
100
AcDbEntity
  8
_0-4__0-5__0-3__0-2__0-2__
  6
CONTINUOUS
 62
     7
100
AcDbLine
 10
6.040235492830262
 20
-2.897944655148823
 30
0.0
 11
6.040235492830262
 21
-2.224897740827926
 31
0.0
  0
ARC
  5
164B0
330
16482
100
AcDbEntity
  8
_0-4__0-5__0-3__0-2__0-2__
  6
CONTINUOUS
 62
     7
100
AcDbCircle
 10
3.540235492830262
 20
-2.897944655148823
 30
0.0
 40
2.5
100
AcDbArc
 50
339.1213381514583
 51
359.9999999999999
  0
LINE
  5
164B1
330
16482
100
AcDbEntity
  8
_0-4__0-5__0-3__0-2__0-2__
  6
CONTINUOUS
 62
     7
100
AcDbLine
 10
5.307730252958123
 20
-1.124897740827925
 30
0.0
 11
6.040235492830262
 21
-1.124897740827925
 31
0.0
  0
LINE
  5
164B2
330
16482
100
AcDbEntity
  8
_0-4__0-5__0-3__0-2__0-2__
  6
CONTINUOUS
 62
     7
100
AcDbLine
 10
5.307730252958108
 20
1.275102259172076
 30
0.0
 11
6.040235492830262
 21
1.275102259172076
 31
0.0
  0
ARC
  5
164B3
330
16482
100
AcDbEntity
  8
_0-4__0-5__0-3__0-2__0-2__
  6
CONTINUOUS
 62
     7
100
AcDbCircle
 10
-0.0597645071697313
 20
0.0751022591720802
 30
0.0
 40
5.299999999999999
100
AcDbArc
 50
79.52431830360994
 51
137.9437523110162
  0
ARC
  5
164B4
330
16482
100
AcDbEntity
  8
_0-4__0-5__0-3__0-2__0-2__
  6
CONTINUOUS
 62
     7
100
AcDbCircle
 10
-0.0597645071697313
 20
0.0751022591720802
 30
0.0
 40
5.299999999999999
100
AcDbArc
 50
147.9006356006982
 51
164.1733798681276
  0
LINE
  5
164B5
330
16482
100
AcDbEntity
  8
_0-4__0-5__0-3__0-2__0-2__
  6
CONTINUOUS
 62
     7
100
AcDbLine
 10
-3.819109748134238
 20
3.217923182997892
 30
0.0
 11
-4.136107458416923
 21
3.952438296304308
 31
0.0
  0
LINE
  5
164B6
330
16482
100
AcDbEntity
  8
_0-4__0-5__0-3__0-2__0-2__
  6
CONTINUOUS
 62
     7
100
AcDbLine
 10
-3.407760151071698
 20
4.28372742430858
 30
0.0
 11
-5.244047934339847
 21
3.491233148606749
 31
0.0
  0
LINE
  5
164B7
330
16482
100
AcDbEntity
  8
_0-4__0-5__0-3__0-2__0-2__
  6
CONTINUOUS
 62
     7
100
AcDbLine
 10
-3.645508433782254
 20
4.834613759289023
 30
0.0
 11
-5.481796217050394
 21
4.042119483587193
 31
0.0
  0
LINE
  5
164B8
330
16482
100
AcDbEntity
  8
_0-4__0-5__0-3__0-2__0-2__
  6
CONTINUOUS
 62
     7
100
AcDbLine
 10
-5.244047934339847
 20
3.491233148606749
 30
0.0
 11
-5.481796217051865
 21
4.04211948358656
 31
0.0
  0
LINE
  5
164B9
330
16482
100
AcDbEntity
  8
_0-4__0-5__0-3__0-2__0-2__
  6
CONTINUOUS
 62
     7
100
AcDbLine
 10
-3.407760151073815
 20
4.283727424313475
 30
0.0
 11
-3.645508433783717
 21
4.834613759288387
 31
0.0
  0
LINE
  5
164BA
330
16482
100
AcDbEntity
  8
_0-4__0-5__0-3__0-2__0-2__
  6
CONTINUOUS
 62
     7
100
AcDbLine
 10
-4.353205746776793
 20
2.436534519907336
 30
0.0
 11
-4.876790377686219
 21
3.649732003747118
 31
0.0
  0
LINE
  5
164BB
330
16482
100
AcDbEntity
  8
_0-4__0-5__0-3__0-2__0-2__
  6
CONTINUOUS
 62
     7
100
AcDbLine
 10
-3.804007288922619
 20
5.201871315942649
 30
0.0
 11
-5.64029507219076
 21
4.409377040240823
 31
0.0
  0
LINE
  5
164BC
330
16482
100
AcDbEntity
  8
_0-4__0-5__0-3__0-2__0-2__
  6
CONTINUOUS
 62
     7
100
AcDbLine
 10
-6.036542210041673
 20
5.327520931874893
 30
0.0
 11
-5.64029507219076
 21
4.409377040240823
 31
0.0
  0
LINE
  5
164BD
330
16482
100
AcDbEntity
  8
_0-4__0-5__0-3__0-2__0-2__
  6
CONTINUOUS
 62
     7
100
AcDbLine
 10
-5.114538660398231
 20
4.200618338726926
 30
0.0
 11
-5.273037515539577
 21
4.567875895380133
 31
0.0
  0
ARC
  5
164BE
330
16482
100
AcDbEntity
  8
_0-4__0-5__0-3__0-2__0-2__
  6
CONTINUOUS
 62
     7
100
AcDbCircle
 10
-3.659764507169739
 20
2.859294042001241
 30
0.0
 40
2.5
100
AcDbArc
 50
141.3139931831192
 51
180.0
  0
LINE
  5
164BF
330
16482
100
AcDbEntity
  8
_0-4__0-5__0-3__0-2__0-2__
  6
CONTINUOUS
 62
     7
100
AcDbLine
 10
-4.380023547091823
 20
4.517616049009617
 30
0.0
 11
-4.538522402233169
 21
4.884873605662825
 31
0.0
  0
ARC
  5
164C0
330
16482
100
AcDbEntity
  8
_0-4__0-5__0-3__0-2__0-2__
  6
CONTINUOUS
 62
     7
100
AcDbCircle
 10
-5.256119902152711
 20
5.664330999048171
 30
0.0
 40
0.5500000000000029
100
AcDbArc
 50
23.3437775799998
 51
203.3437775799999
  0
LINE
  5
164C1
330
16482
100
AcDbEntity
  8
_0-4__0-5__0-3__0-2__0-2__
  6
CONTINUOUS
 62
     7
100
AcDbLine
 10
-4.225384349959981
 20
5.673508223352907
 30
0.0
 11
-4.04175557163316
 21
5.752757650923089
 31
0.0
  0
ARC
  5
164C2
330
16482
100
AcDbEntity
  8
_0-4__0-5__0-3__0-2__0-2__
  6
CONTINUOUS
 62
     7
100
AcDbCircle
 10
-4.265009063745068
 20
5.765322612516313
 30
0.0
 40
0.1
100
AcDbArc
 50
203.3437775799999
 51
293.3437775799998
  0
LINE
  5
164C3
330
16482
100
AcDbEntity
  8
_0-4__0-5__0-3__0-2__0-2__
  6
CONTINUOUS
 62
     7
100
AcDbLine
 10
-4.567511983427159
 20
5.961516352436355
 30
0.0
 11
-6.036542210041673
 21
5.327520931874893
 31
0.0
  0
LINE
  5
164C4
330
16482
100
AcDbEntity
  8
_0-4__0-5__0-3__0-2__0-2__
  6
CONTINUOUS
 62
     7
100
AcDbLine
 10
-4.436072880478661
 20
5.909326677058039
 30
0.0
 11
-4.356823452908479
 21
5.725697898731222
 31
0.0
  0
ARC
  5
164C5
330
16482
100
AcDbEntity
  8
_0-4__0-5__0-3__0-2__0-2__
  6
CONTINUOUS
 62
     7
100
AcDbCircle
 10
-4.527887269642064
 20
5.869701963272948
 30
0.0
 40
0.1
100
AcDbArc
 50
23.34377757999977
 51
113.3437775799999
  0
LINE
  5
164C6
330
16482
100
AcDbEntity
  8
_0-4__0-5__0-3__0-2__0-2__
  6
CONTINUOUS
 62
     7
100
AcDbLine
 10
-4.04175557163316
 20
5.752757650923089
 30
0.0
 11
-3.804007288922619
 21
5.201871315942649
 31
0.0
  0
ARC
  5
164C7
330
16482
100
AcDbEntity
  8
_0-4__0-5__0-3__0-2__0-2__
  6
CONTINUOUS
 62
     7
100
AcDbCircle
 10
-2.648937520632713
 20
3.825102259172048
 30
0.0
 40
2.5
100
AcDbArc
 50
90.0
 51
131.9995270497256
  0
LINE
  5
164C8
330
16482
100
AcDbEntity
  8
_0-4__0-5__0-3__0-2__0-2__
  6
CONTINUOUS
 62
     7
100
AcDbLine
 10
-6.159764507169739
 20
-1.124897740827915
 30
0.0
 11
-5.4272592672976
 21
-1.124897740827915
 31
0.0
  0
LINE
  5
164C9
330
16482
100
AcDbEntity
  8
_0-4__0-5__0-3__0-2__0-2__
  6
CONTINUOUS
 62
     7
100
AcDbLine
 10
-4.881589887666216
 20
2.275102259172083
 30
0.0
 11
-6.159764507169739
 21
2.275102259172083
 31
0.0
  0
LINE
  5
164CA
330
16482
100
AcDbEntity
  8
_0-4__0-5__0-3__0-2__0-2__
  6
CONTINUOUS
 62
     7
100
AcDbLine
 10
-5.859764507169742
 20
2.275102259172083
 30
0.0
 11
-5.859764507169742
 21
1.348671258983046
 31
0.0
  0
LINE
  5
164CB
330
16482
100
AcDbEntity
  8
_0-4__0-5__0-3__0-2__0-2__
  6
CONTINUOUS
 62
     7
100
AcDbLine
 10
-5.859764507169742
 20
-2.709089523657087
 30
0.0
 11
-5.859764507169742
 21
-1.124897740827915
 31
0.0
  0
LINE
  5
164CC
330
16482
100
AcDbEntity
  8
_0-4__0-5__0-3__0-2__0-2__
  6
CONTINUOUS
 62
     7
100
AcDbLine
 10
5.740235492830265
 20
2.859294042001245
 30
0.0
 11
5.740235492830265
 21
1.275102259172076
 31
0.0
  0
LINE
  5
164CD
330
16482
100
AcDbEntity
  8
_0-4__0-5__0-3__0-2__0-2__
  6
CONTINUOUS
 62
     7
100
AcDbLine
 10
-6.159764507169739
 20
1.275102259172083
 30
0.0
 11
-5.380963598167355
 21
1.466087605595994
 31
0.0
  0
ARC
  5
164CE
330
16482
100
AcDbEntity
  8
_0-4__0-5__0-3__0-2__0-2__
  6
CONTINUOUS
 62
     7
100
AcDbCircle
 10
-0.0597645071697313
 20
0.0751022591720413
 30
0.0
 40
5.5
100
AcDbArc
 50
164.1733798681272
 51
259.5243183036101
  0
ARC
  5
164CF
330
16482
100
AcDbEntity
  8
_0-4__0-5__0-3__0-2__0-2__
  6
CONTINUOUS
 62
     7
100
AcDbCircle
 10
-0.0597645071697313
 20
0.0751022591720413
 30
0.0
 40
5.5
100
AcDbArc
 50
344.1733798681278
 51
79.52431830360997
  0
LINE
  5
164D0
330
16482
100
AcDbEntity
  8
_0-4__0-5__0-3__0-2__0-2__
  6
CONTINUOUS
 62
     7
100
AcDbLine
 10
-0.7597645071697344
 20
-6.174897740827957
 30
0.0
 11
-0.7597645071697344
 21
-5.1784679554534
 31
0.0
  0
LINE
  5
164D1
330
16482
100
AcDbEntity
  8
_0-4__0-5__0-3__0-2__0-2__
  6
CONTINUOUS
 62
     7
100
AcDbLine
 10
-0.0597645071697313
 20
-6.174897740827957
 30
0.0
 11
-0.0597645071697313
 21
-5.22489774082792
 31
0.0
  0
LINE
  5
164D2
330
16482
100
AcDbEntity
  8
_0-4__0-5__0-3__0-2__0-2__
  6
CONTINUOUS
 62
     7
100
AcDbLine
 10
1.486365658319158
 20
-4.574573160829363
 30
0.0
 11
3.540174527322208
 21
-5.034011323909838
 31
0.0
  0
LINE
  5
164D3
330
16482
100
AcDbEntity
  8
_0-4__0-5__0-3__0-2__0-2__
  6
CONTINUOUS
 62
     7
100
AcDbLine
 10
2.641349897445635
 20
-4.013171334067443
 30
0.0
 11
3.714818542379816
 21
-4.253306854853489
 31
0.0
  0
LINE
  5
164D4
330
16482
100
AcDbEntity
  8
_0-4__0-5__0-3__0-2__0-2__
  6
CONTINUOUS
 62
     7
100
AcDbLine
 10
3.452852519811699
 20
-5.424363558356184
 30
0.0
 11
3.889462557455729
 21
-3.472602385715309
 31
0.0
  0
LINE
  5
164D5
330
16482
100
AcDbEntity
  8
_0-4__0-5__0-3__0-2__0-2__
  6
CONTINUOUS
 62
     7
100
AcDbLine
 10
3.889462557455729
 20
-3.472602385715309
 30
0.0
 11
4.474990909247992
 21
-3.603585397008518
 31
0.0
  0
LINE
  5
164D6
330
16482
100
AcDbEntity
  8
_0-4__0-5__0-3__0-2__0-2__
  6
CONTINUOUS
 62
     7
100
AcDbLine
 10
4.474990909247992
 20
-3.603585397008518
 30
0.0
 11
4.038380871603961
 21
-5.555346569649393
 31
0.0
  0
LINE
  5
164D7
330
16482
100
AcDbEntity
  8
_0-4__0-5__0-3__0-2__0-2__
  6
CONTINUOUS
 62
     7
100
AcDbLine
 10
4.300346894162089
 20
-4.384289866191332
 30
0.0
 11
4.690699128683604
 21
-4.471611873749893
 31
0.0
  0
LINE
  5
164D8
330
16482
100
AcDbEntity
  8
_0-4__0-5__0-3__0-2__0-2__
  6
CONTINUOUS
 62
     7
100
AcDbLine
 10
4.12570287910448
 20
-5.164994335247681
 30
0.0
 11
4.516055113625995
 21
-5.252316342806244
 31
0.0
  0
LINE
  5
164D9
330
16482
100
AcDbEntity
  8
_0-4__0-5__0-3__0-2__0-2__
  6
CONTINUOUS
 62
     7
100
AcDbLine
 10
4.778021136212416
 20
-4.081259639221719
 30
0.0
 11
4.341411098557571
 21
-6.033020811910941
 31
0.0
  0
LINE
  5
164DA
330
16482
100
AcDbEntity
  8
_0-4__0-5__0-3__0-2__0-2__
  6
CONTINUOUS
 62
     7
100
AcDbLine
 10
4.341411098557571
 20
-6.033020811910941
 30
0.0
 11
4.926939450350673
 21
-6.164003823200436
 31
0.0
  0
LINE
  5
164DB
330
16482
100
AcDbEntity
  8
_0-4__0-5__0-3__0-2__0-2__
  6
CONTINUOUS
 62
     7
100
AcDbLine
 10
5.753901722516217
 20
-4.299564658118124
 30
0.0
 11
4.778021136212416
 21
-4.081259639221719
 31
0.0
  0
LINE
  5
164DC
330
16482
100
AcDbEntity
  8
_0-4__0-5__0-3__0-2__0-2__
  6
CONTINUOUS
 62
     7
100
AcDbLine
 10
4.992430956008504
 20
-5.871239647254092
 30
0.0
 11
4.926939450350673
 21
-6.164003823200436
 31
0.0
  0
ARC
  5
164DD
330
16482
100
AcDbEntity
  8
_0-4__0-5__0-3__0-2__0-2__
  6
CONTINUOUS
 62
     7
100
AcDbCircle
 10
5.090019014640545
 20
-5.893070149136294
 30
0.0
 40
0.1
100
AcDbArc
 50
77.39050194948162
 51
167.3905019199998
  0
LINE
  5
164DE
330
16482
100
AcDbEntity
  8
_0-4__0-5__0-3__0-2__0-2__
  6
CONTINUOUS
 62
     7
100
AcDbLine
 10
5.30702563385951
 20
-5.839143094179457
 30
0.0
 11
5.111849516472531
 21
-5.795482090493016
 31
0.0
  0
LINE
  5
164DF
330
16482
100
AcDbEntity
  8
_0-4__0-5__0-3__0-2__0-2__
  6
CONTINUOUS
 62
     7
100
AcDbLine
 10
5.426444194323551
 20
-5.763385537418382
 30
0.0
 11
5.753901722516217
 21
-4.299564658118124
 31
0.0
  0
ARC
  5
164E0
330
16482
100
AcDbEntity
  8
_0-4__0-5__0-3__0-2__0-2__
  6
CONTINUOUS
 62
     7
100
AcDbCircle
 10
5.328856135691509
 20
-5.741555035536181
 30
0.0
 40
0.1
100
AcDbArc
 50
257.3905019494815
 51
347.39050192
  0
ARC
  5
164E1
330
16482
100
AcDbEntity
  8
_0-4__0-5__0-3__0-2__0-2__
  6
CONTINUOUS
 62
     7
100
AcDbCircle
 10
-0.0597645071697313
 20
0.0751022591720802
 30
0.0
 40
5.299999999999999
100
AcDbArc
 50
259.5243183036101
 51
294.975175167728
  0
ARC
  5
164E2
330
16482
100
AcDbEntity
  8
_0-4__0-5__0-3__0-2__0-2__
  6
CONTINUOUS
 62
     7
100
AcDbCircle
 10
-0.0597645071697313
 20
0.0751022591720802
 30
0.0
 40
5.299999999999999
100
AcDbArc
 50
307.4860354244254
 51
344.1733798681274
  0
ARC
  5
164E3
330
16482
100
AcDbEntity
  8
_0-4__0-5__0-3__0-2__0-2__
  6
CONTINUOUS
 62
     7
100
AcDbCircle
 10
3.24387745953031
 20
-3.674897740827957
 30
0.0
 40
2.5
100
AcDbArc
 50
270.0
 51
296.7616081079262
  0
ARC
  5
164E4
330
16482
100
AcDbEntity
  8
_0-4__0-5__0-3__0-2__0-2__
  6
CONTINUOUS
 62
     7
100
AcDbCircle
 10
5.579257707458609
 20
-5.080269127174473
 30
0.0
 40
0.6000000000000007
100
AcDbArc
 50
257.39050192
 51
77.39050191999997
  0
LINE
  5
164E5
330
16482
100
AcDbEntity
  8
_0-4__0-5__0-3__0-2__0-2__
  6
CONTINUOUS
 62
     7
100
AcDbLine
 10
4.500937193226817
 20
-2.624897740827925
 30
0.0
 11
6.040090194842434
 21
-2.624897740827925
 31
0.0
  0
LINE
  5
164E6
330
16482
100
AcDbEntity
  8
_0-4__0-5__0-3__0-2__0-2__
  6
CONTINUOUS
 62
     7
100
AcDbLine
 10
5.740235492830265
 20
-2.624897740827925
 30
0.0
 11
5.740235492830265
 21
-1.124897740827925
 31
0.0
  0
LINE
  5
164E7
330
16482
100
AcDbEntity
  8
_0-4__0-5__0-3__0-2__0-2__
  6
CONTINUOUS
 62
     7
100
AcDbLine
 10
-6.159764507169739
 20
3.500718941359583
 30
0.0
 11
-6.159764507169739
 21
1.07510225917208
 31
0.0
  0
ARC
  5
164E8
330
16482
100
AcDbEntity
  8
_0-4__0-5__0-3__0-2__0-2__
  6
CONTINUOUS
 62
     7
100
AcDbCircle
 10
-5.159764507169739
 20
3.500718941359583
 30
0.0
 40
1.0
100
AcDbArc
 50
133.6952880211256
 51
179.9999999999999
  0
ARC
  5
164E9
330
16482
100
AcDbEntity
  8
_0-4__0-5__0-3__0-2__0-2__
  6
CONTINUOUS
 62
     7
100
AcDbCircle
 10
-5.159764507169739
 20
3.500718941359586
 30
0.0
 40
1.3
100
AcDbArc
 50
133.6952880211256
 51
179.9999999999999
  0
LINE
  5
164EA
330
16482
100
AcDbEntity
  8
_0-4__0-5__0-3__0-2__0-2__
  6
CONTINUOUS
 62
     7
100
AcDbLine
 10
-6.057834345096032
 20
4.440650091075905
 30
0.0
 11
-5.771756747963536
 21
4.713986772564403
 31
0.0
  0
LINE
  5
164EB
330
16482
100
AcDbEntity
  8
_0-4__0-5__0-3__0-2__0-2__
  6
CONTINUOUS
 62
     7
100
AcDbLine
 10
-5.850587459420736
 20
4.223742902679827
 30
0.0
 11
-5.644968030256713
 21
4.420204747230425
 31
0.0
  0
LINE
  5
164EC
330
16482
100
AcDbEntity
  8
_0-4__0-5__0-3__0-2__0-2__
  6
CONTINUOUS
 62
     7
100
AcDbLine
 10
6.34023549283026
 20
-3.119037468760169
 30
0.0
 11
6.34023549283026
 21
-0.9248977408279266
 31
0.0
  0
ARC
  5
164ED
330
16482
100
AcDbEntity
  8
_0-4__0-5__0-3__0-2__0-2__
  6
CONTINUOUS
 62
     7
100
AcDbCircle
 10
4.740235492830265
 20
-3.119037468760169
 30
0.0
 40
1.6
100
AcDbArc
 50
339.1213381514583
 51
0.0000000000002273
  0
LINE
  5
164EE
330
16482
100
AcDbEntity
  8
_0-4__0-5__0-3__0-2__0-2__
  6
CONTINUOUS
 62
     7
100
AcDbLine
 10
6.040235492830262
 20
-3.119037468760166
 30
0.0
 11
6.040235492830262
 21
-0.9248977408279266
 31
0.0
  0
ARC
  5
164EF
330
16482
100
AcDbEntity
  8
_0-4__0-5__0-3__0-2__0-2__
  6
CONTINUOUS
 62
     7
100
AcDbCircle
 10
4.740235492830265
 20
-3.119037468760166
 30
0.0
 40
1.3
100
AcDbArc
 50
339.1213381514583
 51
0.0000000000002273
  0
LINE
  5
164F0
330
16482
100
AcDbEntity
  8
_0-4__0-5__0-3__0-2__0-2__
  6
CONTINUOUS
 62
     7
100
AcDbLine
 10
5.954873938960801
 20
-3.582344543152056
 30
0.0
 11
5.687008088683128
 21
-4.284600515780494
 31
0.0
  0
LINE
  5
164F1
330
16482
100
AcDbEntity
  8
_0-4__0-5__0-3__0-2__0-2__
  6
CONTINUOUS
 62
     7
100
AcDbLine
 10
6.235175118837091
 20
-3.689261560319419
 30
0.0
 11
5.898396510647032
 21
-4.572184071008229
 31
0.0
  0
LINE
  5
164F2
330
16482
100
AcDbEntity
  8
_0-4__0-5__0-3__0-2__0-2__
  6
CONTINUOUS
 62
     7
100
AcDbLine
 10
6.040235492830262
 20
-1.924897740827925
 30
0.0
 11
6.34023549283026
 21
-1.924897740827925
 31
0.0
  0
LINE
  5
164F3
330
16482
100
AcDbEntity
  8
_0-4__0-5__0-3__0-2__0-2__
  6
CONTINUOUS
 62
     7
100
AcDbLine
 10
6.34023549283026
 20
1.075102259172073
 30
0.0
 11
6.34023549283026
 21
0.9912750410357098
 31
0.0
  0
ARC
  5
164F4
330
16482
100
AcDbEntity
  8
_0-4__0-5__0-3__0-2__0-2__
  6
CONTINUOUS
 62
     7
100
AcDbCircle
 10
2.52940850629325
 20
3.825102259172048
 30
0.0
 40
2.399999999999999
100
AcDbArc
 50
46.30471197887431
 51
90.0
  0
LINE
  5
164F5
330
16482
100
AcDbEntity
  8
_0-4__0-5__0-3__0-2__0-2__
  6
CONTINUOUS
 62
     7
100
AcDbLine
 10
5.198210578232647
 20
4.594551549169835
 30
0.0
 11
4.187383591695635
 21
5.560359766340638
 31
0.0
  0
ARC
  5
164F6
330
16482
100
AcDbEntity
  8
_0-4__0-5__0-3__0-2__0-2__
  6
CONTINUOUS
 62
     7
100
AcDbCircle
 10
3.540235492830262
 20
2.859294042001245
 30
0.0
 40
2.399999999999999
100
AcDbArc
 50
0.0
 51
46.30471197887427
  0
LINE
  5
164F7
330
16482
100
AcDbEntity
  8
_0-4__0-5__0-3__0-2__0-2__
  6
CONTINUOUS
 62
     7
100
AcDbLine
 10
5.940235492830268
 20
2.859294042001245
 30
0.0
 11
5.940235492830268
 21
1.275102259172076
 31
0.0
  0
LINE
  5
164F8
330
16482
100
AcDbEntity
  8
_0-4__0-5__0-3__0-2__0-2__
  6
CONTINUOUS
 62
     7
100
AcDbLine
 10
5.940235492830268
 20
-2.624897740827925
 30
0.0
 11
5.940235492830268
 21
-1.124897740827925
 31
0.0
  0
LINE
  5
164F9
330
16482
100
AcDbEntity
  8
_0-4__0-5__0-3__0-2__0-2__
  6
CONTINUOUS
 62
     7
100
AcDbLine
 10
-6.059764507169738
 20
2.275102259172083
 30
0.0
 11
-6.059764507169738
 21
1.29962525910907
 31
0.0
  0
ARC
  5
164FA
330
16482
100
AcDbEntity
  8
_0-4__0-5__0-3__0-2__0-2__
  6
CONTINUOUS
 62
     7
100
AcDbCircle
 10
-3.659764507169739
 20
-2.709089523657087
 30
0.0
 40
2.399999999999999
100
AcDbArc
 50
180.0
 51
226.3047119788745
  0
LINE
  5
164FB
330
16482
100
AcDbEntity
  8
_0-4__0-5__0-3__0-2__0-2__
  6
CONTINUOUS
 62
     7
100
AcDbLine
 10
-6.059764507169738
 20
-2.709089523657087
 30
0.0
 11
-6.059764507169738
 21
-1.124897740827915
 31
0.0
  0
LINE
  5
164FC
330
16482
100
AcDbEntity
  8
_0-4__0-5__0-3__0-2__0-2__
  6
CONTINUOUS
 62
     7
100
AcDbLine
 10
-4.306912606035027
 20
-5.410155247996554
 30
0.0
 11
-5.317739592572124
 21
-4.444347030825683
 31
0.0
  0
ARC
  5
164FD
330
16482
100
AcDbEntity
  8
_0-4__0-5__0-3__0-2__0-2__
  6
CONTINUOUS
 62
     7
100
AcDbCircle
 10
-2.648937520632642
 20
-3.674897740827957
 30
0.0
 40
2.399999999999999
100
AcDbArc
 50
226.3047119788745
 51
270.0
  0
LINE
  5
164FE
330
16482
100
AcDbEntity
  8
_0-4__0-5__0-3__0-2__0-2__
  6
CONTINUOUS
 62
     7
100
AcDbLine
 10
-0.7597645071697344
 20
-6.074897740827958
 30
0.0
 11
-2.648937520632642
 21
-6.074897740827958
 31
0.0
  0
ARC
  5
164FF
330
16482
100
AcDbEntity
  8
_0-4__0-5__0-3__0-2__0-2__
  6
CONTINUOUS
 62
     7
100
AcDbCircle
 10
-3.659764507169739
 20
-2.709089523657087
 30
0.0
 40
2.2
100
AcDbArc
 50
180.0
 51
184.1263468262144
  0
ARC
  5
16500
330
16482
100
AcDbEntity
  8
_0-4__0-5__0-3__0-2__0-2__
  6
CONTINUOUS
 62
     7
100
AcDbCircle
 10
-3.659764507169739
 20
-2.709089523657087
 30
0.0
 40
2.2
100
AcDbArc
 50
184.1263468262144
 51
226.3047119788745
  0
LINE
  5
16501
330
16482
100
AcDbEntity
  8
_0-4__0-5__0-3__0-2__0-2__
  6
CONTINUOUS
 62
     7
100
AcDbLine
 10
0.6402354928302571
 20
6.225102259172047
 30
0.0
 11
2.52940850629325
 21
6.225102259172047
 31
0.0
  0
ENDBLK
  5
16503
330
16482
100
AcDbEntity
  8
0
100
AcDbBlockEnd
  0
BLOCK
  5
16531
330
16504
100
AcDbEntity
  8
0
100
AcDbBlockBegin
  2
-005-CHS-04TA1_A
 70
     0
 10
0.0
 20
0.0
 30
0.0
  3
-005-CHS-04TA1_A
  1

  0
LINE
  5
16505
330
16504
100
AcDbEntity
  8
_0-4__0-5__0-3__0-2__0-2__
  6
CONTINUOUS
 62
     7
100
AcDbLine
 10
-3.305000000000035
 20
2.69999999999996
 30
0.0
 11
3.304999999999964
 21
2.69999999999996
 31
0.0
  0
LINE
  5
16506
330
16504
100
AcDbEntity
  8
_0-4__0-5__0-3__0-2__0-2__
  6
CONTINUOUS
 62
     7
100
AcDbLine
 10
-3.305000000000035
 20
-2.700000000000045
 30
0.0
 11
3.304999999999964
 21
-2.700000000000045
 31
0.0
  0
LINE
  5
16507
330
16504
100
AcDbEntity
  8
_0-4__0-5__0-3__0-2__0-2__
  6
CONTINUOUS
 62
     7
100
AcDbLine
 10
3.304999999999964
 20
2.69999999999996
 30
0.0
 11
3.304999999999964
 21
-2.700000000000045
 31
0.0
  0
LINE
  5
16508
330
16504
100
AcDbEntity
  8
_0-4__0-5__0-3__0-2__0-2__
  6
CONTINUOUS
 62
     7
100
AcDbLine
 10
-3.305000000000035
 20
2.69999999999996
 30
0.0
 11
-3.305000000000035
 21
-2.700000000000045
 31
0.0
  0
LINE
  5
16509
330
16504
100
AcDbEntity
  8
_0-4__0-5__0-3__0-2__0-2__
  6
CONTINUOUS
 62
     7
100
AcDbLine
 10
-2.105000000000032
 20
-2.700000000000045
 30
0.0
 11
-2.105000000000032
 21
-2.800000000000039
 31
0.0
  0
LINE
  5
1650A
330
16504
100
AcDbEntity
  8
_0-4__0-5__0-3__0-2__0-2__
  6
CONTINUOUS
 62
     7
100
AcDbLine
 10
-2.105000000000032
 20
-2.800000000000039
 30
0.0
 11
-1.705000000000026
 21
-2.800000000000039
 31
0.0
  0
LINE
  5
1650B
330
16504
100
AcDbEntity
  8
_0-4__0-5__0-3__0-2__0-2__
  6
CONTINUOUS
 62
     7
100
AcDbLine
 10
-1.705000000000026
 20
-2.800000000000039
 30
0.0
 11
-1.705000000000026
 21
-2.700000000000045
 31
0.0
  0
LINE
  5
1650C
330
16504
100
AcDbEntity
  8
_0-4__0-5__0-3__0-2__0-2__
  6
CONTINUOUS
 62
     7
100
AcDbLine
 10
-0.835000000000036
 20
-2.700000000000045
 30
0.0
 11
-0.835000000000036
 21
-2.800000000000039
 31
0.0
  0
LINE
  5
1650D
330
16504
100
AcDbEntity
  8
_0-4__0-5__0-3__0-2__0-2__
  6
CONTINUOUS
 62
     7
100
AcDbLine
 10
-0.835000000000036
 20
-2.800000000000039
 30
0.0
 11
-0.4350000000000307
 21
-2.800000000000039
 31
0.0
  0
LINE
  5
1650E
330
16504
100
AcDbEntity
  8
_0-4__0-5__0-3__0-2__0-2__
  6
CONTINUOUS
 62
     7
100
AcDbLine
 10
-0.4350000000000307
 20
-2.800000000000039
 30
0.0
 11
-0.4350000000000307
 21
-2.700000000000045
 31
0.0
  0
LINE
  5
1650F
330
16504
100
AcDbEntity
  8
_0-4__0-5__0-3__0-2__0-2__
  6
CONTINUOUS
 62
     7
100
AcDbLine
 10
0.4349999999999595
 20
-2.700000000000045
 30
0.0
 11
0.4349999999999595
 21
-2.800000000000039
 31
0.0
  0
LINE
  5
16510
330
16504
100
AcDbEntity
  8
_0-4__0-5__0-3__0-2__0-2__
  6
CONTINUOUS
 62
     7
100
AcDbLine
 10
0.4349999999999595
 20
-2.800000000000039
 30
0.0
 11
0.8349999999999653
 21
-2.800000000000039
 31
0.0
  0
LINE
  5
16511
330
16504
100
AcDbEntity
  8
_0-4__0-5__0-3__0-2__0-2__
  6
CONTINUOUS
 62
     7
100
AcDbLine
 10
0.8349999999999653
 20
-2.800000000000039
 30
0.0
 11
0.8349999999999653
 21
-2.700000000000045
 31
0.0
  0
LINE
  5
16512
330
16504
100
AcDbEntity
  8
_0-4__0-5__0-3__0-2__0-2__
  6
CONTINUOUS
 62
     7
100
AcDbLine
 10
1.704999999999955
 20
-2.700000000000045
 30
0.0
 11
1.704999999999955
 21
-2.800000000000039
 31
0.0
  0
LINE
  5
16513
330
16504
100
AcDbEntity
  8
_0-4__0-5__0-3__0-2__0-2__
  6
CONTINUOUS
 62
     7
100
AcDbLine
 10
1.704999999999955
 20
-2.800000000000039
 30
0.0
 11
2.104999999999961
 21
-2.800000000000039
 31
0.0
  0
LINE
  5
16514
330
16504
100
AcDbEntity
  8
_0-4__0-5__0-3__0-2__0-2__
  6
CONTINUOUS
 62
     7
100
AcDbLine
 10
2.104999999999961
 20
-2.800000000000039
 30
0.0
 11
2.104999999999961
 21
-2.700000000000045
 31
0.0
  0
LINE
  5
16515
330
16504
100
AcDbEntity
  8
_0-4__0-5__0-3__0-2__0-2__
  6
CONTINUOUS
 62
     7
100
AcDbLine
 10
-2.105000000000032
 20
2.799999999999954
 30
0.0
 11
-2.105000000000032
 21
2.69999999999996
 31
0.0
  0
LINE
  5
16516
330
16504
100
AcDbEntity
  8
_0-4__0-5__0-3__0-2__0-2__
  6
CONTINUOUS
 62
     7
100
AcDbLine
 10
-1.705000000000026
 20
2.69999999999996
 30
0.0
 11
-1.705000000000026
 21
2.799999999999954
 31
0.0
  0
LINE
  5
16517
330
16504
100
AcDbEntity
  8
_0-4__0-5__0-3__0-2__0-2__
  6
CONTINUOUS
 62
     7
100
AcDbLine
 10
-2.105000000000032
 20
2.799999999999954
 30
0.0
 11
-1.705000000000026
 21
2.799999999999954
 31
0.0
  0
LINE
  5
16518
330
16504
100
AcDbEntity
  8
_0-4__0-5__0-3__0-2__0-2__
  6
CONTINUOUS
 62
     7
100
AcDbLine
 10
-0.835000000000036
 20
2.799999999999954
 30
0.0
 11
-0.835000000000036
 21
2.69999999999996
 31
0.0
  0
LINE
  5
16519
330
16504
100
AcDbEntity
  8
_0-4__0-5__0-3__0-2__0-2__
  6
CONTINUOUS
 62
     7
100
AcDbLine
 10
-0.4350000000000307
 20
2.69999999999996
 30
0.0
 11
-0.4350000000000307
 21
2.799999999999954
 31
0.0
  0
LINE
  5
1651A
330
16504
100
AcDbEntity
  8
_0-4__0-5__0-3__0-2__0-2__
  6
CONTINUOUS
 62
     7
100
AcDbLine
 10
-0.835000000000036
 20
2.799999999999954
 30
0.0
 11
-0.4350000000000307
 21
2.799999999999954
 31
0.0
  0
LINE
  5
1651B
330
16504
100
AcDbEntity
  8
_0-4__0-5__0-3__0-2__0-2__
  6
CONTINUOUS
 62
     7
100
AcDbLine
 10
0.4349999999999595
 20
2.799999999999954
 30
0.0
 11
0.4349999999999595
 21
2.69999999999996
 31
0.0
  0
LINE
  5
1651C
330
16504
100
AcDbEntity
  8
_0-4__0-5__0-3__0-2__0-2__
  6
CONTINUOUS
 62
     7
100
AcDbLine
 10
0.8349999999999653
 20
2.69999999999996
 30
0.0
 11
0.8349999999999653
 21
2.799999999999954
 31
0.0
  0
LINE
  5
1651D
330
16504
100
AcDbEntity
  8
_0-4__0-5__0-3__0-2__0-2__
  6
CONTINUOUS
 62
     7
100
AcDbLine
 10
0.4349999999999595
 20
2.799999999999954
 30
0.0
 11
0.8349999999999653
 21
2.799999999999954
 31
0.0
  0
LINE
  5
1651E
330
16504
100
AcDbEntity
  8
_0-4__0-5__0-3__0-2__0-2__
  6
CONTINUOUS
 62
     7
100
AcDbLine
 10
1.704999999999955
 20
2.799999999999954
 30
0.0
 11
1.704999999999955
 21
2.69999999999996
 31
0.0
  0
LINE
  5
1651F
330
16504
100
AcDbEntity
  8
_0-4__0-5__0-3__0-2__0-2__
  6
CONTINUOUS
 62
     7
100
AcDbLine
 10
2.104999999999961
 20
2.69999999999996
 30
0.0
 11
2.104999999999961
 21
2.799999999999954
 31
0.0
  0
LINE
  5
16520
330
16504
100
AcDbEntity
  8
_0-4__0-5__0-3__0-2__0-2__
  6
CONTINUOUS
 62
     7
100
AcDbLine
 10
1.704999999999955
 20
2.799999999999954
 30
0.0
 11
2.104999999999961
 21
2.799999999999954
 31
0.0
  0
LINE
  5
16521
330
16504
100
AcDbEntity
  8
_0-4__0-5__0-3__0-2__0-2__
  6
CONTINUOUS
 62
     7
100
AcDbLine
 10
-2.20500000000004
 20
-1.500000000000028
 30
0.0
 11
-2.20500000000004
 21
1.499999999999971
 31
0.0
  0
LINE
  5
16522
330
16504
100
AcDbEntity
  8
_0-4__0-5__0-3__0-2__0-2__
  6
CONTINUOUS
 62
     7
100
AcDbLine
 10
-1.605000000000018
 20
-1.500000000000028
 30
0.0
 11
-1.605000000000018
 21
1.499999999999971
 31
0.0
  0
LINE
  5
16523
330
16504
100
AcDbEntity
  8
_0-4__0-5__0-3__0-2__0-2__
  6
CONTINUOUS
 62
     7
100
AcDbLine
 10
-2.20500000000004
 20
-1.500000000000028
 30
0.0
 11
-1.605000000000018
 21
-1.500000000000028
 31
0.0
  0
LINE
  5
16524
330
16504
100
AcDbEntity
  8
_0-4__0-5__0-3__0-2__0-2__
  6
CONTINUOUS
 62
     7
100
AcDbLine
 10
-2.20500000000004
 20
1.499999999999971
 30
0.0
 11
-1.605000000000018
 21
1.499999999999971
 31
0.0
  0
LINE
  5
16525
330
16504
100
AcDbEntity
  8
_0-4__0-5__0-3__0-2__0-2__
  6
CONTINUOUS
 62
     7
100
AcDbLine
 10
-0.9350000000000447
 20
-1.500000000000028
 30
0.0
 11
-0.9350000000000447
 21
1.499999999999971
 31
0.0
  0
LINE
  5
16526
330
16504
100
AcDbEntity
  8
_0-4__0-5__0-3__0-2__0-2__
  6
CONTINUOUS
 62
     7
100
AcDbLine
 10
-0.3350000000000221
 20
-1.500000000000028
 30
0.0
 11
-0.3350000000000221
 21
1.499999999999971
 31
0.0
  0
LINE
  5
16527
330
16504
100
AcDbEntity
  8
_0-4__0-5__0-3__0-2__0-2__
  6
CONTINUOUS
 62
     7
100
AcDbLine
 10
-0.9350000000000447
 20
-1.500000000000028
 30
0.0
 11
-0.3350000000000221
 21
-1.500000000000028
 31
0.0
  0
LINE
  5
16528
330
16504
100
AcDbEntity
  8
_0-4__0-5__0-3__0-2__0-2__
  6
CONTINUOUS
 62
     7
100
AcDbLine
 10
-0.9350000000000447
 20
1.499999999999971
 30
0.0
 11
-0.3350000000000221
 21
1.499999999999971
 31
0.0
  0
LINE
  5
16529
330
16504
100
AcDbEntity
  8
_0-4__0-5__0-3__0-2__0-2__
  6
CONTINUOUS
 62
     7
100
AcDbLine
 10
0.3349999999999511
 20
-1.500000000000028
 30
0.0
 11
0.3349999999999511
 21
1.499999999999971
 31
0.0
  0
LINE
  5
1652A
330
16504
100
AcDbEntity
  8
_0-4__0-5__0-3__0-2__0-2__
  6
CONTINUOUS
 62
     7
100
AcDbLine
 10
0.9349999999999738
 20
-1.500000000000028
 30
0.0
 11
0.9349999999999738
 21
1.499999999999971
 31
0.0
  0
LINE
  5
1652B
330
16504
100
AcDbEntity
  8
_0-4__0-5__0-3__0-2__0-2__
  6
CONTINUOUS
 62
     7
100
AcDbLine
 10
0.3349999999999511
 20
-1.500000000000028
 30
0.0
 11
0.9349999999999738
 21
-1.500000000000028
 31
0.0
  0
LINE
  5
1652C
330
16504
100
AcDbEntity
  8
_0-4__0-5__0-3__0-2__0-2__
  6
CONTINUOUS
 62
     7
100
AcDbLine
 10
0.3349999999999511
 20
1.499999999999971
 30
0.0
 11
0.9349999999999738
 21
1.499999999999971
 31
0.0
  0
LINE
  5
1652D
330
16504
100
AcDbEntity
  8
_0-4__0-5__0-3__0-2__0-2__
  6
CONTINUOUS
 62
     7
100
AcDbLine
 10
1.604999999999947
 20
-1.500000000000028
 30
0.0
 11
1.604999999999947
 21
1.499999999999971
 31
0.0
  0
LINE
  5
1652E
330
16504
100
AcDbEntity
  8
_0-4__0-5__0-3__0-2__0-2__
  6
CONTINUOUS
 62
     7
100
AcDbLine
 10
2.204999999999969
 20
-1.500000000000028
 30
0.0
 11
2.204999999999969
 21
1.499999999999971
 31
0.0
  0
LINE
  5
1652F
330
16504
100
AcDbEntity
  8
_0-4__0-5__0-3__0-2__0-2__
  6
CONTINUOUS
 62
     7
100
AcDbLine
 10
1.604999999999947
 20
-1.500000000000028
 30
0.0
 11
2.204999999999969
 21
-1.500000000000028
 31
0.0
  0
LINE
  5
16530
330
16504
100
AcDbEntity
  8
_0-4__0-5__0-3__0-2__0-2__
  6
CONTINUOUS
 62
     7
100
AcDbLine
 10
1.604999999999947
 20
1.499999999999971
 30
0.0
 11
2.204999999999969
 21
1.499999999999971
 31
0.0
  0
ENDBLK
  5
16532
330
16504
100
AcDbEntity
  8
0
100
AcDbBlockEnd
  0
BLOCK
  5
1654D
330
16533
100
AcDbEntity
  8
0
100
AcDbBlockBegin
  2
-006-SA-7252TB_A
 70
     0
 10
0.0
 20
0.0
 30
0.0
  3
-006-SA-7252TB_A
  1

  0
LINE
  5
16534
330
16533
100
AcDbEntity
  8
_0-4__0-5__0-3__0-2__0-2__
  6
CONTINUOUS
 62
     7
100
AcDbLine
 10
-3.69999999999996
 20
-2.390909090909161
 30
0.0
 11
3.700000000000045
 21
-2.390909090909161
 31
0.0
  0
LINE
  5
16535
330
16533
100
AcDbEntity
  8
_0-4__0-5__0-3__0-2__0-2__
  6
CONTINUOUS
 62
     7
100
AcDbLine
 10
3.700000000000045
 20
-2.390909090909161
 30
0.0
 11
3.700000000000045
 21
1.209090909090832
 31
0.0
  0
LINE
  5
16536
330
16533
100
AcDbEntity
  8
_0-4__0-5__0-3__0-2__0-2__
  6
CONTINUOUS
 62
     7
100
AcDbLine
 10
-3.69999999999996
 20
1.209090909090832
 30
0.0
 11
3.700000000000045
 21
1.209090909090832
 31
0.0
  0
LINE
  5
16537
330
16533
100
AcDbEntity
  8
_0-4__0-5__0-3__0-2__0-2__
  6
CONTINUOUS
 62
     7
100
AcDbLine
 10
-2.69999999999996
 20
-2.390909090909161
 30
0.0
 11
-2.69999999999996
 21
-3.490909090909156
 31
0.0
  0
LINE
  5
16538
330
16533
100
AcDbEntity
  8
_0-4__0-5__0-3__0-2__0-2__
  6
CONTINUOUS
 62
     7
100
AcDbLine
 10
-2.69999999999996
 20
-3.490909090909156
 30
0.0
 11
-1.69999999999996
 21
-3.490909090909156
 31
0.0
  0
LINE
  5
16539
330
16533
100
AcDbEntity
  8
_0-4__0-5__0-3__0-2__0-2__
  6
CONTINUOUS
 62
     7
100
AcDbLine
 10
-1.69999999999996
 20
-3.490909090909156
 30
0.0
 11
-1.69999999999996
 21
-2.390909090909161
 31
0.0
  0
LINE
  5
1653A
330
16533
100
AcDbEntity
  8
_0-4__0-5__0-3__0-2__0-2__
  6
CONTINUOUS
 62
     7
100
AcDbLine
 10
1.700000000000045
 20
-2.390909090909161
 30
0.0
 11
1.700000000000045
 21
-3.490909090909156
 31
0.0
  0
LINE
  5
1653B
330
16533
100
AcDbEntity
  8
_0-4__0-5__0-3__0-2__0-2__
  6
CONTINUOUS
 62
     7
100
AcDbLine
 10
1.700000000000045
 20
-3.490909090909156
 30
0.0
 11
2.700000000000045
 21
-3.490909090909156
 31
0.0
  0
LINE
  5
1653C
330
16533
100
AcDbEntity
  8
_0-4__0-5__0-3__0-2__0-2__
  6
CONTINUOUS
 62
     7
100
AcDbLine
 10
2.700000000000045
 20
-3.490909090909156
 30
0.0
 11
2.700000000000045
 21
-2.390909090909161
 31
0.0
  0
LINE
  5
1653D
330
16533
100
AcDbEntity
  8
_0-4__0-5__0-3__0-2__0-2__
  6
CONTINUOUS
 62
     7
100
AcDbLine
 10
-2.789999999999964
 20
1.209090909090832
 30
0.0
 11
-2.789999999999964
 21
2.209090909090832
 31
0.0
  0
LINE
  5
1653E
330
16533
100
AcDbEntity
  8
_0-4__0-5__0-3__0-2__0-2__
  6
CONTINUOUS
 62
     7
100
AcDbLine
 10
-2.789999999999964
 20
2.209090909090832
 30
0.0
 11
-2.289999999999964
 21
2.209090909090832
 31
0.0
  0
LINE
  5
1653F
330
16533
100
AcDbEntity
  8
_0-4__0-5__0-3__0-2__0-2__
  6
CONTINUOUS
 62
     7
100
AcDbLine
 10
-2.289999999999964
 20
2.209090909090832
 30
0.0
 11
-2.289999999999964
 21
1.209090909090832
 31
0.0
  0
LINE
  5
16540
330
16533
100
AcDbEntity
  8
_0-4__0-5__0-3__0-2__0-2__
  6
CONTINUOUS
 62
     7
100
AcDbLine
 10
-1.519999999999953
 20
1.209090909090832
 30
0.0
 11
-1.519999999999953
 21
2.209090909090832
 31
0.0
  0
LINE
  5
16541
330
16533
100
AcDbEntity
  8
_0-4__0-5__0-3__0-2__0-2__
  6
CONTINUOUS
 62
     7
100
AcDbLine
 10
-1.519999999999953
 20
2.209090909090832
 30
0.0
 11
-1.019999999999953
 21
2.209090909090832
 31
0.0
  0
LINE
  5
16542
330
16533
100
AcDbEntity
  8
_0-4__0-5__0-3__0-2__0-2__
  6
CONTINUOUS
 62
     7
100
AcDbLine
 10
-1.019999999999953
 20
2.209090909090832
 30
0.0
 11
-1.019999999999953
 21
1.209090909090832
 31
0.0
  0
LINE
  5
16543
330
16533
100
AcDbEntity
  8
_0-4__0-5__0-3__0-2__0-2__
  6
CONTINUOUS
 62
     7
100
AcDbLine
 10
-0.2499999999999431
 20
1.209090909090832
 30
0.0
 11
-0.2499999999999431
 21
2.209090909090832
 31
0.0
  0
LINE
  5
16544
330
16533
100
AcDbEntity
  8
_0-4__0-5__0-3__0-2__0-2__
  6
CONTINUOUS
 62
     7
100
AcDbLine
 10
-0.2499999999999431
 20
2.209090909090832
 30
0.0
 11
0.2500000000000566
 21
2.209090909090832
 31
0.0
  0
LINE
  5
16545
330
16533
100
AcDbEntity
  8
_0-4__0-5__0-3__0-2__0-2__
  6
CONTINUOUS
 62
     7
100
AcDbLine
 10
0.2500000000000566
 20
2.209090909090832
 30
0.0
 11
0.2500000000000566
 21
1.209090909090832
 31
0.0
  0
LINE
  5
16546
330
16533
100
AcDbEntity
  8
_0-4__0-5__0-3__0-2__0-2__
  6
CONTINUOUS
 62
     7
100
AcDbLine
 10
1.020000000000067
 20
1.209090909090832
 30
0.0
 11
1.020000000000067
 21
2.209090909090832
 31
0.0
  0
LINE
  5
16547
330
16533
100
AcDbEntity
  8
_0-4__0-5__0-3__0-2__0-2__
  6
CONTINUOUS
 62
     7
100
AcDbLine
 10
1.020000000000067
 20
2.209090909090832
 30
0.0
 11
1.520000000000067
 21
2.209090909090832
 31
0.0
  0
LINE
  5
16548
330
16533
100
AcDbEntity
  8
_0-4__0-5__0-3__0-2__0-2__
  6
CONTINUOUS
 62
     7
100
AcDbLine
 10
1.520000000000067
 20
2.209090909090832
 30
0.0
 11
1.520000000000067
 21
1.209090909090832
 31
0.0
  0
LINE
  5
16549
330
16533
100
AcDbEntity
  8
_0-4__0-5__0-3__0-2__0-2__
  6
CONTINUOUS
 62
     7
100
AcDbLine
 10
2.290000000000077
 20
1.209090909090832
 30
0.0
 11
2.290000000000077
 21
2.209090909090832
 31
0.0
  0
LINE
  5
1654A
330
16533
100
AcDbEntity
  8
_0-4__0-5__0-3__0-2__0-2__
  6
CONTINUOUS
 62
     7
100
AcDbLine
 10
2.290000000000077
 20
2.209090909090832
 30
0.0
 11
2.790000000000077
 21
2.209090909090832
 31
0.0
  0
LINE
  5
1654B
330
16533
100
AcDbEntity
  8
_0-4__0-5__0-3__0-2__0-2__
  6
CONTINUOUS
 62
     7
100
AcDbLine
 10
2.790000000000077
 20
2.209090909090832
 30
0.0
 11
2.790000000000077
 21
1.209090909090832
 31
0.0
  0
LINE
  5
1654C
330
16533
100
AcDbEntity
  8
_0-4__0-5__0-3__0-2__0-2__
  6
CONTINUOUS
 62
     7
100
AcDbLine
 10
-3.69999999999996
 20
-2.390909090909161
 30
0.0
 11
-3.69999999999996
 21
1.209090909090832
 31
0.0
  0
ENDBLK
  5
1654E
330
16533
100
AcDbEntity
  8
0
100
AcDbBlockEnd
  0
BLOCK
  5
1657A
330
1654F
100
AcDbEntity
  8
0
100
AcDbBlockBegin
  2
-007-53375-1210_B
 70
     0
 10
0.0
 20
0.0
 30
0.0
  3
-007-53375-1210_B
  1

  0
LINE
  5
16550
330
1654F
100
AcDbEntity
  8
_0-4__0-5__0-3__0-2__0-2__
  6
CONTINUOUS
 62
     7
100
AcDbLine
 10
-3.261170212765478
 20
2.37021276595729
 30
0.0
 11
-1.761170212765477
 21
2.37021276595729
 31
0.0
  0
LINE
  5
16551
330
1654F
100
AcDbEntity
  8
_0-4__0-5__0-3__0-2__0-2__
  6
CONTINUOUS
 62
     7
100
AcDbLine
 10
-3.261170212765478
 20
1.770212765957296
 30
0.0
 11
-3.261170212765478
 21
2.37021276595729
 31
0.0
  0
LINE
  5
16552
330
1654F
100
AcDbEntity
  8
_0-4__0-5__0-3__0-2__0-2__
  6
CONTINUOUS
 62
     7
100
AcDbLine
 10
-1.761170212765477
 20
1.770212765957296
 30
0.0
 11
-1.761170212765477
 21
2.37021276595729
 31
0.0
  0
LINE
  5
16553
330
1654F
100
AcDbEntity
  8
_0-4__0-5__0-3__0-2__0-2__
  6
CONTINUOUS
 62
     7
100
AcDbLine
 10
3.738829787234521
 20
1.770212765957296
 30
0.0
 11
3.738829787234521
 21
2.37021276595729
 31
0.0
  0
LINE
  5
16554
330
1654F
100
AcDbEntity
  8
_0-4__0-5__0-3__0-2__0-2__
  6
CONTINUOUS
 62
     7
100
AcDbLine
 10
5.238829787234521
 20
1.770212765957296
 30
0.0
 11
5.238829787234521
 21
2.37021276595729
 31
0.0
  0
LINE
  5
16555
330
1654F
100
AcDbEntity
  8
_0-4__0-5__0-3__0-2__0-2__
  6
CONTINUOUS
 62
     7
100
AcDbLine
 10
5.438829787234568
 20
1.770212765957296
 30
0.0
 11
5.438829787234568
 21
2.670212765957302
 31
0.0
  0
LINE
  5
16556
330
1654F
100
AcDbEntity
  8
_0-4__0-5__0-3__0-2__0-2__
  6
CONTINUOUS
 62
     7
100
AcDbLine
 10
3.538829787234476
 20
1.770212765957296
 30
0.0
 11
3.538829787234476
 21
2.670212765957302
 31
0.0
  0
LINE
  5
16557
330
1654F
100
AcDbEntity
  8
_0-4__0-5__0-3__0-2__0-2__
  6
CONTINUOUS
 62
     7
100
AcDbLine
 10
-1.561170212765432
 20
1.770212765957296
 30
0.0
 11
-1.561170212765432
 21
2.670212765957302
 31
0.0
  0
LINE
  5
16558
330
1654F
100
AcDbEntity
  8
_0-4__0-5__0-3__0-2__0-2__
  6
CONTINUOUS
 62
     7
100
AcDbLine
 10
-3.461170212765523
 20
1.770212765957296
 30
0.0
 11
-3.461170212765523
 21
2.670212765957302
 31
0.0
  0
LINE
  5
16559
330
1654F
100
AcDbEntity
  8
_0-4__0-5__0-3__0-2__0-2__
  6
CONTINUOUS
 62
     7
100
AcDbLine
 10
-1.561170212765432
 20
2.670212765957302
 30
0.0
 11
3.538829787234476
 21
2.670212765957302
 31
0.0
  0
LINE
  5
1655A
330
1654F
100
AcDbEntity
  8
_0-4__0-5__0-3__0-2__0-2__
  6
CONTINUOUS
 62
     7
100
AcDbLine
 10
3.738829787234521
 20
2.37021276595729
 30
0.0
 11
5.238829787234521
 21
2.37021276595729
 31
0.0
  0
CIRCLE
  5
1655B
330
1654F
100
AcDbEntity
  8
_0-4__0-5__0-3__0-2__0-2__
  6
CONTINUOUS
 62
     7
100
AcDbCircle
 10
-2.761170212765478
 20
-0.6297872340427088
 30
0.0
 40
0.25
  0
CIRCLE
  5
1655C
330
1654F
100
AcDbEntity
  8
_0-4__0-5__0-3__0-2__0-2__
  6
CONTINUOUS
 62
     7
100
AcDbCircle
 10
-0.261170212765478
 20
-0.6297872340427088
 30
0.0
 40
0.25
  0
CIRCLE
  5
1655D
330
1654F
100
AcDbEntity
  8
_0-4__0-5__0-3__0-2__0-2__
  6
CONTINUOUS
 62
     7
100
AcDbCircle
 10
2.238829787234521
 20
-0.6297872340427088
 30
0.0
 40
0.25
  0
CIRCLE
  5
1655E
330
1654F
100
AcDbEntity
  8
_0-4__0-5__0-3__0-2__0-2__
  6
CONTINUOUS
 62
     7
100
AcDbCircle
 10
4.738829787234521
 20
-0.6297872340427088
 30
0.0
 40
0.25
  0
CIRCLE
  5
1655F
330
1654F
100
AcDbEntity
  8
_0-4__0-5__0-3__0-2__0-2__
  6
CONTINUOUS
 62
     7
100
AcDbCircle
 10
7.238829787234521
 20
-0.6297872340427088
 30
0.0
 40
0.25
  0
CIRCLE
  5
16560
330
1654F
100
AcDbEntity
  8
_0-4__0-5__0-3__0-2__0-2__
  6
CONTINUOUS
 62
     7
100
AcDbCircle
 10
-5.261170212765478
 20
-0.6297872340427088
 30
0.0
 40
0.25
  0
CIRCLE
  5
16561
330
1654F
100
AcDbEntity
  8
_0-4__0-5__0-3__0-2__0-2__
  6
CONTINUOUS
 62
     7
100
AcDbCircle
 10
-12.76117021276547
 20
-0.6297872340427088
 30
0.0
 40
0.25
  0
LINE
  5
16562
330
1654F
100
AcDbEntity
  8
_0-4__0-5__0-3__0-2__0-2__
  6
CONTINUOUS
 62
     7
100
AcDbLine
 10
-15.21117021276552
 20
2.670212765957302
 30
0.0
 11
-15.21117021276552
 21
-4.029787234042686
 31
0.0
  0
LINE
  5
16563
330
1654F
100
AcDbEntity
  8
_0-4__0-5__0-3__0-2__0-2__
  6
CONTINUOUS
 62
     7
100
AcDbLine
 10
-13.3611702127655
 20
1.270212765957296
 30
0.0
 11
-13.3611702127655
 21
1.970212765957313
 31
0.0
  0
LINE
  5
16564
330
1654F
100
AcDbEntity
  8
_0-4__0-5__0-3__0-2__0-2__
  6
CONTINUOUS
 62
     7
100
AcDbLine
 10
-15.21117021276552
 20
-3.729787234042703
 30
0.0
 11
-15.21117021276552
 21
-4.029787234042686
 31
0.0
  0
LINE
  5
16565
330
1654F
100
AcDbEntity
  8
_0-4__0-5__0-3__0-2__0-2__
  6
CONTINUOUS
 62
     7
100
AcDbLine
 10
-14.3611702127655
 20
-3.329787234042697
 30
0.0
 11
-14.3611702127655
 21
1.970212765957313
 31
0.0
  0
LINE
  5
16566
330
1654F
100
AcDbEntity
  8
_0-4__0-5__0-3__0-2__0-2__
  6
CONTINUOUS
 62
     7
100
AcDbLine
 10
-14.3611702127655
 20
1.570212765957279
 30
0.0
 11
-13.3611702127655
 21
1.570212765957279
 31
0.0
  0
LINE
  5
16567
330
1654F
100
AcDbEntity
  8
_0-4__0-5__0-3__0-2__0-2__
  6
CONTINUOUS
 62
     7
100
AcDbLine
 10
-14.3611702127655
 20
1.570212765957279
 30
0.0
 11
-14.3611702127655
 21
0.5702127659572796
 31
0.0
  0
LINE
  5
16568
330
1654F
100
AcDbEntity
  8
_0-4__0-5__0-3__0-2__0-2__
  6
CONTINUOUS
 62
     7
100
AcDbLine
 10
-12.8611702127655
 20
1.770212765957296
 30
0.0
 11
-12.8611702127655
 21
2.670212765957302
 31
0.0
  0
LINE
  5
16569
330
1654F
100
AcDbEntity
  8
_0-4__0-5__0-3__0-2__0-2__
  6
CONTINUOUS
 62
     7
100
AcDbLine
 10
-14.3611702127655
 20
1.970212765957313
 30
0.0
 11
-12.8611702127655
 21
1.970212765957313
 31
0.0
  0
CIRCLE
  5
1656A
330
1654F
100
AcDbEntity
  8
_0-4__0-5__0-3__0-2__0-2__
  6
CONTINUOUS
 62
     7
100
AcDbCircle
 10
14.73882978723452
 20
-0.6297872340427088
 30
0.0
 40
0.25
  0
LINE
  5
1656B
330
1654F
100
AcDbEntity
  8
_0-4__0-5__0-3__0-2__0-2__
  6
CONTINUOUS
 62
     7
100
AcDbLine
 10
17.18882978723456
 20
2.670212765957302
 30
0.0
 11
17.18882978723456
 21
-4.029787234042686
 31
0.0
  0
LINE
  5
1656C
330
1654F
100
AcDbEntity
  8
_0-4__0-5__0-3__0-2__0-2__
  6
CONTINUOUS
 62
     7
100
AcDbLine
 10
16.33882978723443
 20
-3.329787234042697
 30
0.0
 11
16.33882978723443
 21
1.970212765957313
 31
0.0
  0
LINE
  5
1656D
330
1654F
100
AcDbEntity
  8
_0-4__0-5__0-3__0-2__0-2__
  6
CONTINUOUS
 62
     7
100
AcDbLine
 10
16.33882978723443
 20
1.970212765957313
 30
0.0
 11
14.83882978723443
 21
1.970212765957313
 31
0.0
  0
LINE
  5
1656E
330
1654F
100
AcDbEntity
  8
_0-4__0-5__0-3__0-2__0-2__
  6
CONTINUOUS
 62
     7
100
AcDbLine
 10
15.33882978723443
 20
1.270212765957296
 30
0.0
 11
15.33882978723443
 21
1.970212765957313
 31
0.0
  0
LINE
  5
1656F
330
1654F
100
AcDbEntity
  8
_0-4__0-5__0-3__0-2__0-2__
  6
CONTINUOUS
 62
     7
100
AcDbLine
 10
14.83882978723443
 20
2.670212765957302
 30
0.0
 11
14.83882978723443
 21
1.770212765957296
 31
0.0
  0
LINE
  5
16570
330
1654F
100
AcDbEntity
  8
_0-4__0-5__0-3__0-2__0-2__
  6
CONTINUOUS
 62
     7
100
AcDbLine
 10
-15.21117021276552
 20
2.670212765957302
 30
0.0
 11
-3.461170212765523
 21
2.670212765957302
 31
0.0
  0
LINE
  5
16571
330
1654F
100
AcDbEntity
  8
_0-4__0-5__0-3__0-2__0-2__
  6
CONTINUOUS
 62
     7
100
AcDbLine
 10
17.18882978723456
 20
2.670212765957302
 30
0.0
 11
5.438829787234568
 21
2.670212765957302
 31
0.0
  0
LINE
  5
16572
330
1654F
100
AcDbEntity
  8
_0-4__0-5__0-3__0-2__0-2__
  6
CONTINUOUS
 62
     7
100
AcDbLine
 10
-15.21117021276552
 20
-4.029787234042686
 30
0.0
 11
17.18882978723456
 21
-4.029787234042686
 31
0.0
  0
LINE
  5
16573
330
1654F
100
AcDbEntity
  8
_0-4__0-5__0-3__0-2__0-2__
  6
CONTINUOUS
 62
     7
100
AcDbLine
 10
16.33882978723443
 20
-3.329787234042697
 30
0.0
 11
-14.3611702127655
 21
-3.329787234042697
 31
0.0
  0
LINE
  5
16574
330
1654F
100
AcDbEntity
  8
_0-4__0-5__0-3__0-2__0-2__
  6
CONTINUOUS
 62
     7
100
AcDbLine
 10
-13.3611702127655
 20
1.270212765957296
 30
0.0
 11
15.33882978723443
 21
1.270212765957296
 31
0.0
  0
LINE
  5
16575
330
1654F
100
AcDbEntity
  8
_0-4__0-5__0-3__0-2__0-2__
  6
CONTINUOUS
 62
     7
100
AcDbLine
 10
-12.8611702127655
 20
1.770212765957296
 30
0.0
 11
14.83882978723443
 21
1.770212765957296
 31
0.0
  0
CIRCLE
  5
16576
330
1654F
100
AcDbEntity
  8
_0-4__0-5__0-3__0-2__0-2__
  6
CONTINUOUS
 62
     7
100
AcDbCircle
 10
-7.761170212765478
 20
-0.6297872340427088
 30
0.0
 40
0.25
  0
CIRCLE
  5
16577
330
1654F
100
AcDbEntity
  8
_0-4__0-5__0-3__0-2__0-2__
  6
CONTINUOUS
 62
     7
100
AcDbCircle
 10
-10.26117021276547
 20
-0.6297872340427088
 30
0.0
 40
0.25
  0
CIRCLE
  5
16578
330
1654F
100
AcDbEntity
  8
_0-4__0-5__0-3__0-2__0-2__
  6
CONTINUOUS
 62
     7
100
AcDbCircle
 10
9.738829787234523
 20
-0.6297872340427088
 30
0.0
 40
0.25
  0
CIRCLE
  5
16579
330
1654F
100
AcDbEntity
  8
_0-4__0-5__0-3__0-2__0-2__
  6
CONTINUOUS
 62
     7
100
AcDbCircle
 10
12.23882978723452
 20
-0.6297872340427088
 30
0.0
 40
0.25
  0
ENDBLK
  5
1657B
330
1654F
100
AcDbEntity
  8
0
100
AcDbBlockEnd
  0
BLOCK
  5
16587
330
1657C
100
AcDbEntity
  8
0
100
AcDbBlockBegin
  2
-008-MHL350ADA331MJA0G_B
 70
     0
 10
0.0
 20
0.0
 30
0.0
  3
-008-MHL350ADA331MJA0G_B
  1

  0
LINE
  5
1657D
330
1657C
100
AcDbEntity
  8
_0-5__0-3__2-4_
  6
CONTINUOUS
 62
     7
100
AcDbLine
 10
-5.0
 20
7.295454545454588
 30
0.0
 11
4.999999999999985
 21
7.295454545454588
 31
0.0
  0
LINE
  5
1657E
330
1657C
100
AcDbEntity
  8
_0-5__0-3__2-4_
  6
CONTINUOUS
 62
     7
100
AcDbLine
 10
-5.0
 20
-0.7045454545454107
 30
0.0
 11
-5.0
 21
7.295454545454588
 31
0.0
  0
LINE
  5
1657F
330
1657C
100
AcDbEntity
  8
_0-5__0-3__2-4_
  6
CONTINUOUS
 62
     7
100
AcDbLine
 10
4.999999999999985
 20
-0.7045454545454107
 30
0.0
 11
4.999999999999985
 21
7.295454545454588
 31
0.0
  0
LINE
  5
16580
330
1657C
100
AcDbEntity
  8
_0-5__0-3__2-4_
  6
CONTINUOUS
 62
     7
100
AcDbLine
 10
-5.150000000000005
 20
-2.70454545454541
 30
0.0
 11
5.149999999999992
 21
-2.70454545454541
 31
0.0
  0
LINE
  5
16581
330
1657C
100
AcDbEntity
  8
_0-5__0-3__2-4_
  6
CONTINUOUS
 62
     7
100
AcDbLine
 10
-5.150000000000005
 20
-2.70454545454541
 30
0.0
 11
-5.150000000000005
 21
-0.7045454545454107
 31
0.0
  0
LINE
  5
16582
330
1657C
100
AcDbEntity
  8
_0-5__0-3__2-4_
  6
CONTINUOUS
 62
     7
100
AcDbLine
 10
5.149999999999992
 20
-2.70454545454541
 30
0.0
 11
5.149999999999992
 21
-0.7045454545454107
 31
0.0
  0
LINE
  5
16583
330
1657C
100
AcDbEntity
  8
_0-5__0-3__2-4_
  6
CONTINUOUS
 62
     7
100
AcDbLine
 10
-5.150000000000005
 20
-0.7045454545454107
 30
0.0
 11
5.149999999999992
 21
-0.7045454545454107
 31
0.0
  0
LINE
  5
16584
330
1657C
100
AcDbEntity
  8
_0-5__0-3__2-4_
  6
CONTINUOUS
 62
     7
100
AcDbLine
 10
-0.4500000000000027
 20
-3.20454545454541
 30
0.0
 11
0.4500000000000027
 21
-3.20454545454541
 31
0.0
  0
LINE
  5
16585
330
1657C
100
AcDbEntity
  8
_0-5__0-3__2-4_
  6
CONTINUOUS
 62
     7
100
AcDbLine
 10
-0.4500000000000027
 20
-3.20454545454541
 30
0.0
 11
-0.4500000000000027
 21
-2.70454545454541
 31
0.0
  0
LINE
  5
16586
330
1657C
100
AcDbEntity
  8
_0-5__0-3__2-4_
  6
CONTINUOUS
 62
     7
100
AcDbLine
 10
0.4500000000000027
 20
-3.20454545454541
 30
0.0
 11
0.4500000000000027
 21
-2.70454545454541
 31
0.0
  0
ENDBLK
  5
16588
330
1657C
100
AcDbEntity
  8
0
100
AcDbBlockEnd
  0
BLOCK
  5
16666
330
16589
100
AcDbEntity
  8
0
100
AcDbBlockBegin
  2
-009-インダクタ側面１
 70
     0
 10
0.0
 20
0.0
 30
0.0
  3
-009-インダクタ側面１
  1

  0
ARC
  5
1658A
330
16589
100
AcDbEntity
  8
_0-5__0-3__2-4_
  6
CONTINUOUS
 62
     7
100
AcDbCircle
 10
2.659609589644531
 20
0.698004528185521
 30
0.0
 40
0.5999999999752032
100
AcDbArc
 50
270.0000000142076
 51
90.00000001420763
  0
LINE
  5
1658B
330
16589
100
AcDbEntity
  8
_0-5__0-3__2-4_
  6
CONTINUOUS
 62
     7
100
AcDbLine
 10
2.182291328979559
 20
1.298004528210317
 30
0.0
 11
2.659609589495758
 21
1.298004528210317
 31
0.0
  0
LINE
  5
1658C
330
16589
100
AcDbEntity
  8
_0-5__0-3__2-4_
  6
CONTINUOUS
 62
     7
100
AcDbLine
 10
2.182291328979559
 20
-0.1019954717896816
 30
0.0
 11
1.596762977186458
 21
-0.1019954717896816
 31
0.0
  0
LINE
  5
1658D
330
16589
100
AcDbEntity
  8
_0-5__0-3__2-4_
  6
CONTINUOUS
 62
     7
100
AcDbLine
 10
3.120587371459151
 20
0.0980045282103176
 30
0.0
 11
2.182291328979559
 21
0.0980045282103176
 31
0.0
  0
LINE
  5
1658E
330
16589
100
AcDbEntity
  8
_0-5__0-3__2-4_
  6
CONTINUOUS
 62
     7
100
AcDbLine
 10
0.3898109650547496
 20
-0.3019954717896842
 30
0.0
 11
2.320587371459154
 21
-0.3019954717896842
 31
0.0
  0
ARC
  5
1658F
330
16589
100
AcDbEntity
  8
_0-5__0-3__2-4_
  6
CONTINUOUS
 62
     7
100
AcDbCircle
 10
-8.979412628540849
 20
2.298004528210316
 30
0.0
 40
0.1
100
AcDbArc
 50
90.0
 51
180.0
  0
LINE
  5
16590
330
16589
100
AcDbEntity
  8
_0-5__0-3__2-4_
  6
CONTINUOUS
 62
     7
100
AcDbLine
 10
-6.229412628540863
 20
-4.801995471789684
 30
0.0
 11
-6.229412628540863
 21
-4.501995471789683
 31
0.0
  0
LINE
  5
16591
330
16589
100
AcDbEntity
  8
_0-5__0-3__2-4_
  6
CONTINUOUS
 62
     7
100
AcDbLine
 10
0.2705873714591575
 20
-4.501995471789683
 30
0.0
 11
0.2705873714591575
 21
-4.801995471789684
 31
0.0
  0
ARC
  5
16592
330
16589
100
AcDbEntity
  8
_0-5__0-3__2-4_
  6
CONTINUOUS
 62
     7
100
AcDbCircle
 10
-8.92941262854085
 20
-4.351995471789681
 30
0.0
 40
0.1499999999999999
100
AcDbArc
 50
180.0
 51
270.0
  0
LINE
  5
16593
330
16589
100
AcDbEntity
  8
_0-5__0-3__2-4_
  6
CONTINUOUS
 62
     7
100
AcDbLine
 10
-8.929412628540859
 20
-4.801995471789684
 30
0.0
 11
-6.229412628540863
 21
-4.801995471789684
 31
0.0
  0
ARC
  5
16594
330
16589
100
AcDbEntity
  8
_0-5__0-3__2-4_
  6
CONTINUOUS
 62
     7
100
AcDbCircle
 10
-8.929412628540859
 20
-4.351995471789685
 30
0.0
 40
0.45
100
AcDbArc
 50
180.0
 51
270.0
  0
LINE
  5
16595
330
16589
100
AcDbEntity
  8
_0-5__0-3__2-4_
  6
CONTINUOUS
 62
     7
100
AcDbLine
 10
2.970587371459146
 20
-4.801995471789684
 30
0.0
 11
0.2705873714591575
 21
-4.801995471789684
 31
0.0
  0
ARC
  5
16596
330
16589
100
AcDbEntity
  8
_0-5__0-3__2-4_
  6
CONTINUOUS
 62
     7
100
AcDbCircle
 10
2.970587371459146
 20
-4.351995471789685
 30
0.0
 40
0.45
100
AcDbArc
 50
270.0
 51
0.0
  0
LINE
  5
16597
330
16589
100
AcDbEntity
  8
_0-5__0-3__2-4_
  6
CONTINUOUS
 62
     7
100
AcDbLine
 10
2.970587371459146
 20
-4.501995471789683
 30
0.0
 11
-8.92941262854085
 21
-4.501995471789683
 31
0.0
  0
ARC
  5
16598
330
16589
100
AcDbEntity
  8
_0-5__0-3__2-4_
  6
CONTINUOUS
 62
     7
100
AcDbCircle
 10
2.970587371459146
 20
-4.351995471789681
 30
0.0
 40
0.1499999999999999
100
AcDbArc
 50
270.0
 51
0.0
  0
LINE
  5
16599
330
16589
100
AcDbEntity
  8
_0-5__0-3__2-4_
  6
CONTINUOUS
 62
     7
100
AcDbLine
 10
3.120587371459151
 20
-4.301995471789684
 30
0.0
 11
-9.079412628540852
 21
-4.301995471789684
 31
0.0
  0
LINE
  5
1659A
330
16589
100
AcDbEntity
  8
_0-5__0-3__2-4_
  6
CONTINUOUS
 62
     7
100
AcDbLine
 10
3.020587371459157
 20
2.398004528210316
 30
0.0
 11
1.875587371459175
 21
2.398004528210316
 31
0.0
  0
LINE
  5
1659B
330
16589
100
AcDbEntity
  8
_0-5__0-3__2-4_
  6
CONTINUOUS
 62
     7
100
AcDbLine
 10
2.820587371459154
 20
2.598004528210315
 30
0.0
 11
1.905587371459176
 21
2.598004528210315
 31
0.0
  0
ARC
  5
1659C
330
16589
100
AcDbEntity
  8
_0-5__0-3__2-4_
  6
CONTINUOUS
 62
     7
100
AcDbCircle
 10
-8.929412628540859
 20
1.948004528210315
 30
0.0
 40
0.45
100
AcDbArc
 50
101.9259785745211
 51
180.0
  0
ARC
  5
1659D
330
16589
100
AcDbEntity
  8
_0-5__0-3__2-4_
  6
CONTINUOUS
 62
     7
100
AcDbCircle
 10
3.020587371459157
 20
2.298004528210316
 30
0.0
 40
0.1
100
AcDbArc
 50
0.0
 51
90.0
  0
ARC
  5
1659E
330
16589
100
AcDbEntity
  8
_0-5__0-3__2-4_
  6
CONTINUOUS
 62
     7
100
AcDbCircle
 10
2.970587371459146
 20
1.948004528210315
 30
0.0
 40
0.45
100
AcDbArc
 50
0.0
 51
78.07402142547518
  0
LINE
  5
1659F
330
16589
100
AcDbEntity
  8
_0-5__0-3__2-4_
  6
CONTINUOUS
 62
     7
100
AcDbLine
 10
-7.879412628540868
 20
2.698004528210315
 30
0.0
 11
-7.879412628540868
 21
2.598004528210317
 31
0.0
  0
LINE
  5
165A0
330
16589
100
AcDbEntity
  8
_0-5__0-3__2-4_
  6
CONTINUOUS
 62
     7
100
AcDbLine
 10
-7.17941262854086
 20
2.898004528210316
 30
0.0
 11
-7.579412628540865
 21
2.698004528210315
 31
0.0
  0
LINE
  5
165A1
330
16589
100
AcDbEntity
  8
_0-5__0-3__2-4_
  6
CONTINUOUS
 62
     7
100
AcDbLine
 10
1.22058737145916
 20
2.898004528210314
 30
0.0
 11
1.620587371459166
 21
2.698004528210315
 31
0.0
  0
LINE
  5
165A2
330
16589
100
AcDbEntity
  8
_0-5__0-3__2-4_
  6
CONTINUOUS
 62
     7
100
AcDbLine
 10
-7.17941262854086
 20
2.898004528210316
 30
0.0
 11
1.22058737145916
 21
2.898004528210316
 31
0.0
  0
LINE
  5
165A3
330
16589
100
AcDbEntity
  8
_0-5__0-3__2-4_
  6
CONTINUOUS
 62
     7
100
AcDbLine
 10
1.920587371459163
 20
2.698004528210315
 30
0.0
 11
-7.879412628540868
 21
2.698004528210315
 31
0.0
  0
LINE
  5
165A4
330
16589
100
AcDbEntity
  8
_0-5__0-3__2-4_
  6
CONTINUOUS
 62
     7
100
AcDbLine
 10
-3.82941262854085
 20
2.598004528210317
 30
0.0
 11
-8.779412628540853
 21
2.598004528210317
 31
0.0
  0
ARC
  5
165A5
330
16589
100
AcDbEntity
  8
_0-5__0-3__2-4_
  6
CONTINUOUS
 62
     7
100
AcDbCircle
 10
-3.82941262854085
 20
2.448004528210315
 30
0.0
 40
0.1499999999999999
100
AcDbArc
 50
0.0
 51
90.0
  0
LINE
  5
165A6
330
16589
100
AcDbEntity
  8
_0-5__0-3__2-4_
  6
CONTINUOUS
 62
     7
100
AcDbLine
 10
-3.679412628540844
 20
2.448004528210315
 30
0.0
 11
-3.679412628540844
 21
2.430468938983715
 31
0.0
  0
LINE
  5
165A7
330
16589
100
AcDbEntity
  8
_0-5__0-3__2-4_
  6
CONTINUOUS
 62
     7
100
AcDbLine
 10
-9.379412628540862
 20
1.948004528210315
 30
0.0
 11
-9.379412628540862
 21
-4.351995471789685
 31
0.0
  0
LINE
  5
165A8
330
16589
100
AcDbEntity
  8
_0-5__0-3__2-4_
  6
CONTINUOUS
 62
     7
100
AcDbLine
 10
-9.079412628540852
 20
2.298004528210316
 30
0.0
 11
-9.079412628540852
 21
-4.351995471789681
 31
0.0
  0
ARC
  5
165A9
330
16589
100
AcDbEntity
  8
_0-5__0-3__2-4_
  6
CONTINUOUS
 62
     7
100
AcDbCircle
 10
-0.0065098124291012
 20
1.198004528210315
 30
0.0
 40
1.5
100
AcDbArc
 50
231.5626985089374
 51
270.0
  0
LINE
  5
165AA
330
16589
100
AcDbEntity
  8
_0-5__0-3__2-4_
  6
CONTINUOUS
 62
     7
100
AcDbLine
 10
-3.677435608251421
 20
2.398004528210316
 30
0.0
 11
-8.979412628540849
 21
2.398004528210316
 31
0.0
  0
LINE
  5
165AB
330
16589
100
AcDbEntity
  8
_0-5__0-3__2-4_
  6
CONTINUOUS
 62
     7
100
AcDbLine
 10
-3.49024155832285
 20
2.047868758196035
 30
0.0
 11
-0.9389966017751163
 21
0.0230711736343387
 31
0.0
  0
LINE
  5
165AC
330
16589
100
AcDbEntity
  8
_0-5__0-3__2-4_
  6
CONTINUOUS
 62
     7
100
AcDbLine
 10
-3.679412628540844
 20
2.439513209721361
 30
0.0
 11
-3.679412628540844
 21
2.448004528210315
 31
0.0
  0
ARC
  5
165AD
330
16589
100
AcDbEntity
  8
_0-5__0-3__2-4_
  6
CONTINUOUS
 62
     7
100
AcDbCircle
 10
-3.179412628540845
 20
2.439513209721361
 30
0.0
 40
0.5
100
AcDbArc
 50
180.0
 51
231.5626985089374
  0
LINE
  5
165AE
330
16589
100
AcDbEntity
  8
_0-5__0-3__2-4_
  6
CONTINUOUS
 62
     7
100
AcDbLine
 10
0.3898109650547496
 20
-0.3019954717896842
 30
0.0
 11
-0.0065098124291012
 21
-0.3019954717896842
 31
0.0
  0
ARC
  5
165AF
330
16589
100
AcDbEntity
  8
_0-5__0-3__2-4_
  6
CONTINUOUS
 62
     7
100
AcDbCircle
 10
0.3205873714591547
 20
1.398004528210316
 30
0.0
 40
0.2999999999999998
100
AcDbArc
 50
0.0
 51
90.00000000000005
  0
LINE
  5
165B0
330
16589
100
AcDbEntity
  8
_0-5__0-3__2-4_
  6
CONTINUOUS
 62
     7
100
AcDbLine
 10
1.670587371459163
 20
1.698004528210315
 30
0.0
 11
-3.049412628540849
 21
1.698004528210315
 31
0.0
  0
LINE
  5
165B1
330
16589
100
AcDbEntity
  8
_0-5__0-3__2-4_
  6
CONTINUOUS
 62
     7
100
AcDbLine
 10
3.420587371459149
 20
1.948004528210315
 30
0.0
 11
3.420587371459149
 21
-4.351995471789685
 31
0.0
  0
ARC
  5
165B2
330
16589
100
AcDbEntity
  8
_0-5__0-3__2-4_
  6
CONTINUOUS
 62
     7
100
AcDbCircle
 10
0.3898109650547496
 20
0.6980045282103155
 30
0.0
 40
1.0
100
AcDbArc
 50
270.0
 51
306.8698976458441
  0
LINE
  5
165B3
330
16589
100
AcDbEntity
  8
_0-5__0-3__2-4_
  6
CONTINUOUS
 62
     7
100
AcDbLine
 10
0.5853739263407362
 20
0.0980045282103176
 30
0.0
 11
-1.033412628540844
 21
0.0980045282103176
 31
0.0
  0
LINE
  5
165B4
330
16589
100
AcDbEntity
  8
_0-5__0-3__2-4_
  6
CONTINUOUS
 62
     7
100
AcDbLine
 10
0.5853739263407362
 20
1.098004528210317
 30
0.0
 11
-2.293412628540849
 21
1.098004528210317
 31
0.0
  0
LINE
  5
165B5
330
16589
100
AcDbEntity
  8
_0-5__0-3__2-4_
  6
CONTINUOUS
 62
     7
100
AcDbLine
 10
0.6205873714591516
 20
1.398004528210316
 30
0.0
 11
0.6205873714591516
 21
1.204773156871404
 31
0.0
  0
LINE
  5
165B6
330
16589
100
AcDbEntity
  8
_0-5__0-3__2-4_
  6
CONTINUOUS
 62
     7
100
AcDbLine
 10
0.7078484134798942
 20
1.298004528210317
 30
0.0
 11
0.7078484134798942
 21
1.298004528210317
 31
0.0
  0
LINE
  5
165B7
330
16589
100
AcDbEntity
  8
_0-5__0-3__2-4_
  6
CONTINUOUS
 62
     7
100
AcDbLine
 10
0.7078484134798942
 20
1.298004528210317
 30
0.0
 11
0.6774599823881811
 21
1.287369955318862
 31
0.0
  0
LINE
  5
165B8
330
16589
100
AcDbEntity
  8
_0-5__0-3__2-4_
  6
CONTINUOUS
 62
     7
100
AcDbLine
 10
0.6774599823881811
 20
1.287369955318862
 30
0.0
 11
0.6479948883979022
 21
1.255789362760452
 31
0.0
  0
LINE
  5
165B9
330
16589
100
AcDbEntity
  8
_0-5__0-3__2-4_
  6
CONTINUOUS
 62
     7
100
AcDbLine
 10
0.6479948883979022
 20
1.255789362760452
 30
0.0
 11
0.6203484134798943
 21
1.204222310859424
 31
0.0
  0
LINE
  5
165BA
330
16589
100
AcDbEntity
  8
_0-5__0-3__2-4_
  6
CONTINUOUS
 62
     7
100
AcDbLine
 10
0.6203484134798943
 20
1.204222310859424
 30
0.0
 11
0.5953605817847498
 21
1.134235638393602
 31
0.0
  0
LINE
  5
165BB
330
16589
100
AcDbEntity
  8
_0-5__0-3__2-4_
  6
CONTINUOUS
 62
     7
100
AcDbLine
 10
0.5953605817847498
 20
1.134235638393602
 30
0.0
 11
0.5737906359340732
 21
1.047955854990894
 31
0.0
  0
LINE
  5
165BC
330
16589
100
AcDbEntity
  8
_0-5__0-3__2-4_
  6
CONTINUOUS
 62
     7
100
AcDbLine
 10
0.5737906359340732
 20
1.047955854990894
 30
0.0
 11
0.5562939678176175
 21
0.9480045282103175
 31
0.0
  0
LINE
  5
165BD
330
16589
100
AcDbEntity
  8
_0-5__0-3__2-4_
  6
CONTINUOUS
 62
     7
100
AcDbLine
 10
0.5562939678176175
 20
0.9480045282103175
 30
0.0
 11
0.5434022048423604
 21
0.8374186285382856
 31
0.0
  0
LINE
  5
165BE
330
16589
100
AcDbEntity
  8
_0-5__0-3__2-4_
  6
CONTINUOUS
 62
     7
100
AcDbLine
 10
0.5434022048423604
 20
0.8374186285382856
 30
0.0
 11
0.5355070567027576
 21
0.7195582525771687
 31
0.0
  0
LINE
  5
165BF
330
16589
100
AcDbEntity
  8
_0-5__0-3__2-4_
  6
CONTINUOUS
 62
     7
100
AcDbLine
 10
0.5355070567027576
 20
0.7195582525771687
 30
0.0
 11
0.5328484134798944
 21
0.5980045282103178
 31
0.0
  0
LINE
  5
165C0
330
16589
100
AcDbEntity
  8
_0-5__0-3__2-4_
  6
CONTINUOUS
 62
     7
100
AcDbLine
 10
0.5328484134798944
 20
0.5980045282103178
 30
0.0
 11
0.5355070567027576
 21
0.4764508038434668
 31
0.0
  0
LINE
  5
165C1
330
16589
100
AcDbEntity
  8
_0-5__0-3__2-4_
  6
CONTINUOUS
 62
     7
100
AcDbLine
 10
0.5355070567027576
 20
0.4764508038434668
 30
0.0
 11
0.5434022048423604
 21
0.3585904278823496
 31
0.0
  0
LINE
  5
165C2
330
16589
100
AcDbEntity
  8
_0-5__0-3__2-4_
  6
CONTINUOUS
 62
     7
100
AcDbLine
 10
0.5434022048423604
 20
0.3585904278823496
 30
0.0
 11
0.5562939678176175
 21
0.2480045282103182
 31
0.0
  0
LINE
  5
165C3
330
16589
100
AcDbEntity
  8
_0-5__0-3__2-4_
  6
CONTINUOUS
 62
     7
100
AcDbLine
 10
0.5562939678176175
 20
0.2480045282103182
 30
0.0
 11
0.5737906359340728
 21
0.1480532014297407
 31
0.0
  0
LINE
  5
165C4
330
16589
100
AcDbEntity
  8
_0-5__0-3__2-4_
  6
CONTINUOUS
 62
     7
100
AcDbLine
 10
0.5737906359340728
 20
0.1480532014297407
 30
0.0
 11
0.5953605817847497
 21
0.0617734180270339
 31
0.0
  0
LINE
  5
165C5
330
16589
100
AcDbEntity
  8
_0-5__0-3__2-4_
  6
CONTINUOUS
 62
     7
100
AcDbLine
 10
0.5953605817847497
 20
0.0617734180270339
 30
0.0
 11
0.620348413479894
 21
-0.008213254438788
 31
0.0
  0
LINE
  5
165C6
330
16589
100
AcDbEntity
  8
_0-5__0-3__2-4_
  6
CONTINUOUS
 62
     7
100
AcDbLine
 10
0.620348413479894
 20
-0.008213254438788
 30
0.0
 11
0.6479948883979017
 21
-0.0597803063398171
 31
0.0
  0
LINE
  5
165C7
330
16589
100
AcDbEntity
  8
_0-5__0-3__2-4_
  6
CONTINUOUS
 62
     7
100
AcDbLine
 10
0.6479948883979017
 20
-0.0597803063398171
 30
0.0
 11
0.677459982388181
 21
-0.091360898898227
 31
0.0
  0
LINE
  5
165C8
330
16589
100
AcDbEntity
  8
_0-5__0-3__2-4_
  6
CONTINUOUS
 62
     7
100
AcDbLine
 10
0.677459982388181
 20
-0.091360898898227
 30
0.0
 11
0.7078484134798938
 21
-0.1019954717896816
 31
0.0
  0
LINE
  5
165C9
330
16589
100
AcDbEntity
  8
_0-5__0-3__2-4_
  6
CONTINUOUS
 62
     7
100
AcDbLine
 10
0.7078484134798938
 20
-0.1019954717896816
 30
0.0
 11
0.7078484134798942
 21
-0.1019954717896816
 31
0.0
  0
LINE
  5
165CA
330
16589
100
AcDbEntity
  8
_0-5__0-3__2-4_
  6
CONTINUOUS
 62
     7
100
AcDbLine
 10
1.293732750232862
 20
1.298004528210317
 30
0.0
 11
0.7078484134798942
 21
1.298004528210317
 31
0.0
  0
LINE
  5
165CB
330
16589
100
AcDbEntity
  8
_0-5__0-3__2-4_
  6
CONTINUOUS
 62
     7
100
AcDbLine
 10
1.293732750232862
 20
-0.1019954717896816
 30
0.0
 11
0.7078484134798942
 21
-0.1019954717896816
 31
0.0
  0
LINE
  5
165CC
330
16589
100
AcDbEntity
  8
_0-5__0-3__2-4_
  6
CONTINUOUS
 62
     7
100
AcDbLine
 10
1.596762977186458
 20
-0.1019954717896816
 30
0.0
 11
1.596762977186458
 21
-0.1019954717896816
 31
0.0
  0
LINE
  5
165CD
330
16589
100
AcDbEntity
  8
_0-5__0-3__2-4_
  6
CONTINUOUS
 62
     7
100
AcDbLine
 10
1.596762977186458
 20
-0.1019954717896816
 30
0.0
 11
1.566374546094745
 21
-0.0913608988982271
 31
0.0
  0
LINE
  5
165CE
330
16589
100
AcDbEntity
  8
_0-5__0-3__2-4_
  6
CONTINUOUS
 62
     7
100
AcDbLine
 10
1.566374546094745
 20
-0.0913608988982271
 30
0.0
 11
1.536909452104465
 21
-0.0597803063398174
 31
0.0
  0
LINE
  5
165CF
330
16589
100
AcDbEntity
  8
_0-5__0-3__2-4_
  6
CONTINUOUS
 62
     7
100
AcDbLine
 10
1.536909452104465
 20
-0.0597803063398174
 30
0.0
 11
1.509262977186458
 21
-0.0082132544387888
 31
0.0
  0
LINE
  5
165D0
330
16589
100
AcDbEntity
  8
_0-5__0-3__2-4_
  6
CONTINUOUS
 62
     7
100
AcDbLine
 10
1.509262977186458
 20
-0.0082132544387888
 30
0.0
 11
1.484275145491313
 21
0.0617734180270336
 31
0.0
  0
LINE
  5
165D1
330
16589
100
AcDbEntity
  8
_0-5__0-3__2-4_
  6
CONTINUOUS
 62
     7
100
AcDbLine
 10
1.484275145491313
 20
0.0617734180270336
 30
0.0
 11
1.462705199640637
 21
0.1480532014297404
 31
0.0
  0
LINE
  5
165D2
330
16589
100
AcDbEntity
  8
_0-5__0-3__2-4_
  6
CONTINUOUS
 62
     7
100
AcDbLine
 10
1.462705199640637
 20
0.1480532014297404
 30
0.0
 11
1.445208531524181
 21
0.2480045282103177
 31
0.0
  0
LINE
  5
165D3
330
16589
100
AcDbEntity
  8
_0-5__0-3__2-4_
  6
CONTINUOUS
 62
     7
100
AcDbLine
 10
1.445208531524181
 20
0.2480045282103177
 30
0.0
 11
1.432316768548924
 21
0.3585904278823496
 31
0.0
  0
LINE
  5
165D4
330
16589
100
AcDbEntity
  8
_0-5__0-3__2-4_
  6
CONTINUOUS
 62
     7
100
AcDbLine
 10
1.432316768548924
 20
0.3585904278823496
 30
0.0
 11
1.424421620409322
 21
0.4764508038434667
 31
0.0
  0
LINE
  5
165D5
330
16589
100
AcDbEntity
  8
_0-5__0-3__2-4_
  6
CONTINUOUS
 62
     7
100
AcDbLine
 10
1.424421620409322
 20
0.4764508038434667
 30
0.0
 11
1.421762977186458
 21
0.5980045282103174
 31
0.0
  0
LINE
  5
165D6
330
16589
100
AcDbEntity
  8
_0-5__0-3__2-4_
  6
CONTINUOUS
 62
     7
100
AcDbLine
 10
1.421762977186458
 20
0.5980045282103174
 30
0.0
 11
1.424421620409322
 21
0.7195582525771686
 31
0.0
  0
LINE
  5
165D7
330
16589
100
AcDbEntity
  8
_0-5__0-3__2-4_
  6
CONTINUOUS
 62
     7
100
AcDbLine
 10
1.424421620409322
 20
0.7195582525771686
 30
0.0
 11
1.432316768548924
 21
0.8374186285382855
 31
0.0
  0
LINE
  5
165D8
330
16589
100
AcDbEntity
  8
_0-5__0-3__2-4_
  6
CONTINUOUS
 62
     7
100
AcDbLine
 10
1.432316768548924
 20
0.8374186285382855
 30
0.0
 11
1.445208531524181
 21
0.9480045282103171
 31
0.0
  0
LINE
  5
165D9
330
16589
100
AcDbEntity
  8
_0-5__0-3__2-4_
  6
CONTINUOUS
 62
     7
100
AcDbLine
 10
1.445208531524181
 20
0.9480045282103171
 30
0.0
 11
1.462705199640636
 21
1.047955854990894
 31
0.0
  0
LINE
  5
165DA
330
16589
100
AcDbEntity
  8
_0-5__0-3__2-4_
  6
CONTINUOUS
 62
     7
100
AcDbLine
 10
1.462705199640636
 20
1.047955854990894
 30
0.0
 11
1.484275145491313
 21
1.134235638393601
 31
0.0
  0
LINE
  5
165DB
330
16589
100
AcDbEntity
  8
_0-5__0-3__2-4_
  6
CONTINUOUS
 62
     7
100
AcDbLine
 10
1.484275145491313
 20
1.134235638393601
 30
0.0
 11
1.509262977186458
 21
1.204222310859423
 31
0.0
  0
LINE
  5
165DC
330
16589
100
AcDbEntity
  8
_0-5__0-3__2-4_
  6
CONTINUOUS
 62
     7
100
AcDbLine
 10
1.509262977186458
 20
1.204222310859423
 30
0.0
 11
1.536909452104465
 21
1.255789362760452
 31
0.0
  0
LINE
  5
165DD
330
16589
100
AcDbEntity
  8
_0-5__0-3__2-4_
  6
CONTINUOUS
 62
     7
100
AcDbLine
 10
1.536909452104465
 20
1.255789362760452
 30
0.0
 11
1.566374546094744
 21
1.287369955318862
 31
0.0
  0
LINE
  5
165DE
330
16589
100
AcDbEntity
  8
_0-5__0-3__2-4_
  6
CONTINUOUS
 62
     7
100
AcDbLine
 10
1.566374546094744
 20
1.287369955318862
 30
0.0
 11
1.596762977186457
 21
1.298004528210317
 31
0.0
  0
LINE
  5
165DF
330
16589
100
AcDbEntity
  8
_0-5__0-3__2-4_
  6
CONTINUOUS
 62
     7
100
AcDbLine
 10
1.596762977186457
 20
1.298004528210317
 30
0.0
 11
1.596762977186458
 21
1.298004528210317
 31
0.0
  0
LINE
  5
165E0
330
16589
100
AcDbEntity
  8
_0-5__0-3__2-4_
  6
CONTINUOUS
 62
     7
100
AcDbLine
 10
2.182291328979559
 20
1.298004528210317
 30
0.0
 11
1.596762977186458
 21
1.298004528210317
 31
0.0
  0
LINE
  5
165E1
330
16589
100
AcDbEntity
  8
_0-5__0-3__2-4_
  6
CONTINUOUS
 62
     7
100
AcDbLine
 10
1.293732750232862
 20
1.098004528210317
 30
0.0
 11
1.293732750232862
 21
1.098004528210317
 31
0.0
  0
LINE
  5
165E2
330
16589
100
AcDbEntity
  8
_0-5__0-3__2-4_
  6
CONTINUOUS
 62
     7
100
AcDbLine
 10
1.293732750232862
 20
1.098004528210317
 30
0.0
 11
1.280375198104637
 21
1.090408404716421
 31
0.0
  0
LINE
  5
165E3
330
16589
100
AcDbEntity
  8
_0-5__0-3__2-4_
  6
CONTINUOUS
 62
     7
100
AcDbLine
 10
1.280375198104637
 20
1.090408404716421
 30
0.0
 11
1.26742350843858
 21
1.067850838603271
 31
0.0
  0
LINE
  5
165E4
330
16589
100
AcDbEntity
  8
_0-5__0-3__2-4_
  6
CONTINUOUS
 62
     7
100
AcDbLine
 10
1.26742350843858
 20
1.067850838603271
 30
0.0
 11
1.255271211771324
 21
1.031017230102537
 31
0.0
  0
LINE
  5
165E5
330
16589
100
AcDbEntity
  8
_0-5__0-3__2-4_
  6
CONTINUOUS
 62
     7
100
AcDbLine
 10
1.255271211771324
 20
1.031017230102537
 30
0.0
 11
1.244287549487744
 21
0.9810267497698067
 31
0.0
  0
LINE
  5
165E6
330
16589
100
AcDbEntity
  8
_0-5__0-3__2-4_
  6
CONTINUOUS
 62
     7
100
AcDbLine
 10
1.244287549487744
 20
0.9810267497698067
 30
0.0
 11
1.234806254608326
 21
0.9193983330535873
 31
0.0
  0
LINE
  5
165E7
330
16589
100
AcDbEntity
  8
_0-5__0-3__2-4_
  6
CONTINUOUS
 62
     7
100
AcDbLine
 10
1.234806254608326
 20
0.9193983330535873
 30
0.0
 11
1.227115411480213
 21
0.8480045282103178
 31
0.0
  0
LINE
  5
165E8
330
16589
100
AcDbEntity
  8
_0-5__0-3__2-4_
  6
CONTINUOUS
 62
     7
100
AcDbLine
 10
1.227115411480213
 20
0.8480045282103178
 30
0.0
 11
1.2214487024801
 21
0.7690145998731522
 31
0.0
  0
LINE
  5
165E9
330
16589
100
AcDbEntity
  8
_0-5__0-3__2-4_
  6
CONTINUOUS
 62
     7
100
AcDbLine
 10
1.2214487024801
 20
0.7690145998731522
 30
0.0
 11
1.217978307693462
 21
0.6848286170437829
 31
0.0
  0
LINE
  5
165EA
330
16589
100
AcDbEntity
  8
_0-5__0-3__2-4_
  6
CONTINUOUS
 62
     7
100
AcDbLine
 10
1.217978307693462
 20
0.6848286170437829
 30
0.0
 11
1.216809673309785
 21
0.5980045282103178
 31
0.0
  0
LINE
  5
165EB
330
16589
100
AcDbEntity
  8
_0-5__0-3__2-4_
  6
CONTINUOUS
 62
     7
100
AcDbLine
 10
1.216809673309785
 20
0.5980045282103178
 30
0.0
 11
1.217978307693462
 21
0.5111804393768527
 31
0.0
  0
LINE
  5
165EC
330
16589
100
AcDbEntity
  8
_0-5__0-3__2-4_
  6
CONTINUOUS
 62
     7
100
AcDbLine
 10
1.217978307693462
 20
0.5111804393768527
 30
0.0
 11
1.2214487024801
 21
0.4269944565474833
 31
0.0
  0
LINE
  5
165ED
330
16589
100
AcDbEntity
  8
_0-5__0-3__2-4_
  6
CONTINUOUS
 62
     7
100
AcDbLine
 10
1.2214487024801
 20
0.4269944565474833
 30
0.0
 11
1.227115411480213
 21
0.3480045282103178
 31
0.0
  0
LINE
  5
165EE
330
16589
100
AcDbEntity
  8
_0-5__0-3__2-4_
  6
CONTINUOUS
 62
     7
100
AcDbLine
 10
1.227115411480213
 20
0.3480045282103178
 30
0.0
 11
1.234806254608326
 21
0.2766107233670481
 31
0.0
  0
LINE
  5
165EF
330
16589
100
AcDbEntity
  8
_0-5__0-3__2-4_
  6
CONTINUOUS
 62
     7
100
AcDbLine
 10
1.234806254608326
 20
0.2766107233670481
 30
0.0
 11
1.244287549487744
 21
0.214982306650829
 31
0.0
  0
LINE
  5
165F0
330
16589
100
AcDbEntity
  8
_0-5__0-3__2-4_
  6
CONTINUOUS
 62
     7
100
AcDbLine
 10
1.244287549487744
 20
0.214982306650829
 30
0.0
 11
1.255271211771324
 21
0.1649918263180986
 31
0.0
  0
LINE
  5
165F1
330
16589
100
AcDbEntity
  8
_0-5__0-3__2-4_
  6
CONTINUOUS
 62
     7
100
AcDbLine
 10
1.255271211771324
 20
0.1649918263180986
 30
0.0
 11
1.26742350843858
 21
0.1281582178173637
 31
0.0
  0
LINE
  5
165F2
330
16589
100
AcDbEntity
  8
_0-5__0-3__2-4_
  6
CONTINUOUS
 62
     7
100
AcDbLine
 10
1.26742350843858
 20
0.1281582178173637
 30
0.0
 11
1.280375198104637
 21
0.1056006517042137
 31
0.0
  0
LINE
  5
165F3
330
16589
100
AcDbEntity
  8
_0-5__0-3__2-4_
  6
CONTINUOUS
 62
     7
100
AcDbLine
 10
1.280375198104637
 20
0.1056006517042137
 30
0.0
 11
1.293732750232862
 21
0.0980045282103176
 31
0.0
  0
LINE
  5
165F4
330
16589
100
AcDbEntity
  8
_0-5__0-3__2-4_
  6
CONTINUOUS
 62
     7
100
AcDbLine
 10
1.293732750232862
 20
0.0980045282103176
 30
0.0
 11
1.293732750232862
 21
0.0980045282103176
 31
0.0
  0
LINE
  5
165F5
330
16589
100
AcDbEntity
  8
_0-5__0-3__2-4_
  6
CONTINUOUS
 62
     7
100
AcDbLine
 10
1.568248705629841
 20
1.288649864892986
 30
0.0
 11
1.920587371459163
 21
2.698004528210315
 31
0.0
  0
LINE
  5
165F6
330
16589
100
AcDbEntity
  8
_0-5__0-3__2-4_
  6
CONTINUOUS
 62
     7
100
AcDbLine
 10
1.474288490047299
 20
1.098004528210317
 30
0.0
 11
1.293732750232862
 21
1.098004528210317
 31
0.0
  0
LINE
  5
165F7
330
16589
100
AcDbEntity
  8
_0-5__0-3__2-4_
  6
CONTINUOUS
 62
     7
100
AcDbLine
 10
1.474288490047299
 20
0.0980045282103176
 30
0.0
 11
1.293732750232862
 21
0.0980045282103176
 31
0.0
  0
LINE
  5
165F8
330
16589
100
AcDbEntity
  8
_0-5__0-3__2-4_
  6
CONTINUOUS
 62
     7
100
AcDbLine
 10
1.293732750232862
 20
-0.1019954717896816
 30
0.0
 11
1.293732750232862
 21
-0.1019954717896816
 31
0.0
  0
LINE
  5
165F9
330
16589
100
AcDbEntity
  8
_0-5__0-3__2-4_
  6
CONTINUOUS
 62
     7
100
AcDbLine
 10
1.293732750232862
 20
-0.1019954717896816
 30
0.0
 11
1.263344319141149
 21
-0.0913608988982271
 31
0.0
  0
LINE
  5
165FA
330
16589
100
AcDbEntity
  8
_0-5__0-3__2-4_
  6
CONTINUOUS
 62
     7
100
AcDbLine
 10
1.263344319141149
 20
-0.0913608988982271
 30
0.0
 11
1.23387922515087
 21
-0.0597803063398174
 31
0.0
  0
LINE
  5
165FB
330
16589
100
AcDbEntity
  8
_0-5__0-3__2-4_
  6
CONTINUOUS
 62
     7
100
AcDbLine
 10
1.23387922515087
 20
-0.0597803063398174
 30
0.0
 11
1.206232750232862
 21
-0.0082132544387888
 31
0.0
  0
LINE
  5
165FC
330
16589
100
AcDbEntity
  8
_0-5__0-3__2-4_
  6
CONTINUOUS
 62
     7
100
AcDbLine
 10
1.206232750232862
 20
-0.0082132544387888
 30
0.0
 11
1.181244918537718
 21
0.0617734180270336
 31
0.0
  0
LINE
  5
165FD
330
16589
100
AcDbEntity
  8
_0-5__0-3__2-4_
  6
CONTINUOUS
 62
     7
100
AcDbLine
 10
1.181244918537718
 20
0.0617734180270336
 30
0.0
 11
1.159674972687041
 21
0.1480532014297404
 31
0.0
  0
LINE
  5
165FE
330
16589
100
AcDbEntity
  8
_0-5__0-3__2-4_
  6
CONTINUOUS
 62
     7
100
AcDbLine
 10
1.159674972687041
 20
0.1480532014297404
 30
0.0
 11
1.142178304570586
 21
0.2480045282103177
 31
0.0
  0
LINE
  5
165FF
330
16589
100
AcDbEntity
  8
_0-5__0-3__2-4_
  6
CONTINUOUS
 62
     7
100
AcDbLine
 10
1.142178304570586
 20
0.2480045282103177
 30
0.0
 11
1.129286541595329
 21
0.3585904278823496
 31
0.0
  0
LINE
  5
16600
330
16589
100
AcDbEntity
  8
_0-5__0-3__2-4_
  6
CONTINUOUS
 62
     7
100
AcDbLine
 10
1.129286541595329
 20
0.3585904278823496
 30
0.0
 11
1.121391393455726
 21
0.4764508038434667
 31
0.0
  0
LINE
  5
16601
330
16589
100
AcDbEntity
  8
_0-5__0-3__2-4_
  6
CONTINUOUS
 62
     7
100
AcDbLine
 10
1.121391393455726
 20
0.4764508038434667
 30
0.0
 11
1.118732750232863
 21
0.5980045282103174
 31
0.0
  0
LINE
  5
16602
330
16589
100
AcDbEntity
  8
_0-5__0-3__2-4_
  6
CONTINUOUS
 62
     7
100
AcDbLine
 10
1.118732750232863
 20
0.5980045282103174
 30
0.0
 11
1.121391393455726
 21
0.7195582525771686
 31
0.0
  0
LINE
  5
16603
330
16589
100
AcDbEntity
  8
_0-5__0-3__2-4_
  6
CONTINUOUS
 62
     7
100
AcDbLine
 10
1.121391393455726
 20
0.7195582525771686
 30
0.0
 11
1.129286541595329
 21
0.8374186285382855
 31
0.0
  0
LINE
  5
16604
330
16589
100
AcDbEntity
  8
_0-5__0-3__2-4_
  6
CONTINUOUS
 62
     7
100
AcDbLine
 10
1.129286541595329
 20
0.8374186285382855
 30
0.0
 11
1.142178304570586
 21
0.9480045282103171
 31
0.0
  0
LINE
  5
16605
330
16589
100
AcDbEntity
  8
_0-5__0-3__2-4_
  6
CONTINUOUS
 62
     7
100
AcDbLine
 10
1.142178304570586
 20
0.9480045282103171
 30
0.0
 11
1.159674972687041
 21
1.047955854990894
 31
0.0
  0
LINE
  5
16606
330
16589
100
AcDbEntity
  8
_0-5__0-3__2-4_
  6
CONTINUOUS
 62
     7
100
AcDbLine
 10
1.159674972687041
 20
1.047955854990894
 30
0.0
 11
1.181244918537718
 21
1.134235638393601
 31
0.0
  0
LINE
  5
16607
330
16589
100
AcDbEntity
  8
_0-5__0-3__2-4_
  6
CONTINUOUS
 62
     7
100
AcDbLine
 10
1.181244918537718
 20
1.134235638393601
 30
0.0
 11
1.206232750232862
 21
1.204222310859423
 31
0.0
  0
LINE
  5
16608
330
16589
100
AcDbEntity
  8
_0-5__0-3__2-4_
  6
CONTINUOUS
 62
     7
100
AcDbLine
 10
1.206232750232862
 20
1.204222310859423
 30
0.0
 11
1.23387922515087
 21
1.255789362760452
 31
0.0
  0
LINE
  5
16609
330
16589
100
AcDbEntity
  8
_0-5__0-3__2-4_
  6
CONTINUOUS
 62
     7
100
AcDbLine
 10
1.23387922515087
 20
1.255789362760452
 30
0.0
 11
1.263344319141149
 21
1.287369955318862
 31
0.0
  0
LINE
  5
1660A
330
16589
100
AcDbEntity
  8
_0-5__0-3__2-4_
  6
CONTINUOUS
 62
     7
100
AcDbLine
 10
1.263344319141149
 20
1.287369955318862
 30
0.0
 11
1.293732750232862
 21
1.298004528210317
 31
0.0
  0
LINE
  5
1660B
330
16589
100
AcDbEntity
  8
_0-5__0-3__2-4_
  6
CONTINUOUS
 62
     7
100
AcDbLine
 10
1.293732750232862
 20
1.298004528210317
 30
0.0
 11
1.293732750232862
 21
1.298004528210317
 31
0.0
  0
LINE
  5
1660C
330
16589
100
AcDbEntity
  8
_0-5__0-3__2-4_
  6
CONTINUOUS
 62
     7
100
AcDbLine
 10
1.293732750232862
 20
1.298004528210317
 30
0.0
 11
1.293732750232862
 21
1.298004528210317
 31
0.0
  0
LINE
  5
1660D
330
16589
100
AcDbEntity
  8
_0-5__0-3__2-4_
  6
CONTINUOUS
 62
     7
100
AcDbLine
 10
1.293732750232862
 20
1.298004528210317
 30
0.0
 11
1.324121181324575
 21
1.287369955318862
 31
0.0
  0
LINE
  5
1660E
330
16589
100
AcDbEntity
  8
_0-5__0-3__2-4_
  6
CONTINUOUS
 62
     7
100
AcDbLine
 10
1.324121181324575
 20
1.287369955318862
 30
0.0
 11
1.353586275314854
 21
1.255789362760452
 31
0.0
  0
LINE
  5
1660F
330
16589
100
AcDbEntity
  8
_0-5__0-3__2-4_
  6
CONTINUOUS
 62
     7
100
AcDbLine
 10
1.353586275314854
 20
1.255789362760452
 30
0.0
 11
1.381232750232862
 21
1.204222310859424
 31
0.0
  0
LINE
  5
16610
330
16589
100
AcDbEntity
  8
_0-5__0-3__2-4_
  6
CONTINUOUS
 62
     7
100
AcDbLine
 10
1.381232750232862
 20
1.204222310859424
 30
0.0
 11
1.406220581928007
 21
1.134235638393602
 31
0.0
  0
LINE
  5
16611
330
16589
100
AcDbEntity
  8
_0-5__0-3__2-4_
  6
CONTINUOUS
 62
     7
100
AcDbLine
 10
1.406220581928007
 20
1.134235638393602
 30
0.0
 11
1.41620723737202
 21
1.098004528210319
 31
0.0
  0
LINE
  5
16612
330
16589
100
AcDbEntity
  8
_0-5__0-3__2-4_
  6
CONTINUOUS
 62
     7
100
AcDbLine
 10
1.41620723737202
 20
0.0980045282103153
 30
0.0
 11
1.41620723737202
 21
0.0980045282103153
 31
0.0
  0
LINE
  5
16613
330
16589
100
AcDbEntity
  8
_0-5__0-3__2-4_
  6
CONTINUOUS
 62
     7
100
AcDbLine
 10
1.41620723737202
 20
0.0980045282103153
 30
0.0
 11
1.392640552505333
 21
0.0205307656945846
 31
0.0
  0
LINE
  5
16614
330
16589
100
AcDbEntity
  8
_0-5__0-3__2-4_
  6
CONTINUOUS
 62
     7
100
AcDbLine
 10
1.392640552505333
 20
0.0205307656945846
 30
0.0
 11
1.366068604116359
 21
-0.0393967487629292
 31
0.0
  0
LINE
  5
16615
330
16589
100
AcDbEntity
  8
_0-5__0-3__2-4_
  6
CONTINUOUS
 62
     7
100
AcDbLine
 10
1.366068604116359
 20
-0.0393967487629292
 30
0.0
 11
1.337298767410844
 21
-0.0799571479602197
 31
0.0
  0
LINE
  5
16616
330
16589
100
AcDbEntity
  8
_0-5__0-3__2-4_
  6
CONTINUOUS
 62
     7
100
AcDbLine
 10
1.337298767410844
 20
-0.0799571479602197
 30
0.0
 11
1.307205199318843
 21
-0.0999180246922299
 31
0.0
  0
LINE
  5
16617
330
16589
100
AcDbEntity
  8
_0-5__0-3__2-4_
  6
CONTINUOUS
 62
     7
100
AcDbLine
 10
1.307205199318843
 20
-0.0999180246922299
 30
0.0
 11
1.293732750232862
 21
-0.1019954717896816
 31
0.0
  0
LINE
  5
16618
330
16589
100
AcDbEntity
  8
_0-5__0-3__2-4_
  6
CONTINUOUS
 62
     7
100
AcDbLine
 10
2.320587371459154
 20
-0.2519954717896836
 30
0.0
 11
3.220587371459146
 21
-0.2519954717896836
 31
0.0
  0
LINE
  5
16619
330
16589
100
AcDbEntity
  8
_0-5__0-3__2-4_
  6
CONTINUOUS
 62
     7
100
AcDbLine
 10
3.120587371459151
 20
-2.501995471789684
 30
0.0
 11
3.120587371459151
 21
-4.351995471789681
 31
0.0
  0
ARC
  5
1661A
330
16589
100
AcDbEntity
  8
_0-5__0-3__2-4_
  6
CONTINUOUS
 62
     7
100
AcDbCircle
 10
2.620587371459151
 20
-2.111162780470084
 30
0.0
 40
0.2999999999999998
100
AcDbArc
 50
180.0
 51
213.6900675259797
  0
ARC
  5
1661B
330
16589
100
AcDbEntity
  8
_0-5__0-3__2-4_
  6
CONTINUOUS
 62
     7
100
AcDbCircle
 10
2.820587371459154
 20
-2.111162780411618
 30
0.0
 40
0.2999999999999998
100
AcDbArc
 50
180.0
 51
213.6900675259797
  0
LINE
  5
1661C
330
16589
100
AcDbEntity
  8
_0-5__0-3__2-4_
  6
CONTINUOUS
 62
     7
100
AcDbLine
 10
2.46121406428918
 20
-2.412935511034728
 30
0.0
 11
2.370972283157797
 21
-2.277572839337651
 31
0.0
  0
ARC
  5
1661D
330
16589
100
AcDbEntity
  8
_0-5__0-3__2-4_
  6
CONTINUOUS
 62
     7
100
AcDbCircle
 10
2.627624123156749
 20
-2.301995471789684
 30
0.0
 40
0.2
100
AcDbArc
 50
213.6900675259794
 51
270.0
  0
LINE
  5
1661E
330
16589
100
AcDbEntity
  8
_0-5__0-3__2-4_
  6
CONTINUOUS
 62
     7
100
AcDbLine
 10
2.661214064328163
 20
-2.412935511034728
 30
0.0
 11
2.570972283157801
 21
-2.277572839279188
 31
0.0
  0
ARC
  5
1661F
330
16589
100
AcDbEntity
  8
_0-5__0-3__2-4_
  6
CONTINUOUS
 62
     7
100
AcDbCircle
 10
2.827624123195732
 20
-2.301995471789684
 30
0.0
 40
0.2
100
AcDbArc
 50
213.6900675259794
 51
270.0
  0
LINE
  5
16620
330
16589
100
AcDbEntity
  8
_0-5__0-3__2-4_
  6
CONTINUOUS
 62
     7
100
AcDbLine
 10
2.627624123156749
 20
-2.501995471789684
 30
0.0
 11
3.420587371459149
 21
-2.501995471789684
 31
0.0
  0
ARC
  5
16621
330
16589
100
AcDbEntity
  8
_0-5__0-3__2-4_
  6
CONTINUOUS
 62
     7
100
AcDbCircle
 10
3.020587371459157
 20
-0.1019954717896816
 30
0.0
 40
0.2
100
AcDbArc
 50
0.0
 51
90.0
  0
LINE
  5
16622
330
16589
100
AcDbEntity
  8
_0-5__0-3__2-4_
  6
CONTINUOUS
 62
     7
100
AcDbLine
 10
2.520587371459157
 20
-0.1019954717896816
 30
0.0
 11
2.520587371459157
 21
-2.111162780411618
 31
0.0
  0
ARC
  5
16623
330
16589
100
AcDbEntity
  8
_0-5__0-3__2-4_
  6
CONTINUOUS
 62
     7
100
AcDbCircle
 10
2.320587371459154
 20
-0.1019954717896816
 30
0.0
 40
0.2
100
AcDbArc
 50
0.0
 51
90.00000000000005
  0
LINE
  5
16624
330
16589
100
AcDbEntity
  8
_0-5__0-3__2-4_
  6
CONTINUOUS
 62
     7
100
AcDbLine
 10
2.220587371459146
 20
-0.1019954717896816
 30
0.0
 11
2.182291328979559
 21
-0.1019954717896816
 31
0.0
  0
LINE
  5
16625
330
16589
100
AcDbEntity
  8
_0-5__0-3__2-4_
  6
CONTINUOUS
 62
     7
100
AcDbLine
 10
2.320587371459154
 20
-0.201995471789683
 30
0.0
 11
2.320587371459154
 21
-2.111162780470084
 31
0.0
  0
ARC
  5
16626
330
16589
100
AcDbEntity
  8
_0-5__0-3__2-4_
  6
CONTINUOUS
 62
     7
100
AcDbCircle
 10
2.220587371459146
 20
-0.201995471789683
 30
0.0
 40
0.1
100
AcDbArc
 50
0.0
 51
90.0
  0
LINE
  5
16627
330
16589
100
AcDbEntity
  8
_0-5__0-3__2-4_
  6
CONTINUOUS
 62
     7
100
AcDbLine
 10
2.182291328979559
 20
-0.1019954717896816
 30
0.0
 11
2.182291328979559
 21
0.0990808238916826
 31
0.0
  0
LINE
  5
16628
330
16589
100
AcDbEntity
  8
_0-5__0-3__2-4_
  6
CONTINUOUS
 62
     7
100
AcDbLine
 10
2.120752867441098
 20
0.8980045282103187
 30
0.0
 11
2.120752867441098
 21
0.8980045282103187
 31
0.0
  0
LINE
  5
16629
330
16589
100
AcDbEntity
  8
_0-5__0-3__2-4_
  6
CONTINUOUS
 62
     7
100
AcDbLine
 10
2.120752867441098
 20
0.8980045282103187
 30
0.0
 11
2.113673243671104
 21
0.8239875830472092
 31
0.0
  0
LINE
  5
1662A
330
16589
100
AcDbEntity
  8
_0-5__0-3__2-4_
  6
CONTINUOUS
 62
     7
100
AcDbLine
 10
2.113673243671104
 20
0.8239875830472092
 30
0.0
 11
2.10867854570078
 21
0.743104257115824
 31
0.0
  0
LINE
  5
1662B
330
16589
100
AcDbEntity
  8
_0-5__0-3__2-4_
  6
CONTINUOUS
 62
     7
100
AcDbLine
 10
2.10867854570078
 20
0.743104257115824
 30
0.0
 11
2.105920534900517
 21
0.6578121493456504
 31
0.0
  0
LINE
  5
1662C
330
16589
100
AcDbEntity
  8
_0-5__0-3__2-4_
  6
CONTINUOUS
 62
     7
100
AcDbLine
 10
2.105920534900517
 20
0.6578121493456504
 30
0.0
 11
2.105483012032858
 21
0.5707028172713967
 31
0.0
  0
LINE
  5
1662D
330
16589
100
AcDbEntity
  8
_0-5__0-3__2-4_
  6
CONTINUOUS
 62
     7
100
AcDbLine
 10
2.105483012032858
 20
0.5707028172713967
 30
0.0
 11
2.107379271008742
 21
0.4844230338686896
 31
0.0
  0
LINE
  5
1662E
330
16589
100
AcDbEntity
  8
_0-5__0-3__2-4_
  6
CONTINUOUS
 62
     7
100
AcDbLine
 10
2.107379271008742
 20
0.4844230338686896
 30
0.0
 11
2.111551694958738
 21
0.4015943666965435
 31
0.0
  0
LINE
  5
1662F
330
16589
100
AcDbEntity
  8
_0-5__0-3__2-4_
  6
CONTINUOUS
 62
     7
100
AcDbLine
 10
2.111551694958738
 20
0.4015943666965435
 30
0.0
 11
2.117873506892476
 21
0.3247335228936559
 31
0.0
  0
LINE
  5
16630
330
16589
100
AcDbEntity
  8
_0-5__0-3__2-4_
  6
CONTINUOUS
 62
     7
100
AcDbLine
 10
2.117873506892476
 20
0.3247335228936559
 30
0.0
 11
2.126152621753338
 21
0.2561758803055144
 31
0.0
  0
LINE
  5
16631
330
16589
100
AcDbEntity
  8
_0-5__0-3__2-4_
  6
CONTINUOUS
 62
     7
100
AcDbLine
 10
2.126152621753338
 20
0.2561758803055144
 30
0.0
 11
2.136137482825712
 21
0.1980045282103185
 31
0.0
  0
LINE
  5
16632
330
16589
100
AcDbEntity
  8
_0-5__0-3__2-4_
  6
CONTINUOUS
 62
     7
100
AcDbLine
 10
2.136137482825712
 20
0.1980045282103185
 30
0.0
 11
2.147524705158498
 21
0.1519869737053559
 31
0.0
  0
LINE
  5
16633
330
16589
100
AcDbEntity
  8
_0-5__0-3__2-4_
  6
CONTINUOUS
 62
     7
100
AcDbLine
 10
2.147524705158498
 20
0.1519869737053559
 30
0.0
 11
2.159968293763327
 21
0.1195214368982539
 31
0.0
  0
LINE
  5
16634
330
16589
100
AcDbEntity
  8
_0-5__0-3__2-4_
  6
CONTINUOUS
 62
     7
100
AcDbLine
 10
2.159968293763327
 20
0.1195214368982539
 30
0.0
 11
2.1730901564972
 21
0.1015943666965423
 31
0.0
  0
LINE
  5
16635
330
16589
100
AcDbEntity
  8
_0-5__0-3__2-4_
  6
CONTINUOUS
 62
     7
100
AcDbLine
 10
2.1730901564972
 20
0.1015943666965423
 30
0.0
 11
2.182291328979559
 21
0.0980045282103176
 31
0.0
  0
LINE
  5
16636
330
16589
100
AcDbEntity
  8
_0-5__0-3__2-4_
  6
CONTINUOUS
 62
     7
100
AcDbLine
 10
2.182291328979559
 20
-0.1019954717896816
 30
0.0
 11
2.182291328979559
 21
-0.1019954717896816
 31
0.0
  0
LINE
  5
16637
330
16589
100
AcDbEntity
  8
_0-5__0-3__2-4_
  6
CONTINUOUS
 62
     7
100
AcDbLine
 10
2.182291328979559
 20
-0.1019954717896816
 30
0.0
 11
2.151902897887846
 21
-0.0913608988982271
 31
0.0
  0
LINE
  5
16638
330
16589
100
AcDbEntity
  8
_0-5__0-3__2-4_
  6
CONTINUOUS
 62
     7
100
AcDbLine
 10
2.151902897887846
 20
-0.0913608988982271
 30
0.0
 11
2.122437803897567
 21
-0.0597803063398174
 31
0.0
  0
LINE
  5
16639
330
16589
100
AcDbEntity
  8
_0-5__0-3__2-4_
  6
CONTINUOUS
 62
     7
100
AcDbLine
 10
2.122437803897567
 20
-0.0597803063398174
 30
0.0
 11
2.094791328979559
 21
-0.0082132544387888
 31
0.0
  0
LINE
  5
1663A
330
16589
100
AcDbEntity
  8
_0-5__0-3__2-4_
  6
CONTINUOUS
 62
     7
100
AcDbLine
 10
2.094791328979559
 20
-0.0082132544387888
 30
0.0
 11
2.069803497284415
 21
0.0617734180270336
 31
0.0
  0
LINE
  5
1663B
330
16589
100
AcDbEntity
  8
_0-5__0-3__2-4_
  6
CONTINUOUS
 62
     7
100
AcDbLine
 10
2.069803497284415
 20
0.0617734180270336
 30
0.0
 11
2.048233551433738
 21
0.1480532014297404
 31
0.0
  0
LINE
  5
1663C
330
16589
100
AcDbEntity
  8
_0-5__0-3__2-4_
  6
CONTINUOUS
 62
     7
100
AcDbLine
 10
2.048233551433738
 20
0.1480532014297404
 30
0.0
 11
2.030736883317282
 21
0.2480045282103177
 31
0.0
  0
LINE
  5
1663D
330
16589
100
AcDbEntity
  8
_0-5__0-3__2-4_
  6
CONTINUOUS
 62
     7
100
AcDbLine
 10
2.030736883317282
 20
0.2480045282103177
 30
0.0
 11
2.017845120342025
 21
0.3585904278823496
 31
0.0
  0
LINE
  5
1663E
330
16589
100
AcDbEntity
  8
_0-5__0-3__2-4_
  6
CONTINUOUS
 62
     7
100
AcDbLine
 10
2.017845120342025
 20
0.3585904278823496
 30
0.0
 11
2.009949972202423
 21
0.4764508038434667
 31
0.0
  0
LINE
  5
1663F
330
16589
100
AcDbEntity
  8
_0-5__0-3__2-4_
  6
CONTINUOUS
 62
     7
100
AcDbLine
 10
2.009949972202423
 20
0.4764508038434667
 30
0.0
 11
2.007291328979559
 21
0.5980045282103174
 31
0.0
  0
LINE
  5
16640
330
16589
100
AcDbEntity
  8
_0-5__0-3__2-4_
  6
CONTINUOUS
 62
     7
100
AcDbLine
 10
2.007291328979559
 20
0.5980045282103174
 30
0.0
 11
2.009949972202423
 21
0.7195582525771686
 31
0.0
  0
LINE
  5
16641
330
16589
100
AcDbEntity
  8
_0-5__0-3__2-4_
  6
CONTINUOUS
 62
     7
100
AcDbLine
 10
2.009949972202423
 20
0.7195582525771686
 30
0.0
 11
2.017845120342025
 21
0.8374186285382855
 31
0.0
  0
LINE
  5
16642
330
16589
100
AcDbEntity
  8
_0-5__0-3__2-4_
  6
CONTINUOUS
 62
     7
100
AcDbLine
 10
2.017845120342025
 20
0.8374186285382855
 30
0.0
 11
2.030736883317282
 21
0.9480045282103171
 31
0.0
  0
LINE
  5
16643
330
16589
100
AcDbEntity
  8
_0-5__0-3__2-4_
  6
CONTINUOUS
 62
     7
100
AcDbLine
 10
2.030736883317282
 20
0.9480045282103171
 30
0.0
 11
2.048233551433738
 21
1.047955854990894
 31
0.0
  0
LINE
  5
16644
330
16589
100
AcDbEntity
  8
_0-5__0-3__2-4_
  6
CONTINUOUS
 62
     7
100
AcDbLine
 10
2.048233551433738
 20
1.047955854990894
 30
0.0
 11
2.059816841840401
 21
1.098004528210319
 31
0.0
  0
LINE
  5
16645
330
16589
100
AcDbEntity
  8
_0-5__0-3__2-4_
  6
CONTINUOUS
 62
     7
100
AcDbLine
 10
2.059816841840401
 20
1.098004528210317
 30
0.0
 11
2.120752867441098
 21
0.8980045282103148
 31
0.0
  0
LINE
  5
16646
330
16589
100
AcDbEntity
  8
_0-5__0-3__2-4_
  6
CONTINUOUS
 62
     7
100
AcDbLine
 10
2.446871171171494
 20
1.200077826281731
 30
0.0
 11
2.268893859267009
 21
1.098004528210317
 31
0.0
  0
LINE
  5
16647
330
16589
100
AcDbEntity
  8
_0-5__0-3__2-4_
  6
CONTINUOUS
 62
     7
100
AcDbLine
 10
2.268893859267009
 20
1.098004528210317
 30
0.0
 11
2.059816841840401
 21
1.098004528210317
 31
0.0
  0
LINE
  5
16648
330
16589
100
AcDbEntity
  8
_0-5__0-3__2-4_
  6
CONTINUOUS
 62
     7
100
AcDbLine
 10
2.528626574794288
 20
1.298004528210317
 30
0.0
 11
2.528626574794288
 21
1.298004528210317
 31
0.0
  0
LINE
  5
16649
330
16589
100
AcDbEntity
  8
_0-5__0-3__2-4_
  6
CONTINUOUS
 62
     7
100
AcDbLine
 10
2.528626574794288
 20
1.298004528210317
 30
0.0
 11
2.502796408366331
 21
1.288965141252581
 31
0.0
  0
LINE
  5
1664A
330
16589
100
AcDbEntity
  8
_0-5__0-3__2-4_
  6
CONTINUOUS
 62
     7
100
AcDbLine
 10
2.502796408366331
 20
1.288965141252581
 30
0.0
 11
2.477751078474594
 21
1.262121637577933
 31
0.0
  0
LINE
  5
1664B
330
16589
100
AcDbEntity
  8
_0-5__0-3__2-4_
  6
CONTINUOUS
 62
     7
100
AcDbLine
 10
2.477751078474594
 20
1.262121637577933
 30
0.0
 11
2.454251574794287
 21
1.218289643462058
 31
0.0
  0
LINE
  5
1664C
330
16589
100
AcDbEntity
  8
_0-5__0-3__2-4_
  6
CONTINUOUS
 62
     7
100
AcDbLine
 10
2.454251574794287
 20
1.218289643462058
 30
0.0
 11
2.446871171171496
 21
1.200077826281729
 31
0.0
  0
LINE
  5
1664D
330
16589
100
AcDbEntity
  8
_0-5__0-3__2-4_
  6
CONTINUOUS
 62
     7
100
AcDbLine
 10
2.120752867441098
 20
0.8980045282103148
 30
0.0
 11
2.329783554250965
 21
0.8980045282103148
 31
0.0
  0
LINE
  5
1664E
330
16589
100
AcDbEntity
  8
_0-5__0-3__2-4_
  6
CONTINUOUS
 62
     7
100
AcDbLine
 10
2.268509501068848
 20
1.098004528210317
 30
0.0
 11
2.329783554269141
 21
0.8980045282158819
 31
0.0
  0
LINE
  5
1664F
330
16589
100
AcDbEntity
  8
_0-5__0-3__2-4_
  6
CONTINUOUS
 62
     7
100
AcDbLine
 10
2.446871171171494
 20
1.200077826281727
 30
0.0
 11
2.489905601895046
 21
1.058833200301183
 31
0.0
  0
LINE
  5
16650
330
16589
100
AcDbEntity
  8
_0-5__0-3__2-4_
  6
CONTINUOUS
 62
     7
100
AcDbLine
 10
2.479434623546509
 20
0.9838321993862242
 30
0.0
 11
2.329783554250965
 21
0.8980045282103148
 31
0.0
  0
LINE
  5
16651
330
16589
100
AcDbEntity
  8
_0-5__0-3__2-4_
  6
CONTINUOUS
 62
     7
100
AcDbLine
 10
2.489905601895042
 20
1.058833200301181
 30
0.0
 11
2.489905601895042
 21
1.058833200301181
 31
0.0
  0
LINE
  5
16652
330
16589
100
AcDbEntity
  8
_0-5__0-3__2-4_
  6
CONTINUOUS
 62
     7
100
AcDbLine
 10
2.489905601895042
 20
1.058833200301181
 30
0.0
 11
2.477867684103419
 21
0.9701083941017568
 31
0.0
  0
LINE
  5
16653
330
16589
100
AcDbEntity
  8
_0-5__0-3__2-4_
  6
CONTINUOUS
 62
     7
100
AcDbLine
 10
2.477867684103419
 20
0.9701083941017568
 30
0.0
 11
2.469361975616971
 21
0.8731158496299279
 31
0.0
  0
LINE
  5
16654
330
16589
100
AcDbEntity
  8
_0-5__0-3__2-4_
  6
CONTINUOUS
 62
     7
100
AcDbLine
 10
2.469361975616971
 20
0.8731158496299279
 30
0.0
 11
2.464646918083962
 21
0.7708026362688752
 31
0.0
  0
LINE
  5
16655
330
16589
100
AcDbEntity
  8
_0-5__0-3__2-4_
  6
CONTINUOUS
 62
     7
100
AcDbLine
 10
2.464646918083962
 20
0.7708026362688752
 30
0.0
 11
2.463865776141598
 21
0.6662774892335897
 31
0.0
  0
LINE
  5
16656
330
16589
100
AcDbEntity
  8
_0-5__0-3__2-4_
  6
CONTINUOUS
 62
     7
100
AcDbLine
 10
2.463865776141598
 20
0.6662774892335897
 30
0.0
 11
2.467042284392522
 21
0.5627163522244629
 31
0.0
  0
LINE
  5
16657
330
16589
100
AcDbEntity
  8
_0-5__0-3__2-4_
  6
CONTINUOUS
 62
     7
100
AcDbLine
 10
2.467042284392522
 20
0.5627163522244629
 30
0.0
 11
2.474079926240919
 21
0.4632658779850527
 31
0.0
  0
LINE
  5
16658
330
16589
100
AcDbEntity
  8
_0-5__0-3__2-4_
  6
CONTINUOUS
 62
     7
100
AcDbLine
 10
2.474079926240919
 20
0.4632658779850527
 30
0.0
 11
2.484764866500445
 21
0.3709478188507551
 31
0.0
  0
LINE
  5
16659
330
16589
100
AcDbEntity
  8
_0-5__0-3__2-4_
  6
CONTINUOUS
 62
     7
100
AcDbLine
 10
2.484764866500445
 20
0.3709478188507551
 30
0.0
 11
2.498772448668155
 21
0.2885672123331746
 31
0.0
  0
LINE
  5
1665A
330
16589
100
AcDbEntity
  8
_0-5__0-3__2-4_
  6
CONTINUOUS
 62
     7
100
AcDbLine
 10
2.498772448668155
 20
0.2885672123331746
 30
0.0
 11
2.515677059448061
 21
0.2186271514747492
 31
0.0
  0
LINE
  5
1665B
330
16589
100
AcDbEntity
  8
_0-5__0-3__2-4_
  6
CONTINUOUS
 62
     7
100
AcDbLine
 10
2.515677059448061
 20
0.2186271514747492
 30
0.0
 11
2.534965060795762
 21
0.1632527296332834
 31
0.0
  0
LINE
  5
1665C
330
16589
100
AcDbEntity
  8
_0-5__0-3__2-4_
  6
CONTINUOUS
 62
     7
100
AcDbLine
 10
2.534965060795762
 20
0.1632527296332834
 30
0.0
 11
2.556050396550507
 21
0.1241264705956211
 31
0.0
  0
LINE
  5
1665D
330
16589
100
AcDbEntity
  8
_0-5__0-3__2-4_
  6
CONTINUOUS
 62
     7
100
AcDbLine
 10
2.556050396550507
 20
0.1241264705956211
 30
0.0
 11
2.578292399455084
 21
0.1024372059437791
 31
0.0
  0
LINE
  5
1665E
330
16589
100
AcDbEntity
  8
_0-5__0-3__2-4_
  6
CONTINUOUS
 62
     7
100
AcDbLine
 10
2.578292399455084
 20
0.1024372059437791
 30
0.0
 11
2.594118075109208
 21
0.0980045283095005
 31
0.0
  0
LINE
  5
1665F
330
16589
100
AcDbEntity
  8
_0-5__0-3__2-4_
  6
CONTINUOUS
 62
     7
100
AcDbLine
 10
3.220587371459146
 20
-1.001995471789683
 30
0.0
 11
3.220587371459146
 21
-0.1019954717896816
 31
0.0
  0
LINE
  5
16660
330
16589
100
AcDbEntity
  8
_0-5__0-3__2-4_
  6
CONTINUOUS
 62
     7
100
AcDbLine
 10
3.320587371459154
 20
-1.101995471789681
 30
0.0
 11
3.420587371459149
 21
-1.101995471789681
 31
0.0
  0
ARC
  5
16661
330
16589
100
AcDbEntity
  8
_0-5__0-3__2-4_
  6
CONTINUOUS
 62
     7
100
AcDbCircle
 10
3.320587371459154
 20
-1.001995471789683
 30
0.0
 40
0.1
100
AcDbArc
 50
180.0
 51
270.0
  0
LINE
  5
16662
330
16589
100
AcDbEntity
  8
_0-5__0-3__2-4_
  6
CONTINUOUS
 62
     7
100
AcDbLine
 10
3.120587371459151
 20
2.298004528210316
 30
0.0
 11
3.120587371459151
 21
1.082061144641379
 31
0.0
  0
LINE
  5
16663
330
16589
100
AcDbEntity
  8
_0-5__0-3__2-4_
  6
CONTINUOUS
 62
     7
100
AcDbLine
 10
3.120587371459151
 20
0.313947911729663
 30
0.0
 11
3.120587371459151
 21
0.0980045282103176
 31
0.0
  0
LINE
  5
16664
330
16589
100
AcDbEntity
  8
_0-5__0-3__2-4_
  6
CONTINUOUS
 62
     7
100
AcDbLine
 10
-8.779412628540853
 20
2.598004528210317
 30
0.0
 11
-8.979412628540849
 21
2.398004528210316
 31
0.0
  0
LINE
  5
16665
330
16589
100
AcDbEntity
  8
_0-5__0-3__2-4_
  6
CONTINUOUS
 62
     7
100
AcDbLine
 10
2.820587371459154
 20
2.598004528210315
 30
0.0
 11
3.020587371459157
 21
2.398004528210316
 31
0.0
  0
ENDBLK
  5
16667
330
16589
100
AcDbEntity
  8
0
100
AcDbBlockEnd
  0
BLOCK
  5
16675
330
16668
100
AcDbEntity
  8
0
100
AcDbBlockBegin
  2
-010-53375_C
 70
     0
 10
0.0
 20
0.0
 30
0.0
  3
-010-53375_C
  1

  0
LINE
  5
16669
330
16668
100
AcDbEntity
  8
_0-5__0-3__2-4_
  6
CONTINUOUS
 62
     7
100
AcDbLine
 10
-9.363888888888881
 20
-3.75
 30
0.0
 11
2.136111111111119
 21
-3.75
 31
0.0
  0
LINE
  5
1666A
330
16668
100
AcDbEntity
  8
_0-5__0-3__2-4_
  6
CONTINUOUS
 62
     7
100
AcDbLine
 10
5.536111111111097
 20
-0.5000000000000285
 30
0.0
 11
5.536111111111097
 21
-0.1999999999999602
 31
0.0
  0
LINE
  5
1666B
330
16668
100
AcDbEntity
  8
_0-5__0-3__2-4_
  6
CONTINUOUS
 62
     7
100
AcDbLine
 10
5.536111111111097
 20
-0.5000000000000285
 30
0.0
 11
5.036111111111097
 21
-0.6500000000000054
 31
0.0
  0
LINE
  5
1666C
330
16668
100
AcDbEntity
  8
_0-5__0-3__2-4_
  6
CONTINUOUS
 62
     7
100
AcDbLine
 10
5.536111111111097
 20
-0.1999999999999602
 30
0.0
 11
5.036111111111097
 21
-0.0499999999999828
 31
0.0
  0
LINE
  5
1666D
330
16668
100
AcDbEntity
  8
_0-5__0-3__2-4_
  6
CONTINUOUS
 62
     7
100
AcDbLine
 10
-9.363888888888881
 20
-2.25
 30
0.0
 11
-9.363888888888881
 21
-3.75
 31
0.0
  0
LINE
  5
1666E
330
16668
100
AcDbEntity
  8
_0-5__0-3__2-4_
  6
CONTINUOUS
 62
     7
100
AcDbLine
 10
3.786111111111153
 20
1.699999999999988
 30
0.0
 11
3.786111111111153
 21
2.0
 31
0.0
  0
LINE
  5
1666F
330
16668
100
AcDbEntity
  8
_0-5__0-3__2-4_
  6
CONTINUOUS
 62
     7
100
AcDbLine
 10
-9.363888888888881
 20
-2.25
 30
0.0
 11
-9.163888888888877
 21
-2.049999999999996
 31
0.0
  0
LINE
  5
16670
330
16668
100
AcDbEntity
  8
_0-5__0-3__2-4_
  6
CONTINUOUS
 62
     7
100
AcDbLine
 10
3.736111111111112
 20
-0.0499999999999828
 30
0.0
 11
5.036111111111097
 21
-0.0499999999999828
 31
0.0
  0
LINE
  5
16671
330
16668
100
AcDbEntity
  8
_0-5__0-3__2-4_
  6
CONTINUOUS
 62
     7
100
AcDbLine
 10
3.736111111111113
 20
-0.6500000000000054
 30
0.0
 11
5.036111111111097
 21
-0.6500000000000054
 31
0.0
  0
LINE
  5
16672
330
16668
100
AcDbEntity
  8
_0-5__0-3__2-4_
  6
CONTINUOUS
 62
     7
100
AcDbLine
 10
3.736111111111111
 20
1.661111111111067
 30
0.0
 11
3.786111111111153
 21
1.699999999999988
 31
0.0
  0
LINE
  5
16673
330
16668
100
AcDbEntity
  8
_0-5__0-3__2-4_
  6
CONTINUOUS
 62
     7
100
AcDbLine
 10
3.73611111111111
 20
2.038888888888915
 30
0.0
 11
3.786111111111153
 21
2.0
 31
0.0
  0
LINE
  5
16674
330
16668
100
AcDbEntity
  8
_0-5__0-3__2-4_
  6
CONTINUOUS
 62
     7
100
AcDbLine
 10
2.136111111111119
 20
-3.75
 30
0.0
 11
2.136111111111119
 21
-2.049999999999996
 31
0.0
  0
ENDBLK
  5
16676
330
16668
100
AcDbEntity
  8
0
100
AcDbBlockEnd
  0
BLOCK
  5
166C4
330
16677
100
AcDbEntity
  8
0
100
AcDbBlockBegin
  2
-011-53375-0510_A
 70
     0
 10
0.0
 20
0.0
 30
0.0
  3
-011-53375-0510_A
  1

  0
LINE
  5
16678
330
16677
100
AcDbEntity
  8
_0-5__0-3__2-4_
  6
CONTINUOUS
 62
     7
100
AcDbLine
 10
-7.004213483145747
 20
-9.753370786517107
 30
0.0
 11
-7.004213483145747
 21
1.74662921348289
 31
0.0
  0
LINE
  5
16679
330
16677
100
AcDbEntity
  8
_0-5__0-3__2-4_
  6
CONTINUOUS
 62
     7
100
AcDbLine
 10
7.89578651685423
 20
-9.753370786517107
 30
0.0
 11
7.89578651685423
 21
1.74662921348289
 31
0.0
  0
LINE
  5
1667A
330
16677
100
AcDbEntity
  8
_0-5__0-3__2-4_
  6
CONTINUOUS
 62
     7
100
AcDbLine
 10
-7.004213483145747
 20
1.74662921348289
 30
0.0
 11
-6.004213483145747
 21
1.74662921348289
 31
0.0
  0
LINE
  5
1667B
330
16677
100
AcDbEntity
  8
_0-5__0-3__2-4_
  6
CONTINUOUS
 62
     7
100
AcDbLine
 10
-4.704213483145736
 20
5.146629213482924
 30
0.0
 11
-4.404213483145724
 21
5.146629213482924
 31
0.0
  0
LINE
  5
1667C
330
16677
100
AcDbEntity
  8
_0-5__0-3__2-4_
  6
CONTINUOUS
 62
     7
100
AcDbLine
 10
-4.704213483145736
 20
5.146629213482924
 30
0.0
 11
-4.854213483145769
 21
4.646629213482924
 31
0.0
  0
LINE
  5
1667D
330
16677
100
AcDbEntity
  8
_0-5__0-3__2-4_
  6
CONTINUOUS
 62
     7
100
AcDbLine
 10
-4.404213483145724
 20
5.146629213482924
 30
0.0
 11
-4.254213483145747
 21
4.646629213482924
 31
0.0
  0
LINE
  5
1667E
330
16677
100
AcDbEntity
  8
_0-5__0-3__2-4_
  6
CONTINUOUS
 62
     7
100
AcDbLine
 10
-2.204213483145736
 20
5.146629213482924
 30
0.0
 11
-1.904213483145724
 21
5.146629213482924
 31
0.0
  0
LINE
  5
1667F
330
16677
100
AcDbEntity
  8
_0-5__0-3__2-4_
  6
CONTINUOUS
 62
     7
100
AcDbLine
 10
-2.204213483145736
 20
5.146629213482924
 30
0.0
 11
-2.35421348314577
 21
4.646629213482924
 31
0.0
  0
LINE
  5
16680
330
16677
100
AcDbEntity
  8
_0-5__0-3__2-4_
  6
CONTINUOUS
 62
     7
100
AcDbLine
 10
-1.904213483145724
 20
5.146629213482924
 30
0.0
 11
-1.754213483145747
 21
4.646629213482924
 31
0.0
  0
LINE
  5
16681
330
16677
100
AcDbEntity
  8
_0-5__0-3__2-4_
  6
CONTINUOUS
 62
     7
100
AcDbLine
 10
0.2957865168542639
 20
5.146629213482924
 30
0.0
 11
0.5957865168542753
 21
5.146629213482924
 31
0.0
  0
LINE
  5
16682
330
16677
100
AcDbEntity
  8
_0-5__0-3__2-4_
  6
CONTINUOUS
 62
     7
100
AcDbLine
 10
0.2957865168542639
 20
5.146629213482924
 30
0.0
 11
0.1457865168542298
 21
4.646629213482924
 31
0.0
  0
LINE
  5
16683
330
16677
100
AcDbEntity
  8
_0-5__0-3__2-4_
  6
CONTINUOUS
 62
     7
100
AcDbLine
 10
0.5957865168542753
 20
5.146629213482924
 30
0.0
 11
0.7457865168542524
 21
4.646629213482924
 31
0.0
  0
LINE
  5
16684
330
16677
100
AcDbEntity
  8
_0-5__0-3__2-4_
  6
CONTINUOUS
 62
     7
100
AcDbLine
 10
2.795786516854263
 20
5.146629213482924
 30
0.0
 11
3.095786516854275
 21
5.146629213482924
 31
0.0
  0
LINE
  5
16685
330
16677
100
AcDbEntity
  8
_0-5__0-3__2-4_
  6
CONTINUOUS
 62
     7
100
AcDbLine
 10
2.795786516854263
 20
5.146629213482924
 30
0.0
 11
2.645786516854229
 21
4.646629213482924
 31
0.0
  0
LINE
  5
16686
330
16677
100
AcDbEntity
  8
_0-5__0-3__2-4_
  6
CONTINUOUS
 62
     7
100
AcDbLine
 10
3.095786516854275
 20
5.146629213482924
 30
0.0
 11
3.245786516854253
 21
4.646629213482924
 31
0.0
  0
LINE
  5
16687
330
16677
100
AcDbEntity
  8
_0-5__0-3__2-4_
  6
CONTINUOUS
 62
     7
100
AcDbLine
 10
5.295786516854263
 20
5.146629213482924
 30
0.0
 11
5.595786516854275
 21
5.146629213482924
 31
0.0
  0
LINE
  5
16688
330
16677
100
AcDbEntity
  8
_0-5__0-3__2-4_
  6
CONTINUOUS
 62
     7
100
AcDbLine
 10
5.295786516854263
 20
5.146629213482924
 30
0.0
 11
5.145786516854229
 21
4.646629213482924
 31
0.0
  0
LINE
  5
16689
330
16677
100
AcDbEntity
  8
_0-5__0-3__2-4_
  6
CONTINUOUS
 62
     7
100
AcDbLine
 10
5.595786516854275
 20
5.146629213482924
 30
0.0
 11
5.745786516854252
 21
4.646629213482924
 31
0.0
  0
LINE
  5
1668A
330
16677
100
AcDbEntity
  8
_0-5__0-3__2-4_
  6
CONTINUOUS
 62
     7
100
AcDbLine
 10
-6.004213483145804
 20
3.396629213482896
 30
0.0
 11
-6.304213483145815
 21
3.396629213482896
 31
0.0
  0
LINE
  5
1668B
330
16677
100
AcDbEntity
  8
_0-5__0-3__2-4_
  6
CONTINUOUS
 62
     7
100
AcDbLine
 10
-6.454213483145736
 20
1.74662921348289
 30
0.0
 11
-5.304213483145701
 21
1.74662921348289
 31
0.0
  0
LINE
  5
1668C
330
16677
100
AcDbEntity
  8
_0-5__0-3__2-4_
  6
CONTINUOUS
 62
     7
100
AcDbLine
 10
-3.804213483145759
 20
1.74662921348289
 30
0.0
 11
-2.804213483145701
 21
1.74662921348289
 31
0.0
  0
LINE
  5
1668D
330
16677
100
AcDbEntity
  8
_0-5__0-3__2-4_
  6
CONTINUOUS
 62
     7
100
AcDbLine
 10
-1.304213483145758
 20
1.74662921348289
 30
0.0
 11
-0.3042134831457019
 21
1.74662921348289
 31
0.0
  0
LINE
  5
1668E
330
16677
100
AcDbEntity
  8
_0-5__0-3__2-4_
  6
CONTINUOUS
 62
     7
100
AcDbLine
 10
1.195786516854241
 20
1.74662921348289
 30
0.0
 11
2.195786516854298
 21
1.74662921348289
 31
0.0
  0
LINE
  5
1668F
330
16677
100
AcDbEntity
  8
_0-5__0-3__2-4_
  6
CONTINUOUS
 62
     7
100
AcDbLine
 10
3.69578651685424
 20
1.74662921348289
 30
0.0
 11
4.695786516854298
 21
1.74662921348289
 31
0.0
  0
LINE
  5
16690
330
16677
100
AcDbEntity
  8
_0-5__0-3__2-4_
  6
CONTINUOUS
 62
     7
100
AcDbLine
 10
6.195786516854241
 20
1.74662921348289
 30
0.0
 11
7.895786516854286
 21
1.74662921348289
 31
0.0
  0
LINE
  5
16691
330
16677
100
AcDbEntity
  8
_0-5__0-3__2-4_
  6
CONTINUOUS
 62
     7
100
AcDbLine
 10
-3.804213483145759
 20
1.446629213482907
 30
0.0
 11
-5.304213483145701
 21
1.446629213482907
 31
0.0
  0
LINE
  5
16692
330
16677
100
AcDbEntity
  8
_0-5__0-3__2-4_
  6
CONTINUOUS
 62
     7
100
AcDbLine
 10
-2.804213483145701
 20
1.446629213482907
 30
0.0
 11
-1.304213483145758
 21
1.446629213482907
 31
0.0
  0
LINE
  5
16693
330
16677
100
AcDbEntity
  8
_0-5__0-3__2-4_
  6
CONTINUOUS
 62
     7
100
AcDbLine
 10
-0.3042134831457019
 20
1.446629213482907
 30
0.0
 11
1.195786516854241
 21
1.446629213482907
 31
0.0
  0
LINE
  5
16694
330
16677
100
AcDbEntity
  8
_0-5__0-3__2-4_
  6
CONTINUOUS
 62
     7
100
AcDbLine
 10
2.195786516854298
 20
1.446629213482907
 30
0.0
 11
3.69578651685424
 21
1.446629213482907
 31
0.0
  0
LINE
  5
16695
330
16677
100
AcDbEntity
  8
_0-5__0-3__2-4_
  6
CONTINUOUS
 62
     7
100
AcDbLine
 10
4.695786516854298
 20
1.446629213482907
 30
0.0
 11
6.195786516854241
 21
1.446629213482907
 31
0.0
  0
LINE
  5
16696
330
16677
100
AcDbEntity
  8
_0-5__0-3__2-4_
  6
CONTINUOUS
 62
     7
100
AcDbLine
 10
-5.304213483145701
 20
0.6466292134828962
 30
0.0
 11
-5.304213483145701
 21
1.74662921348289
 31
0.0
  0
LINE
  5
16697
330
16677
100
AcDbEntity
  8
_0-5__0-3__2-4_
  6
CONTINUOUS
 62
     7
100
AcDbLine
 10
6.195786516854241
 20
0.6466292134828962
 30
0.0
 11
6.195786516854241
 21
1.74662921348289
 31
0.0
  0
LINE
  5
16698
330
16677
100
AcDbEntity
  8
_0-5__0-3__2-4_
  6
CONTINUOUS
 62
     7
100
AcDbLine
 10
-5.004213483145747
 20
-9.753370786517107
 30
0.0
 11
-7.004213483145747
 21
-9.753370786517107
 31
0.0
  0
LINE
  5
16699
330
16677
100
AcDbEntity
  8
_0-5__0-3__2-4_
  6
CONTINUOUS
 62
     7
100
AcDbLine
 10
-5.004213483145747
 20
-9.753370786517107
 30
0.0
 11
-4.504213483145747
 21
-9.253370786517107
 31
0.0
  0
LINE
  5
1669A
330
16677
100
AcDbEntity
  8
_0-5__0-3__2-4_
  6
CONTINUOUS
 62
     7
100
AcDbLine
 10
5.895786516854229
 20
-9.753370786517107
 30
0.0
 11
7.89578651685423
 21
-9.753370786517107
 31
0.0
  0
LINE
  5
1669B
330
16677
100
AcDbEntity
  8
_0-5__0-3__2-4_
  6
CONTINUOUS
 62
     7
100
AcDbLine
 10
5.395786516854229
 20
-9.253370786517107
 30
0.0
 11
5.895786516854229
 21
-9.753370786517107
 31
0.0
  0
LINE
  5
1669C
330
16677
100
AcDbEntity
  8
_0-5__0-3__2-4_
  6
CONTINUOUS
 62
     7
100
AcDbLine
 10
-4.504213483145747
 20
-8.253370786517109
 30
0.0
 11
-4.504213483145747
 21
-9.253370786517107
 31
0.0
  0
ARC
  5
1669D
330
16677
100
AcDbEntity
  8
_0-5__0-3__2-4_
  6
CONTINUOUS
 62
     7
100
AcDbCircle
 10
-4.004213483145747
 20
-8.253370786517109
 30
0.0
 40
0.5
100
AcDbArc
 50
90.0
 51
180.0
  0
LINE
  5
1669E
330
16677
100
AcDbEntity
  8
_0-5__0-3__2-4_
  6
CONTINUOUS
 62
     7
100
AcDbLine
 10
4.895786516854229
 20
-7.753370786517108
 30
0.0
 11
-4.004213483145747
 21
-7.753370786517108
 31
0.0
  0
LINE
  5
1669F
330
16677
100
AcDbEntity
  8
_0-5__0-3__2-4_
  6
CONTINUOUS
 62
     7
100
AcDbLine
 10
5.395786516854229
 20
-8.253370786517109
 30
0.0
 11
5.395786516854229
 21
-9.253370786517107
 31
0.0
  0
ARC
  5
166A0
330
16677
100
AcDbEntity
  8
_0-5__0-3__2-4_
  6
CONTINUOUS
 62
     7
100
AcDbCircle
 10
4.895786516854229
 20
-8.253370786517109
 30
0.0
 40
0.5
100
AcDbArc
 50
0.0
 51
90.0
  0
LINE
  5
166A1
330
16677
100
AcDbEntity
  8
_0-5__0-3__2-4_
  6
CONTINUOUS
 62
     7
100
AcDbLine
 10
-3.804213483145759
 20
1.74662921348289
 30
0.0
 11
-3.804213483145759
 21
0.6466292134828962
 31
0.0
  0
LINE
  5
166A2
330
16677
100
AcDbEntity
  8
_0-5__0-3__2-4_
  6
CONTINUOUS
 62
     7
100
AcDbLine
 10
-2.804213483145701
 20
1.74662921348289
 30
0.0
 11
-2.804213483145701
 21
0.6466292134828962
 31
0.0
  0
LINE
  5
166A3
330
16677
100
AcDbEntity
  8
_0-5__0-3__2-4_
  6
CONTINUOUS
 62
     7
100
AcDbLine
 10
-5.304213483145701
 20
0.6466292134828962
 30
0.0
 11
-3.804213483145759
 21
0.6466292134828962
 31
0.0
  0
LINE
  5
166A4
330
16677
100
AcDbEntity
  8
_0-5__0-3__2-4_
  6
CONTINUOUS
 62
     7
100
AcDbLine
 10
-1.304213483145758
 20
1.74662921348289
 30
0.0
 11
-1.304213483145758
 21
0.6466292134828962
 31
0.0
  0
LINE
  5
166A5
330
16677
100
AcDbEntity
  8
_0-5__0-3__2-4_
  6
CONTINUOUS
 62
     7
100
AcDbLine
 10
-0.3042134831457019
 20
1.74662921348289
 30
0.0
 11
-0.3042134831457019
 21
0.6466292134828962
 31
0.0
  0
LINE
  5
166A6
330
16677
100
AcDbEntity
  8
_0-5__0-3__2-4_
  6
CONTINUOUS
 62
     7
100
AcDbLine
 10
-2.804213483145701
 20
0.6466292134828962
 30
0.0
 11
-1.304213483145758
 21
0.6466292134828962
 31
0.0
  0
LINE
  5
166A7
330
16677
100
AcDbEntity
  8
_0-5__0-3__2-4_
  6
CONTINUOUS
 62
     7
100
AcDbLine
 10
1.195786516854241
 20
1.74662921348289
 30
0.0
 11
1.195786516854241
 21
0.6466292134828962
 31
0.0
  0
LINE
  5
166A8
330
16677
100
AcDbEntity
  8
_0-5__0-3__2-4_
  6
CONTINUOUS
 62
     7
100
AcDbLine
 10
2.195786516854298
 20
1.74662921348289
 30
0.0
 11
2.195786516854298
 21
0.6466292134828962
 31
0.0
  0
LINE
  5
166A9
330
16677
100
AcDbEntity
  8
_0-5__0-3__2-4_
  6
CONTINUOUS
 62
     7
100
AcDbLine
 10
-0.3042134831457019
 20
0.6466292134828962
 30
0.0
 11
1.195786516854241
 21
0.6466292134828962
 31
0.0
  0
LINE
  5
166AA
330
16677
100
AcDbEntity
  8
_0-5__0-3__2-4_
  6
CONTINUOUS
 62
     7
100
AcDbLine
 10
3.69578651685424
 20
1.74662921348289
 30
0.0
 11
3.69578651685424
 21
0.6466292134828962
 31
0.0
  0
LINE
  5
166AB
330
16677
100
AcDbEntity
  8
_0-5__0-3__2-4_
  6
CONTINUOUS
 62
     7
100
AcDbLine
 10
4.695786516854298
 20
1.74662921348289
 30
0.0
 11
4.695786516854298
 21
0.6466292134828962
 31
0.0
  0
LINE
  5
166AC
330
16677
100
AcDbEntity
  8
_0-5__0-3__2-4_
  6
CONTINUOUS
 62
     7
100
AcDbLine
 10
2.195786516854298
 20
0.6466292134828962
 30
0.0
 11
3.69578651685424
 21
0.6466292134828962
 31
0.0
  0
LINE
  5
166AD
330
16677
100
AcDbEntity
  8
_0-5__0-3__2-4_
  6
CONTINUOUS
 62
     7
100
AcDbLine
 10
4.695786516854298
 20
0.6466292134828962
 30
0.0
 11
6.195786516854241
 21
0.6466292134828962
 31
0.0
  0
LINE
  5
166AE
330
16677
100
AcDbEntity
  8
_0-5__0-3__2-4_
  6
CONTINUOUS
 62
     7
100
AcDbLine
 10
-4.854213483145769
 20
3.346629213482884
 30
0.0
 11
-4.854213483145769
 21
4.646629213482924
 31
0.0
  0
LINE
  5
166AF
330
16677
100
AcDbEntity
  8
_0-5__0-3__2-4_
  6
CONTINUOUS
 62
     7
100
AcDbLine
 10
-4.254213483145747
 20
3.346629213482884
 30
0.0
 11
-4.254213483145747
 21
4.646629213482924
 31
0.0
  0
LINE
  5
166B0
330
16677
100
AcDbEntity
  8
_0-5__0-3__2-4_
  6
CONTINUOUS
 62
     7
100
AcDbLine
 10
-4.854213483145769
 20
1.446629213482907
 30
0.0
 11
-4.854213483145769
 21
1.746629213482947
 31
0.0
  0
LINE
  5
166B1
330
16677
100
AcDbEntity
  8
_0-5__0-3__2-4_
  6
CONTINUOUS
 62
     7
100
AcDbLine
 10
-4.254213483145747
 20
1.446629213482907
 30
0.0
 11
-4.254213483145747
 21
1.746629213482947
 31
0.0
  0
LINE
  5
166B2
330
16677
100
AcDbEntity
  8
_0-5__0-3__2-4_
  6
CONTINUOUS
 62
     7
100
AcDbLine
 10
-6.343102372034704
 20
3.346629213482888
 30
0.0
 11
-6.304213483145815
 21
3.396629213482896
 31
0.0
  0
LINE
  5
166B3
330
16677
100
AcDbEntity
  8
_0-5__0-3__2-4_
  6
CONTINUOUS
 62
     7
100
AcDbLine
 10
-5.965324594256905
 20
3.346629213482884
 30
0.0
 11
-6.004213483145804
 21
3.396629213482896
 31
0.0
  0
LINE
  5
166B4
330
16677
100
AcDbEntity
  8
_0-5__0-3__2-4_
  6
CONTINUOUS
 62
     7
100
AcDbLine
 10
-2.35421348314577
 20
3.346629213482884
 30
0.0
 11
-2.35421348314577
 21
4.646629213482924
 31
0.0
  0
LINE
  5
166B5
330
16677
100
AcDbEntity
  8
_0-5__0-3__2-4_
  6
CONTINUOUS
 62
     7
100
AcDbLine
 10
-1.754213483145747
 20
3.346629213482884
 30
0.0
 11
-1.754213483145747
 21
4.646629213482924
 31
0.0
  0
LINE
  5
166B6
330
16677
100
AcDbEntity
  8
_0-5__0-3__2-4_
  6
CONTINUOUS
 62
     7
100
AcDbLine
 10
-2.35421348314577
 20
1.446629213482907
 30
0.0
 11
-2.35421348314577
 21
1.746629213482947
 31
0.0
  0
LINE
  5
166B7
330
16677
100
AcDbEntity
  8
_0-5__0-3__2-4_
  6
CONTINUOUS
 62
     7
100
AcDbLine
 10
-1.754213483145747
 20
1.446629213482907
 30
0.0
 11
-1.754213483145747
 21
1.746629213482947
 31
0.0
  0
LINE
  5
166B8
330
16677
100
AcDbEntity
  8
_0-5__0-3__2-4_
  6
CONTINUOUS
 62
     7
100
AcDbLine
 10
0.1457865168542298
 20
3.346629213482884
 30
0.0
 11
0.1457865168542298
 21
4.646629213482924
 31
0.0
  0
LINE
  5
166B9
330
16677
100
AcDbEntity
  8
_0-5__0-3__2-4_
  6
CONTINUOUS
 62
     7
100
AcDbLine
 10
0.7457865168542524
 20
3.346629213482884
 30
0.0
 11
0.7457865168542524
 21
4.646629213482924
 31
0.0
  0
LINE
  5
166BA
330
16677
100
AcDbEntity
  8
_0-5__0-3__2-4_
  6
CONTINUOUS
 62
     7
100
AcDbLine
 10
0.1457865168542298
 20
1.446629213482907
 30
0.0
 11
0.1457865168542298
 21
1.746629213482947
 31
0.0
  0
LINE
  5
166BB
330
16677
100
AcDbEntity
  8
_0-5__0-3__2-4_
  6
CONTINUOUS
 62
     7
100
AcDbLine
 10
0.7457865168542524
 20
1.446629213482907
 30
0.0
 11
0.7457865168542524
 21
1.746629213482947
 31
0.0
  0
LINE
  5
166BC
330
16677
100
AcDbEntity
  8
_0-5__0-3__2-4_
  6
CONTINUOUS
 62
     7
100
AcDbLine
 10
2.645786516854229
 20
3.346629213482884
 30
0.0
 11
2.645786516854229
 21
4.646629213482924
 31
0.0
  0
LINE
  5
166BD
330
16677
100
AcDbEntity
  8
_0-5__0-3__2-4_
  6
CONTINUOUS
 62
     7
100
AcDbLine
 10
3.245786516854253
 20
3.346629213482884
 30
0.0
 11
3.245786516854253
 21
4.646629213482924
 31
0.0
  0
LINE
  5
166BE
330
16677
100
AcDbEntity
  8
_0-5__0-3__2-4_
  6
CONTINUOUS
 62
     7
100
AcDbLine
 10
2.645786516854229
 20
1.446629213482907
 30
0.0
 11
2.645786516854229
 21
1.746629213482947
 31
0.0
  0
LINE
  5
166BF
330
16677
100
AcDbEntity
  8
_0-5__0-3__2-4_
  6
CONTINUOUS
 62
     7
100
AcDbLine
 10
3.245786516854253
 20
1.446629213482907
 30
0.0
 11
3.245786516854253
 21
1.746629213482947
 31
0.0
  0
LINE
  5
166C0
330
16677
100
AcDbEntity
  8
_0-5__0-3__2-4_
  6
CONTINUOUS
 62
     7
100
AcDbLine
 10
5.145786516854229
 20
3.346629213482884
 30
0.0
 11
5.145786516854229
 21
4.646629213482924
 31
0.0
  0
LINE
  5
166C1
330
16677
100
AcDbEntity
  8
_0-5__0-3__2-4_
  6
CONTINUOUS
 62
     7
100
AcDbLine
 10
5.745786516854252
 20
3.346629213482884
 30
0.0
 11
5.745786516854252
 21
4.646629213482924
 31
0.0
  0
LINE
  5
166C2
330
16677
100
AcDbEntity
  8
_0-5__0-3__2-4_
  6
CONTINUOUS
 62
     7
100
AcDbLine
 10
5.145786516854229
 20
1.446629213482907
 30
0.0
 11
5.145786516854229
 21
1.746629213482947
 31
0.0
  0
LINE
  5
166C3
330
16677
100
AcDbEntity
  8
_0-5__0-3__2-4_
  6
CONTINUOUS
 62
     7
100
AcDbLine
 10
5.745786516854252
 20
1.446629213482907
 30
0.0
 11
5.745786516854252
 21
1.746629213482947
 31
0.0
  0
ENDBLK
  5
166C5
330
16677
100
AcDbEntity
  8
0
100
AcDbBlockEnd
  0
BLOCK
  5
166EF
330
166C6
100
AcDbEntity
  8
0
100
AcDbBlockBegin
  2
-012-53375-0210_A
 70
     0
 10
0.0
 20
0.0
 30
0.0
  3
-012-53375-0210_A
  1

  0
LINE
  5
166C7
330
166C6
100
AcDbEntity
  8
_0-5__0-3__2-4_
  6
CONTINUOUS
 62
     7
100
AcDbLine
 10
-3.381944444444286
 20
-8.482407407407405
 30
0.0
 11
-3.381944444444286
 21
3.017592592592592
 31
0.0
  0
LINE
  5
166C8
330
166C6
100
AcDbEntity
  8
_0-5__0-3__2-4_
  6
CONTINUOUS
 62
     7
100
AcDbLine
 10
-3.381944444444286
 20
3.017592592592592
 30
0.0
 11
-2.381944444444286
 21
3.017592592592592
 31
0.0
  0
LINE
  5
166C9
330
166C6
100
AcDbEntity
  8
_0-5__0-3__2-4_
  6
CONTINUOUS
 62
     7
100
AcDbLine
 10
-1.081944444444275
 20
6.417592592592626
 30
0.0
 11
-0.7819444444442638
 21
6.417592592592626
 31
0.0
  0
LINE
  5
166CA
330
166C6
100
AcDbEntity
  8
_0-5__0-3__2-4_
  6
CONTINUOUS
 62
     7
100
AcDbLine
 10
-1.081944444444275
 20
6.417592592592626
 30
0.0
 11
-1.231944444444309
 21
5.917592592592626
 31
0.0
  0
LINE
  5
166CB
330
166C6
100
AcDbEntity
  8
_0-5__0-3__2-4_
  6
CONTINUOUS
 62
     7
100
AcDbLine
 10
-0.7819444444442638
 20
6.417592592592626
 30
0.0
 11
-0.6319444444442866
 21
5.917592592592626
 31
0.0
  0
LINE
  5
166CC
330
166C6
100
AcDbEntity
  8
_0-5__0-3__2-4_
  6
CONTINUOUS
 62
     7
100
AcDbLine
 10
-2.381944444444343
 20
4.667592592592598
 30
0.0
 11
-2.681944444444354
 21
4.667592592592598
 31
0.0
  0
LINE
  5
166CD
330
166C6
100
AcDbEntity
  8
_0-5__0-3__2-4_
  6
CONTINUOUS
 62
     7
100
AcDbLine
 10
-2.831944444444275
 20
3.017592592592592
 30
0.0
 11
-1.681944444444241
 21
3.017592592592592
 31
0.0
  0
LINE
  5
166CE
330
166C6
100
AcDbEntity
  8
_0-5__0-3__2-4_
  6
CONTINUOUS
 62
     7
100
AcDbLine
 10
-0.1819444444442978
 20
2.717592592592608
 30
0.0
 11
-1.681944444444241
 21
2.717592592592608
 31
0.0
  0
LINE
  5
166CF
330
166C6
100
AcDbEntity
  8
_0-5__0-3__2-4_
  6
CONTINUOUS
 62
     7
100
AcDbLine
 10
-1.681944444444241
 20
1.917592592592598
 30
0.0
 11
-1.681944444444241
 21
3.017592592592592
 31
0.0
  0
LINE
  5
166D0
330
166C6
100
AcDbEntity
  8
_0-5__0-3__2-4_
  6
CONTINUOUS
 62
     7
100
AcDbLine
 10
-1.381944444444286
 20
-8.482407407407405
 30
0.0
 11
-3.381944444444286
 21
-8.482407407407405
 31
0.0
  0
LINE
  5
166D1
330
166C6
100
AcDbEntity
  8
_0-5__0-3__2-4_
  6
CONTINUOUS
 62
     7
100
AcDbLine
 10
-1.381944444444286
 20
-8.482407407407405
 30
0.0
 11
-0.8819444444442865
 21
-7.982407407407406
 31
0.0
  0
LINE
  5
166D2
330
166C6
100
AcDbEntity
  8
_0-5__0-3__2-4_
  6
CONTINUOUS
 62
     7
100
AcDbLine
 10
-0.8819444444442865
 20
-6.982407407407407
 30
0.0
 11
-0.8819444444442865
 21
-7.982407407407406
 31
0.0
  0
ARC
  5
166D3
330
166C6
100
AcDbEntity
  8
_0-5__0-3__2-4_
  6
CONTINUOUS
 62
     7
100
AcDbCircle
 10
-0.3819444444442863
 20
-6.982407407407407
 30
0.0
 40
0.5
100
AcDbArc
 50
90.0
 51
180.0
  0
LINE
  5
166D4
330
166C6
100
AcDbEntity
  8
_0-5__0-3__2-4_
  6
CONTINUOUS
 62
     7
100
AcDbLine
 10
4.01805555555569
 20
-8.482407407407405
 30
0.0
 11
4.01805555555569
 21
3.017592592592592
 31
0.0
  0
LINE
  5
166D5
330
166C6
100
AcDbEntity
  8
_0-5__0-3__2-4_
  6
CONTINUOUS
 62
     7
100
AcDbLine
 10
1.418055555555724
 20
6.417592592592626
 30
0.0
 11
1.718055555555736
 21
6.417592592592626
 31
0.0
  0
LINE
  5
166D6
330
166C6
100
AcDbEntity
  8
_0-5__0-3__2-4_
  6
CONTINUOUS
 62
     7
100
AcDbLine
 10
1.418055555555724
 20
6.417592592592626
 30
0.0
 11
1.26805555555569
 21
5.917592592592626
 31
0.0
  0
LINE
  5
166D7
330
166C6
100
AcDbEntity
  8
_0-5__0-3__2-4_
  6
CONTINUOUS
 62
     7
100
AcDbLine
 10
1.718055555555736
 20
6.417592592592626
 30
0.0
 11
1.868055555555713
 21
5.917592592592626
 31
0.0
  0
LINE
  5
166D8
330
166C6
100
AcDbEntity
  8
_0-5__0-3__2-4_
  6
CONTINUOUS
 62
     7
100
AcDbLine
 10
-0.1819444444442978
 20
3.017592592592592
 30
0.0
 11
0.8180555555557589
 21
3.017592592592592
 31
0.0
  0
LINE
  5
166D9
330
166C6
100
AcDbEntity
  8
_0-5__0-3__2-4_
  6
CONTINUOUS
 62
     7
100
AcDbLine
 10
2.318055555555702
 20
3.017592592592592
 30
0.0
 11
4.018055555555747
 21
3.017592592592592
 31
0.0
  0
LINE
  5
166DA
330
166C6
100
AcDbEntity
  8
_0-5__0-3__2-4_
  6
CONTINUOUS
 62
     7
100
AcDbLine
 10
0.8180555555557589
 20
2.717592592592608
 30
0.0
 11
2.318055555555702
 21
2.717592592592608
 31
0.0
  0
LINE
  5
166DB
330
166C6
100
AcDbEntity
  8
_0-5__0-3__2-4_
  6
CONTINUOUS
 62
     7
100
AcDbLine
 10
2.318055555555702
 20
1.917592592592598
 30
0.0
 11
2.318055555555702
 21
3.017592592592592
 31
0.0
  0
LINE
  5
166DC
330
166C6
100
AcDbEntity
  8
_0-5__0-3__2-4_
  6
CONTINUOUS
 62
     7
100
AcDbLine
 10
2.01805555555569
 20
-8.482407407407405
 30
0.0
 11
4.01805555555569
 21
-8.482407407407405
 31
0.0
  0
LINE
  5
166DD
330
166C6
100
AcDbEntity
  8
_0-5__0-3__2-4_
  6
CONTINUOUS
 62
     7
100
AcDbLine
 10
1.51805555555569
 20
-7.982407407407406
 30
0.0
 11
2.01805555555569
 21
-8.482407407407405
 31
0.0
  0
LINE
  5
166DE
330
166C6
100
AcDbEntity
  8
_0-5__0-3__2-4_
  6
CONTINUOUS
 62
     7
100
AcDbLine
 10
1.51805555555569
 20
-6.982407407407407
 30
0.0
 11
1.51805555555569
 21
-7.982407407407406
 31
0.0
  0
ARC
  5
166DF
330
166C6
100
AcDbEntity
  8
_0-5__0-3__2-4_
  6
CONTINUOUS
 62
     7
100
AcDbCircle
 10
1.01805555555569
 20
-6.982407407407407
 30
0.0
 40
0.5
100
AcDbArc
 50
0.0
 51
90.0
  0
LINE
  5
166E0
330
166C6
100
AcDbEntity
  8
_0-5__0-3__2-4_
  6
CONTINUOUS
 62
     7
100
AcDbLine
 10
1.01805555555569
 20
-6.482407407407407
 30
0.0
 11
-0.3819444444442863
 21
-6.482407407407407
 31
0.0
  0
LINE
  5
166E1
330
166C6
100
AcDbEntity
  8
_0-5__0-3__2-4_
  6
CONTINUOUS
 62
     7
100
AcDbLine
 10
-0.1819444444442978
 20
3.017592592592592
 30
0.0
 11
-0.1819444444442978
 21
1.917592592592598
 31
0.0
  0
LINE
  5
166E2
330
166C6
100
AcDbEntity
  8
_0-5__0-3__2-4_
  6
CONTINUOUS
 62
     7
100
AcDbLine
 10
0.8180555555557589
 20
3.017592592592592
 30
0.0
 11
0.8180555555557589
 21
1.917592592592598
 31
0.0
  0
LINE
  5
166E3
330
166C6
100
AcDbEntity
  8
_0-5__0-3__2-4_
  6
CONTINUOUS
 62
     7
100
AcDbLine
 10
-1.681944444444241
 20
1.917592592592598
 30
0.0
 11
-0.1819444444442978
 21
1.917592592592598
 31
0.0
  0
LINE
  5
166E4
330
166C6
100
AcDbEntity
  8
_0-5__0-3__2-4_
  6
CONTINUOUS
 62
     7
100
AcDbLine
 10
0.8180555555557589
 20
1.917592592592598
 30
0.0
 11
2.318055555555702
 21
1.917592592592598
 31
0.0
  0
LINE
  5
166E5
330
166C6
100
AcDbEntity
  8
_0-5__0-3__2-4_
  6
CONTINUOUS
 62
     7
100
AcDbLine
 10
-2.720833333333225
 20
4.617592592592615
 30
0.0
 11
-2.681944444444354
 21
4.667592592592598
 31
0.0
  0
LINE
  5
166E6
330
166C6
100
AcDbEntity
  8
_0-5__0-3__2-4_
  6
CONTINUOUS
 62
     7
100
AcDbLine
 10
-2.343055555555466
 20
4.617592592592615
 30
0.0
 11
-2.381944444444343
 21
4.667592592592598
 31
0.0
  0
LINE
  5
166E7
330
166C6
100
AcDbEntity
  8
_0-5__0-3__2-4_
  6
CONTINUOUS
 62
     7
100
AcDbLine
 10
-1.231944444444309
 20
2.717592592592608
 30
0.0
 11
-1.231944444444309
 21
3.017592592592677
 31
0.0
  0
LINE
  5
166E8
330
166C6
100
AcDbEntity
  8
_0-5__0-3__2-4_
  6
CONTINUOUS
 62
     7
100
AcDbLine
 10
-1.231944444444309
 20
4.617592592592615
 30
0.0
 11
-1.231944444444309
 21
5.917592592592626
 31
0.0
  0
LINE
  5
166E9
330
166C6
100
AcDbEntity
  8
_0-5__0-3__2-4_
  6
CONTINUOUS
 62
     7
100
AcDbLine
 10
-0.6319444444442866
 20
2.717592592592608
 30
0.0
 11
-0.6319444444442866
 21
3.017592592592677
 31
0.0
  0
LINE
  5
166EA
330
166C6
100
AcDbEntity
  8
_0-5__0-3__2-4_
  6
CONTINUOUS
 62
     7
100
AcDbLine
 10
-0.6319444444442866
 20
4.617592592592615
 30
0.0
 11
-0.6319444444442866
 21
5.917592592592626
 31
0.0
  0
LINE
  5
166EB
330
166C6
100
AcDbEntity
  8
_0-5__0-3__2-4_
  6
CONTINUOUS
 62
     7
100
AcDbLine
 10
1.26805555555569
 20
2.717592592592608
 30
0.0
 11
1.26805555555569
 21
3.017592592592677
 31
0.0
  0
LINE
  5
166EC
330
166C6
100
AcDbEntity
  8
_0-5__0-3__2-4_
  6
CONTINUOUS
 62
     7
100
AcDbLine
 10
1.26805555555569
 20
4.617592592592615
 30
0.0
 11
1.26805555555569
 21
5.917592592592626
 31
0.0
  0
LINE
  5
166ED
330
166C6
100
AcDbEntity
  8
_0-5__0-3__2-4_
  6
CONTINUOUS
 62
     7
100
AcDbLine
 10
1.868055555555713
 20
2.717592592592608
 30
0.0
 11
1.868055555555713
 21
3.017592592592677
 31
0.0
  0
LINE
  5
166EE
330
166C6
100
AcDbEntity
  8
_0-5__0-3__2-4_
  6
CONTINUOUS
 62
     7
100
AcDbLine
 10
1.868055555555713
 20
4.617592592592615
 30
0.0
 11
1.868055555555713
 21
5.917592592592626
 31
0.0
  0
ENDBLK
  5
166F0
330
166C6
100
AcDbEntity
  8
0
100
AcDbBlockEnd
  0
BLOCK
  5
16715
330
166F1
100
AcDbEntity
  8
0
100
AcDbBlockBegin
  2
-013-53375-0510_B
 70
     0
 10
0.0
 20
0.0
 30
0.0
  3
-013-53375-0510_B
  1

  0
LINE
  5
166F2
330
166F1
100
AcDbEntity
  8
_0-5__0-3__2-4_
  6
CONTINUOUS
 62
     7
100
AcDbLine
 10
-5.914406779661135
 20
1.596610169491583
 30
0.0
 11
-4.414406779661135
 21
1.596610169491583
 31
0.0
  0
LINE
  5
166F3
330
166F1
100
AcDbEntity
  8
_0-5__0-3__2-4_
  6
CONTINUOUS
 62
     7
100
AcDbLine
 10
7.285593220338852
 20
1.596610169491583
 30
0.0
 11
5.785593220338852
 21
1.596610169491583
 31
0.0
  0
LINE
  5
166F4
330
166F1
100
AcDbEntity
  8
_0-5__0-3__2-4_
  6
CONTINUOUS
 62
     7
100
AcDbLine
 10
-6.764406779661157
 20
2.296610169491572
 30
0.0
 11
-6.764406779661157
 21
-4.403389830508416
 31
0.0
  0
LINE
  5
166F5
330
166F1
100
AcDbEntity
  8
_0-5__0-3__2-4_
  6
CONTINUOUS
 62
     7
100
AcDbLine
 10
8.135593220338876
 20
2.296610169491572
 30
0.0
 11
8.135593220338876
 21
-4.403389830508416
 31
0.0
  0
LINE
  5
166F6
330
166F1
100
AcDbEntity
  8
_0-5__0-3__2-4_
  6
CONTINUOUS
 62
     7
100
AcDbLine
 10
-4.914406779661135
 20
0.8966101694915662
 30
0.0
 11
-4.914406779661135
 21
1.596610169491583
 31
0.0
  0
LINE
  5
166F7
330
166F1
100
AcDbEntity
  8
_0-5__0-3__2-4_
  6
CONTINUOUS
 62
     7
100
AcDbLine
 10
6.285593220338852
 20
0.8966101694915662
 30
0.0
 11
6.285593220338852
 21
1.596610169491583
 31
0.0
  0
LINE
  5
166F8
330
166F1
100
AcDbEntity
  8
_0-5__0-3__2-4_
  6
CONTINUOUS
 62
     7
100
AcDbLine
 10
-4.914406779661135
 20
0.8966101694915662
 30
0.0
 11
6.285593220338852
 21
0.8966101694915662
 31
0.0
  0
LINE
  5
166F9
330
166F1
100
AcDbEntity
  8
_0-5__0-3__2-4_
  6
CONTINUOUS
 62
     7
100
AcDbLine
 10
-6.764406779661157
 20
-4.103389830508433
 30
0.0
 11
-6.764406779661157
 21
-4.403389830508416
 31
0.0
  0
LINE
  5
166FA
330
166F1
100
AcDbEntity
  8
_0-5__0-3__2-4_
  6
CONTINUOUS
 62
     7
100
AcDbLine
 10
-4.414406779661135
 20
1.396610169491566
 30
0.0
 11
5.785593220338852
 21
1.396610169491566
 31
0.0
  0
LINE
  5
166FB
330
166F1
100
AcDbEntity
  8
_0-5__0-3__2-4_
  6
CONTINUOUS
 62
     7
100
AcDbLine
 10
-4.414406779661135
 20
1.396610169491566
 30
0.0
 11
-4.414406779661135
 21
2.296610169491572
 31
0.0
  0
LINE
  5
166FC
330
166F1
100
AcDbEntity
  8
_0-5__0-3__2-4_
  6
CONTINUOUS
 62
     7
100
AcDbLine
 10
5.785593220338852
 20
2.296610169491572
 30
0.0
 11
5.785593220338852
 21
1.396610169491566
 31
0.0
  0
CIRCLE
  5
166FD
330
166F1
100
AcDbEntity
  8
_0-5__0-3__2-4_
  6
CONTINUOUS
 62
     7
100
AcDbCircle
 10
-4.314406779661169
 20
-1.003389830508439
 30
0.0
 40
0.25
  0
CIRCLE
  5
166FE
330
166F1
100
AcDbEntity
  8
_0-5__0-3__2-4_
  6
CONTINUOUS
 62
     7
100
AcDbCircle
 10
-1.814406779661169
 20
-1.003389830508439
 30
0.0
 40
0.25
  0
CIRCLE
  5
166FF
330
166F1
100
AcDbEntity
  8
_0-5__0-3__2-4_
  6
CONTINUOUS
 62
     7
100
AcDbCircle
 10
0.6855932203388307
 20
-1.003389830508439
 30
0.0
 40
0.25
  0
CIRCLE
  5
16700
330
166F1
100
AcDbEntity
  8
_0-5__0-3__2-4_
  6
CONTINUOUS
 62
     7
100
AcDbCircle
 10
3.18559322033883
 20
-1.003389830508439
 30
0.0
 40
0.25
  0
CIRCLE
  5
16701
330
166F1
100
AcDbEntity
  8
_0-5__0-3__2-4_
  6
CONTINUOUS
 62
     7
100
AcDbCircle
 10
5.685593220338831
 20
-1.003389830508439
 30
0.0
 40
0.25
  0
LINE
  5
16702
330
166F1
100
AcDbEntity
  8
_0-5__0-3__2-4_
  6
CONTINUOUS
 62
     7
100
AcDbLine
 10
7.285593220338852
 20
-3.703389830508427
 30
0.0
 11
-5.914406779661135
 21
-3.703389830508427
 31
0.0
  0
LINE
  5
16703
330
166F1
100
AcDbEntity
  8
_0-5__0-3__2-4_
  6
CONTINUOUS
 62
     7
100
AcDbLine
 10
-6.764406779661157
 20
-4.403389830508416
 30
0.0
 11
8.135593220338876
 21
-4.403389830508416
 31
0.0
  0
LINE
  5
16704
330
166F1
100
AcDbEntity
  8
_0-5__0-3__2-4_
  6
CONTINUOUS
 62
     7
100
AcDbLine
 10
-5.914406779661135
 20
-3.703389830508427
 30
0.0
 11
-5.914406779661135
 21
1.596610169491583
 31
0.0
  0
LINE
  5
16705
330
166F1
100
AcDbEntity
  8
_0-5__0-3__2-4_
  6
CONTINUOUS
 62
     7
100
AcDbLine
 10
7.285593220338852
 20
-3.703389830508427
 30
0.0
 11
7.285593220338852
 21
1.596610169491583
 31
0.0
  0
LINE
  5
16706
330
166F1
100
AcDbEntity
  8
_0-5__0-3__2-4_
  6
CONTINUOUS
 62
     7
100
AcDbLine
 10
-6.764406779661157
 20
2.296610169491572
 30
0.0
 11
-3.7644067796611
 21
2.296610169491572
 31
0.0
  0
LINE
  5
16707
330
166F1
100
AcDbEntity
  8
_0-5__0-3__2-4_
  6
CONTINUOUS
 62
     7
100
AcDbLine
 10
-3.564406779661112
 20
1.99661016949156
 30
0.0
 11
-2.064406779661112
 21
1.99661016949156
 31
0.0
  0
LINE
  5
16708
330
166F1
100
AcDbEntity
  8
_0-5__0-3__2-4_
  6
CONTINUOUS
 62
     7
100
AcDbLine
 10
-3.564406779661112
 20
1.396610169491566
 30
0.0
 11
-3.564406779661112
 21
1.99661016949156
 31
0.0
  0
LINE
  5
16709
330
166F1
100
AcDbEntity
  8
_0-5__0-3__2-4_
  6
CONTINUOUS
 62
     7
100
AcDbLine
 10
-2.064406779661112
 20
1.396610169491566
 30
0.0
 11
-2.064406779661112
 21
1.99661016949156
 31
0.0
  0
LINE
  5
1670A
330
166F1
100
AcDbEntity
  8
_0-5__0-3__2-4_
  6
CONTINUOUS
 62
     7
100
AcDbLine
 10
3.435593220338887
 20
1.396610169491566
 30
0.0
 11
3.435593220338887
 21
1.99661016949156
 31
0.0
  0
LINE
  5
1670B
330
166F1
100
AcDbEntity
  8
_0-5__0-3__2-4_
  6
CONTINUOUS
 62
     7
100
AcDbLine
 10
4.935593220338888
 20
1.396610169491566
 30
0.0
 11
4.935593220338888
 21
1.99661016949156
 31
0.0
  0
LINE
  5
1670C
330
166F1
100
AcDbEntity
  8
_0-5__0-3__2-4_
  6
CONTINUOUS
 62
     7
100
AcDbLine
 10
5.135593220338876
 20
1.396610169491566
 30
0.0
 11
5.135593220338876
 21
2.296610169491572
 31
0.0
  0
LINE
  5
1670D
330
166F1
100
AcDbEntity
  8
_0-5__0-3__2-4_
  6
CONTINUOUS
 62
     7
100
AcDbLine
 10
3.235593220338898
 20
1.396610169491566
 30
0.0
 11
3.235593220338898
 21
2.296610169491572
 31
0.0
  0
LINE
  5
1670E
330
166F1
100
AcDbEntity
  8
_0-5__0-3__2-4_
  6
CONTINUOUS
 62
     7
100
AcDbLine
 10
-1.864406779661123
 20
1.396610169491566
 30
0.0
 11
-1.864406779661123
 21
2.296610169491572
 31
0.0
  0
LINE
  5
1670F
330
166F1
100
AcDbEntity
  8
_0-5__0-3__2-4_
  6
CONTINUOUS
 62
     7
100
AcDbLine
 10
-3.7644067796611
 20
1.396610169491566
 30
0.0
 11
-3.7644067796611
 21
2.296610169491572
 31
0.0
  0
LINE
  5
16710
330
166F1
100
AcDbEntity
  8
_0-5__0-3__2-4_
  6
CONTINUOUS
 62
     7
100
AcDbLine
 10
-1.864406779661123
 20
2.296610169491572
 30
0.0
 11
3.235593220338898
 21
2.296610169491572
 31
0.0
  0
LINE
  5
16711
330
166F1
100
AcDbEntity
  8
_0-5__0-3__2-4_
  6
CONTINUOUS
 62
     7
100
AcDbLine
 10
8.135593220338876
 20
2.296610169491572
 30
0.0
 11
5.135593220338876
 21
2.296610169491572
 31
0.0
  0
LINE
  5
16712
330
166F1
100
AcDbEntity
  8
_0-5__0-3__2-4_
  6
CONTINUOUS
 62
     7
100
AcDbLine
 10
3.435593220338887
 20
1.99661016949156
 30
0.0
 11
4.935593220338888
 21
1.99661016949156
 31
0.0
  0
LINE
  5
16713
330
166F1
100
AcDbEntity
  8
_0-5__0-3__2-4_
  6
CONTINUOUS
 62
     7
100
AcDbLine
 10
-5.914406779661135
 20
1.196610169491549
 30
0.0
 11
-4.914406779661135
 21
1.196610169491549
 31
0.0
  0
LINE
  5
16714
330
166F1
100
AcDbEntity
  8
_0-5__0-3__2-4_
  6
CONTINUOUS
 62
     7
100
AcDbLine
 10
-5.914406779661135
 20
1.196610169491549
 30
0.0
 11
-5.914406779661135
 21
0.1966101694915494
 31
0.0
  0
ENDBLK
  5
16716
330
166F1
100
AcDbEntity
  8
0
100
AcDbBlockEnd
  0
BLOCK
  5
16732
330
16717
100
AcDbEntity
  8
0
100
AcDbBlockBegin
  2
-014-53375-0210_B
 70
     0
 10
0.0
 20
0.0
 30
0.0
  3
-014-53375-0210_B
  1

  0
LINE
  5
16718
330
16717
100
AcDbEntity
  8
_0-5__0-3__2-4_
  6
CONTINUOUS
 62
     7
100
AcDbLine
 10
-2.377631578947443
 20
1.500000000000085
 30
0.0
 11
-0.8776315789474438
 21
1.500000000000085
 31
0.0
  0
LINE
  5
16719
330
16717
100
AcDbEntity
  8
_0-5__0-3__2-4_
  6
CONTINUOUS
 62
     7
100
AcDbLine
 10
-3.227631578947466
 20
2.200000000000073
 30
0.0
 11
-3.227631578947466
 21
-4.499999999999914
 31
0.0
  0
LINE
  5
1671A
330
16717
100
AcDbEntity
  8
_0-5__0-3__2-4_
  6
CONTINUOUS
 62
     7
100
AcDbLine
 10
-1.377631578947443
 20
0.8000000000000682
 30
0.0
 11
-1.377631578947443
 21
1.500000000000085
 31
0.0
  0
LINE
  5
1671B
330
16717
100
AcDbEntity
  8
_0-5__0-3__2-4_
  6
CONTINUOUS
 62
     7
100
AcDbLine
 10
-3.227631578947466
 20
-4.199999999999931
 30
0.0
 11
-3.227631578947466
 21
-4.499999999999914
 31
0.0
  0
LINE
  5
1671C
330
16717
100
AcDbEntity
  8
_0-5__0-3__2-4_
  6
CONTINUOUS
 62
     7
100
AcDbLine
 10
-0.8776315789474438
 20
1.300000000000068
 30
0.0
 11
-0.8776315789474438
 21
2.200000000000073
 31
0.0
  0
CIRCLE
  5
1671D
330
16717
100
AcDbEntity
  8
_0-5__0-3__2-4_
  6
CONTINUOUS
 62
     7
100
AcDbCircle
 10
-0.777631578947478
 20
-1.099999999999937
 30
0.0
 40
0.25
  0
LINE
  5
1671E
330
16717
100
AcDbEntity
  8
_0-5__0-3__2-4_
  6
CONTINUOUS
 62
     7
100
AcDbLine
 10
-2.377631578947443
 20
-3.799999999999926
 30
0.0
 11
-2.377631578947443
 21
1.500000000000085
 31
0.0
  0
LINE
  5
1671F
330
16717
100
AcDbEntity
  8
_0-5__0-3__2-4_
  6
CONTINUOUS
 62
     7
100
AcDbLine
 10
-3.227631578947466
 20
2.200000000000073
 30
0.0
 11
-0.2276315789474097
 21
2.200000000000073
 31
0.0
  0
LINE
  5
16720
330
16717
100
AcDbEntity
  8
_0-5__0-3__2-4_
  6
CONTINUOUS
 62
     7
100
AcDbLine
 10
-0.027631578947421
 20
1.300000000000068
 30
0.0
 11
-0.027631578947421
 21
1.900000000000062
 31
0.0
  0
LINE
  5
16721
330
16717
100
AcDbEntity
  8
_0-5__0-3__2-4_
  6
CONTINUOUS
 62
     7
100
AcDbLine
 10
-0.2276315789474097
 20
1.300000000000068
 30
0.0
 11
-0.2276315789474097
 21
2.200000000000073
 31
0.0
  0
LINE
  5
16722
330
16717
100
AcDbEntity
  8
_0-5__0-3__2-4_
  6
CONTINUOUS
 62
     7
100
AcDbLine
 10
-2.377631578947443
 20
1.100000000000051
 30
0.0
 11
-1.377631578947443
 21
1.100000000000051
 31
0.0
  0
LINE
  5
16723
330
16717
100
AcDbEntity
  8
_0-5__0-3__2-4_
  6
CONTINUOUS
 62
     7
100
AcDbLine
 10
-2.377631578947443
 20
1.100000000000051
 30
0.0
 11
-2.377631578947443
 21
0.1000000000000511
 31
0.0
  0
LINE
  5
16724
330
16717
100
AcDbEntity
  8
_0-5__0-3__2-4_
  6
CONTINUOUS
 62
     7
100
AcDbLine
 10
3.322368421052544
 20
1.500000000000085
 30
0.0
 11
1.822368421052544
 21
1.500000000000085
 31
0.0
  0
LINE
  5
16725
330
16717
100
AcDbEntity
  8
_0-5__0-3__2-4_
  6
CONTINUOUS
 62
     7
100
AcDbLine
 10
4.172368421052568
 20
2.200000000000073
 30
0.0
 11
4.172368421052568
 21
-4.499999999999914
 31
0.0
  0
LINE
  5
16726
330
16717
100
AcDbEntity
  8
_0-5__0-3__2-4_
  6
CONTINUOUS
 62
     7
100
AcDbLine
 10
2.322368421052544
 20
0.8000000000000682
 30
0.0
 11
2.322368421052544
 21
1.500000000000085
 31
0.0
  0
LINE
  5
16727
330
16717
100
AcDbEntity
  8
_0-5__0-3__2-4_
  6
CONTINUOUS
 62
     7
100
AcDbLine
 10
1.822368421052544
 20
2.200000000000073
 30
0.0
 11
1.822368421052544
 21
1.300000000000068
 31
0.0
  0
CIRCLE
  5
16728
330
16717
100
AcDbEntity
  8
_0-5__0-3__2-4_
  6
CONTINUOUS
 62
     7
100
AcDbCircle
 10
1.722368421052522
 20
-1.099999999999937
 30
0.0
 40
0.25
  0
LINE
  5
16729
330
16717
100
AcDbEntity
  8
_0-5__0-3__2-4_
  6
CONTINUOUS
 62
     7
100
AcDbLine
 10
3.322368421052544
 20
-3.799999999999926
 30
0.0
 11
3.322368421052544
 21
1.500000000000085
 31
0.0
  0
LINE
  5
1672A
330
16717
100
AcDbEntity
  8
_0-5__0-3__2-4_
  6
CONTINUOUS
 62
     7
100
AcDbLine
 10
0.9723684210525787
 20
1.300000000000068
 30
0.0
 11
0.9723684210525787
 21
1.900000000000062
 31
0.0
  0
LINE
  5
1672B
330
16717
100
AcDbEntity
  8
_0-5__0-3__2-4_
  6
CONTINUOUS
 62
     7
100
AcDbLine
 10
1.172368421052567
 20
1.300000000000068
 30
0.0
 11
1.172368421052567
 21
2.200000000000073
 31
0.0
  0
LINE
  5
1672C
330
16717
100
AcDbEntity
  8
_0-5__0-3__2-4_
  6
CONTINUOUS
 62
     7
100
AcDbLine
 10
4.172368421052568
 20
2.200000000000073
 30
0.0
 11
1.172368421052567
 21
2.200000000000073
 31
0.0
  0
LINE
  5
1672D
330
16717
100
AcDbEntity
  8
_0-5__0-3__2-4_
  6
CONTINUOUS
 62
     7
100
AcDbLine
 10
-0.027631578947421
 20
1.900000000000062
 30
0.0
 11
0.9723684210525787
 21
1.900000000000062
 31
0.0
  0
LINE
  5
1672E
330
16717
100
AcDbEntity
  8
_0-5__0-3__2-4_
  6
CONTINUOUS
 62
     7
100
AcDbLine
 10
-0.8776315789474438
 20
1.300000000000068
 30
0.0
 11
1.822368421052544
 21
1.300000000000068
 31
0.0
  0
LINE
  5
1672F
330
16717
100
AcDbEntity
  8
_0-5__0-3__2-4_
  6
CONTINUOUS
 62
     7
100
AcDbLine
 10
-1.377631578947443
 20
0.8000000000000682
 30
0.0
 11
2.322368421052544
 21
0.8000000000000682
 31
0.0
  0
LINE
  5
16730
330
16717
100
AcDbEntity
  8
_0-5__0-3__2-4_
  6
CONTINUOUS
 62
     7
100
AcDbLine
 10
3.322368421052544
 20
-3.799999999999926
 30
0.0
 11
-2.377631578947443
 21
-3.799999999999926
 31
0.0
  0
LINE
  5
16731
330
16717
100
AcDbEntity
  8
_0-5__0-3__2-4_
  6
CONTINUOUS
 62
     7
100
AcDbLine
 10
-3.227631578947466
 20
-4.499999999999914
 30
0.0
 11
4.172368421052568
 21
-4.499999999999914
 31
0.0
  0
ENDBLK
  5
16733
330
16717
100
AcDbEntity
  8
0
100
AcDbBlockEnd
  0
BLOCK
  5
16744
330
16734
100
AcDbEntity
  8
0
100
AcDbBlockBegin
  2
-015-53375_C_2_
 70
     0
 10
0.0
 20
0.0
 30
0.0
  3
-015-53375_C_2_
  1

  0
LINE
  5
16735
330
16734
100
AcDbEntity
  8
_0-5__0-3__2-4_
  6
CONTINUOUS
 62
     7
100
AcDbLine
 10
-9.363888888888881
 20
-3.75
 30
0.0
 11
2.136111111111119
 21
-3.75
 31
0.0
  0
LINE
  5
16736
330
16734
100
AcDbEntity
  8
_0-5__0-3__2-4_
  6
CONTINUOUS
 62
     7
100
AcDbLine
 10
5.536111111111097
 20
-0.5000000000000285
 30
0.0
 11
5.536111111111097
 21
-0.1999999999999602
 31
0.0
  0
LINE
  5
16737
330
16734
100
AcDbEntity
  8
_0-5__0-3__2-4_
  6
CONTINUOUS
 62
     7
100
AcDbLine
 10
5.536111111111097
 20
-0.5000000000000285
 30
0.0
 11
5.036111111111097
 21
-0.6500000000000054
 31
0.0
  0
LINE
  5
16738
330
16734
100
AcDbEntity
  8
_0-5__0-3__2-4_
  6
CONTINUOUS
 62
     7
100
AcDbLine
 10
5.536111111111097
 20
-0.1999999999999602
 30
0.0
 11
5.036111111111097
 21
-0.0499999999999828
 31
0.0
  0
LINE
  5
16739
330
16734
100
AcDbEntity
  8
_0-5__0-3__2-4_
  6
CONTINUOUS
 62
     7
100
AcDbLine
 10
-9.363888888888881
 20
-2.25
 30
0.0
 11
-9.363888888888881
 21
-3.75
 31
0.0
  0
LINE
  5
1673A
330
16734
100
AcDbEntity
  8
_0-5__0-3__2-4_
  6
CONTINUOUS
 62
     7
100
AcDbLine
 10
-8.863888888888881
 20
-1.75
 30
0.0
 11
-6.36388888888888
 21
-1.75
 31
0.0
  0
LINE
  5
1673B
330
16734
100
AcDbEntity
  8
_0-5__0-3__2-4_
  6
CONTINUOUS
 62
     7
100
AcDbLine
 10
-9.363888888888881
 20
-2.25
 30
0.0
 11
-8.863888888888881
 21
-1.75
 31
0.0
  0
LINE
  5
1673C
330
16734
100
AcDbEntity
  8
_0-5__0-3__2-4_
  6
CONTINUOUS
 62
     7
100
AcDbLine
 10
3.786111111111153
 20
1.699999999999988
 30
0.0
 11
3.786111111111153
 21
2.0
 31
0.0
  0
LINE
  5
1673D
330
16734
100
AcDbEntity
  8
_0-5__0-3__2-4_
  6
CONTINUOUS
 62
     7
100
AcDbLine
 10
3.736111111111108
 20
2.038888888888916
 30
0.0
 11
3.786111111111153
 21
2.0
 31
0.0
  0
LINE
  5
1673E
330
16734
100
AcDbEntity
  8
_0-5__0-3__2-4_
  6
CONTINUOUS
 62
     7
100
AcDbLine
 10
3.736111111111108
 20
1.661111111111066
 30
0.0
 11
3.786111111111153
 21
1.699999999999988
 31
0.0
  0
LINE
  5
1673F
330
16734
100
AcDbEntity
  8
_0-5__0-3__2-4_
  6
CONTINUOUS
 62
     7
100
AcDbLine
 10
3.736111111111111
 20
-0.0499999999999828
 30
0.0
 11
5.036111111111097
 21
-0.0499999999999828
 31
0.0
  0
LINE
  5
16740
330
16734
100
AcDbEntity
  8
_0-5__0-3__2-4_
  6
CONTINUOUS
 62
     7
100
AcDbLine
 10
3.736111111111112
 20
-0.6500000000000054
 30
0.0
 11
5.036111111111097
 21
-0.6500000000000054
 31
0.0
  0
LINE
  5
16741
330
16734
100
AcDbEntity
  8
_0-5__0-3__2-4_
  6
CONTINUOUS
 62
     7
100
AcDbLine
 10
-6.36388888888888
 20
2.95000000000003
 30
0.0
 11
2.136111111111119
 21
2.95000000000003
 31
0.0
  0
LINE
  5
16742
330
16734
100
AcDbEntity
  8
_0-5__0-3__2-4_
  6
CONTINUOUS
 62
     7
100
AcDbLine
 10
-6.36388888888888
 20
-1.75
 30
0.0
 11
-6.36388888888888
 21
2.95000000000003
 31
0.0
  0
LINE
  5
16743
330
16734
100
AcDbEntity
  8
_0-5__0-3__2-4_
  6
CONTINUOUS
 62
     7
100
AcDbLine
 10
2.136111111111119
 20
-3.75
 30
0.0
 11
2.136111111111119
 21
2.95000000000003
 31
0.0
  0
ENDBLK
  5
16745
330
16734
100
AcDbEntity
  8
0
100
AcDbBlockEnd
  0
BLOCK
  5
16847
330
1683D
100
AcDbEntity
  8
0
100
AcDbBlockBegin
  2
*D81
 70
     1
 10
0.0
 20
0.0
 30
0.0
  3
*D81
  1

  0
LINE
  5
16946
330
1683D
100
AcDbEntity
  8
SUNPOU
 62
     1
100
AcDbLine
 10
-1430.218764705057
 20
1861.379169313037
 30
0.0
 11
-1458.714858384626
 21
1861.379169313037
 31
0.0
  0
LINE
  5
16947
330
1683D
100
AcDbEntity
  8
SUNPOU
 62
     1
100
AcDbLine
 10
-1427.618764705057
 20
1876.279169313037
 30
0.0
 11
-1458.714858384626
 21
1876.279169313037
 31
0.0
  0
LINE
  5
16948
330
1683D
100
AcDbEntity
  8
SUNPOU
 62
     1
100
AcDbLine
 10
-1458.214858384626
 20
1858.379169313037
 30
0.0
 11
-1458.214858384626
 21
1855.379169313037
 31
0.0
  0
LINE
  5
16949
330
1683D
100
AcDbEntity
  8
SUNPOU
 62
     1
100
AcDbLine
 10
-1458.214858384626
 20
1879.279169313037
 30
0.0
 11
-1458.214858384626
 21
1882.279169313037
 31
0.0
  0
LINE
  5
1694A
330
1683D
100
AcDbEntity
  8
SUNPOU
 62
     1
100
AcDbLine
 10
-1458.214858384626
 20
1861.379169313037
 30
0.0
 11
-1458.214858384626
 21
1876.279169313037
 31
0.0
  0
SOLID
  5
1694B
330
1683D
100
AcDbEntity
  8
SUNPOU
 62
     1
100
AcDbTrace
 10
-1458.714858384626
 20
1858.379169313037
 30
0.0
 11
-1457.714858384626
 21
1858.379169313037
 31
0.0
 12
-1458.214858384626
 22
1861.379169313037
 32
0.0
 13
-1458.214858384626
 23
1861.379169313037
 33
0.0
  0
SOLID
  5
1694C
330
1683D
100
AcDbEntity
  8
SUNPOU
 62
     1
100
AcDbTrace
 10
-1458.714858384626
 20
1879.279169313037
 30
0.0
 11
-1457.714858384626
 21
1879.279169313037
 31
0.0
 12
-1458.214858384626
 22
1876.279169313037
 32
0.0
 13
-1458.214858384626
 23
1876.279169313037
 33
0.0
  0
MTEXT
  5
1694D
330
1683D
100
AcDbEntity
  8
SUNPOU
 62
     1
100
AcDbMText
 10
-1460.964858384626
 20
1868.829169313037
 30
0.0
 40
3.5
 41
0.0
 71
     5
 72
     1
  1
\A1;(16)
 11
0.0000000000000001
 21
1.0
 31
0.0
1001
ACAD
1000
MTEXTBEGIN
1070
    73
1070
     1
1070
    44
1040
1.0
1070
    74
1070
     0
1000
MTEXTEND
  0
POINT
  5
1694E
330
1683D
100
AcDbEntity
  8
DEFPOINTS
 62
     0
100
AcDbPoint
 10
-1429.718764705057
 20
1861.379169313037
 30
0.0
  0
POINT
  5
1694F
330
1683D
100
AcDbEntity
  8
DEFPOINTS
 62
     0
100
AcDbPoint
 10
-1427.118764705057
 20
1876.279169313037
 30
0.0
  0
POINT
  5
16950
330
1683D
100
AcDbEntity
  8
DEFPOINTS
 62
     0
100
AcDbPoint
 10
-1458.214858384626
 20
1876.279169313037
 30
0.0
  0
ENDBLK
  5
16848
330
1683D
100
AcDbEntity
  8
0
100
AcDbBlockEnd
  0
BLOCK
  5
16976
330
1696C
100
AcDbEntity
  8
0
100
AcDbBlockBegin
  2
*D85
 70
     1
 10
0.0
 20
0.0
 30
0.0
  3
*D85
  1

  0
LINE
  5
169AD
330
1696C
100
AcDbEntity
  8
SUNPOU
 62
     1
100
AcDbLine
 10
-1430.218764705057
 20
1861.379169313037
 30
0.0
 11
-1449.329468973262
 21
1861.379169313037
 31
0.0
  0
LINE
  5
169AE
330
1696C
100
AcDbEntity
  8
SUNPOU
 62
     1
100
AcDbLine
 10
-1438.018764705057
 20
1874.479169313037
 30
0.0
 11
-1449.329468973262
 21
1874.479169313037
 31
0.0
  0
LINE
  5
169AF
330
1696C
100
AcDbEntity
  8
SUNPOU
 62
     1
100
AcDbLine
 10
-1448.829468973262
 20
1864.379169313037
 30
0.0
 11
-1448.829468973262
 21
1871.479169313037
 31
0.0
  0
SOLID
  5
169B0
330
1696C
100
AcDbEntity
  8
SUNPOU
 62
     1
100
AcDbTrace
 10
-1449.329468973262
 20
1864.379169313037
 30
0.0
 11
-1448.329468973263
 21
1864.379169313037
 31
0.0
 12
-1448.829468973262
 22
1861.379169313037
 32
0.0
 13
-1448.829468973262
 23
1861.379169313037
 33
0.0
  0
SOLID
  5
169B1
330
1696C
100
AcDbEntity
  8
SUNPOU
 62
     1
100
AcDbTrace
 10
-1449.329468973262
 20
1871.479169313037
 30
0.0
 11
-1448.329468973263
 21
1871.479169313037
 31
0.0
 12
-1448.829468973262
 22
1874.479169313037
 32
0.0
 13
-1448.829468973262
 23
1874.479169313037
 33
0.0
  0
MTEXT
  5
169B2
330
1696C
100
AcDbEntity
  8
SUNPOU
 62
     1
100
AcDbMText
 10
-1451.579468973263
 20
1867.929169313037
 30
0.0
 40
3.5
 41
0.0
 71
     5
 72
     1
  1
\A1;13.1
 11
0.0000000000000001
 21
1.0
 31
0.0
1001
ACAD
1000
MTEXTBEGIN
1070
    73
1070
     1
1070
    44
1040
1.0
1070
    74
1070
     0
1000
MTEXTEND
  0
POINT
  5
169B3
330
1696C
100
AcDbEntity
  8
DEFPOINTS
 62
     0
100
AcDbPoint
 10
-1429.718764705057
 20
1861.379169313037
 30
0.0
  0
POINT
  5
169B4
330
1696C
100
AcDbEntity
  8
DEFPOINTS
 62
     0
100
AcDbPoint
 10
-1437.518764705057
 20
1874.479169313037
 30
0.0
  0
POINT
  5
169B5
330
1696C
100
AcDbEntity
  8
DEFPOINTS
 62
     0
100
AcDbPoint
 10
-1448.829468973262
 20
1874.479169313037
 30
0.0
  0
ENDBLK
  5
16977
330
1696C
100
AcDbEntity
  8
0
100
AcDbBlockEnd
  0
BLOCK
  5
16985
330
16979
100
AcDbEntity
  8
0
100
AcDbBlockBegin
  2
*D86
 70
     1
 10
0.0
 20
0.0
 30
0.0
  3
*D86
  1

  0
LINE
  5
16B7B
330
16979
100
AcDbEntity
  8
SUNPOU
 62
     1
100
AcDbLine
 10
-1438.018764705057
 20
1874.479169313037
 30
0.0
 11
-1449.329468973262
 21
1874.479169313037
 31
0.0
  0
LINE
  5
16B7C
330
16979
100
AcDbEntity
  8
SUNPOU
 62
     1
100
AcDbLine
 10
-1427.918764705057
 20
1876.279169313037
 30
0.0
 11
-1449.329468973262
 21
1876.279169313037
 31
0.0
  0
LINE
  5
16B7D
330
16979
100
AcDbEntity
  8
SUNPOU
 62
     1
100
AcDbLine
 10
-1448.829468973262
 20
1871.479169313037
 30
0.0
 11
-1448.829468973262
 21
1868.479169313037
 31
0.0
  0
LINE
  5
16B7E
330
16979
100
AcDbEntity
  8
SUNPOU
 62
     1
100
AcDbLine
 10
-1448.829468973262
 20
1879.279169313037
 30
0.0
 11
-1448.829468973262
 21
1895.945835979704
 31
0.0
  0
LINE
  5
16B7F
330
16979
100
AcDbEntity
  8
SUNPOU
 62
     1
100
AcDbLine
 10
-1448.829468973262
 20
1874.479169313037
 30
0.0
 11
-1448.829468973262
 21
1876.279169313037
 31
0.0
  0
SOLID
  5
16B80
330
16979
100
AcDbEntity
  8
SUNPOU
 62
     1
100
AcDbTrace
 10
-1449.329468973262
 20
1871.479169313037
 30
0.0
 11
-1448.329468973262
 21
1871.479169313037
 31
0.0
 12
-1448.829468973262
 22
1874.479169313037
 32
0.0
 13
-1448.829468973262
 23
1874.479169313037
 33
0.0
  0
SOLID
  5
16B81
330
16979
100
AcDbEntity
  8
SUNPOU
 62
     1
100
AcDbTrace
 10
-1449.329468973262
 20
1879.279169313037
 30
0.0
 11
-1448.329468973262
 21
1879.279169313037
 31
0.0
 12
-1448.829468973262
 22
1876.279169313037
 32
0.0
 13
-1448.829468973262
 23
1876.279169313037
 33
0.0
  0
MTEXT
  5
16B82
330
16979
100
AcDbEntity
  8
SUNPOU
 62
     1
100
AcDbMText
 10
-1451.579468973263
 20
1889.11250264637
 30
0.0
 40
3.5
 41
0.0
 71
     5
 72
     1
  1
\A1;(2.9)
 11
0.0000000000000001
 21
1.0
 31
0.0
1001
ACAD
1000
MTEXTBEGIN
1070
    73
1070
     1
1070
    44
1040
1.0
1070
    74
1070
     0
1000
MTEXTEND
  0
POINT
  5
16B83
330
16979
100
AcDbEntity
  8
DEFPOINTS
 62
     0
100
AcDbPoint
 10
-1437.518764705057
 20
1874.479169313037
 30
0.0
  0
POINT
  5
16B84
330
16979
100
AcDbEntity
  8
DEFPOINTS
 62
     0
100
AcDbPoint
 10
-1427.418764705057
 20
1876.279169313037
 30
0.0
  0
POINT
  5
16B85
330
16979
100
AcDbEntity
  8
DEFPOINTS
 62
     0
100
AcDbPoint
 10
-1448.829468973262
 20
1876.279169313037
 30
0.0
  0
ENDBLK
  5
16986
330
16979
100
AcDbEntity
  8
0
100
AcDbBlockEnd
  0
BLOCK
  5
16A11
330
16A05
100
AcDbEntity
  8
0
100
AcDbBlockBegin
  2
*D89
 70
     1
 10
0.0
 20
0.0
 30
0.0
  3
*D89
  1

  0
LINE
  5
16BAC
330
16A05
100
AcDbEntity
  8
SUNPOU
 62
     1
100
AcDbLine
 10
-1437.018764705057
 20
1776.280060303378
 30
0.0
 11
-1449.33644611334
 21
1776.280060303378
 31
0.0
  0
LINE
  5
16BAD
330
16A05
100
AcDbEntity
  8
SUNPOU
 62
     1
100
AcDbLine
 10
-1434.518764705057
 20
1779.780060303378
 30
0.0
 11
-1449.33644611334
 21
1779.780060303378
 31
0.0
  0
LINE
  5
16BAE
330
16A05
100
AcDbEntity
  8
SUNPOU
 62
     1
100
AcDbLine
 10
-1448.83644611334
 20
1773.280060303378
 30
0.0
 11
-1448.83644611334
 21
1770.280060303378
 31
0.0
  0
LINE
  5
16BAF
330
16A05
100
AcDbEntity
  8
SUNPOU
 62
     1
100
AcDbLine
 10
-1448.83644611334
 20
1782.780060303378
 30
0.0
 11
-1448.83644611334
 21
1785.780060303378
 31
0.0
  0
MTEXT
  5
16BB0
330
16A05
100
AcDbEntity
  8
SUNPOU
 62
     1
100
AcDbMText
 10
-1451.665288611489
 20
1770.173509682285
 30
0.0
 40
3.5
 41
0.0
 71
     5
 72
     1
  1
\A1;3.5
 11
0.0000000000000001
 21
1.0
 31
0.0
  0
LINE
  5
16BB1
330
16A05
100
AcDbEntity
  8
SUNPOU
 62
     1
100
AcDbLine
 10
-1448.83644611334
 20
1776.280060303378
 30
0.0
 11
-1448.83644611334
 21
1779.780060303378
 31
0.0
  0
SOLID
  5
16BB2
330
16A05
100
AcDbEntity
  8
SUNPOU
 62
     1
100
AcDbTrace
 10
-1449.33644611334
 20
1773.280060303378
 30
0.0
 11
-1448.336446113341
 21
1773.280060303378
 31
0.0
 12
-1448.83644611334
 22
1776.280060303378
 32
0.0
 13
-1448.83644611334
 23
1776.280060303378
 33
0.0
  0
SOLID
  5
16BB3
330
16A05
100
AcDbEntity
  8
SUNPOU
 62
     1
100
AcDbTrace
 10
-1449.33644611334
 20
1782.780060303378
 30
0.0
 11
-1448.336446113341
 21
1782.780060303378
 31
0.0
 12
-1448.83644611334
 22
1779.780060303378
 32
0.0
 13
-1448.83644611334
 23
1779.780060303378
 33
0.0
  0
POINT
  5
16BB4
330
16A05
100
AcDbEntity
  8
DEFPOINTS
 62
     0
100
AcDbPoint
 10
-1436.518764705057
 20
1776.280060303378
 30
0.0
  0
POINT
  5
16BB5
330
16A05
100
AcDbEntity
  8
DEFPOINTS
 62
     0
100
AcDbPoint
 10
-1434.018764705057
 20
1779.780060303378
 30
0.0
  0
POINT
  5
16BB6
330
16A05
100
AcDbEntity
  8
DEFPOINTS
 62
     0
100
AcDbPoint
 10
-1448.83644611334
 20
1779.780060303378
 30
0.0
  0
ENDBLK
  5
16A12
330
16A05
100
AcDbEntity
  8
0
100
AcDbBlockEnd
  0
BLOCK
  5
16A1E
330
16A14
100
AcDbEntity
  8
0
100
AcDbBlockBegin
  2
*D90
 70
     1
 10
0.0
 20
0.0
 30
0.0
  3
*D90
  1

  0
LINE
  5
16BB7
330
16A14
100
AcDbEntity
  8
SUNPOU
 62
     1
100
AcDbLine
 10
-1434.518764705057
 20
1779.780060303378
 30
0.0
 11
-1449.33644611334
 21
1779.780060303378
 31
0.0
  0
LINE
  5
16BB8
330
16A14
100
AcDbEntity
  8
SUNPOU
 62
     1
100
AcDbLine
 10
-1434.518764705057
 20
1830.780060303378
 30
0.0
 11
-1449.33644611334
 21
1830.780060303378
 31
0.0
  0
LINE
  5
16BB9
330
16A14
100
AcDbEntity
  8
SUNPOU
 62
     1
100
AcDbLine
 10
-1448.83644611334
 20
1782.780060303378
 30
0.0
 11
-1448.83644611334
 21
1827.780060303378
 31
0.0
  0
SOLID
  5
16BBA
330
16A14
100
AcDbEntity
  8
SUNPOU
 62
     1
100
AcDbTrace
 10
-1449.33644611334
 20
1782.780060303378
 30
0.0
 11
-1448.336446113341
 21
1782.780060303378
 31
0.0
 12
-1448.83644611334
 22
1779.780060303378
 32
0.0
 13
-1448.83644611334
 23
1779.780060303378
 33
0.0
  0
SOLID
  5
16BBB
330
16A14
100
AcDbEntity
  8
SUNPOU
 62
     1
100
AcDbTrace
 10
-1449.33644611334
 20
1827.780060303378
 30
0.0
 11
-1448.336446113341
 21
1827.780060303378
 31
0.0
 12
-1448.83644611334
 22
1830.780060303378
 32
0.0
 13
-1448.83644611334
 23
1830.780060303378
 33
0.0
  0
MTEXT
  5
16BBC
330
16A14
100
AcDbEntity
  8
SUNPOU
 62
     1
100
AcDbMText
 10
-1451.586446113341
 20
1805.280060303378
 30
0.0
 40
3.5
 41
0.0
 71
     5
 72
     1
  1
\A1;51
 11
0.0000000000000001
 21
1.0
 31
0.0
  0
POINT
  5
16BBD
330
16A14
100
AcDbEntity
  8
DEFPOINTS
 62
     0
100
AcDbPoint
 10
-1434.018764705057
 20
1779.780060303378
 30
0.0
  0
POINT
  5
16BBE
330
16A14
100
AcDbEntity
  8
DEFPOINTS
 62
     0
100
AcDbPoint
 10
-1434.018764705057
 20
1830.780060303378
 30
0.0
  0
POINT
  5
16BBF
330
16A14
100
AcDbEntity
  8
DEFPOINTS
 62
     0
100
AcDbPoint
 10
-1448.83644611334
 20
1830.780060303378
 30
0.0
  0
ENDBLK
  5
16A1F
330
16A14
100
AcDbEntity
  8
0
100
AcDbBlockEnd
  0
BLOCK
  5
16A2D
330
16A21
100
AcDbEntity
  8
0
100
AcDbBlockBegin
  2
*D91
 70
     1
 10
0.0
 20
0.0
 30
0.0
  3
*D91
  1

  0
LINE
  5
16BC0
330
16A21
100
AcDbEntity
  8
SUNPOU
 62
     1
100
AcDbLine
 10
-1434.518764705057
 20
1830.780060303378
 30
0.0
 11
-1449.33644611334
 21
1830.780060303378
 31
0.0
  0
LINE
  5
16BC1
330
16A21
100
AcDbEntity
  8
SUNPOU
 62
     1
100
AcDbLine
 10
-1430.818764705057
 20
1837.780060303378
 30
0.0
 11
-1449.33644611334
 21
1837.780060303378
 31
0.0
  0
LINE
  5
16BC2
330
16A21
100
AcDbEntity
  8
SUNPOU
 62
     1
100
AcDbLine
 10
-1448.83644611334
 20
1827.780060303378
 30
0.0
 11
-1448.83644611334
 21
1824.780060303378
 31
0.0
  0
LINE
  5
16BC3
330
16A21
100
AcDbEntity
  8
SUNPOU
 62
     1
100
AcDbLine
 10
-1448.83644611334
 20
1840.780060303378
 30
0.0
 11
-1448.83644611334
 21
1843.780060303378
 31
0.0
  0
LINE
  5
16BC4
330
16A21
100
AcDbEntity
  8
SUNPOU
 62
     1
100
AcDbLine
 10
-1448.83644611334
 20
1830.780060303378
 30
0.0
 11
-1448.83644611334
 21
1837.780060303378
 31
0.0
  0
SOLID
  5
16BC5
330
16A21
100
AcDbEntity
  8
SUNPOU
 62
     1
100
AcDbTrace
 10
-1449.33644611334
 20
1827.780060303378
 30
0.0
 11
-1448.336446113341
 21
1827.780060303378
 31
0.0
 12
-1448.83644611334
 22
1830.780060303378
 32
0.0
 13
-1448.83644611334
 23
1830.780060303378
 33
0.0
  0
SOLID
  5
16BC6
330
16A21
100
AcDbEntity
  8
SUNPOU
 62
     1
100
AcDbTrace
 10
-1449.33644611334
 20
1840.780060303378
 30
0.0
 11
-1448.336446113341
 21
1840.780060303378
 31
0.0
 12
-1448.83644611334
 22
1837.780060303378
 32
0.0
 13
-1448.83644611334
 23
1837.780060303378
 33
0.0
  0
MTEXT
  5
16BC7
330
16A21
100
AcDbEntity
  8
SUNPOU
 62
     1
100
AcDbMText
 10
-1451.586446113341
 20
1834.280060303378
 30
0.0
 40
3.5
 41
0.0
 71
     5
 72
     1
  1
\A1;7
 11
0.0000000000000001
 21
1.0
 31
0.0
  0
POINT
  5
16BC8
330
16A21
100
AcDbEntity
  8
DEFPOINTS
 62
     0
100
AcDbPoint
 10
-1434.018764705057
 20
1830.780060303378
 30
0.0
  0
POINT
  5
16BC9
330
16A21
100
AcDbEntity
  8
DEFPOINTS
 62
     0
100
AcDbPoint
 10
-1430.318764705057
 20
1837.780060303378
 30
0.0
  0
POINT
  5
16BCA
330
16A21
100
AcDbEntity
  8
DEFPOINTS
 62
     0
100
AcDbPoint
 10
-1448.83644611334
 20
1837.780060303378
 30
0.0
  0
ENDBLK
  5
16A2E
330
16A21
100
AcDbEntity
  8
0
100
AcDbBlockEnd
  0
BLOCK
  5
16A3B
330
16A31
100
AcDbEntity
  8
0
100
AcDbBlockBegin
  2
*D92
 70
     1
 10
0.0
 20
0.0
 30
0.0
  3
*D92
  1

  0
LINE
  5
16A51
330
16A31
100
AcDbEntity
  8
SUNPOU
 62
     1
100
AcDbLine
 10
-1437.018764705057
 20
1776.280060303378
 30
0.0
 11
-1458.709787875543
 21
1776.280060303378
 31
0.0
  0
LINE
  5
16A52
330
16A31
100
AcDbEntity
  8
SUNPOU
 62
     1
100
AcDbLine
 10
-1430.318764705057
 20
1837.780060303378
 30
0.0
 11
-1458.709787875543
 21
1837.780060303378
 31
0.0
  0
LINE
  5
16A53
330
16A31
100
AcDbEntity
  8
SUNPOU
 62
     1
100
AcDbLine
 10
-1458.209787875543
 20
1779.280060303378
 30
0.0
 11
-1458.209787875543
 21
1834.780060303378
 31
0.0
  0
SOLID
  5
16A54
330
16A31
100
AcDbEntity
  8
SUNPOU
 62
     1
100
AcDbTrace
 10
-1458.709787875543
 20
1779.280060303378
 30
0.0
 11
-1457.709787875543
 21
1779.280060303378
 31
0.0
 12
-1458.209787875543
 22
1776.280060303378
 32
0.0
 13
-1458.209787875543
 23
1776.280060303378
 33
0.0
  0
SOLID
  5
16A55
330
16A31
100
AcDbEntity
  8
SUNPOU
 62
     1
100
AcDbTrace
 10
-1458.709787875543
 20
1834.780060303378
 30
0.0
 11
-1457.709787875543
 21
1834.780060303378
 31
0.0
 12
-1458.209787875543
 22
1837.780060303378
 32
0.0
 13
-1458.209787875543
 23
1837.780060303378
 33
0.0
  0
MTEXT
  5
16A56
330
16A31
100
AcDbEntity
  8
SUNPOU
 62
     1
100
AcDbMText
 10
-1460.959787875544
 20
1807.030060303378
 30
0.0
 40
3.5
 41
0.0
 71
     5
 72
     1
  1
\A1;61.5
 11
0.0000000000000001
 21
1.0
 31
0.0
1001
ACAD
1000
MTEXTBEGIN
1070
    73
1070
     1
1070
    44
1040
1.0
1070
    74
1070
     0
1000
MTEXTEND
  0
POINT
  5
16A57
330
16A31
100
AcDbEntity
  8
DEFPOINTS
 62
     0
100
AcDbPoint
 10
-1436.518764705057
 20
1776.280060303378
 30
0.0
  0
POINT
  5
16A58
330
16A31
100
AcDbEntity
  8
DEFPOINTS
 62
     0
100
AcDbPoint
 10
-1429.818764705057
 20
1837.780060303378
 30
0.0
  0
POINT
  5
16A59
330
16A31
100
AcDbEntity
  8
DEFPOINTS
 62
     0
100
AcDbPoint
 10
-1458.209787875543
 20
1837.780060303378
 30
0.0
  0
ENDBLK
  5
16A3C
330
16A31
100
AcDbEntity
  8
0
100
AcDbBlockEnd
  0
BLOCK
  5
16A7B
330
16A71
100
AcDbEntity
  8
0
100
AcDbBlockBegin
  2
*D93
 70
     1
 10
0.0
 20
0.0
 30
0.0
  3
*D93
  1

  0
LINE
  5
16ABF
330
16A71
100
AcDbEntity
  8
SUNPOU
 62
     1
100
AcDbLine
 10
-1437.518764705057
 20
1776.780060303378
 30
0.0
 11
-1437.518764705057
 21
1754.280949657875
 31
0.0
  0
LINE
  5
16AC0
330
16A71
100
AcDbEntity
  8
SUNPOU
 62
     1
100
AcDbLine
 10
-1346.518764705057
 20
1776.780060303378
 30
0.0
 11
-1346.518764705057
 21
1754.280949657875
 31
0.0
  0
LINE
  5
16AC1
330
16A71
100
AcDbEntity
  8
SUNPOU
 62
     1
100
AcDbLine
 10
-1434.518764705057
 20
1754.780949657875
 30
0.0
 11
-1349.518764705057
 21
1754.780949657875
 31
0.0
  0
SOLID
  5
16AC2
330
16A71
100
AcDbEntity
  8
SUNPOU
 62
     1
100
AcDbTrace
 10
-1434.518764705057
 20
1755.280949657875
 30
0.0
 11
-1434.518764705057
 21
1754.280949657875
 31
0.0
 12
-1437.518764705057
 22
1754.780949657875
 32
0.0
 13
-1437.518764705057
 23
1754.780949657875
 33
0.0
  0
SOLID
  5
16AC3
330
16A71
100
AcDbEntity
  8
SUNPOU
 62
     1
100
AcDbTrace
 10
-1349.518764705057
 20
1755.280949657875
 30
0.0
 11
-1349.518764705057
 21
1754.280949657875
 31
0.0
 12
-1346.518764705057
 22
1754.780949657875
 32
0.0
 13
-1346.518764705057
 23
1754.780949657875
 33
0.0
  0
MTEXT
  5
16AC4
330
16A71
100
AcDbEntity
  8
SUNPOU
 62
     1
100
AcDbMText
 10
-1392.018764705057
 20
1757.530949657875
 30
0.0
 40
3.5
 41
0.0
 71
     5
 72
     1
  1
\A1;91
1001
ACAD
1000
MTEXTBEGIN
1070
    73
1070
     1
1070
    44
1040
1.0
1070
    74
1070
     0
1000
MTEXTEND
  0
POINT
  5
16AC5
330
16A71
100
AcDbEntity
  8
DEFPOINTS
 62
     0
100
AcDbPoint
 10
-1437.518764705057
 20
1777.280060303378
 30
0.0
  0
POINT
  5
16AC6
330
16A71
100
AcDbEntity
  8
DEFPOINTS
 62
     0
100
AcDbPoint
 10
-1346.518764705057
 20
1777.280060303378
 30
0.0
  0
POINT
  5
16AC7
330
16A71
100
AcDbEntity
  8
DEFPOINTS
 62
     0
100
AcDbPoint
 10
-1346.518764705057
 20
1754.780949657875
 30
0.0
  0
ENDBLK
  5
16A7C
330
16A71
100
AcDbEntity
  8
0
100
AcDbBlockEnd
  0
BLOCK
  5
16A8A
330
16A7E
100
AcDbEntity
  8
0
100
AcDbBlockBegin
  2
*D94
 70
     1
 10
0.0
 20
0.0
 30
0.0
  3
*D94
  1

  0
LINE
  5
16BCB
330
16A7E
100
AcDbEntity
  8
SUNPOU
 62
     1
100
AcDbLine
 10
-1437.518764705057
 20
1776.780060303378
 30
0.0
 11
-1437.518764705057
 21
1765.22872396176
 31
0.0
  0
LINE
  5
16BCC
330
16A7E
100
AcDbEntity
  8
SUNPOU
 62
     1
100
AcDbLine
 10
-1434.018764705057
 20
1779.280060303378
 30
0.0
 11
-1434.018764705057
 21
1765.22872396176
 31
0.0
  0
LINE
  5
16BCD
330
16A7E
100
AcDbEntity
  8
SUNPOU
 62
     1
100
AcDbLine
 10
-1440.518764705057
 20
1765.72872396176
 30
0.0
 11
-1443.518764705057
 21
1765.72872396176
 31
0.0
  0
LINE
  5
16BCE
330
16A7E
100
AcDbEntity
  8
SUNPOU
 62
     1
100
AcDbLine
 10
-1431.018764705057
 20
1765.72872396176
 30
0.0
 11
-1428.018764705057
 21
1765.72872396176
 31
0.0
  0
MTEXT
  5
16BCF
330
16A7E
100
AcDbEntity
  8
SUNPOU
 62
     1
100
AcDbMText
 10
-1442.376592629151
 20
1768.728804289545
 30
0.0
 40
3.5
 41
0.0
 71
     5
 72
     1
  1
\A1;3.5
  0
LINE
  5
16BD0
330
16A7E
100
AcDbEntity
  8
SUNPOU
 62
     1
100
AcDbLine
 10
-1437.518764705057
 20
1765.72872396176
 30
0.0
 11
-1434.018764705057
 21
1765.72872396176
 31
0.0
  0
SOLID
  5
16BD1
330
16A7E
100
AcDbEntity
  8
SUNPOU
 62
     1
100
AcDbTrace
 10
-1440.518764705057
 20
1766.228723961759
 30
0.0
 11
-1440.518764705057
 21
1765.22872396176
 31
0.0
 12
-1437.518764705057
 22
1765.72872396176
 32
0.0
 13
-1437.518764705057
 23
1765.72872396176
 33
0.0
  0
SOLID
  5
16BD2
330
16A7E
100
AcDbEntity
  8
SUNPOU
 62
     1
100
AcDbTrace
 10
-1431.018764705057
 20
1766.228723961759
 30
0.0
 11
-1431.018764705057
 21
1765.22872396176
 31
0.0
 12
-1434.018764705057
 22
1765.72872396176
 32
0.0
 13
-1434.018764705057
 23
1765.72872396176
 33
0.0
  0
POINT
  5
16BD3
330
16A7E
100
AcDbEntity
  8
DEFPOINTS
 62
     0
100
AcDbPoint
 10
-1437.518764705057
 20
1777.280060303378
 30
0.0
  0
POINT
  5
16BD4
330
16A7E
100
AcDbEntity
  8
DEFPOINTS
 62
     0
100
AcDbPoint
 10
-1434.018764705057
 20
1779.780060303378
 30
0.0
  0
POINT
  5
16BD5
330
16A7E
100
AcDbEntity
  8
DEFPOINTS
 62
     0
100
AcDbPoint
 10
-1434.018764705057
 20
1765.72872396176
 30
0.0
  0
ENDBLK
  5
16A8B
330
16A7E
100
AcDbEntity
  8
0
100
AcDbBlockEnd
  0
BLOCK
  5
16A97
330
16A8D
100
AcDbEntity
  8
0
100
AcDbBlockBegin
  2
*D95
 70
     1
 10
0.0
 20
0.0
 30
0.0
  3
*D95
  1

  0
LINE
  5
16BD6
330
16A8D
100
AcDbEntity
  8
SUNPOU
 62
     1
100
AcDbLine
 10
-1434.018764705057
 20
1779.280060303378
 30
0.0
 11
-1434.018764705057
 21
1765.22872396176
 31
0.0
  0
LINE
  5
16BD7
330
16A8D
100
AcDbEntity
  8
SUNPOU
 62
     1
100
AcDbLine
 10
-1350.018764705057
 20
1779.280060303378
 30
0.0
 11
-1350.018764705057
 21
1765.22872396176
 31
0.0
  0
LINE
  5
16BD8
330
16A8D
100
AcDbEntity
  8
SUNPOU
 62
     1
100
AcDbLine
 10
-1431.018764705057
 20
1765.72872396176
 30
0.0
 11
-1353.018764705057
 21
1765.72872396176
 31
0.0
  0
SOLID
  5
16BD9
330
16A8D
100
AcDbEntity
  8
SUNPOU
 62
     1
100
AcDbTrace
 10
-1431.018764705057
 20
1766.228723961759
 30
0.0
 11
-1431.018764705057
 21
1765.22872396176
 31
0.0
 12
-1434.018764705057
 22
1765.72872396176
 32
0.0
 13
-1434.018764705057
 23
1765.72872396176
 33
0.0
  0
SOLID
  5
16BDA
330
16A8D
100
AcDbEntity
  8
SUNPOU
 62
     1
100
AcDbTrace
 10
-1353.018764705057
 20
1766.228723961759
 30
0.0
 11
-1353.018764705057
 21
1765.22872396176
 31
0.0
 12
-1350.018764705057
 22
1765.72872396176
 32
0.0
 13
-1350.018764705057
 23
1765.72872396176
 33
0.0
  0
MTEXT
  5
16BDB
330
16A8D
100
AcDbEntity
  8
SUNPOU
 62
     1
100
AcDbMText
 10
-1392.018764705057
 20
1768.478723961759
 30
0.0
 40
3.5
 41
0.0
 71
     5
 72
     1
  1
\A1;84
  0
POINT
  5
16BDC
330
16A8D
100
AcDbEntity
  8
DEFPOINTS
 62
     0
100
AcDbPoint
 10
-1434.018764705057
 20
1779.780060303378
 30
0.0
  0
POINT
  5
16BDD
330
16A8D
100
AcDbEntity
  8
DEFPOINTS
 62
     0
100
AcDbPoint
 10
-1350.018764705057
 20
1779.780060303378
 30
0.0
  0
POINT
  5
16BDE
330
16A8D
100
AcDbEntity
  8
DEFPOINTS
 62
     0
100
AcDbPoint
 10
-1350.018764705057
 20
1765.72872396176
 30
0.0
  0
ENDBLK
  5
16A98
330
16A8D
100
AcDbEntity
  8
0
100
AcDbBlockEnd
  0
BLOCK
  5
16AA9
330
16A9A
100
AcDbEntity
  8
0
100
AcDbBlockBegin
  2
*D96
 70
     1
 10
0.0
 20
0.0
 30
0.0
  3
*D96
  1

  0
LINE
  5
16BDF
330
16A9A
100
AcDbEntity
  8
SUNPOU
 62
     1
100
AcDbLine
 10
-1350.018764705057
 20
1779.280060303378
 30
0.0
 11
-1350.018764705057
 21
1765.22872396176
 31
0.0
  0
LINE
  5
16BE0
330
16A9A
100
AcDbEntity
  8
SUNPOU
 62
     1
100
AcDbLine
 10
-1346.518764705057
 20
1776.780060303378
 30
0.0
 11
-1346.518764705057
 21
1765.22872396176
 31
0.0
  0
LINE
  5
16BE1
330
16A9A
100
AcDbEntity
  8
SUNPOU
 62
     1
100
AcDbLine
 10
-1353.018764705057
 20
1765.72872396176
 30
0.0
 11
-1356.018764705057
 21
1765.72872396176
 31
0.0
  0
LINE
  5
16BE2
330
16A9A
100
AcDbEntity
  8
SUNPOU
 62
     1
100
AcDbLine
 10
-1343.518764705057
 20
1765.72872396176
 30
0.0
 11
-1340.518764705057
 21
1765.72872396176
 31
0.0
  0
MTEXT
  5
16BE3
330
16A9A
100
AcDbEntity
  8
SUNPOU
 62
     1
100
AcDbMText
 10
-1341.199777287927
 20
1768.728804289545
 30
0.0
 40
3.5
 41
0.0
 71
     5
 72
     1
  1
\A1;3.5
  0
LINE
  5
16BE4
330
16A9A
100
AcDbEntity
  8
SUNPOU
 62
     1
100
AcDbLine
 10
-1350.018764705057
 20
1765.72872396176
 30
0.0
 11
-1346.518764705057
 21
1765.72872396176
 31
0.0
  0
SOLID
  5
16BE5
330
16A9A
100
AcDbEntity
  8
SUNPOU
 62
     1
100
AcDbTrace
 10
-1353.018764705057
 20
1766.228723961759
 30
0.0
 11
-1353.018764705057
 21
1765.22872396176
 31
0.0
 12
-1350.018764705057
 22
1765.72872396176
 32
0.0
 13
-1350.018764705057
 23
1765.72872396176
 33
0.0
  0
SOLID
  5
16BE6
330
16A9A
100
AcDbEntity
  8
SUNPOU
 62
     1
100
AcDbTrace
 10
-1343.518764705057
 20
1766.228723961759
 30
0.0
 11
-1343.518764705057
 21
1765.22872396176
 31
0.0
 12
-1346.518764705057
 22
1765.72872396176
 32
0.0
 13
-1346.518764705057
 23
1765.72872396176
 33
0.0
  0
POINT
  5
16BE7
330
16A9A
100
AcDbEntity
  8
DEFPOINTS
 62
     0
100
AcDbPoint
 10
-1350.018764705057
 20
1779.780060303378
 30
0.0
  0
POINT
  5
16BE8
330
16A9A
100
AcDbEntity
  8
DEFPOINTS
 62
     0
100
AcDbPoint
 10
-1346.518764705057
 20
1777.280060303378
 30
0.0
  0
POINT
  5
16BE9
330
16A9A
100
AcDbEntity
  8
DEFPOINTS
 62
     0
100
AcDbPoint
 10
-1346.518764705057
 20
1765.72872396176
 30
0.0
  0
ENDBLK
  5
16AAA
330
16A9A
100
AcDbEntity
  8
0
100
AcDbBlockEnd
  0
BLOCK
  5
16B09
330
16AFF
100
AcDbEntity
  8
0
100
AcDbBlockBegin
  2
*D97
 70
     1
 10
0.0
 20
0.0
 30
0.0
  3
*D97
  1

  0
LINE
  5
16B4B
330
16AFF
100
AcDbEntity
  8
SUNPOU
 62
     1
100
AcDbLine
 10
-1333.059505791394
 20
1837.080060303378
 30
0.0
 11
-1333.059505791394
 21
1846.704442358819
 31
0.0
  0
LINE
  5
16B4C
330
16AFF
100
AcDbEntity
  8
SUNPOU
 62
     1
100
AcDbLine
 10
-1319.959505791394
 20
1838.280060303378
 30
0.0
 11
-1319.959505791394
 21
1846.704442358819
 31
0.0
  0
LINE
  5
16B4D
330
16AFF
100
AcDbEntity
  8
SUNPOU
 62
     1
100
AcDbLine
 10
-1330.059505791395
 20
1846.204442358819
 30
0.0
 11
-1322.959505791394
 21
1846.204442358819
 31
0.0
  0
SOLID
  5
16B4E
330
16AFF
100
AcDbEntity
  8
SUNPOU
 62
     1
100
AcDbTrace
 10
-1330.059505791395
 20
1846.704442358819
 30
0.0
 11
-1330.059505791395
 21
1845.704442358819
 31
0.0
 12
-1333.059505791394
 22
1846.204442358819
 32
0.0
 13
-1333.059505791394
 23
1846.204442358819
 33
0.0
  0
SOLID
  5
16B4F
330
16AFF
100
AcDbEntity
  8
SUNPOU
 62
     1
100
AcDbTrace
 10
-1322.959505791394
 20
1846.704442358819
 30
0.0
 11
-1322.959505791394
 21
1845.704442358819
 31
0.0
 12
-1319.959505791394
 22
1846.204442358819
 32
0.0
 13
-1319.959505791394
 23
1846.204442358819
 33
0.0
  0
MTEXT
  5
16B50
330
16AFF
100
AcDbEntity
  8
SUNPOU
 62
     1
100
AcDbMText
 10
-1326.509505791395
 20
1848.954442358819
 30
0.0
 40
3.5
 41
0.0
 71
     5
 72
     1
  1
\A1;13.1
1001
ACAD
1000
MTEXTBEGIN
1070
    73
1070
     1
1070
    44
1040
1.0
1070
    74
1070
     0
1000
MTEXTEND
  0
POINT
  5
16B51
330
16AFF
100
AcDbEntity
  8
DEFPOINTS
 62
     0
100
AcDbPoint
 10
-1333.059505791394
 20
1836.580060303378
 30
0.0
  0
POINT
  5
16B52
330
16AFF
100
AcDbEntity
  8
DEFPOINTS
 62
     0
100
AcDbPoint
 10
-1319.959505791394
 20
1837.780060303378
 30
0.0
  0
POINT
  5
16B53
330
16AFF
100
AcDbEntity
  8
DEFPOINTS
 62
     0
100
AcDbPoint
 10
-1319.959505791394
 20
1846.204442358819
 30
0.0
  0
ENDBLK
  5
16B0A
330
16AFF
100
AcDbEntity
  8
0
100
AcDbBlockEnd
  0
BLOCK
  5
16B27
330
16B1B
100
AcDbEntity
  8
0
100
AcDbBlockBegin
  2
*D99
 70
     1
 10
0.0
 20
0.0
 30
0.0
  3
*D99
  1

  0
LINE
  5
16B68
330
16B1B
100
AcDbEntity
  8
SUNPOU
 62
     1
100
AcDbLine
 10
-1318.159505791395
 20
1833.830060303378
 30
0.0
 11
-1318.159505791395
 21
1846.704442358819
 31
0.0
  0
LINE
  5
16B69
330
16B1B
100
AcDbEntity
  8
SUNPOU
 62
     1
100
AcDbLine
 10
-1319.959505791394
 20
1838.780060303378
 30
0.0
 11
-1319.959505791394
 21
1846.704442358819
 31
0.0
  0
LINE
  5
16B6A
330
16B1B
100
AcDbEntity
  8
SUNPOU
 62
     1
100
AcDbLine
 10
-1322.959505791394
 20
1846.204442358819
 30
0.0
 11
-1325.959505791394
 21
1846.204442358819
 31
0.0
  0
LINE
  5
16B6B
330
16B1B
100
AcDbEntity
  8
SUNPOU
 62
     1
100
AcDbLine
 10
-1315.159505791395
 20
1846.204442358819
 30
0.0
 11
-1298.492839124728
 21
1846.204442358819
 31
0.0
  0
LINE
  5
16B6C
330
16B1B
100
AcDbEntity
  8
SUNPOU
 62
     1
100
AcDbLine
 10
-1319.959505791394
 20
1846.204442358819
 30
0.0
 11
-1318.159505791395
 21
1846.204442358819
 31
0.0
  0
SOLID
  5
16B6D
330
16B1B
100
AcDbEntity
  8
SUNPOU
 62
     1
100
AcDbTrace
 10
-1322.959505791394
 20
1846.704442358819
 30
0.0
 11
-1322.959505791394
 21
1845.704442358819
 31
0.0
 12
-1319.959505791394
 22
1846.204442358819
 32
0.0
 13
-1319.959505791394
 23
1846.204442358819
 33
0.0
  0
SOLID
  5
16B6E
330
16B1B
100
AcDbEntity
  8
SUNPOU
 62
     1
100
AcDbTrace
 10
-1315.159505791395
 20
1846.704442358819
 30
0.0
 11
-1315.159505791395
 21
1845.704442358819
 31
0.0
 12
-1318.159505791395
 22
1846.204442358819
 32
0.0
 13
-1318.159505791395
 23
1846.204442358819
 33
0.0
  0
MTEXT
  5
16B6F
330
16B1B
100
AcDbEntity
  8
SUNPOU
 62
     1
100
AcDbMText
 10
-1305.326172458062
 20
1848.954442358819
 30
0.0
 40
3.5
 41
0.0
 71
     5
 72
     1
  1
\A1;(2.9)
1001
ACAD
1000
MTEXTBEGIN
1070
    73
1070
     1
1070
    44
1040
1.0
1070
    74
1070
     0
1000
MTEXTEND
  0
POINT
  5
16B70
330
16B1B
100
AcDbEntity
  8
DEFPOINTS
 62
     0
100
AcDbPoint
 10
-1318.159505791395
 20
1833.330060303378
 30
0.0
  0
POINT
  5
16B71
330
16B1B
100
AcDbEntity
  8
DEFPOINTS
 62
     0
100
AcDbPoint
 10
-1319.959505791394
 20
1838.280060303378
 30
0.0
  0
POINT
  5
16B72
330
16B1B
100
AcDbEntity
  8
DEFPOINTS
 62
     0
100
AcDbPoint
 10
-1319.959505791394
 20
1846.204442358819
 30
0.0
  0
ENDBLK
  5
16B28
330
16B1B
100
AcDbEntity
  8
0
100
AcDbBlockEnd
  0
BLOCK
  5
16B40
330
16B36
100
AcDbEntity
  8
0
100
AcDbBlockBegin
  2
*D100
 70
     1
 10
0.0
 20
0.0
 30
0.0
  3
*D100
  1

  0
LINE
  5
16B5F
330
16B36
100
AcDbEntity
  8
SUNPOU
 62
     1
100
AcDbLine
 10
-1333.059505791394
 20
1837.080060303378
 30
0.0
 11
-1333.059505791394
 21
1856.089224961937
 31
0.0
  0
LINE
  5
16B60
330
16B36
100
AcDbEntity
  8
SUNPOU
 62
     1
100
AcDbLine
 10
-1318.159505791395
 20
1833.830060303378
 30
0.0
 11
-1318.159505791395
 21
1856.089224961937
 31
0.0
  0
LINE
  5
16B61
330
16B36
100
AcDbEntity
  8
SUNPOU
 62
     1
100
AcDbLine
 10
-1330.059505791395
 20
1855.589224961938
 30
0.0
 11
-1321.159505791395
 21
1855.589224961938
 31
0.0
  0
SOLID
  5
16B62
330
16B36
100
AcDbEntity
  8
SUNPOU
 62
     1
100
AcDbTrace
 10
-1330.059505791395
 20
1856.089224961937
 30
0.0
 11
-1330.059505791395
 21
1855.089224961937
 31
0.0
 12
-1333.059505791394
 22
1855.589224961938
 32
0.0
 13
-1333.059505791394
 23
1855.589224961938
 33
0.0
  0
SOLID
  5
16B63
330
16B36
100
AcDbEntity
  8
SUNPOU
 62
     1
100
AcDbTrace
 10
-1321.159505791395
 20
1856.089224961937
 30
0.0
 11
-1321.159505791395
 21
1855.089224961937
 31
0.0
 12
-1318.159505791395
 22
1855.589224961938
 32
0.0
 13
-1318.159505791395
 23
1855.589224961938
 33
0.0
  0
MTEXT
  5
16B64
330
16B36
100
AcDbEntity
  8
SUNPOU
 62
     1
100
AcDbMText
 10
-1325.609505791395
 20
1858.339224961937
 30
0.0
 40
3.5
 41
0.0
 71
     5
 72
     1
  1
\A1;(16)
1001
ACAD
1000
MTEXTBEGIN
1070
    73
1070
     1
1070
    44
1040
1.0
1070
    74
1070
     0
1000
MTEXTEND
  0
POINT
  5
16B65
330
16B36
100
AcDbEntity
  8
DEFPOINTS
 62
     0
100
AcDbPoint
 10
-1333.059505791394
 20
1836.580060303378
 30
0.0
  0
POINT
  5
16B66
330
16B36
100
AcDbEntity
  8
DEFPOINTS
 62
     0
100
AcDbPoint
 10
-1318.159505791395
 20
1833.330060303378
 30
0.0
  0
POINT
  5
16B67
330
16B36
100
AcDbEntity
  8
DEFPOINTS
 62
     0
100
AcDbPoint
 10
-1318.159505791395
 20
1855.589224961938
 30
0.0
  0
ENDBLK
  5
16B41
330
16B36
100
AcDbEntity
  8
0
100
AcDbBlockEnd
  0
ENDSEC
  0
SECTION
  2
ENTITIES
  0
MTEXT
  5
5084
330
1A
100
AcDbEntity
  8
0
100
AcDbMText
 10
1985.239088685435
 20
-948.5420423450428
 30
0.0
 40
8.0
 41
0.0
 71
     7
 72
     5
  1

1001
ACAD
1000
MTEXTBEGIN
1070
    73
1070
     1
1070
    44
1040
1.0
1070
    74
1070
     0
1000
MTEXTEND
  0
MTEXT
  5
5085
330
1A
100
AcDbEntity
  8
0
100
AcDbMText
 10
4270.596778580329
 20
22.24825240601649
 30
0.0
 40
8.0
 41
0.0
 71
     7
 72
     5
  1

1001
ACAD
1000
MTEXTBEGIN
1070
    73
1070
     1
1070
    44
1040
1.0
1070
    74
1070
     0
1000
MTEXTEND
  0
MTEXT
  5
5343
330
1A
100
AcDbEntity
  8
SUNPOU
100
AcDbMText
 10
6936.493799262471
 20
9534.359644781135
 30
0.0
 40
10.5
 41
0.0
 71
     1
 72
     5
  1

1001
ACAD
1000
MTEXTBEGIN
1070
    73
1070
     1
1070
    44
1040
1.0
1070
    74
1070
     0
1000
MTEXTEND
  0
MTEXT
  5
544F
330
1A
100
AcDbEntity
  8
0
100
AcDbMText
 10
16317.2832773148
 20
12833.35428897674
 30
0.0
 40
8.0
 41
0.0
 71
     7
 72
     5
  1

1001
ACAD
1000
MTEXTBEGIN
1070
    73
1070
     1
1070
    44
1040
1.0
1070
    74
1070
     0
1000
MTEXTEND
  0
MTEXT
  5
5450
330
1A
100
AcDbEntity
  8
0
100
AcDbMText
 10
18602.64096720969
 20
13804.1445837278
 30
0.0
 40
8.0
 41
0.0
 71
     7
 72
     5
  1

1001
ACAD
1000
MTEXTBEGIN
1070
    73
1070
     1
1070
    44
1040
1.0
1070
    74
1070
     0
1000
MTEXTEND
  0
MTEXT
  5
5451
330
1A
100
AcDbEntity
  8
SUNPOU
100
AcDbMText
 10
21268.53798789184
 20
23316.25597610292
 30
0.0
 40
10.5
 41
0.0
 71
     1
 72
     5
  1

1001
ACAD
1000
MTEXTBEGIN
1070
    73
1070
     1
1070
    44
1040
1.0
1070
    74
1070
     0
1000
MTEXTEND
  0
MTEXT
  5
5452
330
1A
100
AcDbEntity
  8
SUNPOU
100
AcDbMText
 10
13337.6147919559
 20
22369.46284218996
 30
0.0
 40
10.5
 41
0.0
 71
     7
 72
     5
  1

1001
ACAD
1000
MTEXTBEGIN
1070
    73
1070
     1
1070
    44
1040
1.0
1070
    74
1070
     0
1000
MTEXTEND
  0
MTEXT
  5
5453
330
1A
100
AcDbEntity
  8
SUNPOU
100
AcDbMText
 10
16286.59845646867
 20
27270.13891403281
 30
0.0
 40
10.5
 41
0.0
 71
     7
 72
     5
  1

1001
ACAD
1000
MTEXTBEGIN
1070
    73
1070
     1
1070
    44
1040
1.0
1070
    74
1070
     0
1000
MTEXTEND
  0
MTEXT
  5
5454
330
1A
100
AcDbEntity
  8
SUNPOU
100
AcDbMText
 10
20795.67658441924
 20
29706.43966165288
 30
0.0
 40
10.5
 41
0.0
 71
     7
 72
     5
  1

1001
ACAD
1000
MTEXTBEGIN
1070
    73
1070
     1
1070
    44
1040
1.0
1070
    74
1070
     0
1000
MTEXTEND
  0
MTEXT
  5
5455
330
1A
100
AcDbEntity
  8
0
100
AcDbMText
 10
16611.93789220314
 20
14707.52144344448
 30
0.0
 40
8.0
 41
0.0
 71
     7
 72
     5
  1

1001
ACAD
1000
MTEXTBEGIN
1070
    73
1070
     1
1070
    44
1040
1.0
1070
    74
1070
     0
1000
MTEXTEND
  0
MTEXT
  5
5456
330
1A
100
AcDbEntity
  8
0
100
AcDbMText
 10
18897.29558209804
 20
15678.31173819554
 30
0.0
 40
8.0
 41
0.0
 71
     7
 72
     5
  1

1001
ACAD
1000
MTEXTBEGIN
1070
    73
1070
     1
1070
    44
1040
1.0
1070
    74
1070
     0
1000
MTEXTEND
  0
MTEXT
  5
5457
330
1A
100
AcDbEntity
  8
SUNPOU
100
AcDbMText
 10
21563.19260278019
 20
25190.42313057066
 30
0.0
 40
10.5
 41
0.0
 71
     1
 72
     5
  1

1001
ACAD
1000
MTEXTBEGIN
1070
    73
1070
     1
1070
    44
1040
1.0
1070
    74
1070
     0
1000
MTEXTEND
  0
MTEXT
  5
5458
330
1A
100
AcDbEntity
  8
SUNPOU
100
AcDbMText
 10
13632.26940684426
 20
24243.6299966577
 30
0.0
 40
10.5
 41
0.0
 71
     7
 72
     5
  1

1001
ACAD
1000
MTEXTBEGIN
1070
    73
1070
     1
1070
    44
1040
1.0
1070
    74
1070
     0
1000
MTEXTEND
  0
MTEXT
  5
5459
330
1A
100
AcDbEntity
  8
SUNPOU
100
AcDbMText
 10
16581.25307135702
 20
29144.30606850055
 30
0.0
 40
10.5
 41
0.0
 71
     7
 72
     5
  1

1001
ACAD
1000
MTEXTBEGIN
1070
    73
1070
     1
1070
    44
1040
1.0
1070
    74
1070
     0
1000
MTEXTEND
  0
MTEXT
  5
545A
330
1A
100
AcDbEntity
  8
SUNPOU
100
AcDbMText
 10
21090.33119930759
 20
31580.60681612062
 30
0.0
 40
10.5
 41
0.0
 71
     7
 72
     5
  1

1001
ACAD
1000
MTEXTBEGIN
1070
    73
1070
     1
1070
    44
1040
1.0
1070
    74
1070
     0
1000
MTEXTEND
  0
MTEXT
  5
545B
330
1A
100
AcDbEntity
  8
0
100
AcDbMText
 10
22871.60517627167
 20
23974.88367124799
 30
0.0
 40
8.0
 41
0.0
 71
     7
 72
     5
  1

1001
ACAD
1000
MTEXTBEGIN
1070
    73
1070
     1
1070
    44
1040
1.0
1070
    74
1070
     0
1000
MTEXTEND
  0
MTEXT
  5
545C
330
1A
100
AcDbEntity
  8
0
100
AcDbMText
 10
25156.96286616657
 20
24945.67396599906
 30
0.0
 40
8.0
 41
0.0
 71
     7
 72
     5
  1

1001
ACAD
1000
MTEXTBEGIN
1070
    73
1070
     1
1070
    44
1040
1.0
1070
    74
1070
     0
1000
MTEXTEND
  0
MTEXT
  5
545D
330
1A
100
AcDbEntity
  8
SUNPOU
100
AcDbMText
 10
27822.85988684871
 20
34457.78535837418
 30
0.0
 40
10.5
 41
0.0
 71
     1
 72
     5
  1

1001
ACAD
1000
MTEXTBEGIN
1070
    73
1070
     1
1070
    44
1040
1.0
1070
    74
1070
     0
1000
MTEXTEND
  0
MTEXT
  5
545E
330
1A
100
AcDbEntity
  8
SUNPOU
100
AcDbMText
 10
19891.93669091278
 20
33510.99222446122
 30
0.0
 40
10.5
 41
0.0
 71
     7
 72
     5
  1

1001
ACAD
1000
MTEXTBEGIN
1070
    73
1070
     1
1070
    44
1040
1.0
1070
    74
1070
     0
1000
MTEXTEND
  0
MTEXT
  5
545F
330
1A
100
AcDbEntity
  8
SUNPOU
100
AcDbMText
 10
22840.92035542555
 20
38411.66829630407
 30
0.0
 40
10.5
 41
0.0
 71
     7
 72
     5
  1

1001
ACAD
1000
MTEXTBEGIN
1070
    73
1070
     1
1070
    44
1040
1.0
1070
    74
1070
     0
1000
MTEXTEND
  0
MTEXT
  5
5460
330
1A
100
AcDbEntity
  8
SUNPOU
100
AcDbMText
 10
27349.99848337611
 20
40847.96904392415
 30
0.0
 40
10.5
 41
0.0
 71
     7
 72
     5
  1

1001
ACAD
1000
MTEXTBEGIN
1070
    73
1070
     1
1070
    44
1040
1.0
1070
    74
1070
     0
1000
MTEXTEND
  0
MTEXT
  5
55B7
330
1A
100
AcDbEntity
  8
SUNPOU
100
AcDbMText
 10
67424.23923338197
 20
64463.86602884816
 30
0.0
 40
10.5
 41
0.0
 71
     9
 72
     5
  1

1001
ACAD
1000
MTEXTBEGIN
1070
    73
1070
     1
1070
    44
1040
1.0
1070
    74
1070
     0
1000
MTEXTEND
  0
MTEXT
  5
55B8
330
1A
100
AcDbEntity
  8
SUNPOU
100
AcDbMText
 10
76146.40679929998
 20
71879.70056038563
 30
0.0
 40
10.5
 41
0.0
 71
     9
 72
     5
  1

1001
ACAD
1000
MTEXTBEGIN
1070
    73
1070
     1
1070
    44
1040
1.0
1070
    74
1070
     0
1000
MTEXTEND
  0
MTEXT
  5
55B9
330
1A
100
AcDbEntity
  8
SUNPOU
100
AcDbMText
 10
95100.16551662994
 20
89346.27661287766
 30
0.0
 40
10.5
 41
0.0
 71
     9
 72
     5
  1

1001
ACAD
1000
MTEXTBEGIN
1070
    73
1070
     1
1070
    44
1040
1.0
1070
    74
1070
     0
1000
MTEXTEND
  0
MTEXT
  5
55BA
330
1A
100
AcDbEntity
  8
SUNPOU
100
AcDbMText
 10
97043.57276333936
 20
87545.22753299966
 30
0.0
 40
3.5
 41
0.0
 71
     9
 72
     5
  1

1001
ACAD
1000
MTEXTBEGIN
1070
    73
1070
     1
1070
    44
1040
1.0
1070
    74
1070
     0
1000
MTEXTEND
  0
MTEXT
  5
55BB
330
1A
100
AcDbEntity
  8
SUNPOU
100
AcDbMText
 10
128169.752595959
 20
130040.1732006569
 30
0.0
 40
10.5
 41
0.0
 71
     9
 72
     5
  1

1001
ACAD
1000
MTEXTBEGIN
1070
    73
1070
     1
1070
    44
1040
1.0
1070
    74
1070
     0
1000
MTEXTEND
  0
MTEXT
  5
55BC
330
1A
100
AcDbEntity
  8
SUNPOU
100
AcDbMText
 10
130113.1598426684
 20
128239.1241207789
 30
0.0
 40
3.5
 41
0.0
 71
     9
 72
     5
  1

1001
ACAD
1000
MTEXTBEGIN
1070
    73
1070
     1
1070
    44
1040
1.0
1070
    74
1070
     0
1000
MTEXTEND
  0
MTEXT
  5
55BD
330
1A
100
AcDbEntity
  8
SUNPOU
100
AcDbMText
 10
78610.02030175463
 20
75873.33835563206
 30
0.0
 40
10.5
 41
0.0
 71
     9
 72
     5
  1

1001
ACAD
1000
MTEXTBEGIN
1070
    73
1070
     1
1070
    44
1040
1.0
1070
    74
1070
     0
1000
MTEXTEND
  0
MTEXT
  5
55BE
330
1A
100
AcDbEntity
  8
SUNPOU
100
AcDbMText
 10
64662.02020137863
 20
56700.93921651987
 30
0.0
 40
3.5
 41
0.0
 71
     7
 72
     5
  1

1001
ACAD
1000
MTEXTBEGIN
1070
    73
1070
     1
1070
    44
1040
1.0
1070
    74
1070
     0
1000
MTEXTEND
  0
MTEXT
  5
55BF
330
1A
100
AcDbEntity
  8
SUNPOU
100
AcDbMText
 10
45647.18959837178
 20
44463.08794733807
 30
0.0
 40
10.5
 41
0.0
 71
     7
 72
     5
  1

1001
ACAD
1000
MTEXTBEGIN
1070
    73
1070
     1
1070
    44
1040
1.0
1070
    74
1070
     0
1000
MTEXTEND
  0
MTEXT
  5
55C0
330
1A
100
AcDbEntity
  8
SUNPOU
100
AcDbMText
 10
33189.96133342368
 20
28618.15636923965
 30
0.0
 40
35.0
 41
0.0
 71
     9
 72
     5
  1

1001
ACAD
1000
MTEXTBEGIN
1070
    73
1070
     1
1070
    44
1040
1.0
1070
    74
1070
     0
1000
MTEXTEND
  0
MTEXT
  5
55C1
330
1A
100
AcDbEntity
  8
SUNPOU
100
AcDbMText
 10
32098.44639099864
 20
29226.93177928835
 30
0.0
 40
350.0000004171781
 41
0.0
 71
     7
 72
     5
  1

1001
ACAD
1000
MTEXTBEGIN
1070
    73
1070
     1
1070
    44
1040
1.0
1070
    74
1070
     0
1000
MTEXTEND
  0
MTEXT
  5
55C2
330
1A
100
AcDbEntity
  8
0
100
AcDbMText
 10
38142.39714894154
 20
27206.85414142458
 30
0.0
 40
8.0
 41
0.0
 71
     7
 72
     5
  1

1001
ACAD
1000
MTEXTBEGIN
1070
    73
1070
     1
1070
    44
1040
1.0
1070
    74
1070
     0
1000
MTEXTEND
  0
MTEXT
  5
55C3
330
1A
100
AcDbEntity
  8
0
100
AcDbMText
 10
40427.75483883644
 20
28177.64443617564
 30
0.0
 40
8.0
 41
0.0
 71
     7
 72
     5
  1

1001
ACAD
1000
MTEXTBEGIN
1070
    73
1070
     1
1070
    44
1040
1.0
1070
    74
1070
     0
1000
MTEXTEND
  0
MTEXT
  5
55C4
330
1A
100
AcDbEntity
  8
SUNPOU
100
AcDbMText
 10
43093.65185951858
 20
37689.75582855077
 30
0.0
 40
10.5
 41
0.0
 71
     1
 72
     5
  1

1001
ACAD
1000
MTEXTBEGIN
1070
    73
1070
     1
1070
    44
1040
1.0
1070
    74
1070
     0
1000
MTEXTEND
  0
MTEXT
  5
55C5
330
1A
100
AcDbEntity
  8
SUNPOU
100
AcDbMText
 10
35162.72866358265
 20
36742.96269463781
 30
0.0
 40
10.5
 41
0.0
 71
     7
 72
     5
  1

1001
ACAD
1000
MTEXTBEGIN
1070
    73
1070
     1
1070
    44
1040
1.0
1070
    74
1070
     0
1000
MTEXTEND
  0
MTEXT
  5
55C6
330
1A
100
AcDbEntity
  8
SUNPOU
100
AcDbMText
 10
38111.71232809542
 20
41643.63876648066
 30
0.0
 40
10.5
 41
0.0
 71
     7
 72
     5
  1

1001
ACAD
1000
MTEXTBEGIN
1070
    73
1070
     1
1070
    44
1040
1.0
1070
    74
1070
     0
1000
MTEXTEND
  0
MTEXT
  5
55C7
330
1A
100
AcDbEntity
  8
SUNPOU
100
AcDbMText
 10
42620.79045604597
 20
44079.93951410074
 30
0.0
 40
10.5
 41
0.0
 71
     7
 72
     5
  1

1001
ACAD
1000
MTEXTBEGIN
1070
    73
1070
     1
1070
    44
1040
1.0
1070
    74
1070
     0
1000
MTEXTEND
  0
MTEXT
  5
55C8
330
1A
100
AcDbEntity
  8
SUNPOU
100
AcDbMText
 10
26221.62834281429
 20
23077.53566448964
 30
0.0
 40
10.5
 41
0.0
 71
     7
 72
     5
  1

1001
ACAD
1000
MTEXTBEGIN
1070
    73
1070
     1
1070
    44
1040
1.0
1070
    74
1070
     0
1000
MTEXTEND
  0
MTEXT
  5
55C9
330
1A
100
AcDbEntity
  8
SUNPOU
100
AcDbMText
 10
77413.14677671455
 20
68750.51622813789
 30
0.0
 40
10.5
 41
0.0
 71
     9
 72
     5
  1

1001
ACAD
1000
MTEXTBEGIN
1070
    73
1070
     1
1070
    44
1040
1.0
1070
    74
1070
     0
1000
MTEXTEND
  0
MTEXT
  5
55CA
330
1A
100
AcDbEntity
  8
SUNPOU
100
AcDbMText
 10
86135.31434263256
 20
76166.35075967536
 30
0.0
 40
10.5
 41
0.0
 71
     9
 72
     5
  1

1001
ACAD
1000
MTEXTBEGIN
1070
    73
1070
     1
1070
    44
1040
1.0
1070
    74
1070
     0
1000
MTEXTEND
  0
MTEXT
  5
55CB
330
1A
100
AcDbEntity
  8
SUNPOU
100
AcDbMText
 10
105089.0730599625
 20
93632.92681216739
 30
0.0
 40
10.5
 41
0.0
 71
     9
 72
     5
  1

1001
ACAD
1000
MTEXTBEGIN
1070
    73
1070
     1
1070
    44
1040
1.0
1070
    74
1070
     0
1000
MTEXTEND
  0
MTEXT
  5
55CC
330
1A
100
AcDbEntity
  8
SUNPOU
100
AcDbMText
 10
107032.4803066719
 20
91831.8777322894
 30
0.0
 40
3.5
 41
0.0
 71
     9
 72
     5
  1

1001
ACAD
1000
MTEXTBEGIN
1070
    73
1070
     1
1070
    44
1040
1.0
1070
    74
1070
     0
1000
MTEXTEND
  0
MTEXT
  5
55CD
330
1A
100
AcDbEntity
  8
SUNPOU
100
AcDbMText
 10
138158.6601392916
 20
134326.8233999467
 30
0.0
 40
10.5
 41
0.0
 71
     9
 72
     5
  1

1001
ACAD
1000
MTEXTBEGIN
1070
    73
1070
     1
1070
    44
1040
1.0
1070
    74
1070
     0
1000
MTEXTEND
  0
MTEXT
  5
55CE
330
1A
100
AcDbEntity
  8
SUNPOU
100
AcDbMText
 10
140102.067386001
 20
132525.7743200686
 30
0.0
 40
3.5
 41
0.0
 71
     9
 72
     5
  1

1001
ACAD
1000
MTEXTBEGIN
1070
    73
1070
     1
1070
    44
1040
1.0
1070
    74
1070
     0
1000
MTEXTEND
  0
MTEXT
  5
55CF
330
1A
100
AcDbEntity
  8
SUNPOU
100
AcDbMText
 10
88598.92784508721
 20
80159.98855492179
 30
0.0
 40
10.5
 41
0.0
 71
     9
 72
     5
  1

1001
ACAD
1000
MTEXTBEGIN
1070
    73
1070
     1
1070
    44
1040
1.0
1070
    74
1070
     0
1000
MTEXTEND
  0
MTEXT
  5
55D0
330
1A
100
AcDbEntity
  8
SUNPOU
100
AcDbMText
 10
74650.92774471121
 20
60987.5894158096
 30
0.0
 40
3.5
 41
0.0
 71
     7
 72
     5
  1

1001
ACAD
1000
MTEXTBEGIN
1070
    73
1070
     1
1070
    44
1040
1.0
1070
    74
1070
     0
1000
MTEXTEND
  0
MTEXT
  5
55D1
330
1A
100
AcDbEntity
  8
SUNPOU
100
AcDbMText
 10
55636.09714170436
 20
48749.73814662781
 30
0.0
 40
10.5
 41
0.0
 71
     7
 72
     5
  1

1001
ACAD
1000
MTEXTBEGIN
1070
    73
1070
     1
1070
    44
1040
1.0
1070
    74
1070
     0
1000
MTEXTEND
  0
MTEXT
  5
55D2
330
1A
100
AcDbEntity
  8
SUNPOU
100
AcDbMText
 10
43178.86887675626
 20
32904.80656852938
 30
0.0
 40
35.0
 41
0.0
 71
     9
 72
     5
  1

1001
ACAD
1000
MTEXTBEGIN
1070
    73
1070
     1
1070
    44
1040
1.0
1070
    74
1070
     0
1000
MTEXTEND
  0
MTEXT
  5
55D3
330
1A
100
AcDbEntity
  8
SUNPOU
100
AcDbMText
 10
42087.35393433121
 20
33513.58197857809
 30
0.0
 40
350.0000004171781
 41
0.0
 71
     7
 72
     5
  1

1001
ACAD
1000
MTEXTBEGIN
1070
    73
1070
     1
1070
    44
1040
1.0
1070
    74
1070
     0
1000
MTEXTEND
  0
MTEXT
  5
55D4
330
1A
100
AcDbEntity
  8
0
100
AcDbMText
 10
48131.30469227412
 20
31493.50434071431
 30
0.0
 40
8.0
 41
0.0
 71
     7
 72
     5
  1

1001
ACAD
1000
MTEXTBEGIN
1070
    73
1070
     1
1070
    44
1040
1.0
1070
    74
1070
     0
1000
MTEXTEND
  0
MTEXT
  5
55D5
330
1A
100
AcDbEntity
  8
0
100
AcDbMText
 10
50416.66238216901
 20
32464.29463546537
 30
0.0
 40
8.0
 41
0.0
 71
     7
 72
     5
  1

1001
ACAD
1000
MTEXTBEGIN
1070
    73
1070
     1
1070
    44
1040
1.0
1070
    74
1070
     0
1000
MTEXTEND
  0
MTEXT
  5
55D6
330
1A
100
AcDbEntity
  8
SUNPOU
100
AcDbMText
 10
53082.55940285115
 20
41976.4060278405
 30
0.0
 40
10.5
 41
0.0
 71
     1
 72
     5
  1

1001
ACAD
1000
MTEXTBEGIN
1070
    73
1070
     1
1070
    44
1040
1.0
1070
    74
1070
     0
1000
MTEXTEND
  0
MTEXT
  5
55D7
330
1A
100
AcDbEntity
  8
SUNPOU
100
AcDbMText
 10
45151.63620691522
 20
41029.61289392755
 30
0.0
 40
10.5
 41
0.0
 71
     7
 72
     5
  1

1001
ACAD
1000
MTEXTBEGIN
1070
    73
1070
     1
1070
    44
1040
1.0
1070
    74
1070
     0
1000
MTEXTEND
  0
MTEXT
  5
55D8
330
1A
100
AcDbEntity
  8
SUNPOU
100
AcDbMText
 10
48100.61987142798
 20
45930.28896577039
 30
0.0
 40
10.5
 41
0.0
 71
     7
 72
     5
  1

1001
ACAD
1000
MTEXTBEGIN
1070
    73
1070
     1
1070
    44
1040
1.0
1070
    74
1070
     0
1000
MTEXTEND
  0
MTEXT
  5
55D9
330
1A
100
AcDbEntity
  8
SUNPOU
100
AcDbMText
 10
52609.69799937854
 20
48366.58971339046
 30
0.0
 40
10.5
 41
0.0
 71
     7
 72
     5
  1

1001
ACAD
1000
MTEXTBEGIN
1070
    73
1070
     1
1070
    44
1040
1.0
1070
    74
1070
     0
1000
MTEXTEND
  0
MTEXT
  5
55DA
330
1A
100
AcDbEntity
  8
SUNPOU
100
AcDbMText
 10
36210.53588614687
 20
27364.18586377937
 30
0.0
 40
10.5
 41
0.0
 71
     7
 72
     5
  1

1001
ACAD
1000
MTEXTBEGIN
1070
    73
1070
     1
1070
    44
1040
1.0
1070
    74
1070
     0
1000
MTEXTEND
  0
MTEXT
  5
55DB
330
1A
100
AcDbEntity
  8
SUNPOU
100
AcDbMText
 10
38021.29879752181
 20
33691.59985125794
 30
0.0
 40
10.5
 41
0.0
 71
     9
 72
     5
  1

1001
ACAD
1000
MTEXTBEGIN
1070
    73
1070
     1
1070
    44
1040
1.0
1070
    74
1070
     0
1000
MTEXTEND
  0
MTEXT
  5
55DC
330
1A
100
AcDbEntity
  8
SUNPOU
100
AcDbMText
 10
46743.46636343979
 20
41107.43438279541
 30
0.0
 40
10.5
 41
0.0
 71
     9
 72
     5
  1

1001
ACAD
1000
MTEXTBEGIN
1070
    73
1070
     1
1070
    44
1040
1.0
1070
    74
1070
     0
1000
MTEXTEND
  0
MTEXT
  5
55DD
330
1A
100
AcDbEntity
  8
SUNPOU
100
AcDbMText
 10
65697.22508076975
 20
58574.01043528746
 30
0.0
 40
10.5
 41
0.0
 71
     9
 72
     5
  1

1001
ACAD
1000
MTEXTBEGIN
1070
    73
1070
     1
1070
    44
1040
1.0
1070
    74
1070
     0
1000
MTEXTEND
  0
MTEXT
  5
55DE
330
1A
100
AcDbEntity
  8
SUNPOU
100
AcDbMText
 10
67640.63232747917
 20
56772.96135540945
 30
0.0
 40
3.5
 41
0.0
 71
     9
 72
     5
  1

1001
ACAD
1000
MTEXTBEGIN
1070
    73
1070
     1
1070
    44
1040
1.0
1070
    74
1070
     0
1000
MTEXTEND
  0
MTEXT
  5
55DF
330
1A
100
AcDbEntity
  8
SUNPOU
100
AcDbMText
 10
98766.81216009888
 20
99267.9070230668
 30
0.0
 40
10.5
 41
0.0
 71
     9
 72
     5
  1

1001
ACAD
1000
MTEXTBEGIN
1070
    73
1070
     1
1070
    44
1040
1.0
1070
    74
1070
     0
1000
MTEXTEND
  0
MTEXT
  5
55E0
330
1A
100
AcDbEntity
  8
SUNPOU
100
AcDbMText
 10
100710.2194068083
 20
97466.85794318878
 30
0.0
 40
3.5
 41
0.0
 71
     9
 72
     5
  1

1001
ACAD
1000
MTEXTBEGIN
1070
    73
1070
     1
1070
    44
1040
1.0
1070
    74
1070
     0
1000
MTEXTEND
  0
MTEXT
  5
55E1
330
1A
100
AcDbEntity
  8
SUNPOU
100
AcDbMText
 10
49207.07986589444
 20
45101.07217804185
 30
0.0
 40
10.5
 41
0.0
 71
     9
 72
     5
  1

1001
ACAD
1000
MTEXTBEGIN
1070
    73
1070
     1
1070
    44
1040
1.0
1070
    74
1070
     0
1000
MTEXTEND
  0
MTEXT
  5
55E2
330
1A
100
AcDbEntity
  8
SUNPOU
100
AcDbMText
 10
35259.07976551845
 20
25928.67303892964
 30
0.0
 40
3.5
 41
0.0
 71
     7
 72
     5
  1

1001
ACAD
1000
MTEXTBEGIN
1070
    73
1070
     1
1070
    44
1040
1.0
1070
    74
1070
     0
1000
MTEXTEND
  0
MTEXT
  5
55E3
330
1A
100
AcDbEntity
  8
SUNPOU
100
AcDbMText
 10
48951.43044828905
 20
35287.73625995099
 30
0.0
 40
10.5
 41
0.0
 71
     9
 72
     5
  1

1001
ACAD
1000
MTEXTBEGIN
1070
    73
1070
     1
1070
    44
1040
1.0
1070
    74
1070
     0
1000
MTEXTEND
  0
MTEXT
  5
55E4
330
1A
100
AcDbEntity
  8
SUNPOU
100
AcDbMText
 10
57673.59801420702
 20
42703.57079148847
 30
0.0
 40
10.5
 41
0.0
 71
     9
 72
     5
  1

1001
ACAD
1000
MTEXTBEGIN
1070
    73
1070
     1
1070
    44
1040
1.0
1070
    74
1070
     0
1000
MTEXTEND
  0
MTEXT
  5
55E5
330
1A
100
AcDbEntity
  8
SUNPOU
100
AcDbMText
 10
76627.35673153699
 20
60170.14684398051
 30
0.0
 40
10.5
 41
0.0
 71
     9
 72
     5
  1

1001
ACAD
1000
MTEXTBEGIN
1070
    73
1070
     1
1070
    44
1040
1.0
1070
    74
1070
     0
1000
MTEXTEND
  0
MTEXT
  5
55E6
330
1A
100
AcDbEntity
  8
SUNPOU
100
AcDbMText
 10
78570.76397824641
 20
58369.09776410251
 30
0.0
 40
3.5
 41
0.0
 71
     9
 72
     5
  1

1001
ACAD
1000
MTEXTBEGIN
1070
    73
1070
     1
1070
    44
1040
1.0
1070
    74
1070
     0
1000
MTEXTEND
  0
MTEXT
  5
55E7
330
1A
100
AcDbEntity
  8
SUNPOU
100
AcDbMText
 10
109696.9438108661
 20
100864.0434317598
 30
0.0
 40
10.5
 41
0.0
 71
     9
 72
     5
  1

1001
ACAD
1000
MTEXTBEGIN
1070
    73
1070
     1
1070
    44
1040
1.0
1070
    74
1070
     0
1000
MTEXTEND
  0
MTEXT
  5
55E8
330
1A
100
AcDbEntity
  8
SUNPOU
100
AcDbMText
 10
111640.3510575755
 20
99062.99435188183
 30
0.0
 40
3.5
 41
0.0
 71
     9
 72
     5
  1

1001
ACAD
1000
MTEXTBEGIN
1070
    73
1070
     1
1070
    44
1040
1.0
1070
    74
1070
     0
1000
MTEXTEND
  0
MTEXT
  5
55E9
330
1A
100
AcDbEntity
  8
SUNPOU
100
AcDbMText
 10
60137.21151666167
 20
46697.20858673491
 30
0.0
 40
10.5
 41
0.0
 71
     9
 72
     5
  1

1001
ACAD
1000
MTEXTBEGIN
1070
    73
1070
     1
1070
    44
1040
1.0
1070
    74
1070
     0
1000
MTEXTEND
  0
MTEXT
  5
55EA
330
1A
100
AcDbEntity
  8
SUNPOU
100
AcDbMText
 10
46189.21141628568
 20
27524.80944762269
 30
0.0
 40
3.5
 41
0.0
 71
     7
 72
     5
  1

1001
ACAD
1000
MTEXTBEGIN
1070
    73
1070
     1
1070
    44
1040
1.0
1070
    74
1070
     0
1000
MTEXTEND
  0
MTEXT
  5
55EB
330
1A
100
AcDbEntity
  8
SUNPOU
100
AcDbMText
 10
45007.68847015541
 20
38269.57947701874
 30
0.0
 40
10.5
 41
0.0
 71
     9
 72
     5
  1

1001
ACAD
1000
MTEXTBEGIN
1070
    73
1070
     1
1070
    44
1040
1.0
1070
    74
1070
     0
1000
MTEXTEND
  0
MTEXT
  5
55EC
330
1A
100
AcDbEntity
  8
SUNPOU
100
AcDbMText
 10
63961.44718748539
 20
55736.15552951081
 30
0.0
 40
10.5
 41
0.0
 71
     9
 72
     5
  1

1001
ACAD
1000
MTEXTBEGIN
1070
    73
1070
     1
1070
    44
1040
1.0
1070
    74
1070
     0
1000
MTEXTEND
  0
MTEXT
  5
55ED
330
1A
100
AcDbEntity
  8
SUNPOU
100
AcDbMText
 10
65904.85443419479
 20
53935.10644963279
 30
0.0
 40
3.5
 41
0.0
 71
     9
 72
     5
  1

1001
ACAD
1000
MTEXTBEGIN
1070
    73
1070
     1
1070
    44
1040
1.0
1070
    74
1070
     0
1000
MTEXTEND
  0
MTEXT
  5
55EE
330
1A
100
AcDbEntity
  8
SUNPOU
100
AcDbMText
 10
97031.03426681451
 20
96430.05211729015
 30
0.0
 40
10.5
 41
0.0
 71
     9
 72
     5
  1

1001
ACAD
1000
MTEXTBEGIN
1070
    73
1070
     1
1070
    44
1040
1.0
1070
    74
1070
     0
1000
MTEXTEND
  0
MTEXT
  5
55EF
330
1A
100
AcDbEntity
  8
SUNPOU
100
AcDbMText
 10
98974.44151352393
 20
94629.00303741212
 30
0.0
 40
3.5
 41
0.0
 71
     9
 72
     5
  1

1001
ACAD
1000
MTEXTBEGIN
1070
    73
1070
     1
1070
    44
1040
1.0
1070
    74
1070
     0
1000
MTEXTEND
  0
MTEXT
  5
55F0
330
1A
100
AcDbEntity
  8
SUNPOU
100
AcDbMText
 10
47471.30197261006
 20
42263.21727226519
 30
0.0
 40
10.5
 41
0.0
 71
     9
 72
     5
  1

1001
ACAD
1000
MTEXTBEGIN
1070
    73
1070
     1
1070
    44
1040
1.0
1070
    74
1070
     0
1000
MTEXTEND
  0
MTEXT
  5
55F1
330
1A
100
AcDbEntity
  8
SUNPOU
100
AcDbMText
 10
33523.30187223408
 20
23090.81813315298
 30
0.0
 40
3.5
 41
0.0
 71
     7
 72
     5
  1

1001
ACAD
1000
MTEXTBEGIN
1070
    73
1070
     1
1070
    44
1040
1.0
1070
    74
1070
     0
1000
MTEXTEND
  0
MTEXT
  5
55F2
330
1A
100
AcDbEntity
  8
SUNPOU
100
AcDbMText
 10
57959.46254102503
 20
50038.08111611015
 30
0.0
 40
10.5
 41
0.0
 71
     9
 72
     5
  1

1001
ACAD
1000
MTEXTBEGIN
1070
    73
1070
     1
1070
    44
1040
1.0
1070
    74
1070
     0
1000
MTEXTEND
  0
MTEXT
  5
55F3
330
1A
100
AcDbEntity
  8
SUNPOU
100
AcDbMText
 10
76913.22125835503
 20
67504.65716860222
 30
0.0
 40
10.5
 41
0.0
 71
     9
 72
     5
  1

1001
ACAD
1000
MTEXTBEGIN
1070
    73
1070
     1
1070
    44
1040
1.0
1070
    74
1070
     0
1000
MTEXTEND
  0
MTEXT
  5
55F4
330
1A
100
AcDbEntity
  8
SUNPOU
100
AcDbMText
 10
78856.62850506443
 20
65703.6080887242
 30
0.0
 40
3.5
 41
0.0
 71
     9
 72
     5
  1

1001
ACAD
1000
MTEXTBEGIN
1070
    73
1070
     1
1070
    44
1040
1.0
1070
    74
1070
     0
1000
MTEXTEND
  0
MTEXT
  5
55F5
330
1A
100
AcDbEntity
  8
SUNPOU
100
AcDbMText
 10
109982.8083376841
 20
108198.5537563815
 30
0.0
 40
10.5
 41
0.0
 71
     9
 72
     5
  1

1001
ACAD
1000
MTEXTBEGIN
1070
    73
1070
     1
1070
    44
1040
1.0
1070
    74
1070
     0
1000
MTEXTEND
  0
MTEXT
  5
55F6
330
1A
100
AcDbEntity
  8
SUNPOU
100
AcDbMText
 10
111926.2155843935
 20
106397.5046765035
 30
0.0
 40
3.5
 41
0.0
 71
     9
 72
     5
  1

1001
ACAD
1000
MTEXTBEGIN
1070
    73
1070
     1
1070
    44
1040
1.0
1070
    74
1070
     0
1000
MTEXTEND
  0
MTEXT
  5
55F7
330
1A
100
AcDbEntity
  8
SUNPOU
100
AcDbMText
 10
60423.07604347968
 20
54031.71891135659
 30
0.0
 40
10.5
 41
0.0
 71
     9
 72
     5
  1

1001
ACAD
1000
MTEXTBEGIN
1070
    73
1070
     1
1070
    44
1040
1.0
1070
    74
1070
     0
1000
MTEXTEND
  0
MTEXT
  5
55F8
330
1A
100
AcDbEntity
  8
SUNPOU
100
AcDbMText
 10
46475.07594310369
 20
34859.3197722444
 30
0.0
 40
3.5
 41
0.0
 71
     7
 72
     5
  1

1001
ACAD
1000
MTEXTBEGIN
1070
    73
1070
     1
1070
    44
1040
1.0
1070
    74
1070
     0
1000
MTEXTEND
  0
MTEXT
  5
55F9
330
1A
100
AcDbEntity
  8
SUNPOU
100
AcDbMText
 10
74027.35402123588
 20
68370.58278833383
 30
0.0
 40
10.5
 41
0.0
 71
     9
 72
     5
  1

1001
ACAD
1000
MTEXTBEGIN
1070
    73
1070
     1
1070
    44
1040
1.0
1070
    74
1070
     0
1000
MTEXTEND
  0
MTEXT
  5
55FA
330
1A
100
AcDbEntity
  8
SUNPOU
100
AcDbMText
 10
75970.7612679453
 20
66569.53370845583
 30
0.0
 40
3.5
 41
0.0
 71
     9
 72
     5
  1

1001
ACAD
1000
MTEXTBEGIN
1070
    73
1070
     1
1070
    44
1040
1.0
1070
    74
1070
     0
1000
MTEXTEND
  0
MTEXT
  5
55FB
330
1A
100
AcDbEntity
  8
SUNPOU
100
AcDbMText
 10
107096.941100565
 20
109064.4793761132
 30
0.0
 40
10.5
 41
0.0
 71
     9
 72
     5
  1

1001
ACAD
1000
MTEXTBEGIN
1070
    73
1070
     1
1070
    44
1040
1.0
1070
    74
1070
     0
1000
MTEXTEND
  0
MTEXT
  5
55FC
330
1A
100
AcDbEntity
  8
SUNPOU
100
AcDbMText
 10
109040.3483472744
 20
107263.4302962351
 30
0.0
 40
3.5
 41
0.0
 71
     9
 72
     5
  1

1001
ACAD
1000
MTEXTBEGIN
1070
    73
1070
     1
1070
    44
1040
1.0
1070
    74
1070
     0
1000
MTEXTEND
  0
MTEXT
  5
55FD
330
1A
100
AcDbEntity
  8
SUNPOU
100
AcDbMText
 10
105709.1709283621
 20
108141.3777665285
 30
0.0
 40
10.5
 41
0.0
 71
     9
 72
     5
  1

1001
ACAD
1000
MTEXTBEGIN
1070
    73
1070
     1
1070
    44
1040
1.0
1070
    74
1070
     0
1000
MTEXTEND
  0
MTEXT
  5
55FE
330
1A
100
AcDbEntity
  8
SUNPOU
100
AcDbMText
 10
107652.5781750715
 20
106340.3286866505
 30
0.0
 40
3.5
 41
0.0
 71
     9
 72
     5
  1

1001
ACAD
1000
MTEXTBEGIN
1070
    73
1070
     1
1070
    44
1040
1.0
1070
    74
1070
     0
1000
MTEXTEND
  0
MTEXT
  5
55FF
330
1A
100
AcDbEntity
  8
SUNPOU
100
AcDbMText
 10
73193.09268743351
 20
66158.78082845056
 30
0.0
 40
10.5
 41
0.0
 71
     9
 72
     5
  1

1001
ACAD
1000
MTEXTBEGIN
1070
    73
1070
     1
1070
    44
1040
1.0
1070
    74
1070
     0
1000
MTEXTEND
  0
MTEXT
  5
5600
330
1A
100
AcDbEntity
  8
SUNPOU
100
AcDbMText
 10
75916.39889159806
 20
66563.46252003162
 30
0.0
 40
3.5
 41
0.0
 71
     9
 72
     5
  1

1001
ACAD
1000
MTEXTBEGIN
1070
    73
1070
     1
1070
    44
1040
1.0
1070
    74
1070
     0
1000
MTEXTEND
  0
MTEXT
  5
5601
330
1A
100
AcDbEntity
  8
SUNPOU
100
AcDbMText
 10
75124.04436649058
 20
63402.1566819768
 30
0.0
 40
10.5
 41
0.0
 71
     9
 72
     5
  1

1001
ACAD
1000
MTEXTBEGIN
1070
    73
1070
     1
1070
    44
1040
1.0
1070
    74
1070
     0
1000
MTEXTEND
  0
MTEXT
  5
5602
330
1A
100
AcDbEntity
  8
SUNPOU
100
AcDbMText
 10
77067.4516132
 20
61601.1076020988
 30
0.0
 40
3.5
 41
0.0
 71
     9
 72
     5
  1

1001
ACAD
1000
MTEXTBEGIN
1070
    73
1070
     1
1070
    44
1040
1.0
1070
    74
1070
     0
1000
MTEXTEND
  0
MTEXT
  5
5603
330
1A
100
AcDbEntity
  8
SUNPOU
100
AcDbMText
 10
77012.54710378659
 20
61488.33571981449
 30
0.0
 40
3.5
 41
0.0
 71
     9
 72
     5
  1

1001
ACAD
1000
MTEXTBEGIN
1070
    73
1070
     1
1070
    44
1040
1.0
1070
    74
1070
     0
1000
MTEXTEND
  0
MTEXT
  5
5604
330
1A
100
AcDbEntity
  8
SUNPOU
100
AcDbMText
 10
76376.61896736668
 20
60677.01447874797
 30
0.0
 40
3.5
 41
0.0
 71
     9
 72
     5
  1

1001
ACAD
1000
MTEXTBEGIN
1070
    73
1070
     1
1070
    44
1040
1.0
1070
    74
1070
     0
1000
MTEXTEND
  0
MTEXT
  5
5605
330
1A
100
AcDbEntity
  8
SUNPOU
100
AcDbMText
 10
76375.37854794595
 20
60676.76650181047
 30
0.0
 40
10.5
 41
0.0
 71
     9
 72
     5
  1

1001
ACAD
1000
MTEXTBEGIN
1070
    73
1070
     1
1070
    44
1040
1.0
1070
    74
1070
     0
1000
MTEXTEND
  0
MTEXT
  5
5606
330
1A
100
AcDbEntity
  8
SUNPOU
100
AcDbMText
 10
84709.93991079748
 20
78034.0328293557
 30
0.0
 40
10.5
 41
0.0
 71
     9
 72
     5
  1

1001
ACAD
1000
MTEXTBEGIN
1070
    73
1070
     1
1070
    44
1040
1.0
1070
    74
1070
     0
1000
MTEXTEND
  0
MTEXT
  5
5607
330
1A
100
AcDbEntity
  8
SUNPOU
100
AcDbMText
 10
93432.10747671548
 20
85449.86736089315
 30
0.0
 40
10.5
 41
0.0
 71
     9
 72
     5
  1

1001
ACAD
1000
MTEXTBEGIN
1070
    73
1070
     1
1070
    44
1040
1.0
1070
    74
1070
     0
1000
MTEXTEND
  0
MTEXT
  5
5608
330
1A
100
AcDbEntity
  8
SUNPOU
100
AcDbMText
 10
112385.8661940454
 20
102916.4434133851
 30
0.0
 40
10.5
 41
0.0
 71
     9
 72
     5
  1

1001
ACAD
1000
MTEXTBEGIN
1070
    73
1070
     1
1070
    44
1040
1.0
1070
    74
1070
     0
1000
MTEXTEND
  0
MTEXT
  5
5609
330
1A
100
AcDbEntity
  8
SUNPOU
100
AcDbMText
 10
114329.2734407548
 20
101115.3943335072
 30
0.0
 40
3.5
 41
0.0
 71
     9
 72
     5
  1

1001
ACAD
1000
MTEXTBEGIN
1070
    73
1070
     1
1070
    44
1040
1.0
1070
    74
1070
     0
1000
MTEXTEND
  0
MTEXT
  5
560A
330
1A
100
AcDbEntity
  8
SUNPOU
100
AcDbMText
 10
145455.4532733745
 20
143610.3400011645
 30
0.0
 40
10.5
 41
0.0
 71
     9
 72
     5
  1

1001
ACAD
1000
MTEXTBEGIN
1070
    73
1070
     1
1070
    44
1040
1.0
1070
    74
1070
     0
1000
MTEXTEND
  0
MTEXT
  5
560B
330
1A
100
AcDbEntity
  8
SUNPOU
100
AcDbMText
 10
147398.8605200839
 20
141809.2909212864
 30
0.0
 40
3.5
 41
0.0
 71
     9
 72
     5
  1

1001
ACAD
1000
MTEXTBEGIN
1070
    73
1070
     1
1070
    44
1040
1.0
1070
    74
1070
     0
1000
MTEXTEND
  0
MTEXT
  5
560C
330
1A
100
AcDbEntity
  8
SUNPOU
100
AcDbMText
 10
95895.72097917013
 20
89443.5051561396
 30
0.0
 40
10.5
 41
0.0
 71
     9
 72
     5
  1

1001
ACAD
1000
MTEXTBEGIN
1070
    73
1070
     1
1070
    44
1040
1.0
1070
    74
1070
     0
1000
MTEXTEND
  0
MTEXT
  5
560D
330
1A
100
AcDbEntity
  8
SUNPOU
100
AcDbMText
 10
81947.72087879414
 20
70271.1060170274
 30
0.0
 40
3.5
 41
0.0
 71
     7
 72
     5
  1

1001
ACAD
1000
MTEXTBEGIN
1070
    73
1070
     1
1070
    44
1040
1.0
1070
    74
1070
     0
1000
MTEXTEND
  0
MTEXT
  5
560E
330
1A
100
AcDbEntity
  8
SUNPOU
100
AcDbMText
 10
62932.89027578729
 20
58033.25474784561
 30
0.0
 40
10.5
 41
0.0
 71
     7
 72
     5
  1

1001
ACAD
1000
MTEXTBEGIN
1070
    73
1070
     1
1070
    44
1040
1.0
1070
    74
1070
     0
1000
MTEXTEND
  0
MTEXT
  5
560F
330
1A
100
AcDbEntity
  8
SUNPOU
100
AcDbMText
 10
50475.66201083918
 20
42188.32316974719
 30
0.0
 40
35.0
 41
0.0
 71
     9
 72
     5
  1

1001
ACAD
1000
MTEXTBEGIN
1070
    73
1070
     1
1070
    44
1040
1.0
1070
    74
1070
     0
1000
MTEXTEND
  0
MTEXT
  5
5610
330
1A
100
AcDbEntity
  8
SUNPOU
100
AcDbMText
 10
49384.14706841413
 20
42797.0985797959
 30
0.0
 40
350.0000004171781
 41
0.0
 71
     7
 72
     5
  1

1001
ACAD
1000
MTEXTBEGIN
1070
    73
1070
     1
1070
    44
1040
1.0
1070
    74
1070
     0
1000
MTEXTEND
  0
MTEXT
  5
5611
330
1A
100
AcDbEntity
  8
0
100
AcDbMText
 10
55428.09782635704
 20
40777.02094193211
 30
0.0
 40
8.0
 41
0.0
 71
     7
 72
     5
  1

1001
ACAD
1000
MTEXTBEGIN
1070
    73
1070
     1
1070
    44
1040
1.0
1070
    74
1070
     0
1000
MTEXTEND
  0
MTEXT
  5
5612
330
1A
100
AcDbEntity
  8
0
100
AcDbMText
 10
57713.45551625194
 20
41747.81123668317
 30
0.0
 40
8.0
 41
0.0
 71
     7
 72
     5
  1

1001
ACAD
1000
MTEXTBEGIN
1070
    73
1070
     1
1070
    44
1040
1.0
1070
    74
1070
     0
1000
MTEXTEND
  0
MTEXT
  5
5613
330
1A
100
AcDbEntity
  8
SUNPOU
100
AcDbMText
 10
60379.35253693408
 20
51259.9226290583
 30
0.0
 40
10.5
 41
0.0
 71
     1
 72
     5
  1

1001
ACAD
1000
MTEXTBEGIN
1070
    73
1070
     1
1070
    44
1040
1.0
1070
    74
1070
     0
1000
MTEXTEND
  0
MTEXT
  5
5614
330
1A
100
AcDbEntity
  8
SUNPOU
100
AcDbMText
 10
52448.42934099814
 20
50313.12949514535
 30
0.0
 40
10.5
 41
0.0
 71
     7
 72
     5
  1

1001
ACAD
1000
MTEXTBEGIN
1070
    73
1070
     1
1070
    44
1040
1.0
1070
    74
1070
     0
1000
MTEXTEND
  0
MTEXT
  5
5615
330
1A
100
AcDbEntity
  8
SUNPOU
100
AcDbMText
 10
55397.41300551091
 20
55213.80556698819
 30
0.0
 40
10.5
 41
0.0
 71
     7
 72
     5
  1

1001
ACAD
1000
MTEXTBEGIN
1070
    73
1070
     1
1070
    44
1040
1.0
1070
    74
1070
     0
1000
MTEXTEND
  0
MTEXT
  5
5616
330
1A
100
AcDbEntity
  8
SUNPOU
100
AcDbMText
 10
59906.49113346147
 20
57650.10631460826
 30
0.0
 40
10.5
 41
0.0
 71
     7
 72
     5
  1

1001
ACAD
1000
MTEXTBEGIN
1070
    73
1070
     1
1070
    44
1040
1.0
1070
    74
1070
     0
1000
MTEXTEND
  0
MTEXT
  5
5617
330
1A
100
AcDbEntity
  8
SUNPOU
100
AcDbMText
 10
43507.32902022979
 20
36647.70246499718
 30
0.0
 40
10.5
 41
0.0
 71
     7
 72
     5
  1

1001
ACAD
1000
MTEXTBEGIN
1070
    73
1070
     1
1070
    44
1040
1.0
1070
    74
1070
     0
1000
MTEXTEND
  0
MTEXT
  5
5618
330
1A
100
AcDbEntity
  8
SUNPOU
100
AcDbMText
 10
94698.84745413006
 20
82320.68302864542
 30
0.0
 40
10.5
 41
0.0
 71
     9
 72
     5
  1

1001
ACAD
1000
MTEXTBEGIN
1070
    73
1070
     1
1070
    44
1040
1.0
1070
    74
1070
     0
1000
MTEXTEND
  0
MTEXT
  5
5619
330
1A
100
AcDbEntity
  8
SUNPOU
100
AcDbMText
 10
103421.015020048
 20
89736.5175601829
 30
0.0
 40
10.5
 41
0.0
 71
     9
 72
     5
  1

1001
ACAD
1000
MTEXTBEGIN
1070
    73
1070
     1
1070
    44
1040
1.0
1070
    74
1070
     0
1000
MTEXTEND
  0
MTEXT
  5
561A
330
1A
100
AcDbEntity
  8
SUNPOU
100
AcDbMText
 10
122374.773737378
 20
107203.0936126749
 30
0.0
 40
10.5
 41
0.0
 71
     9
 72
     5
  1

1001
ACAD
1000
MTEXTBEGIN
1070
    73
1070
     1
1070
    44
1040
1.0
1070
    74
1070
     0
1000
MTEXTEND
  0
MTEXT
  5
561B
330
1A
100
AcDbEntity
  8
SUNPOU
100
AcDbMText
 10
124318.1809840874
 20
105402.0445327969
 30
0.0
 40
3.5
 41
0.0
 71
     9
 72
     5
  1

1001
ACAD
1000
MTEXTBEGIN
1070
    73
1070
     1
1070
    44
1040
1.0
1070
    74
1070
     0
1000
MTEXTEND
  0
MTEXT
  5
561C
330
1A
100
AcDbEntity
  8
SUNPOU
100
AcDbMText
 10
155444.3608167071
 20
147896.9902004542
 30
0.0
 40
10.5
 41
0.0
 71
     9
 72
     5
  1

1001
ACAD
1000
MTEXTBEGIN
1070
    73
1070
     1
1070
    44
1040
1.0
1070
    74
1070
     0
1000
MTEXTEND
  0
MTEXT
  5
561D
330
1A
100
AcDbEntity
  8
SUNPOU
100
AcDbMText
 10
157387.7680634165
 20
146095.9411205762
 30
0.0
 40
3.5
 41
0.0
 71
     9
 72
     5
  1

1001
ACAD
1000
MTEXTBEGIN
1070
    73
1070
     1
1070
    44
1040
1.0
1070
    74
1070
     0
1000
MTEXTEND
  0
MTEXT
  5
561E
330
1A
100
AcDbEntity
  8
SUNPOU
100
AcDbMText
 10
105884.6285225027
 20
93730.15535542933
 30
0.0
 40
10.5
 41
0.0
 71
     9
 72
     5
  1

1001
ACAD
1000
MTEXTBEGIN
1070
    73
1070
     1
1070
    44
1040
1.0
1070
    74
1070
     0
1000
MTEXTEND
  0
MTEXT
  5
561F
330
1A
100
AcDbEntity
  8
SUNPOU
100
AcDbMText
 10
91936.6284221267
 20
74557.75621631714
 30
0.0
 40
3.5
 41
0.0
 71
     7
 72
     5
  1

1001
ACAD
1000
MTEXTBEGIN
1070
    73
1070
     1
1070
    44
1040
1.0
1070
    74
1070
     0
1000
MTEXTEND
  0
MTEXT
  5
5620
330
1A
100
AcDbEntity
  8
SUNPOU
100
AcDbMText
 10
72921.79781911986
 20
62319.90494713533
 30
0.0
 40
10.5
 41
0.0
 71
     7
 72
     5
  1

1001
ACAD
1000
MTEXTBEGIN
1070
    73
1070
     1
1070
    44
1040
1.0
1070
    74
1070
     0
1000
MTEXTEND
  0
MTEXT
  5
5621
330
1A
100
AcDbEntity
  8
SUNPOU
100
AcDbMText
 10
60464.56955417175
 20
46474.97336903692
 30
0.0
 40
35.0
 41
0.0
 71
     9
 72
     5
  1

1001
ACAD
1000
MTEXTBEGIN
1070
    73
1070
     1
1070
    44
1040
1.0
1070
    74
1070
     0
1000
MTEXTEND
  0
MTEXT
  5
5622
330
1A
100
AcDbEntity
  8
SUNPOU
100
AcDbMText
 10
59373.05461174672
 20
47083.74877908562
 30
0.0
 40
350.0000004171781
 41
0.0
 71
     7
 72
     5
  1

1001
ACAD
1000
MTEXTBEGIN
1070
    73
1070
     1
1070
    44
1040
1.0
1070
    74
1070
     0
1000
MTEXTEND
  0
MTEXT
  5
5623
330
1A
100
AcDbEntity
  8
0
100
AcDbMText
 10
65417.00536968962
 20
45063.67114122186
 30
0.0
 40
8.0
 41
0.0
 71
     7
 72
     5
  1

1001
ACAD
1000
MTEXTBEGIN
1070
    73
1070
     1
1070
    44
1040
1.0
1070
    74
1070
     0
1000
MTEXTEND
  0
MTEXT
  5
5624
330
1A
100
AcDbEntity
  8
0
100
AcDbMText
 10
67702.36305958452
 20
46034.46143597292
 30
0.0
 40
8.0
 41
0.0
 71
     7
 72
     5
  1

1001
ACAD
1000
MTEXTBEGIN
1070
    73
1070
     1
1070
    44
1040
1.0
1070
    74
1070
     0
1000
MTEXTEND
  0
MTEXT
  5
5625
330
1A
100
AcDbEntity
  8
SUNPOU
100
AcDbMText
 10
70368.26008026666
 20
55546.57282834803
 30
0.0
 40
10.5
 41
0.0
 71
     1
 72
     5
  1

1001
ACAD
1000
MTEXTBEGIN
1070
    73
1070
     1
1070
    44
1040
1.0
1070
    74
1070
     0
1000
MTEXTEND
  0
MTEXT
  5
5626
330
1A
100
AcDbEntity
  8
SUNPOU
100
AcDbMText
 10
62437.33688433072
 20
54599.77969443508
 30
0.0
 40
10.5
 41
0.0
 71
     7
 72
     5
  1

1001
ACAD
1000
MTEXTBEGIN
1070
    73
1070
     1
1070
    44
1040
1.0
1070
    74
1070
     0
1000
MTEXTEND
  0
MTEXT
  5
5627
330
1A
100
AcDbEntity
  8
SUNPOU
100
AcDbMText
 10
65386.32054884349
 20
59500.45576627792
 30
0.0
 40
10.5
 41
0.0
 71
     7
 72
     5
  1

1001
ACAD
1000
MTEXTBEGIN
1070
    73
1070
     1
1070
    44
1040
1.0
1070
    74
1070
     0
1000
MTEXTEND
  0
MTEXT
  5
5628
330
1A
100
AcDbEntity
  8
SUNPOU
100
AcDbMText
 10
69895.39867679405
 20
61936.756513898
 30
0.0
 40
10.5
 41
0.0
 71
     7
 72
     5
  1

1001
ACAD
1000
MTEXTBEGIN
1070
    73
1070
     1
1070
    44
1040
1.0
1070
    74
1070
     0
1000
MTEXTEND
  0
MTEXT
  5
5629
330
1A
100
AcDbEntity
  8
SUNPOU
100
AcDbMText
 10
53496.23656356237
 20
40934.35266428691
 30
0.0
 40
10.5
 41
0.0
 71
     7
 72
     5
  1

1001
ACAD
1000
MTEXTBEGIN
1070
    73
1070
     1
1070
    44
1040
1.0
1070
    74
1070
     0
1000
MTEXTEND
  0
MTEXT
  5
562A
330
1A
100
AcDbEntity
  8
SUNPOU
100
AcDbMText
 10
55306.99947493731
 20
47261.76665176547
 30
0.0
 40
10.5
 41
0.0
 71
     9
 72
     5
  1

1001
ACAD
1000
MTEXTBEGIN
1070
    73
1070
     1
1070
    44
1040
1.0
1070
    74
1070
     0
1000
MTEXTEND
  0
MTEXT
  5
562B
330
1A
100
AcDbEntity
  8
SUNPOU
100
AcDbMText
 10
64029.16704085528
 20
54677.60118330295
 30
0.0
 40
10.5
 41
0.0
 71
     9
 72
     5
  1

1001
ACAD
1000
MTEXTBEGIN
1070
    73
1070
     1
1070
    44
1040
1.0
1070
    74
1070
     0
1000
MTEXTEND
  0
MTEXT
  5
562C
330
1A
100
AcDbEntity
  8
SUNPOU
100
AcDbMText
 10
82982.92575818527
 20
72144.17723579499
 30
0.0
 40
10.5
 41
0.0
 71
     9
 72
     5
  1

1001
ACAD
1000
MTEXTBEGIN
1070
    73
1070
     1
1070
    44
1040
1.0
1070
    74
1070
     0
1000
MTEXTEND
  0
MTEXT
  5
562D
330
1A
100
AcDbEntity
  8
SUNPOU
100
AcDbMText
 10
84926.33300489467
 20
70343.12815591698
 30
0.0
 40
3.5
 41
0.0
 71
     9
 72
     5
  1

1001
ACAD
1000
MTEXTBEGIN
1070
    73
1070
     1
1070
    44
1040
1.0
1070
    74
1070
     0
1000
MTEXTEND
  0
MTEXT
  5
562E
330
1A
100
AcDbEntity
  8
SUNPOU
100
AcDbMText
 10
116052.5128375143
 20
112838.0738235743
 30
0.0
 40
10.5
 41
0.0
 71
     9
 72
     5
  1

1001
ACAD
1000
MTEXTBEGIN
1070
    73
1070
     1
1070
    44
1040
1.0
1070
    74
1070
     0
1000
MTEXTEND
  0
MTEXT
  5
562F
330
1A
100
AcDbEntity
  8
SUNPOU
100
AcDbMText
 10
117995.9200842238
 20
111037.0247436963
 30
0.0
 40
3.5
 41
0.0
 71
     9
 72
     5
  1

1001
ACAD
1000
MTEXTBEGIN
1070
    73
1070
     1
1070
    44
1040
1.0
1070
    74
1070
     0
1000
MTEXTEND
  0
MTEXT
  5
5630
330
1A
100
AcDbEntity
  8
SUNPOU
100
AcDbMText
 10
66492.78054330994
 20
58671.23897854939
 30
0.0
 40
10.5
 41
0.0
 71
     9
 72
     5
  1

1001
ACAD
1000
MTEXTBEGIN
1070
    73
1070
     1
1070
    44
1040
1.0
1070
    74
1070
     0
1000
MTEXTEND
  0
MTEXT
  5
5631
330
1A
100
AcDbEntity
  8
SUNPOU
100
AcDbMText
 10
52544.78044293396
 20
39498.83983943717
 30
0.0
 40
3.5
 41
0.0
 71
     7
 72
     5
  1

1001
ACAD
1000
MTEXTBEGIN
1070
    73
1070
     1
1070
    44
1040
1.0
1070
    74
1070
     0
1000
MTEXTEND
  0
MTEXT
  5
5632
330
1A
100
AcDbEntity
  8
SUNPOU
100
AcDbMText
 10
66237.13112570454
 20
48857.90306045851
 30
0.0
 40
10.5
 41
0.0
 71
     9
 72
     5
  1

1001
ACAD
1000
MTEXTBEGIN
1070
    73
1070
     1
1070
    44
1040
1.0
1070
    74
1070
     0
1000
MTEXTEND
  0
MTEXT
  5
5633
330
1A
100
AcDbEntity
  8
SUNPOU
100
AcDbMText
 10
74959.29869162252
 20
56273.737591996
 30
0.0
 40
10.5
 41
0.0
 71
     9
 72
     5
  1

1001
ACAD
1000
MTEXTBEGIN
1070
    73
1070
     1
1070
    44
1040
1.0
1070
    74
1070
     0
1000
MTEXTEND
  0
MTEXT
  5
5634
330
1A
100
AcDbEntity
  8
SUNPOU
100
AcDbMText
 10
93913.0574089525
 20
73740.31364448805
 30
0.0
 40
10.5
 41
0.0
 71
     9
 72
     5
  1

1001
ACAD
1000
MTEXTBEGIN
1070
    73
1070
     1
1070
    44
1040
1.0
1070
    74
1070
     0
1000
MTEXTEND
  0
MTEXT
  5
5635
330
1A
100
AcDbEntity
  8
SUNPOU
100
AcDbMText
 10
95856.46465566192
 20
71939.26456461004
 30
0.0
 40
3.5
 41
0.0
 71
     9
 72
     5
  1

1001
ACAD
1000
MTEXTBEGIN
1070
    73
1070
     1
1070
    44
1040
1.0
1070
    74
1070
     0
1000
MTEXTEND
  0
MTEXT
  5
5636
330
1A
100
AcDbEntity
  8
SUNPOU
100
AcDbMText
 10
126982.6444882816
 20
114434.2102322673
 30
0.0
 40
10.5
 41
0.0
 71
     9
 72
     5
  1

1001
ACAD
1000
MTEXTBEGIN
1070
    73
1070
     1
1070
    44
1040
1.0
1070
    74
1070
     0
1000
MTEXTEND
  0
MTEXT
  5
5637
330
1A
100
AcDbEntity
  8
SUNPOU
100
AcDbMText
 10
128926.051734991
 20
112633.1611523893
 30
0.0
 40
3.5
 41
0.0
 71
     9
 72
     5
  1

1001
ACAD
1000
MTEXTBEGIN
1070
    73
1070
     1
1070
    44
1040
1.0
1070
    74
1070
     0
1000
MTEXTEND
  0
MTEXT
  5
5638
330
1A
100
AcDbEntity
  8
SUNPOU
100
AcDbMText
 10
77422.91219407717
 20
60267.37538724244
 30
0.0
 40
10.5
 41
0.0
 71
     9
 72
     5
  1

1001
ACAD
1000
MTEXTBEGIN
1070
    73
1070
     1
1070
    44
1040
1.0
1070
    74
1070
     0
1000
MTEXTEND
  0
MTEXT
  5
5639
330
1A
100
AcDbEntity
  8
SUNPOU
100
AcDbMText
 10
63474.91209370119
 20
41094.97624813023
 30
0.0
 40
3.5
 41
0.0
 71
     7
 72
     5
  1

1001
ACAD
1000
MTEXTBEGIN
1070
    73
1070
     1
1070
    44
1040
1.0
1070
    74
1070
     0
1000
MTEXTEND
  0
MTEXT
  5
563A
330
1A
100
AcDbEntity
  8
SUNPOU
100
AcDbMText
 10
48117.65086229006
 20
40806.11043916631
 30
0.0
 40
10.5
 41
0.0
 71
     9
 72
     5
  1

1001
ACAD
1000
MTEXTBEGIN
1070
    73
1070
     1
1070
    44
1040
1.0
1070
    74
1070
     0
1000
MTEXTEND
  0
MTEXT
  5
563B
330
1A
100
AcDbEntity
  8
SUNPOU
100
AcDbMText
 10
67071.40957962004
 20
58272.68649165837
 30
0.0
 40
10.5
 41
0.0
 71
     9
 72
     5
  1

1001
ACAD
1000
MTEXTBEGIN
1070
    73
1070
     1
1070
    44
1040
1.0
1070
    74
1070
     0
1000
MTEXTEND
  0
MTEXT
  5
563C
330
1A
100
AcDbEntity
  8
SUNPOU
100
AcDbMText
 10
69014.81682632945
 20
56471.63741178035
 30
0.0
 40
3.5
 41
0.0
 71
     9
 72
     5
  1

1001
ACAD
1000
MTEXTBEGIN
1070
    73
1070
     1
1070
    44
1040
1.0
1070
    74
1070
     0
1000
MTEXTEND
  0
MTEXT
  5
563D
330
1A
100
AcDbEntity
  8
SUNPOU
100
AcDbMText
 10
100140.9966589491
 20
98966.58307943772
 30
0.0
 40
10.5
 41
0.0
 71
     9
 72
     5
  1

1001
ACAD
1000
MTEXTBEGIN
1070
    73
1070
     1
1070
    44
1040
1.0
1070
    74
1070
     0
1000
MTEXTEND
  0
MTEXT
  5
563E
330
1A
100
AcDbEntity
  8
SUNPOU
100
AcDbMText
 10
102084.4039056586
 20
97165.53399955969
 30
0.0
 40
3.5
 41
0.0
 71
     9
 72
     5
  1

1001
ACAD
1000
MTEXTBEGIN
1070
    73
1070
     1
1070
    44
1040
1.0
1070
    74
1070
     0
1000
MTEXTEND
  0
MTEXT
  5
563F
330
1A
100
AcDbEntity
  8
SUNPOU
100
AcDbMText
 10
50581.26436474472
 20
44799.74823441275
 30
0.0
 40
10.5
 41
0.0
 71
     9
 72
     5
  1

1001
ACAD
1000
MTEXTBEGIN
1070
    73
1070
     1
1070
    44
1040
1.0
1070
    74
1070
     0
1000
MTEXTEND
  0
MTEXT
  5
5640
330
1A
100
AcDbEntity
  8
SUNPOU
100
AcDbMText
 10
36633.26426436873
 20
25627.34909530054
 30
0.0
 40
3.5
 41
0.0
 71
     7
 72
     5
  1

1001
ACAD
1000
MTEXTBEGIN
1070
    73
1070
     1
1070
    44
1040
1.0
1070
    74
1070
     0
1000
MTEXTEND
  0
MTEXT
  5
5641
330
1A
100
AcDbEntity
  8
SUNPOU
100
AcDbMText
 10
61069.42493315968
 20
52574.61207825771
 30
0.0
 40
10.5
 41
0.0
 71
     9
 72
     5
  1

1001
ACAD
1000
MTEXTBEGIN
1070
    73
1070
     1
1070
    44
1040
1.0
1070
    74
1070
     0
1000
MTEXTEND
  0
MTEXT
  5
5642
330
1A
100
AcDbEntity
  8
SUNPOU
100
AcDbMText
 10
80023.18365048967
 20
70041.18813074978
 30
0.0
 40
10.5
 41
0.0
 71
     9
 72
     5
  1

1001
ACAD
1000
MTEXTBEGIN
1070
    73
1070
     1
1070
    44
1040
1.0
1070
    74
1070
     0
1000
MTEXTEND
  0
MTEXT
  5
5643
330
1A
100
AcDbEntity
  8
SUNPOU
100
AcDbMText
 10
81966.59089719908
 20
68240.13905087176
 30
0.0
 40
3.5
 41
0.0
 71
     9
 72
     5
  1

1001
ACAD
1000
MTEXTBEGIN
1070
    73
1070
     1
1070
    44
1040
1.0
1070
    74
1070
     0
1000
MTEXTEND
  0
MTEXT
  5
5644
330
1A
100
AcDbEntity
  8
SUNPOU
100
AcDbMText
 10
113092.7707298187
 20
110735.0847185291
 30
0.0
 40
10.5
 41
0.0
 71
     9
 72
     5
  1

1001
ACAD
1000
MTEXTBEGIN
1070
    73
1070
     1
1070
    44
1040
1.0
1070
    74
1070
     0
1000
MTEXTEND
  0
MTEXT
  5
5645
330
1A
100
AcDbEntity
  8
SUNPOU
100
AcDbMText
 10
115036.1779765282
 20
108934.0356386511
 30
0.0
 40
3.5
 41
0.0
 71
     9
 72
     5
  1

1001
ACAD
1000
MTEXTBEGIN
1070
    73
1070
     1
1070
    44
1040
1.0
1070
    74
1070
     0
1000
MTEXTEND
  0
MTEXT
  5
5646
330
1A
100
AcDbEntity
  8
SUNPOU
100
AcDbMText
 10
63533.03843561433
 20
56568.24987350415
 30
0.0
 40
10.5
 41
0.0
 71
     9
 72
     5
  1

1001
ACAD
1000
MTEXTBEGIN
1070
    73
1070
     1
1070
    44
1040
1.0
1070
    74
1070
     0
1000
MTEXTEND
  0
MTEXT
  5
5647
330
1A
100
AcDbEntity
  8
SUNPOU
100
AcDbMText
 10
49585.03833523835
 20
37395.85073439196
 30
0.0
 40
3.5
 41
0.0
 71
     7
 72
     5
  1

1001
ACAD
1000
MTEXTBEGIN
1070
    73
1070
     1
1070
    44
1040
1.0
1070
    74
1070
     0
1000
MTEXTEND
  0
MTEXT
  5
5648
330
1A
100
AcDbEntity
  8
SUNPOU
100
AcDbMText
 10
77137.31641337052
 20
70907.11375048141
 30
0.0
 40
10.5
 41
0.0
 71
     9
 72
     5
  1

1001
ACAD
1000
MTEXTBEGIN
1070
    73
1070
     1
1070
    44
1040
1.0
1070
    74
1070
     0
1000
MTEXTEND
  0
MTEXT
  5
5649
330
1A
100
AcDbEntity
  8
SUNPOU
100
AcDbMText
 10
79080.72366007995
 20
69106.06467060339
 30
0.0
 40
3.5
 41
0.0
 71
     9
 72
     5
  1

1001
ACAD
1000
MTEXTBEGIN
1070
    73
1070
     1
1070
    44
1040
1.0
1070
    74
1070
     0
1000
MTEXTEND
  0
MTEXT
  5
564A
330
1A
100
AcDbEntity
  8
SUNPOU
100
AcDbMText
 10
110206.9034926996
 20
111601.0103382607
 30
0.0
 40
10.5
 41
0.0
 71
     9
 72
     5
  1

1001
ACAD
1000
MTEXTBEGIN
1070
    73
1070
     1
1070
    44
1040
1.0
1070
    74
1070
     0
1000
MTEXTEND
  0
MTEXT
  5
564B
330
1A
100
AcDbEntity
  8
SUNPOU
100
AcDbMText
 10
112150.310739409
 20
109799.9612583827
 30
0.0
 40
3.5
 41
0.0
 71
     9
 72
     5
  1

1001
ACAD
1000
MTEXTBEGIN
1070
    73
1070
     1
1070
    44
1040
1.0
1070
    74
1070
     0
1000
MTEXTEND
  0
MTEXT
  5
564C
330
1A
100
AcDbEntity
  8
SUNPOU
100
AcDbMText
 10
108819.1333204968
 20
110677.9087286761
 30
0.0
 40
10.5
 41
0.0
 71
     9
 72
     5
  1

1001
ACAD
1000
MTEXTBEGIN
1070
    73
1070
     1
1070
    44
1040
1.0
1070
    74
1070
     0
1000
MTEXTEND
  0
MTEXT
  5
564D
330
1A
100
AcDbEntity
  8
SUNPOU
100
AcDbMText
 10
110762.5405672062
 20
108876.8596487981
 30
0.0
 40
3.5
 41
0.0
 71
     9
 72
     5
  1

1001
ACAD
1000
MTEXTBEGIN
1070
    73
1070
     1
1070
    44
1040
1.0
1070
    74
1070
     0
1000
MTEXTEND
  0
MTEXT
  5
564E
330
1A
100
AcDbEntity
  8
SUNPOU
100
AcDbMText
 10
76303.05507956816
 20
68695.31179059812
 30
0.0
 40
10.5
 41
0.0
 71
     9
 72
     5
  1

1001
ACAD
1000
MTEXTBEGIN
1070
    73
1070
     1
1070
    44
1040
1.0
1070
    74
1070
     0
1000
MTEXTEND
  0
MTEXT
  5
564F
330
1A
100
AcDbEntity
  8
SUNPOU
100
AcDbMText
 10
79026.36128373271
 20
69099.99348217918
 30
0.0
 40
3.5
 41
0.0
 71
     9
 72
     5
  1

1001
ACAD
1000
MTEXTBEGIN
1070
    73
1070
     1
1070
    44
1040
1.0
1070
    74
1070
     0
1000
MTEXTEND
  0
MTEXT
  5
5650
330
1A
100
AcDbEntity
  8
SUNPOU
100
AcDbMText
 10
78234.00675862522
 20
65938.68764412436
 30
0.0
 40
10.5
 41
0.0
 71
     9
 72
     5
  1

1001
ACAD
1000
MTEXTBEGIN
1070
    73
1070
     1
1070
    44
1040
1.0
1070
    74
1070
     0
1000
MTEXTEND
  0
MTEXT
  5
5651
330
1A
100
AcDbEntity
  8
SUNPOU
100
AcDbMText
 10
80177.41400533465
 20
64137.63856424636
 30
0.0
 40
3.5
 41
0.0
 71
     9
 72
     5
  1

1001
ACAD
1000
MTEXTBEGIN
1070
    73
1070
     1
1070
    44
1040
1.0
1070
    74
1070
     0
1000
MTEXTEND
  0
MTEXT
  5
5652
330
1A
100
AcDbEntity
  8
SUNPOU
100
AcDbMText
 10
80122.50949592123
 20
64024.86668196205
 30
0.0
 40
3.5
 41
0.0
 71
     9
 72
     5
  1

1001
ACAD
1000
MTEXTBEGIN
1070
    73
1070
     1
1070
    44
1040
1.0
1070
    74
1070
     0
1000
MTEXTEND
  0
MTEXT
  5
5653
330
1A
100
AcDbEntity
  8
SUNPOU
100
AcDbMText
 10
79486.58135950133
 20
63213.54544089553
 30
0.0
 40
3.5
 41
0.0
 71
     9
 72
     5
  1

1001
ACAD
1000
MTEXTBEGIN
1070
    73
1070
     1
1070
    44
1040
1.0
1070
    74
1070
     0
1000
MTEXTEND
  0
MTEXT
  5
5654
330
1A
100
AcDbEntity
  8
SUNPOU
100
AcDbMText
 10
79485.3409400806
 20
63213.29746395804
 30
0.0
 40
10.5
 41
0.0
 71
     9
 72
     5
  1

1001
ACAD
1000
MTEXTBEGIN
1070
    73
1070
     1
1070
    44
1040
1.0
1070
    74
1070
     0
1000
MTEXTEND
  0
MTEXT
  5
5655
330
1A
100
AcDbEntity
  8
SUNPOU
100
AcDbMText
 10
85473.63363627567
 20
80747.76348077064
 30
0.0
 40
10.5
 41
0.0
 71
     9
 72
     5
  1

1001
ACAD
1000
MTEXTBEGIN
1070
    73
1070
     1
1070
    44
1040
1.0
1070
    74
1070
     0
1000
MTEXTEND
  0
MTEXT
  5
5656
330
1A
100
AcDbEntity
  8
SUNPOU
100
AcDbMText
 10
94195.80120219368
 20
88163.59801230809
 30
0.0
 40
10.5
 41
0.0
 71
     9
 72
     5
  1

1001
ACAD
1000
MTEXTBEGIN
1070
    73
1070
     1
1070
    44
1040
1.0
1070
    74
1070
     0
1000
MTEXTEND
  0
MTEXT
  5
5657
330
1A
100
AcDbEntity
  8
SUNPOU
100
AcDbMText
 10
113149.5599195236
 20
105630.1740648001
 30
0.0
 40
10.5
 41
0.0
 71
     9
 72
     5
  1

1001
ACAD
1000
MTEXTBEGIN
1070
    73
1070
     1
1070
    44
1040
1.0
1070
    74
1070
     0
1000
MTEXTEND
  0
MTEXT
  5
5658
330
1A
100
AcDbEntity
  8
SUNPOU
100
AcDbMText
 10
115092.967166233
 20
103829.1249849221
 30
0.0
 40
3.5
 41
0.0
 71
     9
 72
     5
  1

1001
ACAD
1000
MTEXTBEGIN
1070
    73
1070
     1
1070
    44
1040
1.0
1070
    74
1070
     0
1000
MTEXTEND
  0
MTEXT
  5
5659
330
1A
100
AcDbEntity
  8
SUNPOU
100
AcDbMText
 10
146219.1469988527
 20
146324.0706525794
 30
0.0
 40
10.5
 41
0.0
 71
     9
 72
     5
  1

1001
ACAD
1000
MTEXTBEGIN
1070
    73
1070
     1
1070
    44
1040
1.0
1070
    74
1070
     0
1000
MTEXTEND
  0
MTEXT
  5
565A
330
1A
100
AcDbEntity
  8
SUNPOU
100
AcDbMText
 10
148162.5542455621
 20
144523.0215727014
 30
0.0
 40
3.5
 41
0.0
 71
     9
 72
     5
  1

1001
ACAD
1000
MTEXTBEGIN
1070
    73
1070
     1
1070
    44
1040
1.0
1070
    74
1070
     0
1000
MTEXTEND
  0
MTEXT
  5
565B
330
1A
100
AcDbEntity
  8
SUNPOU
100
AcDbMText
 10
96659.41470464833
 20
92157.23580755453
 30
0.0
 40
10.5
 41
0.0
 71
     9
 72
     5
  1

1001
ACAD
1000
MTEXTBEGIN
1070
    73
1070
     1
1070
    44
1040
1.0
1070
    74
1070
     0
1000
MTEXTEND
  0
MTEXT
  5
565C
330
1A
100
AcDbEntity
  8
SUNPOU
100
AcDbMText
 10
82711.41460427234
 20
72984.83666844234
 30
0.0
 40
3.5
 41
0.0
 71
     7
 72
     5
  1

1001
ACAD
1000
MTEXTBEGIN
1070
    73
1070
     1
1070
    44
1040
1.0
1070
    74
1070
     0
1000
MTEXTEND
  0
MTEXT
  5
565D
330
1A
100
AcDbEntity
  8
SUNPOU
100
AcDbMText
 10
63696.58400126548
 20
60746.98539926055
 30
0.0
 40
10.5
 41
0.0
 71
     7
 72
     5
  1

1001
ACAD
1000
MTEXTBEGIN
1070
    73
1070
     1
1070
    44
1040
1.0
1070
    74
1070
     0
1000
MTEXTEND
  0
MTEXT
  5
565E
330
1A
100
AcDbEntity
  8
SUNPOU
100
AcDbMText
 10
51239.35573631738
 20
44902.05382116213
 30
0.0
 40
35.0
 41
0.0
 71
     9
 72
     5
  1

1001
ACAD
1000
MTEXTBEGIN
1070
    73
1070
     1
1070
    44
1040
1.0
1070
    74
1070
     0
1000
MTEXTEND
  0
MTEXT
  5
565F
330
1A
100
AcDbEntity
  8
SUNPOU
100
AcDbMText
 10
50147.84079389233
 20
45510.82923121084
 30
0.0
 40
350.0000004171781
 41
0.0
 71
     7
 72
     5
  1

1001
ACAD
1000
MTEXTBEGIN
1070
    73
1070
     1
1070
    44
1040
1.0
1070
    74
1070
     0
1000
MTEXTEND
  0
MTEXT
  5
5660
330
1A
100
AcDbEntity
  8
0
100
AcDbMText
 10
56191.79155183523
 20
43490.75159334705
 30
0.0
 40
8.0
 41
0.0
 71
     7
 72
     5
  1

1001
ACAD
1000
MTEXTBEGIN
1070
    73
1070
     1
1070
    44
1040
1.0
1070
    74
1070
     0
1000
MTEXTEND
  0
MTEXT
  5
5661
330
1A
100
AcDbEntity
  8
0
100
AcDbMText
 10
58477.14924173013
 20
44461.54188809812
 30
0.0
 40
8.0
 41
0.0
 71
     7
 72
     5
  1

1001
ACAD
1000
MTEXTBEGIN
1070
    73
1070
     1
1070
    44
1040
1.0
1070
    74
1070
     0
1000
MTEXTEND
  0
MTEXT
  5
5662
330
1A
100
AcDbEntity
  8
SUNPOU
100
AcDbMText
 10
61143.04626241227
 20
53973.65328047324
 30
0.0
 40
10.5
 41
0.0
 71
     1
 72
     5
  1

1001
ACAD
1000
MTEXTBEGIN
1070
    73
1070
     1
1070
    44
1040
1.0
1070
    74
1070
     0
1000
MTEXTEND
  0
MTEXT
  5
5663
330
1A
100
AcDbEntity
  8
SUNPOU
100
AcDbMText
 10
53212.12306647634
 20
53026.86014656028
 30
0.0
 40
10.5
 41
0.0
 71
     7
 72
     5
  1

1001
ACAD
1000
MTEXTBEGIN
1070
    73
1070
     1
1070
    44
1040
1.0
1070
    74
1070
     0
1000
MTEXTEND
  0
MTEXT
  5
5664
330
1A
100
AcDbEntity
  8
SUNPOU
100
AcDbMText
 10
56161.1067309891
 20
57927.53621840312
 30
0.0
 40
10.5
 41
0.0
 71
     7
 72
     5
  1

1001
ACAD
1000
MTEXTBEGIN
1070
    73
1070
     1
1070
    44
1040
1.0
1070
    74
1070
     0
1000
MTEXTEND
  0
MTEXT
  5
5665
330
1A
100
AcDbEntity
  8
SUNPOU
100
AcDbMText
 10
60670.18485893966
 20
60363.8369660232
 30
0.0
 40
10.5
 41
0.0
 71
     7
 72
     5
  1

1001
ACAD
1000
MTEXTBEGIN
1070
    73
1070
     1
1070
    44
1040
1.0
1070
    74
1070
     0
1000
MTEXTEND
  0
MTEXT
  5
5666
330
1A
100
AcDbEntity
  8
SUNPOU
100
AcDbMText
 10
44271.02274570799
 20
39361.43311641212
 30
0.0
 40
10.5
 41
0.0
 71
     7
 72
     5
  1

1001
ACAD
1000
MTEXTBEGIN
1070
    73
1070
     1
1070
    44
1040
1.0
1070
    74
1070
     0
1000
MTEXTEND
  0
MTEXT
  5
5667
330
1A
100
AcDbEntity
  8
SUNPOU
100
AcDbMText
 10
95462.54117960824
 20
85034.41368006038
 30
0.0
 40
10.5
 41
0.0
 71
     9
 72
     5
  1

1001
ACAD
1000
MTEXTBEGIN
1070
    73
1070
     1
1070
    44
1040
1.0
1070
    74
1070
     0
1000
MTEXTEND
  0
MTEXT
  5
5668
330
1A
100
AcDbEntity
  8
SUNPOU
100
AcDbMText
 10
104184.7087455262
 20
92450.24821159784
 30
0.0
 40
10.5
 41
0.0
 71
     9
 72
     5
  1

1001
ACAD
1000
MTEXTBEGIN
1070
    73
1070
     1
1070
    44
1040
1.0
1070
    74
1070
     0
1000
MTEXTEND
  0
MTEXT
  5
5669
330
1A
100
AcDbEntity
  8
SUNPOU
100
AcDbMText
 10
123138.4674628562
 20
109916.8242640898
 30
0.0
 40
10.5
 41
0.0
 71
     9
 72
     5
  1

1001
ACAD
1000
MTEXTBEGIN
1070
    73
1070
     1
1070
    44
1040
1.0
1070
    74
1070
     0
1000
MTEXTEND
  0
MTEXT
  5
566A
330
1A
100
AcDbEntity
  8
SUNPOU
100
AcDbMText
 10
125081.8747095656
 20
108115.7751842118
 30
0.0
 40
3.5
 41
0.0
 71
     9
 72
     5
  1

1001
ACAD
1000
MTEXTBEGIN
1070
    73
1070
     1
1070
    44
1040
1.0
1070
    74
1070
     0
1000
MTEXTEND
  0
MTEXT
  5
566B
330
1A
100
AcDbEntity
  8
SUNPOU
100
AcDbMText
 10
156208.0545421853
 20
150610.7208518691
 30
0.0
 40
10.5
 41
0.0
 71
     9
 72
     5
  1

1001
ACAD
1000
MTEXTBEGIN
1070
    73
1070
     1
1070
    44
1040
1.0
1070
    74
1070
     0
1000
MTEXTEND
  0
MTEXT
  5
566C
330
1A
100
AcDbEntity
  8
SUNPOU
100
AcDbMText
 10
158151.4617888947
 20
148809.6717719911
 30
0.0
 40
3.5
 41
0.0
 71
     9
 72
     5
  1

1001
ACAD
1000
MTEXTBEGIN
1070
    73
1070
     1
1070
    44
1040
1.0
1070
    74
1070
     0
1000
MTEXTEND
  0
MTEXT
  5
566D
330
1A
100
AcDbEntity
  8
SUNPOU
100
AcDbMText
 10
106648.3222479809
 20
96443.88600684427
 30
0.0
 40
10.5
 41
0.0
 71
     9
 72
     5
  1

1001
ACAD
1000
MTEXTBEGIN
1070
    73
1070
     1
1070
    44
1040
1.0
1070
    74
1070
     0
1000
MTEXTEND
  0
MTEXT
  5
566E
330
1A
100
AcDbEntity
  8
SUNPOU
100
AcDbMText
 10
92700.3221476049
 20
77271.48686773207
 30
0.0
 40
3.5
 41
0.0
 71
     7
 72
     5
  1

1001
ACAD
1000
MTEXTBEGIN
1070
    73
1070
     1
1070
    44
1040
1.0
1070
    74
1070
     0
1000
MTEXTEND
  0
MTEXT
  5
566F
330
1A
100
AcDbEntity
  8
SUNPOU
100
AcDbMText
 10
73685.49154459806
 20
65033.63559855027
 30
0.0
 40
10.5
 41
0.0
 71
     7
 72
     5
  1

1001
ACAD
1000
MTEXTBEGIN
1070
    73
1070
     1
1070
    44
1040
1.0
1070
    74
1070
     0
1000
MTEXTEND
  0
MTEXT
  5
5670
330
1A
100
AcDbEntity
  8
SUNPOU
100
AcDbMText
 10
61228.26327964995
 20
49188.70402045185
 30
0.0
 40
35.0
 41
0.0
 71
     9
 72
     5
  1

1001
ACAD
1000
MTEXTBEGIN
1070
    73
1070
     1
1070
    44
1040
1.0
1070
    74
1070
     0
1000
MTEXTEND
  0
MTEXT
  5
5671
330
1A
100
AcDbEntity
  8
SUNPOU
100
AcDbMText
 10
60136.74833722491
 20
49797.47943050056
 30
0.0
 40
350.0000004171781
 41
0.0
 71
     7
 72
     5
  1

1001
ACAD
1000
MTEXTBEGIN
1070
    73
1070
     1
1070
    44
1040
1.0
1070
    74
1070
     0
1000
MTEXTEND
  0
MTEXT
  5
5672
330
1A
100
AcDbEntity
  8
0
100
AcDbMText
 10
66180.69909516782
 20
47777.40179263678
 30
0.0
 40
8.0
 41
0.0
 71
     7
 72
     5
  1

1001
ACAD
1000
MTEXTBEGIN
1070
    73
1070
     1
1070
    44
1040
1.0
1070
    74
1070
     0
1000
MTEXTEND
  0
MTEXT
  5
5673
330
1A
100
AcDbEntity
  8
0
100
AcDbMText
 10
68466.05678506271
 20
48748.19208738784
 30
0.0
 40
8.0
 41
0.0
 71
     7
 72
     5
  1

1001
ACAD
1000
MTEXTBEGIN
1070
    73
1070
     1
1070
    44
1040
1.0
1070
    74
1070
     0
1000
MTEXTEND
  0
MTEXT
  5
5674
330
1A
100
AcDbEntity
  8
SUNPOU
100
AcDbMText
 10
71131.95380574485
 20
58260.30347976296
 30
0.0
 40
10.5
 41
0.0
 71
     1
 72
     5
  1

1001
ACAD
1000
MTEXTBEGIN
1070
    73
1070
     1
1070
    44
1040
1.0
1070
    74
1070
     0
1000
MTEXTEND
  0
MTEXT
  5
5675
330
1A
100
AcDbEntity
  8
SUNPOU
100
AcDbMText
 10
63201.03060980891
 20
57313.51034585002
 30
0.0
 40
10.5
 41
0.0
 71
     7
 72
     5
  1

1001
ACAD
1000
MTEXTBEGIN
1070
    73
1070
     1
1070
    44
1040
1.0
1070
    74
1070
     0
1000
MTEXTEND
  0
MTEXT
  5
5676
330
1A
100
AcDbEntity
  8
SUNPOU
100
AcDbMText
 10
66150.01427432169
 20
62214.18641769286
 30
0.0
 40
10.5
 41
0.0
 71
     7
 72
     5
  1

1001
ACAD
1000
MTEXTBEGIN
1070
    73
1070
     1
1070
    44
1040
1.0
1070
    74
1070
     0
1000
MTEXTEND
  0
MTEXT
  5
5677
330
1A
100
AcDbEntity
  8
SUNPOU
100
AcDbMText
 10
70659.09240227225
 20
64650.48716531294
 30
0.0
 40
10.5
 41
0.0
 71
     7
 72
     5
  1

1001
ACAD
1000
MTEXTBEGIN
1070
    73
1070
     1
1070
    44
1040
1.0
1070
    74
1070
     0
1000
MTEXTEND
  0
MTEXT
  5
5678
330
1A
100
AcDbEntity
  8
SUNPOU
100
AcDbMText
 10
54259.93028904056
 20
43648.08331570185
 30
0.0
 40
10.5
 41
0.0
 71
     7
 72
     5
  1

1001
ACAD
1000
MTEXTBEGIN
1070
    73
1070
     1
1070
    44
1040
1.0
1070
    74
1070
     0
1000
MTEXTEND
  0
MTEXT
  5
5679
330
1A
100
AcDbEntity
  8
SUNPOU
100
AcDbMText
 10
56070.69320041551
 20
49975.4973031804
 30
0.0
 40
10.5
 41
0.0
 71
     9
 72
     5
  1

1001
ACAD
1000
MTEXTBEGIN
1070
    73
1070
     1
1070
    44
1040
1.0
1070
    74
1070
     0
1000
MTEXTEND
  0
MTEXT
  5
567A
330
1A
100
AcDbEntity
  8
SUNPOU
100
AcDbMText
 10
64792.86076633348
 20
57391.33183471788
 30
0.0
 40
10.5
 41
0.0
 71
     9
 72
     5
  1

1001
ACAD
1000
MTEXTBEGIN
1070
    73
1070
     1
1070
    44
1040
1.0
1070
    74
1070
     0
1000
MTEXTEND
  0
MTEXT
  5
567B
330
1A
100
AcDbEntity
  8
SUNPOU
100
AcDbMText
 10
83746.61948366345
 20
74857.90788720994
 30
0.0
 40
10.5
 41
0.0
 71
     9
 72
     5
  1

1001
ACAD
1000
MTEXTBEGIN
1070
    73
1070
     1
1070
    44
1040
1.0
1070
    74
1070
     0
1000
MTEXTEND
  0
MTEXT
  5
567C
330
1A
100
AcDbEntity
  8
SUNPOU
100
AcDbMText
 10
85690.02673037287
 20
73056.85880733192
 30
0.0
 40
3.5
 41
0.0
 71
     9
 72
     5
  1

1001
ACAD
1000
MTEXTBEGIN
1070
    73
1070
     1
1070
    44
1040
1.0
1070
    74
1070
     0
1000
MTEXTEND
  0
MTEXT
  5
567D
330
1A
100
AcDbEntity
  8
SUNPOU
100
AcDbMText
 10
116816.2065629925
 20
115551.8044749892
 30
0.0
 40
10.5
 41
0.0
 71
     9
 72
     5
  1

1001
ACAD
1000
MTEXTBEGIN
1070
    73
1070
     1
1070
    44
1040
1.0
1070
    74
1070
     0
1000
MTEXTEND
  0
MTEXT
  5
567E
330
1A
100
AcDbEntity
  8
SUNPOU
100
AcDbMText
 10
118759.613809702
 20
113750.7553951112
 30
0.0
 40
3.5
 41
0.0
 71
     9
 72
     5
  1

1001
ACAD
1000
MTEXTBEGIN
1070
    73
1070
     1
1070
    44
1040
1.0
1070
    74
1070
     0
1000
MTEXTEND
  0
MTEXT
  5
567F
330
1A
100
AcDbEntity
  8
SUNPOU
100
AcDbMText
 10
67256.47426878814
 20
61384.96962996432
 30
0.0
 40
10.5
 41
0.0
 71
     9
 72
     5
  1

1001
ACAD
1000
MTEXTBEGIN
1070
    73
1070
     1
1070
    44
1040
1.0
1070
    74
1070
     0
1000
MTEXTEND
  0
MTEXT
  5
5680
330
1A
100
AcDbEntity
  8
SUNPOU
100
AcDbMText
 10
53308.47416841216
 20
42212.57049085211
 30
0.0
 40
3.5
 41
0.0
 71
     7
 72
     5
  1

1001
ACAD
1000
MTEXTBEGIN
1070
    73
1070
     1
1070
    44
1040
1.0
1070
    74
1070
     0
1000
MTEXTEND
  0
MTEXT
  5
5681
330
1A
100
AcDbEntity
  8
SUNPOU
100
AcDbMText
 10
67000.82485118274
 20
51571.63371187345
 30
0.0
 40
10.5
 41
0.0
 71
     9
 72
     5
  1

1001
ACAD
1000
MTEXTBEGIN
1070
    73
1070
     1
1070
    44
1040
1.0
1070
    74
1070
     0
1000
MTEXTEND
  0
MTEXT
  5
5682
330
1A
100
AcDbEntity
  8
SUNPOU
100
AcDbMText
 10
75722.99241710071
 20
58987.46824341094
 30
0.0
 40
10.5
 41
0.0
 71
     9
 72
     5
  1

1001
ACAD
1000
MTEXTBEGIN
1070
    73
1070
     1
1070
    44
1040
1.0
1070
    74
1070
     0
1000
MTEXTEND
  0
MTEXT
  5
5683
330
1A
100
AcDbEntity
  8
SUNPOU
100
AcDbMText
 10
94676.75113443068
 20
76454.04429590299
 30
0.0
 40
10.5
 41
0.0
 71
     9
 72
     5
  1

1001
ACAD
1000
MTEXTBEGIN
1070
    73
1070
     1
1070
    44
1040
1.0
1070
    74
1070
     0
1000
MTEXTEND
  0
MTEXT
  5
5684
330
1A
100
AcDbEntity
  8
SUNPOU
100
AcDbMText
 10
96620.1583811401
 20
74652.99521602498
 30
0.0
 40
3.5
 41
0.0
 71
     9
 72
     5
  1

1001
ACAD
1000
MTEXTBEGIN
1070
    73
1070
     1
1070
    44
1040
1.0
1070
    74
1070
     0
1000
MTEXTEND
  0
MTEXT
  5
5685
330
1A
100
AcDbEntity
  8
SUNPOU
100
AcDbMText
 10
127746.3382137598
 20
117147.9408836823
 30
0.0
 40
10.5
 41
0.0
 71
     9
 72
     5
  1

1001
ACAD
1000
MTEXTBEGIN
1070
    73
1070
     1
1070
    44
1040
1.0
1070
    74
1070
     0
1000
MTEXTEND
  0
MTEXT
  5
5686
330
1A
100
AcDbEntity
  8
SUNPOU
100
AcDbMText
 10
129689.7454604692
 20
115346.8918038043
 30
0.0
 40
3.5
 41
0.0
 71
     9
 72
     5
  1

1001
ACAD
1000
MTEXTBEGIN
1070
    73
1070
     1
1070
    44
1040
1.0
1070
    74
1070
     0
1000
MTEXTEND
  0
MTEXT
  5
5687
330
1A
100
AcDbEntity
  8
SUNPOU
100
AcDbMText
 10
78186.60591955537
 20
62981.10603865738
 30
0.0
 40
10.5
 41
0.0
 71
     9
 72
     5
  1

1001
ACAD
1000
MTEXTBEGIN
1070
    73
1070
     1
1070
    44
1040
1.0
1070
    74
1070
     0
1000
MTEXTEND
  0
MTEXT
  5
5688
330
1A
100
AcDbEntity
  8
SUNPOU
100
AcDbMText
 10
64238.60581917939
 20
43808.70689954517
 30
0.0
 40
3.5
 41
0.0
 71
     7
 72
     5
  1

1001
ACAD
1000
MTEXTBEGIN
1070
    73
1070
     1
1070
    44
1040
1.0
1070
    74
1070
     0
1000
MTEXTEND
  0
MTEXT
  5
5689
330
1A
100
AcDbEntity
  8
SUNPOU
100
AcDbMText
 10
33428.13481137435
 20
32770.04710035564
 30
0.0
 40
10.5
 41
0.0
 71
     9
 72
     5
  1

1001
ACAD
1000
MTEXTBEGIN
1070
    73
1070
     1
1070
    44
1040
1.0
1070
    74
1070
     0
1000
MTEXTEND
  0
MTEXT
  5
568A
330
1A
100
AcDbEntity
  8
SUNPOU
100
AcDbMText
 10
52381.89352870432
 20
50236.62315284769
 30
0.0
 40
10.5
 41
0.0
 71
     9
 72
     5
  1

1001
ACAD
1000
MTEXTBEGIN
1070
    73
1070
     1
1070
    44
1040
1.0
1070
    74
1070
     0
1000
MTEXTEND
  0
MTEXT
  5
568B
330
1A
100
AcDbEntity
  8
SUNPOU
100
AcDbMText
 10
54325.30077541374
 20
48435.57407296968
 30
0.0
 40
3.5
 41
0.0
 71
     9
 72
     5
  1

1001
ACAD
1000
MTEXTBEGIN
1070
    73
1070
     1
1070
    44
1040
1.0
1070
    74
1070
     0
1000
MTEXTEND
  0
MTEXT
  5
568C
330
1A
100
AcDbEntity
  8
SUNPOU
100
AcDbMText
 10
85451.48060803343
 20
90930.51974062703
 30
0.0
 40
10.5
 41
0.0
 71
     9
 72
     5
  1

1001
ACAD
1000
MTEXTBEGIN
1070
    73
1070
     1
1070
    44
1040
1.0
1070
    74
1070
     0
1000
MTEXTEND
  0
MTEXT
  5
568D
330
1A
100
AcDbEntity
  8
SUNPOU
100
AcDbMText
 10
87394.88785474286
 20
89129.47066074901
 30
0.0
 40
3.5
 41
0.0
 71
     9
 72
     5
  1

1001
ACAD
1000
MTEXTBEGIN
1070
    73
1070
     1
1070
    44
1040
1.0
1070
    74
1070
     0
1000
MTEXTEND
  0
MTEXT
  5
568E
330
1A
100
AcDbEntity
  8
SUNPOU
100
AcDbMText
 10
35891.74831382901
 20
36763.68489560208
 30
0.0
 40
10.5
 41
0.0
 71
     9
 72
     5
  1

1001
ACAD
1000
MTEXTBEGIN
1070
    73
1070
     1
1070
    44
1040
1.0
1070
    74
1070
     0
1000
MTEXTEND
  0
MTEXT
  5
568F
330
1A
100
AcDbEntity
  8
SUNPOU
100
AcDbMText
 10
21943.74821345303
 20
17591.28575648986
 30
0.0
 40
3.5
 41
0.0
 71
     7
 72
     5
  1

1001
ACAD
1000
MTEXTBEGIN
1070
    73
1070
     1
1070
    44
1040
1.0
1070
    74
1070
     0
1000
MTEXTEND
  0
MTEXT
  5
15AD5
330
1A
100
AcDbEntity
  8
ZISSEN1
100
AcDbMText
 10
-1428.208344795988
 20
1913.468033484644
 30
0.0
 40
5.0
 41
76.2713
 71
     1
 72
     5
  1
GDB-5KS20　　No.SS0001f139
1001
ACAD
1000
MTEXTBEGIN
1070
    73
1070
     1
1070
    44
1040
1.0
1070
    74
1070
     0
1000
MTEXTEND
  0
LINE
  5
16791
330
1A
100
AcDbEntity
  8
ZISSEN1
100
AcDbLine
 10
-1437.518764705057
 20
1872.879169313037
 30
0.0
 11
-1346.518764705057
 21
1872.879169313037
 31
0.0
  0
LINE
  5
16792
330
1A
100
AcDbEntity
  8
ZISSEN1
100
AcDbLine
 10
-1437.518764705057
 20
1874.479169313037
 30
0.0
 11
-1346.518764705057
 21
1874.479169313037
 31
0.0
  0
LINE
  5
16793
330
1A
100
AcDbEntity
  8
ZISSEN1
100
AcDbLine
 10
-1429.818764705057
 20
1837.780060303378
 30
0.0
 11
-1354.218764705057
 21
1837.780060303378
 31
0.0
  0
LINE
  5
16794
330
1A
100
AcDbEntity
  8
ZISSEN1
100
AcDbLine
 10
-1436.518764705057
 20
1776.280060303378
 30
0.0
 11
-1347.518764705057
 21
1776.280060303378
 31
0.0
  0
INSERT
  5
16795
330
1A
100
AcDbEntity
  8
ZISSEN1
100
AcDbBlockReference
  2
-006-SA-7252TB_A
 10
-1431.537855614148
 20
1811.280060303378
 30
0.0
 42
-1.0
 50
90.0
  0
LINE
  5
16796
330
1A
100
AcDbEntity
  8
ZISSEN1
100
AcDbLine
 10
-1437.518764705057
 20
1777.280060303378
 30
0.0
 11
-1437.518764705057
 21
1833.280060303378
 31
0.0
  0
INSERT
  5
16797
330
1A
100
AcDbEntity
  8
ZISSEN1
100
AcDbBlockReference
  2
-005-CHS-04TA1_A
 10
-1432.178764705057
 20
1787.780060303378
 30
0.0
 50
90.0
  0
CIRCLE
  5
16798
330
1A
100
AcDbEntity
  8
ZISSEN1
100
AcDbCircle
 10
-1434.018764705057
 20
1779.780060303378
 30
0.0
 40
1.75
  0
LINE
  5
16799
330
1A
100
AcDbEntity
  8
CL1
100
AcDbLine
 10
-1434.018764705057
 20
1781.780060303378
 30
0.0
 11
-1434.018764705057
 21
1777.780060303378
 31
0.0
  0
ARC
  5
1679A
330
1A
100
AcDbEntity
  8
ZISSEN1
100
AcDbCircle
 10
-1437.518764705057
 20
1776.280060303378
 30
0.0
 40
1.0
100
AcDbArc
 50
0.0
 51
90.0
  0
LINE
  5
1679B
330
1A
100
AcDbEntity
  8
CL1
100
AcDbLine
 10
-1436.018764705057
 20
1779.780060303378
 30
0.0
 11
-1432.018764705057
 21
1779.780060303378
 31
0.0
  0
INSERT
  5
1679C
330
1A
100
AcDbEntity
  8
ZISSEN1
100
AcDbBlockReference
  2
-006-SA-7252TB_A
 10
-1431.537855614148
 20
1803.080060303378
 30
0.0
 42
-1.0
 50
90.0
  0
INSERT
  5
1679D
330
1A
100
AcDbEntity
  8
ZISSEN1
100
AcDbBlockReference
  2
-005-CHS-04TA1_A
 10
-1432.178764705057
 20
1795.180060303378
 30
0.0
 50
90.0
  0
INSERT
  5
1679E
330
1A
100
AcDbEntity
  8
ZISSEN1
100
AcDbBlockReference
  2
-007-53375-1210_B
 10
-1412.529934917822
 20
1832.550273069335
 30
0.0
 50
180.0
  0
LINE
  5
1679F
330
1A
100
AcDbEntity
  8
ZISSEN1
100
AcDbLine
 10
-1430.818764705057
 20
1835.280060303378
 30
0.0
 11
-1430.818764705057
 21
1836.780060303378
 31
0.0
  0
INSERT
  5
167A0
330
1A
100
AcDbEntity
  8
ZISSEN1
100
AcDbBlockReference
  2
-006-SA-7252TB_A
 10
-1431.537855614148
 20
1819.480060303378
 30
0.0
 42
-1.0
 50
90.0
  0
ARC
  5
167A1
330
1A
100
AcDbEntity
  8
ZISSEN1
100
AcDbCircle
 10
-1431.818764705057
 20
1835.280060303378
 30
0.0
 40
1.0
100
AcDbArc
 50
270.0
 51
0.0
  0
CIRCLE
  5
167A2
330
1A
100
AcDbEntity
  8
ZISSEN1
100
AcDbCircle
 10
-1434.018764705057
 20
1830.780060303378
 30
0.0
 40
1.75
  0
LINE
  5
167A3
330
1A
100
AcDbEntity
  8
CL1
100
AcDbLine
 10
-1434.018764705057
 20
1832.780060303378
 30
0.0
 11
-1434.018764705057
 21
1828.780060303378
 31
0.0
  0
LINE
  5
167A4
330
1A
100
AcDbEntity
  8
CL1
100
AcDbLine
 10
-1436.018764705057
 20
1830.780060303378
 30
0.0
 11
-1432.018764705057
 21
1830.780060303378
 31
0.0
  0
LINE
  5
167A5
330
1A
100
AcDbEntity
  8
ZISSEN1
100
AcDbLine
 10
-1431.818764705057
 20
1834.280060303378
 30
0.0
 11
-1436.518764705057
 21
1834.280060303378
 31
0.0
  0
ARC
  5
167A6
330
1A
100
AcDbEntity
  8
ZISSEN1
100
AcDbCircle
 10
-1437.518764705057
 20
1834.280060303378
 30
0.0
 40
1.0
100
AcDbArc
 50
270.0
 51
0.0
  0
LINE
  5
167A7
330
1A
100
AcDbEntity
  8
ZISSEN1
100
AcDbLine
 10
-1430.818764705057
 20
1836.780060303378
 30
0.0
 11
-1429.818764705057
 21
1837.780060303378
 31
0.0
  0
INSERT
  5
167A8
330
1A
100
AcDbEntity
  8
ZISSEN1
100
AcDbBlockReference
  2
-013-53375-0510_B
 10
-1382.420679120979
 20
1830.47667047287
 30
0.0
 50
180.0
  0
INSERT
  5
167A9
330
1A
100
AcDbEntity
  8
ZISSEN1
100
AcDbBlockReference
  2
-000-53375-1210_A
 10
-1412.912350231373
 20
1872.358445628827
 30
0.0
 41
-1.0
  0
INSERT
  5
167AA
330
1A
100
AcDbEntity
  8
ZISSEN1
100
AcDbBlockReference
  2
-001-SA-7252TB_C
 10
-1432.207931371724
 20
1870.92125264637
 30
0.0
 50
180.0
  0
INSERT
  5
167AB
330
1A
100
AcDbEntity
  8
ZISSEN1
100
AcDbBlockReference
  2
-002-CHS-04TA1_C
 10
-1432.518764705057
 20
1872.132740741609
 30
0.0
 50
90.0
  0
LINE
  5
167AC
330
1A
100
AcDbEntity
  8
ZISSEN1
100
AcDbLine
 10
-1436.518764705057
 20
1874.479169313037
 30
0.0
 11
-1436.518764705057
 21
1872.879169313037
 31
0.0
  0
LINE
  5
167AD
330
1A
100
AcDbEntity
  8
ZISSEN1
100
AcDbLine
 10
-1437.518764705057
 20
1874.479169313037
 30
0.0
 11
-1437.518764705057
 21
1872.879169313037
 31
0.0
  0
LINE
  5
167AE
330
1A
100
AcDbEntity
  8
ZISSEN1
100
AcDbLine
 10
-1429.818764705057
 20
1872.879169313037
 30
0.0
 11
-1429.818764705057
 21
1874.479169313037
 31
0.0
  0
LINE
  5
167AF
330
1A
100
AcDbEntity
  8
ZISSEN1
100
AcDbLine
 10
-1430.818764705057
 20
1872.879169313037
 30
0.0
 11
-1430.818764705057
 21
1874.479169313037
 31
0.0
  0
INSERT
  5
167B0
330
1A
100
AcDbEntity
  8
ZISSEN1
100
AcDbBlockReference
  2
-011-53375-0510_A
 10
-1382.660485824464
 20
1871.132540099554
 30
0.0
 41
-1.0
  0
INSERT
  5
167B1
330
1A
100
AcDbEntity
  8
ZISSEN1
100
AcDbBlockReference
  2
-008-MHL350ADA331MJA0G_B
 10
-1324.76405124594
 20
1817.480060303378
 30
0.0
 50
90.0
  0
LINE
  5
167B2
330
1A
100
AcDbEntity
  8
ZISSEN1
100
AcDbLine
 10
-1319.959505791394
 20
1834.280060303378
 30
0.0
 11
-1319.959505791395
 21
1776.280060303378
 31
0.0
  0
LINE
  5
167B3
330
1A
100
AcDbEntity
  8
ZISSEN1
100
AcDbLine
 10
-1321.559505791395
 20
1834.280060303378
 30
0.0
 11
-1321.559505791395
 21
1776.280060303378
 31
0.0
  0
INSERT
  5
167B4
330
1A
100
AcDbEntity
  8
ZISSEN1
100
AcDbBlockReference
  2
-003-MHL350ADA331MJA0G_A
 10
-1355.020279856572
 20
1817.480060303378
 30
0.0
 50
90.0
  0
LINE
  5
167B5
330
1A
100
AcDbEntity
  8
ZISSEN1
100
AcDbLine
 10
-1346.518764705057
 20
1777.280060303378
 30
0.0
 11
-1346.518764705057
 21
1833.280060303378
 31
0.0
  0
INSERT
  5
167B6
330
1A
100
AcDbEntity
  8
ZISSEN1
100
AcDbBlockReference
  2
-003-MHL350ADA331MJA0G_A
 10
-1355.020279856572
 20
1791.480060303378
 30
0.0
 50
90.0
  0
CIRCLE
  5
167B7
330
1A
100
AcDbEntity
  8
ZISSEN1
100
AcDbCircle
 10
-1350.018764705057
 20
1779.780060303378
 30
0.0
 40
1.75
  0
LINE
  5
167B8
330
1A
100
AcDbEntity
  8
CL1
100
AcDbLine
 10
-1350.018764705057
 20
1781.780060303378
 30
0.0
 11
-1350.018764705057
 21
1777.780060303378
 31
0.0
  0
ARC
  5
167B9
330
1A
100
AcDbEntity
  8
ZISSEN1
100
AcDbCircle
 10
-1346.518764705057
 20
1776.280060303378
 30
0.0
 40
1.0
100
AcDbArc
 50
90.0
 51
180.0
  0
LINE
  5
167BA
330
1A
100
AcDbEntity
  8
CL1
100
AcDbLine
 10
-1352.018764705057
 20
1779.780060303378
 30
0.0
 11
-1348.018764705057
 21
1779.780060303378
 31
0.0
  0
INSERT
  5
167BB
330
1A
100
AcDbEntity
  8
ZISSEN1
100
AcDbBlockReference
  2
-004-インダクタ上
 10
-1354.843866964229
 20
1804.170295796208
 30
0.0
 50
270.0
  0
INSERT
  5
167BC
330
1A
100
AcDbEntity
  8
ZISSEN1
100
AcDbBlockReference
  2
-008-MHL350ADA331MJA0G_B
 10
-1324.76405124594
 20
1791.480060303378
 30
0.0
 50
90.0
  0
LINE
  5
167BD
330
1A
100
AcDbEntity
  8
ZISSEN1
100
AcDbLine
 10
-1321.559505791395
 20
1777.280060303378
 30
0.0
 11
-1319.959505791394
 21
1777.280060303378
 31
0.0
  0
LINE
  5
167BE
330
1A
100
AcDbEntity
  8
ZISSEN1
100
AcDbLine
 10
-1321.559505791395
 20
1776.280060303378
 30
0.0
 11
-1319.959505791395
 21
1776.280060303378
 31
0.0
  0
INSERT
  5
167BF
330
1A
100
AcDbEntity
  8
ZISSEN1
100
AcDbBlockReference
  2
-009-インダクタ側面１
 10
-1326.361501263184
 20
1807.209472931919
 30
0.0
 50
90.0
  0
LINE
  5
167C0
330
1A
100
AcDbEntity
  8
ZISSEN1
100
AcDbLine
 10
-1353.218764705057
 20
1836.780060303378
 30
0.0
 11
-1353.218764705057
 21
1835.280060303378
 31
0.0
  0
INSERT
  5
167C1
330
1A
100
AcDbEntity
  8
ZISSEN1
100
AcDbBlockReference
  2
-014-53375-0210_B
 10
-1364.133903920265
 20
1830.380060303378
 30
0.0
 50
180.0
  0
CIRCLE
  5
167C2
330
1A
100
AcDbEntity
  8
ZISSEN1
100
AcDbCircle
 10
-1350.018764705057
 20
1830.780060303378
 30
0.0
 40
1.75
  0
LINE
  5
167C3
330
1A
100
AcDbEntity
  8
CL1
100
AcDbLine
 10
-1352.018764705057
 20
1830.780060303378
 30
0.0
 11
-1348.018764705057
 21
1830.780060303378
 31
0.0
  0
LINE
  5
167C4
330
1A
100
AcDbEntity
  8
ZISSEN1
100
AcDbLine
 10
-1352.218764705057
 20
1834.280060303378
 30
0.0
 11
-1347.518764705057
 21
1834.280060303378
 31
0.0
  0
LINE
  5
167C5
330
1A
100
AcDbEntity
  8
CL1
100
AcDbLine
 10
-1350.018764705057
 20
1832.780060303378
 30
0.0
 11
-1350.018764705057
 21
1828.780060303378
 31
0.0
  0
ARC
  5
167C6
330
1A
100
AcDbEntity
  8
ZISSEN1
100
AcDbCircle
 10
-1352.218764705057
 20
1835.280060303378
 30
0.0
 40
1.0
100
AcDbArc
 50
180.0
 51
270.0
  0
ARC
  5
167C7
330
1A
100
AcDbEntity
  8
ZISSEN1
100
AcDbCircle
 10
-1346.518764705057
 20
1834.280060303378
 30
0.0
 40
1.0
100
AcDbArc
 50
180.0
 51
270.0
  0
LINE
  5
167C8
330
1A
100
AcDbEntity
  8
ZISSEN1
100
AcDbLine
 10
-1353.218764705057
 20
1836.780060303378
 30
0.0
 11
-1354.218764705057
 21
1837.780060303378
 31
0.0
  0
INSERT
  5
167C9
330
1A
100
AcDbEntity
  8
ZISSEN1
100
AcDbBlockReference
  2
-010-53375_C
 10
-1323.695616902506
 20
1832.830060303378
 30
0.0
 41
-1.0
 50
180.0
  0
LINE
  5
167CA
330
1A
100
AcDbEntity
  8
ZISSEN1
100
AcDbLine
 10
-1319.959505791394
 20
1834.280060303378
 30
0.0
 11
-1319.959505791394
 21
1837.780060303378
 31
0.0
  0
LINE
  5
167CB
330
1A
100
AcDbEntity
  8
ZISSEN1
100
AcDbLine
 10
-1321.559505791395
 20
1834.280060303378
 30
0.0
 11
-1321.559505791395
 21
1837.780060303378
 31
0.0
  0
INSERT
  5
167CC
330
1A
100
AcDbEntity
  8
ZISSEN1
100
AcDbBlockReference
  2
-015-53375_C_2_
 10
-1323.695616902506
 20
1831.130060303378
 30
0.0
 41
-1.0
 50
180.0
  0
LINE
  5
167CD
330
1A
100
AcDbEntity
  8
ZISSEN1
100
AcDbLine
 10
-1321.559505791395
 20
1833.280060303378
 30
0.0
 11
-1319.959505791394
 21
1833.280060303378
 31
0.0
  0
LINE
  5
167CE
330
1A
100
AcDbEntity
  8
ZISSEN1
100
AcDbLine
 10
-1321.559505791395
 20
1834.280060303378
 30
0.0
 11
-1319.959505791394
 21
1834.280060303378
 31
0.0
  0
LINE
  5
167CF
330
1A
100
AcDbEntity
  8
ZISSEN1
100
AcDbLine
 10
-1321.559505791395
 20
1836.780060303378
 30
0.0
 11
-1319.959505791394
 21
1836.780060303378
 31
0.0
  0
LINE
  5
167D0
330
1A
100
AcDbEntity
  8
ZISSEN1
100
AcDbLine
 10
-1319.959505791394
 20
1837.780060303378
 30
0.0
 11
-1321.559505791395
 21
1837.780060303378
 31
0.0
  0
INSERT
  5
167D1
330
1A
100
AcDbEntity
  8
ZISSEN1
100
AcDbBlockReference
  2
-012-53375-0210_A
 10
-1364.288216785762
 20
1869.861576720444
 30
0.0
 41
-1.0
  0
LINE
  5
167D2
330
1A
100
AcDbEntity
  8
ZISSEN1
100
AcDbLine
 10
-1353.218764705057
 20
1872.879169313037
 30
0.0
 11
-1353.218764705057
 21
1874.479169313037
 31
0.0
  0
LINE
  5
167D3
330
1A
100
AcDbEntity
  8
ZISSEN1
100
AcDbLine
 10
-1347.518764705057
 20
1874.479169313037
 30
0.0
 11
-1347.518764705057
 21
1872.879169313037
 31
0.0
  0
LINE
  5
167D4
330
1A
100
AcDbEntity
  8
ZISSEN1
100
AcDbLine
 10
-1346.518764705057
 20
1874.479169313037
 30
0.0
 11
-1346.518764705057
 21
1872.879169313037
 31
0.0
  0
DIMENSION
  5
1683C
330
1A
100
AcDbEntity
  8
SUNPOU
100
AcDbDimension
  2
*D81
 10
-1458.214858384626
 20
1876.279169313037
 30
0.0
 11
-1458.214858384626
 21
1868.829169313037
 31
0.0
 70
   160
  1
(16)
  3
標準スタイル
100
AcDbAlignedDimension
 13
-1429.718764705057
 23
1861.379169313037
 33
0.0
 14
-1427.118764705057
 24
1876.279169313037
 34
0.0
 50
90.0
100
AcDbRotatedDimension
1001
ACAD
1000
DSTYLE
1002
{
1070
   340
1005
10
1070
    40
1040
1.0
1002
}
  0
DIMENSION
  5
1696B
330
1A
100
AcDbEntity
  8
SUNPOU
100
AcDbDimension
  2
*D85
 10
-1448.829468973262
 20
1874.479169313037
 30
0.0
 11
-1451.579468973263
 21
1867.929169313037
 31
0.0
 70
    32
  3
標準スタイル
100
AcDbAlignedDimension
 13
-1429.718764705057
 23
1861.379169313037
 33
0.0
 14
-1437.518764705057
 24
1874.479169313037
 34
0.0
 50
90.0
100
AcDbRotatedDimension
1001
ACAD
1000
DSTYLE
1002
{
1070
   340
1005
10
1070
    40
1040
1.0
1002
}
  0
DIMENSION
  5
16978
330
1A
100
AcDbEntity
  8
SUNPOU
100
AcDbDimension
  2
*D86
 10
-1448.829468973262
 20
1876.279169313037
 30
0.0
 11
-1448.829468973262
 21
1889.11250264637
 31
0.0
 70
   160
  1
(2.9)
  3
標準スタイル
100
AcDbAlignedDimension
 13
-1437.518764705057
 23
1874.479169313037
 33
0.0
 14
-1427.418764705057
 24
1876.279169313037
 34
0.0
 50
90.0
100
AcDbRotatedDimension
1001
ACAD
1000
DSTYLE
1002
{
1070
    40
1040
1.0
1070
   340
1005
10
1002
}
  0
DIMENSION
  5
16A04
330
1A
100
AcDbEntity
  8
SUNPOU
100
AcDbDimension
  2
*D89
 10
-1448.83644611334
 20
1779.780060303378
 30
0.0
 11
-1451.665288611489
 21
1770.173509682285
 31
0.0
 70
   160
  3
標準スタイル
100
AcDbAlignedDimension
 13
-1436.518764705057
 23
1776.280060303378
 33
0.0
 14
-1434.018764705057
 24
1779.780060303378
 34
0.0
 50
90.0
100
AcDbRotatedDimension
1001
ACAD
1000
DSTYLE
1002
{
1070
   287
1070
     5
1070
    40
1040
1.0
1070
   279
1070
     2
1070
   340
1005
10
1002
}
  0
DIMENSION
  5
16A13
330
1A
100
AcDbEntity
  8
SUNPOU
100
AcDbDimension
  2
*D90
 10
-1448.83644611334
 20
1830.780060303378
 30
0.0
 11
-1451.586446113341
 21
1805.280060303378
 31
0.0
 70
    32
  3
標準スタイル
100
AcDbAlignedDimension
 13
-1434.018764705057
 23
1779.780060303378
 33
0.0
 14
-1434.018764705057
 24
1830.780060303378
 34
0.0
 50
90.0
100
AcDbRotatedDimension
1001
ACAD
1000
DSTYLE
1002
{
1070
   287
1070
     4
1070
   340
1005
10
1070
    40
1040
1.0
1070
   279
1070
     1
1002
}
  0
DIMENSION
  5
16A20
330
1A
100
AcDbEntity
  8
SUNPOU
100
AcDbDimension
  2
*D91
 10
-1448.83644611334
 20
1837.780060303378
 30
0.0
 11
-1451.586446113341
 21
1834.280060303378
 31
0.0
 70
    32
  3
標準スタイル
100
AcDbAlignedDimension
 13
-1434.018764705057
 23
1830.780060303378
 33
0.0
 14
-1430.318764705057
 24
1837.780060303378
 34
0.0
 50
90.0
100
AcDbRotatedDimension
1001
ACAD
1000
DSTYLE
1002
{
1070
   287
1070
     4
1070
   340
1005
10
1070
    40
1040
1.0
1070
   279
1070
     1
1002
}
  0
DIMENSION
  5
16A30
330
1A
100
AcDbEntity
  8
SUNPOU
100
AcDbDimension
  2
*D92
 10
-1458.209787875543
 20
1837.780060303378
 30
0.0
 11
-1460.959787875544
 21
1807.030060303378
 31
0.0
 70
    32
  3
標準スタイル
100
AcDbAlignedDimension
 13
-1436.518764705057
 23
1776.280060303378
 33
0.0
 14
-1429.818764705057
 24
1837.780060303378
 34
0.0
 50
90.0
100
AcDbRotatedDimension
1001
ACAD
1000
DSTYLE
1002
{
1070
   340
1005
10
1070
    40
1040
1.0
1002
}
  0
DIMENSION
  5
16A70
330
1A
100
AcDbEntity
  8
SUNPOU
100
AcDbDimension
  2
*D93
 10
-1346.518764705057
 20
1754.780949657875
 30
0.0
 11
-1392.018764705057
 21
1757.530949657875
 31
0.0
 70
    32
  3
標準スタイル
100
AcDbAlignedDimension
 13
-1437.518764705057
 23
1777.280060303378
 33
0.0
 14
-1346.518764705057
 24
1777.280060303378
 34
0.0
100
AcDbRotatedDimension
1001
ACAD
1000
DSTYLE
1002
{
1070
   340
1005
10
1070
    40
1040
1.0
1002
}
  0
DIMENSION
  5
16A7D
330
1A
100
AcDbEntity
  8
SUNPOU
100
AcDbDimension
  2
*D94
 10
-1434.018764705057
 20
1765.72872396176
 30
0.0
 11
-1442.376592629151
 21
1768.728804289545
 31
0.0
 70
   160
  3
標準スタイル
100
AcDbAlignedDimension
 13
-1437.518764705057
 23
1777.280060303378
 33
0.0
 14
-1434.018764705057
 24
1779.780060303378
 34
0.0
100
AcDbRotatedDimension
1001
ACAD
1000
DSTYLE
1002
{
1070
   287
1070
     5
1070
    40
1040
1.0
1070
   279
1070
     2
1070
   340
1005
10
1002
}
  0
DIMENSION
  5
16A8C
330
1A
100
AcDbEntity
  8
SUNPOU
100
AcDbDimension
  2
*D95
 10
-1350.018764705057
 20
1765.72872396176
 30
0.0
 11
-1392.018764705057
 21
1768.478723961759
 31
0.0
 70
    32
  3
標準スタイル
100
AcDbAlignedDimension
 13
-1434.018764705057
 23
1779.780060303378
 33
0.0
 14
-1350.018764705057
 24
1779.780060303378
 34
0.0
100
AcDbRotatedDimension
1001
ACAD
1000
DSTYLE
1002
{
1070
   287
1070
     4
1070
   340
1005
10
1070
    40
1040
1.0
1070
   279
1070
     1
1002
}
  0
DIMENSION
  5
16A99
330
1A
100
AcDbEntity
  8
SUNPOU
100
AcDbDimension
  2
*D96
 10
-1346.518764705057
 20
1765.72872396176
 30
0.0
 11
-1341.199777287927
 21
1768.728804289545
 31
0.0
 70
   160
  3
標準スタイル
100
AcDbAlignedDimension
 13
-1350.018764705057
 23
1779.780060303378
 33
0.0
 14
-1346.518764705057
 24
1777.280060303378
 34
0.0
100
AcDbRotatedDimension
1001
ACAD
1000
DSTYLE
1002
{
1070
   287
1070
     5
1070
    40
1040
1.0
1070
   279
1070
     2
1070
   340
1005
10
1002
}
  0
LEADER
  5
16AF0
330
1A
100
AcDbEntity
  8
SUNPOU
100
AcDbLeader
  3
標準スタイル
 76
     3
 10
-1350.018764705057
 20
1830.780060303378
 30
0.0
 10
-1361.324641125049
 20
1842.772899378936
 30
0.0
 10
-1385.598639599408
 20
1842.780356469907
 30
0.0
1001
ACAD
1000
DSTYLE
1002
{
1070
     5
1000

1070
    77
1070
     0
1070
   147
1040
1.0
1002
}
  0
MTEXT
  5
16AF7
330
1A
100
AcDbEntity
  8
ZISSEN1
 62
     1
100
AcDbMText
 10
-1383.011094042037
 20
1847.142320754476
 30
0.0
 40
3.5
 41
25.8939756371994
 71
     1
 72
     5
  1
4-φ3.5
1001
ACAD
1000
MTEXTBEGIN
1070
    73
1070
     1
1070
    44
1040
1.0
1070
    74
1070
     0
1000
MTEXTEND
  0
DIMENSION
  5
16AFE
330
1A
100
AcDbEntity
  8
SUNPOU
100
AcDbDimension
  2
*D97
 10
-1319.959505791394
 20
1846.204442358819
 30
0.0
 11
-1326.509505791395
 21
1848.954442358819
 31
0.0
 70
    32
  3
標準スタイル
100
AcDbAlignedDimension
 13
-1333.059505791394
 23
1836.580060303378
 33
0.0
 14
-1319.959505791394
 24
1837.780060303378
 34
0.0
100
AcDbRotatedDimension
1001
ACAD
1000
DSTYLE
1002
{
1070
   340
1005
10
1070
    40
1040
1.0
1002
}
  0
DIMENSION
  5
16B1A
330
1A
100
AcDbEntity
  8
SUNPOU
100
AcDbDimension
  2
*D99
 10
-1319.959505791394
 20
1846.204442358819
 30
0.0
 11
-1305.326172458062
 21
1846.204442358819
 31
0.0
 70
   160
  1
(2.9)
  3
標準スタイル
100
AcDbAlignedDimension
 13
-1318.159505791395
 23
1833.330060303378
 33
0.0
 14
-1319.959505791394
 24
1838.280060303378
 34
0.0
100
AcDbRotatedDimension
1001
ACAD
1000
DSTYLE
1002
{
1070
   340
1005
10
1070
    40
1040
1.0
1002
}
  0
DIMENSION
  5
16B35
330
1A
100
AcDbEntity
  8
SUNPOU
100
AcDbDimension
  2
*D100
 10
-1318.159505791395
 20
1855.589224961938
 30
0.0
 11
-1325.609505791395
 21
1858.339224961937
 31
0.0
 70
    32
  1
(16)
  3
標準スタイル
100
AcDbAlignedDimension
 13
-1333.059505791394
 23
1836.580060303378
 33
0.0
 14
-1318.159505791395
 24
1833.330060303378
 34
0.0
100
AcDbRotatedDimension
1001
ACAD
1000
DSTYLE
1002
{
1070
   340
1005
10
1070
    40
1040
1.0
1002
}
  0
VIEWPORT
  5
15177
330
15176
100
AcDbEntity
 67
     1
  8
0
100
AcDbViewport
 10
227.1483566951202
 20
162.7880672782397
 30
0.0
 40
587.8859945908259
 41
330.5281772163012
 68
     1
 69
     1
1001
ACAD
1000
MVIEW
1002
{
1070
    16
1010
0.0
1020
0.0
1030
0.0
1010
0.0
1020
0.0
1030
1.0
1040
0.0
1040
330.5281772163012
1040
227.1483566951202
1040
162.7880672782397
1040
50.0
1040
0.0
1040
0.0
1070
     0
1070
   100
1070
     1
1070
     0
1070
     0
1070
     0
1070
     0
1070
     0
1040
0.0
1040
0.0
1040
0.0
1040
1.0
1040
1.0
1040
10.0
1040
10.0
1070
     0
1002
{
1002
}
1002
}
  0
VIEWPORT
  5
15178
330
15176
100
AcDbEntity
 67
     1
  8
ZISSEN1
100
AcDbViewport
 10
221.7861955525412
 20
157.6960273330388
 30
0.0
 40
385.4999999999997
 41
259.9999999999999
 68
     2
 69
     2
1001
ACAD
1000
MVIEW
1002
{
1070
    16
1010
0.0
1020
0.0
1030
0.0
1010
0.0
1020
0.0
1030
1.0
1040
0.0
1040
260.0000007790427
1040
-1382.176259457778
1040
1829.771966241472
1040
50.0
1040
0.0
1040
0.0
1070
     0
1070
   100
1070
     1
1070
     0
1070
     0
1070
     0
1070
     0
1070
     0
1040
0.0
1040
0.0
1040
0.0
1040
1.0
1040
1.0
1040
10.0
1040
10.0
1070
     0
1002
{
1002
}
1002
}
  0
TEXT
  5
15179
330
15176
100
AcDbEntity
 67
     1
  8
SUNPOU
 62
     0
100
AcDbText
 10
374.1863124306944
 20
60.86794705907585
 30
0.0
 40
3.5
  1
縮尺 1/1
100
AcDbText
  0
ENDSEC
  0
SECTION
  2
OBJECTS
  0
DICTIONARY
  5
C
330
0
100
AcDbDictionary
  3
ACAD_GROUP
350
D
  3
ACAD_LAYOUT
350
5C7D
  3
ACAD_MLINESTYLE
350
E
  3
ACAD_PLOTSETTINGS
350
5C7E
  3
ACAD_PLOTSTYLENAME
350
5C7B
  3
ACADDIM
350
16AEF
  3
ACDBVARIABLEDICTIONARY
350
13217
  3
DWGPROPS
350
5E8E
  3
ACDBHEADERROUNDTRIPXREC
350
16B88
  0
DICTIONARY
  5
16BA8
330
1A
100
AcDbDictionary
280
     1
  3
ACAD_LAYOUTSELFREF
360
16BA9
  0
DICTIONARY
  5
16BAA
330
15176
100
AcDbDictionary
280
     1
  3
ACAD_LAYOUTSELFREF
360
16BAB
  0
DICTIONARY
  5
D
102
{ACAD_REACTORS
330
C
102
}
330
C
100
AcDbDictionary
  3
*A1
350
477D
  3
*A2
350
4C0F
  3
*A3
350
4C10
  3
*A4
350
4C11
  3
*A5
350
4C12
  3
*A6
350
4C13
  3
*A7
350
4C14
  3
*A8
350
4C15
  3
*A9
350
4C16
  3
*A10
350
4C17
  3
*A11
350
477E
  3
*A12
350
477F
  3
*A13
350
4780
  3
*A14
350
4781
  3
*A15
350
13853
  3
*A16
350
4C0E
  0
DICTIONARY
  5
5C7D
102
{ACAD_REACTORS
330
C
102
}
330
C
100
AcDbDictionary
  0
DICTIONARY
  5
E
102
{ACAD_REACTORS
330
C
102
}
330
C
100
AcDbDictionary
  3
STANDARD
350
13
  0
DICTIONARY
  5
5C7E
102
{ACAD_REACTORS
330
C
102
}
330
C
100
AcDbDictionary
  0
ACDBDICTIONARYWDFLT
  5
5C7B
102
{ACAD_REACTORS
330
C
102
}
330
C
100
AcDbDictionary
281
     1
  3
Normal
350
5C7C
100
AcDbDictionaryWithDefault
340
5C7C
  0
XRECORD
  5
16AEF
102
{ACAD_REACTORS
330
C
102
}
330
C
100
AcDbXrecord
 90
   990106
  3

 60
     0
 61
     0
 62
     1
 63
     3
 64
     0
 65
     0
 66
     0
 67
     3
 68
     1
 69
     0
 70
     0
 71
     0
 72
     0
 40
0.0
170
     0
  0
DICTIONARY
  5
13217
102
{ACAD_REACTORS
330
C
102
}
330
C
100
AcDbDictionary
  3
SORTENTS
350
13218
  0
XRECORD
  5
5E8E
102
{ACAD_REACTORS
330
C
102
}
330
C
100
AcDbXrecord
  1
DWGPROPS COOKIE
  2

  3

  4

  6

  7

  8

  9

300
=
301
=
302
=
303
=
304
=
305
=
306
=
307
=
308
=
309
=
 40
0.586753587962963
 41
2450495.493631365
 42
2453208.662277431
  1

 90
        0
  0
DICTIONARY
  5
16B88
102
{ACAD_REACTORS
330
C
102
}
330
C
100
AcDbDictionary
  3
TSTACKALIGN
350
16B89
  3
TSTACKSIZE
350
16B8A
  3
HYPERLINKBASE
350
16B8B
  3
STYLESHEET
350
16B8C
  3
LAYOUTDICT
350
16B8D
  3
PLOTSETDICT
350
16B8E
  3
PLOTSTYLNAMDICT
350
16B8F
  3
LWETCUNION
350
16B90
  3
INSUNITS
350
16B91
  3
CEPSNTYPE
350
16B92
  3
FINGERPRINTGUID
350
16B93
  3
VERSIONGUID
350
16B94
  3
PSVPSCALE
350
16B95
  3
PUCSORTHOREF
350
16B96
  3
PUCSORTHOVIEW
350
16B97
  3
PUCSBASE
350
16B98
  3
PUCSORGTOP
350
16B99
  3
PUCSORGBOTTOM
350
16B9A
  3
PUCSORGLEFT
350
16B9B
  3
PUCSORGRIGHT
350
16B9C
  3
PUCSORGFRONT
350
16B9D
  3
PUCSORGBACK
350
16B9E
  3
UCSORTHOREF
350
16B9F
  3
UCSORTHOVIEW
350
16BA0
  3
UCSBASE
350
16BA1
  3
UCSORGTOP
350
16BA2
  3
UCSORGBOTTOM
350
16BA3
  3
UCSORGLEFT
350
16BA4
  3
UCSORGRIGHT
350
16BA5
  3
UCSORGFRONT
350
16BA6
  3
UCSORGBACK
350
16BA7
  0
XRECORD
  5
16BA9
102
{ACAD_REACTORS
330
16BA8
102
}
330
16BA8
100
AcDbXrecord
340
1A
  0
XRECORD
  5
16BAB
102
{ACAD_REACTORS
330
16BAA
102
}
330
16BAA
100
AcDbXrecord
340
15176
  0
GROUP
  5
477D
102
{ACAD_REACTORS
330
D
102
}
330
D
100
AcDbGroup
300

 70
     1
 71
     1
  0
GROUP
  5
4C0F
102
{ACAD_REACTORS
330
D
102
}
330
D
100
AcDbGroup
300

 70
     1
 71
     1
  0
GROUP
  5
4C10
102
{ACAD_REACTORS
330
D
102
}
330
D
100
AcDbGroup
300

 70
     1
 71
     1
  0
GROUP
  5
4C11
102
{ACAD_REACTORS
330
D
102
}
330
D
100
AcDbGroup
300

 70
     1
 71
     1
  0
GROUP
  5
4C12
102
{ACAD_REACTORS
330
D
102
}
330
D
100
AcDbGroup
300

 70
     1
 71
     1
  0
GROUP
  5
4C13
102
{ACAD_REACTORS
330
D
102
}
330
D
100
AcDbGroup
300

 70
     1
 71
     1
  0
GROUP
  5
4C14
102
{ACAD_REACTORS
330
D
102
}
330
D
100
AcDbGroup
300

 70
     1
 71
     1
  0
GROUP
  5
4C15
102
{ACAD_REACTORS
330
D
102
}
330
D
100
AcDbGroup
300

 70
     1
 71
     1
  0
GROUP
  5
4C16
102
{ACAD_REACTORS
330
D
102
}
330
D
100
AcDbGroup
300

 70
     1
 71
     1
  0
GROUP
  5
4C17
102
{ACAD_REACTORS
330
D
102
}
330
D
100
AcDbGroup
300

 70
     1
 71
     1
  0
GROUP
  5
477E
102
{ACAD_REACTORS
330
D
102
}
330
D
100
AcDbGroup
300

 70
     1
 71
     1
  0
GROUP
  5
477F
102
{ACAD_REACTORS
330
D
102
}
330
D
100
AcDbGroup
300

 70
     1
 71
     1
  0
GROUP
  5
4780
102
{ACAD_REACTORS
330
D
102
}
330
D
100
AcDbGroup
300

 70
     1
 71
     1
  0
GROUP
  5
4781
102
{ACAD_REACTORS
330
D
102
}
330
D
100
AcDbGroup
300

 70
     1
 71
     1
  0
GROUP
  5
13853
102
{ACAD_REACTORS
330
D
102
}
330
D
100
AcDbGroup
300

 70
     1
 71
     1
  0
GROUP
  5
4C0E
102
{ACAD_REACTORS
330
D
102
}
330
D
100
AcDbGroup
300

 70
     1
 71
     1
  0
MLINESTYLE
  5
13
102
{ACAD_REACTORS
330
E
102
}
330
E
100
AcDbMlineStyle
  2
STANDARD
 70
     0
  3

 62
     0
 51
90.0
 52
90.0
 71
     2
 49
0.5
 62
   256
  6
BYLAYER
 49
-0.5
 62
   256
  6
BYLAYER
  0
ACDBPLACEHOLDER
  5
5C7C
102
{ACAD_REACTORS
330
5C7B
102
}
330
5C7B
100
AcDbPlaceHolder
280
     0
  0
DICTIONARYVAR
  5
13218
102
{ACAD_REACTORS
330
13217
102
}
330
13217
100
DictionaryVariables
280
     0
  1
96
  0
XRECORD
  5
16B89
102
{ACAD_REACTORS
330
16B88
102
}
330
16B88
100
AcDbXrecord
 90
        1
  0
XRECORD
  5
16B8A
102
{ACAD_REACTORS
330
16B88
102
}
330
16B88
100
AcDbXrecord
 90
       70
  0
XRECORD
  5
16B8B
102
{ACAD_REACTORS
330
16B88
102
}
330
16B88
100
AcDbXrecord
  1

  0
XRECORD
  5
16B8C
102
{ACAD_REACTORS
330
16B88
102
}
330
16B88
100
AcDbXrecord
  1

  0
XRECORD
  5
16B8D
102
{ACAD_REACTORS
330
16B88
102
}
330
16B88
100
AcDbXrecord
340
5C7D
  0
XRECORD
  5
16B8E
102
{ACAD_REACTORS
330
16B88
102
}
330
16B88
100
AcDbXrecord
340
5C7E
  0
XRECORD
  5
16B8F
102
{ACAD_REACTORS
330
16B88
102
}
330
16B88
100
AcDbXrecord
340
5C7B
  0
XRECORD
  5
16B90
102
{ACAD_REACTORS
330
16B88
102
}
330
16B88
100
AcDbXrecord
 90
    10781
  0
XRECORD
  5
16B91
102
{ACAD_REACTORS
330
16B88
102
}
330
16B88
100
AcDbXrecord
 90
        0
  0
XRECORD
  5
16B92
102
{ACAD_REACTORS
330
16B88
102
}
330
16B88
100
AcDbXrecord
 90
        0
  0
XRECORD
  5
16B93
102
{ACAD_REACTORS
330
16B88
102
}
330
16B88
100
AcDbXrecord
  1
{225A7F0D-DA29-11D8-946A-0000E2416295}
  0
XRECORD
  5
16B94
102
{ACAD_REACTORS
330
16B88
102
}
330
16B88
100
AcDbXrecord
  1
{8E13CDC3-E65F-48C3-A445-C32B51CD31BB}
  0
XRECORD
  5
16B95
102
{ACAD_REACTORS
330
16B88
102
}
330
16B88
100
AcDbXrecord
 40
0.0
  0
XRECORD
  5
16B96
102
{ACAD_REACTORS
330
16B88
102
}
330
16B88
100
AcDbXrecord
340
0
  0
XRECORD
  5
16B97
102
{ACAD_REACTORS
330
16B88
102
}
330
16B88
100
AcDbXrecord
 70
     0
  0
XRECORD
  5
16B98
102
{ACAD_REACTORS
330
16B88
102
}
330
16B88
100
AcDbXrecord
340
0
  0
XRECORD
  5
16B99
102
{ACAD_REACTORS
330
16B88
102
}
330
16B88
100
AcDbXrecord
 10
0.0
 20
0.0
 30
0.0
  0
XRECORD
  5
16B9A
102
{ACAD_REACTORS
330
16B88
102
}
330
16B88
100
AcDbXrecord
 10
0.0
 20
0.0
 30
0.0
  0
XRECORD
  5
16B9B
102
{ACAD_REACTORS
330
16B88
102
}
330
16B88
100
AcDbXrecord
 10
0.0
 20
0.0
 30
0.0
  0
XRECORD
  5
16B9C
102
{ACAD_REACTORS
330
16B88
102
}
330
16B88
100
AcDbXrecord
 10
0.0
 20
0.0
 30
0.0
  0
XRECORD
  5
16B9D
102
{ACAD_REACTORS
330
16B88
102
}
330
16B88
100
AcDbXrecord
 10
0.0
 20
0.0
 30
0.0
  0
XRECORD
  5
16B9E
102
{ACAD_REACTORS
330
16B88
102
}
330
16B88
100
AcDbXrecord
 10
0.0
 20
0.0
 30
0.0
  0
XRECORD
  5
16B9F
102
{ACAD_REACTORS
330
16B88
102
}
330
16B88
100
AcDbXrecord
340
0
  0
XRECORD
  5
16BA0
102
{ACAD_REACTORS
330
16B88
102
}
330
16B88
100
AcDbXrecord
 70
     0
  0
XRECORD
  5
16BA1
102
{ACAD_REACTORS
330
16B88
102
}
330
16B88
100
AcDbXrecord
340
0
  0
XRECORD
  5
16BA2
102
{ACAD_REACTORS
330
16B88
102
}
330
16B88
100
AcDbXrecord
 10
0.0
 20
0.0
 30
0.0
  0
XRECORD
  5
16BA3
102
{ACAD_REACTORS
330
16B88
102
}
330
16B88
100
AcDbXrecord
 10
0.0
 20
0.0
 30
0.0
  0
XRECORD
  5
16BA4
102
{ACAD_REACTORS
330
16B88
102
}
330
16B88
100
AcDbXrecord
 10
0.0
 20
0.0
 30
0.0
  0
XRECORD
  5
16BA5
102
{ACAD_REACTORS
330
16B88
102
}
330
16B88
100
AcDbXrecord
 10
0.0
 20
0.0
 30
0.0
  0
XRECORD
  5
16BA6
102
{ACAD_REACTORS
330
16B88
102
}
330
16B88
100
AcDbXrecord
 10
0.0
 20
0.0
 30
0.0
  0
XRECORD
  5
16BA7
102
{ACAD_REACTORS
330
16B88
102
}
330
16B88
100
AcDbXrecord
 10
0.0
 20
0.0
 30
0.0
  0
ENDSEC
  0
EOF
