  0
SECTION
  2
HEADER
  9
$ACADVER
  1
AC1014
  9
$ACADMAINTVER
 70
     9
  9
$DWGCODEPAGE
  3
ANSI_932
  9
$INSBASE
 10
0.0
 20
0.0
 30
0.0
  9
$EXTMIN
 10
-1419.540031864022
 20
1699.401627197755
 30
0.0
  9
$EXTMAX
 10
-1102.71777978213
 20
1938.754675952451
 30
0.0
  9
$LIMMIN
 10
0.0
 20
0.0
  9
$LIMMAX
 10
420.0
 20
297.0
  9
$ORTHOMODE
 70
     1
  9
$REGENMODE
 70
     1
  9
$FILLMODE
 70
     1
  9
$QTEXTMODE
 70
     0
  9
$MIRRTEXT
 70
     1
  9
$DRAGMODE
 70
     2
  9
$LTSCALE
 40
1.0
  9
$OSMODE
 70
    37
  9
$ATTMODE
 70
     1
  9
$TEXTSIZE
 40
2.5
  9
$TRACEWID
 40
1.0
  9
$TEXTSTYLE
  7
ゴシック体
  9
$CLAYER
  8
CL1
  9
$CELTYPE
  6
BYLAYER
  9
$CECOLOR
 62
   256
  9
$CELTSCALE
 40
1.0
  9
$DELOBJ
 70
     1
  9
$DISPSILH
 70
     0
  9
$DIMSCALE
 40
0.0
  9
$DIMASZ
 40
3.0
  9
$DIMEXO
 40
0.5
  9
$DIMDLI
 40
0.5
  9
$DIMRND
 40
0.0
  9
$DIMDLE
 40
0.0
  9
$DIMEXE
 40
0.5
  9
$DIMTP
 40
0.0
  9
$DIMTM
 40
0.0
  9
$DIMTXT
 40
3.5
  9
$DIMCEN
 40
0.0
  9
$DIMTSZ
 40
0.0
  9
$DIMTOL
 70
     0
  9
$DIMLIM
 70
     0
  9
$DIMTIH
 70
     0
  9
$DIMTOH
 70
     0
  9
$DIMSE1
 70
     0
  9
$DIMSE2
 70
     0
  9
$DIMTAD
 70
     1
  9
$DIMZIN
 70
     8
  9
$DIMBLK
  1

  9
$DIMASO
 70
     1
  9
$DIMSHO
 70
     1
  9
$DIMPOST
  1

  9
$DIMAPOST
  1

  9
$DIMALT
 70
     0
  9
$DIMALTD
 70
     2
  9
$DIMALTF
 40
25.4
  9
$DIMLFAC
 40
1.0
  9
$DIMTOFL
 70
     1
  9
$DIMTVP
 40
0.0
  9
$DIMTIX
 70
     0
  9
$DIMSOXD
 70
     0
  9
$DIMSAH
 70
     0
  9
$DIMBLK1
  1

  9
$DIMBLK2
  1

  9
$DIMSTYLE
  2
標準スタイル
  9
$DIMCLRD
 70
     1
  9
$DIMCLRE
 70
     1
  9
$DIMCLRT
 70
     1
  9
$DIMTFAC
 40
1.0
  9
$DIMGAP
 40
1.0
  9
$DIMJUST
 70
     0
  9
$DIMSD1
 70
     0
  9
$DIMSD2
 70
     0
  9
$DIMTOLJ
 70
     1
  9
$DIMTZIN
 70
     8
  9
$DIMALTZ
 70
     0
  9
$DIMALTTZ
 70
     0
  9
$DIMFIT
 70
     3
  9
$DIMUPT
 70
     0
  9
$DIMUNIT
 70
     2
  9
$DIMDEC
 70
     2
  9
$DIMTDEC
 70
     2
  9
$DIMALTU
 70
     2
  9
$DIMALTTD
 70
     2
  9
$DIMTXSTY
  7
ゴシック体
  9
$DIMAUNIT
 70
     0
  9
$LUNITS
 70
     2
  9
$LUPREC
 70
     4
  9
$SKETCHINC
 40
1.0
  9
$FILLETRAD
 40
1.0
  9
$AUNITS
 70
     0
  9
$AUPREC
 70
     0
  9
$MENU
  1
.
  9
$ELEVATION
 40
0.0
  9
$PELEVATION
 40
0.0
  9
$THICKNESS
 40
0.0
  9
$LIMCHECK
 70
     0
  9
$BLIPMODE
 70
     0
  9
$CHAMFERA
 40
1.0
  9
$CHAMFERB
 40
1.0
  9
$CHAMFERC
 40
2.0
  9
$CHAMFERD
 40
0.7853981633974483
  9
$SKPOLY
 70
     0
  9
$TDCREATE
 40
2450495.493631365
  9
$TDUPDATE
 40
2458506.424337072
  9
$TDINDWG
 40
2.7540381481
  9
$TDUSRTIMER
 40
2.7540381481
  9
$USRTIMER
 70
     1
  9
$ANGBASE
 50
0.0
  9
$ANGDIR
 70
     0
  9
$PDMODE
 70
    99
  9
$PDSIZE
 40
0.0
  9
$PLINEWID
 40
0.0
  9
$COORDS
 70
     0
  9
$SPLFRAME
 70
     0
  9
$SPLINETYPE
 70
     6
  9
$SPLINESEGS
 70
     8
  9
$ATTDIA
 70
     0
  9
$ATTREQ
 70
     1
  9
$HANDLING
 70
 10241
  9
$HANDSEED
  5
17588
  9
$SURFTAB1
 70
     6
  9
$SURFTAB2
 70
     6
  9
$SURFTYPE
 70
     6
  9
$SURFU
 70
     6
  9
$SURFV
 70
     6
  9
$UCSNAME
  2

  9
$UCSORG
 10
0.0
 20
0.0
 30
0.0
  9
$UCSXDIR
 10
1.0
 20
0.0
 30
0.0
  9
$UCSYDIR
 10
0.0
 20
1.0
 30
0.0
  9
$PUCSNAME
  2

  9
$PUCSORG
 10
0.0
 20
0.0
 30
0.0
  9
$PUCSXDIR
 10
1.0
 20
0.0
 30
0.0
  9
$PUCSYDIR
 10
0.0
 20
1.0
 30
0.0
  9
$USERI1
 70
     0
  9
$USERI2
 70
     0
  9
$USERI3
 70
     0
  9
$USERI4
 70
     0
  9
$USERI5
 70
     0
  9
$USERR1
 40
0.0
  9
$USERR2
 40
0.0
  9
$USERR3
 40
0.0
  9
$USERR4
 40
0.0
  9
$USERR5
 40
0.0
  9
$WORLDVIEW
 70
     1
  9
$SHADEDGE
 70
     3
  9
$SHADEDIF
 70
    70
  9
$TILEMODE
 70
     0
  9
$MAXACTVP
 70
    16
  9
$PINSBASE
 10
0.0
 20
0.0
 30
0.0
  9
$PLIMCHECK
 70
     0
  9
$PEXTMIN
 10
29.01457767957845
 20
27.68940191581225
 30
-0.0015258207003583
  9
$PEXTMAX
 10
414.544523234702
 20
287.7142138870628
 30
0.0000000349246037
  9
$PLIMMIN
 10
15.15433780389673
 20
13.80781516542163
  9
$PLIMMAX
 10
435.1009930773342
 20
310.8184658001872
  9
$UNITMODE
 70
     0
  9
$VISRETAIN
 70
     0
  9
$PLINEGEN
 70
     0
  9
$PSLTSCALE
 70
     1
  9
$TREEDEPTH
 70
  3020
  9
$PICKSTYLE
 70
     1
  9
$CMLSTYLE
  2
STANDARD
  9
$CMLJUST
 70
     0
  9
$CMLSCALE
 40
1.0
  9
$PROXYGRAPHICS
 70
     1
  9
$MEASUREMENT
 70
     0
  0
ENDSEC
  0
SECTION
  2
CLASSES
  0
CLASS
  1
LWPOLYLINE
  2
AcDbPolyline
  3
AutoCAD 2000
 90
        0
280
     0
281
     1
  0
CLASS
  1
HATCH
  2
AcDbHatch
  3
AutoCAD 2000
 90
        0
280
     0
281
     1
  0
CLASS
  1
ACDBDICTIONARYWDFLT
  2
AcDbDictionaryWithDefault
  3
AutoCAD 2000
 90
        0
280
     0
281
     0
  0
CLASS
  1
ACDBPLACEHOLDER
  2
AcDbPlaceHolder
  3
AutoCAD 2000
 90
        0
280
     0
281
     0
  0
CLASS
  1
LAYOUT
  2
AcDbLayout
  3
AutoCAD 2000
 90
        0
280
     0
281
     0
  0
CLASS
  1
DICTIONARYVAR
  2
AcDbDictionaryVar
  3
AutoCAD 2000
 90
        0
280
     0
281
     0
  0
CLASS
  1
LONG_TRANSACTION
  2
AcDbLongTransaction
  3
AutoCAD 2000
 90
        0
280
     0
281
     0
  0
CLASS
  1
LWPOLYLINE
  2
AcDbPolyline
  3
AutoCAD 2000
 90
        0
280
     0
281
     1
  0
CLASS
  1
HATCH
  2
AcDbHatch
  3
AutoCAD 2000
 90
        0
280
     0
281
     1
  0
CLASS
  1
XRECORD
  2
AcDbXrecord
  3
AutoCAD 2000
 90
        0
280
     0
281
     0
  0
ENDSEC
  0
SECTION
  2
TABLES
  0
TABLE
  2
VPORT
  5
8
330
0
100
AcDbSymbolTable
 70
    10
  0
VPORT
  5
17558
330
8
100
AcDbSymbolTableRecord
100
AcDbViewportTableRecord
  2
*ACTIVE
 70
     0
 10
0.0
 20
0.0
 11
1.0
 21
1.0
 12
-1261.145796292552
 22
1819.076458165154
 13
0.0
 23
0.0
 14
5.0
 24
5.0
 15
0.0
 25
0.0
 16
0.0
 26
0.0
 36
1.0
 17
0.0
 27
0.0
 37
0.0
 40
242.1705528963693
 41
1.781954887218045
 42
50.0
 43
0.0
 44
0.0
 50
0.0
 51
0.0
 71
     0
 72
   100
 73
     1
 74
     0
 75
     0
 76
     0
 77
     0
 78
     0
  0
ENDTAB
  0
TABLE
  2
LTYPE
  5
5
330
0
100
AcDbSymbolTable
 70
    13
  0
LTYPE
  5
14
330
5
100
AcDbSymbolTableRecord
100
AcDbLinetypeTableRecord
  2
BYBLOCK
 70
     0
  3

 72
    65
 73
     0
 40
0.0
  0
LTYPE
  5
15
330
5
100
AcDbSymbolTableRecord
100
AcDbLinetypeTableRecord
  2
BYLAYER
 70
     0
  3

 72
    65
 73
     0
 40
0.0
  0
LTYPE
  5
16
330
5
100
AcDbSymbolTableRecord
100
AcDbLinetypeTableRecord
  2
CONTINUOUS
 70
     0
  3
Solid line
 72
    65
 73
     0
 40
0.0
  0
LTYPE
  5
1956
330
5
100
AcDbSymbolTableRecord
100
AcDbLinetypeTableRecord
  2
CENTERX2
 70
     0
  3
________  __  ________  __  ________  __  _____
 72
    65
 73
     4
 40
4.0
 49
2.5
 74
     0
 49
-0.5
 74
     0
 49
0.5
 74
     0
 49
-0.5
 74
     0
  0
ENDTAB
  0
TABLE
  2
LAYER
  5
2
102
{ACAD_XDICTIONARY
360
15F03
102
}
330
0
100
AcDbSymbolTable
 70
    35
  0
LAYER
  5
F
330
2
100
AcDbSymbolTableRecord
100
AcDbLayerTableRecord
  2
0
 70
     0
 62
     7
  6
CONTINUOUS
  0
LAYER
  5
18F
330
2
100
AcDbSymbolTableRecord
100
AcDbLayerTableRecord
  2
ZISSEN1
 70
     0
 62
     7
  6
CONTINUOUS
  0
LAYER
  5
529
330
2
100
AcDbSymbolTableRecord
100
AcDbLayerTableRecord
  2
SUNPOU
 70
     0
 62
     1
  6
CONTINUOUS
  0
LAYER
  5
195A
330
2
100
AcDbSymbolTableRecord
100
AcDbLayerTableRecord
  2
CL1
 70
     0
 62
   210
  6
CENTERX2
  0
LAYER
  5
3A9B
330
2
100
AcDbSymbolTableRecord
100
AcDbLayerTableRecord
  2
DEFPOINTS
 70
     0
 62
     7
  6
CONTINUOUS
  0
ENDTAB
  0
TABLE
  2
STYLE
  5
3
330
0
100
AcDbSymbolTable
 70
     6
  0
STYLE
  5
10
330
3
100
AcDbSymbolTableRecord
100
AcDbTextStyleTableRecord
  2
STANDARD
 70
     0
 40
0.0
 41
1.0
 50
0.0
 71
     0
 42
3.0
  3
txt
  4
BigFont
  0
STYLE
  5
1960
330
3
100
AcDbSymbolTableRecord
100
AcDbTextStyleTableRecord
  2
ゴシック体
 70
     0
 40
0.0
 41
1.0
 50
0.0
 71
     0
 42
2.5
  3
MS Gothic.ttf
  4

1001
ACAD
1000
MS Gothic
1071
    32817
  0
ENDTAB
  0
TABLE
  2
VIEW
  5
6
330
0
100
AcDbSymbolTable
 70
     0
  0
ENDTAB
  0
TABLE
  2
UCS
  5
7
330
0
100
AcDbSymbolTable
 70
     0
  0
ENDTAB
  0
TABLE
  2
APPID
  5
9
330
0
100
AcDbSymbolTable
 70
     5
  0
APPID
  5
11
330
9
100
AcDbSymbolTableRecord
100
AcDbRegAppTableRecord
  2
ACAD
 70
     0
  0
APPID
  5
4005
330
9
100
AcDbSymbolTableRecord
100
AcDbRegAppTableRecord
  2
CONTENTTABDATA
 70
     0
  0
APPID
  5
4006
330
9
100
AcDbSymbolTableRecord
100
AcDbRegAppTableRecord
  2
CONTENTCURRENTTAB
 70
     0
  0
APPID
  5
477B
330
9
100
AcDbSymbolTableRecord
100
AcDbRegAppTableRecord
  2
CONTENTBLOCKDESCRIPTION
 70
     0
  0
APPID
  5
477C
330
9
100
AcDbSymbolTableRecord
100
AcDbRegAppTableRecord
  2
CONTENTBLOCKICON
 70
     0
  0
ENDTAB
  0
TABLE
  2
DIMSTYLE
  5
A
330
0
100
AcDbSymbolTable
 70
    13
  0
DIMSTYLE
105
1D
330
A
100
AcDbSymbolTableRecord
100
AcDbDimStyleTableRecord
  2
STANDARD
 70
     0
  3

  4

  5

  6

  7

 40
1.0
 41
0.18
 42
0.0625
 43
0.38
 44
0.18
 45
0.0
 46
0.0
 47
0.0
 48
0.0
140
0.18
141
0.09
142
0.0
143
25.4
144
1.0
145
0.0
146
1.0
147
0.09
 71
     0
 72
     0
 73
     1
 74
     1
 75
     0
 76
     0
 77
     0
 78
     0
170
     0
171
     2
172
     0
173
     0
174
     0
175
     0
176
     0
177
     0
178
     0
270
     2
271
     4
272
     4
273
     2
274
     2
340
10
275
     0
280
     0
281
     0
282
     0
283
     1
284
     0
285
     0
286
     0
287
     3
288
     0
  0
DIMSTYLE
105
52E
102
{ACAD_REACTORS
330
166A5
330
166A6
330
166A7
330
166A8
330
166C5
330
166CD
330
16771
330
16772
330
16773
330
16774
330
16781
330
16788
330
16905
330
16906
330
16921
330
16C70
330
16C76
330
16C77
330
16A07
330
166A4
330
15AD7
330
15AAA
330
15AA9
330
15AA8
330
15AA2
330
15ADE
330
15ADD
330
15ADC
330
15AEC
330
15AEB
330
15AF1
330
15AFA
330
15AF8
330
15B06
330
16814
102
}
330
A
100
AcDbSymbolTableRecord
100
AcDbDimStyleTableRecord
  2
標準スタイル
 70
     0
  3

  4

  5

  6

  7

 40
0.0
 41
3.0
 42
0.5
 43
0.5
 44
0.5
 45
0.0
 46
0.0
 47
0.0
 48
0.0
140
3.5
141
0.0
142
0.0
143
25.4
144
1.0
145
0.0
146
1.0
147
1.0
 71
     0
 72
     0
 73
     0
 74
     0
 75
     0
 76
     0
 77
     1
 78
     8
170
     0
171
     2
172
     1
173
     0
174
     0
175
     0
176
     1
177
     1
178
     1
270
     2
271
     2
272
     2
273
     2
274
     2
340
1960
275
     0
280
     0
281
     0
282
     0
283
     1
284
     8
285
     0
286
     0
287
     3
288
     0
  0
ENDTAB
  0
TABLE
  2
BLOCK_RECORD
  5
1
330
0
100
AcDbSymbolTable
 70
    90
  0
BLOCK_RECORD
  5
1A
102
{ACAD_XDICTIONARY
360
17579
102
}
330
1
100
AcDbSymbolTableRecord
100
AcDbBlockTableRecord
  2
*MODEL_SPACE
  0
BLOCK_RECORD
  5
15176
102
{ACAD_XDICTIONARY
360
1757B
102
}
330
1
100
AcDbSymbolTableRecord
100
AcDbBlockTableRecord
  2
*PAPER_SPACE
  0
BLOCK_RECORD
  5
16D35
330
1
100
AcDbSymbolTableRecord
100
AcDbBlockTableRecord
  2
*D70
  0
BLOCK_RECORD
  5
16D41
330
1
100
AcDbSymbolTableRecord
100
AcDbBlockTableRecord
  2
*D71
  0
BLOCK_RECORD
  5
16D4D
330
1
100
AcDbSymbolTableRecord
100
AcDbBlockTableRecord
  2
*D72
  0
BLOCK_RECORD
  5
16D59
330
1
100
AcDbSymbolTableRecord
100
AcDbBlockTableRecord
  2
*D73
  0
BLOCK_RECORD
  5
16D65
330
1
100
AcDbSymbolTableRecord
100
AcDbBlockTableRecord
  2
*D74
  0
BLOCK_RECORD
  5
16D71
330
1
100
AcDbSymbolTableRecord
100
AcDbBlockTableRecord
  2
*D75
  0
BLOCK_RECORD
  5
16D7D
330
1
100
AcDbSymbolTableRecord
100
AcDbBlockTableRecord
  2
*D76
  0
BLOCK_RECORD
  5
16D89
330
1
100
AcDbSymbolTableRecord
100
AcDbBlockTableRecord
  2
*D77
  0
BLOCK_RECORD
  5
16D95
330
1
100
AcDbSymbolTableRecord
100
AcDbBlockTableRecord
  2
*D78
  0
BLOCK_RECORD
  5
16DA1
330
1
100
AcDbSymbolTableRecord
100
AcDbBlockTableRecord
  2
*D79
  0
BLOCK_RECORD
  5
16DAD
330
1
100
AcDbSymbolTableRecord
100
AcDbBlockTableRecord
  2
*D80
  0
BLOCK_RECORD
  5
16DB9
330
1
100
AcDbSymbolTableRecord
100
AcDbBlockTableRecord
  2
*D81
  0
BLOCK_RECORD
  5
16DC7
330
1
100
AcDbSymbolTableRecord
100
AcDbBlockTableRecord
  2
*D82
  0
BLOCK_RECORD
  5
16DD5
330
1
100
AcDbSymbolTableRecord
100
AcDbBlockTableRecord
  2
*D83
  0
BLOCK_RECORD
  5
16DE1
330
1
100
AcDbSymbolTableRecord
100
AcDbBlockTableRecord
  2
*D84
  0
BLOCK_RECORD
  5
16DED
330
1
100
AcDbSymbolTableRecord
100
AcDbBlockTableRecord
  2
*D85
  0
BLOCK_RECORD
  5
16E07
330
1
100
AcDbSymbolTableRecord
100
AcDbBlockTableRecord
  2
*D87
  0
BLOCK_RECORD
  5
16E13
330
1
100
AcDbSymbolTableRecord
100
AcDbBlockTableRecord
  2
*D88
  0
BLOCK_RECORD
  5
16E21
330
1
100
AcDbSymbolTableRecord
100
AcDbBlockTableRecord
  2
*D89
  0
ENDTAB
  0
ENDSEC
  0
SECTION
  2
BLOCKS
  0
BLOCK
  5
1B
330
1A
100
AcDbEntity
  8
0
100
AcDbBlockBegin
  2
*MODEL_SPACE
 70
     0
 10
0.0
 20
0.0
 30
0.0
  3
*MODEL_SPACE
  1

  0
ENDBLK
  5
1C
330
1A
100
AcDbEntity
  8
0
100
AcDbBlockEnd
  0
BLOCK
  5
1517A
330
15176
100
AcDbEntity
 67
     1
  8
0
100
AcDbBlockBegin
  2
*PAPER_SPACE
 70
     0
 10
0.0
 20
0.0
 30
0.0
  3
*PAPER_SPACE
  1

  0
ENDBLK
  5
1517B
330
15176
100
AcDbEntity
 67
     1
  8
0
100
AcDbBlockEnd
  0
BLOCK
  5
16D3F
330
16D35
100
AcDbEntity
  8
0
100
AcDbBlockBegin
  2
*D70
 70
     1
 10
0.0
 20
0.0
 30
0.0
  3
*D70
  1

  0
LINE
  5
174E0
330
16D35
100
AcDbEntity
  8
SUNPOU
 62
     1
100
AcDbLine
 10
-1382.540031864022
 20
1895.254675952451
 30
0.0
 11
-1382.540031864022
 21
1869.754675952451
 31
0.0
  0
LINE
  5
174E1
330
16D35
100
AcDbEntity
  8
SUNPOU
 62
     1
100
AcDbLine
 10
-1210.540031864023
 20
1895.254675952451
 30
0.0
 11
-1210.540031864023
 21
1869.754675952451
 31
0.0
  0
LINE
  5
174E2
330
16D35
100
AcDbEntity
  8
SUNPOU
 62
     1
100
AcDbLine
 10
-1379.540031864022
 20
1870.254675952451
 30
0.0
 11
-1213.540031864023
 21
1870.254675952451
 31
0.0
  0
SOLID
  5
174E3
330
16D35
100
AcDbEntity
  8
SUNPOU
 62
     1
100
AcDbTrace
 10
-1379.540031864022
 20
1870.754675952451
 30
0.0
 11
-1379.540031864022
 21
1869.754675952451
 31
0.0
 12
-1382.540031864022
 22
1870.254675952451
 32
0.0
 13
-1382.540031864022
 23
1870.254675952451
 33
0.0
  0
SOLID
  5
174E4
330
16D35
100
AcDbEntity
  8
SUNPOU
 62
     1
100
AcDbTrace
 10
-1213.540031864023
 20
1870.754675952451
 30
0.0
 11
-1213.540031864023
 21
1869.754675952451
 31
0.0
 12
-1210.540031864023
 22
1870.254675952451
 32
0.0
 13
-1210.540031864023
 23
1870.254675952451
 33
0.0
  0
MTEXT
  5
174E5
330
16D35
100
AcDbEntity
  8
SUNPOU
 62
     1
100
AcDbMText
 10
-1296.540031864022
 20
1873.004675952451
 30
0.0
 40
3.5
 41
0.0
 71
     5
 72
     1
  1
\A1;172(ユーザー取付寸法)
1001
ACAD
1000
MTEXTBEGIN
1070
    73
1070
     1
1070
    44
1040
1.0
1070
    74
1070
     0
1000
MTEXTEND
  0
POINT
  5
174E6
330
16D35
100
AcDbEntity
  8
DEFPOINTS
 62
     0
100
AcDbPoint
 10
-1382.540031864022
 20
1895.754675952451
 30
0.0
  0
POINT
  5
174E7
330
16D35
100
AcDbEntity
  8
DEFPOINTS
 62
     0
100
AcDbPoint
 10
-1210.540031864023
 20
1895.754675952451
 30
0.0
  0
POINT
  5
174E8
330
16D35
100
AcDbEntity
  8
DEFPOINTS
 62
     0
100
AcDbPoint
 10
-1210.540031864023
 20
1870.254675952451
 30
0.0
  0
ENDBLK
  5
16D40
330
16D35
100
AcDbEntity
  8
0
100
AcDbBlockEnd
  0
BLOCK
  5
16D4B
330
16D41
100
AcDbEntity
  8
0
100
AcDbBlockBegin
  2
*D71
 70
     1
 10
0.0
 20
0.0
 30
0.0
  3
*D71
  1

  0
LINE
  5
174E9
330
16D41
100
AcDbEntity
  8
SUNPOU
 62
     1
100
AcDbLine
 10
-1374.040031864022
 20
1932.754675952451
 30
0.0
 11
-1415.540031864022
 21
1932.754675952451
 31
0.0
  0
LINE
  5
174EA
330
16D41
100
AcDbEntity
  8
SUNPOU
 62
     1
100
AcDbLine
 10
-1248.040031864022
 20
1881.25467595245
 30
0.0
 11
-1415.540031864022
 21
1881.25467595245
 31
0.0
  0
LINE
  5
174EB
330
16D41
100
AcDbEntity
  8
SUNPOU
 62
     1
100
AcDbLine
 10
-1415.040031864022
 20
1929.754675952451
 30
0.0
 11
-1415.040031864022
 21
1884.25467595245
 31
0.0
  0
SOLID
  5
174EC
330
16D41
100
AcDbEntity
  8
SUNPOU
 62
     1
100
AcDbTrace
 10
-1415.540031864022
 20
1929.754675952451
 30
0.0
 11
-1414.540031864022
 21
1929.754675952451
 31
0.0
 12
-1415.040031864022
 22
1932.754675952451
 32
0.0
 13
-1415.040031864022
 23
1932.754675952451
 33
0.0
  0
SOLID
  5
174ED
330
16D41
100
AcDbEntity
  8
SUNPOU
 62
     1
100
AcDbTrace
 10
-1415.540031864022
 20
1884.25467595245
 30
0.0
 11
-1414.540031864022
 21
1884.25467595245
 31
0.0
 12
-1415.040031864022
 22
1881.25467595245
 32
0.0
 13
-1415.040031864022
 23
1881.25467595245
 33
0.0
  0
MTEXT
  5
174EE
330
16D41
100
AcDbEntity
  8
SUNPOU
 62
     1
100
AcDbMText
 10
-1417.790031864023
 20
1907.004675952451
 30
0.0
 40
3.5
 41
0.0
 71
     5
 72
     1
  1
\A1;(51.5)
 11
0.0000000000000001
 21
1.0
 31
0.0
1001
ACAD
1000
MTEXTBEGIN
1070
    73
1070
     1
1070
    44
1040
1.0
1070
    74
1070
     0
1000
MTEXTEND
  0
POINT
  5
174EF
330
16D41
100
AcDbEntity
  8
DEFPOINTS
 62
     0
100
AcDbPoint
 10
-1373.540031864022
 20
1932.754675952451
 30
0.0
  0
POINT
  5
174F0
330
16D41
100
AcDbEntity
  8
DEFPOINTS
 62
     0
100
AcDbPoint
 10
-1247.540031864022
 20
1881.25467595245
 30
0.0
  0
POINT
  5
174F1
330
16D41
100
AcDbEntity
  8
DEFPOINTS
 62
     0
100
AcDbPoint
 10
-1415.040031864022
 20
1881.25467595245
 30
0.0
  0
ENDBLK
  5
16D4C
330
16D41
100
AcDbEntity
  8
0
100
AcDbBlockEnd
  0
BLOCK
  5
16D57
330
16D4D
100
AcDbEntity
  8
0
100
AcDbBlockBegin
  2
*D72
 70
     1
 10
0.0
 20
0.0
 30
0.0
  3
*D72
  1

  0
LINE
  5
17454
330
16D4D
100
AcDbEntity
  8
ZISSEN1
 62
     1
100
AcDbLine
 10
-1376.540031864022
 20
1719.901627197785
 30
0.0
 11
-1376.540031864022
 21
1706.401627197785
 31
0.0
  0
LINE
  5
17455
330
16D4D
100
AcDbEntity
  8
ZISSEN1
 62
     1
100
AcDbLine
 10
-1216.540031864022
 20
1719.901627197785
 30
0.0
 11
-1216.540031864022
 21
1706.401627197785
 31
0.0
  0
LINE
  5
17456
330
16D4D
100
AcDbEntity
  8
ZISSEN1
 62
     1
100
AcDbLine
 10
-1373.540031864022
 20
1706.901627197785
 30
0.0
 11
-1219.540031864022
 21
1706.901627197785
 31
0.0
  0
SOLID
  5
17457
330
16D4D
100
AcDbEntity
  8
ZISSEN1
 62
     1
100
AcDbTrace
 10
-1373.540031864022
 20
1707.401627197785
 30
0.0
 11
-1373.540031864022
 21
1706.401627197785
 31
0.0
 12
-1376.540031864022
 22
1706.901627197785
 32
0.0
 13
-1376.540031864022
 23
1706.901627197785
 33
0.0
  0
SOLID
  5
17458
330
16D4D
100
AcDbEntity
  8
ZISSEN1
 62
     1
100
AcDbTrace
 10
-1219.540031864022
 20
1707.401627197785
 30
0.0
 11
-1219.540031864022
 21
1706.401627197785
 31
0.0
 12
-1216.540031864022
 22
1706.901627197785
 32
0.0
 13
-1216.540031864022
 23
1706.901627197785
 33
0.0
  0
MTEXT
  5
17459
330
16D4D
100
AcDbEntity
  8
ZISSEN1
 62
     1
100
AcDbMText
 10
-1296.540031864022
 20
1709.651627197786
 30
0.0
 40
3.5
 41
0.0
 71
     5
 72
     1
  1
\A1;160
1001
ACAD
1000
MTEXTBEGIN
1070
    73
1070
     1
1070
    44
1040
1.0
1070
    74
1070
     0
1000
MTEXTEND
  0
POINT
  5
1745A
330
16D4D
100
AcDbEntity
  8
DEFPOINTS
 62
     0
100
AcDbPoint
 10
-1376.540031864022
 20
1720.401627197785
 30
0.0
  0
POINT
  5
1745B
330
16D4D
100
AcDbEntity
  8
DEFPOINTS
 62
     0
100
AcDbPoint
 10
-1216.540031864022
 20
1720.401627197785
 30
0.0
  0
POINT
  5
1745C
330
16D4D
100
AcDbEntity
  8
DEFPOINTS
 62
     0
100
AcDbPoint
 10
-1216.540031864022
 20
1706.901627197785
 30
0.0
  0
ENDBLK
  5
16D58
330
16D4D
100
AcDbEntity
  8
0
100
AcDbBlockEnd
  0
BLOCK
  5
16D63
330
16D59
100
AcDbEntity
  8
0
100
AcDbBlockBegin
  2
*D73
 70
     1
 10
0.0
 20
0.0
 30
0.0
  3
*D73
  1

  0
LINE
  5
1745D
330
16D59
100
AcDbEntity
  8
ZISSEN1
 62
     1
100
AcDbLine
 10
-1388.540031864022
 20
1716.901627197785
 30
0.0
 11
-1388.540031864022
 21
1699.401627197786
 31
0.0
  0
LINE
  5
1745E
330
16D59
100
AcDbEntity
  8
ZISSEN1
 62
     1
100
AcDbLine
 10
-1202.540031864022
 20
1716.901627197785
 30
0.0
 11
-1202.540031864022
 21
1699.401627197786
 31
0.0
  0
LINE
  5
1745F
330
16D59
100
AcDbEntity
  8
ZISSEN1
 62
     1
100
AcDbLine
 10
-1385.540031864022
 20
1699.901627197785
 30
0.0
 11
-1205.540031864022
 21
1699.901627197785
 31
0.0
  0
SOLID
  5
17460
330
16D59
100
AcDbEntity
  8
ZISSEN1
 62
     1
100
AcDbTrace
 10
-1385.540031864022
 20
1700.401627197785
 30
0.0
 11
-1385.540031864022
 21
1699.401627197786
 31
0.0
 12
-1388.540031864022
 22
1699.901627197785
 32
0.0
 13
-1388.540031864022
 23
1699.901627197785
 33
0.0
  0
SOLID
  5
17461
330
16D59
100
AcDbEntity
  8
ZISSEN1
 62
     1
100
AcDbTrace
 10
-1205.540031864022
 20
1700.401627197785
 30
0.0
 11
-1205.540031864022
 21
1699.401627197786
 31
0.0
 12
-1202.540031864022
 22
1699.901627197785
 32
0.0
 13
-1202.540031864022
 23
1699.901627197785
 33
0.0
  0
MTEXT
  5
17462
330
16D59
100
AcDbEntity
  8
ZISSEN1
 62
     1
100
AcDbMText
 10
-1295.540031864022
 20
1702.651627197785
 30
0.0
 40
3.5
 41
0.0
 71
     5
 72
     1
  1
\A1;186
1001
ACAD
1000
MTEXTBEGIN
1070
    73
1070
     1
1070
    44
1040
1.0
1070
    74
1070
     0
1000
MTEXTEND
  0
POINT
  5
17463
330
16D59
100
AcDbEntity
  8
DEFPOINTS
 62
     0
100
AcDbPoint
 10
-1388.540031864022
 20
1717.401627197785
 30
0.0
  0
POINT
  5
17464
330
16D59
100
AcDbEntity
  8
DEFPOINTS
 62
     0
100
AcDbPoint
 10
-1202.540031864022
 20
1717.401627197785
 30
0.0
  0
POINT
  5
17465
330
16D59
100
AcDbEntity
  8
DEFPOINTS
 62
     0
100
AcDbPoint
 10
-1202.540031864022
 20
1699.901627197785
 30
0.0
  0
ENDBLK
  5
16D64
330
16D59
100
AcDbEntity
  8
0
100
AcDbBlockEnd
  0
BLOCK
  5
16D6F
330
16D65
100
AcDbEntity
  8
0
100
AcDbBlockBegin
  2
*D74
 70
     1
 10
0.0
 20
0.0
 30
0.0
  3
*D74
  1

  0
LINE
  5
17466
330
16D65
100
AcDbEntity
  8
ZISSEN1
 62
     1
100
AcDbLine
 10
-1377.040031864022
 20
1847.401627197785
 30
0.0
 11
-1394.540031864022
 21
1847.401627197785
 31
0.0
  0
LINE
  5
17467
330
16D65
100
AcDbEntity
  8
ZISSEN1
 62
     1
100
AcDbLine
 10
-1389.040031864022
 20
1717.401627197785
 30
0.0
 11
-1394.540031864022
 21
1717.401627197785
 31
0.0
  0
LINE
  5
17468
330
16D65
100
AcDbEntity
  8
ZISSEN1
 62
     1
100
AcDbLine
 10
-1394.040031864022
 20
1844.401627197785
 30
0.0
 11
-1394.040031864022
 21
1720.401627197785
 31
0.0
  0
SOLID
  5
17469
330
16D65
100
AcDbEntity
  8
ZISSEN1
 62
     1
100
AcDbTrace
 10
-1394.540031864022
 20
1844.401627197785
 30
0.0
 11
-1393.540031864022
 21
1844.401627197785
 31
0.0
 12
-1394.040031864022
 22
1847.401627197785
 32
0.0
 13
-1394.040031864022
 23
1847.401627197785
 33
0.0
  0
SOLID
  5
1746A
330
16D65
100
AcDbEntity
  8
ZISSEN1
 62
     1
100
AcDbTrace
 10
-1394.540031864022
 20
1720.401627197785
 30
0.0
 11
-1393.540031864022
 21
1720.401627197785
 31
0.0
 12
-1394.040031864022
 22
1717.401627197785
 32
0.0
 13
-1394.040031864022
 23
1717.401627197785
 33
0.0
  0
MTEXT
  5
1746B
330
16D65
100
AcDbEntity
  8
ZISSEN1
 62
     1
100
AcDbMText
 10
-1396.790031864023
 20
1782.401627197785
 30
0.0
 40
3.5
 41
0.0
 71
     5
 72
     1
  1
\A1;130
 11
0.0000000000000001
 21
1.0
 31
0.0
1001
ACAD
1000
MTEXTBEGIN
1070
    73
1070
     1
1070
    44
1040
1.0
1070
    74
1070
     0
1000
MTEXTEND
  0
POINT
  5
1746C
330
16D65
100
AcDbEntity
  8
DEFPOINTS
 62
     0
100
AcDbPoint
 10
-1376.540031864022
 20
1847.401627197785
 30
0.0
  0
POINT
  5
1746D
330
16D65
100
AcDbEntity
  8
DEFPOINTS
 62
     0
100
AcDbPoint
 10
-1388.540031864022
 20
1717.401627197785
 30
0.0
  0
POINT
  5
1746E
330
16D65
100
AcDbEntity
  8
DEFPOINTS
 62
     0
100
AcDbPoint
 10
-1394.040031864022
 20
1717.401627197785
 30
0.0
  0
ENDBLK
  5
16D70
330
16D65
100
AcDbEntity
  8
0
100
AcDbBlockEnd
  0
BLOCK
  5
16D7B
330
16D71
100
AcDbEntity
  8
0
100
AcDbBlockBegin
  2
*D75
 70
     1
 10
0.0
 20
0.0
 30
0.0
  3
*D75
  1

  0
LINE
  5
1744B
330
16D71
100
AcDbEntity
  8
ZISSEN1
 62
     1
100
AcDbLine
 10
-1388.540031864022
 20
1716.901627197785
 30
0.0
 11
-1388.540031864022
 21
1706.401627197785
 31
0.0
  0
LINE
  5
1744C
330
16D71
100
AcDbEntity
  8
ZISSEN1
 62
     1
100
AcDbLine
 10
-1376.540031864022
 20
1719.401627197785
 30
0.0
 11
-1376.540031864022
 21
1706.401627197785
 31
0.0
  0
LINE
  5
1744D
330
16D71
100
AcDbEntity
  8
ZISSEN1
 62
     1
100
AcDbLine
 10
-1385.540031864022
 20
1706.901627197785
 30
0.0
 11
-1379.540031864022
 21
1706.901627197785
 31
0.0
  0
SOLID
  5
1744E
330
16D71
100
AcDbEntity
  8
ZISSEN1
 62
     1
100
AcDbTrace
 10
-1385.540031864022
 20
1707.401627197785
 30
0.0
 11
-1385.540031864022
 21
1706.401627197785
 31
0.0
 12
-1388.540031864022
 22
1706.901627197785
 32
0.0
 13
-1388.540031864022
 23
1706.901627197785
 33
0.0
  0
SOLID
  5
1744F
330
16D71
100
AcDbEntity
  8
ZISSEN1
 62
     1
100
AcDbTrace
 10
-1379.540031864022
 20
1707.401627197785
 30
0.0
 11
-1379.540031864022
 21
1706.401627197785
 31
0.0
 12
-1376.540031864022
 22
1706.901627197785
 32
0.0
 13
-1376.540031864022
 23
1706.901627197785
 33
0.0
  0
MTEXT
  5
17450
330
16D71
100
AcDbEntity
  8
ZISSEN1
 62
     1
100
AcDbMText
 10
-1382.540031864022
 20
1709.651627197786
 30
0.0
 40
3.5
 41
0.0
 71
     5
 72
     1
  1
\A1;12
1001
ACAD
1000
MTEXTBEGIN
1070
    73
1070
     1
1070
    44
1040
1.0
1070
    74
1070
     0
1000
MTEXTEND
  0
POINT
  5
17451
330
16D71
100
AcDbEntity
  8
DEFPOINTS
 62
     0
100
AcDbPoint
 10
-1388.540031864022
 20
1717.401627197785
 30
0.0
  0
POINT
  5
17452
330
16D71
100
AcDbEntity
  8
DEFPOINTS
 62
     0
100
AcDbPoint
 10
-1376.540031864022
 20
1719.901627197785
 30
0.0
  0
POINT
  5
17453
330
16D71
100
AcDbEntity
  8
DEFPOINTS
 62
     0
100
AcDbPoint
 10
-1376.540031864022
 20
1706.901627197785
 30
0.0
  0
ENDBLK
  5
16D7C
330
16D71
100
AcDbEntity
  8
0
100
AcDbBlockEnd
  0
BLOCK
  5
16D87
330
16D7D
100
AcDbEntity
  8
0
100
AcDbBlockBegin
  2
*D76
 70
     1
 10
0.0
 20
0.0
 30
0.0
  3
*D76
  1

  0
LINE
  5
17511
330
16D7D
100
AcDbEntity
  8
SUNPOU
 62
     1
100
AcDbLine
 10
-1386.540031864022
 20
1899.254675952451
 30
0.0
 11
-1401.540031864022
 21
1899.254675952451
 31
0.0
  0
LINE
  5
17512
330
16D7D
100
AcDbEntity
  8
SUNPOU
 62
     1
100
AcDbLine
 10
-1373.540031864022
 20
1884.254675952451
 30
0.0
 11
-1401.540031864022
 21
1884.254675952451
 31
0.0
  0
LINE
  5
17513
330
16D7D
100
AcDbEntity
  8
SUNPOU
 62
     1
100
AcDbLine
 10
-1401.040031864022
 20
1896.254675952451
 30
0.0
 11
-1401.040031864022
 21
1887.254675952451
 31
0.0
  0
SOLID
  5
17514
330
16D7D
100
AcDbEntity
  8
SUNPOU
 62
     1
100
AcDbTrace
 10
-1401.540031864022
 20
1896.254675952451
 30
0.0
 11
-1400.540031864022
 21
1896.254675952451
 31
0.0
 12
-1401.040031864022
 22
1899.254675952451
 32
0.0
 13
-1401.040031864022
 23
1899.254675952451
 33
0.0
  0
SOLID
  5
17515
330
16D7D
100
AcDbEntity
  8
SUNPOU
 62
     1
100
AcDbTrace
 10
-1401.540031864022
 20
1887.254675952451
 30
0.0
 11
-1400.540031864022
 21
1887.254675952451
 31
0.0
 12
-1401.040031864022
 22
1884.254675952451
 32
0.0
 13
-1401.040031864022
 23
1884.254675952451
 33
0.0
  0
MTEXT
  5
17516
330
16D7D
100
AcDbEntity
  8
SUNPOU
 62
     1
100
AcDbMText
 10
-1403.790031864023
 20
1891.754675952451
 30
0.0
 40
3.5
 41
0.0
 71
     5
 72
     1
  1
\A1;15
 11
0.0000000000000001
 21
1.0
 31
0.0
1001
ACAD
1000
MTEXTBEGIN
1070
    73
1070
     1
1070
    44
1040
1.0
1070
    74
1070
     0
1000
MTEXTEND
  0
POINT
  5
17517
330
16D7D
100
AcDbEntity
  8
DEFPOINTS
 62
     0
100
AcDbPoint
 10
-1386.040031864022
 20
1899.254675952451
 30
0.0
  0
POINT
  5
17518
330
16D7D
100
AcDbEntity
  8
DEFPOINTS
 62
     0
100
AcDbPoint
 10
-1373.040031864022
 20
1884.254675952451
 30
0.0
  0
POINT
  5
17519
330
16D7D
100
AcDbEntity
  8
DEFPOINTS
 62
     0
100
AcDbPoint
 10
-1401.040031864022
 20
1884.254675952451
 30
0.0
  0
ENDBLK
  5
16D88
330
16D7D
100
AcDbEntity
  8
0
100
AcDbBlockEnd
  0
BLOCK
  5
16D93
330
16D89
100
AcDbEntity
  8
0
100
AcDbBlockBegin
  2
*D77
 70
     1
 10
0.0
 20
0.0
 30
0.0
  3
*D77
  1

  0
LINE
  5
17508
330
16D89
100
AcDbEntity
  8
SUNPOU
 62
     1
100
AcDbLine
 10
-1386.540031864022
 20
1919.254675952451
 30
0.0
 11
-1401.540031864022
 21
1919.254675952451
 31
0.0
  0
LINE
  5
17509
330
16D89
100
AcDbEntity
  8
SUNPOU
 62
     1
100
AcDbLine
 10
-1374.040031864022
 20
1932.754675952451
 30
0.0
 11
-1401.540031864022
 21
1932.754675952451
 31
0.0
  0
LINE
  5
1750A
330
16D89
100
AcDbEntity
  8
SUNPOU
 62
     1
100
AcDbLine
 10
-1401.040031864022
 20
1922.254675952451
 30
0.0
 11
-1401.040031864022
 21
1929.754675952451
 31
0.0
  0
SOLID
  5
1750B
330
16D89
100
AcDbEntity
  8
SUNPOU
 62
     1
100
AcDbTrace
 10
-1401.540031864022
 20
1922.254675952451
 30
0.0
 11
-1400.540031864022
 21
1922.254675952451
 31
0.0
 12
-1401.040031864022
 22
1919.254675952451
 32
0.0
 13
-1401.040031864022
 23
1919.254675952451
 33
0.0
  0
SOLID
  5
1750C
330
16D89
100
AcDbEntity
  8
SUNPOU
 62
     1
100
AcDbTrace
 10
-1401.540031864022
 20
1929.754675952451
 30
0.0
 11
-1400.540031864022
 21
1929.754675952451
 31
0.0
 12
-1401.040031864022
 22
1932.754675952451
 32
0.0
 13
-1401.040031864022
 23
1932.754675952451
 33
0.0
  0
MTEXT
  5
1750D
330
16D89
100
AcDbEntity
  8
SUNPOU
 62
     1
100
AcDbMText
 10
-1403.790031864023
 20
1926.004675952451
 30
0.0
 40
3.5
 41
0.0
 71
     5
 72
     1
  1
\A1;13.5
 11
0.0000000000000001
 21
1.0
 31
0.0
1001
ACAD
1000
MTEXTBEGIN
1070
    73
1070
     1
1070
    44
1040
1.0
1070
    74
1070
     0
1000
MTEXTEND
  0
POINT
  5
1750E
330
16D89
100
AcDbEntity
  8
DEFPOINTS
 62
     0
100
AcDbPoint
 10
-1386.040031864022
 20
1919.254675952451
 30
0.0
  0
POINT
  5
1750F
330
16D89
100
AcDbEntity
  8
DEFPOINTS
 62
     0
100
AcDbPoint
 10
-1373.540031864022
 20
1932.754675952451
 30
0.0
  0
POINT
  5
17510
330
16D89
100
AcDbEntity
  8
DEFPOINTS
 62
     0
100
AcDbPoint
 10
-1401.040031864022
 20
1932.754675952451
 30
0.0
  0
ENDBLK
  5
16D94
330
16D89
100
AcDbEntity
  8
0
100
AcDbBlockEnd
  0
BLOCK
  5
16D9F
330
16D95
100
AcDbEntity
  8
0
100
AcDbBlockBegin
  2
*D78
 70
     1
 10
0.0
 20
0.0
 30
0.0
  3
*D78
  1

  0
LINE
  5
17523
330
16D95
100
AcDbEntity
  8
SUNPOU
 62
     1
100
AcDbLine
 10
-1386.540031864022
 20
1919.254675952451
 30
0.0
 11
-1401.540031864022
 21
1919.254675952451
 31
0.0
  0
LINE
  5
17524
330
16D95
100
AcDbEntity
  8
SUNPOU
 62
     1
100
AcDbLine
 10
-1386.540031864022
 20
1899.254675952451
 30
0.0
 11
-1401.540031864022
 21
1899.254675952451
 31
0.0
  0
LINE
  5
17525
330
16D95
100
AcDbEntity
  8
SUNPOU
 62
     1
100
AcDbLine
 10
-1401.040031864022
 20
1916.254675952451
 30
0.0
 11
-1401.040031864022
 21
1902.254675952451
 31
0.0
  0
SOLID
  5
17526
330
16D95
100
AcDbEntity
  8
SUNPOU
 62
     1
100
AcDbTrace
 10
-1401.540031864022
 20
1916.254675952451
 30
0.0
 11
-1400.540031864022
 21
1916.254675952451
 31
0.0
 12
-1401.040031864022
 22
1919.254675952451
 32
0.0
 13
-1401.040031864022
 23
1919.254675952451
 33
0.0
  0
SOLID
  5
17527
330
16D95
100
AcDbEntity
  8
SUNPOU
 62
     1
100
AcDbTrace
 10
-1401.540031864022
 20
1902.254675952451
 30
0.0
 11
-1400.540031864022
 21
1902.254675952451
 31
0.0
 12
-1401.040031864022
 22
1899.254675952451
 32
0.0
 13
-1401.040031864022
 23
1899.254675952451
 33
0.0
  0
MTEXT
  5
17528
330
16D95
100
AcDbEntity
  8
SUNPOU
 62
     1
100
AcDbMText
 10
-1403.790031864023
 20
1909.254675952451
 30
0.0
 40
3.5
 41
0.0
 71
     5
 72
     1
  1
\A1;20
 11
0.0000000000000001
 21
1.0
 31
0.0
1001
ACAD
1000
MTEXTBEGIN
1070
    73
1070
     1
1070
    44
1040
1.0
1070
    74
1070
     0
1000
MTEXTEND
  0
POINT
  5
17529
330
16D95
100
AcDbEntity
  8
DEFPOINTS
 62
     0
100
AcDbPoint
 10
-1386.040031864022
 20
1919.254675952451
 30
0.0
  0
POINT
  5
1752A
330
16D95
100
AcDbEntity
  8
DEFPOINTS
 62
     0
100
AcDbPoint
 10
-1386.040031864022
 20
1899.254675952451
 30
0.0
  0
POINT
  5
1752B
330
16D95
100
AcDbEntity
  8
DEFPOINTS
 62
     0
100
AcDbPoint
 10
-1401.040031864022
 20
1899.254675952451
 30
0.0
  0
ENDBLK
  5
16DA0
330
16D95
100
AcDbEntity
  8
0
100
AcDbBlockEnd
  0
BLOCK
  5
16DAB
330
16DA1
100
AcDbEntity
  8
0
100
AcDbBlockBegin
  2
*D79
 70
     1
 10
0.0
 20
0.0
 30
0.0
  3
*D79
  1

  0
LINE
  5
1752C
330
16DA1
100
AcDbEntity
  8
SUNPOU
 62
     1
100
AcDbLine
 10
-1374.040031864022
 20
1932.754675952451
 30
0.0
 11
-1408.540031864022
 21
1932.754675952451
 31
0.0
  0
LINE
  5
1752D
330
16DA1
100
AcDbEntity
  8
SUNPOU
 62
     1
100
AcDbLine
 10
-1373.540031864022
 20
1884.254675952451
 30
0.0
 11
-1408.540031864022
 21
1884.254675952451
 31
0.0
  0
LINE
  5
1752E
330
16DA1
100
AcDbEntity
  8
SUNPOU
 62
     1
100
AcDbLine
 10
-1408.040031864022
 20
1929.754675952451
 30
0.0
 11
-1408.040031864022
 21
1887.254675952451
 31
0.0
  0
SOLID
  5
1752F
330
16DA1
100
AcDbEntity
  8
SUNPOU
 62
     1
100
AcDbTrace
 10
-1408.540031864022
 20
1929.754675952451
 30
0.0
 11
-1407.540031864022
 21
1929.754675952451
 31
0.0
 12
-1408.040031864022
 22
1932.754675952451
 32
0.0
 13
-1408.040031864022
 23
1932.754675952451
 33
0.0
  0
SOLID
  5
17530
330
16DA1
100
AcDbEntity
  8
SUNPOU
 62
     1
100
AcDbTrace
 10
-1408.540031864022
 20
1887.254675952451
 30
0.0
 11
-1407.540031864022
 21
1887.254675952451
 31
0.0
 12
-1408.040031864022
 22
1884.254675952451
 32
0.0
 13
-1408.040031864022
 23
1884.254675952451
 33
0.0
  0
MTEXT
  5
17531
330
16DA1
100
AcDbEntity
  8
SUNPOU
 62
     1
100
AcDbMText
 10
-1410.790031864022
 20
1908.504675952451
 30
0.0
 40
3.5
 41
0.0
 71
     5
 72
     1
  1
\A1;48.5
 11
0.0000000000000001
 21
1.0
 31
0.0
1001
ACAD
1000
MTEXTBEGIN
1070
    73
1070
     1
1070
    44
1040
1.0
1070
    74
1070
     0
1000
MTEXTEND
  0
POINT
  5
17532
330
16DA1
100
AcDbEntity
  8
DEFPOINTS
 62
     0
100
AcDbPoint
 10
-1373.540031864022
 20
1932.754675952451
 30
0.0
  0
POINT
  5
17533
330
16DA1
100
AcDbEntity
  8
DEFPOINTS
 62
     0
100
AcDbPoint
 10
-1373.040031864022
 20
1884.254675952451
 30
0.0
  0
POINT
  5
17534
330
16DA1
100
AcDbEntity
  8
DEFPOINTS
 62
     0
100
AcDbPoint
 10
-1408.040031864022
 20
1884.254675952451
 30
0.0
  0
ENDBLK
  5
16DAC
330
16DA1
100
AcDbEntity
  8
0
100
AcDbBlockEnd
  0
BLOCK
  5
16DB7
330
16DAD
100
AcDbEntity
  8
0
100
AcDbBlockBegin
  2
*D80
 70
     1
 10
0.0
 20
0.0
 30
0.0
  3
*D80
  1

  0
LINE
  5
1751A
330
16DAD
100
AcDbEntity
  8
SUNPOU
 62
     1
100
AcDbLine
 10
-1387.040031864022
 20
1928.754675952451
 30
0.0
 11
-1394.526518350509
 21
1928.754675952451
 31
0.0
  0
LINE
  5
1751B
330
16DAD
100
AcDbEntity
  8
SUNPOU
 62
     1
100
AcDbLine
 10
-1387.040031864022
 20
1889.754675952451
 30
0.0
 11
-1394.526518350509
 21
1889.754675952451
 31
0.0
  0
LINE
  5
1751C
330
16DAD
100
AcDbEntity
  8
SUNPOU
 62
     1
100
AcDbLine
 10
-1394.026518350509
 20
1925.754675952451
 30
0.0
 11
-1394.026518350509
 21
1892.754675952451
 31
0.0
  0
SOLID
  5
1751D
330
16DAD
100
AcDbEntity
  8
SUNPOU
 62
     1
100
AcDbTrace
 10
-1394.526518350509
 20
1925.754675952451
 30
0.0
 11
-1393.526518350509
 21
1925.754675952451
 31
0.0
 12
-1394.026518350509
 22
1928.754675952451
 32
0.0
 13
-1394.026518350509
 23
1928.754675952451
 33
0.0
  0
SOLID
  5
1751E
330
16DAD
100
AcDbEntity
  8
SUNPOU
 62
     1
100
AcDbTrace
 10
-1394.526518350509
 20
1892.754675952451
 30
0.0
 11
-1393.526518350509
 21
1892.754675952451
 31
0.0
 12
-1394.026518350509
 22
1889.754675952451
 32
0.0
 13
-1394.026518350509
 23
1889.754675952451
 33
0.0
  0
MTEXT
  5
1751F
330
16DAD
100
AcDbEntity
  8
SUNPOU
 62
     1
100
AcDbMText
 10
-1396.776518350509
 20
1909.254675952451
 30
0.0
 40
3.5
 41
0.0
 71
     5
 72
     1
  1
\A1;39
 11
0.0000000000000001
 21
1.0
 31
0.0
1001
ACAD
1000
MTEXTBEGIN
1070
    73
1070
     1
1070
    44
1040
1.0
1070
    74
1070
     0
1000
MTEXTEND
  0
POINT
  5
17520
330
16DAD
100
AcDbEntity
  8
DEFPOINTS
 62
     0
100
AcDbPoint
 10
-1386.540031864022
 20
1928.754675952451
 30
0.0
  0
POINT
  5
17521
330
16DAD
100
AcDbEntity
  8
DEFPOINTS
 62
     0
100
AcDbPoint
 10
-1386.540031864022
 20
1889.754675952451
 30
0.0
  0
POINT
  5
17522
330
16DAD
100
AcDbEntity
  8
DEFPOINTS
 62
     0
100
AcDbPoint
 10
-1394.026518350509
 20
1889.754675952451
 30
0.0
  0
ENDBLK
  5
16DB8
330
16DAD
100
AcDbEntity
  8
0
100
AcDbBlockEnd
  0
BLOCK
  5
16DC5
330
16DB9
100
AcDbEntity
  8
0
100
AcDbBlockBegin
  2
*D81
 70
     1
 10
0.0
 20
0.0
 30
0.0
  3
*D81
  1

  0
LINE
  5
174F2
330
16DB9
100
AcDbEntity
  8
SUNPOU
 62
     1
100
AcDbLine
 10
-1382.540031864022
 20
1895.254675952451
 30
0.0
 11
-1382.540031864022
 21
1869.754675952451
 31
0.0
  0
LINE
  5
174F3
330
16DB9
100
AcDbEntity
  8
SUNPOU
 62
     1
100
AcDbLine
 10
-1388.540031864022
 20
1891.254675952451
 30
0.0
 11
-1388.540031864022
 21
1869.754675952451
 31
0.0
  0
LINE
  5
174F4
330
16DB9
100
AcDbEntity
  8
SUNPOU
 62
     1
100
AcDbLine
 10
-1379.540031864022
 20
1870.254675952451
 30
0.0
 11
-1376.540031864022
 21
1870.254675952451
 31
0.0
  0
LINE
  5
174F5
330
16DB9
100
AcDbEntity
  8
SUNPOU
 62
     1
100
AcDbLine
 10
-1391.540031864022
 20
1870.254675952451
 30
0.0
 11
-1394.540031864022
 21
1870.254675952451
 31
0.0
  0
LINE
  5
174F6
330
16DB9
100
AcDbEntity
  8
SUNPOU
 62
     1
100
AcDbLine
 10
-1382.540031864022
 20
1870.254675952451
 30
0.0
 11
-1388.540031864022
 21
1870.254675952451
 31
0.0
  0
SOLID
  5
174F7
330
16DB9
100
AcDbEntity
  8
SUNPOU
 62
     1
100
AcDbTrace
 10
-1379.540031864022
 20
1870.754675952451
 30
0.0
 11
-1379.540031864022
 21
1869.754675952451
 31
0.0
 12
-1382.540031864022
 22
1870.254675952451
 32
0.0
 13
-1382.540031864022
 23
1870.254675952451
 33
0.0
  0
SOLID
  5
174F8
330
16DB9
100
AcDbEntity
  8
SUNPOU
 62
     1
100
AcDbTrace
 10
-1391.540031864022
 20
1870.754675952451
 30
0.0
 11
-1391.540031864022
 21
1869.754675952451
 31
0.0
 12
-1388.540031864022
 22
1870.254675952451
 32
0.0
 13
-1388.540031864022
 23
1870.254675952451
 33
0.0
  0
MTEXT
  5
174F9
330
16DB9
100
AcDbEntity
  8
SUNPOU
 62
     1
100
AcDbMText
 10
-1385.540031864022
 20
1873.004675952451
 30
0.0
 40
3.5
 41
0.0
 71
     5
 72
     1
  1
\A1;6
1001
ACAD
1000
MTEXTBEGIN
1070
    73
1070
     1
1070
    44
1040
1.0
1070
    74
1070
     0
1000
MTEXTEND
  0
POINT
  5
174FA
330
16DB9
100
AcDbEntity
  8
DEFPOINTS
 62
     0
100
AcDbPoint
 10
-1382.540031864022
 20
1895.754675952451
 30
0.0
  0
POINT
  5
174FB
330
16DB9
100
AcDbEntity
  8
DEFPOINTS
 62
     0
100
AcDbPoint
 10
-1388.540031864022
 20
1891.754675952451
 30
0.0
  0
POINT
  5
174FC
330
16DB9
100
AcDbEntity
  8
DEFPOINTS
 62
     0
100
AcDbPoint
 10
-1388.540031864022
 20
1870.254675952451
 30
0.0
  0
ENDBLK
  5
16DC6
330
16DB9
100
AcDbEntity
  8
0
100
AcDbBlockEnd
  0
BLOCK
  5
16DD3
330
16DC7
100
AcDbEntity
  8
0
100
AcDbBlockBegin
  2
*D82
 70
     1
 10
0.0
 20
0.0
 30
0.0
  3
*D82
  1

  0
LINE
  5
1757D
330
16DC7
100
AcDbEntity
  8
SUNPOU
 62
     1
100
AcDbLine
 10
-1374.040031864022
 20
1932.754675952451
 30
0.0
 11
-1394.526518350509
 21
1932.754675952451
 31
0.0
  0
LINE
  5
1757E
330
16DC7
100
AcDbEntity
  8
SUNPOU
 62
     1
100
AcDbLine
 10
-1389.540031864022
 20
1928.754675952451
 30
0.0
 11
-1394.526518350509
 21
1928.754675952451
 31
0.0
  0
LINE
  5
1757F
330
16DC7
100
AcDbEntity
  8
SUNPOU
 62
     1
100
AcDbLine
 10
-1394.026518350509
 20
1935.754675952451
 30
0.0
 11
-1394.026518350509
 21
1938.754675952451
 31
0.0
  0
LINE
  5
17580
330
16DC7
100
AcDbEntity
  8
SUNPOU
 62
     1
100
AcDbLine
 10
-1394.026518350509
 20
1925.754675952451
 30
0.0
 11
-1394.026518350509
 21
1922.754675952451
 31
0.0
  0
MTEXT
  5
17581
330
16DC7
100
AcDbEntity
  8
SUNPOU
 62
     1
100
AcDbMText
 10
-1396.951991934325
 20
1930.271708945076
 30
0.0
 40
3.5
 41
0.0
 71
     5
 72
     1
  1
\A1;4
 11
0.0000000000000001
 21
1.0
 31
0.0
  0
LINE
  5
17582
330
16DC7
100
AcDbEntity
  8
SUNPOU
 62
     1
100
AcDbLine
 10
-1394.026518350509
 20
1932.754675952451
 30
0.0
 11
-1394.026518350509
 21
1928.754675952451
 31
0.0
  0
SOLID
  5
17583
330
16DC7
100
AcDbEntity
  8
SUNPOU
 62
     1
100
AcDbTrace
 10
-1394.526518350509
 20
1935.754675952451
 30
0.0
 11
-1393.526518350509
 21
1935.754675952451
 31
0.0
 12
-1394.026518350509
 22
1932.754675952451
 32
0.0
 13
-1394.026518350509
 23
1932.754675952451
 33
0.0
  0
SOLID
  5
17584
330
16DC7
100
AcDbEntity
  8
SUNPOU
 62
     1
100
AcDbTrace
 10
-1394.526518350509
 20
1925.754675952451
 30
0.0
 11
-1393.526518350509
 21
1925.754675952451
 31
0.0
 12
-1394.026518350509
 22
1928.754675952451
 32
0.0
 13
-1394.026518350509
 23
1928.754675952451
 33
0.0
  0
POINT
  5
17585
330
16DC7
100
AcDbEntity
  8
DEFPOINTS
 62
     0
100
AcDbPoint
 10
-1373.540031864022
 20
1932.754675952451
 30
0.0
  0
POINT
  5
17586
330
16DC7
100
AcDbEntity
  8
DEFPOINTS
 62
     0
100
AcDbPoint
 10
-1389.040031864022
 20
1928.754675952451
 30
0.0
  0
POINT
  5
17587
330
16DC7
100
AcDbEntity
  8
DEFPOINTS
 62
     0
100
AcDbPoint
 10
-1394.026518350509
 20
1928.754675952451
 30
0.0
  0
ENDBLK
  5
16DD4
330
16DC7
100
AcDbEntity
  8
0
100
AcDbBlockEnd
  0
BLOCK
  5
16DDF
330
16DD5
100
AcDbEntity
  8
0
100
AcDbBlockBegin
  2
*D83
 70
     1
 10
0.0
 20
0.0
 30
0.0
  3
*D83
  1

  0
LINE
  5
17493
330
16DD5
100
AcDbEntity
  8
ZISSEN1
 62
     1
100
AcDbLine
 10
-1156.040031864019
 20
1739.901627197805
 30
0.0
 11
-1156.040031864019
 21
1699.401627197755
 31
0.0
  0
LINE
  5
17494
330
16DD5
100
AcDbEntity
  8
ZISSEN1
 62
     1
100
AcDbLine
 10
-1104.540031864022
 20
1718.901627197785
 30
0.0
 11
-1104.540031864022
 21
1699.401627197755
 31
0.0
  0
LINE
  5
17495
330
16DD5
100
AcDbEntity
  8
ZISSEN1
 62
     1
100
AcDbLine
 10
-1153.040031864019
 20
1699.901627197754
 30
0.0
 11
-1107.540031864022
 21
1699.901627197754
 31
0.0
  0
SOLID
  5
17496
330
16DD5
100
AcDbEntity
  8
ZISSEN1
 62
     1
100
AcDbTrace
 10
-1153.040031864019
 20
1700.401627197755
 30
0.0
 11
-1153.040031864019
 21
1699.401627197755
 31
0.0
 12
-1156.040031864019
 22
1699.901627197754
 32
0.0
 13
-1156.040031864019
 23
1699.901627197754
 33
0.0
  0
SOLID
  5
17497
330
16DD5
100
AcDbEntity
  8
ZISSEN1
 62
     1
100
AcDbTrace
 10
-1107.540031864022
 20
1700.401627197755
 30
0.0
 11
-1107.540031864022
 21
1699.401627197755
 31
0.0
 12
-1104.540031864022
 22
1699.901627197754
 32
0.0
 13
-1104.540031864022
 23
1699.901627197754
 33
0.0
  0
MTEXT
  5
17498
330
16DD5
100
AcDbEntity
  8
ZISSEN1
 62
     1
100
AcDbMText
 10
-1130.29003186402
 20
1702.651627197754
 30
0.0
 40
3.5
 41
0.0
 71
     5
 72
     1
  1
\A1;(51.5)
1001
ACAD
1000
MTEXTBEGIN
1070
    73
1070
     1
1070
    44
1040
1.0
1070
    74
1070
     0
1000
MTEXTEND
  0
POINT
  5
17499
330
16DD5
100
AcDbEntity
  8
DEFPOINTS
 62
     0
100
AcDbPoint
 10
-1156.040031864019
 20
1740.401627197805
 30
0.0
  0
POINT
  5
1749A
330
16DD5
100
AcDbEntity
  8
DEFPOINTS
 62
     0
100
AcDbPoint
 10
-1104.540031864022
 20
1719.401627197785
 30
0.0
  0
POINT
  5
1749B
330
16DD5
100
AcDbEntity
  8
DEFPOINTS
 62
     0
100
AcDbPoint
 10
-1104.540031864022
 20
1699.901627197754
 30
0.0
  0
ENDBLK
  5
16DE0
330
16DD5
100
AcDbEntity
  8
0
100
AcDbBlockEnd
  0
BLOCK
  5
16DEB
330
16DE1
100
AcDbEntity
  8
0
100
AcDbBlockBegin
  2
*D84
 70
     1
 10
0.0
 20
0.0
 30
0.0
  3
*D84
  1

  0
LINE
  5
1748A
330
16DE1
100
AcDbEntity
  8
ZISSEN1
 62
     1
100
AcDbLine
 10
-1153.040031864022
 20
1720.401627197785
 30
0.0
 11
-1153.040031864022
 21
1706.401627197785
 31
0.0
  0
LINE
  5
1748B
330
16DE1
100
AcDbEntity
  8
ZISSEN1
 62
     1
100
AcDbLine
 10
-1104.540031864022
 20
1719.401627197785
 30
0.0
 11
-1104.540031864022
 21
1706.401627197785
 31
0.0
  0
LINE
  5
1748C
330
16DE1
100
AcDbEntity
  8
ZISSEN1
 62
     1
100
AcDbLine
 10
-1150.040031864022
 20
1706.901627197785
 30
0.0
 11
-1107.540031864022
 21
1706.901627197785
 31
0.0
  0
SOLID
  5
1748D
330
16DE1
100
AcDbEntity
  8
ZISSEN1
 62
     1
100
AcDbTrace
 10
-1150.040031864022
 20
1707.401627197785
 30
0.0
 11
-1150.040031864022
 21
1706.401627197785
 31
0.0
 12
-1153.040031864022
 22
1706.901627197785
 32
0.0
 13
-1153.040031864022
 23
1706.901627197785
 33
0.0
  0
SOLID
  5
1748E
330
16DE1
100
AcDbEntity
  8
ZISSEN1
 62
     1
100
AcDbTrace
 10
-1107.540031864022
 20
1707.401627197785
 30
0.0
 11
-1107.540031864022
 21
1706.401627197785
 31
0.0
 12
-1104.540031864022
 22
1706.901627197785
 32
0.0
 13
-1104.540031864022
 23
1706.901627197785
 33
0.0
  0
MTEXT
  5
1748F
330
16DE1
100
AcDbEntity
  8
ZISSEN1
 62
     1
100
AcDbMText
 10
-1128.790031864022
 20
1709.651627197786
 30
0.0
 40
3.5
 41
0.0
 71
     5
 72
     1
  1
\A1;48.5
1001
ACAD
1000
MTEXTBEGIN
1070
    73
1070
     1
1070
    44
1040
1.0
1070
    74
1070
     0
1000
MTEXTEND
  0
POINT
  5
17490
330
16DE1
100
AcDbEntity
  8
DEFPOINTS
 62
     0
100
AcDbPoint
 10
-1153.040031864022
 20
1720.901627197785
 30
0.0
  0
POINT
  5
17491
330
16DE1
100
AcDbEntity
  8
DEFPOINTS
 62
     0
100
AcDbPoint
 10
-1104.540031864022
 20
1719.901627197785
 30
0.0
  0
POINT
  5
17492
330
16DE1
100
AcDbEntity
  8
DEFPOINTS
 62
     0
100
AcDbPoint
 10
-1104.540031864022
 20
1706.901627197785
 30
0.0
  0
ENDBLK
  5
16DEC
330
16DE1
100
AcDbEntity
  8
0
100
AcDbBlockEnd
  0
BLOCK
  5
16DF7
330
16DED
100
AcDbEntity
  8
0
100
AcDbBlockBegin
  2
*D85
 70
     1
 10
0.0
 20
0.0
 30
0.0
  3
*D85
  1

  0
LINE
  5
1746F
330
16DED
100
AcDbEntity
  8
ZISSEN1
 62
     1
100
AcDbLine
 10
-1216.540031864022
 20
1719.901627197785
 30
0.0
 11
-1216.540031864022
 21
1706.401627197785
 31
0.0
  0
LINE
  5
17470
330
16DED
100
AcDbEntity
  8
ZISSEN1
 62
     1
100
AcDbLine
 10
-1202.540031864022
 20
1716.901627197785
 30
0.0
 11
-1202.540031864022
 21
1706.401627197785
 31
0.0
  0
LINE
  5
17471
330
16DED
100
AcDbEntity
  8
ZISSEN1
 62
     1
100
AcDbLine
 10
-1213.540031864022
 20
1706.901627197785
 30
0.0
 11
-1205.540031864022
 21
1706.901627197785
 31
0.0
  0
SOLID
  5
17472
330
16DED
100
AcDbEntity
  8
ZISSEN1
 62
     1
100
AcDbTrace
 10
-1213.540031864022
 20
1707.401627197785
 30
0.0
 11
-1213.540031864022
 21
1706.401627197785
 31
0.0
 12
-1216.540031864022
 22
1706.901627197785
 32
0.0
 13
-1216.540031864022
 23
1706.901627197785
 33
0.0
  0
SOLID
  5
17473
330
16DED
100
AcDbEntity
  8
ZISSEN1
 62
     1
100
AcDbTrace
 10
-1205.540031864022
 20
1707.401627197785
 30
0.0
 11
-1205.540031864022
 21
1706.401627197785
 31
0.0
 12
-1202.540031864022
 22
1706.901627197785
 32
0.0
 13
-1202.540031864022
 23
1706.901627197785
 33
0.0
  0
MTEXT
  5
17474
330
16DED
100
AcDbEntity
  8
ZISSEN1
 62
     1
100
AcDbMText
 10
-1209.540031864022
 20
1709.651627197786
 30
0.0
 40
3.5
 41
0.0
 71
     5
 72
     1
  1
\A1;14
1001
ACAD
1000
MTEXTBEGIN
1070
    73
1070
     1
1070
    44
1040
1.0
1070
    74
1070
     0
1000
MTEXTEND
  0
POINT
  5
17475
330
16DED
100
AcDbEntity
  8
DEFPOINTS
 62
     0
100
AcDbPoint
 10
-1216.540031864022
 20
1720.401627197785
 30
0.0
  0
POINT
  5
17476
330
16DED
100
AcDbEntity
  8
DEFPOINTS
 62
     0
100
AcDbPoint
 10
-1202.540031864022
 20
1717.401627197785
 30
0.0
  0
POINT
  5
17477
330
16DED
100
AcDbEntity
  8
DEFPOINTS
 62
     0
100
AcDbPoint
 10
-1202.540031864022
 20
1706.901627197785
 30
0.0
  0
ENDBLK
  5
16DF8
330
16DED
100
AcDbEntity
  8
0
100
AcDbBlockEnd
  0
BLOCK
  5
16E11
330
16E07
100
AcDbEntity
  8
0
100
AcDbBlockBegin
  2
*D87
 70
     1
 10
0.0
 20
0.0
 30
0.0
  3
*D87
  1

  0
LINE
  5
17540
330
16E07
100
AcDbEntity
  8
SUNPOU
 62
     1
100
AcDbLine
 10
-1216.040031864022
 20
1932.754675952451
 30
0.0
 11
-1187.040031864022
 21
1932.754675952451
 31
0.0
  0
LINE
  5
17541
330
16E07
100
AcDbEntity
  8
SUNPOU
 62
     1
100
AcDbLine
 10
-1206.540031864022
 20
1899.254675952451
 30
0.0
 11
-1187.040031864022
 21
1899.254675952451
 31
0.0
  0
LINE
  5
17542
330
16E07
100
AcDbEntity
  8
SUNPOU
 62
     1
100
AcDbLine
 10
-1187.540031864022
 20
1929.754675952451
 30
0.0
 11
-1187.540031864022
 21
1902.254675952451
 31
0.0
  0
SOLID
  5
17543
330
16E07
100
AcDbEntity
  8
SUNPOU
 62
     1
100
AcDbTrace
 10
-1188.040031864022
 20
1929.754675952451
 30
0.0
 11
-1187.040031864022
 21
1929.754675952451
 31
0.0
 12
-1187.540031864022
 22
1932.754675952451
 32
0.0
 13
-1187.540031864022
 23
1932.754675952451
 33
0.0
  0
SOLID
  5
17544
330
16E07
100
AcDbEntity
  8
SUNPOU
 62
     1
100
AcDbTrace
 10
-1188.040031864022
 20
1902.254675952451
 30
0.0
 11
-1187.040031864022
 21
1902.254675952451
 31
0.0
 12
-1187.540031864022
 22
1899.254675952451
 32
0.0
 13
-1187.540031864022
 23
1899.254675952451
 33
0.0
  0
MTEXT
  5
17545
330
16E07
100
AcDbEntity
  8
SUNPOU
 62
     1
100
AcDbMText
 10
-1190.290031864023
 20
1916.004675952451
 30
0.0
 40
3.5
 41
0.0
 71
     5
 72
     1
  1
\A1;33.5
 11
0.0000000000000001
 21
1.0
 31
0.0
1001
ACAD
1000
MTEXTBEGIN
1070
    73
1070
     1
1070
    44
1040
1.0
1070
    74
1070
     0
1000
MTEXTEND
  0
POINT
  5
17546
330
16E07
100
AcDbEntity
  8
DEFPOINTS
 62
     0
100
AcDbPoint
 10
-1216.540031864022
 20
1932.754675952451
 30
0.0
  0
POINT
  5
17547
330
16E07
100
AcDbEntity
  8
DEFPOINTS
 62
     0
100
AcDbPoint
 10
-1207.040031864023
 20
1899.254675952451
 30
0.0
  0
POINT
  5
17548
330
16E07
100
AcDbEntity
  8
DEFPOINTS
 62
     0
100
AcDbPoint
 10
-1187.540031864022
 20
1899.254675952451
 30
0.0
  0
ENDBLK
  5
16E12
330
16E07
100
AcDbEntity
  8
0
100
AcDbBlockEnd
  0
BLOCK
  5
16E1F
330
16E13
100
AcDbEntity
  8
0
100
AcDbBlockBegin
  2
*D88
 70
     1
 10
0.0
 20
0.0
 30
0.0
  3
*D88
  1

  0
LINE
  5
17549
330
16E13
100
AcDbEntity
  8
SUNPOU
 62
     1
100
AcDbLine
 10
-1202.040031864022
 20
1901.504675952451
 30
0.0
 11
-1194.040031864022
 21
1901.504675952451
 31
0.0
  0
LINE
  5
1754A
330
16E13
100
AcDbEntity
  8
SUNPOU
 62
     1
100
AcDbLine
 10
-1202.040031864022
 20
1897.004675952451
 30
0.0
 11
-1194.040031864022
 21
1897.004675952451
 31
0.0
  0
LINE
  5
1754B
330
16E13
100
AcDbEntity
  8
SUNPOU
 62
     1
100
AcDbLine
 10
-1194.540031864023
 20
1904.504675952451
 30
0.0
 11
-1194.540031864023
 21
1907.504675952451
 31
0.0
  0
LINE
  5
1754C
330
16E13
100
AcDbEntity
  8
SUNPOU
 62
     1
100
AcDbLine
 10
-1194.540031864023
 20
1894.004675952451
 30
0.0
 11
-1194.540031864023
 21
1882.004675952451
 31
0.0
  0
LINE
  5
1754D
330
16E13
100
AcDbEntity
  8
SUNPOU
 62
     1
100
AcDbLine
 10
-1194.540031864023
 20
1901.504675952451
 30
0.0
 11
-1194.540031864023
 21
1897.004675952451
 31
0.0
  0
SOLID
  5
1754E
330
16E13
100
AcDbEntity
  8
SUNPOU
 62
     1
100
AcDbTrace
 10
-1195.040031864022
 20
1904.504675952451
 30
0.0
 11
-1194.040031864022
 21
1904.504675952451
 31
0.0
 12
-1194.540031864023
 22
1901.504675952451
 32
0.0
 13
-1194.540031864023
 23
1901.504675952451
 33
0.0
  0
SOLID
  5
1754F
330
16E13
100
AcDbEntity
  8
SUNPOU
 62
     1
100
AcDbTrace
 10
-1195.040031864022
 20
1894.004675952451
 30
0.0
 11
-1194.040031864022
 21
1894.004675952451
 31
0.0
 12
-1194.540031864023
 22
1897.004675952451
 32
0.0
 13
-1194.540031864023
 23
1897.004675952451
 33
0.0
  0
MTEXT
  5
17550
330
16E13
100
AcDbEntity
  8
SUNPOU
 62
     1
100
AcDbMText
 10
-1197.290031864023
 20
1886.504675952451
 30
0.0
 40
3.5
 41
0.0
 71
     5
 72
     1
  1
\A1;4.5
 11
0.0000000000000001
 21
1.0
 31
0.0
1001
ACAD
1000
MTEXTBEGIN
1070
    73
1070
     1
1070
    44
1040
1.0
1070
    74
1070
     0
1000
MTEXTEND
  0
POINT
  5
17551
330
16E13
100
AcDbEntity
  8
DEFPOINTS
 62
     0
100
AcDbPoint
 10
-1202.540031864022
 20
1901.504675952451
 30
0.0
  0
POINT
  5
17552
330
16E13
100
AcDbEntity
  8
DEFPOINTS
 62
     0
100
AcDbPoint
 10
-1202.540031864022
 20
1897.004675952451
 30
0.0
  0
POINT
  5
17553
330
16E13
100
AcDbEntity
  8
DEFPOINTS
 62
     0
100
AcDbPoint
 10
-1194.540031864023
 20
1897.004675952451
 30
0.0
  0
ENDBLK
  5
16E20
330
16E13
100
AcDbEntity
  8
0
100
AcDbBlockEnd
  0
BLOCK
  5
16E2D
330
16E21
100
AcDbEntity
  8
0
100
AcDbBlockBegin
  2
*D89
 70
     1
 10
0.0
 20
0.0
 30
0.0
  3
*D89
  1

  0
LINE
  5
17535
330
16E21
100
AcDbEntity
  8
SUNPOU
 62
     1
100
AcDbLine
 10
-1202.540031864022
 20
1891.254675952451
 30
0.0
 11
-1202.540031864022
 21
1869.754675952451
 31
0.0
  0
LINE
  5
17536
330
16E21
100
AcDbEntity
  8
SUNPOU
 62
     1
100
AcDbLine
 10
-1210.540031864023
 20
1895.254675952451
 30
0.0
 11
-1210.540031864023
 21
1869.754675952451
 31
0.0
  0
LINE
  5
17537
330
16E21
100
AcDbEntity
  8
SUNPOU
 62
     1
100
AcDbLine
 10
-1199.540031864022
 20
1870.254675952451
 30
0.0
 11
-1196.540031864022
 21
1870.254675952451
 31
0.0
  0
LINE
  5
17538
330
16E21
100
AcDbEntity
  8
SUNPOU
 62
     1
100
AcDbLine
 10
-1213.540031864023
 20
1870.254675952451
 30
0.0
 11
-1216.540031864022
 21
1870.254675952451
 31
0.0
  0
LINE
  5
17539
330
16E21
100
AcDbEntity
  8
SUNPOU
 62
     1
100
AcDbLine
 10
-1202.540031864022
 20
1870.254675952451
 30
0.0
 11
-1210.540031864023
 21
1870.254675952451
 31
0.0
  0
SOLID
  5
1753A
330
16E21
100
AcDbEntity
  8
SUNPOU
 62
     1
100
AcDbTrace
 10
-1199.540031864022
 20
1870.754675952451
 30
0.0
 11
-1199.540031864022
 21
1869.754675952451
 31
0.0
 12
-1202.540031864022
 22
1870.254675952451
 32
0.0
 13
-1202.540031864022
 23
1870.254675952451
 33
0.0
  0
SOLID
  5
1753B
330
16E21
100
AcDbEntity
  8
SUNPOU
 62
     1
100
AcDbTrace
 10
-1213.540031864023
 20
1870.754675952451
 30
0.0
 11
-1213.540031864023
 21
1869.754675952451
 31
0.0
 12
-1210.540031864023
 22
1870.254675952451
 32
0.0
 13
-1210.540031864023
 23
1870.254675952451
 33
0.0
  0
MTEXT
  5
1753C
330
16E21
100
AcDbEntity
  8
SUNPOU
 62
     1
100
AcDbMText
 10
-1206.540031864022
 20
1873.004675952451
 30
0.0
 40
3.5
 41
0.0
 71
     5
 72
     1
  1
\A1;8
1001
ACAD
1000
MTEXTBEGIN
1070
    73
1070
     1
1070
    44
1040
1.0
1070
    74
1070
     0
1000
MTEXTEND
  0
POINT
  5
1753D
330
16E21
100
AcDbEntity
  8
DEFPOINTS
 62
     0
100
AcDbPoint
 10
-1202.540031864022
 20
1891.754675952451
 30
0.0
  0
POINT
  5
1753E
330
16E21
100
AcDbEntity
  8
DEFPOINTS
 62
     0
100
AcDbPoint
 10
-1210.540031864023
 20
1895.754675952451
 30
0.0
  0
POINT
  5
1753F
330
16E21
100
AcDbEntity
  8
DEFPOINTS
 62
     0
100
AcDbPoint
 10
-1210.540031864023
 20
1870.254675952451
 30
0.0
  0
ENDBLK
  5
16E2E
330
16E21
100
AcDbEntity
  8
0
100
AcDbBlockEnd
  0
ENDSEC
  0
SECTION
  2
ENTITIES
  0
MTEXT
  5
5084
330
1A
100
AcDbEntity
  8
0
100
AcDbMText
 10
1985.239088685435
 20
-948.5420423450428
 30
0.0
 40
8.0
 41
0.0
 71
     7
 72
     5
  1

1001
ACAD
1000
MTEXTBEGIN
1070
    73
1070
     1
1070
    44
1040
1.0
1070
    74
1070
     0
1000
MTEXTEND
  0
MTEXT
  5
5085
330
1A
100
AcDbEntity
  8
0
100
AcDbMText
 10
4270.596778580329
 20
22.24825240601649
 30
0.0
 40
8.0
 41
0.0
 71
     7
 72
     5
  1

1001
ACAD
1000
MTEXTBEGIN
1070
    73
1070
     1
1070
    44
1040
1.0
1070
    74
1070
     0
1000
MTEXTEND
  0
MTEXT
  5
5343
330
1A
100
AcDbEntity
  8
SUNPOU
100
AcDbMText
 10
6936.493799262471
 20
9534.359644781135
 30
0.0
 40
10.5
 41
0.0
 71
     1
 72
     5
  1

1001
ACAD
1000
MTEXTBEGIN
1070
    73
1070
     1
1070
    44
1040
1.0
1070
    74
1070
     0
1000
MTEXTEND
  0
MTEXT
  5
544F
330
1A
100
AcDbEntity
  8
0
100
AcDbMText
 10
16317.2832773148
 20
12833.35428897674
 30
0.0
 40
8.0
 41
0.0
 71
     7
 72
     5
  1

1001
ACAD
1000
MTEXTBEGIN
1070
    73
1070
     1
1070
    44
1040
1.0
1070
    74
1070
     0
1000
MTEXTEND
  0
MTEXT
  5
5450
330
1A
100
AcDbEntity
  8
0
100
AcDbMText
 10
18602.64096720969
 20
13804.1445837278
 30
0.0
 40
8.0
 41
0.0
 71
     7
 72
     5
  1

1001
ACAD
1000
MTEXTBEGIN
1070
    73
1070
     1
1070
    44
1040
1.0
1070
    74
1070
     0
1000
MTEXTEND
  0
MTEXT
  5
5451
330
1A
100
AcDbEntity
  8
SUNPOU
100
AcDbMText
 10
21268.53798789184
 20
23316.25597610292
 30
0.0
 40
10.5
 41
0.0
 71
     1
 72
     5
  1

1001
ACAD
1000
MTEXTBEGIN
1070
    73
1070
     1
1070
    44
1040
1.0
1070
    74
1070
     0
1000
MTEXTEND
  0
MTEXT
  5
5452
330
1A
100
AcDbEntity
  8
SUNPOU
100
AcDbMText
 10
13337.6147919559
 20
22369.46284218996
 30
0.0
 40
10.5
 41
0.0
 71
     7
 72
     5
  1

1001
ACAD
1000
MTEXTBEGIN
1070
    73
1070
     1
1070
    44
1040
1.0
1070
    74
1070
     0
1000
MTEXTEND
  0
MTEXT
  5
5453
330
1A
100
AcDbEntity
  8
SUNPOU
100
AcDbMText
 10
16286.59845646867
 20
27270.13891403281
 30
0.0
 40
10.5
 41
0.0
 71
     7
 72
     5
  1

1001
ACAD
1000
MTEXTBEGIN
1070
    73
1070
     1
1070
    44
1040
1.0
1070
    74
1070
     0
1000
MTEXTEND
  0
MTEXT
  5
5454
330
1A
100
AcDbEntity
  8
SUNPOU
100
AcDbMText
 10
20795.67658441924
 20
29706.43966165288
 30
0.0
 40
10.5
 41
0.0
 71
     7
 72
     5
  1

1001
ACAD
1000
MTEXTBEGIN
1070
    73
1070
     1
1070
    44
1040
1.0
1070
    74
1070
     0
1000
MTEXTEND
  0
MTEXT
  5
5455
330
1A
100
AcDbEntity
  8
0
100
AcDbMText
 10
16611.93789220314
 20
14707.52144344448
 30
0.0
 40
8.0
 41
0.0
 71
     7
 72
     5
  1

1001
ACAD
1000
MTEXTBEGIN
1070
    73
1070
     1
1070
    44
1040
1.0
1070
    74
1070
     0
1000
MTEXTEND
  0
MTEXT
  5
5456
330
1A
100
AcDbEntity
  8
0
100
AcDbMText
 10
18897.29558209804
 20
15678.31173819554
 30
0.0
 40
8.0
 41
0.0
 71
     7
 72
     5
  1

1001
ACAD
1000
MTEXTBEGIN
1070
    73
1070
     1
1070
    44
1040
1.0
1070
    74
1070
     0
1000
MTEXTEND
  0
MTEXT
  5
5457
330
1A
100
AcDbEntity
  8
SUNPOU
100
AcDbMText
 10
21563.19260278019
 20
25190.42313057066
 30
0.0
 40
10.5
 41
0.0
 71
     1
 72
     5
  1

1001
ACAD
1000
MTEXTBEGIN
1070
    73
1070
     1
1070
    44
1040
1.0
1070
    74
1070
     0
1000
MTEXTEND
  0
MTEXT
  5
5458
330
1A
100
AcDbEntity
  8
SUNPOU
100
AcDbMText
 10
13632.26940684426
 20
24243.6299966577
 30
0.0
 40
10.5
 41
0.0
 71
     7
 72
     5
  1

1001
ACAD
1000
MTEXTBEGIN
1070
    73
1070
     1
1070
    44
1040
1.0
1070
    74
1070
     0
1000
MTEXTEND
  0
MTEXT
  5
5459
330
1A
100
AcDbEntity
  8
SUNPOU
100
AcDbMText
 10
16581.25307135702
 20
29144.30606850055
 30
0.0
 40
10.5
 41
0.0
 71
     7
 72
     5
  1

1001
ACAD
1000
MTEXTBEGIN
1070
    73
1070
     1
1070
    44
1040
1.0
1070
    74
1070
     0
1000
MTEXTEND
  0
MTEXT
  5
545A
330
1A
100
AcDbEntity
  8
SUNPOU
100
AcDbMText
 10
21090.33119930759
 20
31580.60681612062
 30
0.0
 40
10.5
 41
0.0
 71
     7
 72
     5
  1

1001
ACAD
1000
MTEXTBEGIN
1070
    73
1070
     1
1070
    44
1040
1.0
1070
    74
1070
     0
1000
MTEXTEND
  0
MTEXT
  5
545B
330
1A
100
AcDbEntity
  8
0
100
AcDbMText
 10
22871.60517627167
 20
23974.88367124799
 30
0.0
 40
8.0
 41
0.0
 71
     7
 72
     5
  1

1001
ACAD
1000
MTEXTBEGIN
1070
    73
1070
     1
1070
    44
1040
1.0
1070
    74
1070
     0
1000
MTEXTEND
  0
MTEXT
  5
545C
330
1A
100
AcDbEntity
  8
0
100
AcDbMText
 10
25156.96286616657
 20
24945.67396599906
 30
0.0
 40
8.0
 41
0.0
 71
     7
 72
     5
  1

1001
ACAD
1000
MTEXTBEGIN
1070
    73
1070
     1
1070
    44
1040
1.0
1070
    74
1070
     0
1000
MTEXTEND
  0
MTEXT
  5
545D
330
1A
100
AcDbEntity
  8
SUNPOU
100
AcDbMText
 10
27822.85988684871
 20
34457.78535837418
 30
0.0
 40
10.5
 41
0.0
 71
     1
 72
     5
  1

1001
ACAD
1000
MTEXTBEGIN
1070
    73
1070
     1
1070
    44
1040
1.0
1070
    74
1070
     0
1000
MTEXTEND
  0
MTEXT
  5
545E
330
1A
100
AcDbEntity
  8
SUNPOU
100
AcDbMText
 10
19891.93669091278
 20
33510.99222446122
 30
0.0
 40
10.5
 41
0.0
 71
     7
 72
     5
  1

1001
ACAD
1000
MTEXTBEGIN
1070
    73
1070
     1
1070
    44
1040
1.0
1070
    74
1070
     0
1000
MTEXTEND
  0
MTEXT
  5
545F
330
1A
100
AcDbEntity
  8
SUNPOU
100
AcDbMText
 10
22840.92035542555
 20
38411.66829630407
 30
0.0
 40
10.5
 41
0.0
 71
     7
 72
     5
  1

1001
ACAD
1000
MTEXTBEGIN
1070
    73
1070
     1
1070
    44
1040
1.0
1070
    74
1070
     0
1000
MTEXTEND
  0
MTEXT
  5
5460
330
1A
100
AcDbEntity
  8
SUNPOU
100
AcDbMText
 10
27349.99848337611
 20
40847.96904392415
 30
0.0
 40
10.5
 41
0.0
 71
     7
 72
     5
  1

1001
ACAD
1000
MTEXTBEGIN
1070
    73
1070
     1
1070
    44
1040
1.0
1070
    74
1070
     0
1000
MTEXTEND
  0
MTEXT
  5
55B7
330
1A
100
AcDbEntity
  8
SUNPOU
100
AcDbMText
 10
67424.23923338197
 20
64463.86602884816
 30
0.0
 40
10.5
 41
0.0
 71
     9
 72
     5
  1

1001
ACAD
1000
MTEXTBEGIN
1070
    73
1070
     1
1070
    44
1040
1.0
1070
    74
1070
     0
1000
MTEXTEND
  0
MTEXT
  5
55B8
330
1A
100
AcDbEntity
  8
SUNPOU
100
AcDbMText
 10
76146.40679929998
 20
71879.70056038563
 30
0.0
 40
10.5
 41
0.0
 71
     9
 72
     5
  1

1001
ACAD
1000
MTEXTBEGIN
1070
    73
1070
     1
1070
    44
1040
1.0
1070
    74
1070
     0
1000
MTEXTEND
  0
MTEXT
  5
55B9
330
1A
100
AcDbEntity
  8
SUNPOU
100
AcDbMText
 10
95100.16551662994
 20
89346.27661287766
 30
0.0
 40
10.5
 41
0.0
 71
     9
 72
     5
  1

1001
ACAD
1000
MTEXTBEGIN
1070
    73
1070
     1
1070
    44
1040
1.0
1070
    74
1070
     0
1000
MTEXTEND
  0
MTEXT
  5
55BA
330
1A
100
AcDbEntity
  8
SUNPOU
100
AcDbMText
 10
97043.57276333936
 20
87545.22753299966
 30
0.0
 40
3.5
 41
0.0
 71
     9
 72
     5
  1

1001
ACAD
1000
MTEXTBEGIN
1070
    73
1070
     1
1070
    44
1040
1.0
1070
    74
1070
     0
1000
MTEXTEND
  0
MTEXT
  5
55BB
330
1A
100
AcDbEntity
  8
SUNPOU
100
AcDbMText
 10
128169.752595959
 20
130040.1732006569
 30
0.0
 40
10.5
 41
0.0
 71
     9
 72
     5
  1

1001
ACAD
1000
MTEXTBEGIN
1070
    73
1070
     1
1070
    44
1040
1.0
1070
    74
1070
     0
1000
MTEXTEND
  0
MTEXT
  5
55BC
330
1A
100
AcDbEntity
  8
SUNPOU
100
AcDbMText
 10
130113.1598426684
 20
128239.1241207789
 30
0.0
 40
3.5
 41
0.0
 71
     9
 72
     5
  1

1001
ACAD
1000
MTEXTBEGIN
1070
    73
1070
     1
1070
    44
1040
1.0
1070
    74
1070
     0
1000
MTEXTEND
  0
MTEXT
  5
55BD
330
1A
100
AcDbEntity
  8
SUNPOU
100
AcDbMText
 10
78610.02030175463
 20
75873.33835563206
 30
0.0
 40
10.5
 41
0.0
 71
     9
 72
     5
  1

1001
ACAD
1000
MTEXTBEGIN
1070
    73
1070
     1
1070
    44
1040
1.0
1070
    74
1070
     0
1000
MTEXTEND
  0
MTEXT
  5
55BE
330
1A
100
AcDbEntity
  8
SUNPOU
100
AcDbMText
 10
64662.02020137863
 20
56700.93921651987
 30
0.0
 40
3.5
 41
0.0
 71
     7
 72
     5
  1

1001
ACAD
1000
MTEXTBEGIN
1070
    73
1070
     1
1070
    44
1040
1.0
1070
    74
1070
     0
1000
MTEXTEND
  0
MTEXT
  5
55BF
330
1A
100
AcDbEntity
  8
SUNPOU
100
AcDbMText
 10
45647.18959837178
 20
44463.08794733807
 30
0.0
 40
10.5
 41
0.0
 71
     7
 72
     5
  1

1001
ACAD
1000
MTEXTBEGIN
1070
    73
1070
     1
1070
    44
1040
1.0
1070
    74
1070
     0
1000
MTEXTEND
  0
MTEXT
  5
55C0
330
1A
100
AcDbEntity
  8
SUNPOU
100
AcDbMText
 10
33189.96133342368
 20
28618.15636923965
 30
0.0
 40
35.0
 41
0.0
 71
     9
 72
     5
  1

1001
ACAD
1000
MTEXTBEGIN
1070
    73
1070
     1
1070
    44
1040
1.0
1070
    74
1070
     0
1000
MTEXTEND
  0
MTEXT
  5
55C1
330
1A
100
AcDbEntity
  8
SUNPOU
100
AcDbMText
 10
32098.44639099864
 20
29226.93177928835
 30
0.0
 40
350.0000004171781
 41
0.0
 71
     7
 72
     5
  1

1001
ACAD
1000
MTEXTBEGIN
1070
    73
1070
     1
1070
    44
1040
1.0
1070
    74
1070
     0
1000
MTEXTEND
  0
MTEXT
  5
55C2
330
1A
100
AcDbEntity
  8
0
100
AcDbMText
 10
38142.39714894154
 20
27206.85414142458
 30
0.0
 40
8.0
 41
0.0
 71
     7
 72
     5
  1

1001
ACAD
1000
MTEXTBEGIN
1070
    73
1070
     1
1070
    44
1040
1.0
1070
    74
1070
     0
1000
MTEXTEND
  0
MTEXT
  5
55C3
330
1A
100
AcDbEntity
  8
0
100
AcDbMText
 10
40427.75483883644
 20
28177.64443617564
 30
0.0
 40
8.0
 41
0.0
 71
     7
 72
     5
  1

1001
ACAD
1000
MTEXTBEGIN
1070
    73
1070
     1
1070
    44
1040
1.0
1070
    74
1070
     0
1000
MTEXTEND
  0
MTEXT
  5
55C4
330
1A
100
AcDbEntity
  8
SUNPOU
100
AcDbMText
 10
43093.65185951858
 20
37689.75582855077
 30
0.0
 40
10.5
 41
0.0
 71
     1
 72
     5
  1

1001
ACAD
1000
MTEXTBEGIN
1070
    73
1070
     1
1070
    44
1040
1.0
1070
    74
1070
     0
1000
MTEXTEND
  0
MTEXT
  5
55C5
330
1A
100
AcDbEntity
  8
SUNPOU
100
AcDbMText
 10
35162.72866358265
 20
36742.96269463781
 30
0.0
 40
10.5
 41
0.0
 71
     7
 72
     5
  1

1001
ACAD
1000
MTEXTBEGIN
1070
    73
1070
     1
1070
    44
1040
1.0
1070
    74
1070
     0
1000
MTEXTEND
  0
MTEXT
  5
55C6
330
1A
100
AcDbEntity
  8
SUNPOU
100
AcDbMText
 10
38111.71232809542
 20
41643.63876648066
 30
0.0
 40
10.5
 41
0.0
 71
     7
 72
     5
  1

1001
ACAD
1000
MTEXTBEGIN
1070
    73
1070
     1
1070
    44
1040
1.0
1070
    74
1070
     0
1000
MTEXTEND
  0
MTEXT
  5
55C7
330
1A
100
AcDbEntity
  8
SUNPOU
100
AcDbMText
 10
42620.79045604597
 20
44079.93951410074
 30
0.0
 40
10.5
 41
0.0
 71
     7
 72
     5
  1

1001
ACAD
1000
MTEXTBEGIN
1070
    73
1070
     1
1070
    44
1040
1.0
1070
    74
1070
     0
1000
MTEXTEND
  0
MTEXT
  5
55C8
330
1A
100
AcDbEntity
  8
SUNPOU
100
AcDbMText
 10
26221.62834281429
 20
23077.53566448964
 30
0.0
 40
10.5
 41
0.0
 71
     7
 72
     5
  1

1001
ACAD
1000
MTEXTBEGIN
1070
    73
1070
     1
1070
    44
1040
1.0
1070
    74
1070
     0
1000
MTEXTEND
  0
MTEXT
  5
55C9
330
1A
100
AcDbEntity
  8
SUNPOU
100
AcDbMText
 10
77413.14677671455
 20
68750.51622813789
 30
0.0
 40
10.5
 41
0.0
 71
     9
 72
     5
  1

1001
ACAD
1000
MTEXTBEGIN
1070
    73
1070
     1
1070
    44
1040
1.0
1070
    74
1070
     0
1000
MTEXTEND
  0
MTEXT
  5
55CA
330
1A
100
AcDbEntity
  8
SUNPOU
100
AcDbMText
 10
86135.31434263256
 20
76166.35075967536
 30
0.0
 40
10.5
 41
0.0
 71
     9
 72
     5
  1

1001
ACAD
1000
MTEXTBEGIN
1070
    73
1070
     1
1070
    44
1040
1.0
1070
    74
1070
     0
1000
MTEXTEND
  0
MTEXT
  5
55CB
330
1A
100
AcDbEntity
  8
SUNPOU
100
AcDbMText
 10
105089.0730599625
 20
93632.92681216739
 30
0.0
 40
10.5
 41
0.0
 71
     9
 72
     5
  1

1001
ACAD
1000
MTEXTBEGIN
1070
    73
1070
     1
1070
    44
1040
1.0
1070
    74
1070
     0
1000
MTEXTEND
  0
MTEXT
  5
55CC
330
1A
100
AcDbEntity
  8
SUNPOU
100
AcDbMText
 10
107032.4803066719
 20
91831.8777322894
 30
0.0
 40
3.5
 41
0.0
 71
     9
 72
     5
  1

1001
ACAD
1000
MTEXTBEGIN
1070
    73
1070
     1
1070
    44
1040
1.0
1070
    74
1070
     0
1000
MTEXTEND
  0
MTEXT
  5
55CD
330
1A
100
AcDbEntity
  8
SUNPOU
100
AcDbMText
 10
138158.6601392916
 20
134326.8233999467
 30
0.0
 40
10.5
 41
0.0
 71
     9
 72
     5
  1

1001
ACAD
1000
MTEXTBEGIN
1070
    73
1070
     1
1070
    44
1040
1.0
1070
    74
1070
     0
1000
MTEXTEND
  0
MTEXT
  5
55CE
330
1A
100
AcDbEntity
  8
SUNPOU
100
AcDbMText
 10
140102.067386001
 20
132525.7743200686
 30
0.0
 40
3.5
 41
0.0
 71
     9
 72
     5
  1

1001
ACAD
1000
MTEXTBEGIN
1070
    73
1070
     1
1070
    44
1040
1.0
1070
    74
1070
     0
1000
MTEXTEND
  0
MTEXT
  5
55CF
330
1A
100
AcDbEntity
  8
SUNPOU
100
AcDbMText
 10
88598.92784508721
 20
80159.98855492179
 30
0.0
 40
10.5
 41
0.0
 71
     9
 72
     5
  1

1001
ACAD
1000
MTEXTBEGIN
1070
    73
1070
     1
1070
    44
1040
1.0
1070
    74
1070
     0
1000
MTEXTEND
  0
MTEXT
  5
55D0
330
1A
100
AcDbEntity
  8
SUNPOU
100
AcDbMText
 10
74650.92774471121
 20
60987.5894158096
 30
0.0
 40
3.5
 41
0.0
 71
     7
 72
     5
  1

1001
ACAD
1000
MTEXTBEGIN
1070
    73
1070
     1
1070
    44
1040
1.0
1070
    74
1070
     0
1000
MTEXTEND
  0
MTEXT
  5
55D1
330
1A
100
AcDbEntity
  8
SUNPOU
100
AcDbMText
 10
55636.09714170436
 20
48749.73814662781
 30
0.0
 40
10.5
 41
0.0
 71
     7
 72
     5
  1

1001
ACAD
1000
MTEXTBEGIN
1070
    73
1070
     1
1070
    44
1040
1.0
1070
    74
1070
     0
1000
MTEXTEND
  0
MTEXT
  5
55D2
330
1A
100
AcDbEntity
  8
SUNPOU
100
AcDbMText
 10
43178.86887675626
 20
32904.80656852938
 30
0.0
 40
35.0
 41
0.0
 71
     9
 72
     5
  1

1001
ACAD
1000
MTEXTBEGIN
1070
    73
1070
     1
1070
    44
1040
1.0
1070
    74
1070
     0
1000
MTEXTEND
  0
MTEXT
  5
55D3
330
1A
100
AcDbEntity
  8
SUNPOU
100
AcDbMText
 10
42087.35393433121
 20
33513.58197857809
 30
0.0
 40
350.0000004171781
 41
0.0
 71
     7
 72
     5
  1

1001
ACAD
1000
MTEXTBEGIN
1070
    73
1070
     1
1070
    44
1040
1.0
1070
    74
1070
     0
1000
MTEXTEND
  0
MTEXT
  5
55D4
330
1A
100
AcDbEntity
  8
0
100
AcDbMText
 10
48131.30469227412
 20
31493.50434071431
 30
0.0
 40
8.0
 41
0.0
 71
     7
 72
     5
  1

1001
ACAD
1000
MTEXTBEGIN
1070
    73
1070
     1
1070
    44
1040
1.0
1070
    74
1070
     0
1000
MTEXTEND
  0
MTEXT
  5
55D5
330
1A
100
AcDbEntity
  8
0
100
AcDbMText
 10
50416.66238216901
 20
32464.29463546537
 30
0.0
 40
8.0
 41
0.0
 71
     7
 72
     5
  1

1001
ACAD
1000
MTEXTBEGIN
1070
    73
1070
     1
1070
    44
1040
1.0
1070
    74
1070
     0
1000
MTEXTEND
  0
MTEXT
  5
55D6
330
1A
100
AcDbEntity
  8
SUNPOU
100
AcDbMText
 10
53082.55940285115
 20
41976.4060278405
 30
0.0
 40
10.5
 41
0.0
 71
     1
 72
     5
  1

1001
ACAD
1000
MTEXTBEGIN
1070
    73
1070
     1
1070
    44
1040
1.0
1070
    74
1070
     0
1000
MTEXTEND
  0
MTEXT
  5
55D7
330
1A
100
AcDbEntity
  8
SUNPOU
100
AcDbMText
 10
45151.63620691522
 20
41029.61289392755
 30
0.0
 40
10.5
 41
0.0
 71
     7
 72
     5
  1

1001
ACAD
1000
MTEXTBEGIN
1070
    73
1070
     1
1070
    44
1040
1.0
1070
    74
1070
     0
1000
MTEXTEND
  0
MTEXT
  5
55D8
330
1A
100
AcDbEntity
  8
SUNPOU
100
AcDbMText
 10
48100.61987142798
 20
45930.28896577039
 30
0.0
 40
10.5
 41
0.0
 71
     7
 72
     5
  1

1001
ACAD
1000
MTEXTBEGIN
1070
    73
1070
     1
1070
    44
1040
1.0
1070
    74
1070
     0
1000
MTEXTEND
  0
MTEXT
  5
55D9
330
1A
100
AcDbEntity
  8
SUNPOU
100
AcDbMText
 10
52609.69799937854
 20
48366.58971339046
 30
0.0
 40
10.5
 41
0.0
 71
     7
 72
     5
  1

1001
ACAD
1000
MTEXTBEGIN
1070
    73
1070
     1
1070
    44
1040
1.0
1070
    74
1070
     0
1000
MTEXTEND
  0
MTEXT
  5
55DA
330
1A
100
AcDbEntity
  8
SUNPOU
100
AcDbMText
 10
36210.53588614687
 20
27364.18586377937
 30
0.0
 40
10.5
 41
0.0
 71
     7
 72
     5
  1

1001
ACAD
1000
MTEXTBEGIN
1070
    73
1070
     1
1070
    44
1040
1.0
1070
    74
1070
     0
1000
MTEXTEND
  0
MTEXT
  5
55DB
330
1A
100
AcDbEntity
  8
SUNPOU
100
AcDbMText
 10
38021.29879752181
 20
33691.59985125794
 30
0.0
 40
10.5
 41
0.0
 71
     9
 72
     5
  1

1001
ACAD
1000
MTEXTBEGIN
1070
    73
1070
     1
1070
    44
1040
1.0
1070
    74
1070
     0
1000
MTEXTEND
  0
MTEXT
  5
55DC
330
1A
100
AcDbEntity
  8
SUNPOU
100
AcDbMText
 10
46743.46636343979
 20
41107.43438279541
 30
0.0
 40
10.5
 41
0.0
 71
     9
 72
     5
  1

1001
ACAD
1000
MTEXTBEGIN
1070
    73
1070
     1
1070
    44
1040
1.0
1070
    74
1070
     0
1000
MTEXTEND
  0
MTEXT
  5
55DD
330
1A
100
AcDbEntity
  8
SUNPOU
100
AcDbMText
 10
65697.22508076975
 20
58574.01043528746
 30
0.0
 40
10.5
 41
0.0
 71
     9
 72
     5
  1

1001
ACAD
1000
MTEXTBEGIN
1070
    73
1070
     1
1070
    44
1040
1.0
1070
    74
1070
     0
1000
MTEXTEND
  0
MTEXT
  5
55DE
330
1A
100
AcDbEntity
  8
SUNPOU
100
AcDbMText
 10
67640.63232747917
 20
56772.96135540945
 30
0.0
 40
3.5
 41
0.0
 71
     9
 72
     5
  1

1001
ACAD
1000
MTEXTBEGIN
1070
    73
1070
     1
1070
    44
1040
1.0
1070
    74
1070
     0
1000
MTEXTEND
  0
MTEXT
  5
55DF
330
1A
100
AcDbEntity
  8
SUNPOU
100
AcDbMText
 10
98766.81216009888
 20
99267.9070230668
 30
0.0
 40
10.5
 41
0.0
 71
     9
 72
     5
  1

1001
ACAD
1000
MTEXTBEGIN
1070
    73
1070
     1
1070
    44
1040
1.0
1070
    74
1070
     0
1000
MTEXTEND
  0
MTEXT
  5
55E0
330
1A
100
AcDbEntity
  8
SUNPOU
100
AcDbMText
 10
100710.2194068083
 20
97466.85794318878
 30
0.0
 40
3.5
 41
0.0
 71
     9
 72
     5
  1

1001
ACAD
1000
MTEXTBEGIN
1070
    73
1070
     1
1070
    44
1040
1.0
1070
    74
1070
     0
1000
MTEXTEND
  0
MTEXT
  5
55E1
330
1A
100
AcDbEntity
  8
SUNPOU
100
AcDbMText
 10
49207.07986589444
 20
45101.07217804185
 30
0.0
 40
10.5
 41
0.0
 71
     9
 72
     5
  1

1001
ACAD
1000
MTEXTBEGIN
1070
    73
1070
     1
1070
    44
1040
1.0
1070
    74
1070
     0
1000
MTEXTEND
  0
MTEXT
  5
55E2
330
1A
100
AcDbEntity
  8
SUNPOU
100
AcDbMText
 10
35259.07976551845
 20
25928.67303892964
 30
0.0
 40
3.5
 41
0.0
 71
     7
 72
     5
  1

1001
ACAD
1000
MTEXTBEGIN
1070
    73
1070
     1
1070
    44
1040
1.0
1070
    74
1070
     0
1000
MTEXTEND
  0
MTEXT
  5
55E3
330
1A
100
AcDbEntity
  8
SUNPOU
100
AcDbMText
 10
48951.43044828905
 20
35287.73625995099
 30
0.0
 40
10.5
 41
0.0
 71
     9
 72
     5
  1

1001
ACAD
1000
MTEXTBEGIN
1070
    73
1070
     1
1070
    44
1040
1.0
1070
    74
1070
     0
1000
MTEXTEND
  0
MTEXT
  5
55E4
330
1A
100
AcDbEntity
  8
SUNPOU
100
AcDbMText
 10
57673.59801420702
 20
42703.57079148847
 30
0.0
 40
10.5
 41
0.0
 71
     9
 72
     5
  1

1001
ACAD
1000
MTEXTBEGIN
1070
    73
1070
     1
1070
    44
1040
1.0
1070
    74
1070
     0
1000
MTEXTEND
  0
MTEXT
  5
55E5
330
1A
100
AcDbEntity
  8
SUNPOU
100
AcDbMText
 10
76627.35673153699
 20
60170.14684398051
 30
0.0
 40
10.5
 41
0.0
 71
     9
 72
     5
  1

1001
ACAD
1000
MTEXTBEGIN
1070
    73
1070
     1
1070
    44
1040
1.0
1070
    74
1070
     0
1000
MTEXTEND
  0
MTEXT
  5
55E6
330
1A
100
AcDbEntity
  8
SUNPOU
100
AcDbMText
 10
78570.76397824641
 20
58369.09776410251
 30
0.0
 40
3.5
 41
0.0
 71
     9
 72
     5
  1

1001
ACAD
1000
MTEXTBEGIN
1070
    73
1070
     1
1070
    44
1040
1.0
1070
    74
1070
     0
1000
MTEXTEND
  0
MTEXT
  5
55E7
330
1A
100
AcDbEntity
  8
SUNPOU
100
AcDbMText
 10
109696.9438108661
 20
100864.0434317598
 30
0.0
 40
10.5
 41
0.0
 71
     9
 72
     5
  1

1001
ACAD
1000
MTEXTBEGIN
1070
    73
1070
     1
1070
    44
1040
1.0
1070
    74
1070
     0
1000
MTEXTEND
  0
MTEXT
  5
55E8
330
1A
100
AcDbEntity
  8
SUNPOU
100
AcDbMText
 10
111640.3510575755
 20
99062.99435188183
 30
0.0
 40
3.5
 41
0.0
 71
     9
 72
     5
  1

1001
ACAD
1000
MTEXTBEGIN
1070
    73
1070
     1
1070
    44
1040
1.0
1070
    74
1070
     0
1000
MTEXTEND
  0
MTEXT
  5
55E9
330
1A
100
AcDbEntity
  8
SUNPOU
100
AcDbMText
 10
60137.21151666167
 20
46697.20858673491
 30
0.0
 40
10.5
 41
0.0
 71
     9
 72
     5
  1

1001
ACAD
1000
MTEXTBEGIN
1070
    73
1070
     1
1070
    44
1040
1.0
1070
    74
1070
     0
1000
MTEXTEND
  0
MTEXT
  5
55EA
330
1A
100
AcDbEntity
  8
SUNPOU
100
AcDbMText
 10
46189.21141628568
 20
27524.80944762269
 30
0.0
 40
3.5
 41
0.0
 71
     7
 72
     5
  1

1001
ACAD
1000
MTEXTBEGIN
1070
    73
1070
     1
1070
    44
1040
1.0
1070
    74
1070
     0
1000
MTEXTEND
  0
MTEXT
  5
55EB
330
1A
100
AcDbEntity
  8
SUNPOU
100
AcDbMText
 10
45007.68847015541
 20
38269.57947701874
 30
0.0
 40
10.5
 41
0.0
 71
     9
 72
     5
  1

1001
ACAD
1000
MTEXTBEGIN
1070
    73
1070
     1
1070
    44
1040
1.0
1070
    74
1070
     0
1000
MTEXTEND
  0
MTEXT
  5
55EC
330
1A
100
AcDbEntity
  8
SUNPOU
100
AcDbMText
 10
63961.44718748539
 20
55736.15552951081
 30
0.0
 40
10.5
 41
0.0
 71
     9
 72
     5
  1

1001
ACAD
1000
MTEXTBEGIN
1070
    73
1070
     1
1070
    44
1040
1.0
1070
    74
1070
     0
1000
MTEXTEND
  0
MTEXT
  5
55ED
330
1A
100
AcDbEntity
  8
SUNPOU
100
AcDbMText
 10
65904.85443419479
 20
53935.10644963279
 30
0.0
 40
3.5
 41
0.0
 71
     9
 72
     5
  1

1001
ACAD
1000
MTEXTBEGIN
1070
    73
1070
     1
1070
    44
1040
1.0
1070
    74
1070
     0
1000
MTEXTEND
  0
MTEXT
  5
55EE
330
1A
100
AcDbEntity
  8
SUNPOU
100
AcDbMText
 10
97031.03426681451
 20
96430.05211729015
 30
0.0
 40
10.5
 41
0.0
 71
     9
 72
     5
  1

1001
ACAD
1000
MTEXTBEGIN
1070
    73
1070
     1
1070
    44
1040
1.0
1070
    74
1070
     0
1000
MTEXTEND
  0
MTEXT
  5
55EF
330
1A
100
AcDbEntity
  8
SUNPOU
100
AcDbMText
 10
98974.44151352393
 20
94629.00303741212
 30
0.0
 40
3.5
 41
0.0
 71
     9
 72
     5
  1

1001
ACAD
1000
MTEXTBEGIN
1070
    73
1070
     1
1070
    44
1040
1.0
1070
    74
1070
     0
1000
MTEXTEND
  0
MTEXT
  5
55F0
330
1A
100
AcDbEntity
  8
SUNPOU
100
AcDbMText
 10
47471.30197261006
 20
42263.21727226519
 30
0.0
 40
10.5
 41
0.0
 71
     9
 72
     5
  1

1001
ACAD
1000
MTEXTBEGIN
1070
    73
1070
     1
1070
    44
1040
1.0
1070
    74
1070
     0
1000
MTEXTEND
  0
MTEXT
  5
55F1
330
1A
100
AcDbEntity
  8
SUNPOU
100
AcDbMText
 10
33523.30187223408
 20
23090.81813315298
 30
0.0
 40
3.5
 41
0.0
 71
     7
 72
     5
  1

1001
ACAD
1000
MTEXTBEGIN
1070
    73
1070
     1
1070
    44
1040
1.0
1070
    74
1070
     0
1000
MTEXTEND
  0
MTEXT
  5
55F2
330
1A
100
AcDbEntity
  8
SUNPOU
100
AcDbMText
 10
57959.46254102503
 20
50038.08111611015
 30
0.0
 40
10.5
 41
0.0
 71
     9
 72
     5
  1

1001
ACAD
1000
MTEXTBEGIN
1070
    73
1070
     1
1070
    44
1040
1.0
1070
    74
1070
     0
1000
MTEXTEND
  0
MTEXT
  5
55F3
330
1A
100
AcDbEntity
  8
SUNPOU
100
AcDbMText
 10
76913.22125835503
 20
67504.65716860222
 30
0.0
 40
10.5
 41
0.0
 71
     9
 72
     5
  1

1001
ACAD
1000
MTEXTBEGIN
1070
    73
1070
     1
1070
    44
1040
1.0
1070
    74
1070
     0
1000
MTEXTEND
  0
MTEXT
  5
55F4
330
1A
100
AcDbEntity
  8
SUNPOU
100
AcDbMText
 10
78856.62850506443
 20
65703.6080887242
 30
0.0
 40
3.5
 41
0.0
 71
     9
 72
     5
  1

1001
ACAD
1000
MTEXTBEGIN
1070
    73
1070
     1
1070
    44
1040
1.0
1070
    74
1070
     0
1000
MTEXTEND
  0
MTEXT
  5
55F5
330
1A
100
AcDbEntity
  8
SUNPOU
100
AcDbMText
 10
109982.8083376841
 20
108198.5537563815
 30
0.0
 40
10.5
 41
0.0
 71
     9
 72
     5
  1

1001
ACAD
1000
MTEXTBEGIN
1070
    73
1070
     1
1070
    44
1040
1.0
1070
    74
1070
     0
1000
MTEXTEND
  0
MTEXT
  5
55F6
330
1A
100
AcDbEntity
  8
SUNPOU
100
AcDbMText
 10
111926.2155843935
 20
106397.5046765035
 30
0.0
 40
3.5
 41
0.0
 71
     9
 72
     5
  1

1001
ACAD
1000
MTEXTBEGIN
1070
    73
1070
     1
1070
    44
1040
1.0
1070
    74
1070
     0
1000
MTEXTEND
  0
MTEXT
  5
55F7
330
1A
100
AcDbEntity
  8
SUNPOU
100
AcDbMText
 10
60423.07604347968
 20
54031.71891135659
 30
0.0
 40
10.5
 41
0.0
 71
     9
 72
     5
  1

1001
ACAD
1000
MTEXTBEGIN
1070
    73
1070
     1
1070
    44
1040
1.0
1070
    74
1070
     0
1000
MTEXTEND
  0
MTEXT
  5
55F8
330
1A
100
AcDbEntity
  8
SUNPOU
100
AcDbMText
 10
46475.07594310369
 20
34859.3197722444
 30
0.0
 40
3.5
 41
0.0
 71
     7
 72
     5
  1

1001
ACAD
1000
MTEXTBEGIN
1070
    73
1070
     1
1070
    44
1040
1.0
1070
    74
1070
     0
1000
MTEXTEND
  0
MTEXT
  5
55F9
330
1A
100
AcDbEntity
  8
SUNPOU
100
AcDbMText
 10
74027.35402123588
 20
68370.58278833383
 30
0.0
 40
10.5
 41
0.0
 71
     9
 72
     5
  1

1001
ACAD
1000
MTEXTBEGIN
1070
    73
1070
     1
1070
    44
1040
1.0
1070
    74
1070
     0
1000
MTEXTEND
  0
MTEXT
  5
55FA
330
1A
100
AcDbEntity
  8
SUNPOU
100
AcDbMText
 10
75970.7612679453
 20
66569.53370845583
 30
0.0
 40
3.5
 41
0.0
 71
     9
 72
     5
  1

1001
ACAD
1000
MTEXTBEGIN
1070
    73
1070
     1
1070
    44
1040
1.0
1070
    74
1070
     0
1000
MTEXTEND
  0
MTEXT
  5
55FB
330
1A
100
AcDbEntity
  8
SUNPOU
100
AcDbMText
 10
107096.941100565
 20
109064.4793761132
 30
0.0
 40
10.5
 41
0.0
 71
     9
 72
     5
  1

1001
ACAD
1000
MTEXTBEGIN
1070
    73
1070
     1
1070
    44
1040
1.0
1070
    74
1070
     0
1000
MTEXTEND
  0
MTEXT
  5
55FC
330
1A
100
AcDbEntity
  8
SUNPOU
100
AcDbMText
 10
109040.3483472744
 20
107263.4302962351
 30
0.0
 40
3.5
 41
0.0
 71
     9
 72
     5
  1

1001
ACAD
1000
MTEXTBEGIN
1070
    73
1070
     1
1070
    44
1040
1.0
1070
    74
1070
     0
1000
MTEXTEND
  0
MTEXT
  5
55FD
330
1A
100
AcDbEntity
  8
SUNPOU
100
AcDbMText
 10
105709.1709283621
 20
108141.3777665285
 30
0.0
 40
10.5
 41
0.0
 71
     9
 72
     5
  1

1001
ACAD
1000
MTEXTBEGIN
1070
    73
1070
     1
1070
    44
1040
1.0
1070
    74
1070
     0
1000
MTEXTEND
  0
MTEXT
  5
55FE
330
1A
100
AcDbEntity
  8
SUNPOU
100
AcDbMText
 10
107652.5781750715
 20
106340.3286866505
 30
0.0
 40
3.5
 41
0.0
 71
     9
 72
     5
  1

1001
ACAD
1000
MTEXTBEGIN
1070
    73
1070
     1
1070
    44
1040
1.0
1070
    74
1070
     0
1000
MTEXTEND
  0
MTEXT
  5
55FF
330
1A
100
AcDbEntity
  8
SUNPOU
100
AcDbMText
 10
73193.09268743351
 20
66158.78082845056
 30
0.0
 40
10.5
 41
0.0
 71
     9
 72
     5
  1

1001
ACAD
1000
MTEXTBEGIN
1070
    73
1070
     1
1070
    44
1040
1.0
1070
    74
1070
     0
1000
MTEXTEND
  0
MTEXT
  5
5600
330
1A
100
AcDbEntity
  8
SUNPOU
100
AcDbMText
 10
75916.39889159806
 20
66563.46252003162
 30
0.0
 40
3.5
 41
0.0
 71
     9
 72
     5
  1

1001
ACAD
1000
MTEXTBEGIN
1070
    73
1070
     1
1070
    44
1040
1.0
1070
    74
1070
     0
1000
MTEXTEND
  0
MTEXT
  5
5601
330
1A
100
AcDbEntity
  8
SUNPOU
100
AcDbMText
 10
75124.04436649058
 20
63402.1566819768
 30
0.0
 40
10.5
 41
0.0
 71
     9
 72
     5
  1

1001
ACAD
1000
MTEXTBEGIN
1070
    73
1070
     1
1070
    44
1040
1.0
1070
    74
1070
     0
1000
MTEXTEND
  0
MTEXT
  5
5602
330
1A
100
AcDbEntity
  8
SUNPOU
100
AcDbMText
 10
77067.4516132
 20
61601.1076020988
 30
0.0
 40
3.5
 41
0.0
 71
     9
 72
     5
  1

1001
ACAD
1000
MTEXTBEGIN
1070
    73
1070
     1
1070
    44
1040
1.0
1070
    74
1070
     0
1000
MTEXTEND
  0
MTEXT
  5
5603
330
1A
100
AcDbEntity
  8
SUNPOU
100
AcDbMText
 10
77012.54710378659
 20
61488.33571981449
 30
0.0
 40
3.5
 41
0.0
 71
     9
 72
     5
  1

1001
ACAD
1000
MTEXTBEGIN
1070
    73
1070
     1
1070
    44
1040
1.0
1070
    74
1070
     0
1000
MTEXTEND
  0
MTEXT
  5
5604
330
1A
100
AcDbEntity
  8
SUNPOU
100
AcDbMText
 10
76376.61896736668
 20
60677.01447874797
 30
0.0
 40
3.5
 41
0.0
 71
     9
 72
     5
  1

1001
ACAD
1000
MTEXTBEGIN
1070
    73
1070
     1
1070
    44
1040
1.0
1070
    74
1070
     0
1000
MTEXTEND
  0
MTEXT
  5
5605
330
1A
100
AcDbEntity
  8
SUNPOU
100
AcDbMText
 10
76375.37854794595
 20
60676.76650181047
 30
0.0
 40
10.5
 41
0.0
 71
     9
 72
     5
  1

1001
ACAD
1000
MTEXTBEGIN
1070
    73
1070
     1
1070
    44
1040
1.0
1070
    74
1070
     0
1000
MTEXTEND
  0
MTEXT
  5
5606
330
1A
100
AcDbEntity
  8
SUNPOU
100
AcDbMText
 10
84709.93991079748
 20
78034.0328293557
 30
0.0
 40
10.5
 41
0.0
 71
     9
 72
     5
  1

1001
ACAD
1000
MTEXTBEGIN
1070
    73
1070
     1
1070
    44
1040
1.0
1070
    74
1070
     0
1000
MTEXTEND
  0
MTEXT
  5
5607
330
1A
100
AcDbEntity
  8
SUNPOU
100
AcDbMText
 10
93432.10747671548
 20
85449.86736089315
 30
0.0
 40
10.5
 41
0.0
 71
     9
 72
     5
  1

1001
ACAD
1000
MTEXTBEGIN
1070
    73
1070
     1
1070
    44
1040
1.0
1070
    74
1070
     0
1000
MTEXTEND
  0
MTEXT
  5
5608
330
1A
100
AcDbEntity
  8
SUNPOU
100
AcDbMText
 10
112385.8661940454
 20
102916.4434133851
 30
0.0
 40
10.5
 41
0.0
 71
     9
 72
     5
  1

1001
ACAD
1000
MTEXTBEGIN
1070
    73
1070
     1
1070
    44
1040
1.0
1070
    74
1070
     0
1000
MTEXTEND
  0
MTEXT
  5
5609
330
1A
100
AcDbEntity
  8
SUNPOU
100
AcDbMText
 10
114329.2734407548
 20
101115.3943335072
 30
0.0
 40
3.5
 41
0.0
 71
     9
 72
     5
  1

1001
ACAD
1000
MTEXTBEGIN
1070
    73
1070
     1
1070
    44
1040
1.0
1070
    74
1070
     0
1000
MTEXTEND
  0
MTEXT
  5
560A
330
1A
100
AcDbEntity
  8
SUNPOU
100
AcDbMText
 10
145455.4532733745
 20
143610.3400011645
 30
0.0
 40
10.5
 41
0.0
 71
     9
 72
     5
  1

1001
ACAD
1000
MTEXTBEGIN
1070
    73
1070
     1
1070
    44
1040
1.0
1070
    74
1070
     0
1000
MTEXTEND
  0
MTEXT
  5
560B
330
1A
100
AcDbEntity
  8
SUNPOU
100
AcDbMText
 10
147398.8605200839
 20
141809.2909212864
 30
0.0
 40
3.5
 41
0.0
 71
     9
 72
     5
  1

1001
ACAD
1000
MTEXTBEGIN
1070
    73
1070
     1
1070
    44
1040
1.0
1070
    74
1070
     0
1000
MTEXTEND
  0
MTEXT
  5
560C
330
1A
100
AcDbEntity
  8
SUNPOU
100
AcDbMText
 10
95895.72097917013
 20
89443.5051561396
 30
0.0
 40
10.5
 41
0.0
 71
     9
 72
     5
  1

1001
ACAD
1000
MTEXTBEGIN
1070
    73
1070
     1
1070
    44
1040
1.0
1070
    74
1070
     0
1000
MTEXTEND
  0
MTEXT
  5
560D
330
1A
100
AcDbEntity
  8
SUNPOU
100
AcDbMText
 10
81947.72087879414
 20
70271.1060170274
 30
0.0
 40
3.5
 41
0.0
 71
     7
 72
     5
  1

1001
ACAD
1000
MTEXTBEGIN
1070
    73
1070
     1
1070
    44
1040
1.0
1070
    74
1070
     0
1000
MTEXTEND
  0
MTEXT
  5
560E
330
1A
100
AcDbEntity
  8
SUNPOU
100
AcDbMText
 10
62932.89027578729
 20
58033.25474784561
 30
0.0
 40
10.5
 41
0.0
 71
     7
 72
     5
  1

1001
ACAD
1000
MTEXTBEGIN
1070
    73
1070
     1
1070
    44
1040
1.0
1070
    74
1070
     0
1000
MTEXTEND
  0
MTEXT
  5
560F
330
1A
100
AcDbEntity
  8
SUNPOU
100
AcDbMText
 10
50475.66201083918
 20
42188.32316974719
 30
0.0
 40
35.0
 41
0.0
 71
     9
 72
     5
  1

1001
ACAD
1000
MTEXTBEGIN
1070
    73
1070
     1
1070
    44
1040
1.0
1070
    74
1070
     0
1000
MTEXTEND
  0
MTEXT
  5
5610
330
1A
100
AcDbEntity
  8
SUNPOU
100
AcDbMText
 10
49384.14706841413
 20
42797.0985797959
 30
0.0
 40
350.0000004171781
 41
0.0
 71
     7
 72
     5
  1

1001
ACAD
1000
MTEXTBEGIN
1070
    73
1070
     1
1070
    44
1040
1.0
1070
    74
1070
     0
1000
MTEXTEND
  0
MTEXT
  5
5611
330
1A
100
AcDbEntity
  8
0
100
AcDbMText
 10
55428.09782635704
 20
40777.02094193211
 30
0.0
 40
8.0
 41
0.0
 71
     7
 72
     5
  1

1001
ACAD
1000
MTEXTBEGIN
1070
    73
1070
     1
1070
    44
1040
1.0
1070
    74
1070
     0
1000
MTEXTEND
  0
MTEXT
  5
5612
330
1A
100
AcDbEntity
  8
0
100
AcDbMText
 10
57713.45551625194
 20
41747.81123668317
 30
0.0
 40
8.0
 41
0.0
 71
     7
 72
     5
  1

1001
ACAD
1000
MTEXTBEGIN
1070
    73
1070
     1
1070
    44
1040
1.0
1070
    74
1070
     0
1000
MTEXTEND
  0
MTEXT
  5
5613
330
1A
100
AcDbEntity
  8
SUNPOU
100
AcDbMText
 10
60379.35253693408
 20
51259.9226290583
 30
0.0
 40
10.5
 41
0.0
 71
     1
 72
     5
  1

1001
ACAD
1000
MTEXTBEGIN
1070
    73
1070
     1
1070
    44
1040
1.0
1070
    74
1070
     0
1000
MTEXTEND
  0
MTEXT
  5
5614
330
1A
100
AcDbEntity
  8
SUNPOU
100
AcDbMText
 10
52448.42934099814
 20
50313.12949514535
 30
0.0
 40
10.5
 41
0.0
 71
     7
 72
     5
  1

1001
ACAD
1000
MTEXTBEGIN
1070
    73
1070
     1
1070
    44
1040
1.0
1070
    74
1070
     0
1000
MTEXTEND
  0
MTEXT
  5
5615
330
1A
100
AcDbEntity
  8
SUNPOU
100
AcDbMText
 10
55397.41300551091
 20
55213.80556698819
 30
0.0
 40
10.5
 41
0.0
 71
     7
 72
     5
  1

1001
ACAD
1000
MTEXTBEGIN
1070
    73
1070
     1
1070
    44
1040
1.0
1070
    74
1070
     0
1000
MTEXTEND
  0
MTEXT
  5
5616
330
1A
100
AcDbEntity
  8
SUNPOU
100
AcDbMText
 10
59906.49113346147
 20
57650.10631460826
 30
0.0
 40
10.5
 41
0.0
 71
     7
 72
     5
  1

1001
ACAD
1000
MTEXTBEGIN
1070
    73
1070
     1
1070
    44
1040
1.0
1070
    74
1070
     0
1000
MTEXTEND
  0
MTEXT
  5
5617
330
1A
100
AcDbEntity
  8
SUNPOU
100
AcDbMText
 10
43507.32902022979
 20
36647.70246499718
 30
0.0
 40
10.5
 41
0.0
 71
     7
 72
     5
  1

1001
ACAD
1000
MTEXTBEGIN
1070
    73
1070
     1
1070
    44
1040
1.0
1070
    74
1070
     0
1000
MTEXTEND
  0
MTEXT
  5
5618
330
1A
100
AcDbEntity
  8
SUNPOU
100
AcDbMText
 10
94698.84745413006
 20
82320.68302864542
 30
0.0
 40
10.5
 41
0.0
 71
     9
 72
     5
  1

1001
ACAD
1000
MTEXTBEGIN
1070
    73
1070
     1
1070
    44
1040
1.0
1070
    74
1070
     0
1000
MTEXTEND
  0
MTEXT
  5
5619
330
1A
100
AcDbEntity
  8
SUNPOU
100
AcDbMText
 10
103421.015020048
 20
89736.5175601829
 30
0.0
 40
10.5
 41
0.0
 71
     9
 72
     5
  1

1001
ACAD
1000
MTEXTBEGIN
1070
    73
1070
     1
1070
    44
1040
1.0
1070
    74
1070
     0
1000
MTEXTEND
  0
MTEXT
  5
561A
330
1A
100
AcDbEntity
  8
SUNPOU
100
AcDbMText
 10
122374.773737378
 20
107203.0936126749
 30
0.0
 40
10.5
 41
0.0
 71
     9
 72
     5
  1

1001
ACAD
1000
MTEXTBEGIN
1070
    73
1070
     1
1070
    44
1040
1.0
1070
    74
1070
     0
1000
MTEXTEND
  0
MTEXT
  5
561B
330
1A
100
AcDbEntity
  8
SUNPOU
100
AcDbMText
 10
124318.1809840874
 20
105402.0445327969
 30
0.0
 40
3.5
 41
0.0
 71
     9
 72
     5
  1

1001
ACAD
1000
MTEXTBEGIN
1070
    73
1070
     1
1070
    44
1040
1.0
1070
    74
1070
     0
1000
MTEXTEND
  0
MTEXT
  5
561C
330
1A
100
AcDbEntity
  8
SUNPOU
100
AcDbMText
 10
155444.3608167071
 20
147896.9902004542
 30
0.0
 40
10.5
 41
0.0
 71
     9
 72
     5
  1

1001
ACAD
1000
MTEXTBEGIN
1070
    73
1070
     1
1070
    44
1040
1.0
1070
    74
1070
     0
1000
MTEXTEND
  0
MTEXT
  5
561D
330
1A
100
AcDbEntity
  8
SUNPOU
100
AcDbMText
 10
157387.7680634165
 20
146095.9411205762
 30
0.0
 40
3.5
 41
0.0
 71
     9
 72
     5
  1

1001
ACAD
1000
MTEXTBEGIN
1070
    73
1070
     1
1070
    44
1040
1.0
1070
    74
1070
     0
1000
MTEXTEND
  0
MTEXT
  5
561E
330
1A
100
AcDbEntity
  8
SUNPOU
100
AcDbMText
 10
105884.6285225027
 20
93730.15535542933
 30
0.0
 40
10.5
 41
0.0
 71
     9
 72
     5
  1

1001
ACAD
1000
MTEXTBEGIN
1070
    73
1070
     1
1070
    44
1040
1.0
1070
    74
1070
     0
1000
MTEXTEND
  0
MTEXT
  5
561F
330
1A
100
AcDbEntity
  8
SUNPOU
100
AcDbMText
 10
91936.6284221267
 20
74557.75621631714
 30
0.0
 40
3.5
 41
0.0
 71
     7
 72
     5
  1

1001
ACAD
1000
MTEXTBEGIN
1070
    73
1070
     1
1070
    44
1040
1.0
1070
    74
1070
     0
1000
MTEXTEND
  0
MTEXT
  5
5620
330
1A
100
AcDbEntity
  8
SUNPOU
100
AcDbMText
 10
72921.79781911986
 20
62319.90494713533
 30
0.0
 40
10.5
 41
0.0
 71
     7
 72
     5
  1

1001
ACAD
1000
MTEXTBEGIN
1070
    73
1070
     1
1070
    44
1040
1.0
1070
    74
1070
     0
1000
MTEXTEND
  0
MTEXT
  5
5621
330
1A
100
AcDbEntity
  8
SUNPOU
100
AcDbMText
 10
60464.56955417175
 20
46474.97336903692
 30
0.0
 40
35.0
 41
0.0
 71
     9
 72
     5
  1

1001
ACAD
1000
MTEXTBEGIN
1070
    73
1070
     1
1070
    44
1040
1.0
1070
    74
1070
     0
1000
MTEXTEND
  0
MTEXT
  5
5622
330
1A
100
AcDbEntity
  8
SUNPOU
100
AcDbMText
 10
59373.05461174672
 20
47083.74877908562
 30
0.0
 40
350.0000004171781
 41
0.0
 71
     7
 72
     5
  1

1001
ACAD
1000
MTEXTBEGIN
1070
    73
1070
     1
1070
    44
1040
1.0
1070
    74
1070
     0
1000
MTEXTEND
  0
MTEXT
  5
5623
330
1A
100
AcDbEntity
  8
0
100
AcDbMText
 10
65417.00536968962
 20
45063.67114122186
 30
0.0
 40
8.0
 41
0.0
 71
     7
 72
     5
  1

1001
ACAD
1000
MTEXTBEGIN
1070
    73
1070
     1
1070
    44
1040
1.0
1070
    74
1070
     0
1000
MTEXTEND
  0
MTEXT
  5
5624
330
1A
100
AcDbEntity
  8
0
100
AcDbMText
 10
67702.36305958452
 20
46034.46143597292
 30
0.0
 40
8.0
 41
0.0
 71
     7
 72
     5
  1

1001
ACAD
1000
MTEXTBEGIN
1070
    73
1070
     1
1070
    44
1040
1.0
1070
    74
1070
     0
1000
MTEXTEND
  0
MTEXT
  5
5625
330
1A
100
AcDbEntity
  8
SUNPOU
100
AcDbMText
 10
70368.26008026666
 20
55546.57282834803
 30
0.0
 40
10.5
 41
0.0
 71
     1
 72
     5
  1

1001
ACAD
1000
MTEXTBEGIN
1070
    73
1070
     1
1070
    44
1040
1.0
1070
    74
1070
     0
1000
MTEXTEND
  0
MTEXT
  5
5626
330
1A
100
AcDbEntity
  8
SUNPOU
100
AcDbMText
 10
62437.33688433072
 20
54599.77969443508
 30
0.0
 40
10.5
 41
0.0
 71
     7
 72
     5
  1

1001
ACAD
1000
MTEXTBEGIN
1070
    73
1070
     1
1070
    44
1040
1.0
1070
    74
1070
     0
1000
MTEXTEND
  0
MTEXT
  5
5627
330
1A
100
AcDbEntity
  8
SUNPOU
100
AcDbMText
 10
65386.32054884349
 20
59500.45576627792
 30
0.0
 40
10.5
 41
0.0
 71
     7
 72
     5
  1

1001
ACAD
1000
MTEXTBEGIN
1070
    73
1070
     1
1070
    44
1040
1.0
1070
    74
1070
     0
1000
MTEXTEND
  0
MTEXT
  5
5628
330
1A
100
AcDbEntity
  8
SUNPOU
100
AcDbMText
 10
69895.39867679405
 20
61936.756513898
 30
0.0
 40
10.5
 41
0.0
 71
     7
 72
     5
  1

1001
ACAD
1000
MTEXTBEGIN
1070
    73
1070
     1
1070
    44
1040
1.0
1070
    74
1070
     0
1000
MTEXTEND
  0
MTEXT
  5
5629
330
1A
100
AcDbEntity
  8
SUNPOU
100
AcDbMText
 10
53496.23656356237
 20
40934.35266428691
 30
0.0
 40
10.5
 41
0.0
 71
     7
 72
     5
  1

1001
ACAD
1000
MTEXTBEGIN
1070
    73
1070
     1
1070
    44
1040
1.0
1070
    74
1070
     0
1000
MTEXTEND
  0
MTEXT
  5
562A
330
1A
100
AcDbEntity
  8
SUNPOU
100
AcDbMText
 10
55306.99947493731
 20
47261.76665176547
 30
0.0
 40
10.5
 41
0.0
 71
     9
 72
     5
  1

1001
ACAD
1000
MTEXTBEGIN
1070
    73
1070
     1
1070
    44
1040
1.0
1070
    74
1070
     0
1000
MTEXTEND
  0
MTEXT
  5
562B
330
1A
100
AcDbEntity
  8
SUNPOU
100
AcDbMText
 10
64029.16704085528
 20
54677.60118330295
 30
0.0
 40
10.5
 41
0.0
 71
     9
 72
     5
  1

1001
ACAD
1000
MTEXTBEGIN
1070
    73
1070
     1
1070
    44
1040
1.0
1070
    74
1070
     0
1000
MTEXTEND
  0
MTEXT
  5
562C
330
1A
100
AcDbEntity
  8
SUNPOU
100
AcDbMText
 10
82982.92575818527
 20
72144.17723579499
 30
0.0
 40
10.5
 41
0.0
 71
     9
 72
     5
  1

1001
ACAD
1000
MTEXTBEGIN
1070
    73
1070
     1
1070
    44
1040
1.0
1070
    74
1070
     0
1000
MTEXTEND
  0
MTEXT
  5
562D
330
1A
100
AcDbEntity
  8
SUNPOU
100
AcDbMText
 10
84926.33300489467
 20
70343.12815591698
 30
0.0
 40
3.5
 41
0.0
 71
     9
 72
     5
  1

1001
ACAD
1000
MTEXTBEGIN
1070
    73
1070
     1
1070
    44
1040
1.0
1070
    74
1070
     0
1000
MTEXTEND
  0
MTEXT
  5
562E
330
1A
100
AcDbEntity
  8
SUNPOU
100
AcDbMText
 10
116052.5128375143
 20
112838.0738235743
 30
0.0
 40
10.5
 41
0.0
 71
     9
 72
     5
  1

1001
ACAD
1000
MTEXTBEGIN
1070
    73
1070
     1
1070
    44
1040
1.0
1070
    74
1070
     0
1000
MTEXTEND
  0
MTEXT
  5
562F
330
1A
100
AcDbEntity
  8
SUNPOU
100
AcDbMText
 10
117995.9200842238
 20
111037.0247436963
 30
0.0
 40
3.5
 41
0.0
 71
     9
 72
     5
  1

1001
ACAD
1000
MTEXTBEGIN
1070
    73
1070
     1
1070
    44
1040
1.0
1070
    74
1070
     0
1000
MTEXTEND
  0
MTEXT
  5
5630
330
1A
100
AcDbEntity
  8
SUNPOU
100
AcDbMText
 10
66492.78054330994
 20
58671.23897854939
 30
0.0
 40
10.5
 41
0.0
 71
     9
 72
     5
  1

1001
ACAD
1000
MTEXTBEGIN
1070
    73
1070
     1
1070
    44
1040
1.0
1070
    74
1070
     0
1000
MTEXTEND
  0
MTEXT
  5
5631
330
1A
100
AcDbEntity
  8
SUNPOU
100
AcDbMText
 10
52544.78044293396
 20
39498.83983943717
 30
0.0
 40
3.5
 41
0.0
 71
     7
 72
     5
  1

1001
ACAD
1000
MTEXTBEGIN
1070
    73
1070
     1
1070
    44
1040
1.0
1070
    74
1070
     0
1000
MTEXTEND
  0
MTEXT
  5
5632
330
1A
100
AcDbEntity
  8
SUNPOU
100
AcDbMText
 10
66237.13112570454
 20
48857.90306045851
 30
0.0
 40
10.5
 41
0.0
 71
     9
 72
     5
  1

1001
ACAD
1000
MTEXTBEGIN
1070
    73
1070
     1
1070
    44
1040
1.0
1070
    74
1070
     0
1000
MTEXTEND
  0
MTEXT
  5
5633
330
1A
100
AcDbEntity
  8
SUNPOU
100
AcDbMText
 10
74959.29869162252
 20
56273.737591996
 30
0.0
 40
10.5
 41
0.0
 71
     9
 72
     5
  1

1001
ACAD
1000
MTEXTBEGIN
1070
    73
1070
     1
1070
    44
1040
1.0
1070
    74
1070
     0
1000
MTEXTEND
  0
MTEXT
  5
5634
330
1A
100
AcDbEntity
  8
SUNPOU
100
AcDbMText
 10
93913.0574089525
 20
73740.31364448805
 30
0.0
 40
10.5
 41
0.0
 71
     9
 72
     5
  1

1001
ACAD
1000
MTEXTBEGIN
1070
    73
1070
     1
1070
    44
1040
1.0
1070
    74
1070
     0
1000
MTEXTEND
  0
MTEXT
  5
5635
330
1A
100
AcDbEntity
  8
SUNPOU
100
AcDbMText
 10
95856.46465566192
 20
71939.26456461004
 30
0.0
 40
3.5
 41
0.0
 71
     9
 72
     5
  1

1001
ACAD
1000
MTEXTBEGIN
1070
    73
1070
     1
1070
    44
1040
1.0
1070
    74
1070
     0
1000
MTEXTEND
  0
MTEXT
  5
5636
330
1A
100
AcDbEntity
  8
SUNPOU
100
AcDbMText
 10
126982.6444882816
 20
114434.2102322673
 30
0.0
 40
10.5
 41
0.0
 71
     9
 72
     5
  1

1001
ACAD
1000
MTEXTBEGIN
1070
    73
1070
     1
1070
    44
1040
1.0
1070
    74
1070
     0
1000
MTEXTEND
  0
MTEXT
  5
5637
330
1A
100
AcDbEntity
  8
SUNPOU
100
AcDbMText
 10
128926.051734991
 20
112633.1611523893
 30
0.0
 40
3.5
 41
0.0
 71
     9
 72
     5
  1

1001
ACAD
1000
MTEXTBEGIN
1070
    73
1070
     1
1070
    44
1040
1.0
1070
    74
1070
     0
1000
MTEXTEND
  0
MTEXT
  5
5638
330
1A
100
AcDbEntity
  8
SUNPOU
100
AcDbMText
 10
77422.91219407717
 20
60267.37538724244
 30
0.0
 40
10.5
 41
0.0
 71
     9
 72
     5
  1

1001
ACAD
1000
MTEXTBEGIN
1070
    73
1070
     1
1070
    44
1040
1.0
1070
    74
1070
     0
1000
MTEXTEND
  0
MTEXT
  5
5639
330
1A
100
AcDbEntity
  8
SUNPOU
100
AcDbMText
 10
63474.91209370119
 20
41094.97624813023
 30
0.0
 40
3.5
 41
0.0
 71
     7
 72
     5
  1

1001
ACAD
1000
MTEXTBEGIN
1070
    73
1070
     1
1070
    44
1040
1.0
1070
    74
1070
     0
1000
MTEXTEND
  0
MTEXT
  5
563A
330
1A
100
AcDbEntity
  8
SUNPOU
100
AcDbMText
 10
48117.65086229006
 20
40806.11043916631
 30
0.0
 40
10.5
 41
0.0
 71
     9
 72
     5
  1

1001
ACAD
1000
MTEXTBEGIN
1070
    73
1070
     1
1070
    44
1040
1.0
1070
    74
1070
     0
1000
MTEXTEND
  0
MTEXT
  5
563B
330
1A
100
AcDbEntity
  8
SUNPOU
100
AcDbMText
 10
67071.40957962004
 20
58272.68649165837
 30
0.0
 40
10.5
 41
0.0
 71
     9
 72
     5
  1

1001
ACAD
1000
MTEXTBEGIN
1070
    73
1070
     1
1070
    44
1040
1.0
1070
    74
1070
     0
1000
MTEXTEND
  0
MTEXT
  5
563C
330
1A
100
AcDbEntity
  8
SUNPOU
100
AcDbMText
 10
69014.81682632945
 20
56471.63741178035
 30
0.0
 40
3.5
 41
0.0
 71
     9
 72
     5
  1

1001
ACAD
1000
MTEXTBEGIN
1070
    73
1070
     1
1070
    44
1040
1.0
1070
    74
1070
     0
1000
MTEXTEND
  0
MTEXT
  5
563D
330
1A
100
AcDbEntity
  8
SUNPOU
100
AcDbMText
 10
100140.9966589491
 20
98966.58307943772
 30
0.0
 40
10.5
 41
0.0
 71
     9
 72
     5
  1

1001
ACAD
1000
MTEXTBEGIN
1070
    73
1070
     1
1070
    44
1040
1.0
1070
    74
1070
     0
1000
MTEXTEND
  0
MTEXT
  5
563E
330
1A
100
AcDbEntity
  8
SUNPOU
100
AcDbMText
 10
102084.4039056586
 20
97165.53399955969
 30
0.0
 40
3.5
 41
0.0
 71
     9
 72
     5
  1

1001
ACAD
1000
MTEXTBEGIN
1070
    73
1070
     1
1070
    44
1040
1.0
1070
    74
1070
     0
1000
MTEXTEND
  0
MTEXT
  5
563F
330
1A
100
AcDbEntity
  8
SUNPOU
100
AcDbMText
 10
50581.26436474472
 20
44799.74823441275
 30
0.0
 40
10.5
 41
0.0
 71
     9
 72
     5
  1

1001
ACAD
1000
MTEXTBEGIN
1070
    73
1070
     1
1070
    44
1040
1.0
1070
    74
1070
     0
1000
MTEXTEND
  0
MTEXT
  5
5640
330
1A
100
AcDbEntity
  8
SUNPOU
100
AcDbMText
 10
36633.26426436873
 20
25627.34909530054
 30
0.0
 40
3.5
 41
0.0
 71
     7
 72
     5
  1

1001
ACAD
1000
MTEXTBEGIN
1070
    73
1070
     1
1070
    44
1040
1.0
1070
    74
1070
     0
1000
MTEXTEND
  0
MTEXT
  5
5641
330
1A
100
AcDbEntity
  8
SUNPOU
100
AcDbMText
 10
61069.42493315968
 20
52574.61207825771
 30
0.0
 40
10.5
 41
0.0
 71
     9
 72
     5
  1

1001
ACAD
1000
MTEXTBEGIN
1070
    73
1070
     1
1070
    44
1040
1.0
1070
    74
1070
     0
1000
MTEXTEND
  0
MTEXT
  5
5642
330
1A
100
AcDbEntity
  8
SUNPOU
100
AcDbMText
 10
80023.18365048967
 20
70041.18813074978
 30
0.0
 40
10.5
 41
0.0
 71
     9
 72
     5
  1

1001
ACAD
1000
MTEXTBEGIN
1070
    73
1070
     1
1070
    44
1040
1.0
1070
    74
1070
     0
1000
MTEXTEND
  0
MTEXT
  5
5643
330
1A
100
AcDbEntity
  8
SUNPOU
100
AcDbMText
 10
81966.59089719908
 20
68240.13905087176
 30
0.0
 40
3.5
 41
0.0
 71
     9
 72
     5
  1

1001
ACAD
1000
MTEXTBEGIN
1070
    73
1070
     1
1070
    44
1040
1.0
1070
    74
1070
     0
1000
MTEXTEND
  0
MTEXT
  5
5644
330
1A
100
AcDbEntity
  8
SUNPOU
100
AcDbMText
 10
113092.7707298187
 20
110735.0847185291
 30
0.0
 40
10.5
 41
0.0
 71
     9
 72
     5
  1

1001
ACAD
1000
MTEXTBEGIN
1070
    73
1070
     1
1070
    44
1040
1.0
1070
    74
1070
     0
1000
MTEXTEND
  0
MTEXT
  5
5645
330
1A
100
AcDbEntity
  8
SUNPOU
100
AcDbMText
 10
115036.1779765282
 20
108934.0356386511
 30
0.0
 40
3.5
 41
0.0
 71
     9
 72
     5
  1

1001
ACAD
1000
MTEXTBEGIN
1070
    73
1070
     1
1070
    44
1040
1.0
1070
    74
1070
     0
1000
MTEXTEND
  0
MTEXT
  5
5646
330
1A
100
AcDbEntity
  8
SUNPOU
100
AcDbMText
 10
63533.03843561433
 20
56568.24987350415
 30
0.0
 40
10.5
 41
0.0
 71
     9
 72
     5
  1

1001
ACAD
1000
MTEXTBEGIN
1070
    73
1070
     1
1070
    44
1040
1.0
1070
    74
1070
     0
1000
MTEXTEND
  0
MTEXT
  5
5647
330
1A
100
AcDbEntity
  8
SUNPOU
100
AcDbMText
 10
49585.03833523835
 20
37395.85073439196
 30
0.0
 40
3.5
 41
0.0
 71
     7
 72
     5
  1

1001
ACAD
1000
MTEXTBEGIN
1070
    73
1070
     1
1070
    44
1040
1.0
1070
    74
1070
     0
1000
MTEXTEND
  0
MTEXT
  5
5648
330
1A
100
AcDbEntity
  8
SUNPOU
100
AcDbMText
 10
77137.31641337052
 20
70907.11375048141
 30
0.0
 40
10.5
 41
0.0
 71
     9
 72
     5
  1

1001
ACAD
1000
MTEXTBEGIN
1070
    73
1070
     1
1070
    44
1040
1.0
1070
    74
1070
     0
1000
MTEXTEND
  0
MTEXT
  5
5649
330
1A
100
AcDbEntity
  8
SUNPOU
100
AcDbMText
 10
79080.72366007995
 20
69106.06467060339
 30
0.0
 40
3.5
 41
0.0
 71
     9
 72
     5
  1

1001
ACAD
1000
MTEXTBEGIN
1070
    73
1070
     1
1070
    44
1040
1.0
1070
    74
1070
     0
1000
MTEXTEND
  0
MTEXT
  5
564A
330
1A
100
AcDbEntity
  8
SUNPOU
100
AcDbMText
 10
110206.9034926996
 20
111601.0103382607
 30
0.0
 40
10.5
 41
0.0
 71
     9
 72
     5
  1

1001
ACAD
1000
MTEXTBEGIN
1070
    73
1070
     1
1070
    44
1040
1.0
1070
    74
1070
     0
1000
MTEXTEND
  0
MTEXT
  5
564B
330
1A
100
AcDbEntity
  8
SUNPOU
100
AcDbMText
 10
112150.310739409
 20
109799.9612583827
 30
0.0
 40
3.5
 41
0.0
 71
     9
 72
     5
  1

1001
ACAD
1000
MTEXTBEGIN
1070
    73
1070
     1
1070
    44
1040
1.0
1070
    74
1070
     0
1000
MTEXTEND
  0
MTEXT
  5
564C
330
1A
100
AcDbEntity
  8
SUNPOU
100
AcDbMText
 10
108819.1333204968
 20
110677.9087286761
 30
0.0
 40
10.5
 41
0.0
 71
     9
 72
     5
  1

1001
ACAD
1000
MTEXTBEGIN
1070
    73
1070
     1
1070
    44
1040
1.0
1070
    74
1070
     0
1000
MTEXTEND
  0
MTEXT
  5
564D
330
1A
100
AcDbEntity
  8
SUNPOU
100
AcDbMText
 10
110762.5405672062
 20
108876.8596487981
 30
0.0
 40
3.5
 41
0.0
 71
     9
 72
     5
  1

1001
ACAD
1000
MTEXTBEGIN
1070
    73
1070
     1
1070
    44
1040
1.0
1070
    74
1070
     0
1000
MTEXTEND
  0
MTEXT
  5
564E
330
1A
100
AcDbEntity
  8
SUNPOU
100
AcDbMText
 10
76303.05507956816
 20
68695.31179059812
 30
0.0
 40
10.5
 41
0.0
 71
     9
 72
     5
  1

1001
ACAD
1000
MTEXTBEGIN
1070
    73
1070
     1
1070
    44
1040
1.0
1070
    74
1070
     0
1000
MTEXTEND
  0
MTEXT
  5
564F
330
1A
100
AcDbEntity
  8
SUNPOU
100
AcDbMText
 10
79026.36128373271
 20
69099.99348217918
 30
0.0
 40
3.5
 41
0.0
 71
     9
 72
     5
  1

1001
ACAD
1000
MTEXTBEGIN
1070
    73
1070
     1
1070
    44
1040
1.0
1070
    74
1070
     0
1000
MTEXTEND
  0
MTEXT
  5
5650
330
1A
100
AcDbEntity
  8
SUNPOU
100
AcDbMText
 10
78234.00675862522
 20
65938.68764412436
 30
0.0
 40
10.5
 41
0.0
 71
     9
 72
     5
  1

1001
ACAD
1000
MTEXTBEGIN
1070
    73
1070
     1
1070
    44
1040
1.0
1070
    74
1070
     0
1000
MTEXTEND
  0
MTEXT
  5
5651
330
1A
100
AcDbEntity
  8
SUNPOU
100
AcDbMText
 10
80177.41400533465
 20
64137.63856424636
 30
0.0
 40
3.5
 41
0.0
 71
     9
 72
     5
  1

1001
ACAD
1000
MTEXTBEGIN
1070
    73
1070
     1
1070
    44
1040
1.0
1070
    74
1070
     0
1000
MTEXTEND
  0
MTEXT
  5
5652
330
1A
100
AcDbEntity
  8
SUNPOU
100
AcDbMText
 10
80122.50949592123
 20
64024.86668196205
 30
0.0
 40
3.5
 41
0.0
 71
     9
 72
     5
  1

1001
ACAD
1000
MTEXTBEGIN
1070
    73
1070
     1
1070
    44
1040
1.0
1070
    74
1070
     0
1000
MTEXTEND
  0
MTEXT
  5
5653
330
1A
100
AcDbEntity
  8
SUNPOU
100
AcDbMText
 10
79486.58135950133
 20
63213.54544089553
 30
0.0
 40
3.5
 41
0.0
 71
     9
 72
     5
  1

1001
ACAD
1000
MTEXTBEGIN
1070
    73
1070
     1
1070
    44
1040
1.0
1070
    74
1070
     0
1000
MTEXTEND
  0
MTEXT
  5
5654
330
1A
100
AcDbEntity
  8
SUNPOU
100
AcDbMText
 10
79485.3409400806
 20
63213.29746395804
 30
0.0
 40
10.5
 41
0.0
 71
     9
 72
     5
  1

1001
ACAD
1000
MTEXTBEGIN
1070
    73
1070
     1
1070
    44
1040
1.0
1070
    74
1070
     0
1000
MTEXTEND
  0
MTEXT
  5
5655
330
1A
100
AcDbEntity
  8
SUNPOU
100
AcDbMText
 10
85473.63363627567
 20
80747.76348077064
 30
0.0
 40
10.5
 41
0.0
 71
     9
 72
     5
  1

1001
ACAD
1000
MTEXTBEGIN
1070
    73
1070
     1
1070
    44
1040
1.0
1070
    74
1070
     0
1000
MTEXTEND
  0
MTEXT
  5
5656
330
1A
100
AcDbEntity
  8
SUNPOU
100
AcDbMText
 10
94195.80120219368
 20
88163.59801230809
 30
0.0
 40
10.5
 41
0.0
 71
     9
 72
     5
  1

1001
ACAD
1000
MTEXTBEGIN
1070
    73
1070
     1
1070
    44
1040
1.0
1070
    74
1070
     0
1000
MTEXTEND
  0
MTEXT
  5
5657
330
1A
100
AcDbEntity
  8
SUNPOU
100
AcDbMText
 10
113149.5599195236
 20
105630.1740648001
 30
0.0
 40
10.5
 41
0.0
 71
     9
 72
     5
  1

1001
ACAD
1000
MTEXTBEGIN
1070
    73
1070
     1
1070
    44
1040
1.0
1070
    74
1070
     0
1000
MTEXTEND
  0
MTEXT
  5
5658
330
1A
100
AcDbEntity
  8
SUNPOU
100
AcDbMText
 10
115092.967166233
 20
103829.1249849221
 30
0.0
 40
3.5
 41
0.0
 71
     9
 72
     5
  1

1001
ACAD
1000
MTEXTBEGIN
1070
    73
1070
     1
1070
    44
1040
1.0
1070
    74
1070
     0
1000
MTEXTEND
  0
MTEXT
  5
5659
330
1A
100
AcDbEntity
  8
SUNPOU
100
AcDbMText
 10
146219.1469988527
 20
146324.0706525794
 30
0.0
 40
10.5
 41
0.0
 71
     9
 72
     5
  1

1001
ACAD
1000
MTEXTBEGIN
1070
    73
1070
     1
1070
    44
1040
1.0
1070
    74
1070
     0
1000
MTEXTEND
  0
MTEXT
  5
565A
330
1A
100
AcDbEntity
  8
SUNPOU
100
AcDbMText
 10
148162.5542455621
 20
144523.0215727014
 30
0.0
 40
3.5
 41
0.0
 71
     9
 72
     5
  1

1001
ACAD
1000
MTEXTBEGIN
1070
    73
1070
     1
1070
    44
1040
1.0
1070
    74
1070
     0
1000
MTEXTEND
  0
MTEXT
  5
565B
330
1A
100
AcDbEntity
  8
SUNPOU
100
AcDbMText
 10
96659.41470464833
 20
92157.23580755453
 30
0.0
 40
10.5
 41
0.0
 71
     9
 72
     5
  1

1001
ACAD
1000
MTEXTBEGIN
1070
    73
1070
     1
1070
    44
1040
1.0
1070
    74
1070
     0
1000
MTEXTEND
  0
MTEXT
  5
565C
330
1A
100
AcDbEntity
  8
SUNPOU
100
AcDbMText
 10
82711.41460427234
 20
72984.83666844234
 30
0.0
 40
3.5
 41
0.0
 71
     7
 72
     5
  1

1001
ACAD
1000
MTEXTBEGIN
1070
    73
1070
     1
1070
    44
1040
1.0
1070
    74
1070
     0
1000
MTEXTEND
  0
MTEXT
  5
565D
330
1A
100
AcDbEntity
  8
SUNPOU
100
AcDbMText
 10
63696.58400126548
 20
60746.98539926055
 30
0.0
 40
10.5
 41
0.0
 71
     7
 72
     5
  1

1001
ACAD
1000
MTEXTBEGIN
1070
    73
1070
     1
1070
    44
1040
1.0
1070
    74
1070
     0
1000
MTEXTEND
  0
MTEXT
  5
565E
330
1A
100
AcDbEntity
  8
SUNPOU
100
AcDbMText
 10
51239.35573631738
 20
44902.05382116213
 30
0.0
 40
35.0
 41
0.0
 71
     9
 72
     5
  1

1001
ACAD
1000
MTEXTBEGIN
1070
    73
1070
     1
1070
    44
1040
1.0
1070
    74
1070
     0
1000
MTEXTEND
  0
MTEXT
  5
565F
330
1A
100
AcDbEntity
  8
SUNPOU
100
AcDbMText
 10
50147.84079389233
 20
45510.82923121084
 30
0.0
 40
350.0000004171781
 41
0.0
 71
     7
 72
     5
  1

1001
ACAD
1000
MTEXTBEGIN
1070
    73
1070
     1
1070
    44
1040
1.0
1070
    74
1070
     0
1000
MTEXTEND
  0
MTEXT
  5
5660
330
1A
100
AcDbEntity
  8
0
100
AcDbMText
 10
56191.79155183523
 20
43490.75159334705
 30
0.0
 40
8.0
 41
0.0
 71
     7
 72
     5
  1

1001
ACAD
1000
MTEXTBEGIN
1070
    73
1070
     1
1070
    44
1040
1.0
1070
    74
1070
     0
1000
MTEXTEND
  0
MTEXT
  5
5661
330
1A
100
AcDbEntity
  8
0
100
AcDbMText
 10
58477.14924173013
 20
44461.54188809812
 30
0.0
 40
8.0
 41
0.0
 71
     7
 72
     5
  1

1001
ACAD
1000
MTEXTBEGIN
1070
    73
1070
     1
1070
    44
1040
1.0
1070
    74
1070
     0
1000
MTEXTEND
  0
MTEXT
  5
5662
330
1A
100
AcDbEntity
  8
SUNPOU
100
AcDbMText
 10
61143.04626241227
 20
53973.65328047324
 30
0.0
 40
10.5
 41
0.0
 71
     1
 72
     5
  1

1001
ACAD
1000
MTEXTBEGIN
1070
    73
1070
     1
1070
    44
1040
1.0
1070
    74
1070
     0
1000
MTEXTEND
  0
MTEXT
  5
5663
330
1A
100
AcDbEntity
  8
SUNPOU
100
AcDbMText
 10
53212.12306647634
 20
53026.86014656028
 30
0.0
 40
10.5
 41
0.0
 71
     7
 72
     5
  1

1001
ACAD
1000
MTEXTBEGIN
1070
    73
1070
     1
1070
    44
1040
1.0
1070
    74
1070
     0
1000
MTEXTEND
  0
MTEXT
  5
5664
330
1A
100
AcDbEntity
  8
SUNPOU
100
AcDbMText
 10
56161.1067309891
 20
57927.53621840312
 30
0.0
 40
10.5
 41
0.0
 71
     7
 72
     5
  1

1001
ACAD
1000
MTEXTBEGIN
1070
    73
1070
     1
1070
    44
1040
1.0
1070
    74
1070
     0
1000
MTEXTEND
  0
MTEXT
  5
5665
330
1A
100
AcDbEntity
  8
SUNPOU
100
AcDbMText
 10
60670.18485893966
 20
60363.8369660232
 30
0.0
 40
10.5
 41
0.0
 71
     7
 72
     5
  1

1001
ACAD
1000
MTEXTBEGIN
1070
    73
1070
     1
1070
    44
1040
1.0
1070
    74
1070
     0
1000
MTEXTEND
  0
MTEXT
  5
5666
330
1A
100
AcDbEntity
  8
SUNPOU
100
AcDbMText
 10
44271.02274570799
 20
39361.43311641212
 30
0.0
 40
10.5
 41
0.0
 71
     7
 72
     5
  1

1001
ACAD
1000
MTEXTBEGIN
1070
    73
1070
     1
1070
    44
1040
1.0
1070
    74
1070
     0
1000
MTEXTEND
  0
MTEXT
  5
5667
330
1A
100
AcDbEntity
  8
SUNPOU
100
AcDbMText
 10
95462.54117960824
 20
85034.41368006038
 30
0.0
 40
10.5
 41
0.0
 71
     9
 72
     5
  1

1001
ACAD
1000
MTEXTBEGIN
1070
    73
1070
     1
1070
    44
1040
1.0
1070
    74
1070
     0
1000
MTEXTEND
  0
MTEXT
  5
5668
330
1A
100
AcDbEntity
  8
SUNPOU
100
AcDbMText
 10
104184.7087455262
 20
92450.24821159784
 30
0.0
 40
10.5
 41
0.0
 71
     9
 72
     5
  1

1001
ACAD
1000
MTEXTBEGIN
1070
    73
1070
     1
1070
    44
1040
1.0
1070
    74
1070
     0
1000
MTEXTEND
  0
MTEXT
  5
5669
330
1A
100
AcDbEntity
  8
SUNPOU
100
AcDbMText
 10
123138.4674628562
 20
109916.8242640898
 30
0.0
 40
10.5
 41
0.0
 71
     9
 72
     5
  1

1001
ACAD
1000
MTEXTBEGIN
1070
    73
1070
     1
1070
    44
1040
1.0
1070
    74
1070
     0
1000
MTEXTEND
  0
MTEXT
  5
566A
330
1A
100
AcDbEntity
  8
SUNPOU
100
AcDbMText
 10
125081.8747095656
 20
108115.7751842118
 30
0.0
 40
3.5
 41
0.0
 71
     9
 72
     5
  1

1001
ACAD
1000
MTEXTBEGIN
1070
    73
1070
     1
1070
    44
1040
1.0
1070
    74
1070
     0
1000
MTEXTEND
  0
MTEXT
  5
566B
330
1A
100
AcDbEntity
  8
SUNPOU
100
AcDbMText
 10
156208.0545421853
 20
150610.7208518691
 30
0.0
 40
10.5
 41
0.0
 71
     9
 72
     5
  1

1001
ACAD
1000
MTEXTBEGIN
1070
    73
1070
     1
1070
    44
1040
1.0
1070
    74
1070
     0
1000
MTEXTEND
  0
MTEXT
  5
566C
330
1A
100
AcDbEntity
  8
SUNPOU
100
AcDbMText
 10
158151.4617888947
 20
148809.6717719911
 30
0.0
 40
3.5
 41
0.0
 71
     9
 72
     5
  1

1001
ACAD
1000
MTEXTBEGIN
1070
    73
1070
     1
1070
    44
1040
1.0
1070
    74
1070
     0
1000
MTEXTEND
  0
MTEXT
  5
566D
330
1A
100
AcDbEntity
  8
SUNPOU
100
AcDbMText
 10
106648.3222479809
 20
96443.88600684427
 30
0.0
 40
10.5
 41
0.0
 71
     9
 72
     5
  1

1001
ACAD
1000
MTEXTBEGIN
1070
    73
1070
     1
1070
    44
1040
1.0
1070
    74
1070
     0
1000
MTEXTEND
  0
MTEXT
  5
566E
330
1A
100
AcDbEntity
  8
SUNPOU
100
AcDbMText
 10
92700.3221476049
 20
77271.48686773207
 30
0.0
 40
3.5
 41
0.0
 71
     7
 72
     5
  1

1001
ACAD
1000
MTEXTBEGIN
1070
    73
1070
     1
1070
    44
1040
1.0
1070
    74
1070
     0
1000
MTEXTEND
  0
MTEXT
  5
566F
330
1A
100
AcDbEntity
  8
SUNPOU
100
AcDbMText
 10
73685.49154459806
 20
65033.63559855027
 30
0.0
 40
10.5
 41
0.0
 71
     7
 72
     5
  1

1001
ACAD
1000
MTEXTBEGIN
1070
    73
1070
     1
1070
    44
1040
1.0
1070
    74
1070
     0
1000
MTEXTEND
  0
MTEXT
  5
5670
330
1A
100
AcDbEntity
  8
SUNPOU
100
AcDbMText
 10
61228.26327964995
 20
49188.70402045185
 30
0.0
 40
35.0
 41
0.0
 71
     9
 72
     5
  1

1001
ACAD
1000
MTEXTBEGIN
1070
    73
1070
     1
1070
    44
1040
1.0
1070
    74
1070
     0
1000
MTEXTEND
  0
MTEXT
  5
5671
330
1A
100
AcDbEntity
  8
SUNPOU
100
AcDbMText
 10
60136.74833722491
 20
49797.47943050056
 30
0.0
 40
350.0000004171781
 41
0.0
 71
     7
 72
     5
  1

1001
ACAD
1000
MTEXTBEGIN
1070
    73
1070
     1
1070
    44
1040
1.0
1070
    74
1070
     0
1000
MTEXTEND
  0
MTEXT
  5
5672
330
1A
100
AcDbEntity
  8
0
100
AcDbMText
 10
66180.69909516782
 20
47777.40179263678
 30
0.0
 40
8.0
 41
0.0
 71
     7
 72
     5
  1

1001
ACAD
1000
MTEXTBEGIN
1070
    73
1070
     1
1070
    44
1040
1.0
1070
    74
1070
     0
1000
MTEXTEND
  0
MTEXT
  5
5673
330
1A
100
AcDbEntity
  8
0
100
AcDbMText
 10
68466.05678506271
 20
48748.19208738784
 30
0.0
 40
8.0
 41
0.0
 71
     7
 72
     5
  1

1001
ACAD
1000
MTEXTBEGIN
1070
    73
1070
     1
1070
    44
1040
1.0
1070
    74
1070
     0
1000
MTEXTEND
  0
MTEXT
  5
5674
330
1A
100
AcDbEntity
  8
SUNPOU
100
AcDbMText
 10
71131.95380574485
 20
58260.30347976296
 30
0.0
 40
10.5
 41
0.0
 71
     1
 72
     5
  1

1001
ACAD
1000
MTEXTBEGIN
1070
    73
1070
     1
1070
    44
1040
1.0
1070
    74
1070
     0
1000
MTEXTEND
  0
MTEXT
  5
5675
330
1A
100
AcDbEntity
  8
SUNPOU
100
AcDbMText
 10
63201.03060980891
 20
57313.51034585002
 30
0.0
 40
10.5
 41
0.0
 71
     7
 72
     5
  1

1001
ACAD
1000
MTEXTBEGIN
1070
    73
1070
     1
1070
    44
1040
1.0
1070
    74
1070
     0
1000
MTEXTEND
  0
MTEXT
  5
5676
330
1A
100
AcDbEntity
  8
SUNPOU
100
AcDbMText
 10
66150.01427432169
 20
62214.18641769286
 30
0.0
 40
10.5
 41
0.0
 71
     7
 72
     5
  1

1001
ACAD
1000
MTEXTBEGIN
1070
    73
1070
     1
1070
    44
1040
1.0
1070
    74
1070
     0
1000
MTEXTEND
  0
MTEXT
  5
5677
330
1A
100
AcDbEntity
  8
SUNPOU
100
AcDbMText
 10
70659.09240227225
 20
64650.48716531294
 30
0.0
 40
10.5
 41
0.0
 71
     7
 72
     5
  1

1001
ACAD
1000
MTEXTBEGIN
1070
    73
1070
     1
1070
    44
1040
1.0
1070
    74
1070
     0
1000
MTEXTEND
  0
MTEXT
  5
5678
330
1A
100
AcDbEntity
  8
SUNPOU
100
AcDbMText
 10
54259.93028904056
 20
43648.08331570185
 30
0.0
 40
10.5
 41
0.0
 71
     7
 72
     5
  1

1001
ACAD
1000
MTEXTBEGIN
1070
    73
1070
     1
1070
    44
1040
1.0
1070
    74
1070
     0
1000
MTEXTEND
  0
MTEXT
  5
5679
330
1A
100
AcDbEntity
  8
SUNPOU
100
AcDbMText
 10
56070.69320041551
 20
49975.4973031804
 30
0.0
 40
10.5
 41
0.0
 71
     9
 72
     5
  1

1001
ACAD
1000
MTEXTBEGIN
1070
    73
1070
     1
1070
    44
1040
1.0
1070
    74
1070
     0
1000
MTEXTEND
  0
MTEXT
  5
567A
330
1A
100
AcDbEntity
  8
SUNPOU
100
AcDbMText
 10
64792.86076633348
 20
57391.33183471788
 30
0.0
 40
10.5
 41
0.0
 71
     9
 72
     5
  1

1001
ACAD
1000
MTEXTBEGIN
1070
    73
1070
     1
1070
    44
1040
1.0
1070
    74
1070
     0
1000
MTEXTEND
  0
MTEXT
  5
567B
330
1A
100
AcDbEntity
  8
SUNPOU
100
AcDbMText
 10
83746.61948366345
 20
74857.90788720994
 30
0.0
 40
10.5
 41
0.0
 71
     9
 72
     5
  1

1001
ACAD
1000
MTEXTBEGIN
1070
    73
1070
     1
1070
    44
1040
1.0
1070
    74
1070
     0
1000
MTEXTEND
  0
MTEXT
  5
567C
330
1A
100
AcDbEntity
  8
SUNPOU
100
AcDbMText
 10
85690.02673037287
 20
73056.85880733192
 30
0.0
 40
3.5
 41
0.0
 71
     9
 72
     5
  1

1001
ACAD
1000
MTEXTBEGIN
1070
    73
1070
     1
1070
    44
1040
1.0
1070
    74
1070
     0
1000
MTEXTEND
  0
MTEXT
  5
567D
330
1A
100
AcDbEntity
  8
SUNPOU
100
AcDbMText
 10
116816.2065629925
 20
115551.8044749892
 30
0.0
 40
10.5
 41
0.0
 71
     9
 72
     5
  1

1001
ACAD
1000
MTEXTBEGIN
1070
    73
1070
     1
1070
    44
1040
1.0
1070
    74
1070
     0
1000
MTEXTEND
  0
MTEXT
  5
567E
330
1A
100
AcDbEntity
  8
SUNPOU
100
AcDbMText
 10
118759.613809702
 20
113750.7553951112
 30
0.0
 40
3.5
 41
0.0
 71
     9
 72
     5
  1

1001
ACAD
1000
MTEXTBEGIN
1070
    73
1070
     1
1070
    44
1040
1.0
1070
    74
1070
     0
1000
MTEXTEND
  0
MTEXT
  5
567F
330
1A
100
AcDbEntity
  8
SUNPOU
100
AcDbMText
 10
67256.47426878814
 20
61384.96962996432
 30
0.0
 40
10.5
 41
0.0
 71
     9
 72
     5
  1

1001
ACAD
1000
MTEXTBEGIN
1070
    73
1070
     1
1070
    44
1040
1.0
1070
    74
1070
     0
1000
MTEXTEND
  0
MTEXT
  5
5680
330
1A
100
AcDbEntity
  8
SUNPOU
100
AcDbMText
 10
53308.47416841216
 20
42212.57049085211
 30
0.0
 40
3.5
 41
0.0
 71
     7
 72
     5
  1

1001
ACAD
1000
MTEXTBEGIN
1070
    73
1070
     1
1070
    44
1040
1.0
1070
    74
1070
     0
1000
MTEXTEND
  0
MTEXT
  5
5681
330
1A
100
AcDbEntity
  8
SUNPOU
100
AcDbMText
 10
67000.82485118274
 20
51571.63371187345
 30
0.0
 40
10.5
 41
0.0
 71
     9
 72
     5
  1

1001
ACAD
1000
MTEXTBEGIN
1070
    73
1070
     1
1070
    44
1040
1.0
1070
    74
1070
     0
1000
MTEXTEND
  0
MTEXT
  5
5682
330
1A
100
AcDbEntity
  8
SUNPOU
100
AcDbMText
 10
75722.99241710071
 20
58987.46824341094
 30
0.0
 40
10.5
 41
0.0
 71
     9
 72
     5
  1

1001
ACAD
1000
MTEXTBEGIN
1070
    73
1070
     1
1070
    44
1040
1.0
1070
    74
1070
     0
1000
MTEXTEND
  0
MTEXT
  5
5683
330
1A
100
AcDbEntity
  8
SUNPOU
100
AcDbMText
 10
94676.75113443068
 20
76454.04429590299
 30
0.0
 40
10.5
 41
0.0
 71
     9
 72
     5
  1

1001
ACAD
1000
MTEXTBEGIN
1070
    73
1070
     1
1070
    44
1040
1.0
1070
    74
1070
     0
1000
MTEXTEND
  0
MTEXT
  5
5684
330
1A
100
AcDbEntity
  8
SUNPOU
100
AcDbMText
 10
96620.1583811401
 20
74652.99521602498
 30
0.0
 40
3.5
 41
0.0
 71
     9
 72
     5
  1

1001
ACAD
1000
MTEXTBEGIN
1070
    73
1070
     1
1070
    44
1040
1.0
1070
    74
1070
     0
1000
MTEXTEND
  0
MTEXT
  5
5685
330
1A
100
AcDbEntity
  8
SUNPOU
100
AcDbMText
 10
127746.3382137598
 20
117147.9408836823
 30
0.0
 40
10.5
 41
0.0
 71
     9
 72
     5
  1

1001
ACAD
1000
MTEXTBEGIN
1070
    73
1070
     1
1070
    44
1040
1.0
1070
    74
1070
     0
1000
MTEXTEND
  0
MTEXT
  5
5686
330
1A
100
AcDbEntity
  8
SUNPOU
100
AcDbMText
 10
129689.7454604692
 20
115346.8918038043
 30
0.0
 40
3.5
 41
0.0
 71
     9
 72
     5
  1

1001
ACAD
1000
MTEXTBEGIN
1070
    73
1070
     1
1070
    44
1040
1.0
1070
    74
1070
     0
1000
MTEXTEND
  0
MTEXT
  5
5687
330
1A
100
AcDbEntity
  8
SUNPOU
100
AcDbMText
 10
78186.60591955537
 20
62981.10603865738
 30
0.0
 40
10.5
 41
0.0
 71
     9
 72
     5
  1

1001
ACAD
1000
MTEXTBEGIN
1070
    73
1070
     1
1070
    44
1040
1.0
1070
    74
1070
     0
1000
MTEXTEND
  0
MTEXT
  5
5688
330
1A
100
AcDbEntity
  8
SUNPOU
100
AcDbMText
 10
64238.60581917939
 20
43808.70689954517
 30
0.0
 40
3.5
 41
0.0
 71
     7
 72
     5
  1

1001
ACAD
1000
MTEXTBEGIN
1070
    73
1070
     1
1070
    44
1040
1.0
1070
    74
1070
     0
1000
MTEXTEND
  0
MTEXT
  5
5689
330
1A
100
AcDbEntity
  8
SUNPOU
100
AcDbMText
 10
33428.13481137435
 20
32770.04710035564
 30
0.0
 40
10.5
 41
0.0
 71
     9
 72
     5
  1

1001
ACAD
1000
MTEXTBEGIN
1070
    73
1070
     1
1070
    44
1040
1.0
1070
    74
1070
     0
1000
MTEXTEND
  0
MTEXT
  5
568A
330
1A
100
AcDbEntity
  8
SUNPOU
100
AcDbMText
 10
52381.89352870432
 20
50236.62315284769
 30
0.0
 40
10.5
 41
0.0
 71
     9
 72
     5
  1

1001
ACAD
1000
MTEXTBEGIN
1070
    73
1070
     1
1070
    44
1040
1.0
1070
    74
1070
     0
1000
MTEXTEND
  0
MTEXT
  5
568B
330
1A
100
AcDbEntity
  8
SUNPOU
100
AcDbMText
 10
54325.30077541374
 20
48435.57407296968
 30
0.0
 40
3.5
 41
0.0
 71
     9
 72
     5
  1

1001
ACAD
1000
MTEXTBEGIN
1070
    73
1070
     1
1070
    44
1040
1.0
1070
    74
1070
     0
1000
MTEXTEND
  0
MTEXT
  5
568C
330
1A
100
AcDbEntity
  8
SUNPOU
100
AcDbMText
 10
85451.48060803343
 20
90930.51974062703
 30
0.0
 40
10.5
 41
0.0
 71
     9
 72
     5
  1

1001
ACAD
1000
MTEXTBEGIN
1070
    73
1070
     1
1070
    44
1040
1.0
1070
    74
1070
     0
1000
MTEXTEND
  0
MTEXT
  5
568D
330
1A
100
AcDbEntity
  8
SUNPOU
100
AcDbMText
 10
87394.88785474286
 20
89129.47066074901
 30
0.0
 40
3.5
 41
0.0
 71
     9
 72
     5
  1

1001
ACAD
1000
MTEXTBEGIN
1070
    73
1070
     1
1070
    44
1040
1.0
1070
    74
1070
     0
1000
MTEXTEND
  0
MTEXT
  5
568E
330
1A
100
AcDbEntity
  8
SUNPOU
100
AcDbMText
 10
35891.74831382901
 20
36763.68489560208
 30
0.0
 40
10.5
 41
0.0
 71
     9
 72
     5
  1

1001
ACAD
1000
MTEXTBEGIN
1070
    73
1070
     1
1070
    44
1040
1.0
1070
    74
1070
     0
1000
MTEXTEND
  0
MTEXT
  5
568F
330
1A
100
AcDbEntity
  8
SUNPOU
100
AcDbMText
 10
21943.74821345303
 20
17591.28575648986
 30
0.0
 40
3.5
 41
0.0
 71
     7
 72
     5
  1

1001
ACAD
1000
MTEXTBEGIN
1070
    73
1070
     1
1070
    44
1040
1.0
1070
    74
1070
     0
1000
MTEXTEND
  0
MTEXT
  5
15AD5
330
1A
100
AcDbEntity
  8
ZISSEN1
100
AcDbMText
 10
-1156.884446448796
 20
1923.695014107615
 30
0.0
 40
5.0
 41
76.2713
 71
     1
 72
     5
  1
AD-2710B No.SS0001f132
1001
ACAD
1000
MTEXTBEGIN
1070
    73
1070
     1
1070
    44
1040
1.0
1070
    74
1070
     0
1000
MTEXTEND
  0
LINE
  5
1669E
330
1A
100
AcDbEntity
  8
ZISSEN1
 48
0.5
100
AcDbLine
 10
-1266.539363534555
 20
1917.45467595245
 30
0.0
 11
-1274.539363534555
 21
1917.45467595245
 31
0.0
  0
LINE
  5
166A2
330
1A
100
AcDbEntity
  8
ZISSEN1
 48
0.5
100
AcDbLine
 10
-1292.539363534555
 20
1921.85467595245
 30
0.0
 11
-1266.539363534555
 21
1921.854675952448
 31
0.0
  0
LINE
  5
166A3
330
1A
100
AcDbEntity
  8
ZISSEN1
 48
0.5
100
AcDbLine
 10
-1292.539363534555
 20
1921.95467595245
 30
0.0
 11
-1266.539363534555
 21
1921.95467595245
 31
0.0
  0
DIMENSION
  5
166A5
330
1A
100
AcDbEntity
  8
SUNPOU
 48
0.5
100
AcDbDimension
  2
*D70
 10
-1210.540031864023
 20
1870.254675952451
 30
0.0
 11
-1296.540031864022
 21
1873.004675952451
 31
0.0
 70
    32
  1
<>(ユーザー取付寸法)
  3
標準スタイル
100
AcDbAlignedDimension
 13
-1382.540031864022
 23
1895.754675952451
 33
0.0
 14
-1210.540031864023
 24
1895.754675952451
 34
0.0
100
AcDbRotatedDimension
1001
ACAD
1000
DSTYLE
1002
{
1070
   340
1005
10
1070
    40
1040
1.0
1002
}
  0
DIMENSION
  5
166A6
330
1A
100
AcDbEntity
  8
SUNPOU
 48
0.5
100
AcDbDimension
  2
*D71
 10
-1415.040031864022
 20
1881.25467595245
 30
0.0
 11
-1417.790031864023
 21
1907.004675952451
 31
0.0
 70
    32
  1
(<>)
  3
標準スタイル
100
AcDbAlignedDimension
 13
-1373.540031864022
 23
1932.754675952451
 33
0.0
 14
-1247.540031864022
 24
1881.25467595245
 34
0.0
 50
90.0
100
AcDbRotatedDimension
1001
ACAD
1000
DSTYLE
1002
{
1070
   340
1005
10
1070
    40
1040
1.0
1002
}
  0
DIMENSION
  5
166A7
330
1A
100
AcDbEntity
  8
ZISSEN1
 48
0.5
100
AcDbDimension
  2
*D72
 10
-1216.540031864022
 20
1706.901627197785
 30
0.0
 11
-1296.540031864022
 21
1709.651627197786
 31
0.0
 70
    32
  3
標準スタイル
100
AcDbAlignedDimension
 13
-1376.540031864022
 23
1720.401627197785
 33
0.0
 14
-1216.540031864022
 24
1720.401627197785
 34
0.0
100
AcDbRotatedDimension
1001
ACAD
1000
DSTYLE
1002
{
1070
   340
1005
10
1070
    40
1040
1.0
1002
}
  0
DIMENSION
  5
166A8
330
1A
100
AcDbEntity
  8
ZISSEN1
 48
0.5
100
AcDbDimension
  2
*D73
 10
-1202.540031864022
 20
1699.901627197785
 30
0.0
 11
-1295.540031864022
 21
1702.651627197785
 31
0.0
 70
    32
  3
標準スタイル
100
AcDbAlignedDimension
 13
-1388.540031864022
 23
1717.401627197785
 33
0.0
 14
-1202.540031864022
 24
1717.401627197785
 34
0.0
100
AcDbRotatedDimension
1001
ACAD
1000
DSTYLE
1002
{
1070
   340
1005
10
1070
    40
1040
1.0
1002
}
  0
LINE
  5
166AA
330
1A
100
AcDbEntity
  8
ZISSEN1
 48
0.5
100
AcDbLine
 10
-1218.040031864022
 20
1884.254675952451
 30
0.0
 11
-1373.040031864022
 21
1884.254675952451
 31
0.0
  0
LINE
  5
166AB
330
1A
100
AcDbEntity
  8
ZISSEN1
 48
0.5
100
AcDbLine
 10
-1216.540031864022
 20
1847.401627197785
 30
0.0
 11
-1373.040031864022
 21
1847.401627197785
 31
0.0
  0
LINE
  5
166AC
330
1A
100
AcDbEntity
  8
ZISSEN1
 48
0.5
100
AcDbLine
 10
-1372.040031864022
 20
1720.901627197785
 30
0.0
 11
-1216.540031864022
 21
1720.901627197785
 31
0.0
  0
LINE
  5
166AD
330
1A
100
AcDbEntity
  8
ZISSEN1
 48
0.5
100
AcDbLine
 10
-1373.540031864022
 20
1929.754675952451
 30
0.0
 11
-1216.540031864022
 21
1929.754675952451
 31
0.0
  0
LINE
  5
166AE
330
1A
100
AcDbEntity
  8
ZISSEN1
 48
0.5
100
AcDbLine
 10
-1373.540031864022
 20
1932.754675952451
 30
0.0
 11
-1216.540031864022
 21
1932.754675952451
 31
0.0
  0
LINE
  5
166AF
330
1A
100
AcDbEntity
  8
ZISSEN1
 48
0.5
100
AcDbLine
 10
-1202.540031864022
 20
1717.401627197785
 30
0.0
 11
-1388.540031864022
 21
1717.401627197785
 31
0.0
  0
LINE
  5
166B0
330
1A
100
AcDbEntity
  8
ZISSEN1
 48
0.5
100
AcDbLine
 10
-1360.540031864022
 20
1720.401627197785
 30
0.0
 11
-1202.540031864022
 21
1720.401627197785
 31
0.0
  0
LINE
  5
166B1
330
1A
100
AcDbEntity
  8
ZISSEN1
 48
0.5
100
AcDbLine
 10
-1376.540031864022
 20
1847.401627197785
 30
0.0
 11
-1227.540031864022
 21
1847.401627197785
 31
0.0
  0
DIMENSION
  5
166C5
330
1A
100
AcDbEntity
  8
ZISSEN1
 48
0.5
100
AcDbDimension
  2
*D74
 10
-1394.040031864022
 20
1717.401627197785
 30
0.0
 11
-1396.790031864023
 21
1782.401627197785
 31
0.0
 70
    32
  3
標準スタイル
100
AcDbAlignedDimension
 13
-1376.540031864022
 23
1847.401627197785
 33
0.0
 14
-1388.540031864022
 24
1717.401627197785
 34
0.0
 50
90.0
100
AcDbRotatedDimension
1001
ACAD
1000
DSTYLE
1002
{
1070
   340
1005
10
1070
    40
1040
1.0
1002
}
  0
LINE
  5
166C8
330
1A
100
AcDbEntity
  8
ZISSEN1
 48
0.5
100
AcDbLine
 10
-1373.040031864022
 20
1721.901627197785
 30
0.0
 11
-1373.040031864022
 21
1847.401627197785
 31
0.0
  0
LINE
  5
166C9
330
1A
100
AcDbEntity
  8
ZISSEN1
 48
0.5
100
AcDbLine
 10
-1373.540031864022
 20
1847.401627197785
 30
0.0
 11
-1373.540031864022
 21
1720.401627197785
 31
0.0
  0
LINE
  5
166CA
330
1A
100
AcDbEntity
  8
ZISSEN1
 48
0.5
100
AcDbLine
 10
-1376.540031864022
 20
1720.401627197785
 30
0.0
 11
-1376.540031864022
 21
1847.401627197785
 31
0.0
  0
LINE
  5
166CC
330
1A
100
AcDbEntity
  8
ZISSEN1
 48
0.5
100
AcDbLine
 10
-1388.540031864022
 20
1720.401627197785
 30
0.0
 11
-1360.540031864022
 21
1720.401627197785
 31
0.0
  0
DIMENSION
  5
166CD
330
1A
100
AcDbEntity
  8
ZISSEN1
 48
0.5
100
AcDbDimension
  2
*D75
 10
-1376.540031864022
 20
1706.901627197785
 30
0.0
 11
-1382.540031864022
 21
1709.651627197786
 31
0.0
 70
    32
  3
標準スタイル
100
AcDbAlignedDimension
 13
-1388.540031864022
 23
1717.401627197785
 33
0.0
 14
-1376.540031864022
 24
1719.901627197785
 34
0.0
100
AcDbRotatedDimension
1001
ACAD
1000
DSTYLE
1002
{
1070
   340
1005
10
1070
    40
1040
1.0
1002
}
  0
LINE
  5
166CE
330
1A
100
AcDbEntity
  8
ZISSEN1
 48
0.5
100
AcDbLine
 10
-1388.540031864022
 20
1717.401627197785
 30
0.0
 11
-1388.540031864022
 21
1720.401627197785
 31
0.0
  0
LINE
  5
166CF
330
1A
100
AcDbEntity
  8
ZISSEN1
 48
0.5
100
AcDbLine
 10
-1386.540031864022
 20
1720.401627197785
 30
0.0
 11
-1386.540031864022
 21
1717.401627197785
 31
0.0
  0
LINE
  5
166D0
330
1A
100
AcDbEntity
  8
ZISSEN1
 48
0.5
100
AcDbLine
 10
-1372.540031864022
 20
1720.401627197785
 30
0.0
 11
-1372.540031864022
 21
1721.401627197785
 31
0.0
  0
LINE
  5
166D1
330
1A
100
AcDbEntity
  8
ZISSEN1
 48
0.5
100
AcDbLine
 10
-1371.540031864022
 20
1720.401627197785
 30
0.0
 11
-1371.540031864022
 21
1720.901627197785
 31
0.0
  0
LINE
  5
166D2
330
1A
100
AcDbEntity
  8
ZISSEN1
 48
0.5
100
AcDbLine
 10
-1373.040031864022
 20
1721.901627197785
 30
0.0
 11
-1372.040031864022
 21
1720.901627197785
 31
0.0
  0
LINE
  5
166D3
330
1A
100
AcDbEntity
  8
ZISSEN1
 48
0.5
100
AcDbLine
 10
-1373.540031864022
 20
1720.901627197785
 30
0.0
 11
-1376.540031864022
 21
1720.901627197785
 31
0.0
  0
LINE
  5
166D4
330
1A
100
AcDbEntity
  8
ZISSEN1
 48
0.5
100
AcDbLine
 10
-1373.540031864022
 20
1721.901627197785
 30
0.0
 11
-1376.540031864022
 21
1721.901627197785
 31
0.0
  0
LINE
  5
166D5
330
1A
100
AcDbEntity
  8
ZISSEN1
 48
0.5
100
AcDbLine
 10
-1360.540031864022
 20
1720.401627197785
 30
0.0
 11
-1360.540031864022
 21
1720.901627197785
 31
0.0
  0
CIRCLE
  5
166D8
330
1A
100
AcDbEntity
  8
ZISSEN1
 48
0.5
100
AcDbCircle
 10
-1353.540031864022
 20
1740.401627197786
 30
0.0
 40
3.149999999999999
  0
LINE
  5
16707
330
1A
100
AcDbEntity
  8
ZISSEN1
 48
0.5
100
AcDbLine
 10
-1376.540031864022
 20
1846.401627197785
 30
0.0
 11
-1373.540031864022
 21
1846.401627197785
 31
0.0
  0
DIMENSION
  5
16771
330
1A
100
AcDbEntity
  8
SUNPOU
 48
0.5
100
AcDbDimension
  2
*D76
 10
-1401.040031864022
 20
1884.254675952451
 30
0.0
 11
-1403.790031864023
 21
1891.754675952451
 31
0.0
 70
    32
  3
標準スタイル
100
AcDbAlignedDimension
 13
-1386.040031864022
 23
1899.254675952451
 33
0.0
 14
-1373.040031864022
 24
1884.254675952451
 34
0.0
 50
90.0
100
AcDbRotatedDimension
1001
ACAD
1000
DSTYLE
1002
{
1070
   340
1005
10
1070
    40
1040
1.0
1002
}
  0
DIMENSION
  5
16772
330
1A
100
AcDbEntity
  8
SUNPOU
 48
0.5
100
AcDbDimension
  2
*D77
 10
-1401.040031864022
 20
1932.754675952451
 30
0.0
 11
-1403.790031864023
 21
1926.004675952451
 31
0.0
 70
    32
  3
標準スタイル
100
AcDbAlignedDimension
 13
-1386.040031864022
 23
1919.254675952451
 33
0.0
 14
-1373.540031864022
 24
1932.754675952451
 34
0.0
 50
90.0
100
AcDbRotatedDimension
1001
ACAD
1000
DSTYLE
1002
{
1070
   340
1005
10
1070
    40
1040
1.0
1002
}
  0
DIMENSION
  5
16773
330
1A
100
AcDbEntity
  8
SUNPOU
 48
0.5
100
AcDbDimension
  2
*D78
 10
-1401.040031864022
 20
1899.254675952451
 30
0.0
 11
-1403.790031864023
 21
1909.254675952451
 31
0.0
 70
    32
  3
標準スタイル
100
AcDbAlignedDimension
 13
-1386.040031864022
 23
1919.254675952451
 33
0.0
 14
-1386.040031864022
 24
1899.254675952451
 34
0.0
 50
90.0
100
AcDbRotatedDimension
1001
ACAD
1000
DSTYLE
1002
{
1070
   340
1005
10
1070
    40
1040
1.0
1002
}
  0
DIMENSION
  5
16774
330
1A
100
AcDbEntity
  8
SUNPOU
 48
0.5
100
AcDbDimension
  2
*D79
 10
-1408.040031864022
 20
1884.254675952451
 30
0.0
 11
-1410.790031864022
 21
1908.504675952451
 31
0.0
 70
    32
  3
標準スタイル
100
AcDbAlignedDimension
 13
-1373.540031864022
 23
1932.754675952451
 33
0.0
 14
-1373.040031864022
 24
1884.254675952451
 34
0.0
 50
90.0
100
AcDbRotatedDimension
1001
ACAD
1000
DSTYLE
1002
{
1070
   340
1005
10
1070
    40
1040
1.0
1002
}
  0
LINE
  5
16775
330
1A
100
AcDbEntity
  8
ZISSEN1
 48
0.5
100
AcDbLine
 10
-1322.039363534555
 20
1915.95467595245
 30
0.0
 11
-1322.039363534555
 21
1921.95467595245
 31
0.0
  0
LINE
  5
16776
330
1A
100
AcDbEntity
  8
ZISSEN1
 48
0.5
100
AcDbLine
 10
-1313.039363534556
 20
1921.95467595245
 30
0.0
 11
-1313.039363534556
 21
1915.95467595245
 31
0.0
  0
LINE
  5
16777
330
1A
100
AcDbEntity
  8
ZISSEN1
 48
0.5
100
AcDbLine
 10
-1292.539363534555
 20
1921.95467595245
 30
0.0
 11
-1292.539363534555
 21
1915.95467595245
 31
0.0
  0
ARC
  5
1677B
330
1A
100
AcDbEntity
  8
ZISSEN1
 48
0.5
100
AcDbCircle
 10
-1382.040031864022
 20
1919.254675952451
 30
0.0
 40
2.25
100
AcDbArc
 50
270.0
 51
90.0
  0
LINE
  5
1677C
330
1A
100
AcDbEntity
  8
ZISSEN1
 48
0.5
100
AcDbLine
 10
-1320.539363534555
 20
1921.854675952451
 30
0.0
 11
-1320.539363534555
 21
1917.654675952451
 31
0.0
  0
LINE
  5
1677D
330
1A
100
AcDbEntity
  8
ZISSEN1
 48
0.5
100
AcDbLine
 10
-1314.539363534555
 20
1917.654675952451
 30
0.0
 11
-1314.539363534555
 21
1921.854675952451
 31
0.0
  0
LINE
  5
16780
330
1A
100
AcDbEntity
  8
CL1
 48
0.5
100
AcDbLine
 10
-1382.540031864022
 20
1915.754675952451
 30
0.0
 11
-1382.540031864022
 21
1922.754675952451
 31
0.0
  0
DIMENSION
  5
16781
330
1A
100
AcDbEntity
  8
SUNPOU
 48
0.5
100
AcDbDimension
  2
*D80
 10
-1394.026518350509
 20
1889.754675952451
 30
0.0
 11
-1396.776518350509
 21
1909.254675952451
 31
0.0
 70
    32
  3
標準スタイル
100
AcDbAlignedDimension
 13
-1386.540031864022
 23
1928.754675952451
 33
0.0
 14
-1386.540031864022
 24
1889.754675952451
 34
0.0
 50
90.0
100
AcDbRotatedDimension
1001
ACAD
1000
DSTYLE
1002
{
1070
   340
1005
10
1070
    40
1040
1.0
1002
}
  0
LINE
  5
16782
330
1A
100
AcDbEntity
  8
ZISSEN1
 48
0.5
100
AcDbLine
 10
-1373.040031864022
 20
1884.254675952451
 30
0.0
 11
-1373.040031864022
 21
1929.754675952451
 31
0.0
  0
LINE
  5
16783
330
1A
100
AcDbEntity
  8
ZISSEN1
 48
0.5
100
AcDbLine
 10
-1373.540031864022
 20
1884.354675952451
 30
0.0
 11
-1373.540031864022
 21
1929.754675952451
 31
0.0
  0
LINE
  5
16784
330
1A
100
AcDbEntity
  8
ZISSEN1
 48
0.5
100
AcDbLine
 10
-1376.540031864022
 20
1884.354675952451
 30
0.0
 11
-1376.540031864022
 21
1929.754675952451
 31
0.0
  0
DIMENSION
  5
16788
330
1A
100
AcDbEntity
  8
SUNPOU
 48
0.5
100
AcDbDimension
  2
*D81
 10
-1388.540031864022
 20
1870.254675952451
 30
0.0
 11
-1385.540031864022
 21
1870.254675952451
 31
0.0
 70
   160
  3
標準スタイル
100
AcDbAlignedDimension
 13
-1382.540031864022
 23
1895.754675952451
 33
0.0
 14
-1388.540031864022
 24
1891.754675952451
 34
0.0
100
AcDbRotatedDimension
1001
ACAD
1000
DSTYLE
1002
{
1070
   340
1005
10
1070
    40
1040
1.0
1002
}
  0
LINE
  5
1678C
330
1A
100
AcDbEntity
  8
ZISSEN1
 48
0.5
100
AcDbLine
 10
-1388.540031864022
 20
1897.004675952451
 30
0.0
 11
-1388.540031864022
 21
1891.754675952451
 31
0.0
  0
LINE
  5
1678D
330
1A
100
AcDbEntity
  8
ZISSEN1
 48
0.5
100
AcDbLine
 10
-1376.540031864022
 20
1889.754675952451
 30
0.0
 11
-1386.540031864022
 21
1889.754675952451
 31
0.0
  0
LINE
  5
1678E
330
1A
100
AcDbEntity
  8
ZISSEN1
 48
0.5
100
AcDbLine
 10
-1388.540031864022
 20
1891.754675952451
 30
0.0
 11
-1386.540031864022
 21
1889.754675952451
 31
0.0
  0
LINE
  5
1678F
330
1A
100
AcDbEntity
  8
ZISSEN1
 48
0.5
100
AcDbLine
 10
-1373.040031864022
 20
1889.354675952451
 30
0.0
 11
-1373.540031864022
 21
1889.354675952451
 31
0.0
  0
LINE
  5
16791
330
1A
100
AcDbEntity
  8
ZISSEN1
 48
0.5
100
AcDbLine
 10
-1376.540031864022
 20
1885.354675952451
 30
0.0
 11
-1373.540031864022
 21
1885.354675952451
 31
0.0
  0
LINE
  5
16792
330
1A
100
AcDbEntity
  8
ZISSEN1
 48
0.5
100
AcDbLine
 10
-1376.540031864022
 20
1884.354675952451
 30
0.0
 11
-1373.540031864022
 21
1884.354675952451
 31
0.0
  0
LINE
  5
16793
330
1A
100
AcDbEntity
  8
ZISSEN1
 48
0.5
100
AcDbLine
 10
-1382.040031864022
 20
1917.004675952451
 30
0.0
 11
-1388.540031864022
 21
1917.004675952451
 31
0.0
  0
LINE
  5
16795
330
1A
100
AcDbEntity
  8
ZISSEN1
 48
0.5
100
AcDbLine
 10
-1382.040031864022
 20
1901.504675952451
 30
0.0
 11
-1388.540031864022
 21
1901.504675952451
 31
0.0
  0
LINE
  5
16796
330
1A
100
AcDbEntity
  8
ZISSEN1
 48
0.5
100
AcDbLine
 10
-1382.040031864022
 20
1897.004675952451
 30
0.0
 11
-1388.540031864022
 21
1897.004675952451
 31
0.0
  0
LINE
  5
16797
330
1A
100
AcDbEntity
  8
CL1
 48
0.5
100
AcDbLine
 10
-1386.040031864022
 20
1899.254675952451
 30
0.0
 11
-1379.040031864022
 21
1899.254675952451
 31
0.0
  0
LINE
  5
16798
330
1A
100
AcDbEntity
  8
ZISSEN1
 48
0.5
100
AcDbLine
 10
-1388.540031864022
 20
1901.504675952451
 30
0.0
 11
-1388.540031864022
 21
1917.004675952451
 31
0.0
  0
ARC
  5
1679F
330
1A
100
AcDbEntity
  8
ZISSEN1
 48
0.5
100
AcDbCircle
 10
-1382.040031864022
 20
1899.254675952451
 30
0.0
 40
2.25
100
AcDbArc
 50
270.0
 51
90.0
  0
LINE
  5
167A0
330
1A
100
AcDbEntity
  8
CL1
 48
0.5
100
AcDbLine
 10
-1382.540031864022
 20
1895.754675952451
 30
0.0
 11
-1382.540031864022
 21
1902.754675952451
 31
0.0
  0
ARC
  5
167A8
330
1A
100
AcDbEntity
  8
ZISSEN1
 48
0.5
100
AcDbCircle
 10
-1353.540031864022
 20
1887.429304941049
 30
0.0
 40
5.174628988598421
100
AcDbArc
 50
233.7083018726678
 51
306.2916981273322
  0
LINE
  5
167B7
330
1A
100
AcDbEntity
  8
ZISSEN1
 48
0.5
100
AcDbLine
 10
-1356.690031864022
 20
1884.25467595245
 30
0.0
 11
-1356.602876121275
 21
1883.258481254359
 31
0.0
  0
LINE
  5
167C0
330
1A
100
AcDbEntity
  8
ZISSEN1
 48
0.5
100
AcDbLine
 10
-1350.390031864023
 20
1884.25467595245
 30
0.0
 11
-1350.47718760677
 21
1883.258481254359
 31
0.0
  0
LINE
  5
167E5
330
1A
100
AcDbEntity
  8
ZISSEN1
 48
0.5
100
AcDbLine
 10
-1313.039363534556
 20
1915.95467595245
 30
0.0
 11
-1322.039363534555
 21
1915.95467595245
 31
0.0
  0
LINE
  5
167E6
330
1A
100
AcDbEntity
  8
ZISSEN1
 48
0.5
100
AcDbLine
 10
-1314.839363534555
 20
1917.654675952451
 30
0.0
 11
-1320.239363534555
 21
1917.654675952451
 31
0.0
  0
LINE
  5
167E7
330
1A
100
AcDbEntity
  8
ZISSEN1
 48
0.5
100
AcDbLine
 10
-1320.539363534555
 20
1917.654675952451
 30
0.0
 11
-1320.239363534555
 21
1917.654675952451
 31
0.0
  0
LINE
  5
167E8
330
1A
100
AcDbEntity
  8
ZISSEN1
 48
0.5
100
AcDbLine
 10
-1314.839363534555
 20
1917.654675952451
 30
0.0
 11
-1314.539363534555
 21
1917.654675952451
 31
0.0
  0
LINE
  5
1680A
330
1A
100
AcDbEntity
  8
ZISSEN1
 48
0.5
100
AcDbLine
 10
-1274.539363534555
 20
1915.95467595245
 30
0.0
 11
-1292.539363534555
 21
1915.95467595245
 31
0.0
  0
LINE
  5
1680B
330
1A
100
AcDbEntity
  8
ZISSEN1
 48
0.5
100
AcDbLine
 10
-1274.539363534555
 20
1917.45467595245
 30
0.0
 11
-1274.539363534555
 21
1915.95467595245
 31
0.0
  0
LINE
  5
16811
330
1A
100
AcDbEntity
  8
ZISSEN1
 48
0.5
100
AcDbLine
 10
-1372.540031864022
 20
1929.754675952451
 30
0.0
 11
-1357.040031864022
 21
1929.754675952451
 31
0.0
  0
LINE
  5
16812
330
1A
100
AcDbEntity
  8
ZISSEN1
 48
0.5
100
AcDbLine
 10
-1382.040031864022
 20
1921.504675952451
 30
0.0
 11
-1388.540031864022
 21
1921.504675952451
 31
0.0
  0
LINE
  5
16813
330
1A
100
AcDbEntity
  8
CL1
 48
0.5
100
AcDbLine
 10
-1386.040031864022
 20
1919.254675952451
 30
0.0
 11
-1379.040031864022
 21
1919.254675952451
 31
0.0
  0
DIMENSION
  5
16814
330
1A
100
AcDbEntity
  8
SUNPOU
 48
0.5
100
AcDbDimension
  2
*D82
 10
-1394.026518350509
 20
1928.754675952451
 30
0.0
 11
-1396.951991934325
 21
1930.271708945076
 31
0.0
 70
   160
  1
<>
  3
標準スタイル
100
AcDbAlignedDimension
 13
-1373.540031864022
 23
1932.754675952451
 33
0.0
 14
-1389.040031864022
 24
1928.754675952451
 34
0.0
 50
90.0
100
AcDbRotatedDimension
1001
ACAD
1000
DSTYLE
1002
{
1070
   287
1070
     5
1070
    40
1040
1.0
1070
   279
1070
     2
1070
   340
1005
10
1002
}
  0
LINE
  5
16815
330
1A
100
AcDbEntity
  8
ZISSEN1
 48
0.5
100
AcDbLine
 10
-1376.540031864022
 20
1928.754675952451
 30
0.0
 11
-1386.540031864022
 21
1928.754675952451
 31
0.0
  0
LINE
  5
16816
330
1A
100
AcDbEntity
  8
ZISSEN1
 48
0.5
100
AcDbLine
 10
-1388.540031864022
 20
1926.754675952451
 30
0.0
 11
-1388.540031864022
 21
1921.504675952451
 31
0.0
  0
LINE
  5
16817
330
1A
100
AcDbEntity
  8
ZISSEN1
 48
0.5
100
AcDbLine
 10
-1386.540031864022
 20
1928.754675952451
 30
0.0
 11
-1388.540031864022
 21
1926.754675952451
 31
0.0
  0
LINE
  5
16818
330
1A
100
AcDbEntity
  8
ZISSEN1
 48
0.5
100
AcDbLine
 10
-1373.040031864022
 20
1925.254675952451
 30
0.0
 11
-1373.040031864022
 21
1929.754675952451
 31
0.0
  0
ARC
  5
1681D
330
1A
100
AcDbEntity
  8
ZISSEN1
 48
0.5
100
AcDbCircle
 10
-1373.540031864022
 20
1929.754675952451
 30
0.0
 40
3.0
100
AcDbArc
 50
90.0
 51
180.0
  0
LINE
  5
1681E
330
1A
100
AcDbEntity
  8
ZISSEN1
 48
0.5
100
AcDbLine
 10
-1366.540031864023
 20
1923.454675952451
 30
0.0
 11
-1346.540031864023
 21
1923.454675952451
 31
0.0
  0
LINE
  5
1681F
330
1A
100
AcDbEntity
  8
ZISSEN1
 48
0.5
100
AcDbLine
 10
-1366.540031864023
 20
1923.854675952451
 30
0.0
 11
-1346.540031864022
 21
1923.854675952451
 31
0.0
  0
LINE
  5
16820
330
1A
100
AcDbEntity
  8
ZISSEN1
 48
0.5
100
AcDbLine
 10
-1346.540031864023
 20
1921.854675952451
 30
0.0
 11
-1366.540031864023
 21
1921.854675952451
 31
0.0
  0
LINE
  5
16824
330
1A
100
AcDbEntity
  8
ZISSEN1
 48
0.5
100
AcDbLine
 10
-1366.540031864023
 20
1921.854675952451
 30
0.0
 11
-1366.540031864023
 21
1923.854675952451
 31
0.0
  0
LINE
  5
16829
330
1A
100
AcDbEntity
  8
ZISSEN1
 48
0.5
100
AcDbLine
 10
-1346.540031864022
 20
1923.854675952451
 30
0.0
 11
-1346.540031864023
 21
1921.854675952451
 31
0.0
  0
LINE
  5
1682C
330
1A
100
AcDbEntity
  8
ZISSEN1
 48
0.5
100
AcDbLine
 10
-1313.039363534556
 20
1921.854675952451
 30
0.0
 11
-1322.040031864022
 21
1921.854675952451
 31
0.0
  0
LINE
  5
1682D
330
1A
100
AcDbEntity
  8
ZISSEN1
 48
0.5
100
AcDbLine
 10
-1322.039363534555
 20
1921.95467595245
 30
0.0
 11
-1313.039363534556
 21
1921.95467595245
 31
0.0
  0
LINE
  5
1682F
330
1A
100
AcDbEntity
  8
ZISSEN1
 48
0.5
100
AcDbLine
 10
-1314.839363534555
 20
1921.35467595245
 30
0.0
 11
-1320.239363534555
 21
1921.35467595245
 31
0.0
  0
LINE
  5
16832
330
1A
100
AcDbEntity
  8
ZISSEN1
 48
0.5
100
AcDbLine
 10
-1320.239363534555
 20
1921.35467595245
 30
0.0
 11
-1320.239363534555
 21
1921.854675952451
 31
0.0
  0
LINE
  5
1683A
330
1A
100
AcDbEntity
  8
ZISSEN1
 48
0.5
100
AcDbLine
 10
-1314.839363534555
 20
1921.35467595245
 30
0.0
 11
-1314.839363534555
 21
1921.854675952451
 31
0.0
  0
LINE
  5
16840
330
1A
100
AcDbEntity
  8
ZISSEN1
 48
0.5
100
AcDbLine
 10
-1288.589363534555
 20
1919.85467595245
 30
0.0
 11
-1276.489363534555
 21
1919.85467595245
 31
0.0
  0
LINE
  5
16841
330
1A
100
AcDbEntity
  8
ZISSEN1
 48
0.5
100
AcDbLine
 10
-1275.989363534555
 20
1921.854675952451
 30
0.0
 11
-1289.089363534555
 21
1921.854675952451
 31
0.0
  0
LINE
  5
16842
330
1A
100
AcDbEntity
  8
ZISSEN1
 48
0.5
100
AcDbLine
 10
-1287.324363534555
 20
1920.90467595245
 30
0.0
 11
-1277.754363534555
 21
1920.904675952451
 31
0.0
  0
LINE
  5
16845
330
1A
100
AcDbEntity
  8
ZISSEN1
 48
0.5
100
AcDbLine
 10
-1288.589363534555
 20
1921.854675952451
 30
0.0
 11
-1288.589363534555
 21
1919.85467595245
 31
0.0
  0
LINE
  5
16887
330
1A
100
AcDbEntity
  8
ZISSEN1
 48
0.5
100
AcDbLine
 10
-1287.324363534555
 20
1921.854675952451
 30
0.0
 11
-1287.324363534555
 21
1920.90467595245
 31
0.0
  0
LINE
  5
16889
330
1A
100
AcDbEntity
  8
ZISSEN1
 48
0.5
100
AcDbLine
 10
-1276.489363534555
 20
1919.85467595245
 30
0.0
 11
-1276.489363534555
 21
1921.854675952451
 31
0.0
  0
LINE
  5
168EF
330
1A
100
AcDbEntity
  8
ZISSEN1
 48
0.5
100
AcDbLine
 10
-1277.754363534555
 20
1921.854675952451
 30
0.0
 11
-1277.754363534555
 21
1920.904675952451
 31
0.0
  0
LWPOLYLINE
  5
168F1
330
1A
100
AcDbEntity
  8
ZISSEN1
 48
0.5
100
AcDbPolyline
 90
        4
 70
     1
 43
0.0
 10
-1268.914363534555
 20
1921.05467595245
 10
-1268.914363534555
 20
1921.85467595245
 10
-1270.164363534555
 20
1921.85467595245
 10
-1270.164363534555
 20
1921.05467595245
  0
LWPOLYLINE
  5
168F3
330
1A
100
AcDbEntity
  8
ZISSEN1
 48
0.5
100
AcDbPolyline
 90
        4
 70
     1
 43
0.0
 10
-1270.914363534555
 20
1921.05467595245
 10
-1270.914363534555
 20
1921.85467595245
 10
-1272.164363534555
 20
1921.85467595245
 10
-1272.164363534555
 20
1921.05467595245
  0
DIMENSION
  5
16905
330
1A
100
AcDbEntity
  8
ZISSEN1
 48
0.5
100
AcDbDimension
  2
*D83
 10
-1104.540031864022
 20
1699.901627197754
 30
0.0
 11
-1130.29003186402
 21
1702.651627197754
 31
0.0
 70
    32
  1
(<>)
  3
標準スタイル
100
AcDbAlignedDimension
 13
-1156.040031864019
 23
1740.401627197805
 33
0.0
 14
-1104.540031864022
 24
1719.401627197785
 34
0.0
100
AcDbRotatedDimension
1001
ACAD
1000
DSTYLE
1002
{
1070
   340
1005
10
1070
   170
1070
     0
1070
   277
1070
     2
1070
   271
1070
     1
1070
    40
1040
1.0
1002
}
  0
DIMENSION
  5
16906
330
1A
100
AcDbEntity
  8
ZISSEN1
 48
0.5
100
AcDbDimension
  2
*D84
 10
-1104.540031864022
 20
1706.901627197785
 30
0.0
 11
-1128.790031864022
 21
1709.651627197786
 31
0.0
 70
    32
  3
標準スタイル
100
AcDbAlignedDimension
 13
-1153.040031864022
 23
1720.901627197785
 33
0.0
 14
-1104.540031864022
 24
1719.901627197785
 34
0.0
100
AcDbRotatedDimension
1001
ACAD
1000
DSTYLE
1002
{
1070
   340
1005
10
1070
    40
1040
1.0
1002
}
  0
LINE
  5
16907
330
1A
100
AcDbEntity
  8
ZISSEN1
 48
0.5
100
AcDbLine
 10
-1153.040031864022
 20
1720.901627197785
 30
0.0
 11
-1109.040031864022
 21
1720.901627197785
 31
0.0
  0
LINE
  5
16908
330
1A
100
AcDbEntity
  8
ZISSEN1
 48
0.5
100
AcDbLine
 10
-1109.040031864022
 20
1847.401627197785
 30
0.0
 11
-1151.540031864022
 21
1847.401627197785
 31
0.0
  0
LINE
  5
16909
330
1A
100
AcDbEntity
  8
ZISSEN1
 48
0.5
100
AcDbLine
 10
-1107.540031864022
 20
1720.901627197785
 30
0.0
 11
-1148.040031864022
 21
1720.901627197785
 31
0.0
  0
LINE
  5
1690A
330
1A
100
AcDbEntity
  8
ZISSEN1
 48
0.5
100
AcDbLine
 10
-1148.040031864022
 20
1720.401627197785
 30
0.0
 11
-1107.540031864022
 21
1720.401627197785
 31
0.0
  0
LINE
  5
1690B
330
1A
100
AcDbEntity
  8
ZISSEN1
 48
0.5
100
AcDbLine
 10
-1104.540031864022
 20
1847.401627197785
 30
0.0
 11
-1151.540031864022
 21
1847.401627197785
 31
0.0
  0
LINE
  5
1690C
330
1A
100
AcDbEntity
  8
ZISSEN1
 48
0.5
100
AcDbLine
 10
-1148.540031864022
 20
1717.401627197785
 30
0.0
 11
-1107.540031864022
 21
1717.401627197785
 31
0.0
  0
LINE
  5
16917
330
1A
100
AcDbEntity
  8
ZISSEN1
 48
0.5
100
AcDbLine
 10
-1153.040031864022
 20
1845.901627197785
 30
0.0
 11
-1153.040031864022
 21
1720.901627197785
 31
0.0
  0
LINE
  5
16918
330
1A
100
AcDbEntity
  8
ZISSEN1
 48
0.5
100
AcDbLine
 10
-1216.540031864022
 20
1720.901627197785
 30
0.0
 11
-1216.540031864022
 21
1847.401627197785
 31
0.0
  0
LINE
  5
16919
330
1A
100
AcDbEntity
  8
ZISSEN1
 48
0.5
100
AcDbLine
 10
-1153.040031864003
 20
1845.901627197793
 30
0.0
 11
-1153.040031864022
 21
1721.901627197785
 31
0.0
  0
LINE
  5
1691A
330
1A
100
AcDbEntity
  8
ZISSEN1
 48
0.5
100
AcDbLine
 10
-1216.540031864022
 20
1720.401627197785
 30
0.0
 11
-1216.540031864022
 21
1846.401627197785
 31
0.0
  0
LINE
  5
1691B
330
1A
100
AcDbEntity
  8
ZISSEN1
 48
0.5
100
AcDbLine
 10
-1204.740031864022
 20
1779.351627197785
 30
0.0
 11
-1204.740031864022
 21
1724.451627197785
 31
0.0
  0
LWPOLYLINE
  5
1691C
330
1A
100
AcDbEntity
  8
ZISSEN1
 48
0.5
100
AcDbPolyline
 90
        4
 70
     1
 43
0.0
 10
-1206.440031864022
 20
1779.351627197785
 10
-1206.440031864022
 20
1724.451627197785
 10
-1203.940031864022
 20
1724.451627197785
 10
-1203.940031864022
 20
1779.351627197785
  0
LINE
  5
1691D
330
1A
100
AcDbEntity
  8
ZISSEN1
 48
0.5
100
AcDbLine
 10
-1212.740031864022
 20
1733.501627197785
 30
0.0
 11
-1212.740031864022
 21
1739.821627197786
 31
0.0
  0
LINE
  5
1691E
330
1A
100
AcDbEntity
  8
ZISSEN1
 48
0.5
100
AcDbLine
 10
-1212.140031864022
 20
1739.821627197786
 30
0.0
 11
-1212.140031864022
 21
1733.501627197785
 31
0.0
  0
DIMENSION
  5
16921
330
1A
100
AcDbEntity
  8
ZISSEN1
 48
0.5
100
AcDbDimension
  2
*D85
 10
-1202.540031864022
 20
1706.901627197785
 30
0.0
 11
-1209.540031864022
 21
1709.651627197786
 31
0.0
 70
    32
  3
標準スタイル
100
AcDbAlignedDimension
 13
-1216.540031864022
 23
1720.401627197785
 33
0.0
 14
-1202.540031864022
 24
1717.401627197785
 34
0.0
100
AcDbRotatedDimension
1001
ACAD
1000
DSTYLE
1002
{
1070
   340
1005
10
1070
    40
1040
1.0
1002
}
  0
LWPOLYLINE
  5
16922
330
1A
100
AcDbEntity
  8
ZISSEN1
 48
0.5
100
AcDbPolyline
 90
        4
 70
     1
 43
0.0
 10
-1216.540031864022
 20
1725.881627197785
 10
-1216.540031864022
 20
1724.581627197785
 10
-1204.740031864022
 20
1724.581627197785
 10
-1204.740031864022
 20
1725.881627197785
  0
LWPOLYLINE
  5
16923
330
1A
100
AcDbEntity
  8
ZISSEN1
 48
0.5
100
AcDbPolyline
 90
        4
 70
     1
 43
0.0
 10
-1216.540031864022
 20
1733.501627197785
 10
-1216.540031864022
 20
1732.201627197786
 10
-1204.740031864022
 20
1732.201627197786
 10
-1204.740031864022
 20
1733.501627197785
  0
LINE
  5
16924
330
1A
100
AcDbEntity
  8
ZISSEN1
 48
0.5
100
AcDbLine
 10
-1216.540031864022
 20
1724.451627197785
 30
0.0
 11
-1212.740031864022
 21
1724.451627197785
 31
0.0
  0
LINE
  5
16925
330
1A
100
AcDbEntity
  8
ZISSEN1
 48
0.5
100
AcDbLine
 10
-1230.540031864022
 20
1720.401627197785
 30
0.0
 11
-1230.540031864022
 21
1720.901627197785
 31
0.0
  0
LINE
  5
16926
330
1A
100
AcDbEntity
  8
ZISSEN1
 48
0.5
100
AcDbLine
 10
-1202.540031864022
 20
1720.401627197785
 30
0.0
 11
-1202.540031864022
 21
1717.401627197785
 31
0.0
  0
LINE
  5
16927
330
1A
100
AcDbEntity
  8
ZISSEN1
 48
0.5
100
AcDbLine
 10
-1204.540031864022
 20
1720.401627197785
 30
0.0
 11
-1204.540031864022
 21
1717.401627197785
 31
0.0
  0
LINE
  5
16928
330
1A
100
AcDbEntity
  8
ZISSEN1
 48
0.5
100
AcDbLine
 10
-1212.740031864022
 20
1724.581627197785
 30
0.0
 11
-1212.740031864022
 21
1724.451627197785
 31
0.0
  0
LINE
  5
16929
330
1A
100
AcDbEntity
  8
ZISSEN1
 48
0.5
100
AcDbLine
 10
-1212.740031864022
 20
1725.881627197785
 30
0.0
 11
-1212.740031864022
 21
1732.201627197786
 31
0.0
  0
LINE
  5
1692A
330
1A
100
AcDbEntity
  8
ZISSEN1
 48
0.5
100
AcDbLine
 10
-1212.140031864022
 20
1732.201627197786
 30
0.0
 11
-1212.140031864022
 21
1725.881627197785
 31
0.0
  0
CIRCLE
  5
1692F
330
1A
100
AcDbEntity
  8
ZISSEN1
 48
0.5
100
AcDbCircle
 10
-1247.540031864022
 20
1740.401627197786
 30
0.0
 40
3.149999999999999
  0
ARC
  5
16930
330
1A
100
AcDbEntity
  8
ZISSEN1
 48
0.5
100
AcDbCircle
 10
-1248.583384774245
 20
1739.79924711521
 30
0.0
 40
2.045527639136289
100
AcDbArc
 50
198.68080412315
 51
221.3191958768264
  0
LINE
  5
16931
330
1A
100
AcDbEntity
  8
ZISSEN1
 48
0.5
100
AcDbLine
 10
-1250.449102668086
 20
1739.193402448206
 30
0.0
 11
-1250.521149189817
 21
1739.144073556358
 31
0.0
  0
LINE
  5
16932
330
1A
100
AcDbEntity
  8
ZISSEN1
 48
0.5
100
AcDbLine
 10
-1250.040920593505
 20
1738.486410356364
 30
0.0
 11
-1250.119663927884
 21
1738.448680684199
 31
0.0
  0
ARC
  5
16933
330
1A
100
AcDbEntity
  8
ZISSEN1
 48
0.5
100
AcDbCircle
 10
-1248.744792031304
 20
1740.401627198854
 30
0.0
 40
2.045527639136289
100
AcDbArc
 50
168.6808041231594
 51
191.3191958768404
  0
LINE
  5
16934
330
1A
100
AcDbEntity
  8
ZISSEN1
 48
0.5
100
AcDbLine
 10
-1250.663473457167
 20
1740.809809273403
 30
0.0
 11
-1250.750532021164
 21
1740.803112460788
 31
0.0
  0
LINE
  5
16935
330
1A
100
AcDbEntity
  8
ZISSEN1
 48
0.5
100
AcDbLine
 10
-1250.663473457131
 20
1739.993445124303
 30
0.0
 11
-1250.750532021164
 21
1740.000141936921
 31
0.0
  0
ARC
  5
16936
330
1A
100
AcDbEntity
  8
ZISSEN1
 48
0.5
100
AcDbCircle
 10
-1248.583384774447
 20
1741.004007282555
 30
0.0
 40
2.045527639136289
100
AcDbArc
 50
138.6808041231735
 51
161.3191958768499
  0
LINE
  5
16937
330
1A
100
AcDbEntity
  8
ZISSEN1
 48
0.5
100
AcDbLine
 10
-1250.040920593739
 20
1742.316844041415
 30
0.0
 11
-1250.119663928086
 21
1742.354573713563
 31
0.0
  0
LINE
  5
16938
330
1A
100
AcDbEntity
  8
ZISSEN1
 48
0.5
100
AcDbLine
 10
-1250.449102668259
 20
1741.609851949536
 30
0.0
 11
-1250.521149190019
 21
1741.659180841404
 31
0.0
  0
ARC
  5
16939
330
1A
100
AcDbEntity
  8
ZISSEN1
 48
0.5
100
AcDbCircle
 10
-1246.937651780459
 20
1741.444980109547
 30
0.0
 40
2.045527639136289
100
AcDbArc
 50
48.68080412317357
 51
71.31919587684992
  0
LINE
  5
1693A
330
1A
100
AcDbEntity
  8
ZISSEN1
 48
0.5
100
AcDbLine
 10
-1245.6248150216
 20
1742.90251592884
 30
0.0
 11
-1245.587085349451
 21
1742.981259263186
 31
0.0
  0
LINE
  5
1693B
330
1A
100
AcDbEntity
  8
ZISSEN1
 48
0.5
100
AcDbLine
 10
-1246.331807113478
 20
1743.310698003359
 30
0.0
 11
-1246.282478221609
 21
1743.382744525119
 31
0.0
  0
ARC
  5
1693C
330
1A
100
AcDbEntity
  8
ZISSEN1
 48
0.5
100
AcDbCircle
 10
-1246.496678953669
 20
1741.004007282905
 30
0.0
 40
2.045527639136289
100
AcDbArc
 50
18.68080412315007
 51
41.31919587682643
  0
LINE
  5
1693D
330
1A
100
AcDbEntity
  8
ZISSEN1
 48
0.5
100
AcDbLine
 10
-1244.630961059829
 20
1741.609851949908
 30
0.0
 11
-1244.558914538099
 21
1741.659180841755
 31
0.0
  0
LINE
  5
1693E
330
1A
100
AcDbEntity
  8
ZISSEN1
 48
0.5
100
AcDbLine
 10
-1245.039143134411
 20
1742.31684404175
 30
0.0
 11
-1244.960399800033
 21
1742.354573713914
 31
0.0
  0
ARC
  5
1693F
330
1A
100
AcDbEntity
  8
ZISSEN1
 48
0.5
100
AcDbCircle
 10
-1246.335271696611
 20
1740.401627199259
 30
0.0
 40
2.045527639136289
100
AcDbArc
 50
348.6808041231594
 51
11.31919587684051
  0
LINE
  5
16940
330
1A
100
AcDbEntity
  8
ZISSEN1
 48
0.5
100
AcDbLine
 10
-1244.416590270748
 20
1739.993445124711
 30
0.0
 11
-1244.329531706752
 21
1740.000141937326
 31
0.0
  0
LINE
  5
16941
330
1A
100
AcDbEntity
  8
ZISSEN1
 48
0.5
100
AcDbLine
 10
-1244.416590270785
 20
1740.809809273812
 30
0.0
 11
-1244.329531706752
 21
1740.803112461193
 31
0.0
  0
ARC
  5
16942
330
1A
100
AcDbEntity
  8
ZISSEN1
 48
0.5
100
AcDbCircle
 10
-1246.496678953466
 20
1739.799247115559
 30
0.0
 40
2.045527639136289
100
AcDbArc
 50
318.6808041231735
 51
341.3191958768499
  0
LINE
  5
16943
330
1A
100
AcDbEntity
  8
ZISSEN1
 48
0.5
100
AcDbLine
 10
-1245.039143134174
 20
1738.486410356698
 30
0.0
 11
-1244.960399799829
 21
1738.44868068455
 31
0.0
  0
LINE
  5
16944
330
1A
100
AcDbEntity
  8
ZISSEN1
 48
0.5
100
AcDbLine
 10
-1244.630961059656
 20
1739.193402448578
 30
0.0
 11
-1244.558914537895
 21
1739.144073556709
 31
0.0
  0
ARC
  5
16945
330
1A
100
AcDbEntity
  8
ZISSEN1
 48
0.5
100
AcDbCircle
 10
-1246.937651780108
 20
1739.358274288768
 30
0.0
 40
2.045527639136289
100
AcDbArc
 50
288.6808041231501
 51
311.3191958768729
  0
LINE
  5
16946
330
1A
100
AcDbEntity
  8
ZISSEN1
 48
0.5
100
AcDbLine
 10
-1246.331807113106
 20
1737.492556394927
 30
0.0
 11
-1246.282478221259
 21
1737.420509873196
 31
0.0
  0
LINE
  5
16947
330
1A
100
AcDbEntity
  8
ZISSEN1
 48
0.5
100
AcDbLine
 10
-1245.624815021265
 20
1737.900738469508
 30
0.0
 11
-1245.5870853491
 21
1737.82199513513
 31
0.0
  0
ARC
  5
16948
330
1A
100
AcDbEntity
  8
ZISSEN1
 48
0.5
100
AcDbCircle
 10
-1247.540031863755
 20
1739.19686703171
 30
0.0
 40
2.045527639136289
100
AcDbArc
 50
258.6808041231595
 51
281.3191958768405
  0
LINE
  5
16949
330
1A
100
AcDbEntity
  8
ZISSEN1
 48
0.5
100
AcDbLine
 10
-1247.948213938304
 20
1737.278185605847
 30
0.0
 11
-1247.94151712569
 21
1737.191127041851
 31
0.0
  0
LINE
  5
1694A
330
1A
100
AcDbEntity
  8
ZISSEN1
 48
0.5
100
AcDbLine
 10
-1247.131849789204
 20
1737.278185605884
 30
0.0
 11
-1247.138546601822
 21
1737.191127041851
 31
0.0
  0
ARC
  5
1694B
330
1A
100
AcDbEntity
  8
ZISSEN1
 48
0.5
100
AcDbCircle
 10
-1248.142411947456
 20
1739.358274288566
 30
0.0
 40
2.045527639136289
100
AcDbArc
 50
228.6808041231735
 51
251.3191958768499
  0
LINE
  5
1694C
330
1A
100
AcDbEntity
  8
ZISSEN1
 48
0.5
100
AcDbLine
 10
-1249.455248706315
 20
1737.900738469274
 30
0.0
 11
-1249.492978378464
 21
1737.821995134928
 31
0.0
  0
LINE
  5
1694D
330
1A
100
AcDbEntity
  8
ZISSEN1
 48
0.5
100
AcDbLine
 10
-1248.748256614437
 20
1737.492556394755
 30
0.0
 11
-1248.797585506305
 21
1737.420509872994
 31
0.0
  0
ARC
  5
1694E
330
1A
100
AcDbEntity
  8
ZISSEN1
 48
0.5
100
AcDbCircle
 10
-1248.142411947805
 20
1741.444980109345
 30
0.0
 40
2.045527639136289
100
AcDbArc
 50
108.68080412315
 51
131.3191958768729
  0
LINE
  5
1694F
330
1A
100
AcDbEntity
  8
ZISSEN1
 48
0.5
100
AcDbLine
 10
-1248.748256614808
 20
1743.310698003186
 30
0.0
 11
-1248.797585506656
 21
1743.382744524916
 31
0.0
  0
LINE
  5
16950
330
1A
100
AcDbEntity
  8
ZISSEN1
 48
0.5
100
AcDbLine
 10
-1249.45524870665
 20
1742.902515928604
 30
0.0
 11
-1249.492978378816
 21
1742.981259262982
 31
0.0
  0
ARC
  5
16951
330
1A
100
AcDbEntity
  8
ZISSEN1
 48
0.5
100
AcDbCircle
 10
-1247.54003186416
 20
1741.606387366403
 30
0.0
 40
2.045527639136289
100
AcDbArc
 50
78.68080412315949
 51
101.3191958768405
  0
LINE
  5
16952
330
1A
100
AcDbEntity
  8
ZISSEN1
 48
0.5
100
AcDbLine
 10
-1247.131849789612
 20
1743.525068792266
 30
0.0
 11
-1247.138546602227
 21
1743.612127356262
 31
0.0
  0
LINE
  5
16953
330
1A
100
AcDbEntity
  8
ZISSEN1
 48
0.5
100
AcDbLine
 10
-1247.948213938712
 20
1743.525068792229
 30
0.0
 11
-1247.941517126093
 21
1743.612127356262
 31
0.0
  0
LINE
  5
16960
330
1A
100
AcDbEntity
  8
ZISSEN1
 48
0.5
100
AcDbLine
 10
-1212.740031864022
 20
1756.361627197785
 30
0.0
 11
-1212.740031864022
 21
1762.681627197785
 31
0.0
  0
LINE
  5
16961
330
1A
100
AcDbEntity
  8
ZISSEN1
 48
0.5
100
AcDbLine
 10
-1212.140031864022
 20
1762.681627197785
 30
0.0
 11
-1212.140031864022
 21
1756.361627197785
 31
0.0
  0
LWPOLYLINE
  5
16964
330
1A
100
AcDbEntity
  8
ZISSEN1
 48
0.5
100
AcDbPolyline
 90
        4
 70
     1
 43
0.0
 10
-1216.540031864022
 20
1741.121627197785
 10
-1216.540031864022
 20
1739.821627197786
 10
-1204.740031864022
 20
1739.821627197786
 10
-1204.740031864022
 20
1741.121627197785
  0
LWPOLYLINE
  5
16965
330
1A
100
AcDbEntity
  8
ZISSEN1
 48
0.5
100
AcDbPolyline
 90
        4
 70
     1
 43
0.0
 10
-1216.540031864022
 20
1748.741627197786
 10
-1216.540031864022
 20
1747.441627197785
 10
-1204.740031864022
 20
1747.441627197785
 10
-1204.740031864022
 20
1748.741627197786
  0
LWPOLYLINE
  5
16966
330
1A
100
AcDbEntity
  8
ZISSEN1
 48
0.5
100
AcDbPolyline
 90
        4
 70
     1
 43
0.0
 10
-1216.540031864022
 20
1756.361627197785
 10
-1216.540031864022
 20
1755.061627197785
 10
-1204.740031864022
 20
1755.061627197785
 10
-1204.740031864022
 20
1756.361627197785
  0
LINE
  5
16967
330
1A
100
AcDbEntity
  8
ZISSEN1
 48
0.5
100
AcDbLine
 10
-1212.740031864022
 20
1741.121627197785
 30
0.0
 11
-1212.740031864022
 21
1747.441627197785
 31
0.0
  0
LINE
  5
16968
330
1A
100
AcDbEntity
  8
ZISSEN1
 48
0.5
100
AcDbLine
 10
-1212.140031864022
 20
1747.441627197785
 30
0.0
 11
-1212.140031864022
 21
1741.121627197785
 31
0.0
  0
LINE
  5
1696B
330
1A
100
AcDbEntity
  8
ZISSEN1
 48
0.5
100
AcDbLine
 10
-1212.740031864022
 20
1748.741627197786
 30
0.0
 11
-1212.740031864022
 21
1755.061627197785
 31
0.0
  0
LINE
  5
1696C
330
1A
100
AcDbEntity
  8
ZISSEN1
 48
0.5
100
AcDbLine
 10
-1212.140031864022
 20
1755.061627197785
 30
0.0
 11
-1212.140031864022
 21
1748.741627197786
 31
0.0
  0
LWPOLYLINE
  5
1696F
330
1A
100
AcDbEntity
  8
ZISSEN1
 48
0.5
100
AcDbPolyline
 90
        4
 70
     1
 43
0.0
 10
-1216.540031864022
 20
1763.981627197785
 10
-1216.540031864022
 20
1762.681627197785
 10
-1204.740031864022
 20
1762.681627197785
 10
-1204.740031864022
 20
1763.981627197785
  0
LWPOLYLINE
  5
16970
330
1A
100
AcDbEntity
  8
ZISSEN1
 48
0.5
100
AcDbPolyline
 90
        4
 70
     1
 43
0.0
 10
-1216.540031864022
 20
1771.601627197785
 10
-1216.540031864022
 20
1770.301627197786
 10
-1204.740031864022
 20
1770.301627197786
 10
-1204.740031864022
 20
1771.601627197785
  0
LWPOLYLINE
  5
16971
330
1A
100
AcDbEntity
  8
ZISSEN1
 48
0.5
100
AcDbPolyline
 90
        4
 70
     1
 43
0.0
 10
-1216.540031864022
 20
1779.221627197785
 10
-1216.540031864022
 20
1777.921627197786
 10
-1204.740031864022
 20
1777.921627197786
 10
-1204.740031864022
 20
1779.221627197785
  0
LINE
  5
16972
330
1A
100
AcDbEntity
  8
ZISSEN1
 48
0.5
100
AcDbLine
 10
-1212.740031864022
 20
1779.351627197785
 30
0.0
 11
-1216.540031864022
 21
1779.351627197785
 31
0.0
  0
LINE
  5
16973
330
1A
100
AcDbEntity
  8
ZISSEN1
 48
0.5
100
AcDbLine
 10
-1212.740031864022
 20
1763.981627197785
 30
0.0
 11
-1212.740031864022
 21
1770.301627197786
 31
0.0
  0
LINE
  5
16974
330
1A
100
AcDbEntity
  8
ZISSEN1
 48
0.5
100
AcDbLine
 10
-1212.140031864022
 20
1770.301627197786
 30
0.0
 11
-1212.140031864022
 21
1763.981627197785
 31
0.0
  0
LINE
  5
16977
330
1A
100
AcDbEntity
  8
ZISSEN1
 48
0.5
100
AcDbLine
 10
-1212.740031864022
 20
1771.601627197785
 30
0.0
 11
-1212.740031864022
 21
1777.921627197786
 31
0.0
  0
LINE
  5
16978
330
1A
100
AcDbEntity
  8
ZISSEN1
 48
0.5
100
AcDbLine
 10
-1212.140031864022
 20
1777.921627197786
 30
0.0
 11
-1212.140031864022
 21
1771.601627197785
 31
0.0
  0
LINE
  5
16979
330
1A
100
AcDbEntity
  8
ZISSEN1
 48
0.5
100
AcDbLine
 10
-1212.740031864022
 20
1779.351627197785
 30
0.0
 11
-1212.740031864022
 21
1779.221627197785
 31
0.0
  0
LINE
  5
1697E
330
1A
100
AcDbEntity
  8
ZISSEN1
 48
0.5
100
AcDbLine
 10
-1147.540031864022
 20
1720.401627197785
 30
0.0
 11
-1148.540031864022
 21
1720.401627197785
 31
0.0
  0
LINE
  5
16982
330
1A
100
AcDbEntity
  8
ZISSEN1
 48
0.5
100
AcDbLine
 10
-1148.540031864022
 20
1720.401627197785
 30
0.0
 11
-1148.540031864022
 21
1720.901627197785
 31
0.0
  0
LINE
  5
16983
330
1A
100
AcDbEntity
  8
ZISSEN1
 48
0.5
100
AcDbLine
 10
-1151.540031864022
 20
1720.401627197785
 30
0.0
 11
-1151.540031864022
 21
1720.901627197785
 31
0.0
  0
LINE
  5
16984
330
1A
100
AcDbEntity
  8
ZISSEN1
 48
0.5
100
AcDbLine
 10
-1151.340031864022
 20
1720.901627197785
 30
0.0
 11
-1151.840031864022
 21
1720.901627197785
 31
0.0
  0
ARC
  5
16985
330
1A
100
AcDbEntity
  8
ZISSEN1
 48
0.5
100
AcDbCircle
 10
-1148.540031864022
 20
1720.401627197785
 30
0.0
 40
3.0
100
AcDbArc
 50
180.0
 51
270.0
  0
LWPOLYLINE
  5
16986
330
1A
100
AcDbEntity
  8
ZISSEN1
 48
0.5
100
AcDbPolyline
 90
        4
 70
     1
 43
0.0
 10
-1140.290031864022
 20
1717.401627197785
 10
-1135.790031864022
 20
1717.401627197785
 10
-1135.790031864022
 20
1720.401627197785
 10
-1140.290031864022
 20
1720.401627197785
  0
LINE
  5
16987
330
1A
100
AcDbEntity
  8
ZISSEN1
 48
0.5
100
AcDbLine
 10
-1145.540031864022
 20
1717.401627197785
 30
0.0
 11
-1145.540031864022
 21
1720.401627197785
 31
0.0
  0
LINE
  5
16988
330
1A
100
AcDbEntity
  8
ZISSEN1
 48
0.5
100
AcDbLine
 10
-1147.540031864022
 20
1717.401627197785
 30
0.0
 11
-1147.540031864022
 21
1720.401627197785
 31
0.0
  0
LINE
  5
1698F
330
1A
100
AcDbEntity
  8
ZISSEN1
 48
0.5
100
AcDbLine
 10
-1153.940031864019
 20
1743.5516271978
 30
0.0
 11
-1153.940031864019
 21
1737.251627197801
 31
0.0
  0
ARC
  5
16990
330
1A
100
AcDbEntity
  8
ZISSEN1
 48
0.5
100
AcDbCircle
 10
-1150.765402875421
 20
1740.4016271978
 30
0.0
 40
5.174628988598421
100
AcDbArc
 50
143.7083018726678
 51
216.2916981273321
  0
LINE
  5
16991
330
1A
100
AcDbEntity
  8
ZISSEN1
 48
0.5
100
AcDbLine
 10
-1153.940031864019
 20
1743.551627197801
 30
0.0
 11
-1154.936226562111
 21
1743.464471455053
 31
0.0
  0
LINE
  5
16992
330
1A
100
AcDbEntity
  8
ZISSEN1
 48
0.5
100
AcDbLine
 10
-1153.940031864019
 20
1737.251627197801
 30
0.0
 11
-1154.936226562111
 21
1737.338782940548
 31
0.0
  0
LINE
  5
16993
330
1A
100
AcDbEntity
  8
ZISSEN1
 48
0.5
100
AcDbLine
 10
-1153.940031864019
 20
1737.251627197801
 30
0.0
 11
-1153.940031864019
 21
1743.551627197801
 31
0.0
  0
LINE
  5
16994
330
1A
100
AcDbEntity
  8
ZISSEN1
 48
0.5
100
AcDbLine
 10
-1153.04003186402
 20
1743.551627197803
 30
0.0
 11
-1153.04003186402
 21
1737.251627197804
 31
0.0
  0
ARC
  5
16995
330
1A
100
AcDbEntity
  8
ZISSEN1
 48
0.5
100
AcDbCircle
 10
-1149.865402875421
 20
1740.401627197804
 30
0.0
 40
5.174628988598421
100
AcDbArc
 50
143.7083018726678
 51
216.2916981273321
  0
LINE
  5
16996
330
1A
100
AcDbEntity
  8
ZISSEN1
 48
0.5
100
AcDbLine
 10
-1153.04003186402
 20
1743.551627197804
 30
0.0
 11
-1154.036226562112
 21
1743.464471455056
 31
0.0
  0
LINE
  5
16997
330
1A
100
AcDbEntity
  8
ZISSEN1
 48
0.5
100
AcDbLine
 10
-1153.04003186402
 20
1737.251627197804
 30
0.0
 11
-1154.036226562112
 21
1737.338782940551
 31
0.0
  0
LINE
  5
16998
330
1A
100
AcDbEntity
  8
ZISSEN1
 48
0.5
100
AcDbLine
 10
-1153.04003186402
 20
1737.251627197804
 30
0.0
 11
-1153.04003186402
 21
1743.551627197804
 31
0.0
  0
LINE
  5
16999
330
1A
100
AcDbEntity
  8
ZISSEN1
 48
0.5
100
AcDbLine
 10
-1153.040031864019
 20
1737.851627197801
 30
0.0
 11
-1153.740031864018
 21
1737.151627197802
 31
0.0
  0
LINE
  5
1699A
330
1A
100
AcDbEntity
  8
ZISSEN1
 48
0.5
100
AcDbLine
 10
-1153.040031864019
 20
1738.851627197801
 30
0.0
 11
-1153.940031864019
 21
1737.951627197801
 31
0.0
  0
LINE
  5
1699B
330
1A
100
AcDbEntity
  8
ZISSEN1
 48
0.5
100
AcDbLine
 10
-1153.040031864019
 20
1739.851627197801
 30
0.0
 11
-1153.940031864019
 21
1738.951627197801
 31
0.0
  0
LINE
  5
1699C
330
1A
100
AcDbEntity
  8
ZISSEN1
 48
0.5
100
AcDbLine
 10
-1153.240031864019
 20
1743.651627197801
 30
0.0
 11
-1153.940031864019
 21
1742.951627197801
 31
0.0
  0
LINE
  5
1699D
330
1A
100
AcDbEntity
  8
ZISSEN1
 48
0.5
100
AcDbLine
 10
-1153.040031864019
 20
1742.851627197802
 30
0.0
 11
-1153.940031864019
 21
1741.951627197801
 31
0.0
  0
LINE
  5
1699E
330
1A
100
AcDbEntity
  8
ZISSEN1
 48
0.5
100
AcDbLine
 10
-1153.040031864019
 20
1741.851627197801
 30
0.0
 11
-1153.940031864019
 21
1740.951627197801
 31
0.0
  0
LINE
  5
1699F
330
1A
100
AcDbEntity
  8
ZISSEN1
 48
0.5
100
AcDbLine
 10
-1153.040031864019
 20
1740.851627197801
 30
0.0
 11
-1153.940031864019
 21
1739.951627197801
 31
0.0
  0
LWPOLYLINE
  5
169A0
330
1A
100
AcDbEntity
  8
ZISSEN1
 48
0.5
100
AcDbPolyline
 90
        4
 70
     1
 43
0.0
 10
-1153.715031864019
 20
1740.803112459599
 10
-1153.715031864019
 20
1740.803112459599
 10
-1153.715031864019
 20
1740.000141935731
 10
-1153.715031864019
 20
1740.000141935731
  0
LWPOLYLINE
  5
169A1
330
1A
100
AcDbEntity
  8
ZISSEN1
 48
0.5
100
AcDbPolyline
 90
        4
 70
     1
 43
0.0
 10
-1153.715031864019
 20
1737.151627197802
 10
-1153.265031864019
 20
1737.151627197802
 10
-1153.265031864019
 20
1743.651627197801
 10
-1153.715031864019
 20
1743.651627197801
  0
LWPOLYLINE
  5
169A2
330
1A
100
AcDbEntity
  8
ZISSEN1
 48
0.5
100
AcDbPolyline
 90
        4
 70
     1
 43
0.0
 10
-1153.940031864019
 20
1737.151627197802
 10
-1153.040031864019
 20
1737.151627197802
 10
-1153.040031864019
 20
1743.651627197801
 10
-1153.940031864019
 20
1743.651627197801
  0
LINE
  5
169CE
330
1A
100
AcDbEntity
  8
ZISSEN1
 48
0.5
100
AcDbLine
 10
-1213.790031864022
 20
1841.601627197785
 30
0.0
 11
-1213.790031864022
 21
1819.201627197786
 31
0.0
  0
LINE
  5
169DD
330
1A
100
AcDbEntity
  8
ZISSEN1
 48
0.5
100
AcDbLine
 10
-1213.790031864022
 20
1819.201627197786
 30
0.0
 11
-1216.540031864022
 21
1819.201627197786
 31
0.0
  0
LINE
  5
169FA
330
1A
100
AcDbEntity
  8
ZISSEN1
 48
0.5
100
AcDbLine
 10
-1216.540031864022
 20
1841.601627197785
 30
0.0
 11
-1213.790031864022
 21
1841.601627197785
 31
0.0
  0
ARC
  5
16A03
330
1A
100
AcDbEntity
  8
ZISSEN1
 48
0.5
100
AcDbCircle
 10
-1218.540031864022
 20
1847.401627197785
 30
0.0
 40
1.5
100
AcDbArc
 50
179.9999999999869
 51
270.0
  0
LINE
  5
16A04
330
1A
100
AcDbEntity
  8
ZISSEN1
 48
0.5
100
AcDbLine
 10
-1216.540031864022
 20
1845.901627197785
 30
0.0
 11
-1218.540031864022
 21
1845.901627197785
 31
0.0
  0
LINE
  5
16A05
330
1A
100
AcDbEntity
  8
ZISSEN1
 48
0.5
100
AcDbLine
 10
-1218.040031864022
 20
1847.401627197785
 30
0.0
 11
-1218.040031864022
 21
1845.901627197785
 31
0.0
  0
LINE
  5
16A09
330
1A
100
AcDbEntity
  8
ZISSEN1
 48
0.5
100
AcDbLine
 10
-1151.940031864022
 20
1847.401627197785
 30
0.0
 11
-1152.013255168726
 21
1847.328403893082
 31
0.0
  0
LINE
  5
16A0B
330
1A
100
AcDbEntity
  8
ZISSEN1
 48
0.5
100
AcDbLine
 10
-1152.793585254616
 20
1846.548073807192
 30
0.0
 11
-1152.940031864022
 21
1846.401627197785
 31
0.0
  0
LINE
  5
16A0C
330
1A
100
AcDbEntity
  8
ZISSEN1
 48
0.5
100
AcDbLine
 10
-1151.940031864022
 20
1847.401627197785
 30
0.0
 11
-1152.086478473429
 21
1847.255180588379
 31
0.0
  0
ARC
  5
16A0D
330
1A
100
AcDbEntity
  8
ZISSEN1
 48
0.5
100
AcDbCircle
 10
-1153.040031864003
 20
1847.401627197766
 30
0.0
 40
1.49999999997334
100
AcDbArc
 50
269.9999999992704
 51
0.0000000007295429
  0
ARC
  5
16A0E
330
1A
100
AcDbEntity
  8
ZISSEN1
 48
0.5
100
AcDbCircle
 10
-1151.540031864022
 20
1845.901627197785
 30
0.0
 40
1.500000000000113
100
AcDbArc
 50
89.99999999970036
 51
179.9999999997003
  0
LINE
  5
16A15
330
1A
100
AcDbEntity
  8
ZISSEN1
 48
0.5
100
AcDbLine
 10
-1108.040031864022
 20
1721.901627197785
 30
0.0
 11
-1108.040031864022
 21
1847.401627197785
 31
0.0
  0
LINE
  5
16A16
330
1A
100
AcDbEntity
  8
ZISSEN1
 48
0.5
100
AcDbLine
 10
-1107.540031864022
 20
1847.401627197785
 30
0.0
 11
-1107.540031864022
 21
1720.401627197785
 31
0.0
  0
LINE
  5
16A17
330
1A
100
AcDbEntity
  8
ZISSEN1
 48
0.5
100
AcDbLine
 10
-1104.540031864022
 20
1720.401627197785
 30
0.0
 11
-1104.540031864022
 21
1847.401627197785
 31
0.0
  0
LINE
  5
16A19
330
1A
100
AcDbEntity
  8
ZISSEN1
 48
0.5
100
AcDbLine
 10
-1113.840031864022
 20
1723.401627197785
 30
0.0
 11
-1113.840031864022
 21
1780.401627197785
 31
0.0
  0
LINE
  5
16A1A
330
1A
100
AcDbEntity
  8
ZISSEN1
 48
0.5
100
AcDbLine
 10
-1115.440031864025
 20
1780.401627197785
 30
0.0
 11
-1115.440031864027
 21
1723.401627197785
 31
0.0
  0
CIRCLE
  5
16A1F
330
1A
100
AcDbEntity
  8
ZISSEN1
 48
0.5
100
AcDbCircle
 10
-1121.440031864025
 20
1736.661627197785
 30
0.0
 40
2.75
  0
LWPOLYLINE
  5
16A20
330
1A
100
AcDbEntity
  8
ZISSEN1
 48
0.5
100
AcDbPolyline
 90
        4
 70
     1
 43
0.0
 10
-1115.440031864025
 20
1724.451627197785
 10
-1115.440031864025
 20
1779.351627197785
 10
-1127.440031864024
 20
1779.351627197785
 10
-1127.440031864024
 20
1724.451627197785
  0
LWPOLYLINE
  5
16A21
330
1A
100
AcDbEntity
  8
ZISSEN1
 48
0.5
100
AcDbPolyline
 90
        4
 70
     1
 43
0.0
 10
-1127.640031864022
 20
1723.401627197785
 10
-1113.640031864022
 20
1723.401627197785
 10
-1113.640031864022
 20
1780.401627197785
 10
-1127.640031864022
 20
1780.401627197785
  0
LINE
  5
16A22
330
1A
100
AcDbEntity
  8
ZISSEN1
 48
0.5
100
AcDbLine
 10
-1113.840031864022
 20
1724.401627197786
 30
0.0
 11
-1115.440031864022
 21
1724.401627197786
 31
0.0
  0
LINE
  5
16A23
330
1A
100
AcDbEntity
  8
ZISSEN1
 48
0.5
100
AcDbLine
 10
-1113.840031864022
 20
1725.401627197785
 30
0.0
 11
-1115.440031864022
 21
1725.401627197785
 31
0.0
  0
LWPOLYLINE
  5
16A25
330
1A
100
AcDbEntity
  8
ZISSEN1
 48
0.5
100
AcDbPolyline
 90
        4
 70
     1
 43
0.0
 10
-1115.440031864025
 20
1732.201627197786
 10
-1115.440031864025
 20
1733.501627197785
 10
-1127.440031864024
 20
1733.501627197785
 10
-1127.440031864024
 20
1732.201627197786
  0
LWPOLYLINE
  5
16A26
330
1A
100
AcDbEntity
  8
ZISSEN1
 48
0.5
100
AcDbPolyline
 90
        4
 70
     1
 43
0.0
 10
-1115.440031864025
 20
1724.581627197785
 10
-1115.440031864025
 20
1725.881627197785
 10
-1127.440031864024
 20
1725.881627197785
 10
-1127.440031864024
 20
1724.581627197785
  0
CIRCLE
  5
16A29
330
1A
100
AcDbEntity
  8
ZISSEN1
 48
0.5
100
AcDbCircle
 10
-1121.440031864025
 20
1729.041627197785
 30
0.0
 40
2.75
  0
ARC
  5
16A47
330
1A
100
AcDbEntity
  8
ZISSEN1
 48
0.5
100
AcDbCircle
 10
-1107.540031864022
 20
1720.401627197785
 30
0.0
 40
3.0
100
AcDbArc
 50
270.0
 51
0.0
  0
LINE
  5
16A48
330
1A
100
AcDbEntity
  8
ZISSEN1
 48
0.5
100
AcDbLine
 10
-1108.540031864022
 20
1720.401627197785
 30
0.0
 11
-1108.540031864022
 21
1717.401627197785
 31
0.0
  0
LINE
  5
16A49
330
1A
100
AcDbEntity
  8
ZISSEN1
 48
0.5
100
AcDbLine
 10
-1109.040031864022
 20
1720.901627197785
 30
0.0
 11
-1108.040031864022
 21
1721.901627197785
 31
0.0
  0
LINE
  5
16A4A
330
1A
100
AcDbEntity
  8
ZISSEN1
 48
0.5
100
AcDbLine
 10
-1110.540031864022
 20
1720.401627197785
 30
0.0
 11
-1110.540031864022
 21
1717.401627197785
 31
0.0
  0
LINE
  5
16A4B
330
1A
100
AcDbEntity
  8
ZISSEN1
 48
0.5
100
AcDbLine
 10
-1113.840031864022
 20
1729.791627197785
 30
0.0
 11
-1113.640031864022
 21
1729.791627197785
 31
0.0
  0
LINE
  5
16A4C
330
1A
100
AcDbEntity
  8
ZISSEN1
 48
0.5
100
AcDbLine
 10
-1113.840031864022
 20
1728.291627197785
 30
0.0
 11
-1113.640031864022
 21
1728.291627197785
 31
0.0
  0
CIRCLE
  5
16A53
330
1A
100
AcDbEntity
  8
ZISSEN1
 48
0.5
100
AcDbCircle
 10
-1121.440031864025
 20
1759.521627197785
 30
0.0
 40
2.75
  0
CIRCLE
  5
16A5A
330
1A
100
AcDbEntity
  8
ZISSEN1
 48
0.5
100
AcDbCircle
 10
-1121.440031864025
 20
1744.281627197785
 30
0.0
 40
2.75
  0
LWPOLYLINE
  5
16A5B
330
1A
100
AcDbEntity
  8
ZISSEN1
 48
0.5
100
AcDbPolyline
 90
        4
 70
     1
 43
0.0
 10
-1115.440031864025
 20
1739.821627197786
 10
-1115.440031864025
 20
1741.121627197785
 10
-1127.440031864024
 20
1741.121627197785
 10
-1127.440031864024
 20
1739.821627197786
  0
LWPOLYLINE
  5
16A7B
330
1A
100
AcDbEntity
  8
ZISSEN1
 48
0.5
100
AcDbPolyline
 90
        4
 70
     1
 43
0.0
 10
-1115.440031864025
 20
1755.061627197785
 10
-1115.440031864025
 20
1756.361627197785
 10
-1127.440031864024
 20
1756.361627197785
 10
-1127.440031864024
 20
1755.061627197785
  0
LWPOLYLINE
  5
16A7C
330
1A
100
AcDbEntity
  8
ZISSEN1
 48
0.5
100
AcDbPolyline
 90
        4
 70
     1
 43
0.0
 10
-1115.440031864025
 20
1747.441627197785
 10
-1115.440031864025
 20
1748.741627197785
 10
-1127.440031864024
 20
1748.741627197785
 10
-1127.440031864024
 20
1747.441627197785
  0
CIRCLE
  5
16A7F
330
1A
100
AcDbEntity
  8
ZISSEN1
 48
0.5
100
AcDbCircle
 10
-1121.440031864025
 20
1751.901627197785
 30
0.0
 40
2.75
  0
LINE
  5
16AA1
330
1A
100
AcDbEntity
  8
ZISSEN1
 48
0.5
100
AcDbLine
 10
-1113.840031864022
 20
1745.031627197785
 30
0.0
 11
-1113.640031864022
 21
1745.031627197785
 31
0.0
  0
LINE
  5
16AA2
330
1A
100
AcDbEntity
  8
ZISSEN1
 48
0.5
100
AcDbLine
 10
-1113.840031864022
 20
1743.531627197785
 30
0.0
 11
-1113.640031864022
 21
1743.531627197785
 31
0.0
  0
LINE
  5
16AA3
330
1A
100
AcDbEntity
  8
ZISSEN1
 48
0.5
100
AcDbLine
 10
-1113.815031864025
 20
1737.411627197785
 30
0.0
 11
-1113.615031864025
 21
1737.411627197785
 31
0.0
  0
LINE
  5
16AA4
330
1A
100
AcDbEntity
  8
ZISSEN1
 48
0.5
100
AcDbLine
 10
-1113.815031864025
 20
1735.911627197785
 30
0.0
 11
-1113.615031864025
 21
1735.911627197785
 31
0.0
  0
LINE
  5
16AA5
330
1A
100
AcDbEntity
  8
ZISSEN1
 48
0.5
100
AcDbLine
 10
-1113.815031864025
 20
1752.651627197785
 30
0.0
 11
-1113.615031864025
 21
1752.651627197785
 31
0.0
  0
LINE
  5
16AA6
330
1A
100
AcDbEntity
  8
ZISSEN1
 48
0.5
100
AcDbLine
 10
-1113.815031864025
 20
1751.151627197785
 30
0.0
 11
-1113.615031864025
 21
1751.151627197785
 31
0.0
  0
LINE
  5
16AA7
330
1A
100
AcDbEntity
  8
ZISSEN1
 48
0.5
100
AcDbLine
 10
-1113.840031864022
 20
1778.401627197785
 30
0.0
 11
-1115.440031864022
 21
1778.401627197785
 31
0.0
  0
LINE
  5
16AA8
330
1A
100
AcDbEntity
  8
ZISSEN1
 48
0.5
100
AcDbLine
 10
-1113.840031864022
 20
1779.401627197785
 30
0.0
 11
-1115.440031864022
 21
1779.401627197785
 31
0.0
  0
CIRCLE
  5
16AAD
330
1A
100
AcDbEntity
  8
ZISSEN1
 48
0.5
100
AcDbCircle
 10
-1121.440031864025
 20
1767.141627197785
 30
0.0
 40
2.75
  0
LWPOLYLINE
  5
16AAE
330
1A
100
AcDbEntity
  8
ZISSEN1
 48
0.5
100
AcDbPolyline
 90
        4
 70
     1
 43
0.0
 10
-1115.440031864025
 20
1762.681627197785
 10
-1115.440031864025
 20
1763.981627197785
 10
-1127.440031864024
 20
1763.981627197785
 10
-1127.440031864024
 20
1762.681627197785
  0
LWPOLYLINE
  5
16ACE
330
1A
100
AcDbEntity
  8
ZISSEN1
 48
0.5
100
AcDbPolyline
 90
        4
 70
     1
 43
0.0
 10
-1115.440031864025
 20
1777.921627197786
 10
-1115.440031864025
 20
1779.221627197785
 10
-1127.440031864024
 20
1779.221627197785
 10
-1127.440031864024
 20
1777.921627197786
  0
LWPOLYLINE
  5
16ACF
330
1A
100
AcDbEntity
  8
ZISSEN1
 48
0.5
100
AcDbPolyline
 90
        4
 70
     1
 43
0.0
 10
-1115.440031864025
 20
1770.301627197786
 10
-1115.440031864025
 20
1771.601627197785
 10
-1127.440031864024
 20
1771.601627197785
 10
-1127.440031864024
 20
1770.301627197786
  0
CIRCLE
  5
16AD2
330
1A
100
AcDbEntity
  8
ZISSEN1
 48
0.5
100
AcDbCircle
 10
-1121.440031864025
 20
1774.761627197785
 30
0.0
 40
2.75
  0
LINE
  5
16AF1
330
1A
100
AcDbEntity
  8
ZISSEN1
 48
0.5
100
AcDbLine
 10
-1113.840031864022
 20
1767.891627197785
 30
0.0
 11
-1113.640031864022
 21
1767.891627197785
 31
0.0
  0
LINE
  5
16AF2
330
1A
100
AcDbEntity
  8
ZISSEN1
 48
0.5
100
AcDbLine
 10
-1113.840031864022
 20
1766.391627197785
 30
0.0
 11
-1113.640031864022
 21
1766.391627197785
 31
0.0
  0
LINE
  5
16AF3
330
1A
100
AcDbEntity
  8
ZISSEN1
 48
0.5
100
AcDbLine
 10
-1113.840031864022
 20
1760.271627197785
 30
0.0
 11
-1113.640031864022
 21
1760.271627197785
 31
0.0
  0
LINE
  5
16AF4
330
1A
100
AcDbEntity
  8
ZISSEN1
 48
0.5
100
AcDbLine
 10
-1113.840031864022
 20
1758.771627197785
 30
0.0
 11
-1113.640031864022
 21
1758.771627197785
 31
0.0
  0
LINE
  5
16AF5
330
1A
100
AcDbEntity
  8
ZISSEN1
 48
0.5
100
AcDbLine
 10
-1113.815031864025
 20
1775.511627197785
 30
0.0
 11
-1113.615031864025
 21
1775.511627197785
 31
0.0
  0
LINE
  5
16AF6
330
1A
100
AcDbEntity
  8
ZISSEN1
 48
0.5
100
AcDbLine
 10
-1113.815031864025
 20
1774.011627197785
 30
0.0
 11
-1113.615031864025
 21
1774.011627197785
 31
0.0
  0
LINE
  5
16AFC
330
1A
100
AcDbEntity
  8
ZISSEN1
 48
0.5
100
AcDbLine
 10
-1116.440031864023
 20
1841.101627197786
 30
0.0
 11
-1116.440031864023
 21
1819.701627197785
 31
0.0
  0
LINE
  5
16AFE
330
1A
100
AcDbEntity
  8
ZISSEN1
 48
0.5
100
AcDbLine
 10
-1121.340031864023
 20
1839.451627197785
 30
0.0
 11
-1121.340031864023
 21
1821.351627197786
 31
0.0
  0
LINE
  5
16AFF
330
1A
100
AcDbEntity
  8
ZISSEN1
 48
0.5
100
AcDbLine
 10
-1121.140031864023
 20
1839.951627197785
 30
0.0
 11
-1121.140031864023
 21
1820.851627197786
 31
0.0
  0
LINE
  5
16B00
330
1A
100
AcDbEntity
  8
ZISSEN1
 48
0.5
100
AcDbLine
 10
-1113.840031864022
 20
1844.901627197785
 30
0.0
 11
-1113.840031864023
 21
1818.401627197786
 31
0.0
  0
LINE
  5
16B01
330
1A
100
AcDbEntity
  8
ZISSEN1
 48
0.5
100
AcDbLine
 10
-1115.440031864023
 20
1818.401627197786
 30
0.0
 11
-1115.440031864022
 21
1845.401627197785
 31
0.0
  0
LINE
  5
16B02
330
1A
100
AcDbEntity
  8
ZISSEN1
 48
0.5
100
AcDbLine
 10
-1123.940031864022
 20
1842.401627197785
 30
0.0
 11
-1123.940031864022
 21
1818.401627197786
 31
0.0
  0
LINE
  5
16B03
330
1A
100
AcDbEntity
  8
ZISSEN1
 48
0.5
100
AcDbLine
 10
-1113.440031864022
 20
1845.401627197785
 30
0.0
 11
-1113.440031864022
 21
1818.401627197786
 31
0.0
  0
LINE
  5
16B04
330
1A
100
AcDbEntity
  8
ZISSEN1
 48
0.5
100
AcDbLine
 10
-1118.840033073205
 20
1812.901628864452
 30
0.0
 11
-1118.840032598169
 21
1799.901627197785
 31
0.0
  0
LINE
  5
16B06
330
1A
100
AcDbEntity
  8
ZISSEN1
100
AcDbLine
 10
-1122.140033073205
 20
1800.60162939413
 30
0.0
 11
-1122.140033073205
 21
1812.901628864452
 31
0.0
  0
LINE
  5
16B07
330
1A
100
AcDbEntity
  8
ZISSEN1
100
AcDbLine
 10
-1122.140033073205
 20
1801.901628864452
 30
0.0
 11
-1122.140033073205
 21
1811.901628864452
 31
0.0
  0
LINE
  5
16B09
330
1A
100
AcDbEntity
  8
ZISSEN1
 48
0.5
100
AcDbLine
 10
-1122.840031864022
 20
1783.901627197785
 30
0.0
 11
-1122.840032641354
 21
1812.901628864452
 31
0.0
  0
LINE
  5
16B0A
330
1A
100
AcDbEntity
  8
ZISSEN1
 48
0.5
100
AcDbLine
 10
-1116.840031864022
 20
1783.901627197785
 30
0.0
 11
-1116.840031864022
 21
1799.901627197785
 31
0.0
  0
ARC
  5
16B0C
330
1A
100
AcDbEntity
  8
ZISSEN1
100
AcDbCircle
 10
-1122.340031864025
 20
1792.551627197785
 30
0.0
 40
0.2
100
AcDbArc
 50
359.9999975852129
 51
90.00000000010421
  0
LINE
  5
16B0F
330
1A
100
AcDbEntity
  8
ZISSEN1
100
AcDbLine
 10
-1122.840031864025
 20
1792.601627197785
 30
0.0
 11
-1122.146383864024
 21
1792.601627197785
 31
0.0
  0
LINE
  5
16B11
330
1A
100
AcDbEntity
  8
ZISSEN1
100
AcDbLine
 10
-1122.840031864025
 20
1784.601627197786
 30
0.0
 11
-1122.146383864024
 21
1784.601627197786
 31
0.0
  0
LINE
  5
16B12
330
1A
100
AcDbEntity
  8
ZISSEN1
100
AcDbLine
 10
-1122.840031864025
 20
1791.201627197786
 30
0.0
 11
-1122.146383864024
 21
1791.201627197786
 31
0.0
  0
LINE
  5
16B13
330
1A
100
AcDbEntity
  8
ZISSEN1
100
AcDbLine
 10
-1122.540031864025
 20
1784.751625197785
 30
0.0
 11
-1122.740033864024
 21
1784.951627197785
 31
0.0
  0
LINE
  5
16B14
330
1A
100
AcDbEntity
  8
ZISSEN1
100
AcDbLine
 10
-1122.740031864024
 20
1790.851627197786
 30
0.0
 11
-1122.540031864025
 21
1791.051627197785
 31
0.0
  0
LINE
  5
16B15
330
1A
100
AcDbEntity
  8
ZISSEN1
 48
0.5
100
AcDbLine
 10
-1122.840031864022
 20
1783.901627197785
 30
0.0
 11
-1116.840031864022
 21
1783.901627197785
 31
0.0
  0
LINE
  5
16B1A
330
1A
100
AcDbEntity
  8
ZISSEN1
100
AcDbLine
 10
-1122.840031864022
 20
1785.201627197785
 30
0.0
 11
-1122.740031864024
 21
1785.201627197785
 31
0.0
  0
LINE
  5
16B1B
330
1A
100
AcDbEntity
  8
ZISSEN1
100
AcDbLine
 10
-1122.840031864022
 20
1790.601627197786
 30
0.0
 11
-1122.740031864024
 21
1790.601627197786
 31
0.0
  0
LINE
  5
16B1C
330
1A
100
AcDbEntity
  8
ZISSEN1
100
AcDbLine
 10
-1122.740031864024
 20
1784.951627197785
 30
0.0
 11
-1122.740031864024
 21
1785.201627197785
 31
0.0
  0
LINE
  5
16B1D
330
1A
100
AcDbEntity
  8
ZISSEN1
100
AcDbLine
 10
-1122.740031864024
 20
1790.851627197786
 30
0.0
 11
-1122.740031864024
 21
1790.601627197786
 31
0.0
  0
LINE
  5
16B22
330
1A
100
AcDbEntity
  8
ZISSEN1
100
AcDbLine
 10
-1122.140031864024
 20
1792.221627197785
 30
0.0
 11
-1116.840031864022
 21
1792.221627197785
 31
0.0
  0
LINE
  5
16B24
330
1A
100
AcDbEntity
  8
ZISSEN1
100
AcDbLine
 10
-1122.140031864024
 20
1792.221627197785
 30
0.0
 11
-1122.140031864024
 21
1792.551627197785
 31
0.0
  0
ARC
  5
16B35
330
1A
100
AcDbEntity
  8
ZISSEN1
100
AcDbCircle
 10
-1122.340031864025
 20
1791.251627197786
 30
0.0
 40
0.2
100
AcDbArc
 50
269.9999949910886
 51
359.9999975852129
  0
ARC
  5
16B36
330
1A
100
AcDbEntity
  8
ZISSEN1
100
AcDbCircle
 10
-1122.340031864025
 20
1784.551627197785
 30
0.0
 40
0.2
100
AcDbArc
 50
359.9999975852129
 51
90.00000000010421
  0
LINE
  5
16B4E
330
1A
100
AcDbEntity
  8
ZISSEN1
100
AcDbLine
 10
-1122.140031864024
 20
1784.221627197785
 30
0.0
 11
-1116.840031864022
 21
1784.221627197785
 31
0.0
  0
LINE
  5
16B4F
330
1A
100
AcDbEntity
  8
ZISSEN1
100
AcDbLine
 10
-1122.140031864024
 20
1791.581627197786
 30
0.0
 11
-1122.140031864024
 21
1791.251627197786
 31
0.0
  0
LINE
  5
16B57
330
1A
100
AcDbEntity
  8
ZISSEN1
100
AcDbLine
 10
-1122.140031864024
 20
1791.581627197786
 30
0.0
 11
-1116.840031864022
 21
1791.581627197786
 31
0.0
  0
LINE
  5
16B5A
330
1A
100
AcDbEntity
  8
ZISSEN1
100
AcDbLine
 10
-1122.540031864025
 20
1784.751627197786
 30
0.0
 11
-1122.340031864025
 21
1784.751627197786
 31
0.0
  0
LINE
  5
16B5B
330
1A
100
AcDbEntity
  8
ZISSEN1
100
AcDbLine
 10
-1122.140031864024
 20
1784.221627197785
 30
0.0
 11
-1122.140031864024
 21
1784.551627197785
 31
0.0
  0
LINE
  5
16B5C
330
1A
100
AcDbEntity
  8
ZISSEN1
100
AcDbLine
 10
-1122.540031864025
 20
1791.051627197785
 30
0.0
 11
-1122.340031864025
 21
1791.051627197785
 31
0.0
  0
LINE
  5
16B5F
330
1A
100
AcDbEntity
  8
ZISSEN1
100
AcDbLine
 10
-1122.840031864025
 20
1799.201627197785
 30
0.0
 11
-1122.146383864024
 21
1799.201627197785
 31
0.0
  0
LINE
  5
16B60
330
1A
100
AcDbEntity
  8
ZISSEN1
100
AcDbLine
 10
-1122.540031864025
 20
1792.751625197785
 30
0.0
 11
-1122.740033864024
 21
1792.951627197785
 31
0.0
  0
LINE
  5
16B61
330
1A
100
AcDbEntity
  8
ZISSEN1
100
AcDbLine
 10
-1122.740031864024
 20
1798.851627197785
 30
0.0
 11
-1122.540031864025
 21
1799.051627197785
 31
0.0
  0
LINE
  5
16B66
330
1A
100
AcDbEntity
  8
ZISSEN1
100
AcDbLine
 10
-1122.840031864022
 20
1793.201627197785
 30
0.0
 11
-1122.740031864024
 21
1793.201627197785
 31
0.0
  0
LINE
  5
16B67
330
1A
100
AcDbEntity
  8
ZISSEN1
100
AcDbLine
 10
-1122.840031864022
 20
1798.601627197785
 30
0.0
 11
-1122.740031864024
 21
1798.601627197785
 31
0.0
  0
LINE
  5
16B68
330
1A
100
AcDbEntity
  8
ZISSEN1
100
AcDbLine
 10
-1122.740031864024
 20
1792.951627197785
 30
0.0
 11
-1122.740031864024
 21
1793.201627197785
 31
0.0
  0
LINE
  5
16B69
330
1A
100
AcDbEntity
  8
ZISSEN1
100
AcDbLine
 10
-1122.740031864024
 20
1798.851627197785
 30
0.0
 11
-1122.740031864024
 21
1798.601627197785
 31
0.0
  0
LINE
  5
16B77
330
1A
100
AcDbEntity
  8
ZISSEN1
100
AcDbLine
 10
-1118.840032623748
 20
1800.601629279025
 30
0.0
 11
-1122.140033073205
 21
1800.60162939413
 31
0.0
  0
LINE
  5
16B78
330
1A
100
AcDbEntity
  8
ZISSEN1
 48
0.5
100
AcDbLine
 10
-1118.840032598169
 20
1799.901627197785
 30
0.0
 11
-1116.840031864022
 21
1799.901627197785
 31
0.0
  0
ARC
  5
16B90
330
1A
100
AcDbEntity
  8
ZISSEN1
100
AcDbCircle
 10
-1122.340031864025
 20
1799.251627197785
 30
0.0
 40
0.2
100
AcDbArc
 50
269.9999949910886
 51
359.9999975852129
  0
LINE
  5
16BA7
330
1A
100
AcDbEntity
  8
ZISSEN1
100
AcDbLine
 10
-1122.140031864024
 20
1799.581627197785
 30
0.0
 11
-1122.140031864024
 21
1799.251627197785
 31
0.0
  0
LINE
  5
16BAF
330
1A
100
AcDbEntity
  8
ZISSEN1
100
AcDbLine
 10
-1122.140031864024
 20
1799.581627197785
 30
0.0
 11
-1116.840031864022
 21
1799.581627197785
 31
0.0
  0
LINE
  5
16BB1
330
1A
100
AcDbEntity
  8
ZISSEN1
100
AcDbLine
 10
-1122.540031864025
 20
1792.751627197785
 30
0.0
 11
-1122.340031864025
 21
1792.751627197785
 31
0.0
  0
LINE
  5
16BB2
330
1A
100
AcDbEntity
  8
ZISSEN1
100
AcDbLine
 10
-1122.540031864025
 20
1799.051627197785
 30
0.0
 11
-1122.340031864025
 21
1799.051627197785
 31
0.0
  0
LINE
  5
16BB5
330
1A
100
AcDbEntity
  8
ZISSEN1
 48
0.5
100
AcDbLine
 10
-1115.440031864022
 20
1818.901627197786
 30
0.0
 11
-1113.840031864022
 21
1818.901627197786
 31
0.0
  0
LINE
  5
16BB6
330
1A
100
AcDbEntity
  8
ZISSEN1
 48
0.5
100
AcDbLine
 10
-1115.440031864023
 20
1818.401627197786
 30
0.0
 11
-1113.440031864022
 21
1818.401627197786
 31
0.0
  0
LINE
  5
16BB7
330
1A
100
AcDbEntity
  8
ZISSEN1
 48
0.5
100
AcDbLine
 10
-1122.840033073205
 20
1812.901628864452
 30
0.0
 11
-1118.840033073205
 21
1812.901628864452
 31
0.0
  0
LINE
  5
16BE8
330
1A
100
AcDbEntity
  8
ZISSEN1
 48
0.5
100
AcDbLine
 10
-1123.940031864022
 20
1818.401627197786
 30
0.0
 11
-1115.440031864023
 21
1818.401627197786
 31
0.0
  0
LINE
  5
16C04
330
1A
100
AcDbEntity
  8
ZISSEN1
 48
0.5
100
AcDbLine
 10
-1122.140031864023
 20
1821.351627197786
 30
0.0
 11
-1122.140031864023
 21
1819.201627197786
 31
0.0
  0
LINE
  5
16C05
330
1A
100
AcDbEntity
  8
ZISSEN1
 48
0.5
100
AcDbLine
 10
-1121.340031864023
 20
1821.351627197786
 30
0.0
 11
-1122.140031864023
 21
1821.351627197786
 31
0.0
  0
LINE
  5
16C06
330
1A
100
AcDbEntity
  8
ZISSEN1
 48
0.5
100
AcDbLine
 10
-1122.140031864023
 20
1820.201627197786
 30
0.0
 11
-1122.140031864023
 21
1821.351627197786
 31
0.0
  0
LINE
  5
16C07
330
1A
100
AcDbEntity
  8
ZISSEN1
 48
0.5
100
AcDbLine
 10
-1121.640031864023
 20
1819.701627197785
 30
0.0
 11
-1116.440031864023
 21
1819.701627197785
 31
0.0
  0
LINE
  5
16C08
330
1A
100
AcDbEntity
  8
ZISSEN1
 48
0.5
100
AcDbLine
 10
-1121.640031864023
 20
1820.851627197786
 30
0.0
 11
-1121.640031864023
 21
1819.701627197785
 31
0.0
  0
LINE
  5
16C09
330
1A
100
AcDbEntity
  8
ZISSEN1
 48
0.5
100
AcDbLine
 10
-1121.640031864023
 20
1820.851627197786
 30
0.0
 11
-1121.140031864023
 21
1820.851627197786
 31
0.0
  0
LINE
  5
16C0A
330
1A
100
AcDbEntity
  8
ZISSEN1
 48
0.5
100
AcDbLine
 10
-1115.440031864023
 20
1819.201627197785
 30
0.0
 11
-1122.140031864023
 21
1819.201627197785
 31
0.0
  0
LINE
  5
16C0B
330
1A
100
AcDbEntity
  8
ZISSEN1
 48
0.5
100
AcDbLine
 10
-1115.440031864023
 20
1819.201627197785
 30
0.0
 11
-1115.440031864023
 21
1820.851627197786
 31
0.0
  0
LINE
  5
16C1F
330
1A
100
AcDbEntity
  8
ZISSEN1
 48
0.5
100
AcDbLine
 10
-1115.440031864022
 20
1844.901627197785
 30
0.0
 11
-1113.840031864022
 21
1844.901627197785
 31
0.0
  0
LINE
  5
16C20
330
1A
100
AcDbEntity
  8
ZISSEN1
 48
0.5
100
AcDbLine
 10
-1115.440031864022
 20
1845.401627197785
 30
0.0
 11
-1113.440031864022
 21
1845.401627197785
 31
0.0
  0
LINE
  5
16C41
330
1A
100
AcDbEntity
  8
ZISSEN1
 48
0.5
100
AcDbLine
 10
-1115.440031864022
 20
1842.401627197785
 30
0.0
 11
-1123.940031864022
 21
1842.401627197785
 31
0.0
  0
LINE
  5
16C43
330
1A
100
AcDbEntity
  8
ZISSEN1
 48
0.5
100
AcDbLine
 10
-1115.440031864023
 20
1839.951627197785
 30
0.0
 11
-1115.440031864023
 21
1841.601627197785
 31
0.0
  0
LINE
  5
16C45
330
1A
100
AcDbEntity
  8
ZISSEN1
 48
0.5
100
AcDbLine
 10
-1122.140031864023
 20
1839.451627197785
 30
0.0
 11
-1122.140031864023
 21
1841.601627197785
 31
0.0
  0
LINE
  5
16C46
330
1A
100
AcDbEntity
  8
ZISSEN1
 48
0.5
100
AcDbLine
 10
-1121.340031864023
 20
1839.451627197785
 30
0.0
 11
-1122.140031864023
 21
1839.451627197785
 31
0.0
  0
LINE
  5
16C47
330
1A
100
AcDbEntity
  8
ZISSEN1
 48
0.5
100
AcDbLine
 10
-1122.140031864023
 20
1840.601627197786
 30
0.0
 11
-1122.140031864023
 21
1839.451627197785
 31
0.0
  0
LINE
  5
16C48
330
1A
100
AcDbEntity
  8
ZISSEN1
 48
0.5
100
AcDbLine
 10
-1121.640031864023
 20
1841.101627197786
 30
0.0
 11
-1116.440031864023
 21
1841.101627197786
 31
0.0
  0
LINE
  5
16C49
330
1A
100
AcDbEntity
  8
ZISSEN1
 48
0.5
100
AcDbLine
 10
-1121.640031864023
 20
1839.951627197785
 30
0.0
 11
-1121.640031864023
 21
1841.101627197786
 31
0.0
  0
LINE
  5
16C4A
330
1A
100
AcDbEntity
  8
ZISSEN1
 48
0.5
100
AcDbLine
 10
-1121.640031864023
 20
1839.951627197785
 30
0.0
 11
-1121.140031864023
 21
1839.951627197785
 31
0.0
  0
LINE
  5
16C4B
330
1A
100
AcDbEntity
  8
ZISSEN1
 48
0.5
100
AcDbLine
 10
-1115.440031864023
 20
1841.601627197785
 30
0.0
 11
-1122.140031864023
 21
1841.601627197785
 31
0.0
  0
LINE
  5
16C50
330
1A
100
AcDbEntity
  8
ZISSEN1
 48
0.5
100
AcDbLine
 10
-1107.540031864022
 20
1845.901627197785
 30
0.0
 11
-1107.540031864022
 21
1837.401627197785
 31
0.0
  0
LINE
  5
16C62
330
1A
100
AcDbEntity
  8
ZISSEN1
 48
0.5
100
AcDbLine
 10
-1104.540031864022
 20
1846.401627197785
 30
0.0
 11
-1107.540031864022
 21
1846.401627197785
 31
0.0
  0
LINE
  5
16C67
330
1A
100
AcDbEntity
  8
ZISSEN1
 48
0.5
100
AcDbLine
 10
-1113.840031864022
 20
1844.151627197785
 30
0.0
 11
-1113.840031864022
 21
1844.151627197785
 31
0.0
  0
LINE
  5
16C68
330
1A
100
AcDbEntity
  8
ZISSEN1
 48
0.5
100
AcDbLine
 10
-1109.040031864022
 20
1847.401627197785
 30
0.0
 11
-1108.040031864022
 21
1847.401627197785
 31
0.0
  0
ARC
  5
16C69
330
1A
100
AcDbEntity
  8
ZISSEN1
 48
0.5
100
AcDbCircle
 10
-1109.040031864023
 20
1845.901627197785
 30
0.0
 40
1.50000000000017
100
AcDbArc
 50
0.0
 51
48.18968510421143
  0
LINE
  5
16C6A
330
1A
100
AcDbEntity
  8
ZISSEN1
 48
0.5
100
AcDbLine
 10
-1266.539363534555
 20
1921.95467595245
 30
0.0
 11
-1266.539363534555
 21
1917.45467595245
 31
0.0
  0
LWPOLYLINE
  5
16C6D
330
1A
100
AcDbEntity
  8
ZISSEN1
 48
0.5
100
AcDbPolyline
 90
        4
 70
     1
 43
0.0
 10
-1253.544344022012
 20
1918.454674743272
 10
-1265.544344022011
 20
1918.454674743272
 10
-1265.544344022011
 20
1914.454674743272
 10
-1253.544344022012
 20
1914.454674743272
  0
LINE
  5
16C6E
330
1A
100
AcDbEntity
  8
ZISSEN1
 48
0.5
100
AcDbLine
 10
-1213.790031864022
 20
1921.854675952451
 30
0.0
 11
-1213.790031864022
 21
1915.154675952451
 31
0.0
  0
LINE
  5
16C6F
330
1A
100
AcDbEntity
  8
ZISSEN1
 48
0.5
100
AcDbLine
 10
-1218.040031864022
 20
1929.254675952451
 30
0.0
 11
-1218.040031864022
 21
1885.754675952451
 31
0.0
  0
DIMENSION
  5
16C70
330
1A
100
AcDbEntity
  8
SUNPOU
 48
0.5
100
AcDbDimension
  2
*D87
 10
-1187.540031864022
 20
1899.254675952451
 30
0.0
 11
-1190.290031864023
 21
1916.004675952451
 31
0.0
 70
    32
  3
標準スタイル
100
AcDbAlignedDimension
 13
-1216.540031864022
 23
1932.754675952451
 33
0.0
 14
-1207.040031864023
 24
1899.254675952451
 34
0.0
 50
90.0
100
AcDbRotatedDimension
1001
ACAD
1000
DSTYLE
1002
{
1070
   340
1005
10
1070
    40
1040
1.0
1002
}
  0
LINE
  5
16C71
330
1A
100
AcDbEntity
  8
ZISSEN1
 48
0.5
100
AcDbLine
 10
-1202.540031864022
 20
1926.754675952451
 30
0.0
 11
-1202.540031864022
 21
1901.504675952451
 31
0.0
  0
LINE
  5
16C72
330
1A
100
AcDbEntity
  8
ZISSEN1
 48
0.5
100
AcDbLine
 10
-1203.940031864022
 20
1922.204675952451
 30
0.0
 11
-1203.940031864022
 21
1909.504675952451
 31
0.0
  0
LINE
  5
16C73
330
1A
100
AcDbEntity
  8
ZISSEN1
 48
0.5
100
AcDbLine
 10
-1212.740031864022
 20
1910.85467595245
 30
0.0
 11
-1212.740031864022
 21
1920.85467595245
 31
0.0
  0
LWPOLYLINE
  5
16C74
330
1A
100
AcDbEntity
  8
ZISSEN1
 48
0.5
100
AcDbPolyline
 90
        6
 70
     1
 43
0.0
 10
-1216.540031864022
 20
1921.854675952451
 10
-1216.540031864022
 20
1909.85467595245
 10
-1205.240031864022
 20
1909.85467595245
 42
0.4142135623730966
 10
-1204.740031864022
 20
1910.354675952451
 10
-1204.740031864022
 20
1921.35467595245
 42
0.4142135623730951
 10
-1205.240031864022
 20
1921.854675952451
  0
LINE
  5
16C75
330
1A
100
AcDbEntity
  8
ZISSEN1
 48
0.5
100
AcDbLine
 10
-1216.540031864022
 20
1929.254675952451
 30
0.0
 11
-1216.540031864022
 21
1885.754675952451
 31
0.0
  0
DIMENSION
  5
16C76
330
1A
100
AcDbEntity
  8
SUNPOU
 48
0.5
100
AcDbDimension
  2
*D88
 10
-1194.540031864023
 20
1897.004675952451
 30
0.0
 11
-1197.290031864023
 21
1886.504675952451
 31
0.0
 70
    32
  3
標準スタイル
100
AcDbAlignedDimension
 13
-1202.540031864022
 23
1901.504675952451
 33
0.0
 14
-1202.540031864022
 24
1897.004675952451
 34
0.0
 50
90.0
100
AcDbRotatedDimension
1001
ACAD
1000
DSTYLE
1002
{
1070
   340
1005
10
1070
    40
1040
1.0
1002
}
  0
DIMENSION
  5
16C77
330
1A
100
AcDbEntity
  8
SUNPOU
 48
0.5
100
AcDbDimension
  2
*D89
 10
-1210.540031864023
 20
1870.254675952451
 30
0.0
 11
-1206.540031864022
 21
1870.254675952451
 31
0.0
 70
   160
  3
標準スタイル
100
AcDbAlignedDimension
 13
-1202.540031864022
 23
1891.754675952451
 33
0.0
 14
-1210.540031864023
 24
1895.754675952451
 34
0.0
100
AcDbRotatedDimension
1001
ACAD
1000
DSTYLE
1002
{
1070
   340
1005
10
1070
    40
1040
1.0
1002
}
  0
LINE
  5
16C7E
330
1A
100
AcDbEntity
  8
ZISSEN1
 48
0.5
100
AcDbLine
 10
-1249.090031864022
 20
1883.354675952451
 30
0.0
 11
-1249.990031864022
 21
1884.254675952451
 31
0.0
  0
LWPOLYLINE
  5
16C7F
330
1A
100
AcDbEntity
  8
ZISSEN1
 48
0.5
100
AcDbPolyline
 90
        4
 70
     1
 43
0.0
 10
-1250.790031864022
 20
1884.029675952451
 10
-1250.790031864022
 20
1883.579675952451
 10
-1244.290031864022
 20
1883.579675952451
 10
-1244.290031864022
 20
1884.029675952451
  0
LWPOLYLINE
  5
16C80
330
1A
100
AcDbEntity
  8
ZISSEN1
 48
0.5
100
AcDbPolyline
 90
        4
 70
     1
 43
0.0
 10
-1250.790031864022
 20
1884.254675952451
 10
-1250.790031864022
 20
1883.354675952451
 10
-1244.290031864022
 20
1883.354675952451
 10
-1244.290031864022
 20
1884.254675952451
  0
LINE
  5
16C81
330
1A
100
AcDbEntity
  8
ZISSEN1
 48
0.5
100
AcDbLine
 10
-1250.690031864022
 20
1883.354675952451
 30
0.0
 11
-1244.390031864022
 21
1883.354675952451
 31
0.0
  0
ARC
  5
16C82
330
1A
100
AcDbEntity
  8
ZISSEN1
 48
0.5
100
AcDbCircle
 10
-1247.540031864022
 20
1886.529304941049
 30
0.0
 40
5.174628988598421
100
AcDbArc
 50
233.7083018726678
 51
306.2916981273322
  0
LINE
  5
16C83
330
1A
100
AcDbEntity
  8
ZISSEN1
 48
0.5
100
AcDbLine
 10
-1244.390031864023
 20
1883.354675952451
 30
0.0
 11
-1250.690031864023
 21
1883.354675952451
 31
0.0
  0
LINE
  5
16C84
330
1A
100
AcDbEntity
  8
ZISSEN1
 48
0.5
100
AcDbLine
 10
-1250.690031864023
 20
1883.354675952451
 30
0.0
 11
-1250.602876121275
 21
1882.358481254359
 31
0.0
  0
LINE
  5
16C92
330
1A
100
AcDbEntity
  8
ZISSEN1
 48
0.5
100
AcDbLine
 10
-1250.090031864022
 20
1883.354675952451
 30
0.0
 11
-1250.790031864022
 21
1884.054675952451
 31
0.0
  0
LINE
  5
16C93
330
1A
100
AcDbEntity
  8
ZISSEN1
 48
0.5
100
AcDbLine
 10
-1244.390031864023
 20
1883.354675952451
 30
0.0
 11
-1244.47718760677
 21
1882.358481254359
 31
0.0
  0
LINE
  5
16C99
330
1A
100
AcDbEntity
  8
ZISSEN1
 48
0.5
100
AcDbLine
 10
-1248.090031864022
 20
1883.354675952451
 30
0.0
 11
-1248.990031864022
 21
1884.254675952451
 31
0.0
  0
LINE
  5
16C9A
330
1A
100
AcDbEntity
  8
ZISSEN1
 48
0.5
100
AcDbLine
 10
-1244.290031864022
 20
1883.554675952451
 30
0.0
 11
-1244.990031864023
 21
1884.254675952451
 31
0.0
  0
LINE
  5
16C9B
330
1A
100
AcDbEntity
  8
ZISSEN1
 48
0.5
100
AcDbLine
 10
-1245.090031864022
 20
1883.354675952451
 30
0.0
 11
-1245.990031864022
 21
1884.254675952451
 31
0.0
  0
LINE
  5
16C9C
330
1A
100
AcDbEntity
  8
ZISSEN1
 48
0.5
100
AcDbLine
 10
-1246.090031864022
 20
1883.354675952451
 30
0.0
 11
-1246.990031864022
 21
1884.254675952451
 31
0.0
  0
LINE
  5
16C9D
330
1A
100
AcDbEntity
  8
ZISSEN1
 48
0.5
100
AcDbLine
 10
-1247.090031864022
 20
1883.354675952451
 30
0.0
 11
-1247.990031864022
 21
1884.254675952451
 31
0.0
  0
LWPOLYLINE
  5
16C9E
330
1A
100
AcDbEntity
  8
ZISSEN1
 48
0.5
100
AcDbPolyline
 90
        4
 70
     1
 43
0.0
 10
-1247.138546602225
 20
1884.029675952451
 10
-1247.138546602225
 20
1884.029675952451
 10
-1247.941517126093
 20
1884.029675952451
 10
-1247.941517126093
 20
1884.029675952451
  0
LINE
  5
16CAB
330
1A
100
AcDbEntity
  8
ZISSEN1
100
AcDbLine
 10
-1253.544344022012
 20
1915.154674743272
 30
0.0
 11
-1265.544344022011
 21
1915.154674743271
 31
0.0
  0
LINE
  5
16CAC
330
1A
100
AcDbEntity
  8
ZISSEN1
100
AcDbLine
 10
-1254.544344022012
 20
1915.154674743271
 30
0.0
 11
-1264.544344022012
 21
1915.154674743271
 31
0.0
  0
LINE
  5
16CED
330
1A
100
AcDbEntity
  8
ZISSEN1
 48
0.5
100
AcDbLine
 10
-1202.540031864022
 20
1897.004675952451
 30
0.0
 11
-1202.540031864022
 21
1891.754675952451
 31
0.0
  0
LINE
  5
16CEE
330
1A
100
AcDbEntity
  8
ZISSEN1
 48
0.5
100
AcDbLine
 10
-1204.540031864022
 20
1889.754675952451
 30
0.0
 11
-1216.540031864022
 21
1889.754675952451
 31
0.0
  0
LINE
  5
16CF7
330
1A
100
AcDbEntity
  8
ZISSEN1
 48
0.5
100
AcDbLine
 10
-1220.040031864022
 20
1886.254675952451
 30
0.0
 11
-1220.040031864022
 21
1884.254675952451
 31
0.0
  0
LINE
  5
16CF8
330
1A
100
AcDbEntity
  8
ZISSEN1
 48
0.5
100
AcDbLine
 10
-1218.040031864022
 20
1887.754675952451
 30
0.0
 11
-1218.540031864022
 21
1887.754675952451
 31
0.0
  0
ARC
  5
16CF9
330
1A
100
AcDbEntity
  8
ZISSEN1
 48
0.5
100
AcDbCircle
 10
-1218.540031864023
 20
1886.254675952451
 30
0.0
 40
1.499999999999829
100
AcDbArc
 50
89.99999999998697
 51
180.0
  0
LINE
  5
16CFA
330
1A
100
AcDbEntity
  8
ZISSEN1
 48
0.5
100
AcDbLine
 10
-1216.540031864022
 20
1885.754675952451
 30
0.0
 11
-1220.040031864022
 21
1885.754675952451
 31
0.0
  0
ARC
  5
16CFB
330
1A
100
AcDbEntity
  8
ZISSEN1
 48
0.5
100
AcDbCircle
 10
-1218.040031864022
 20
1885.754675952451
 30
0.0
 40
1.5
100
AcDbArc
 50
270.0
 51
0.0
  0
LINE
  5
16CFC
330
1A
100
AcDbEntity
  8
ZISSEN1
 48
0.5
100
AcDbLine
 10
-1204.540031864022
 20
1889.754675952451
 30
0.0
 11
-1202.540031864022
 21
1891.754675952451
 31
0.0
  0
LINE
  5
16CFD
330
1A
100
AcDbEntity
  8
ZISSEN1
 48
0.5
100
AcDbLine
 10
-1213.790031864022
 20
1915.154675952451
 30
0.0
 11
-1216.540031864022
 21
1915.154675952451
 31
0.0
  0
LINE
  5
16CFE
330
1A
100
AcDbEntity
  8
ZISSEN1
 48
0.5
100
AcDbLine
 10
-1204.740031864022
 20
1910.85467595245
 30
0.0
 11
-1216.540031864022
 21
1910.85467595245
 31
0.0
  0
LINE
  5
16D00
330
1A
100
AcDbEntity
  8
CL1
 48
0.5
100
AcDbLine
 10
-1214.040031864023
 20
1899.254675952451
 30
0.0
 11
-1207.040031864023
 21
1899.254675952451
 31
0.0
  0
LINE
  5
16D01
330
1A
100
AcDbEntity
  8
ZISSEN1
 48
0.5
100
AcDbLine
 10
-1211.040031864023
 20
1897.004675952451
 30
0.0
 11
-1202.540031864022
 21
1897.004675952451
 31
0.0
  0
LINE
  5
16D02
330
1A
100
AcDbEntity
  8
ZISSEN1
 48
0.5
100
AcDbLine
 10
-1211.040031864023
 20
1901.504675952451
 30
0.0
 11
-1202.540031864022
 21
1901.504675952451
 31
0.0
  0
LINE
  5
16D09
330
1A
100
AcDbEntity
  8
CL1
 48
0.5
100
AcDbLine
 10
-1210.540031864023
 20
1895.754675952451
 30
0.0
 11
-1210.540031864023
 21
1902.754675952451
 31
0.0
  0
ARC
  5
16D0A
330
1A
100
AcDbEntity
  8
ZISSEN1
 48
0.5
100
AcDbCircle
 10
-1211.040031864023
 20
1899.254675952451
 30
0.0
 40
2.25
100
AcDbArc
 50
90.0
 51
270.0
  0
ARC
  5
16D0B
330
1A
100
AcDbEntity
  8
ZISSEN1
 48
0.5
100
AcDbCircle
 10
-1204.440031864022
 20
1909.504675952451
 30
0.0
 40
0.5
100
AcDbArc
 50
270.0
 51
0.0
  0
LINE
  5
16D0C
330
1A
100
AcDbEntity
  8
ZISSEN1
 48
0.5
100
AcDbLine
 10
-1204.740031864022
 20
1910.354675952451
 30
0.0
 11
-1204.740031864022
 21
1909.80467595245
 31
0.0
  0
LINE
  5
16D0D
330
1A
100
AcDbEntity
  8
ZISSEN1
 48
0.5
100
AcDbLine
 10
-1206.440031864022
 20
1909.80467595245
 30
0.0
 11
-1204.740031864022
 21
1909.80467595245
 31
0.0
  0
LINE
  5
16D0E
330
1A
100
AcDbEntity
  8
ZISSEN1
 48
0.5
100
AcDbLine
 10
-1206.440031864022
 20
1909.00467595245
 30
0.0
 11
-1206.440031864022
 21
1909.80467595245
 31
0.0
  0
LINE
  5
16D0F
330
1A
100
AcDbEntity
  8
ZISSEN1
 48
0.5
100
AcDbLine
 10
-1204.440031864022
 20
1909.00467595245
 30
0.0
 11
-1206.440031864022
 21
1909.00467595245
 31
0.0
  0
LINE
  5
16D10
330
1A
100
AcDbEntity
  8
ZISSEN1
 48
0.5
100
AcDbLine
 10
-1243.040031864022
 20
1929.754675952451
 30
0.0
 11
-1226.540031864022
 21
1929.754675952451
 31
0.0
  0
LINE
  5
16D1A
330
1A
100
AcDbEntity
  8
ZISSEN1
 48
0.5
100
AcDbLine
 10
-1216.540031864022
 20
1928.754675952451
 30
0.0
 11
-1204.540031864022
 21
1928.754675952451
 31
0.0
  0
LINE
  5
16D1B
330
1A
100
AcDbEntity
  8
ZISSEN1
 48
0.5
100
AcDbLine
 10
-1226.540031864022
 20
1929.754675952451
 30
0.0
 11
-1226.540031864022
 21
1928.254675952451
 31
0.0
  0
LINE
  5
16D1C
330
1A
100
AcDbEntity
  8
ZISSEN1
 48
0.5
100
AcDbLine
 10
-1224.540031864022
 20
1929.254675952451
 30
0.0
 11
-1218.040031864022
 21
1929.254675952451
 31
0.0
  0
LINE
  5
16D1D
330
1A
100
AcDbEntity
  8
ZISSEN1
 48
0.5
100
AcDbLine
 10
-1224.540031864022
 20
1928.254675952451
 30
0.0
 11
-1224.540031864022
 21
1929.254675952451
 31
0.0
  0
LINE
  5
16D1E
330
1A
100
AcDbEntity
  8
ZISSEN1
 48
0.5
100
AcDbLine
 10
-1226.540031864022
 20
1928.254675952451
 30
0.0
 11
-1224.540031864022
 21
1928.254675952451
 31
0.0
  0
LINE
  5
16D1F
330
1A
100
AcDbEntity
  8
ZISSEN1
 48
0.5
100
AcDbLine
 10
-1218.040031864022
 20
1929.254675952451
 30
0.0
 11
-1216.540031864022
 21
1929.254675952451
 31
0.0
  0
LINE
  5
16D20
330
1A
100
AcDbEntity
  8
ZISSEN1
 48
0.5
100
AcDbLine
 10
-1217.540031864022
 20
1932.754675952451
 30
0.0
 11
-1217.540031864022
 21
1929.754675952451
 31
0.0
  0
LINE
  5
16D21
330
1A
100
AcDbEntity
  8
ZISSEN1
 48
0.5
100
AcDbLine
 10
-1216.540031864022
 20
1932.754675952451
 30
0.0
 11
-1216.540031864022
 21
1929.754675952451
 31
0.0
  0
LINE
  5
16D22
330
1A
100
AcDbEntity
  8
ZISSEN1
 48
0.5
100
AcDbLine
 10
-1204.740031864022
 20
1920.85467595245
 30
0.0
 11
-1213.790031864022
 21
1920.85467595245
 31
0.0
  0
ARC
  5
16D23
330
1A
100
AcDbEntity
  8
ZISSEN1
 48
0.5
100
AcDbCircle
 10
-1204.440031864022
 20
1922.204675952451
 30
0.0
 40
0.5
100
AcDbArc
 50
0.0
 51
90.0
  0
LINE
  5
16D24
330
1A
100
AcDbEntity
  8
ZISSEN1
 48
0.5
100
AcDbLine
 10
-1204.740031864022
 20
1920.85467595245
 30
0.0
 11
-1204.740031864022
 21
1921.90467595245
 31
0.0
  0
LINE
  5
16D25
330
1A
100
AcDbEntity
  8
ZISSEN1
 48
0.5
100
AcDbLine
 10
-1206.440031864022
 20
1921.90467595245
 30
0.0
 11
-1204.740031864022
 21
1921.90467595245
 31
0.0
  0
LINE
  5
16D26
330
1A
100
AcDbEntity
  8
ZISSEN1
 48
0.5
100
AcDbLine
 10
-1206.440031864022
 20
1922.70467595245
 30
0.0
 11
-1206.440031864022
 21
1921.90467595245
 31
0.0
  0
LINE
  5
16D27
330
1A
100
AcDbEntity
  8
ZISSEN1
 48
0.5
100
AcDbLine
 10
-1206.440031864022
 20
1922.70467595245
 30
0.0
 11
-1204.440031864022
 21
1922.70467595245
 31
0.0
  0
LINE
  5
16D28
330
1A
100
AcDbEntity
  8
ZISSEN1
 48
0.5
100
AcDbLine
 10
-1204.540031864022
 20
1928.754675952451
 30
0.0
 11
-1202.540031864022
 21
1926.754675952451
 31
0.0
  0
LINE
  5
1749C
330
1A
100
AcDbEntity
  8
CL1
100
AcDbLine
 10
-1138.040031864022
 20
1720.901627197785
 30
0.0
 11
-1138.040031864022
 21
1715.618440347573
 31
0.0
  0
LINE
  5
1749D
330
1A
100
AcDbEntity
  8
CL1
100
AcDbLine
 10
-1138.040031864022
 20
1720.401627197785
 30
0.0
 11
-1138.040031864022
 21
1723.495098793101
 31
0.0
  0
LINE
  5
1749E
330
1A
100
AcDbEntity
  8
CL1
100
AcDbLine
 10
-1382.540031864022
 20
1720.401627197785
 30
0.0
 11
-1382.540031864022
 21
1714.834639367474
 31
0.0
  0
LINE
  5
1749F
330
1A
100
AcDbEntity
  8
CL1
100
AcDbLine
 10
-1382.540031864022
 20
1720.401627197785
 30
0.0
 11
-1382.540031864022
 21
1723.203400971139
 31
0.0
  0
LINE
  5
174A2
330
1A
100
AcDbEntity
  8
CL1
100
AcDbLine
 10
-1210.540031864023
 20
1722.089069997609
 30
0.0
 11
-1210.540031864023
 21
1713.433752480796
 31
0.0
  0
LINE
  5
174A3
330
1A
100
AcDbEntity
  8
CL1
100
AcDbLine
 10
-1210.540031864023
 20
1720.185121112941
 30
0.0
 11
-1210.540031864023
 21
1714.61813328263
 31
0.0
  0
LINE
  5
174A4
330
1A
100
AcDbEntity
  8
CL1
100
AcDbLine
 10
-1210.540031864023
 20
1720.862325336218
 30
0.0
 11
-1210.540031864023
 21
1715.295337505906
 31
0.0
  0
LINE
  5
174A5
330
1A
100
AcDbEntity
  8
CL1
100
AcDbLine
 10
-1210.540031864023
 20
1722.089069997609
 30
0.0
 11
-1210.540031864023
 21
1714.61813328263
 31
0.0
  0
VIEWPORT
  5
15177
330
15176
100
AcDbEntity
 67
     1
  8
0
100
AcDbViewport
 10
227.1483566951202
 20
162.4793315827048
 30
0.0
 40
587.8859945908259
 41
329.9107058252314
 68
     1
 69
     1
1001
ACAD
1000
MVIEW
1002
{
1070
    16
1010
0.0
1020
0.0
1030
0.0
1010
0.0
1020
0.0
1030
1.0
1040
0.0
1040
329.9107058252314
1040
227.1483566951202
1040
162.4793315827048
1040
50.0
1040
0.0
1040
0.0
1070
     0
1070
   100
1070
     1
1070
     0
1070
     0
1070
     0
1070
     0
1070
     0
1040
0.0
1040
0.0
1040
0.0
1040
1.0
1040
1.0
1040
10.0
1040
10.0
1070
     0
1002
{
1002
}
1002
}
  0
VIEWPORT
  5
15178
330
15176
100
AcDbEntity
 67
     1
  8
ZISSEN1
100
AcDbViewport
 10
221.7861955525412
 20
157.6960273330388
 30
0.0
 40
385.4999999999997
 41
259.9999999999999
 68
     2
 69
     2
1001
ACAD
1000
MVIEW
1002
{
1070
    16
1010
0.0
1020
0.0
1030
0.0
1010
0.0
1020
0.0
1030
1.0
1040
0.0
1040
259.9999999999999
1040
-1249.427425132531
1040
1815.595231086094
1040
50.0
1040
0.0
1040
0.0
1070
     0
1070
   100
1070
     1
1070
     0
1070
     0
1070
     0
1070
     0
1070
     0
1040
0.0
1040
0.0
1040
0.0
1040
1.0
1040
1.0
1040
10.0
1040
10.0
1070
     0
1002
{
1002
}
1002
}
  0
TEXT
  5
15179
330
15176
100
AcDbEntity
 67
     1
  8
SUNPOU
 62
     0
100
AcDbText
 10
387.1953800033618
 20
38.58504756220793
 30
0.0
 40
3.5
  1
縮尺 1/1
100
AcDbText
  0
ENDSEC
  0
SECTION
  2
OBJECTS
  0
DICTIONARY
  5
C
330
0
100
AcDbDictionary
  3
ACAD_GROUP
350
D
  3
ACAD_LAYOUT
350
5C7D
  3
ACAD_MLINESTYLE
350
E
  3
ACAD_PLOTSETTINGS
350
5C7E
  3
ACAD_PLOTSTYLENAME
350
5C7B
  3
ACDBVARIABLEDICTIONARY
350
13217
  3
DWGPROPS
350
5E8E
  3
ACDBHEADERROUNDTRIPXREC
350
17559
  0
DICTIONARY
  5
15F03
330
2
100
AcDbDictionary
280
     1
  3
ACAD_LAYERFILTERS
360
15F04
  0
DICTIONARY
  5
17579
330
1A
100
AcDbDictionary
280
     1
  3
ACAD_LAYOUTSELFREF
360
1757A
  0
DICTIONARY
  5
1757B
330
15176
100
AcDbDictionary
280
     1
  3
ACAD_LAYOUTSELFREF
360
1757C
  0
DICTIONARY
  5
D
102
{ACAD_REACTORS
330
C
102
}
330
C
100
AcDbDictionary
  3
*A1
350
477D
  3
*A2
350
4C0E
  3
*A3
350
4C0F
  3
*A4
350
4C10
  3
*A5
350
4C11
  3
*A6
350
4C12
  3
*A7
350
4C13
  3
*A8
350
4C14
  3
*A9
350
4C15
  3
*A10
350
4C16
  3
*A11
350
4C17
  3
*A12
350
477E
  3
*A13
350
477F
  3
*A14
350
4780
  3
*A15
350
4781
  3
*A16
350
13853
  0
DICTIONARY
  5
5C7D
102
{ACAD_REACTORS
330
C
102
}
330
C
100
AcDbDictionary
  0
DICTIONARY
  5
E
102
{ACAD_REACTORS
330
C
102
}
330
C
100
AcDbDictionary
  3
STANDARD
350
13
  0
DICTIONARY
  5
5C7E
102
{ACAD_REACTORS
330
C
102
}
330
C
100
AcDbDictionary
  0
ACDBDICTIONARYWDFLT
  5
5C7B
102
{ACAD_REACTORS
330
C
102
}
330
C
100
AcDbDictionary
281
     1
  3
Normal
350
5C7C
100
AcDbDictionaryWithDefault
340
5C7C
  0
DICTIONARY
  5
13217
102
{ACAD_REACTORS
330
C
102
}
330
C
100
AcDbDictionary
  3
SORTENTS
350
13218
  0
XRECORD
  5
5E8E
102
{ACAD_REACTORS
330
C
102
}
330
C
100
AcDbXrecord
  1
DWGPROPS COOKIE
  2

  3

  4

  6

  7

  8

  9

300
=
301
=
302
=
303
=
304
=
305
=
306
=
307
=
308
=
309
=
 40
0.586753587962963
 41
2450495.493631365
 42
2453208.662277431
  1

 90
        0
  0
DICTIONARY
  5
17559
102
{ACAD_REACTORS
330
C
102
}
330
C
100
AcDbDictionary
  3
TSTACKALIGN
350
1755A
  3
TSTACKSIZE
350
1755B
  3
HYPERLINKBASE
350
1755C
  3
STYLESHEET
350
1755D
  3
LAYOUTDICT
350
1755E
  3
PLOTSETDICT
350
1755F
  3
PLOTSTYLNAMDICT
350
17560
  3
LWETCUNION
350
17561
  3
INSUNITS
350
17562
  3
CEPSNTYPE
350
17563
  3
FINGERPRINTGUID
350
17564
  3
VERSIONGUID
350
17565
  3
PSVPSCALE
350
17566
  3
PUCSORTHOREF
350
17567
  3
PUCSORTHOVIEW
350
17568
  3
PUCSBASE
350
17569
  3
PUCSORGTOP
350
1756A
  3
PUCSORGBOTTOM
350
1756B
  3
PUCSORGLEFT
350
1756C
  3
PUCSORGRIGHT
350
1756D
  3
PUCSORGFRONT
350
1756E
  3
PUCSORGBACK
350
1756F
  3
UCSORTHOREF
350
17570
  3
UCSORTHOVIEW
350
17571
  3
UCSBASE
350
17572
  3
UCSORGTOP
350
17573
  3
UCSORGBOTTOM
350
17574
  3
UCSORGLEFT
350
17575
  3
UCSORGRIGHT
350
17576
  3
UCSORGFRONT
350
17577
  3
UCSORGBACK
350
17578
  0
DICTIONARY
  5
15F04
102
{ACAD_REACTORS
330
15F03
102
}
330
15F03
100
AcDbDictionary
280
     1
  3
BASE
360
15F05
  3
CASE
360
15F06
  3
KIKOU
360
15F07
  0
XRECORD
  5
1757A
102
{ACAD_REACTORS
330
17579
102
}
330
17579
100
AcDbXrecord
340
1A
  0
XRECORD
  5
1757C
102
{ACAD_REACTORS
330
1757B
102
}
330
1757B
100
AcDbXrecord
340
15176
  0
GROUP
  5
477D
102
{ACAD_REACTORS
330
D
102
}
330
D
100
AcDbGroup
300

 70
     1
 71
     1
  0
GROUP
  5
4C0E
102
{ACAD_REACTORS
330
D
102
}
330
D
100
AcDbGroup
300

 70
     1
 71
     1
  0
GROUP
  5
4C0F
102
{ACAD_REACTORS
330
D
102
}
330
D
100
AcDbGroup
300

 70
     1
 71
     1
  0
GROUP
  5
4C10
102
{ACAD_REACTORS
330
D
102
}
330
D
100
AcDbGroup
300

 70
     1
 71
     1
  0
GROUP
  5
4C11
102
{ACAD_REACTORS
330
D
102
}
330
D
100
AcDbGroup
300

 70
     1
 71
     1
  0
GROUP
  5
4C12
102
{ACAD_REACTORS
330
D
102
}
330
D
100
AcDbGroup
300

 70
     1
 71
     1
  0
GROUP
  5
4C13
102
{ACAD_REACTORS
330
D
102
}
330
D
100
AcDbGroup
300

 70
     1
 71
     1
  0
GROUP
  5
4C14
102
{ACAD_REACTORS
330
D
102
}
330
D
100
AcDbGroup
300

 70
     1
 71
     1
  0
GROUP
  5
4C15
102
{ACAD_REACTORS
330
D
102
}
330
D
100
AcDbGroup
300

 70
     1
 71
     1
  0
GROUP
  5
4C16
102
{ACAD_REACTORS
330
D
102
}
330
D
100
AcDbGroup
300

 70
     1
 71
     1
  0
GROUP
  5
4C17
102
{ACAD_REACTORS
330
D
102
}
330
D
100
AcDbGroup
300

 70
     1
 71
     1
  0
GROUP
  5
477E
102
{ACAD_REACTORS
330
D
102
}
330
D
100
AcDbGroup
300

 70
     1
 71
     1
  0
GROUP
  5
477F
102
{ACAD_REACTORS
330
D
102
}
330
D
100
AcDbGroup
300

 70
     1
 71
     1
  0
GROUP
  5
4780
102
{ACAD_REACTORS
330
D
102
}
330
D
100
AcDbGroup
300

 70
     1
 71
     1
  0
GROUP
  5
4781
102
{ACAD_REACTORS
330
D
102
}
330
D
100
AcDbGroup
300

 70
     1
 71
     1
  0
GROUP
  5
13853
102
{ACAD_REACTORS
330
D
102
}
330
D
100
AcDbGroup
300

 70
     1
 71
     1
  0
MLINESTYLE
  5
13
102
{ACAD_REACTORS
330
E
102
}
330
E
100
AcDbMlineStyle
  2
STANDARD
 70
     0
  3

 62
     0
 51
90.0
 52
90.0
 71
     2
 49
0.5
 62
   256
  6
BYLAYER
 49
-0.5
 62
   256
  6
BYLAYER
  0
ACDBPLACEHOLDER
  5
5C7C
102
{ACAD_REACTORS
330
5C7B
102
}
330
5C7B
100
AcDbPlaceHolder
280
     0
  0
DICTIONARYVAR
  5
13218
102
{ACAD_REACTORS
330
13217
102
}
330
13217
100
DictionaryVariables
280
     0
  1
96
  0
XRECORD
  5
1755A
102
{ACAD_REACTORS
330
17559
102
}
330
17559
100
AcDbXrecord
 90
        1
  0
XRECORD
  5
1755B
102
{ACAD_REACTORS
330
17559
102
}
330
17559
100
AcDbXrecord
 90
       70
  0
XRECORD
  5
1755C
102
{ACAD_REACTORS
330
17559
102
}
330
17559
100
AcDbXrecord
  1

  0
XRECORD
  5
1755D
102
{ACAD_REACTORS
330
17559
102
}
330
17559
100
AcDbXrecord
  1

  0
XRECORD
  5
1755E
102
{ACAD_REACTORS
330
17559
102
}
330
17559
100
AcDbXrecord
340
5C7D
  0
XRECORD
  5
1755F
102
{ACAD_REACTORS
330
17559
102
}
330
17559
100
AcDbXrecord
340
5C7E
  0
XRECORD
  5
17560
102
{ACAD_REACTORS
330
17559
102
}
330
17559
100
AcDbXrecord
340
5C7B
  0
XRECORD
  5
17561
102
{ACAD_REACTORS
330
17559
102
}
330
17559
100
AcDbXrecord
 90
    10781
  0
XRECORD
  5
17562
102
{ACAD_REACTORS
330
17559
102
}
330
17559
100
AcDbXrecord
 90
        0
  0
XRECORD
  5
17563
102
{ACAD_REACTORS
330
17559
102
}
330
17559
100
AcDbXrecord
 90
        0
  0
XRECORD
  5
17564
102
{ACAD_REACTORS
330
17559
102
}
330
17559
100
AcDbXrecord
  1
{225A7F0D-DA29-11D8-946A-0000E2416295}
  0
XRECORD
  5
17565
102
{ACAD_REACTORS
330
17559
102
}
330
17559
100
AcDbXrecord
  1
{1C66209C-974B-4E0E-B180-D8B557D22A97}
  0
XRECORD
  5
17566
102
{ACAD_REACTORS
330
17559
102
}
330
17559
100
AcDbXrecord
 40
0.0
  0
XRECORD
  5
17567
102
{ACAD_REACTORS
330
17559
102
}
330
17559
100
AcDbXrecord
340
0
  0
XRECORD
  5
17568
102
{ACAD_REACTORS
330
17559
102
}
330
17559
100
AcDbXrecord
 70
     0
  0
XRECORD
  5
17569
102
{ACAD_REACTORS
330
17559
102
}
330
17559
100
AcDbXrecord
340
0
  0
XRECORD
  5
1756A
102
{ACAD_REACTORS
330
17559
102
}
330
17559
100
AcDbXrecord
 10
0.0
 20
0.0
 30
0.0
  0
XRECORD
  5
1756B
102
{ACAD_REACTORS
330
17559
102
}
330
17559
100
AcDbXrecord
 10
0.0
 20
0.0
 30
0.0
  0
XRECORD
  5
1756C
102
{ACAD_REACTORS
330
17559
102
}
330
17559
100
AcDbXrecord
 10
0.0
 20
0.0
 30
0.0
  0
XRECORD
  5
1756D
102
{ACAD_REACTORS
330
17559
102
}
330
17559
100
AcDbXrecord
 10
0.0
 20
0.0
 30
0.0
  0
XRECORD
  5
1756E
102
{ACAD_REACTORS
330
17559
102
}
330
17559
100
AcDbXrecord
 10
0.0
 20
0.0
 30
0.0
  0
XRECORD
  5
1756F
102
{ACAD_REACTORS
330
17559
102
}
330
17559
100
AcDbXrecord
 10
0.0
 20
0.0
 30
0.0
  0
XRECORD
  5
17570
102
{ACAD_REACTORS
330
17559
102
}
330
17559
100
AcDbXrecord
340
0
  0
XRECORD
  5
17571
102
{ACAD_REACTORS
330
17559
102
}
330
17559
100
AcDbXrecord
 70
     0
  0
XRECORD
  5
17572
102
{ACAD_REACTORS
330
17559
102
}
330
17559
100
AcDbXrecord
340
0
  0
XRECORD
  5
17573
102
{ACAD_REACTORS
330
17559
102
}
330
17559
100
AcDbXrecord
 10
0.0
 20
0.0
 30
0.0
  0
XRECORD
  5
17574
102
{ACAD_REACTORS
330
17559
102
}
330
17559
100
AcDbXrecord
 10
0.0
 20
0.0
 30
0.0
  0
XRECORD
  5
17575
102
{ACAD_REACTORS
330
17559
102
}
330
17559
100
AcDbXrecord
 10
0.0
 20
0.0
 30
0.0
  0
XRECORD
  5
17576
102
{ACAD_REACTORS
330
17559
102
}
330
17559
100
AcDbXrecord
 10
0.0
 20
0.0
 30
0.0
  0
XRECORD
  5
17577
102
{ACAD_REACTORS
330
17559
102
}
330
17559
100
AcDbXrecord
 10
0.0
 20
0.0
 30
0.0
  0
XRECORD
  5
17578
102
{ACAD_REACTORS
330
17559
102
}
330
17559
100
AcDbXrecord
 10
0.0
 20
0.0
 30
0.0
  0
XRECORD
  5
15F05
102
{ACAD_REACTORS
330
15F04
102
}
330
15F04
100
AcDbXrecord
  1
BASE
  1
BASE*
  1
*
  1
*
 70
     0
  1
*
  1
*
  0
XRECORD
  5
15F06
102
{ACAD_REACTORS
330
15F04
102
}
330
15F04
100
AcDbXrecord
  1
CASE
  1
CASE*
  1
*
  1
*
 70
     0
  1
*
  1
*
  0
XRECORD
  5
15F07
102
{ACAD_REACTORS
330
15F04
102
}
330
15F04
100
AcDbXrecord
  1
KIKOU
  1
KIKOU*
  1
*
  1
*
 70
     0
  1
*
  1
*
  0
ENDSEC
  0
EOF
