  0
SECTION
  2
HEADER
  9
$ACADVER
  1
AC1014
  9
$ACADMAINTVER
 70
     9
  9
$DWGCODEPAGE
  3
ANSI_932
  9
$INSBASE
 10
0.0
 20
0.0
 30
0.0
  9
$EXTMIN
 10
-1736.272930464368
 20
1599.659934807674
 30
0.0
  9
$EXTMAX
 10
-1494.912907916611
 20
1832.530457059657
 30
0.0
  9
$LIMMIN
 10
0.0
 20
0.0
  9
$LIMMAX
 10
420.0
 20
297.0
  9
$ORTHOMODE
 70
     1
  9
$REGENMODE
 70
     1
  9
$FILLMODE
 70
     1
  9
$QTEXTMODE
 70
     0
  9
$MIRRTEXT
 70
     1
  9
$DRAGMODE
 70
     2
  9
$LTSCALE
 40
1.0
  9
$OSMODE
 70
    37
  9
$ATTMODE
 70
     1
  9
$TEXTSIZE
 40
2.5
  9
$TRACEWID
 40
1.0
  9
$TEXTSTYLE
  7
ゴシック体
  9
$CLAYER
  8
SUNPOU
  9
$CELTYPE
  6
BYLAYER
  9
$CECOLOR
 62
   256
  9
$CELTSCALE
 40
1.0
  9
$DELOBJ
 70
     1
  9
$DISPSILH
 70
     0
  9
$DIMSCALE
 40
0.0
  9
$DIMASZ
 40
3.0
  9
$DIMEXO
 40
0.5
  9
$DIMDLI
 40
0.5
  9
$DIMRND
 40
0.0
  9
$DIMDLE
 40
0.0
  9
$DIMEXE
 40
0.5
  9
$DIMTP
 40
0.0
  9
$DIMTM
 40
0.0
  9
$DIMTXT
 40
3.5
  9
$DIMCEN
 40
0.09
  9
$DIMTSZ
 40
0.0
  9
$DIMTOL
 70
     0
  9
$DIMLIM
 70
     0
  9
$DIMTIH
 70
     0
  9
$DIMTOH
 70
     0
  9
$DIMSE1
 70
     0
  9
$DIMSE2
 70
     0
  9
$DIMTAD
 70
     1
  9
$DIMZIN
 70
     8
  9
$DIMBLK
  1

  9
$DIMASO
 70
     1
  9
$DIMSHO
 70
     1
  9
$DIMPOST
  1

  9
$DIMAPOST
  1

  9
$DIMALT
 70
     0
  9
$DIMALTD
 70
     2
  9
$DIMALTF
 40
25.4
  9
$DIMLFAC
 40
1.0
  9
$DIMTOFL
 70
     1
  9
$DIMTVP
 40
0.0
  9
$DIMTIX
 70
     0
  9
$DIMSOXD
 70
     0
  9
$DIMSAH
 70
     0
  9
$DIMBLK1
  1

  9
$DIMBLK2
  1

  9
$DIMSTYLE
  2
標準スタイル
  9
$DIMCLRD
 70
     1
  9
$DIMCLRE
 70
     1
  9
$DIMCLRT
 70
     1
  9
$DIMTFAC
 40
1.0
  9
$DIMGAP
 40
1.0
  9
$DIMJUST
 70
     0
  9
$DIMSD1
 70
     0
  9
$DIMSD2
 70
     0
  9
$DIMTOLJ
 70
     1
  9
$DIMTZIN
 70
     8
  9
$DIMALTZ
 70
     0
  9
$DIMALTTZ
 70
     0
  9
$DIMFIT
 70
     3
  9
$DIMUPT
 70
     0
  9
$DIMUNIT
 70
     2
  9
$DIMDEC
 70
     2
  9
$DIMTDEC
 70
     2
  9
$DIMALTU
 70
     2
  9
$DIMALTTD
 70
     2
  9
$DIMTXSTY
  7
ゴシック体
  9
$DIMAUNIT
 70
     0
  9
$LUNITS
 70
     2
  9
$LUPREC
 70
     4
  9
$SKETCHINC
 40
1.0
  9
$FILLETRAD
 40
0.0
  9
$AUNITS
 70
     0
  9
$AUPREC
 70
     0
  9
$MENU
  1
.
  9
$ELEVATION
 40
0.0
  9
$PELEVATION
 40
0.0
  9
$THICKNESS
 40
0.0
  9
$LIMCHECK
 70
     0
  9
$BLIPMODE
 70
     0
  9
$CHAMFERA
 40
10.0
  9
$CHAMFERB
 40
10.0
  9
$CHAMFERC
 40
2.0
  9
$CHAMFERD
 40
0.7853981633974483
  9
$SKPOLY
 70
     0
  9
$TDCREATE
 40
2450495.493631365
  9
$TDUPDATE
 40
2453984.412231261
  9
$TDINDWG
 40
1.5555815394
  9
$TDUSRTIMER
 40
1.5555810764
  9
$USRTIMER
 70
     1
  9
$ANGBASE
 50
0.0
  9
$ANGDIR
 70
     0
  9
$PDMODE
 70
    99
  9
$PDSIZE
 40
0.0
  9
$PLINEWID
 40
0.0
  9
$COORDS
 70
     1
  9
$SPLFRAME
 70
     0
  9
$SPLINETYPE
 70
     6
  9
$SPLINESEGS
 70
     8
  9
$ATTDIA
 70
     0
  9
$ATTREQ
 70
     1
  9
$HANDLING
 70
 10241
  9
$HANDSEED
  5
123D8
  9
$SURFTAB1
 70
     6
  9
$SURFTAB2
 70
     6
  9
$SURFTYPE
 70
     6
  9
$SURFU
 70
     6
  9
$SURFV
 70
     6
  9
$UCSNAME
  2

  9
$UCSORG
 10
0.0
 20
0.0
 30
0.0
  9
$UCSXDIR
 10
1.0
 20
0.0
 30
0.0
  9
$UCSYDIR
 10
0.0
 20
1.0
 30
0.0
  9
$PUCSNAME
  2

  9
$PUCSORG
 10
0.0
 20
0.0
 30
0.0
  9
$PUCSXDIR
 10
1.0
 20
0.0
 30
0.0
  9
$PUCSYDIR
 10
0.0
 20
1.0
 30
0.0
  9
$USERI1
 70
     0
  9
$USERI2
 70
     0
  9
$USERI3
 70
     0
  9
$USERI4
 70
     0
  9
$USERI5
 70
     0
  9
$USERR1
 40
0.0
  9
$USERR2
 40
0.0
  9
$USERR3
 40
0.0
  9
$USERR4
 40
0.0
  9
$USERR5
 40
0.0
  9
$WORLDVIEW
 70
     1
  9
$SHADEDGE
 70
     3
  9
$SHADEDIF
 70
    70
  9
$TILEMODE
 70
     1
  9
$MAXACTVP
 70
    16
  9
$PINSBASE
 10
0.0
 20
0.0
 30
0.0
  9
$PLIMCHECK
 70
     0
  9
$PEXTMIN
 10
29.03619555254121
 20
27.69602733303884
 30
0.0
  9
$PEXTMAX
 10
414.5361955525409
 20
287.6960273330388
 30
0.0
  9
$PLIMMIN
 10
15.15433780389673
 20
13.80781516542163
  9
$PLIMMAX
 10
435.1009930773342
 20
310.8184658001872
  9
$UNITMODE
 70
     0
  9
$VISRETAIN
 70
     0
  9
$PLINEGEN
 70
     0
  9
$PSLTSCALE
 70
     1
  9
$TREEDEPTH
 70
  3020
  9
$PICKSTYLE
 70
     1
  9
$CMLSTYLE
  2
STANDARD
  9
$CMLJUST
 70
     0
  9
$CMLSCALE
 40
1.0
  9
$PROXYGRAPHICS
 70
     1
  9
$MEASUREMENT
 70
     1
  0
ENDSEC
  0
SECTION
  2
CLASSES
  0
CLASS
  1
LWPOLYLINE
  2
AcDbPolyline
  3
AutoCAD 2000
 90
        0
280
     0
281
     1
  0
CLASS
  1
HATCH
  2
AcDbHatch
  3
AutoCAD 2000
 90
        0
280
     0
281
     1
  0
CLASS
  1
ACDBDICTIONARYWDFLT
  2
AcDbDictionaryWithDefault
  3
AutoCAD 2000
 90
        0
280
     0
281
     0
  0
CLASS
  1
ACDBPLACEHOLDER
  2
AcDbPlaceHolder
  3
AutoCAD 2000
 90
        0
280
     0
281
     0
  0
CLASS
  1
LAYOUT
  2
AcDbLayout
  3
AutoCAD 2000
 90
        0
280
     0
281
     0
  0
CLASS
  1
DICTIONARYVAR
  2
AcDbDictionaryVar
  3
AutoCAD 2000
 90
        0
280
     0
281
     0
  0
CLASS
  1
LONG_TRANSACTION
  2
AcDbLongTransaction
  3
AutoCAD 2000
 90
        0
280
     0
281
     0
  0
CLASS
  1
LWPOLYLINE
  2
AcDbPolyline
  3
AutoCAD 2000
 90
        0
280
     0
281
     1
  0
CLASS
  1
HATCH
  2
AcDbHatch
  3
AutoCAD 2000
 90
        0
280
     0
281
     1
  0
CLASS
  1
XRECORD
  2
AcDbXrecord
  3
AutoCAD 2000
 90
        0
280
     0
281
     0
  0
ENDSEC
  0
SECTION
  2
TABLES
  0
TABLE
  2
VPORT
  5
8
330
0
100
AcDbSymbolTable
 70
     2
  0
VPORT
  5
123B3
330
8
100
AcDbSymbolTableRecord
100
AcDbViewportTableRecord
  2
*ACTIVE
 70
     0
 10
0.0
 20
0.0
 11
1.0
 21
1.0
 12
-1590.84621884876
 22
1712.777769502007
 13
0.0
 23
0.0
 14
5.0
 24
5.0
 15
0.0
 25
0.0
 16
0.0
 26
0.0
 36
1.0
 17
0.0
 27
0.0
 37
0.0
 40
259.482876265881
 41
2.192560175054704
 42
50.0
 43
0.0
 44
0.0
 50
0.0
 51
0.0
 71
     0
 72
   100
 73
     1
 74
     0
 75
     0
 76
     0
 77
     0
 78
     0
  0
ENDTAB
  0
TABLE
  2
LTYPE
  5
5
330
0
100
AcDbSymbolTable
 70
    13
  0
LTYPE
  5
14
330
5
100
AcDbSymbolTableRecord
100
AcDbLinetypeTableRecord
  2
BYBLOCK
 70
     0
  3

 72
    65
 73
     0
 40
0.0
  0
LTYPE
  5
15
330
5
100
AcDbSymbolTableRecord
100
AcDbLinetypeTableRecord
  2
BYLAYER
 70
     0
  3

 72
    65
 73
     0
 40
0.0
  0
LTYPE
  5
16
330
5
100
AcDbSymbolTableRecord
100
AcDbLinetypeTableRecord
  2
CONTINUOUS
 70
     0
  3
Solid line
 72
    65
 73
     0
 40
0.0
  0
LTYPE
  5
329
330
5
100
AcDbSymbolTableRecord
100
AcDbLinetypeTableRecord
  2
DASHEDX2
 70
     0
  3
____  ____  ____  ____  ____  ____  ____  ____ 
 72
    65
 73
     2
 40
1.5
 49
1.0
 74
     0
 49
-0.5
 74
     0
  0
LTYPE
  5
1956
330
5
100
AcDbSymbolTableRecord
100
AcDbLinetypeTableRecord
  2
CENTERX2
 70
     0
  3
________  __  ________  __  ________  __  _____
 72
    65
 73
     4
 40
4.0
 49
2.5
 74
     0
 49
-0.5
 74
     0
 49
0.5
 74
     0
 49
-0.5
 74
     0
  0
LTYPE
  5
1958
330
5
100
AcDbSymbolTableRecord
100
AcDbLinetypeTableRecord
  2
PHANTOMX2
 70
     0
  3
____________    ____    ____    ____________   
 72
    65
 73
     6
 40
5.0
 49
2.5
 74
     0
 49
-0.5
 74
     0
 49
0.5
 74
     0
 49
-0.5
 74
     0
 49
0.5
 74
     0
 49
-0.5
 74
     0
  0
ENDTAB
  0
TABLE
  2
LAYER
  5
2
330
0
100
AcDbSymbolTable
 70
    34
  0
LAYER
  5
F
330
2
100
AcDbSymbolTableRecord
100
AcDbLayerTableRecord
  2
0
 70
     0
 62
     7
  6
CONTINUOUS
  0
LAYER
  5
18F
330
2
100
AcDbSymbolTableRecord
100
AcDbLayerTableRecord
  2
ZISSEN1
 70
     0
 62
     7
  6
CONTINUOUS
  0
LAYER
  5
529
330
2
100
AcDbSymbolTableRecord
100
AcDbLayerTableRecord
  2
SUNPOU
 70
     0
 62
     1
  6
CONTINUOUS
  0
LAYER
  5
1959
330
2
100
AcDbSymbolTableRecord
100
AcDbLayerTableRecord
  2
KAKURESEN1
 70
     0
 62
     3
  6
DASHEDX2
  0
LAYER
  5
195A
330
2
100
AcDbSymbolTableRecord
100
AcDbLayerTableRecord
  2
CL1
 70
     0
 62
   210
  6
CENTERX2
  0
LAYER
  5
195C
330
2
100
AcDbSymbolTableRecord
100
AcDbLayerTableRecord
  2
SOUZOUSEN
 70
     0
 62
     5
  6
PHANTOMX2
  0
LAYER
  5
3A9B
330
2
100
AcDbSymbolTableRecord
100
AcDbLayerTableRecord
  2
DEFPOINTS
 70
     0
 62
     7
  6
CONTINUOUS
  0
LAYER
  5
4001
330
2
100
AcDbSymbolTableRecord
100
AcDbLayerTableRecord
  2
SAISEN1
 70
     0
 62
     1
  6
CONTINUOUS
  0
ENDTAB
  0
TABLE
  2
STYLE
  5
3
330
0
100
AcDbSymbolTable
 70
     5
  0
STYLE
  5
10
330
3
100
AcDbSymbolTableRecord
100
AcDbTextStyleTableRecord
  2
STANDARD
 70
     0
 40
0.0
 41
1.0
 50
0.0
 71
     0
 42
3.0
  3
txt
  4
BigFont
  0
STYLE
  5
1960
330
3
100
AcDbSymbolTableRecord
100
AcDbTextStyleTableRecord
  2
ゴシック体
 70
     0
 40
0.0
 41
1.0
 50
0.0
 71
     0
 42
2.5
  3
MS Gothic.ttf
  4

1001
ACAD
1000
MS Gothic
1071
    32817
  0
ENDTAB
  0
TABLE
  2
VIEW
  5
6
330
0
100
AcDbSymbolTable
 70
     0
  0
ENDTAB
  0
TABLE
  2
UCS
  5
7
330
0
100
AcDbSymbolTable
 70
     0
  0
ENDTAB
  0
TABLE
  2
APPID
  5
9
330
0
100
AcDbSymbolTable
 70
     5
  0
APPID
  5
11
330
9
100
AcDbSymbolTableRecord
100
AcDbRegAppTableRecord
  2
ACAD
 70
     0
  0
APPID
  5
4005
330
9
100
AcDbSymbolTableRecord
100
AcDbRegAppTableRecord
  2
CONTENTTABDATA
 70
     0
  0
APPID
  5
4006
330
9
100
AcDbSymbolTableRecord
100
AcDbRegAppTableRecord
  2
CONTENTCURRENTTAB
 70
     0
  0
APPID
  5
477B
330
9
100
AcDbSymbolTableRecord
100
AcDbRegAppTableRecord
  2
CONTENTBLOCKDESCRIPTION
 70
     0
  0
APPID
  5
477C
330
9
100
AcDbSymbolTableRecord
100
AcDbRegAppTableRecord
  2
CONTENTBLOCKICON
 70
     0
  0
ENDTAB
  0
TABLE
  2
DIMSTYLE
  5
A
330
0
100
AcDbSymbolTable
 70
    12
  0
DIMSTYLE
105
1D
330
A
100
AcDbSymbolTableRecord
100
AcDbDimStyleTableRecord
  2
STANDARD
 70
     0
  3

  4

  5

  6

  7

 40
1.0
 41
0.18
 42
0.0625
 43
0.38
 44
0.18
 45
0.0
 46
0.0
 47
0.0
 48
0.0
140
0.18
141
0.09
142
0.0
143
25.4
144
1.0
145
0.0
146
1.0
147
0.09
 71
     0
 72
     0
 73
     1
 74
     1
 75
     0
 76
     0
 77
     0
 78
     0
170
     0
171
     2
172
     0
173
     0
174
     0
175
     0
176
     0
177
     0
178
     0
270
     2
271
     4
272
     4
273
     2
274
     2
340
10
275
     0
280
     0
281
     0
282
     0
283
     1
284
     0
285
     0
286
     0
287
     3
288
     0
  0
DIMSTYLE
105
52E
102
{ACAD_REACTORS
330
121D5
330
12272
330
12295
330
122AF
330
122BC
330
122CB
330
122EC
330
122FB
330
12308
330
12315
330
1233E
102
}
330
A
100
AcDbSymbolTableRecord
100
AcDbDimStyleTableRecord
  2
標準スタイル
 70
     0
  3

  4

  5

  6

  7

 40
0.0
 41
3.0
 42
0.5
 43
0.5
 44
0.5
 45
0.0
 46
0.0
 47
0.0
 48
0.0
140
3.5
141
0.09
142
0.0
143
25.4
144
1.0
145
0.0
146
1.0
147
1.0
 71
     0
 72
     0
 73
     0
 74
     0
 75
     0
 76
     0
 77
     1
 78
     8
170
     0
171
     2
172
     1
173
     0
174
     0
175
     0
176
     1
177
     1
178
     1
270
     2
271
     2
272
     2
273
     2
274
     2
340
1960
275
     0
280
     0
281
     0
282
     0
283
     1
284
     8
285
     0
286
     0
287
     3
288
     0
  0
ENDTAB
  0
TABLE
  2
BLOCK_RECORD
  5
1
330
0
100
AcDbSymbolTable
 70
    35
  0
BLOCK_RECORD
  5
1A
102
{ACAD_XDICTIONARY
360
123D4
102
}
330
1
100
AcDbSymbolTableRecord
100
AcDbBlockTableRecord
  2
*MODEL_SPACE
  0
BLOCK_RECORD
  5
5D8E
102
{ACAD_XDICTIONARY
360
123D6
102
}
330
1
100
AcDbSymbolTableRecord
100
AcDbBlockTableRecord
  2
*PAPER_SPACE
  0
BLOCK_RECORD
  5
12273
330
1
100
AcDbSymbolTableRecord
100
AcDbBlockTableRecord
  2
*D25
  0
BLOCK_RECORD
  5
12296
330
1
100
AcDbSymbolTableRecord
100
AcDbBlockTableRecord
  2
*D26
  0
BLOCK_RECORD
  5
122B0
330
1
100
AcDbSymbolTableRecord
100
AcDbBlockTableRecord
  2
*D27
  0
BLOCK_RECORD
  5
122BD
330
1
100
AcDbSymbolTableRecord
100
AcDbBlockTableRecord
  2
*D28
  0
BLOCK_RECORD
  5
122CC
330
1
100
AcDbSymbolTableRecord
100
AcDbBlockTableRecord
  2
*D29
  0
BLOCK_RECORD
  5
122ED
330
1
100
AcDbSymbolTableRecord
100
AcDbBlockTableRecord
  2
*D30
  0
BLOCK_RECORD
  5
122FC
330
1
100
AcDbSymbolTableRecord
100
AcDbBlockTableRecord
  2
*D31
  0
BLOCK_RECORD
  5
12309
330
1
100
AcDbSymbolTableRecord
100
AcDbBlockTableRecord
  2
*D32
  0
BLOCK_RECORD
  5
12316
330
1
100
AcDbSymbolTableRecord
100
AcDbBlockTableRecord
  2
*D33
  0
BLOCK_RECORD
  5
1233F
330
1
100
AcDbSymbolTableRecord
100
AcDbBlockTableRecord
  2
*D34
  0
ENDTAB
  0
ENDSEC
  0
SECTION
  2
BLOCKS
  0
BLOCK
  5
1B
330
1A
100
AcDbEntity
  8
0
100
AcDbBlockBegin
  2
*MODEL_SPACE
 70
     0
 10
0.0
 20
0.0
 30
0.0
  3
*MODEL_SPACE
  1

  0
ENDBLK
  5
1C
330
1A
100
AcDbEntity
  8
0
100
AcDbBlockEnd
  0
BLOCK
  5
5E60
330
5D8E
100
AcDbEntity
 67
     1
  8
0
100
AcDbBlockBegin
  2
*PAPER_SPACE
 70
     0
 10
0.0
 20
0.0
 30
0.0
  3
*PAPER_SPACE
  1

  0
ENDBLK
  5
5E61
330
5D8E
100
AcDbEntity
 67
     1
  8
0
100
AcDbBlockEnd
  0
BLOCK
  5
1227D
330
12273
100
AcDbEntity
  8
0
100
AcDbBlockBegin
  2
*D25
 70
     1
 10
0.0
 20
0.0
 30
0.0
  3
*D25
  1

  0
LINE
  5
1238A
330
12273
100
AcDbEntity
  8
SAISEN1
 62
     1
100
AcDbLine
 10
-1639.526837426934
 20
1700.692057767107
 30
0.0
 11
-1590.785647442
 21
1700.692057767107
 31
0.0
  0
LINE
  5
1238B
330
12273
100
AcDbEntity
  8
SAISEN1
 62
     1
100
AcDbLine
 10
-1615.184257301016
 20
1610.692064807673
 30
0.0
 11
-1590.785647442
 21
1610.692064807673
 31
0.0
  0
LINE
  5
1238C
330
12273
100
AcDbEntity
  8
SAISEN1
 62
     1
100
AcDbLine
 10
-1591.285647442001
 20
1697.692057767109
 30
0.0
 11
-1591.285647442001
 21
1613.692064807674
 31
0.0
  0
SOLID
  5
1238D
330
12273
100
AcDbEntity
  8
SAISEN1
 62
     1
100
AcDbTrace
 10
-1591.785647442001
 20
1697.692057767109
 30
0.0
 11
-1590.785647442
 21
1697.692057767109
 31
0.0
 12
-1591.285647442001
 22
1700.692057767107
 32
0.0
 13
-1591.285647442001
 23
1700.692057767107
 33
0.0
  0
SOLID
  5
1238E
330
12273
100
AcDbEntity
  8
SAISEN1
 62
     1
100
AcDbTrace
 10
-1591.785647442001
 20
1613.692064807674
 30
0.0
 11
-1590.785647442
 21
1613.692064807674
 31
0.0
 12
-1591.285647442001
 22
1610.692064807673
 32
0.0
 13
-1591.285647442001
 23
1610.692064807673
 33
0.0
  0
MTEXT
  5
1238F
330
12273
100
AcDbEntity
  8
SAISEN1
 62
     1
100
AcDbMText
 10
-1594.035647442002
 20
1655.692061287391
 30
0.0
 40
3.5
 41
0.0
 71
     5
 72
     1
  1
\A1;90
  7
ゴシック体
 11
0.0000000000000001
 21
1.0
 31
0.0
1001
ACAD
1000
MTEXTBEGIN
1070
    73
1070
     1
1070
    44
1040
1.0
1070
    74
1070
     0
1000
MTEXTEND
  0
POINT
  5
12390
330
12273
100
AcDbEntity
  8
DEFPOINTS
 62
     0
100
AcDbPoint
 10
-1640.026837426934
 20
1700.692057767107
 30
0.0
  0
POINT
  5
12391
330
12273
100
AcDbEntity
  8
DEFPOINTS
 62
     0
100
AcDbPoint
 10
-1615.684257301015
 20
1610.692064807673
 30
0.0
  0
POINT
  5
12392
330
12273
100
AcDbEntity
  8
DEFPOINTS
 62
     0
100
AcDbPoint
 10
-1591.285647442001
 20
1610.692064807673
 30
0.0
  0
ENDBLK
  5
1227E
330
12273
100
AcDbEntity
  8
0
100
AcDbBlockEnd
  0
BLOCK
  5
122A2
330
12296
100
AcDbEntity
  8
0
100
AcDbBlockBegin
  2
*D26
 70
     1
 10
0.0
 20
0.0
 30
0.0
  3
*D26
  1

  0
LINE
  5
1237F
330
12296
100
AcDbEntity
  8
SUNPOU
 62
     1
100
AcDbLine
 10
-1715.684267301016
 20
1806.603093807673
 30
0.0
 11
-1715.684267301016
 21
1818.054831436466
 31
0.0
  0
LINE
  5
12380
330
12296
100
AcDbEntity
  8
SUNPOU
 62
     1
100
AcDbLine
 10
-1712.684267301016
 20
1765.310193807673
 30
0.0
 11
-1712.684267301016
 21
1818.054831436466
 31
0.0
  0
LINE
  5
12381
330
12296
100
AcDbEntity
  8
SUNPOU
 62
     1
100
AcDbLine
 10
-1709.684267301016
 20
1817.554831436466
 30
0.0
 11
-1706.684267301016
 21
1817.554831436466
 31
0.0
  0
LINE
  5
12382
330
12296
100
AcDbEntity
  8
SUNPOU
 62
     1
100
AcDbLine
 10
-1718.684267301016
 20
1817.554831436466
 30
0.0
 11
-1725.496450042133
 21
1817.554831436466
 31
0.0
  0
LINE
  5
12383
330
12296
100
AcDbEntity
  8
SUNPOU
 62
     1
100
AcDbLine
 10
-1712.684267301016
 20
1817.554831436466
 30
0.0
 11
-1715.684267301016
 21
1817.554831436466
 31
0.0
  0
SOLID
  5
12384
330
12296
100
AcDbEntity
  8
SUNPOU
 62
     1
100
AcDbTrace
 10
-1709.684267301016
 20
1818.054831436466
 30
0.0
 11
-1709.684267301016
 21
1817.054831436466
 31
0.0
 12
-1712.684267301016
 22
1817.554831436466
 32
0.0
 13
-1712.684267301016
 23
1817.554831436466
 33
0.0
  0
SOLID
  5
12385
330
12296
100
AcDbEntity
  8
SUNPOU
 62
     1
100
AcDbTrace
 10
-1718.684267301016
 20
1818.054831436466
 30
0.0
 11
-1718.684267301016
 21
1817.054831436466
 31
0.0
 12
-1715.684267301016
 22
1817.554831436466
 32
0.0
 13
-1715.684267301016
 23
1817.554831436466
 33
0.0
  0
MTEXT
  5
12386
330
12296
100
AcDbEntity
  8
SUNPOU
 62
     1
100
AcDbMText
 10
-1723.590358671575
 20
1820.304831436466
 30
0.0
 40
3.5
 41
0.0
 71
     5
 72
     1
  1
\A1;3
  7
ゴシック体
1001
ACAD
1000
MTEXTBEGIN
1070
    73
1070
     1
1070
    44
1040
1.0
1070
    74
1070
     0
1000
MTEXTEND
  0
POINT
  5
12387
330
12296
100
AcDbEntity
  8
DEFPOINTS
 62
     0
100
AcDbPoint
 10
-1715.684267301016
 20
1806.103093807674
 30
0.0
  0
POINT
  5
12388
330
12296
100
AcDbEntity
  8
DEFPOINTS
 62
     0
100
AcDbPoint
 10
-1712.684267301016
 20
1764.810193807673
 30
0.0
  0
POINT
  5
12389
330
12296
100
AcDbEntity
  8
DEFPOINTS
 62
     0
100
AcDbPoint
 10
-1712.684267301016
 20
1817.554831436466
 30
0.0
  0
ENDBLK
  5
122A3
330
12296
100
AcDbEntity
  8
0
100
AcDbBlockEnd
  0
BLOCK
  5
122BA
330
122B0
100
AcDbEntity
  8
0
100
AcDbBlockBegin
  2
*D27
 70
     1
 10
0.0
 20
0.0
 30
0.0
  3
*D27
  1

  0
LINE
  5
122B1
330
122B0
100
AcDbEntity
  8
SUNPOU
 62
     1
100
AcDbLine
 10
-1712.684267301016
 20
1765.810193807674
 30
0.0
 11
-1712.684267301016
 21
1818.054831436466
 31
0.0
  0
LINE
  5
122B2
330
122B0
100
AcDbEntity
  8
SUNPOU
 62
     1
100
AcDbLine
 10
-1618.684277301015
 20
1765.310193807673
 30
0.0
 11
-1618.684277301015
 21
1818.054831436466
 31
0.0
  0
LINE
  5
122B3
330
122B0
100
AcDbEntity
  8
SUNPOU
 62
     1
100
AcDbLine
 10
-1709.684267301016
 20
1817.554831436466
 30
0.0
 11
-1621.684277301016
 21
1817.554831436466
 31
0.0
  0
SOLID
  5
122B4
330
122B0
100
AcDbEntity
  8
SUNPOU
 62
     1
100
AcDbTrace
 10
-1709.684267301016
 20
1818.054831436466
 30
0.0
 11
-1709.684267301016
 21
1817.054831436466
 31
0.0
 12
-1712.684267301016
 22
1817.554831436466
 32
0.0
 13
-1712.684267301016
 23
1817.554831436466
 33
0.0
  0
SOLID
  5
122B5
330
122B0
100
AcDbEntity
  8
SUNPOU
 62
     1
100
AcDbTrace
 10
-1621.684277301016
 20
1818.054831436466
 30
0.0
 11
-1621.684277301016
 21
1817.054831436466
 31
0.0
 12
-1618.684277301015
 22
1817.554831436466
 32
0.0
 13
-1618.684277301015
 23
1817.554831436466
 33
0.0
  0
MTEXT
  5
122B6
330
122B0
100
AcDbEntity
  8
SUNPOU
 62
     1
100
AcDbMText
 10
-1665.684272301015
 20
1820.304831436466
 30
0.0
 40
3.5
 41
0.0
 71
     5
 72
     1
  1
\A1;94
  7
ゴシック体
1001
ACAD
1000
MTEXTBEGIN
1070
    73
1070
     1
1070
    44
1040
1.0
1070
    74
1070
     0
1000
MTEXTEND
  0
POINT
  5
122B7
330
122B0
100
AcDbEntity
  8
DEFPOINTS
 62
     0
100
AcDbPoint
 10
-1712.684267301016
 20
1765.310193807673
 30
0.0
  0
POINT
  5
122B8
330
122B0
100
AcDbEntity
  8
DEFPOINTS
 62
     0
100
AcDbPoint
 10
-1618.684277301015
 20
1764.810193807673
 30
0.0
  0
POINT
  5
122B9
330
122B0
100
AcDbEntity
  8
DEFPOINTS
 62
     0
100
AcDbPoint
 10
-1618.684277301015
 20
1817.554831436466
 30
0.0
  0
ENDBLK
  5
122BB
330
122B0
100
AcDbEntity
  8
0
100
AcDbBlockEnd
  0
BLOCK
  5
122C9
330
122BD
100
AcDbEntity
  8
0
100
AcDbBlockBegin
  2
*D28
 70
     1
 10
0.0
 20
0.0
 30
0.0
  3
*D28
  1

  0
LINE
  5
122BE
330
122BD
100
AcDbEntity
  8
SUNPOU
 62
     1
100
AcDbLine
 10
-1618.684277301015
 20
1765.310193807673
 30
0.0
 11
-1618.684277301015
 21
1818.054831436466
 31
0.0
  0
LINE
  5
122BF
330
122BD
100
AcDbEntity
  8
SUNPOU
 62
     1
100
AcDbLine
 10
-1615.684257301015
 20
1806.603093807673
 30
0.0
 11
-1615.684257301015
 21
1818.054831436466
 31
0.0
  0
LINE
  5
122C0
330
122BD
100
AcDbEntity
  8
SUNPOU
 62
     1
100
AcDbLine
 10
-1621.684277301016
 20
1817.554831436466
 30
0.0
 11
-1624.684277301016
 21
1817.554831436466
 31
0.0
  0
LINE
  5
122C1
330
122BD
100
AcDbEntity
  8
SUNPOU
 62
     1
100
AcDbLine
 10
-1612.684257301016
 20
1817.554831436466
 30
0.0
 11
-1605.872074559899
 21
1817.554831436466
 31
0.0
  0
LINE
  5
122C2
330
122BD
100
AcDbEntity
  8
SUNPOU
 62
     1
100
AcDbLine
 10
-1618.684277301015
 20
1817.554831436466
 30
0.0
 11
-1615.684257301015
 21
1817.554831436466
 31
0.0
  0
SOLID
  5
122C3
330
122BD
100
AcDbEntity
  8
SUNPOU
 62
     1
100
AcDbTrace
 10
-1621.684277301016
 20
1818.054831436466
 30
0.0
 11
-1621.684277301016
 21
1817.054831436466
 31
0.0
 12
-1618.684277301015
 22
1817.554831436466
 32
0.0
 13
-1618.684277301015
 23
1817.554831436466
 33
0.0
  0
SOLID
  5
122C4
330
122BD
100
AcDbEntity
  8
SUNPOU
 62
     1
100
AcDbTrace
 10
-1612.684257301016
 20
1818.054831436466
 30
0.0
 11
-1612.684257301016
 21
1817.054831436466
 31
0.0
 12
-1615.684257301015
 22
1817.554831436466
 32
0.0
 13
-1615.684257301015
 23
1817.554831436466
 33
0.0
  0
MTEXT
  5
122C5
330
122BD
100
AcDbEntity
  8
SUNPOU
 62
     1
100
AcDbMText
 10
-1607.778165930458
 20
1820.304831436466
 30
0.0
 40
3.5
 41
0.0
 71
     5
 72
     1
  1
\A1;3
  7
ゴシック体
1001
ACAD
1000
MTEXTBEGIN
1070
    73
1070
     1
1070
    44
1040
1.0
1070
    74
1070
     0
1000
MTEXTEND
  0
POINT
  5
122C6
330
122BD
100
AcDbEntity
  8
DEFPOINTS
 62
     0
100
AcDbPoint
 10
-1618.684277301015
 20
1764.810193807673
 30
0.0
  0
POINT
  5
122C7
330
122BD
100
AcDbEntity
  8
DEFPOINTS
 62
     0
100
AcDbPoint
 10
-1615.684257301015
 20
1806.103093807674
 30
0.0
  0
POINT
  5
122C8
330
122BD
100
AcDbEntity
  8
DEFPOINTS
 62
     0
100
AcDbPoint
 10
-1615.684257301015
 20
1817.554831436466
 30
0.0
  0
ENDBLK
  5
122CA
330
122BD
100
AcDbEntity
  8
0
100
AcDbBlockEnd
  0
BLOCK
  5
122D6
330
122CC
100
AcDbEntity
  8
0
100
AcDbBlockBegin
  2
*D29
 70
     1
 10
0.0
 20
0.0
 30
0.0
  3
*D29
  1

  0
LINE
  5
122E3
330
122CC
100
AcDbEntity
  8
SUNPOU
 62
     1
100
AcDbLine
 10
-1715.477157301015
 20
1806.810193807674
 30
0.0
 11
-1731.864301022744
 21
1806.810193807674
 31
0.0
  0
LINE
  5
122E4
330
122CC
100
AcDbEntity
  8
SUNPOU
 62
     1
100
AcDbLine
 10
-1715.477157301015
 20
1716.810193807673
 30
0.0
 11
-1731.864301022744
 21
1716.810193807673
 31
0.0
  0
LINE
  5
122E5
330
122CC
100
AcDbEntity
  8
SUNPOU
 62
     1
100
AcDbLine
 10
-1731.364301022744
 20
1803.810193807674
 30
0.0
 11
-1731.364301022744
 21
1719.810193807672
 31
0.0
  0
SOLID
  5
122E6
330
122CC
100
AcDbEntity
  8
SUNPOU
 62
     1
100
AcDbTrace
 10
-1731.864301022744
 20
1803.810193807674
 30
0.0
 11
-1730.864301022744
 21
1803.810193807674
 31
0.0
 12
-1731.364301022744
 22
1806.810193807674
 32
0.0
 13
-1731.364301022744
 23
1806.810193807674
 33
0.0
  0
SOLID
  5
122E7
330
122CC
100
AcDbEntity
  8
SUNPOU
 62
     1
100
AcDbTrace
 10
-1731.864301022744
 20
1719.810193807672
 30
0.0
 11
-1730.864301022744
 21
1719.810193807672
 31
0.0
 12
-1731.364301022744
 22
1716.810193807673
 32
0.0
 13
-1731.364301022744
 23
1716.810193807673
 33
0.0
  0
MTEXT
  5
122E8
330
122CC
100
AcDbEntity
  8
SUNPOU
 62
     1
100
AcDbMText
 10
-1734.114301022744
 20
1761.810193807673
 30
0.0
 40
3.5
 41
0.0
 71
     5
 72
     1
  1
\A1;90
  7
ゴシック体
 11
0.0000000000000001
 21
1.0
 31
0.0
1001
ACAD
1000
MTEXTBEGIN
1070
    73
1070
     1
1070
    44
1040
1.0
1070
    74
1070
     0
1000
MTEXTEND
  0
POINT
  5
122E9
330
122CC
100
AcDbEntity
  8
DEFPOINTS
 62
     0
100
AcDbPoint
 10
-1714.977157301015
 20
1806.810193807674
 30
0.0
  0
POINT
  5
122EA
330
122CC
100
AcDbEntity
  8
DEFPOINTS
 62
     0
100
AcDbPoint
 10
-1714.977157301015
 20
1716.810193807673
 30
0.0
  0
POINT
  5
122EB
330
122CC
100
AcDbEntity
  8
DEFPOINTS
 62
     0
100
AcDbPoint
 10
-1731.364301022744
 20
1716.810193807673
 30
0.0
  0
ENDBLK
  5
122D7
330
122CC
100
AcDbEntity
  8
0
100
AcDbBlockEnd
  0
BLOCK
  5
122F9
330
122ED
100
AcDbEntity
  8
0
100
AcDbBlockBegin
  2
*D30
 70
     1
 10
0.0
 20
0.0
 30
0.0
  3
*D30
  1

  0
LINE
  5
122EE
330
122ED
100
AcDbEntity
  8
SUNPOU
 62
     1
100
AcDbLine
 10
-1615.184257301016
 20
1763.560203807674
 30
0.0
 11
-1604.459854900249
 21
1763.560203807674
 31
0.0
  0
LINE
  5
122EF
330
122ED
100
AcDbEntity
  8
SUNPOU
 62
     1
100
AcDbLine
 10
-1615.184257301016
 20
1760.060193807674
 30
0.0
 11
-1604.459854900249
 21
1760.060193807674
 31
0.0
  0
LINE
  5
122F0
330
122ED
100
AcDbEntity
  8
SUNPOU
 62
     1
100
AcDbLine
 10
-1604.95985490025
 20
1766.560203807674
 30
0.0
 11
-1604.95985490025
 21
1769.560203807674
 31
0.0
  0
LINE
  5
122F1
330
122ED
100
AcDbEntity
  8
SUNPOU
 62
     1
100
AcDbLine
 10
-1604.95985490025
 20
1757.060193807673
 30
0.0
 11
-1604.95985490025
 21
1745.699787716302
 31
0.0
  0
LINE
  5
122F2
330
122ED
100
AcDbEntity
  8
SUNPOU
 62
     1
100
AcDbLine
 10
-1604.95985490025
 20
1763.560203807674
 30
0.0
 11
-1604.95985490025
 21
1760.060193807674
 31
0.0
  0
SOLID
  5
122F3
330
122ED
100
AcDbEntity
  8
SUNPOU
 62
     1
100
AcDbTrace
 10
-1605.459854900249
 20
1766.560203807674
 30
0.0
 11
-1604.459854900249
 21
1766.560203807674
 31
0.0
 12
-1604.95985490025
 22
1763.560203807674
 32
0.0
 13
-1604.95985490025
 23
1763.560203807674
 33
0.0
  0
SOLID
  5
122F4
330
122ED
100
AcDbEntity
  8
SUNPOU
 62
     1
100
AcDbTrace
 10
-1605.459854900249
 20
1757.060193807673
 30
0.0
 11
-1604.459854900249
 21
1757.060193807673
 31
0.0
 12
-1604.95985490025
 22
1760.060193807674
 32
0.0
 13
-1604.95985490025
 23
1760.060193807674
 33
0.0
  0
MTEXT
  5
122F5
330
122ED
100
AcDbEntity
  8
SUNPOU
 62
     1
100
AcDbMText
 10
-1607.709854900249
 20
1749.879990761987
 30
0.0
 40
3.5
 41
0.0
 71
     5
 72
     1
  1
\A1;3.5
  7
ゴシック体
 11
0.0000000000000001
 21
1.0
 31
0.0
1001
ACAD
1000
MTEXTBEGIN
1070
    73
1070
     1
1070
    44
1040
1.0
1070
    74
1070
     0
1000
MTEXTEND
  0
POINT
  5
122F6
330
122ED
100
AcDbEntity
  8
DEFPOINTS
 62
     0
100
AcDbPoint
 10
-1615.684257301015
 20
1763.560203807674
 30
0.0
  0
POINT
  5
122F7
330
122ED
100
AcDbEntity
  8
DEFPOINTS
 62
     0
100
AcDbPoint
 10
-1615.684257301015
 20
1760.060193807674
 30
0.0
  0
POINT
  5
122F8
330
122ED
100
AcDbEntity
  8
DEFPOINTS
 62
     0
100
AcDbPoint
 10
-1604.95985490025
 20
1760.060193807674
 30
0.0
  0
ENDBLK
  5
122FA
330
122ED
100
AcDbEntity
  8
0
100
AcDbBlockEnd
  0
BLOCK
  5
12306
330
122FC
100
AcDbEntity
  8
0
100
AcDbBlockBegin
  2
*D31
 70
     1
 10
0.0
 20
0.0
 30
0.0
  3
*D31
  1

  0
LINE
  5
122FD
330
122FC
100
AcDbEntity
  8
SUNPOU
 62
     1
100
AcDbLine
 10
-1708.684217301015
 20
1635.292060807674
 30
0.0
 11
-1731.864301022744
 21
1635.292060807674
 31
0.0
  0
LINE
  5
122FE
330
122FC
100
AcDbEntity
  8
SUNPOU
 62
     1
100
AcDbLine
 10
-1716.184267301016
 20
1610.692064807673
 30
0.0
 11
-1731.864301022744
 21
1610.692064807673
 31
0.0
  0
LINE
  5
122FF
330
122FC
100
AcDbEntity
  8
SUNPOU
 62
     1
100
AcDbLine
 10
-1731.364301022744
 20
1632.292060807674
 30
0.0
 11
-1731.364301022744
 21
1613.692064807674
 31
0.0
  0
SOLID
  5
12300
330
122FC
100
AcDbEntity
  8
SUNPOU
 62
     1
100
AcDbTrace
 10
-1731.864301022744
 20
1632.292060807674
 30
0.0
 11
-1730.864301022744
 21
1632.292060807674
 31
0.0
 12
-1731.364301022744
 22
1635.292060807674
 32
0.0
 13
-1731.364301022744
 23
1635.292060807674
 33
0.0
  0
SOLID
  5
12301
330
122FC
100
AcDbEntity
  8
SUNPOU
 62
     1
100
AcDbTrace
 10
-1731.864301022744
 20
1613.692064807674
 30
0.0
 11
-1730.864301022744
 21
1613.692064807674
 31
0.0
 12
-1731.364301022744
 22
1610.692064807673
 32
0.0
 13
-1731.364301022744
 23
1610.692064807673
 33
0.0
  0
MTEXT
  5
12302
330
122FC
100
AcDbEntity
  8
SUNPOU
 62
     1
100
AcDbMText
 10
-1734.114301022744
 20
1622.992062807673
 30
0.0
 40
3.5
 41
0.0
 71
     5
 72
     1
  1
\A1;24.6
  7
ゴシック体
 11
0.0000000000000001
 21
1.0
 31
0.0
1001
ACAD
1000
MTEXTBEGIN
1070
    73
1070
     1
1070
    44
1040
1.0
1070
    74
1070
     0
1000
MTEXTEND
  0
POINT
  5
12303
330
122FC
100
AcDbEntity
  8
DEFPOINTS
 62
     0
100
AcDbPoint
 10
-1708.184217301015
 20
1635.292060807674
 30
0.0
  0
POINT
  5
12304
330
122FC
100
AcDbEntity
  8
DEFPOINTS
 62
     0
100
AcDbPoint
 10
-1715.684267301016
 20
1610.692064807673
 30
0.0
  0
POINT
  5
12305
330
122FC
100
AcDbEntity
  8
DEFPOINTS
 62
     0
100
AcDbPoint
 10
-1731.364301022744
 20
1610.692064807673
 30
0.0
  0
ENDBLK
  5
12307
330
122FC
100
AcDbEntity
  8
0
100
AcDbBlockEnd
  0
BLOCK
  5
12313
330
12309
100
AcDbEntity
  8
0
100
AcDbBlockBegin
  2
*D32
 70
     1
 10
0.0
 20
0.0
 30
0.0
  3
*D32
  1

  0
LINE
  5
1230A
330
12309
100
AcDbEntity
  8
SUNPOU
 62
     1
100
AcDbLine
 10
-1715.684267301016
 20
1620.792061807673
 30
0.0
 11
-1715.684267301016
 21
1706.180128972301
 31
0.0
  0
LINE
  5
1230B
330
12309
100
AcDbEntity
  8
SUNPOU
 62
     1
100
AcDbLine
 10
-1615.684257301015
 20
1620.792061807673
 30
0.0
 11
-1615.684257301015
 21
1706.180128972301
 31
0.0
  0
LINE
  5
1230C
330
12309
100
AcDbEntity
  8
SUNPOU
 62
     1
100
AcDbLine
 10
-1712.684267301016
 20
1705.680128972304
 30
0.0
 11
-1618.684257301016
 21
1705.680128972304
 31
0.0
  0
SOLID
  5
1230D
330
12309
100
AcDbEntity
  8
SUNPOU
 62
     1
100
AcDbTrace
 10
-1712.684267301016
 20
1706.180128972301
 30
0.0
 11
-1712.684267301016
 21
1705.180128972302
 31
0.0
 12
-1715.684267301016
 22
1705.680128972304
 32
0.0
 13
-1715.684267301016
 23
1705.680128972304
 33
0.0
  0
SOLID
  5
1230E
330
12309
100
AcDbEntity
  8
SUNPOU
 62
     1
100
AcDbTrace
 10
-1618.684257301016
 20
1706.180128972301
 30
0.0
 11
-1618.684257301016
 21
1705.180128972302
 31
0.0
 12
-1615.684257301015
 22
1705.680128972304
 32
0.0
 13
-1615.684257301015
 23
1705.680128972304
 33
0.0
  0
MTEXT
  5
1230F
330
12309
100
AcDbEntity
  8
SUNPOU
 62
     1
100
AcDbMText
 10
-1665.684262301016
 20
1708.430128972304
 30
0.0
 40
3.5
 41
0.0
 71
     5
 72
     1
  1
\A1;100
  7
ゴシック体
1001
ACAD
1000
MTEXTBEGIN
1070
    73
1070
     1
1070
    44
1040
1.0
1070
    74
1070
     0
1000
MTEXTEND
  0
POINT
  5
12310
330
12309
100
AcDbEntity
  8
DEFPOINTS
 62
     0
100
AcDbPoint
 10
-1715.684267301016
 20
1620.292061807673
 30
0.0
  0
POINT
  5
12311
330
12309
100
AcDbEntity
  8
DEFPOINTS
 62
     0
100
AcDbPoint
 10
-1615.684257301015
 20
1620.292061807673
 30
0.0
  0
POINT
  5
12312
330
12309
100
AcDbEntity
  8
DEFPOINTS
 62
     0
100
AcDbPoint
 10
-1615.684257301015
 20
1705.680128972304
 30
0.0
  0
ENDBLK
  5
12314
330
12309
100
AcDbEntity
  8
0
100
AcDbBlockEnd
  0
BLOCK
  5
12320
330
12316
100
AcDbEntity
  8
0
100
AcDbBlockBegin
  2
*D33
 70
     1
 10
0.0
 20
0.0
 30
0.0
  3
*D33
  1

  0
LINE
  5
12335
330
12316
100
AcDbEntity
  8
SUNPOU
 62
     1
100
AcDbLine
 10
-1715.684267301016
 20
1717.017303807674
 30
0.0
 11
-1715.684267301016
 21
1705.180128972302
 31
0.0
  0
LINE
  5
12336
330
12316
100
AcDbEntity
  8
SUNPOU
 62
     1
100
AcDbLine
 10
-1615.684257301015
 20
1717.017303807674
 30
0.0
 11
-1615.684257301015
 21
1705.180128972302
 31
0.0
  0
LINE
  5
12337
330
12316
100
AcDbEntity
  8
SUNPOU
 62
     1
100
AcDbLine
 10
-1712.684267301016
 20
1705.680128972304
 30
0.0
 11
-1618.684257301016
 21
1705.680128972304
 31
0.0
  0
SOLID
  5
12338
330
12316
100
AcDbEntity
  8
SUNPOU
 62
     1
100
AcDbTrace
 10
-1712.684267301016
 20
1706.180128972301
 30
0.0
 11
-1712.684267301016
 21
1705.180128972302
 31
0.0
 12
-1715.684267301016
 22
1705.680128972304
 32
0.0
 13
-1715.684267301016
 23
1705.680128972304
 33
0.0
  0
SOLID
  5
12339
330
12316
100
AcDbEntity
  8
SUNPOU
 62
     1
100
AcDbTrace
 10
-1618.684257301016
 20
1706.180128972301
 30
0.0
 11
-1618.684257301016
 21
1705.180128972302
 31
0.0
 12
-1615.684257301015
 22
1705.680128972304
 32
0.0
 13
-1615.684257301015
 23
1705.680128972304
 33
0.0
  0
MTEXT
  5
1233A
330
12316
100
AcDbEntity
  8
SUNPOU
 62
     1
100
AcDbMText
 10
-1665.684262301016
 20
1708.430128972304
 30
0.0
 40
3.5
 41
0.0
 71
     5
 72
     1
  1
\A1;100
  7
ゴシック体
1001
ACAD
1000
MTEXTBEGIN
1070
    73
1070
     1
1070
    44
1040
1.0
1070
    74
1070
     0
1000
MTEXTEND
  0
POINT
  5
1233B
330
12316
100
AcDbEntity
  8
DEFPOINTS
 62
     0
100
AcDbPoint
 10
-1715.684267301016
 20
1717.517303807674
 30
0.0
  0
POINT
  5
1233C
330
12316
100
AcDbEntity
  8
DEFPOINTS
 62
     0
100
AcDbPoint
 10
-1615.684257301015
 20
1717.517303807674
 30
0.0
  0
POINT
  5
1233D
330
12316
100
AcDbEntity
  8
DEFPOINTS
 62
     0
100
AcDbPoint
 10
-1615.684257301015
 20
1705.680128972304
 30
0.0
  0
ENDBLK
  5
12321
330
12316
100
AcDbEntity
  8
0
100
AcDbBlockEnd
  0
BLOCK
  5
1234B
330
1233F
100
AcDbEntity
  8
0
100
AcDbBlockBegin
  2
*D34
 70
     1
 10
0.0
 20
0.0
 30
0.0
  3
*D34
  1

  0
LINE
  5
12340
330
1233F
100
AcDbEntity
  8
SUNPOU
 62
     1
100
AcDbLine
 10
-1615.184257301016
 20
1613.692061807673
 30
0.0
 11
-1604.459854900249
 21
1613.692061807673
 31
0.0
  0
LINE
  5
12341
330
1233F
100
AcDbEntity
  8
SUNPOU
 62
     1
100
AcDbLine
 10
-1614.684257301016
 20
1610.692064807673
 30
0.0
 11
-1604.459854900249
 21
1610.692064807673
 31
0.0
  0
LINE
  5
12342
330
1233F
100
AcDbEntity
  8
SUNPOU
 62
     1
100
AcDbLine
 10
-1604.95985490025
 20
1616.692061807674
 30
0.0
 11
-1604.95985490025
 21
1619.692061807674
 31
0.0
  0
LINE
  5
12343
330
1233F
100
AcDbEntity
  8
SUNPOU
 62
     1
100
AcDbLine
 10
-1604.95985490025
 20
1607.692064807674
 30
0.0
 11
-1604.95985490025
 21
1600.879882066557
 31
0.0
  0
LINE
  5
12344
330
1233F
100
AcDbEntity
  8
SUNPOU
 62
     1
100
AcDbLine
 10
-1604.95985490025
 20
1613.692061807673
 30
0.0
 11
-1604.95985490025
 21
1610.692064807673
 31
0.0
  0
SOLID
  5
12345
330
1233F
100
AcDbEntity
  8
SUNPOU
 62
     1
100
AcDbTrace
 10
-1605.459854900249
 20
1616.692061807674
 30
0.0
 11
-1604.459854900249
 21
1616.692061807674
 31
0.0
 12
-1604.95985490025
 22
1613.692061807673
 32
0.0
 13
-1604.95985490025
 23
1613.692061807673
 33
0.0
  0
SOLID
  5
12346
330
1233F
100
AcDbEntity
  8
SUNPOU
 62
     1
100
AcDbTrace
 10
-1605.459854900249
 20
1607.692064807674
 30
0.0
 11
-1604.459854900249
 21
1607.692064807674
 31
0.0
 12
-1604.95985490025
 22
1610.692064807673
 32
0.0
 13
-1604.95985490025
 23
1610.692064807673
 33
0.0
  0
MTEXT
  5
12347
330
1233F
100
AcDbEntity
  8
SUNPOU
 62
     1
100
AcDbMText
 10
-1607.709854900249
 20
1602.785973437113
 30
0.0
 40
3.5
 41
0.0
 71
     5
 72
     1
  1
\A1;3
  7
ゴシック体
 11
0.0000000000000001
 21
1.0
 31
0.0
1001
ACAD
1000
MTEXTBEGIN
1070
    73
1070
     1
1070
    44
1040
1.0
1070
    74
1070
     0
1000
MTEXTEND
  0
POINT
  5
12348
330
1233F
100
AcDbEntity
  8
DEFPOINTS
 62
     0
100
AcDbPoint
 10
-1615.684257301015
 20
1613.692061807673
 30
0.0
  0
POINT
  5
12349
330
1233F
100
AcDbEntity
  8
DEFPOINTS
 62
     0
100
AcDbPoint
 10
-1615.184257301016
 20
1610.692064807673
 30
0.0
  0
POINT
  5
1234A
330
1233F
100
AcDbEntity
  8
DEFPOINTS
 62
     0
100
AcDbPoint
 10
-1604.95985490025
 20
1610.692064807673
 30
0.0
  0
ENDBLK
  5
1234C
330
1233F
100
AcDbEntity
  8
0
100
AcDbBlockEnd
  0
ENDSEC
  0
SECTION
  2
ENTITIES
  0
MTEXT
  5
5084
330
1A
100
AcDbEntity
  8
0
100
AcDbMText
 10
1985.239088685434
 20
-948.5420423450428
 30
0.0
 40
8.0
 41
0.0
 71
     7
 72
     5
  1

1001
ACAD
1000
MTEXTBEGIN
1070
    73
1070
     1
1070
    44
1040
1.0
1070
    74
1070
     0
1000
MTEXTEND
  0
MTEXT
  5
5085
330
1A
100
AcDbEntity
  8
0
100
AcDbMText
 10
4270.596778580329
 20
22.24825240601647
 30
0.0
 40
8.0
 41
0.0
 71
     7
 72
     5
  1

1001
ACAD
1000
MTEXTBEGIN
1070
    73
1070
     1
1070
    44
1040
1.0
1070
    74
1070
     0
1000
MTEXTEND
  0
MTEXT
  5
5343
330
1A
100
AcDbEntity
  8
SUNPOU
100
AcDbMText
 10
6936.493799262471
 20
9534.359644781137
 30
0.0
 40
10.5
 41
0.0
 71
     1
 72
     5
  1

1001
ACAD
1000
MTEXTBEGIN
1070
    73
1070
     1
1070
    44
1040
1.0
1070
    74
1070
     0
1000
MTEXTEND
  0
MTEXT
  5
544F
330
1A
100
AcDbEntity
  8
0
100
AcDbMText
 10
16317.2832773148
 20
12833.35428897674
 30
0.0
 40
8.0
 41
0.0
 71
     7
 72
     5
  1

1001
ACAD
1000
MTEXTBEGIN
1070
    73
1070
     1
1070
    44
1040
1.0
1070
    74
1070
     0
1000
MTEXTEND
  0
MTEXT
  5
5450
330
1A
100
AcDbEntity
  8
0
100
AcDbMText
 10
18602.64096720968
 20
13804.1445837278
 30
0.0
 40
8.0
 41
0.0
 71
     7
 72
     5
  1

1001
ACAD
1000
MTEXTBEGIN
1070
    73
1070
     1
1070
    44
1040
1.0
1070
    74
1070
     0
1000
MTEXTEND
  0
MTEXT
  5
5451
330
1A
100
AcDbEntity
  8
SUNPOU
100
AcDbMText
 10
21268.53798789184
 20
23316.25597610292
 30
0.0
 40
10.5
 41
0.0
 71
     1
 72
     5
  1

1001
ACAD
1000
MTEXTBEGIN
1070
    73
1070
     1
1070
    44
1040
1.0
1070
    74
1070
     0
1000
MTEXTEND
  0
MTEXT
  5
5452
330
1A
100
AcDbEntity
  8
SUNPOU
100
AcDbMText
 10
13337.6147919559
 20
22369.46284218996
 30
0.0
 40
10.5
 41
0.0
 71
     7
 72
     5
  1

1001
ACAD
1000
MTEXTBEGIN
1070
    73
1070
     1
1070
    44
1040
1.0
1070
    74
1070
     0
1000
MTEXTEND
  0
MTEXT
  5
5453
330
1A
100
AcDbEntity
  8
SUNPOU
100
AcDbMText
 10
16286.59845646867
 20
27270.13891403279
 30
0.0
 40
10.5
 41
0.0
 71
     7
 72
     5
  1

1001
ACAD
1000
MTEXTBEGIN
1070
    73
1070
     1
1070
    44
1040
1.0
1070
    74
1070
     0
1000
MTEXTEND
  0
MTEXT
  5
5454
330
1A
100
AcDbEntity
  8
SUNPOU
100
AcDbMText
 10
20795.67658441924
 20
29706.43966165288
 30
0.0
 40
10.5
 41
0.0
 71
     7
 72
     5
  1

1001
ACAD
1000
MTEXTBEGIN
1070
    73
1070
     1
1070
    44
1040
1.0
1070
    74
1070
     0
1000
MTEXTEND
  0
MTEXT
  5
5455
330
1A
100
AcDbEntity
  8
0
100
AcDbMText
 10
16611.93789220313
 20
14707.52144344448
 30
0.0
 40
8.0
 41
0.0
 71
     7
 72
     5
  1

1001
ACAD
1000
MTEXTBEGIN
1070
    73
1070
     1
1070
    44
1040
1.0
1070
    74
1070
     0
1000
MTEXTEND
  0
MTEXT
  5
5456
330
1A
100
AcDbEntity
  8
0
100
AcDbMText
 10
18897.29558209803
 20
15678.31173819554
 30
0.0
 40
8.0
 41
0.0
 71
     7
 72
     5
  1

1001
ACAD
1000
MTEXTBEGIN
1070
    73
1070
     1
1070
    44
1040
1.0
1070
    74
1070
     0
1000
MTEXTEND
  0
MTEXT
  5
5457
330
1A
100
AcDbEntity
  8
SUNPOU
100
AcDbMText
 10
21563.19260278019
 20
25190.42313057066
 30
0.0
 40
10.5
 41
0.0
 71
     1
 72
     5
  1

1001
ACAD
1000
MTEXTBEGIN
1070
    73
1070
     1
1070
    44
1040
1.0
1070
    74
1070
     0
1000
MTEXTEND
  0
MTEXT
  5
5458
330
1A
100
AcDbEntity
  8
SUNPOU
100
AcDbMText
 10
13632.26940684425
 20
24243.6299966577
 30
0.0
 40
10.5
 41
0.0
 71
     7
 72
     5
  1

1001
ACAD
1000
MTEXTBEGIN
1070
    73
1070
     1
1070
    44
1040
1.0
1070
    74
1070
     0
1000
MTEXTEND
  0
MTEXT
  5
5459
330
1A
100
AcDbEntity
  8
SUNPOU
100
AcDbMText
 10
16581.25307135702
 20
29144.30606850055
 30
0.0
 40
10.5
 41
0.0
 71
     7
 72
     5
  1

1001
ACAD
1000
MTEXTBEGIN
1070
    73
1070
     1
1070
    44
1040
1.0
1070
    74
1070
     0
1000
MTEXTEND
  0
MTEXT
  5
545A
330
1A
100
AcDbEntity
  8
SUNPOU
100
AcDbMText
 10
21090.33119930759
 20
31580.60681612062
 30
0.0
 40
10.5
 41
0.0
 71
     7
 72
     5
  1

1001
ACAD
1000
MTEXTBEGIN
1070
    73
1070
     1
1070
    44
1040
1.0
1070
    74
1070
     0
1000
MTEXTEND
  0
MTEXT
  5
545B
330
1A
100
AcDbEntity
  8
0
100
AcDbMText
 10
22871.60517627166
 20
23974.88367124799
 30
0.0
 40
8.0
 41
0.0
 71
     7
 72
     5
  1

1001
ACAD
1000
MTEXTBEGIN
1070
    73
1070
     1
1070
    44
1040
1.0
1070
    74
1070
     0
1000
MTEXTEND
  0
MTEXT
  5
545C
330
1A
100
AcDbEntity
  8
0
100
AcDbMText
 10
25156.96286616655
 20
24945.67396599904
 30
0.0
 40
8.0
 41
0.0
 71
     7
 72
     5
  1

1001
ACAD
1000
MTEXTBEGIN
1070
    73
1070
     1
1070
    44
1040
1.0
1070
    74
1070
     0
1000
MTEXTEND
  0
MTEXT
  5
545D
330
1A
100
AcDbEntity
  8
SUNPOU
100
AcDbMText
 10
27822.85988684871
 20
34457.78535837418
 30
0.0
 40
10.5
 41
0.0
 71
     1
 72
     5
  1

1001
ACAD
1000
MTEXTBEGIN
1070
    73
1070
     1
1070
    44
1040
1.0
1070
    74
1070
     0
1000
MTEXTEND
  0
MTEXT
  5
545E
330
1A
100
AcDbEntity
  8
SUNPOU
100
AcDbMText
 10
19891.93669091278
 20
33510.99222446122
 30
0.0
 40
10.5
 41
0.0
 71
     7
 72
     5
  1

1001
ACAD
1000
MTEXTBEGIN
1070
    73
1070
     1
1070
    44
1040
1.0
1070
    74
1070
     0
1000
MTEXTEND
  0
MTEXT
  5
545F
330
1A
100
AcDbEntity
  8
SUNPOU
100
AcDbMText
 10
22840.92035542555
 20
38411.66829630406
 30
0.0
 40
10.5
 41
0.0
 71
     7
 72
     5
  1

1001
ACAD
1000
MTEXTBEGIN
1070
    73
1070
     1
1070
    44
1040
1.0
1070
    74
1070
     0
1000
MTEXTEND
  0
MTEXT
  5
5460
330
1A
100
AcDbEntity
  8
SUNPOU
100
AcDbMText
 10
27349.99848337611
 20
40847.96904392415
 30
0.0
 40
10.5
 41
0.0
 71
     7
 72
     5
  1

1001
ACAD
1000
MTEXTBEGIN
1070
    73
1070
     1
1070
    44
1040
1.0
1070
    74
1070
     0
1000
MTEXTEND
  0
MTEXT
  5
55B7
330
1A
100
AcDbEntity
  8
SUNPOU
100
AcDbMText
 10
67424.23923338197
 20
64463.86602884816
 30
0.0
 40
10.5
 41
0.0
 71
     9
 72
     5
  1

1001
ACAD
1000
MTEXTBEGIN
1070
    73
1070
     1
1070
    44
1040
1.0
1070
    74
1070
     0
1000
MTEXTEND
  0
MTEXT
  5
55B8
330
1A
100
AcDbEntity
  8
SUNPOU
100
AcDbMText
 10
76146.40679929998
 20
71879.70056038563
 30
0.0
 40
10.5
 41
0.0
 71
     9
 72
     5
  1

1001
ACAD
1000
MTEXTBEGIN
1070
    73
1070
     1
1070
    44
1040
1.0
1070
    74
1070
     0
1000
MTEXTEND
  0
MTEXT
  5
55B9
330
1A
100
AcDbEntity
  8
SUNPOU
100
AcDbMText
 10
95100.16551662994
 20
89346.27661287766
 30
0.0
 40
10.5
 41
0.0
 71
     9
 72
     5
  1

1001
ACAD
1000
MTEXTBEGIN
1070
    73
1070
     1
1070
    44
1040
1.0
1070
    74
1070
     0
1000
MTEXTEND
  0
MTEXT
  5
55BA
330
1A
100
AcDbEntity
  8
SUNPOU
100
AcDbMText
 10
97043.57276333935
 20
87545.22753299966
 30
0.0
 40
3.5
 41
0.0
 71
     9
 72
     5
  1

1001
ACAD
1000
MTEXTBEGIN
1070
    73
1070
     1
1070
    44
1040
1.0
1070
    74
1070
     0
1000
MTEXTEND
  0
MTEXT
  5
55BB
330
1A
100
AcDbEntity
  8
SUNPOU
100
AcDbMText
 10
128169.7525959589
 20
130040.1732006569
 30
0.0
 40
10.5
 41
0.0
 71
     9
 72
     5
  1

1001
ACAD
1000
MTEXTBEGIN
1070
    73
1070
     1
1070
    44
1040
1.0
1070
    74
1070
     0
1000
MTEXTEND
  0
MTEXT
  5
55BC
330
1A
100
AcDbEntity
  8
SUNPOU
100
AcDbMText
 10
130113.1598426684
 20
128239.1241207789
 30
0.0
 40
3.5
 41
0.0
 71
     9
 72
     5
  1

1001
ACAD
1000
MTEXTBEGIN
1070
    73
1070
     1
1070
    44
1040
1.0
1070
    74
1070
     0
1000
MTEXTEND
  0
MTEXT
  5
55BD
330
1A
100
AcDbEntity
  8
SUNPOU
100
AcDbMText
 10
78610.02030175463
 20
75873.33835563206
 30
0.0
 40
10.5
 41
0.0
 71
     9
 72
     5
  1

1001
ACAD
1000
MTEXTBEGIN
1070
    73
1070
     1
1070
    44
1040
1.0
1070
    74
1070
     0
1000
MTEXTEND
  0
MTEXT
  5
55BE
330
1A
100
AcDbEntity
  8
SUNPOU
100
AcDbMText
 10
64662.02020137862
 20
56700.93921651987
 30
0.0
 40
3.5
 41
0.0
 71
     7
 72
     5
  1

1001
ACAD
1000
MTEXTBEGIN
1070
    73
1070
     1
1070
    44
1040
1.0
1070
    74
1070
     0
1000
MTEXTEND
  0
MTEXT
  5
55BF
330
1A
100
AcDbEntity
  8
SUNPOU
100
AcDbMText
 10
45647.18959837176
 20
44463.08794733806
 30
0.0
 40
10.5
 41
0.0
 71
     7
 72
     5
  1

1001
ACAD
1000
MTEXTBEGIN
1070
    73
1070
     1
1070
    44
1040
1.0
1070
    74
1070
     0
1000
MTEXTEND
  0
MTEXT
  5
55C0
330
1A
100
AcDbEntity
  8
SUNPOU
100
AcDbMText
 10
33189.96133342368
 20
28618.15636923965
 30
0.0
 40
35.0
 41
0.0
 71
     9
 72
     5
  1

1001
ACAD
1000
MTEXTBEGIN
1070
    73
1070
     1
1070
    44
1040
1.0
1070
    74
1070
     0
1000
MTEXTEND
  0
MTEXT
  5
55C1
330
1A
100
AcDbEntity
  8
SUNPOU
100
AcDbMText
 10
32098.44639099864
 20
29226.93177928834
 30
0.0
 40
350.0000004171781
 41
0.0
 71
     7
 72
     5
  1

1001
ACAD
1000
MTEXTBEGIN
1070
    73
1070
     1
1070
    44
1040
1.0
1070
    74
1070
     0
1000
MTEXTEND
  0
MTEXT
  5
55C2
330
1A
100
AcDbEntity
  8
0
100
AcDbMText
 10
38142.39714894154
 20
27206.85414142458
 30
0.0
 40
8.0
 41
0.0
 71
     7
 72
     5
  1

1001
ACAD
1000
MTEXTBEGIN
1070
    73
1070
     1
1070
    44
1040
1.0
1070
    74
1070
     0
1000
MTEXTEND
  0
MTEXT
  5
55C3
330
1A
100
AcDbEntity
  8
0
100
AcDbMText
 10
40427.75483883644
 20
28177.64443617564
 30
0.0
 40
8.0
 41
0.0
 71
     7
 72
     5
  1

1001
ACAD
1000
MTEXTBEGIN
1070
    73
1070
     1
1070
    44
1040
1.0
1070
    74
1070
     0
1000
MTEXTEND
  0
MTEXT
  5
55C4
330
1A
100
AcDbEntity
  8
SUNPOU
100
AcDbMText
 10
43093.65185951858
 20
37689.75582855077
 30
0.0
 40
10.5
 41
0.0
 71
     1
 72
     5
  1

1001
ACAD
1000
MTEXTBEGIN
1070
    73
1070
     1
1070
    44
1040
1.0
1070
    74
1070
     0
1000
MTEXTEND
  0
MTEXT
  5
55C5
330
1A
100
AcDbEntity
  8
SUNPOU
100
AcDbMText
 10
35162.72866358265
 20
36742.96269463781
 30
0.0
 40
10.5
 41
0.0
 71
     7
 72
     5
  1

1001
ACAD
1000
MTEXTBEGIN
1070
    73
1070
     1
1070
    44
1040
1.0
1070
    74
1070
     0
1000
MTEXTEND
  0
MTEXT
  5
55C6
330
1A
100
AcDbEntity
  8
SUNPOU
100
AcDbMText
 10
38111.71232809542
 20
41643.63876648065
 30
0.0
 40
10.5
 41
0.0
 71
     7
 72
     5
  1

1001
ACAD
1000
MTEXTBEGIN
1070
    73
1070
     1
1070
    44
1040
1.0
1070
    74
1070
     0
1000
MTEXTEND
  0
MTEXT
  5
55C7
330
1A
100
AcDbEntity
  8
SUNPOU
100
AcDbMText
 10
42620.79045604596
 20
44079.93951410074
 30
0.0
 40
10.5
 41
0.0
 71
     7
 72
     5
  1

1001
ACAD
1000
MTEXTBEGIN
1070
    73
1070
     1
1070
    44
1040
1.0
1070
    74
1070
     0
1000
MTEXTEND
  0
MTEXT
  5
55C8
330
1A
100
AcDbEntity
  8
SUNPOU
100
AcDbMText
 10
26221.62834281429
 20
23077.53566448964
 30
0.0
 40
10.5
 41
0.0
 71
     7
 72
     5
  1

1001
ACAD
1000
MTEXTBEGIN
1070
    73
1070
     1
1070
    44
1040
1.0
1070
    74
1070
     0
1000
MTEXTEND
  0
MTEXT
  5
55C9
330
1A
100
AcDbEntity
  8
SUNPOU
100
AcDbMText
 10
77413.14677671455
 20
68750.51622813789
 30
0.0
 40
10.5
 41
0.0
 71
     9
 72
     5
  1

1001
ACAD
1000
MTEXTBEGIN
1070
    73
1070
     1
1070
    44
1040
1.0
1070
    74
1070
     0
1000
MTEXTEND
  0
MTEXT
  5
55CA
330
1A
100
AcDbEntity
  8
SUNPOU
100
AcDbMText
 10
86135.31434263256
 20
76166.35075967536
 30
0.0
 40
10.5
 41
0.0
 71
     9
 72
     5
  1

1001
ACAD
1000
MTEXTBEGIN
1070
    73
1070
     1
1070
    44
1040
1.0
1070
    74
1070
     0
1000
MTEXTEND
  0
MTEXT
  5
55CB
330
1A
100
AcDbEntity
  8
SUNPOU
100
AcDbMText
 10
105089.0730599624
 20
93632.92681216739
 30
0.0
 40
10.5
 41
0.0
 71
     9
 72
     5
  1

1001
ACAD
1000
MTEXTBEGIN
1070
    73
1070
     1
1070
    44
1040
1.0
1070
    74
1070
     0
1000
MTEXTEND
  0
MTEXT
  5
55CC
330
1A
100
AcDbEntity
  8
SUNPOU
100
AcDbMText
 10
107032.4803066718
 20
91831.87773228937
 30
0.0
 40
3.5
 41
0.0
 71
     9
 72
     5
  1

1001
ACAD
1000
MTEXTBEGIN
1070
    73
1070
     1
1070
    44
1040
1.0
1070
    74
1070
     0
1000
MTEXTEND
  0
MTEXT
  5
55CD
330
1A
100
AcDbEntity
  8
SUNPOU
100
AcDbMText
 10
138158.6601392916
 20
134326.8233999467
 30
0.0
 40
10.5
 41
0.0
 71
     9
 72
     5
  1

1001
ACAD
1000
MTEXTBEGIN
1070
    73
1070
     1
1070
    44
1040
1.0
1070
    74
1070
     0
1000
MTEXTEND
  0
MTEXT
  5
55CE
330
1A
100
AcDbEntity
  8
SUNPOU
100
AcDbMText
 10
140102.067386001
 20
132525.7743200686
 30
0.0
 40
3.5
 41
0.0
 71
     9
 72
     5
  1

1001
ACAD
1000
MTEXTBEGIN
1070
    73
1070
     1
1070
    44
1040
1.0
1070
    74
1070
     0
1000
MTEXTEND
  0
MTEXT
  5
55CF
330
1A
100
AcDbEntity
  8
SUNPOU
100
AcDbMText
 10
88598.92784508721
 20
80159.98855492179
 30
0.0
 40
10.5
 41
0.0
 71
     9
 72
     5
  1

1001
ACAD
1000
MTEXTBEGIN
1070
    73
1070
     1
1070
    44
1040
1.0
1070
    74
1070
     0
1000
MTEXTEND
  0
MTEXT
  5
55D0
330
1A
100
AcDbEntity
  8
SUNPOU
100
AcDbMText
 10
74650.92774471121
 20
60987.58941580959
 30
0.0
 40
3.5
 41
0.0
 71
     7
 72
     5
  1

1001
ACAD
1000
MTEXTBEGIN
1070
    73
1070
     1
1070
    44
1040
1.0
1070
    74
1070
     0
1000
MTEXTEND
  0
MTEXT
  5
55D1
330
1A
100
AcDbEntity
  8
SUNPOU
100
AcDbMText
 10
55636.09714170436
 20
48749.73814662781
 30
0.0
 40
10.5
 41
0.0
 71
     7
 72
     5
  1

1001
ACAD
1000
MTEXTBEGIN
1070
    73
1070
     1
1070
    44
1040
1.0
1070
    74
1070
     0
1000
MTEXTEND
  0
MTEXT
  5
55D2
330
1A
100
AcDbEntity
  8
SUNPOU
100
AcDbMText
 10
43178.86887675626
 20
32904.80656852937
 30
0.0
 40
35.0
 41
0.0
 71
     9
 72
     5
  1

1001
ACAD
1000
MTEXTBEGIN
1070
    73
1070
     1
1070
    44
1040
1.0
1070
    74
1070
     0
1000
MTEXTEND
  0
MTEXT
  5
55D3
330
1A
100
AcDbEntity
  8
SUNPOU
100
AcDbMText
 10
42087.3539343312
 20
33513.58197857808
 30
0.0
 40
350.0000004171781
 41
0.0
 71
     7
 72
     5
  1

1001
ACAD
1000
MTEXTBEGIN
1070
    73
1070
     1
1070
    44
1040
1.0
1070
    74
1070
     0
1000
MTEXTEND
  0
MTEXT
  5
55D4
330
1A
100
AcDbEntity
  8
0
100
AcDbMText
 10
48131.30469227412
 20
31493.50434071431
 30
0.0
 40
8.0
 41
0.0
 71
     7
 72
     5
  1

1001
ACAD
1000
MTEXTBEGIN
1070
    73
1070
     1
1070
    44
1040
1.0
1070
    74
1070
     0
1000
MTEXTEND
  0
MTEXT
  5
55D5
330
1A
100
AcDbEntity
  8
0
100
AcDbMText
 10
50416.66238216901
 20
32464.29463546537
 30
0.0
 40
8.0
 41
0.0
 71
     7
 72
     5
  1

1001
ACAD
1000
MTEXTBEGIN
1070
    73
1070
     1
1070
    44
1040
1.0
1070
    74
1070
     0
1000
MTEXTEND
  0
MTEXT
  5
55D6
330
1A
100
AcDbEntity
  8
SUNPOU
100
AcDbMText
 10
53082.55940285115
 20
41976.4060278405
 30
0.0
 40
10.5
 41
0.0
 71
     1
 72
     5
  1

1001
ACAD
1000
MTEXTBEGIN
1070
    73
1070
     1
1070
    44
1040
1.0
1070
    74
1070
     0
1000
MTEXTEND
  0
MTEXT
  5
55D7
330
1A
100
AcDbEntity
  8
SUNPOU
100
AcDbMText
 10
45151.63620691521
 20
41029.61289392755
 30
0.0
 40
10.5
 41
0.0
 71
     7
 72
     5
  1

1001
ACAD
1000
MTEXTBEGIN
1070
    73
1070
     1
1070
    44
1040
1.0
1070
    74
1070
     0
1000
MTEXTEND
  0
MTEXT
  5
55D8
330
1A
100
AcDbEntity
  8
SUNPOU
100
AcDbMText
 10
48100.61987142798
 20
45930.28896577039
 30
0.0
 40
10.5
 41
0.0
 71
     7
 72
     5
  1

1001
ACAD
1000
MTEXTBEGIN
1070
    73
1070
     1
1070
    44
1040
1.0
1070
    74
1070
     0
1000
MTEXTEND
  0
MTEXT
  5
55D9
330
1A
100
AcDbEntity
  8
SUNPOU
100
AcDbMText
 10
52609.69799937853
 20
48366.58971339046
 30
0.0
 40
10.5
 41
0.0
 71
     7
 72
     5
  1

1001
ACAD
1000
MTEXTBEGIN
1070
    73
1070
     1
1070
    44
1040
1.0
1070
    74
1070
     0
1000
MTEXTEND
  0
MTEXT
  5
55DA
330
1A
100
AcDbEntity
  8
SUNPOU
100
AcDbMText
 10
36210.53588614687
 20
27364.18586377937
 30
0.0
 40
10.5
 41
0.0
 71
     7
 72
     5
  1

1001
ACAD
1000
MTEXTBEGIN
1070
    73
1070
     1
1070
    44
1040
1.0
1070
    74
1070
     0
1000
MTEXTEND
  0
MTEXT
  5
55DB
330
1A
100
AcDbEntity
  8
SUNPOU
100
AcDbMText
 10
38021.29879752181
 20
33691.59985125794
 30
0.0
 40
10.5
 41
0.0
 71
     9
 72
     5
  1

1001
ACAD
1000
MTEXTBEGIN
1070
    73
1070
     1
1070
    44
1040
1.0
1070
    74
1070
     0
1000
MTEXTEND
  0
MTEXT
  5
55DC
330
1A
100
AcDbEntity
  8
SUNPOU
100
AcDbMText
 10
46743.46636343979
 20
41107.4343827954
 30
0.0
 40
10.5
 41
0.0
 71
     9
 72
     5
  1

1001
ACAD
1000
MTEXTBEGIN
1070
    73
1070
     1
1070
    44
1040
1.0
1070
    74
1070
     0
1000
MTEXTEND
  0
MTEXT
  5
55DD
330
1A
100
AcDbEntity
  8
SUNPOU
100
AcDbMText
 10
65697.22508076974
 20
58574.01043528746
 30
0.0
 40
10.5
 41
0.0
 71
     9
 72
     5
  1

1001
ACAD
1000
MTEXTBEGIN
1070
    73
1070
     1
1070
    44
1040
1.0
1070
    74
1070
     0
1000
MTEXTEND
  0
MTEXT
  5
55DE
330
1A
100
AcDbEntity
  8
SUNPOU
100
AcDbMText
 10
67640.63232747917
 20
56772.96135540945
 30
0.0
 40
3.5
 41
0.0
 71
     9
 72
     5
  1

1001
ACAD
1000
MTEXTBEGIN
1070
    73
1070
     1
1070
    44
1040
1.0
1070
    74
1070
     0
1000
MTEXTEND
  0
MTEXT
  5
55DF
330
1A
100
AcDbEntity
  8
SUNPOU
100
AcDbMText
 10
98766.81216009886
 20
99267.9070230668
 30
0.0
 40
10.5
 41
0.0
 71
     9
 72
     5
  1

1001
ACAD
1000
MTEXTBEGIN
1070
    73
1070
     1
1070
    44
1040
1.0
1070
    74
1070
     0
1000
MTEXTEND
  0
MTEXT
  5
55E0
330
1A
100
AcDbEntity
  8
SUNPOU
100
AcDbMText
 10
100710.2194068083
 20
97466.85794318876
 30
0.0
 40
3.5
 41
0.0
 71
     9
 72
     5
  1

1001
ACAD
1000
MTEXTBEGIN
1070
    73
1070
     1
1070
    44
1040
1.0
1070
    74
1070
     0
1000
MTEXTEND
  0
MTEXT
  5
55E1
330
1A
100
AcDbEntity
  8
SUNPOU
100
AcDbMText
 10
49207.07986589443
 20
45101.07217804184
 30
0.0
 40
10.5
 41
0.0
 71
     9
 72
     5
  1

1001
ACAD
1000
MTEXTBEGIN
1070
    73
1070
     1
1070
    44
1040
1.0
1070
    74
1070
     0
1000
MTEXTEND
  0
MTEXT
  5
55E2
330
1A
100
AcDbEntity
  8
SUNPOU
100
AcDbMText
 10
35259.07976551845
 20
25928.67303892964
 30
0.0
 40
3.5
 41
0.0
 71
     7
 72
     5
  1

1001
ACAD
1000
MTEXTBEGIN
1070
    73
1070
     1
1070
    44
1040
1.0
1070
    74
1070
     0
1000
MTEXTEND
  0
MTEXT
  5
55E3
330
1A
100
AcDbEntity
  8
SUNPOU
100
AcDbMText
 10
48951.43044828905
 20
35287.73625995099
 30
0.0
 40
10.5
 41
0.0
 71
     9
 72
     5
  1

1001
ACAD
1000
MTEXTBEGIN
1070
    73
1070
     1
1070
    44
1040
1.0
1070
    74
1070
     0
1000
MTEXTEND
  0
MTEXT
  5
55E4
330
1A
100
AcDbEntity
  8
SUNPOU
100
AcDbMText
 10
57673.59801420702
 20
42703.57079148847
 30
0.0
 40
10.5
 41
0.0
 71
     9
 72
     5
  1

1001
ACAD
1000
MTEXTBEGIN
1070
    73
1070
     1
1070
    44
1040
1.0
1070
    74
1070
     0
1000
MTEXTEND
  0
MTEXT
  5
55E5
330
1A
100
AcDbEntity
  8
SUNPOU
100
AcDbMText
 10
76627.35673153699
 20
60170.14684398051
 30
0.0
 40
10.5
 41
0.0
 71
     9
 72
     5
  1

1001
ACAD
1000
MTEXTBEGIN
1070
    73
1070
     1
1070
    44
1040
1.0
1070
    74
1070
     0
1000
MTEXTEND
  0
MTEXT
  5
55E6
330
1A
100
AcDbEntity
  8
SUNPOU
100
AcDbMText
 10
78570.76397824641
 20
58369.09776410251
 30
0.0
 40
3.5
 41
0.0
 71
     9
 72
     5
  1

1001
ACAD
1000
MTEXTBEGIN
1070
    73
1070
     1
1070
    44
1040
1.0
1070
    74
1070
     0
1000
MTEXTEND
  0
MTEXT
  5
55E7
330
1A
100
AcDbEntity
  8
SUNPOU
100
AcDbMText
 10
109696.943810866
 20
100864.0434317598
 30
0.0
 40
10.5
 41
0.0
 71
     9
 72
     5
  1

1001
ACAD
1000
MTEXTBEGIN
1070
    73
1070
     1
1070
    44
1040
1.0
1070
    74
1070
     0
1000
MTEXTEND
  0
MTEXT
  5
55E8
330
1A
100
AcDbEntity
  8
SUNPOU
100
AcDbMText
 10
111640.3510575755
 20
99062.99435188183
 30
0.0
 40
3.5
 41
0.0
 71
     9
 72
     5
  1

1001
ACAD
1000
MTEXTBEGIN
1070
    73
1070
     1
1070
    44
1040
1.0
1070
    74
1070
     0
1000
MTEXTEND
  0
MTEXT
  5
55E9
330
1A
100
AcDbEntity
  8
SUNPOU
100
AcDbMText
 10
60137.21151666167
 20
46697.20858673491
 30
0.0
 40
10.5
 41
0.0
 71
     9
 72
     5
  1

1001
ACAD
1000
MTEXTBEGIN
1070
    73
1070
     1
1070
    44
1040
1.0
1070
    74
1070
     0
1000
MTEXTEND
  0
MTEXT
  5
55EA
330
1A
100
AcDbEntity
  8
SUNPOU
100
AcDbMText
 10
46189.21141628568
 20
27524.80944762269
 30
0.0
 40
3.5
 41
0.0
 71
     7
 72
     5
  1

1001
ACAD
1000
MTEXTBEGIN
1070
    73
1070
     1
1070
    44
1040
1.0
1070
    74
1070
     0
1000
MTEXTEND
  0
MTEXT
  5
55EB
330
1A
100
AcDbEntity
  8
SUNPOU
100
AcDbMText
 10
45007.68847015541
 20
38269.57947701873
 30
0.0
 40
10.5
 41
0.0
 71
     9
 72
     5
  1

1001
ACAD
1000
MTEXTBEGIN
1070
    73
1070
     1
1070
    44
1040
1.0
1070
    74
1070
     0
1000
MTEXTEND
  0
MTEXT
  5
55EC
330
1A
100
AcDbEntity
  8
SUNPOU
100
AcDbMText
 10
63961.44718748539
 20
55736.15552951081
 30
0.0
 40
10.5
 41
0.0
 71
     9
 72
     5
  1

1001
ACAD
1000
MTEXTBEGIN
1070
    73
1070
     1
1070
    44
1040
1.0
1070
    74
1070
     0
1000
MTEXTEND
  0
MTEXT
  5
55ED
330
1A
100
AcDbEntity
  8
SUNPOU
100
AcDbMText
 10
65904.85443419479
 20
53935.10644963278
 30
0.0
 40
3.5
 41
0.0
 71
     9
 72
     5
  1

1001
ACAD
1000
MTEXTBEGIN
1070
    73
1070
     1
1070
    44
1040
1.0
1070
    74
1070
     0
1000
MTEXTEND
  0
MTEXT
  5
55EE
330
1A
100
AcDbEntity
  8
SUNPOU
100
AcDbMText
 10
97031.03426681453
 20
96430.05211729015
 30
0.0
 40
10.5
 41
0.0
 71
     9
 72
     5
  1

1001
ACAD
1000
MTEXTBEGIN
1070
    73
1070
     1
1070
    44
1040
1.0
1070
    74
1070
     0
1000
MTEXTEND
  0
MTEXT
  5
55EF
330
1A
100
AcDbEntity
  8
SUNPOU
100
AcDbMText
 10
98974.44151352393
 20
94629.00303741212
 30
0.0
 40
3.5
 41
0.0
 71
     9
 72
     5
  1

1001
ACAD
1000
MTEXTBEGIN
1070
    73
1070
     1
1070
    44
1040
1.0
1070
    74
1070
     0
1000
MTEXTEND
  0
MTEXT
  5
55F0
330
1A
100
AcDbEntity
  8
SUNPOU
100
AcDbMText
 10
47471.30197261006
 20
42263.21727226519
 30
0.0
 40
10.5
 41
0.0
 71
     9
 72
     5
  1

1001
ACAD
1000
MTEXTBEGIN
1070
    73
1070
     1
1070
    44
1040
1.0
1070
    74
1070
     0
1000
MTEXTEND
  0
MTEXT
  5
55F1
330
1A
100
AcDbEntity
  8
SUNPOU
100
AcDbMText
 10
33523.30187223408
 20
23090.81813315298
 30
0.0
 40
3.5
 41
0.0
 71
     7
 72
     5
  1

1001
ACAD
1000
MTEXTBEGIN
1070
    73
1070
     1
1070
    44
1040
1.0
1070
    74
1070
     0
1000
MTEXTEND
  0
MTEXT
  5
55F2
330
1A
100
AcDbEntity
  8
SUNPOU
100
AcDbMText
 10
57959.46254102503
 20
50038.08111611014
 30
0.0
 40
10.5
 41
0.0
 71
     9
 72
     5
  1

1001
ACAD
1000
MTEXTBEGIN
1070
    73
1070
     1
1070
    44
1040
1.0
1070
    74
1070
     0
1000
MTEXTEND
  0
MTEXT
  5
55F3
330
1A
100
AcDbEntity
  8
SUNPOU
100
AcDbMText
 10
76913.22125835503
 20
67504.65716860222
 30
0.0
 40
10.5
 41
0.0
 71
     9
 72
     5
  1

1001
ACAD
1000
MTEXTBEGIN
1070
    73
1070
     1
1070
    44
1040
1.0
1070
    74
1070
     0
1000
MTEXTEND
  0
MTEXT
  5
55F4
330
1A
100
AcDbEntity
  8
SUNPOU
100
AcDbMText
 10
78856.62850506443
 20
65703.6080887242
 30
0.0
 40
3.5
 41
0.0
 71
     9
 72
     5
  1

1001
ACAD
1000
MTEXTBEGIN
1070
    73
1070
     1
1070
    44
1040
1.0
1070
    74
1070
     0
1000
MTEXTEND
  0
MTEXT
  5
55F5
330
1A
100
AcDbEntity
  8
SUNPOU
100
AcDbMText
 10
109982.8083376841
 20
108198.5537563815
 30
0.0
 40
10.5
 41
0.0
 71
     9
 72
     5
  1

1001
ACAD
1000
MTEXTBEGIN
1070
    73
1070
     1
1070
    44
1040
1.0
1070
    74
1070
     0
1000
MTEXTEND
  0
MTEXT
  5
55F6
330
1A
100
AcDbEntity
  8
SUNPOU
100
AcDbMText
 10
111926.2155843933
 20
106397.5046765035
 30
0.0
 40
3.5
 41
0.0
 71
     9
 72
     5
  1

1001
ACAD
1000
MTEXTBEGIN
1070
    73
1070
     1
1070
    44
1040
1.0
1070
    74
1070
     0
1000
MTEXTEND
  0
MTEXT
  5
55F7
330
1A
100
AcDbEntity
  8
SUNPOU
100
AcDbMText
 10
60423.07604347968
 20
54031.71891135658
 30
0.0
 40
10.5
 41
0.0
 71
     9
 72
     5
  1

1001
ACAD
1000
MTEXTBEGIN
1070
    73
1070
     1
1070
    44
1040
1.0
1070
    74
1070
     0
1000
MTEXTEND
  0
MTEXT
  5
55F8
330
1A
100
AcDbEntity
  8
SUNPOU
100
AcDbMText
 10
46475.07594310369
 20
34859.3197722444
 30
0.0
 40
3.5
 41
0.0
 71
     7
 72
     5
  1

1001
ACAD
1000
MTEXTBEGIN
1070
    73
1070
     1
1070
    44
1040
1.0
1070
    74
1070
     0
1000
MTEXTEND
  0
MTEXT
  5
55F9
330
1A
100
AcDbEntity
  8
SUNPOU
100
AcDbMText
 10
74027.35402123588
 20
68370.58278833383
 30
0.0
 40
10.5
 41
0.0
 71
     9
 72
     5
  1

1001
ACAD
1000
MTEXTBEGIN
1070
    73
1070
     1
1070
    44
1040
1.0
1070
    74
1070
     0
1000
MTEXTEND
  0
MTEXT
  5
55FA
330
1A
100
AcDbEntity
  8
SUNPOU
100
AcDbMText
 10
75970.7612679453
 20
66569.53370845583
 30
0.0
 40
3.5
 41
0.0
 71
     9
 72
     5
  1

1001
ACAD
1000
MTEXTBEGIN
1070
    73
1070
     1
1070
    44
1040
1.0
1070
    74
1070
     0
1000
MTEXTEND
  0
MTEXT
  5
55FB
330
1A
100
AcDbEntity
  8
SUNPOU
100
AcDbMText
 10
107096.941100565
 20
109064.4793761132
 30
0.0
 40
10.5
 41
0.0
 71
     9
 72
     5
  1

1001
ACAD
1000
MTEXTBEGIN
1070
    73
1070
     1
1070
    44
1040
1.0
1070
    74
1070
     0
1000
MTEXTEND
  0
MTEXT
  5
55FC
330
1A
100
AcDbEntity
  8
SUNPOU
100
AcDbMText
 10
109040.3483472744
 20
107263.430296235
 30
0.0
 40
3.5
 41
0.0
 71
     9
 72
     5
  1

1001
ACAD
1000
MTEXTBEGIN
1070
    73
1070
     1
1070
    44
1040
1.0
1070
    74
1070
     0
1000
MTEXTEND
  0
MTEXT
  5
55FD
330
1A
100
AcDbEntity
  8
SUNPOU
100
AcDbMText
 10
105709.1709283621
 20
108141.3777665285
 30
0.0
 40
10.5
 41
0.0
 71
     9
 72
     5
  1

1001
ACAD
1000
MTEXTBEGIN
1070
    73
1070
     1
1070
    44
1040
1.0
1070
    74
1070
     0
1000
MTEXTEND
  0
MTEXT
  5
55FE
330
1A
100
AcDbEntity
  8
SUNPOU
100
AcDbMText
 10
107652.5781750715
 20
106340.3286866505
 30
0.0
 40
3.5
 41
0.0
 71
     9
 72
     5
  1

1001
ACAD
1000
MTEXTBEGIN
1070
    73
1070
     1
1070
    44
1040
1.0
1070
    74
1070
     0
1000
MTEXTEND
  0
MTEXT
  5
55FF
330
1A
100
AcDbEntity
  8
SUNPOU
100
AcDbMText
 10
73193.09268743351
 20
66158.78082845057
 30
0.0
 40
10.5
 41
0.0
 71
     9
 72
     5
  1

1001
ACAD
1000
MTEXTBEGIN
1070
    73
1070
     1
1070
    44
1040
1.0
1070
    74
1070
     0
1000
MTEXTEND
  0
MTEXT
  5
5600
330
1A
100
AcDbEntity
  8
SUNPOU
100
AcDbMText
 10
75916.39889159807
 20
66563.46252003162
 30
0.0
 40
3.5
 41
0.0
 71
     9
 72
     5
  1

1001
ACAD
1000
MTEXTBEGIN
1070
    73
1070
     1
1070
    44
1040
1.0
1070
    74
1070
     0
1000
MTEXTEND
  0
MTEXT
  5
5601
330
1A
100
AcDbEntity
  8
SUNPOU
100
AcDbMText
 10
75124.04436649058
 20
63402.1566819768
 30
0.0
 40
10.5
 41
0.0
 71
     9
 72
     5
  1

1001
ACAD
1000
MTEXTBEGIN
1070
    73
1070
     1
1070
    44
1040
1.0
1070
    74
1070
     0
1000
MTEXTEND
  0
MTEXT
  5
5602
330
1A
100
AcDbEntity
  8
SUNPOU
100
AcDbMText
 10
77067.4516132
 20
61601.1076020988
 30
0.0
 40
3.5
 41
0.0
 71
     9
 72
     5
  1

1001
ACAD
1000
MTEXTBEGIN
1070
    73
1070
     1
1070
    44
1040
1.0
1070
    74
1070
     0
1000
MTEXTEND
  0
MTEXT
  5
5603
330
1A
100
AcDbEntity
  8
SUNPOU
100
AcDbMText
 10
77012.54710378659
 20
61488.33571981449
 30
0.0
 40
3.5
 41
0.0
 71
     9
 72
     5
  1

1001
ACAD
1000
MTEXTBEGIN
1070
    73
1070
     1
1070
    44
1040
1.0
1070
    74
1070
     0
1000
MTEXTEND
  0
MTEXT
  5
5604
330
1A
100
AcDbEntity
  8
SUNPOU
100
AcDbMText
 10
76376.61896736668
 20
60677.01447874798
 30
0.0
 40
3.5
 41
0.0
 71
     9
 72
     5
  1

1001
ACAD
1000
MTEXTBEGIN
1070
    73
1070
     1
1070
    44
1040
1.0
1070
    74
1070
     0
1000
MTEXTEND
  0
MTEXT
  5
5605
330
1A
100
AcDbEntity
  8
SUNPOU
100
AcDbMText
 10
76375.37854794595
 20
60676.76650181048
 30
0.0
 40
10.5
 41
0.0
 71
     9
 72
     5
  1

1001
ACAD
1000
MTEXTBEGIN
1070
    73
1070
     1
1070
    44
1040
1.0
1070
    74
1070
     0
1000
MTEXTEND
  0
MTEXT
  5
5606
330
1A
100
AcDbEntity
  8
SUNPOU
100
AcDbMText
 10
84709.93991079748
 20
78034.0328293557
 30
0.0
 40
10.5
 41
0.0
 71
     9
 72
     5
  1

1001
ACAD
1000
MTEXTBEGIN
1070
    73
1070
     1
1070
    44
1040
1.0
1070
    74
1070
     0
1000
MTEXTEND
  0
MTEXT
  5
5607
330
1A
100
AcDbEntity
  8
SUNPOU
100
AcDbMText
 10
93432.10747671546
 20
85449.86736089315
 30
0.0
 40
10.5
 41
0.0
 71
     9
 72
     5
  1

1001
ACAD
1000
MTEXTBEGIN
1070
    73
1070
     1
1070
    44
1040
1.0
1070
    74
1070
     0
1000
MTEXTEND
  0
MTEXT
  5
5608
330
1A
100
AcDbEntity
  8
SUNPOU
100
AcDbMText
 10
112385.8661940454
 20
102916.4434133851
 30
0.0
 40
10.5
 41
0.0
 71
     9
 72
     5
  1

1001
ACAD
1000
MTEXTBEGIN
1070
    73
1070
     1
1070
    44
1040
1.0
1070
    74
1070
     0
1000
MTEXTEND
  0
MTEXT
  5
5609
330
1A
100
AcDbEntity
  8
SUNPOU
100
AcDbMText
 10
114329.2734407548
 20
101115.3943335072
 30
0.0
 40
3.5
 41
0.0
 71
     9
 72
     5
  1

1001
ACAD
1000
MTEXTBEGIN
1070
    73
1070
     1
1070
    44
1040
1.0
1070
    74
1070
     0
1000
MTEXTEND
  0
MTEXT
  5
560A
330
1A
100
AcDbEntity
  8
SUNPOU
100
AcDbMText
 10
145455.4532733745
 20
143610.3400011645
 30
0.0
 40
10.5
 41
0.0
 71
     9
 72
     5
  1

1001
ACAD
1000
MTEXTBEGIN
1070
    73
1070
     1
1070
    44
1040
1.0
1070
    74
1070
     0
1000
MTEXTEND
  0
MTEXT
  5
560B
330
1A
100
AcDbEntity
  8
SUNPOU
100
AcDbMText
 10
147398.8605200839
 20
141809.2909212864
 30
0.0
 40
3.5
 41
0.0
 71
     9
 72
     5
  1

1001
ACAD
1000
MTEXTBEGIN
1070
    73
1070
     1
1070
    44
1040
1.0
1070
    74
1070
     0
1000
MTEXTEND
  0
MTEXT
  5
560C
330
1A
100
AcDbEntity
  8
SUNPOU
100
AcDbMText
 10
95895.72097917011
 20
89443.50515613962
 30
0.0
 40
10.5
 41
0.0
 71
     9
 72
     5
  1

1001
ACAD
1000
MTEXTBEGIN
1070
    73
1070
     1
1070
    44
1040
1.0
1070
    74
1070
     0
1000
MTEXTEND
  0
MTEXT
  5
560D
330
1A
100
AcDbEntity
  8
SUNPOU
100
AcDbMText
 10
81947.72087879414
 20
70271.1060170274
 30
0.0
 40
3.5
 41
0.0
 71
     7
 72
     5
  1

1001
ACAD
1000
MTEXTBEGIN
1070
    73
1070
     1
1070
    44
1040
1.0
1070
    74
1070
     0
1000
MTEXTEND
  0
MTEXT
  5
560E
330
1A
100
AcDbEntity
  8
SUNPOU
100
AcDbMText
 10
62932.89027578729
 20
58033.25474784561
 30
0.0
 40
10.5
 41
0.0
 71
     7
 72
     5
  1

1001
ACAD
1000
MTEXTBEGIN
1070
    73
1070
     1
1070
    44
1040
1.0
1070
    74
1070
     0
1000
MTEXTEND
  0
MTEXT
  5
560F
330
1A
100
AcDbEntity
  8
SUNPOU
100
AcDbMText
 10
50475.66201083918
 20
42188.32316974718
 30
0.0
 40
35.0
 41
0.0
 71
     9
 72
     5
  1

1001
ACAD
1000
MTEXTBEGIN
1070
    73
1070
     1
1070
    44
1040
1.0
1070
    74
1070
     0
1000
MTEXTEND
  0
MTEXT
  5
5610
330
1A
100
AcDbEntity
  8
SUNPOU
100
AcDbMText
 10
49384.14706841413
 20
42797.0985797959
 30
0.0
 40
350.0000004171781
 41
0.0
 71
     7
 72
     5
  1

1001
ACAD
1000
MTEXTBEGIN
1070
    73
1070
     1
1070
    44
1040
1.0
1070
    74
1070
     0
1000
MTEXTEND
  0
MTEXT
  5
5611
330
1A
100
AcDbEntity
  8
0
100
AcDbMText
 10
55428.09782635704
 20
40777.0209419321
 30
0.0
 40
8.0
 41
0.0
 71
     7
 72
     5
  1

1001
ACAD
1000
MTEXTBEGIN
1070
    73
1070
     1
1070
    44
1040
1.0
1070
    74
1070
     0
1000
MTEXTEND
  0
MTEXT
  5
5612
330
1A
100
AcDbEntity
  8
0
100
AcDbMText
 10
57713.45551625192
 20
41747.81123668316
 30
0.0
 40
8.0
 41
0.0
 71
     7
 72
     5
  1

1001
ACAD
1000
MTEXTBEGIN
1070
    73
1070
     1
1070
    44
1040
1.0
1070
    74
1070
     0
1000
MTEXTEND
  0
MTEXT
  5
5613
330
1A
100
AcDbEntity
  8
SUNPOU
100
AcDbMText
 10
60379.35253693407
 20
51259.9226290583
 30
0.0
 40
10.5
 41
0.0
 71
     1
 72
     5
  1

1001
ACAD
1000
MTEXTBEGIN
1070
    73
1070
     1
1070
    44
1040
1.0
1070
    74
1070
     0
1000
MTEXTEND
  0
MTEXT
  5
5614
330
1A
100
AcDbEntity
  8
SUNPOU
100
AcDbMText
 10
52448.42934099813
 20
50313.12949514535
 30
0.0
 40
10.5
 41
0.0
 71
     7
 72
     5
  1

1001
ACAD
1000
MTEXTBEGIN
1070
    73
1070
     1
1070
    44
1040
1.0
1070
    74
1070
     0
1000
MTEXTEND
  0
MTEXT
  5
5615
330
1A
100
AcDbEntity
  8
SUNPOU
100
AcDbMText
 10
55397.4130055109
 20
55213.80556698819
 30
0.0
 40
10.5
 41
0.0
 71
     7
 72
     5
  1

1001
ACAD
1000
MTEXTBEGIN
1070
    73
1070
     1
1070
    44
1040
1.0
1070
    74
1070
     0
1000
MTEXTEND
  0
MTEXT
  5
5616
330
1A
100
AcDbEntity
  8
SUNPOU
100
AcDbMText
 10
59906.49113346147
 20
57650.10631460826
 30
0.0
 40
10.5
 41
0.0
 71
     7
 72
     5
  1

1001
ACAD
1000
MTEXTBEGIN
1070
    73
1070
     1
1070
    44
1040
1.0
1070
    74
1070
     0
1000
MTEXTEND
  0
MTEXT
  5
5617
330
1A
100
AcDbEntity
  8
SUNPOU
100
AcDbMText
 10
43507.32902022977
 20
36647.70246499718
 30
0.0
 40
10.5
 41
0.0
 71
     7
 72
     5
  1

1001
ACAD
1000
MTEXTBEGIN
1070
    73
1070
     1
1070
    44
1040
1.0
1070
    74
1070
     0
1000
MTEXTEND
  0
MTEXT
  5
5618
330
1A
100
AcDbEntity
  8
SUNPOU
100
AcDbMText
 10
94698.84745413006
 20
82320.68302864544
 30
0.0
 40
10.5
 41
0.0
 71
     9
 72
     5
  1

1001
ACAD
1000
MTEXTBEGIN
1070
    73
1070
     1
1070
    44
1040
1.0
1070
    74
1070
     0
1000
MTEXTEND
  0
MTEXT
  5
5619
330
1A
100
AcDbEntity
  8
SUNPOU
100
AcDbMText
 10
103421.015020048
 20
89736.5175601829
 30
0.0
 40
10.5
 41
0.0
 71
     9
 72
     5
  1

1001
ACAD
1000
MTEXTBEGIN
1070
    73
1070
     1
1070
    44
1040
1.0
1070
    74
1070
     0
1000
MTEXTEND
  0
MTEXT
  5
561A
330
1A
100
AcDbEntity
  8
SUNPOU
100
AcDbMText
 10
122374.773737378
 20
107203.0936126749
 30
0.0
 40
10.5
 41
0.0
 71
     9
 72
     5
  1

1001
ACAD
1000
MTEXTBEGIN
1070
    73
1070
     1
1070
    44
1040
1.0
1070
    74
1070
     0
1000
MTEXTEND
  0
MTEXT
  5
561B
330
1A
100
AcDbEntity
  8
SUNPOU
100
AcDbMText
 10
124318.1809840874
 20
105402.0445327969
 30
0.0
 40
3.5
 41
0.0
 71
     9
 72
     5
  1

1001
ACAD
1000
MTEXTBEGIN
1070
    73
1070
     1
1070
    44
1040
1.0
1070
    74
1070
     0
1000
MTEXTEND
  0
MTEXT
  5
561C
330
1A
100
AcDbEntity
  8
SUNPOU
100
AcDbMText
 10
155444.3608167071
 20
147896.9902004542
 30
0.0
 40
10.5
 41
0.0
 71
     9
 72
     5
  1

1001
ACAD
1000
MTEXTBEGIN
1070
    73
1070
     1
1070
    44
1040
1.0
1070
    74
1070
     0
1000
MTEXTEND
  0
MTEXT
  5
561D
330
1A
100
AcDbEntity
  8
SUNPOU
100
AcDbMText
 10
157387.7680634165
 20
146095.9411205762
 30
0.0
 40
3.5
 41
0.0
 71
     9
 72
     5
  1

1001
ACAD
1000
MTEXTBEGIN
1070
    73
1070
     1
1070
    44
1040
1.0
1070
    74
1070
     0
1000
MTEXTEND
  0
MTEXT
  5
561E
330
1A
100
AcDbEntity
  8
SUNPOU
100
AcDbMText
 10
105884.6285225027
 20
93730.15535542933
 30
0.0
 40
10.5
 41
0.0
 71
     9
 72
     5
  1

1001
ACAD
1000
MTEXTBEGIN
1070
    73
1070
     1
1070
    44
1040
1.0
1070
    74
1070
     0
1000
MTEXTEND
  0
MTEXT
  5
561F
330
1A
100
AcDbEntity
  8
SUNPOU
100
AcDbMText
 10
91936.6284221267
 20
74557.75621631714
 30
0.0
 40
3.5
 41
0.0
 71
     7
 72
     5
  1

1001
ACAD
1000
MTEXTBEGIN
1070
    73
1070
     1
1070
    44
1040
1.0
1070
    74
1070
     0
1000
MTEXTEND
  0
MTEXT
  5
5620
330
1A
100
AcDbEntity
  8
SUNPOU
100
AcDbMText
 10
72921.79781911986
 20
62319.90494713532
 30
0.0
 40
10.5
 41
0.0
 71
     7
 72
     5
  1

1001
ACAD
1000
MTEXTBEGIN
1070
    73
1070
     1
1070
    44
1040
1.0
1070
    74
1070
     0
1000
MTEXTEND
  0
MTEXT
  5
5621
330
1A
100
AcDbEntity
  8
SUNPOU
100
AcDbMText
 10
60464.56955417175
 20
46474.97336903692
 30
0.0
 40
35.0
 41
0.0
 71
     9
 72
     5
  1

1001
ACAD
1000
MTEXTBEGIN
1070
    73
1070
     1
1070
    44
1040
1.0
1070
    74
1070
     0
1000
MTEXTEND
  0
MTEXT
  5
5622
330
1A
100
AcDbEntity
  8
SUNPOU
100
AcDbMText
 10
59373.05461174673
 20
47083.74877908561
 30
0.0
 40
350.0000004171781
 41
0.0
 71
     7
 72
     5
  1

1001
ACAD
1000
MTEXTBEGIN
1070
    73
1070
     1
1070
    44
1040
1.0
1070
    74
1070
     0
1000
MTEXTEND
  0
MTEXT
  5
5623
330
1A
100
AcDbEntity
  8
0
100
AcDbMText
 10
65417.00536968963
 20
45063.67114122186
 30
0.0
 40
8.0
 41
0.0
 71
     7
 72
     5
  1

1001
ACAD
1000
MTEXTBEGIN
1070
    73
1070
     1
1070
    44
1040
1.0
1070
    74
1070
     0
1000
MTEXTEND
  0
MTEXT
  5
5624
330
1A
100
AcDbEntity
  8
0
100
AcDbMText
 10
67702.36305958452
 20
46034.46143597292
 30
0.0
 40
8.0
 41
0.0
 71
     7
 72
     5
  1

1001
ACAD
1000
MTEXTBEGIN
1070
    73
1070
     1
1070
    44
1040
1.0
1070
    74
1070
     0
1000
MTEXTEND
  0
MTEXT
  5
5625
330
1A
100
AcDbEntity
  8
SUNPOU
100
AcDbMText
 10
70368.26008026666
 20
55546.57282834803
 30
0.0
 40
10.5
 41
0.0
 71
     1
 72
     5
  1

1001
ACAD
1000
MTEXTBEGIN
1070
    73
1070
     1
1070
    44
1040
1.0
1070
    74
1070
     0
1000
MTEXTEND
  0
MTEXT
  5
5626
330
1A
100
AcDbEntity
  8
SUNPOU
100
AcDbMText
 10
62437.33688433072
 20
54599.77969443507
 30
0.0
 40
10.5
 41
0.0
 71
     7
 72
     5
  1

1001
ACAD
1000
MTEXTBEGIN
1070
    73
1070
     1
1070
    44
1040
1.0
1070
    74
1070
     0
1000
MTEXTEND
  0
MTEXT
  5
5627
330
1A
100
AcDbEntity
  8
SUNPOU
100
AcDbMText
 10
65386.32054884347
 20
59500.45576627792
 30
0.0
 40
10.5
 41
0.0
 71
     7
 72
     5
  1

1001
ACAD
1000
MTEXTBEGIN
1070
    73
1070
     1
1070
    44
1040
1.0
1070
    74
1070
     0
1000
MTEXTEND
  0
MTEXT
  5
5628
330
1A
100
AcDbEntity
  8
SUNPOU
100
AcDbMText
 10
69895.39867679405
 20
61936.756513898
 30
0.0
 40
10.5
 41
0.0
 71
     7
 72
     5
  1

1001
ACAD
1000
MTEXTBEGIN
1070
    73
1070
     1
1070
    44
1040
1.0
1070
    74
1070
     0
1000
MTEXTEND
  0
MTEXT
  5
5629
330
1A
100
AcDbEntity
  8
SUNPOU
100
AcDbMText
 10
53496.23656356237
 20
40934.35266428691
 30
0.0
 40
10.5
 41
0.0
 71
     7
 72
     5
  1

1001
ACAD
1000
MTEXTBEGIN
1070
    73
1070
     1
1070
    44
1040
1.0
1070
    74
1070
     0
1000
MTEXTEND
  0
MTEXT
  5
562A
330
1A
100
AcDbEntity
  8
SUNPOU
100
AcDbMText
 10
55306.99947493731
 20
47261.76665176546
 30
0.0
 40
10.5
 41
0.0
 71
     9
 72
     5
  1

1001
ACAD
1000
MTEXTBEGIN
1070
    73
1070
     1
1070
    44
1040
1.0
1070
    74
1070
     0
1000
MTEXTEND
  0
MTEXT
  5
562B
330
1A
100
AcDbEntity
  8
SUNPOU
100
AcDbMText
 10
64029.16704085527
 20
54677.60118330295
 30
0.0
 40
10.5
 41
0.0
 71
     9
 72
     5
  1

1001
ACAD
1000
MTEXTBEGIN
1070
    73
1070
     1
1070
    44
1040
1.0
1070
    74
1070
     0
1000
MTEXTEND
  0
MTEXT
  5
562C
330
1A
100
AcDbEntity
  8
SUNPOU
100
AcDbMText
 10
82982.92575818527
 20
72144.17723579499
 30
0.0
 40
10.5
 41
0.0
 71
     9
 72
     5
  1

1001
ACAD
1000
MTEXTBEGIN
1070
    73
1070
     1
1070
    44
1040
1.0
1070
    74
1070
     0
1000
MTEXTEND
  0
MTEXT
  5
562D
330
1A
100
AcDbEntity
  8
SUNPOU
100
AcDbMText
 10
84926.33300489467
 20
70343.12815591697
 30
0.0
 40
3.5
 41
0.0
 71
     9
 72
     5
  1

1001
ACAD
1000
MTEXTBEGIN
1070
    73
1070
     1
1070
    44
1040
1.0
1070
    74
1070
     0
1000
MTEXTEND
  0
MTEXT
  5
562E
330
1A
100
AcDbEntity
  8
SUNPOU
100
AcDbMText
 10
116052.5128375142
 20
112838.0738235742
 30
0.0
 40
10.5
 41
0.0
 71
     9
 72
     5
  1

1001
ACAD
1000
MTEXTBEGIN
1070
    73
1070
     1
1070
    44
1040
1.0
1070
    74
1070
     0
1000
MTEXTEND
  0
MTEXT
  5
562F
330
1A
100
AcDbEntity
  8
SUNPOU
100
AcDbMText
 10
117995.9200842238
 20
111037.0247436963
 30
0.0
 40
3.5
 41
0.0
 71
     9
 72
     5
  1

1001
ACAD
1000
MTEXTBEGIN
1070
    73
1070
     1
1070
    44
1040
1.0
1070
    74
1070
     0
1000
MTEXTEND
  0
MTEXT
  5
5630
330
1A
100
AcDbEntity
  8
SUNPOU
100
AcDbMText
 10
66492.78054330994
 20
58671.23897854939
 30
0.0
 40
10.5
 41
0.0
 71
     9
 72
     5
  1

1001
ACAD
1000
MTEXTBEGIN
1070
    73
1070
     1
1070
    44
1040
1.0
1070
    74
1070
     0
1000
MTEXTEND
  0
MTEXT
  5
5631
330
1A
100
AcDbEntity
  8
SUNPOU
100
AcDbMText
 10
52544.78044293397
 20
39498.83983943717
 30
0.0
 40
3.5
 41
0.0
 71
     7
 72
     5
  1

1001
ACAD
1000
MTEXTBEGIN
1070
    73
1070
     1
1070
    44
1040
1.0
1070
    74
1070
     0
1000
MTEXTEND
  0
MTEXT
  5
5632
330
1A
100
AcDbEntity
  8
SUNPOU
100
AcDbMText
 10
66237.13112570454
 20
48857.90306045851
 30
0.0
 40
10.5
 41
0.0
 71
     9
 72
     5
  1

1001
ACAD
1000
MTEXTBEGIN
1070
    73
1070
     1
1070
    44
1040
1.0
1070
    74
1070
     0
1000
MTEXTEND
  0
MTEXT
  5
5633
330
1A
100
AcDbEntity
  8
SUNPOU
100
AcDbMText
 10
74959.29869162253
 20
56273.73759199598
 30
0.0
 40
10.5
 41
0.0
 71
     9
 72
     5
  1

1001
ACAD
1000
MTEXTBEGIN
1070
    73
1070
     1
1070
    44
1040
1.0
1070
    74
1070
     0
1000
MTEXTEND
  0
MTEXT
  5
5634
330
1A
100
AcDbEntity
  8
SUNPOU
100
AcDbMText
 10
93913.0574089525
 20
73740.31364448805
 30
0.0
 40
10.5
 41
0.0
 71
     9
 72
     5
  1

1001
ACAD
1000
MTEXTBEGIN
1070
    73
1070
     1
1070
    44
1040
1.0
1070
    74
1070
     0
1000
MTEXTEND
  0
MTEXT
  5
5635
330
1A
100
AcDbEntity
  8
SUNPOU
100
AcDbMText
 10
95856.46465566192
 20
71939.26456461004
 30
0.0
 40
3.5
 41
0.0
 71
     9
 72
     5
  1

1001
ACAD
1000
MTEXTBEGIN
1070
    73
1070
     1
1070
    44
1040
1.0
1070
    74
1070
     0
1000
MTEXTEND
  0
MTEXT
  5
5636
330
1A
100
AcDbEntity
  8
SUNPOU
100
AcDbMText
 10
126982.6444882816
 20
114434.2102322673
 30
0.0
 40
10.5
 41
0.0
 71
     9
 72
     5
  1

1001
ACAD
1000
MTEXTBEGIN
1070
    73
1070
     1
1070
    44
1040
1.0
1070
    74
1070
     0
1000
MTEXTEND
  0
MTEXT
  5
5637
330
1A
100
AcDbEntity
  8
SUNPOU
100
AcDbMText
 10
128926.051734991
 20
112633.1611523893
 30
0.0
 40
3.5
 41
0.0
 71
     9
 72
     5
  1

1001
ACAD
1000
MTEXTBEGIN
1070
    73
1070
     1
1070
    44
1040
1.0
1070
    74
1070
     0
1000
MTEXTEND
  0
MTEXT
  5
5638
330
1A
100
AcDbEntity
  8
SUNPOU
100
AcDbMText
 10
77422.91219407717
 20
60267.37538724244
 30
0.0
 40
10.5
 41
0.0
 71
     9
 72
     5
  1

1001
ACAD
1000
MTEXTBEGIN
1070
    73
1070
     1
1070
    44
1040
1.0
1070
    74
1070
     0
1000
MTEXTEND
  0
MTEXT
  5
5639
330
1A
100
AcDbEntity
  8
SUNPOU
100
AcDbMText
 10
63474.91209370119
 20
41094.97624813023
 30
0.0
 40
3.5
 41
0.0
 71
     7
 72
     5
  1

1001
ACAD
1000
MTEXTBEGIN
1070
    73
1070
     1
1070
    44
1040
1.0
1070
    74
1070
     0
1000
MTEXTEND
  0
MTEXT
  5
563A
330
1A
100
AcDbEntity
  8
SUNPOU
100
AcDbMText
 10
48117.65086229006
 20
40806.11043916631
 30
0.0
 40
10.5
 41
0.0
 71
     9
 72
     5
  1

1001
ACAD
1000
MTEXTBEGIN
1070
    73
1070
     1
1070
    44
1040
1.0
1070
    74
1070
     0
1000
MTEXTEND
  0
MTEXT
  5
563B
330
1A
100
AcDbEntity
  8
SUNPOU
100
AcDbMText
 10
67071.40957962004
 20
58272.68649165838
 30
0.0
 40
10.5
 41
0.0
 71
     9
 72
     5
  1

1001
ACAD
1000
MTEXTBEGIN
1070
    73
1070
     1
1070
    44
1040
1.0
1070
    74
1070
     0
1000
MTEXTEND
  0
MTEXT
  5
563C
330
1A
100
AcDbEntity
  8
SUNPOU
100
AcDbMText
 10
69014.81682632945
 20
56471.63741178035
 30
0.0
 40
3.5
 41
0.0
 71
     9
 72
     5
  1

1001
ACAD
1000
MTEXTBEGIN
1070
    73
1070
     1
1070
    44
1040
1.0
1070
    74
1070
     0
1000
MTEXTEND
  0
MTEXT
  5
563D
330
1A
100
AcDbEntity
  8
SUNPOU
100
AcDbMText
 10
100140.9966589491
 20
98966.58307943773
 30
0.0
 40
10.5
 41
0.0
 71
     9
 72
     5
  1

1001
ACAD
1000
MTEXTBEGIN
1070
    73
1070
     1
1070
    44
1040
1.0
1070
    74
1070
     0
1000
MTEXTEND
  0
MTEXT
  5
563E
330
1A
100
AcDbEntity
  8
SUNPOU
100
AcDbMText
 10
102084.4039056586
 20
97165.53399955968
 30
0.0
 40
3.5
 41
0.0
 71
     9
 72
     5
  1

1001
ACAD
1000
MTEXTBEGIN
1070
    73
1070
     1
1070
    44
1040
1.0
1070
    74
1070
     0
1000
MTEXTEND
  0
MTEXT
  5
563F
330
1A
100
AcDbEntity
  8
SUNPOU
100
AcDbMText
 10
50581.26436474472
 20
44799.74823441275
 30
0.0
 40
10.5
 41
0.0
 71
     9
 72
     5
  1

1001
ACAD
1000
MTEXTBEGIN
1070
    73
1070
     1
1070
    44
1040
1.0
1070
    74
1070
     0
1000
MTEXTEND
  0
MTEXT
  5
5640
330
1A
100
AcDbEntity
  8
SUNPOU
100
AcDbMText
 10
36633.26426436873
 20
25627.34909530054
 30
0.0
 40
3.5
 41
0.0
 71
     7
 72
     5
  1

1001
ACAD
1000
MTEXTBEGIN
1070
    73
1070
     1
1070
    44
1040
1.0
1070
    74
1070
     0
1000
MTEXTEND
  0
MTEXT
  5
5641
330
1A
100
AcDbEntity
  8
SUNPOU
100
AcDbMText
 10
61069.42493315968
 20
52574.61207825771
 30
0.0
 40
10.5
 41
0.0
 71
     9
 72
     5
  1

1001
ACAD
1000
MTEXTBEGIN
1070
    73
1070
     1
1070
    44
1040
1.0
1070
    74
1070
     0
1000
MTEXTEND
  0
MTEXT
  5
5642
330
1A
100
AcDbEntity
  8
SUNPOU
100
AcDbMText
 10
80023.18365048967
 20
70041.18813074978
 30
0.0
 40
10.5
 41
0.0
 71
     9
 72
     5
  1

1001
ACAD
1000
MTEXTBEGIN
1070
    73
1070
     1
1070
    44
1040
1.0
1070
    74
1070
     0
1000
MTEXTEND
  0
MTEXT
  5
5643
330
1A
100
AcDbEntity
  8
SUNPOU
100
AcDbMText
 10
81966.59089719908
 20
68240.13905087176
 30
0.0
 40
3.5
 41
0.0
 71
     9
 72
     5
  1

1001
ACAD
1000
MTEXTBEGIN
1070
    73
1070
     1
1070
    44
1040
1.0
1070
    74
1070
     0
1000
MTEXTEND
  0
MTEXT
  5
5644
330
1A
100
AcDbEntity
  8
SUNPOU
100
AcDbMText
 10
113092.7707298186
 20
110735.0847185291
 30
0.0
 40
10.5
 41
0.0
 71
     9
 72
     5
  1

1001
ACAD
1000
MTEXTBEGIN
1070
    73
1070
     1
1070
    44
1040
1.0
1070
    74
1070
     0
1000
MTEXTEND
  0
MTEXT
  5
5645
330
1A
100
AcDbEntity
  8
SUNPOU
100
AcDbMText
 10
115036.1779765282
 20
108934.0356386511
 30
0.0
 40
3.5
 41
0.0
 71
     9
 72
     5
  1

1001
ACAD
1000
MTEXTBEGIN
1070
    73
1070
     1
1070
    44
1040
1.0
1070
    74
1070
     0
1000
MTEXTEND
  0
MTEXT
  5
5646
330
1A
100
AcDbEntity
  8
SUNPOU
100
AcDbMText
 10
63533.03843561432
 20
56568.24987350415
 30
0.0
 40
10.5
 41
0.0
 71
     9
 72
     5
  1

1001
ACAD
1000
MTEXTBEGIN
1070
    73
1070
     1
1070
    44
1040
1.0
1070
    74
1070
     0
1000
MTEXTEND
  0
MTEXT
  5
5647
330
1A
100
AcDbEntity
  8
SUNPOU
100
AcDbMText
 10
49585.03833523835
 20
37395.85073439196
 30
0.0
 40
3.5
 41
0.0
 71
     7
 72
     5
  1

1001
ACAD
1000
MTEXTBEGIN
1070
    73
1070
     1
1070
    44
1040
1.0
1070
    74
1070
     0
1000
MTEXTEND
  0
MTEXT
  5
5648
330
1A
100
AcDbEntity
  8
SUNPOU
100
AcDbMText
 10
77137.31641337052
 20
70907.11375048141
 30
0.0
 40
10.5
 41
0.0
 71
     9
 72
     5
  1

1001
ACAD
1000
MTEXTBEGIN
1070
    73
1070
     1
1070
    44
1040
1.0
1070
    74
1070
     0
1000
MTEXTEND
  0
MTEXT
  5
5649
330
1A
100
AcDbEntity
  8
SUNPOU
100
AcDbMText
 10
79080.72366007995
 20
69106.06467060339
 30
0.0
 40
3.5
 41
0.0
 71
     9
 72
     5
  1

1001
ACAD
1000
MTEXTBEGIN
1070
    73
1070
     1
1070
    44
1040
1.0
1070
    74
1070
     0
1000
MTEXTEND
  0
MTEXT
  5
564A
330
1A
100
AcDbEntity
  8
SUNPOU
100
AcDbMText
 10
110206.9034926996
 20
111601.0103382607
 30
0.0
 40
10.5
 41
0.0
 71
     9
 72
     5
  1

1001
ACAD
1000
MTEXTBEGIN
1070
    73
1070
     1
1070
    44
1040
1.0
1070
    74
1070
     0
1000
MTEXTEND
  0
MTEXT
  5
564B
330
1A
100
AcDbEntity
  8
SUNPOU
100
AcDbMText
 10
112150.310739409
 20
109799.9612583826
 30
0.0
 40
3.5
 41
0.0
 71
     9
 72
     5
  1

1001
ACAD
1000
MTEXTBEGIN
1070
    73
1070
     1
1070
    44
1040
1.0
1070
    74
1070
     0
1000
MTEXTEND
  0
MTEXT
  5
564C
330
1A
100
AcDbEntity
  8
SUNPOU
100
AcDbMText
 10
108819.1333204967
 20
110677.9087286761
 30
0.0
 40
10.5
 41
0.0
 71
     9
 72
     5
  1

1001
ACAD
1000
MTEXTBEGIN
1070
    73
1070
     1
1070
    44
1040
1.0
1070
    74
1070
     0
1000
MTEXTEND
  0
MTEXT
  5
564D
330
1A
100
AcDbEntity
  8
SUNPOU
100
AcDbMText
 10
110762.5405672062
 20
108876.8596487981
 30
0.0
 40
3.5
 41
0.0
 71
     9
 72
     5
  1

1001
ACAD
1000
MTEXTBEGIN
1070
    73
1070
     1
1070
    44
1040
1.0
1070
    74
1070
     0
1000
MTEXTEND
  0
MTEXT
  5
564E
330
1A
100
AcDbEntity
  8
SUNPOU
100
AcDbMText
 10
76303.05507956816
 20
68695.31179059812
 30
0.0
 40
10.5
 41
0.0
 71
     9
 72
     5
  1

1001
ACAD
1000
MTEXTBEGIN
1070
    73
1070
     1
1070
    44
1040
1.0
1070
    74
1070
     0
1000
MTEXTEND
  0
MTEXT
  5
564F
330
1A
100
AcDbEntity
  8
SUNPOU
100
AcDbMText
 10
79026.36128373271
 20
69099.99348217918
 30
0.0
 40
3.5
 41
0.0
 71
     9
 72
     5
  1

1001
ACAD
1000
MTEXTBEGIN
1070
    73
1070
     1
1070
    44
1040
1.0
1070
    74
1070
     0
1000
MTEXTEND
  0
MTEXT
  5
5650
330
1A
100
AcDbEntity
  8
SUNPOU
100
AcDbMText
 10
78234.00675862522
 20
65938.68764412436
 30
0.0
 40
10.5
 41
0.0
 71
     9
 72
     5
  1

1001
ACAD
1000
MTEXTBEGIN
1070
    73
1070
     1
1070
    44
1040
1.0
1070
    74
1070
     0
1000
MTEXTEND
  0
MTEXT
  5
5651
330
1A
100
AcDbEntity
  8
SUNPOU
100
AcDbMText
 10
80177.41400533465
 20
64137.63856424636
 30
0.0
 40
3.5
 41
0.0
 71
     9
 72
     5
  1

1001
ACAD
1000
MTEXTBEGIN
1070
    73
1070
     1
1070
    44
1040
1.0
1070
    74
1070
     0
1000
MTEXTEND
  0
MTEXT
  5
5652
330
1A
100
AcDbEntity
  8
SUNPOU
100
AcDbMText
 10
80122.50949592122
 20
64024.86668196204
 30
0.0
 40
3.5
 41
0.0
 71
     9
 72
     5
  1

1001
ACAD
1000
MTEXTBEGIN
1070
    73
1070
     1
1070
    44
1040
1.0
1070
    74
1070
     0
1000
MTEXTEND
  0
MTEXT
  5
5653
330
1A
100
AcDbEntity
  8
SUNPOU
100
AcDbMText
 10
79486.58135950133
 20
63213.54544089553
 30
0.0
 40
3.5
 41
0.0
 71
     9
 72
     5
  1

1001
ACAD
1000
MTEXTBEGIN
1070
    73
1070
     1
1070
    44
1040
1.0
1070
    74
1070
     0
1000
MTEXTEND
  0
MTEXT
  5
5654
330
1A
100
AcDbEntity
  8
SUNPOU
100
AcDbMText
 10
79485.3409400806
 20
63213.29746395804
 30
0.0
 40
10.5
 41
0.0
 71
     9
 72
     5
  1

1001
ACAD
1000
MTEXTBEGIN
1070
    73
1070
     1
1070
    44
1040
1.0
1070
    74
1070
     0
1000
MTEXTEND
  0
MTEXT
  5
5655
330
1A
100
AcDbEntity
  8
SUNPOU
100
AcDbMText
 10
85473.63363627567
 20
80747.76348077064
 30
0.0
 40
10.5
 41
0.0
 71
     9
 72
     5
  1

1001
ACAD
1000
MTEXTBEGIN
1070
    73
1070
     1
1070
    44
1040
1.0
1070
    74
1070
     0
1000
MTEXTEND
  0
MTEXT
  5
5656
330
1A
100
AcDbEntity
  8
SUNPOU
100
AcDbMText
 10
94195.80120219368
 20
88163.59801230806
 30
0.0
 40
10.5
 41
0.0
 71
     9
 72
     5
  1

1001
ACAD
1000
MTEXTBEGIN
1070
    73
1070
     1
1070
    44
1040
1.0
1070
    74
1070
     0
1000
MTEXTEND
  0
MTEXT
  5
5657
330
1A
100
AcDbEntity
  8
SUNPOU
100
AcDbMText
 10
113149.5599195236
 20
105630.1740648001
 30
0.0
 40
10.5
 41
0.0
 71
     9
 72
     5
  1

1001
ACAD
1000
MTEXTBEGIN
1070
    73
1070
     1
1070
    44
1040
1.0
1070
    74
1070
     0
1000
MTEXTEND
  0
MTEXT
  5
5658
330
1A
100
AcDbEntity
  8
SUNPOU
100
AcDbMText
 10
115092.967166233
 20
103829.1249849221
 30
0.0
 40
3.5
 41
0.0
 71
     9
 72
     5
  1

1001
ACAD
1000
MTEXTBEGIN
1070
    73
1070
     1
1070
    44
1040
1.0
1070
    74
1070
     0
1000
MTEXTEND
  0
MTEXT
  5
5659
330
1A
100
AcDbEntity
  8
SUNPOU
100
AcDbMText
 10
146219.1469988527
 20
146324.0706525794
 30
0.0
 40
10.5
 41
0.0
 71
     9
 72
     5
  1

1001
ACAD
1000
MTEXTBEGIN
1070
    73
1070
     1
1070
    44
1040
1.0
1070
    74
1070
     0
1000
MTEXTEND
  0
MTEXT
  5
565A
330
1A
100
AcDbEntity
  8
SUNPOU
100
AcDbMText
 10
148162.5542455621
 20
144523.0215727014
 30
0.0
 40
3.5
 41
0.0
 71
     9
 72
     5
  1

1001
ACAD
1000
MTEXTBEGIN
1070
    73
1070
     1
1070
    44
1040
1.0
1070
    74
1070
     0
1000
MTEXTEND
  0
MTEXT
  5
565B
330
1A
100
AcDbEntity
  8
SUNPOU
100
AcDbMText
 10
96659.41470464833
 20
92157.23580755453
 30
0.0
 40
10.5
 41
0.0
 71
     9
 72
     5
  1

1001
ACAD
1000
MTEXTBEGIN
1070
    73
1070
     1
1070
    44
1040
1.0
1070
    74
1070
     0
1000
MTEXTEND
  0
MTEXT
  5
565C
330
1A
100
AcDbEntity
  8
SUNPOU
100
AcDbMText
 10
82711.41460427234
 20
72984.83666844234
 30
0.0
 40
3.5
 41
0.0
 71
     7
 72
     5
  1

1001
ACAD
1000
MTEXTBEGIN
1070
    73
1070
     1
1070
    44
1040
1.0
1070
    74
1070
     0
1000
MTEXTEND
  0
MTEXT
  5
565D
330
1A
100
AcDbEntity
  8
SUNPOU
100
AcDbMText
 10
63696.58400126548
 20
60746.98539926055
 30
0.0
 40
10.5
 41
0.0
 71
     7
 72
     5
  1

1001
ACAD
1000
MTEXTBEGIN
1070
    73
1070
     1
1070
    44
1040
1.0
1070
    74
1070
     0
1000
MTEXTEND
  0
MTEXT
  5
565E
330
1A
100
AcDbEntity
  8
SUNPOU
100
AcDbMText
 10
51239.35573631738
 20
44902.05382116213
 30
0.0
 40
35.0
 41
0.0
 71
     9
 72
     5
  1

1001
ACAD
1000
MTEXTBEGIN
1070
    73
1070
     1
1070
    44
1040
1.0
1070
    74
1070
     0
1000
MTEXTEND
  0
MTEXT
  5
565F
330
1A
100
AcDbEntity
  8
SUNPOU
100
AcDbMText
 10
50147.84079389233
 20
45510.82923121084
 30
0.0
 40
350.0000004171781
 41
0.0
 71
     7
 72
     5
  1

1001
ACAD
1000
MTEXTBEGIN
1070
    73
1070
     1
1070
    44
1040
1.0
1070
    74
1070
     0
1000
MTEXTEND
  0
MTEXT
  5
5660
330
1A
100
AcDbEntity
  8
0
100
AcDbMText
 10
56191.79155183523
 20
43490.75159334705
 30
0.0
 40
8.0
 41
0.0
 71
     7
 72
     5
  1

1001
ACAD
1000
MTEXTBEGIN
1070
    73
1070
     1
1070
    44
1040
1.0
1070
    74
1070
     0
1000
MTEXTEND
  0
MTEXT
  5
5661
330
1A
100
AcDbEntity
  8
0
100
AcDbMText
 10
58477.14924173012
 20
44461.54188809812
 30
0.0
 40
8.0
 41
0.0
 71
     7
 72
     5
  1

1001
ACAD
1000
MTEXTBEGIN
1070
    73
1070
     1
1070
    44
1040
1.0
1070
    74
1070
     0
1000
MTEXTEND
  0
MTEXT
  5
5662
330
1A
100
AcDbEntity
  8
SUNPOU
100
AcDbMText
 10
61143.04626241227
 20
53973.65328047324
 30
0.0
 40
10.5
 41
0.0
 71
     1
 72
     5
  1

1001
ACAD
1000
MTEXTBEGIN
1070
    73
1070
     1
1070
    44
1040
1.0
1070
    74
1070
     0
1000
MTEXTEND
  0
MTEXT
  5
5663
330
1A
100
AcDbEntity
  8
SUNPOU
100
AcDbMText
 10
53212.12306647632
 20
53026.86014656028
 30
0.0
 40
10.5
 41
0.0
 71
     7
 72
     5
  1

1001
ACAD
1000
MTEXTBEGIN
1070
    73
1070
     1
1070
    44
1040
1.0
1070
    74
1070
     0
1000
MTEXTEND
  0
MTEXT
  5
5664
330
1A
100
AcDbEntity
  8
SUNPOU
100
AcDbMText
 10
56161.10673098909
 20
57927.53621840312
 30
0.0
 40
10.5
 41
0.0
 71
     7
 72
     5
  1

1001
ACAD
1000
MTEXTBEGIN
1070
    73
1070
     1
1070
    44
1040
1.0
1070
    74
1070
     0
1000
MTEXTEND
  0
MTEXT
  5
5665
330
1A
100
AcDbEntity
  8
SUNPOU
100
AcDbMText
 10
60670.18485893966
 20
60363.8369660232
 30
0.0
 40
10.5
 41
0.0
 71
     7
 72
     5
  1

1001
ACAD
1000
MTEXTBEGIN
1070
    73
1070
     1
1070
    44
1040
1.0
1070
    74
1070
     0
1000
MTEXTEND
  0
MTEXT
  5
5666
330
1A
100
AcDbEntity
  8
SUNPOU
100
AcDbMText
 10
44271.02274570799
 20
39361.43311641211
 30
0.0
 40
10.5
 41
0.0
 71
     7
 72
     5
  1

1001
ACAD
1000
MTEXTBEGIN
1070
    73
1070
     1
1070
    44
1040
1.0
1070
    74
1070
     0
1000
MTEXTEND
  0
MTEXT
  5
5667
330
1A
100
AcDbEntity
  8
SUNPOU
100
AcDbMText
 10
95462.54117960824
 20
85034.41368006038
 30
0.0
 40
10.5
 41
0.0
 71
     9
 72
     5
  1

1001
ACAD
1000
MTEXTBEGIN
1070
    73
1070
     1
1070
    44
1040
1.0
1070
    74
1070
     0
1000
MTEXTEND
  0
MTEXT
  5
5668
330
1A
100
AcDbEntity
  8
SUNPOU
100
AcDbMText
 10
104184.7087455262
 20
92450.24821159784
 30
0.0
 40
10.5
 41
0.0
 71
     9
 72
     5
  1

1001
ACAD
1000
MTEXTBEGIN
1070
    73
1070
     1
1070
    44
1040
1.0
1070
    74
1070
     0
1000
MTEXTEND
  0
MTEXT
  5
5669
330
1A
100
AcDbEntity
  8
SUNPOU
100
AcDbMText
 10
123138.4674628562
 20
109916.8242640898
 30
0.0
 40
10.5
 41
0.0
 71
     9
 72
     5
  1

1001
ACAD
1000
MTEXTBEGIN
1070
    73
1070
     1
1070
    44
1040
1.0
1070
    74
1070
     0
1000
MTEXTEND
  0
MTEXT
  5
566A
330
1A
100
AcDbEntity
  8
SUNPOU
100
AcDbMText
 10
125081.8747095656
 20
108115.7751842118
 30
0.0
 40
3.5
 41
0.0
 71
     9
 72
     5
  1

1001
ACAD
1000
MTEXTBEGIN
1070
    73
1070
     1
1070
    44
1040
1.0
1070
    74
1070
     0
1000
MTEXTEND
  0
MTEXT
  5
566B
330
1A
100
AcDbEntity
  8
SUNPOU
100
AcDbMText
 10
156208.0545421853
 20
150610.7208518691
 30
0.0
 40
10.5
 41
0.0
 71
     9
 72
     5
  1

1001
ACAD
1000
MTEXTBEGIN
1070
    73
1070
     1
1070
    44
1040
1.0
1070
    74
1070
     0
1000
MTEXTEND
  0
MTEXT
  5
566C
330
1A
100
AcDbEntity
  8
SUNPOU
100
AcDbMText
 10
158151.4617888947
 20
148809.6717719911
 30
0.0
 40
3.5
 41
0.0
 71
     9
 72
     5
  1

1001
ACAD
1000
MTEXTBEGIN
1070
    73
1070
     1
1070
    44
1040
1.0
1070
    74
1070
     0
1000
MTEXTEND
  0
MTEXT
  5
566D
330
1A
100
AcDbEntity
  8
SUNPOU
100
AcDbMText
 10
106648.3222479809
 20
96443.88600684427
 30
0.0
 40
10.5
 41
0.0
 71
     9
 72
     5
  1

1001
ACAD
1000
MTEXTBEGIN
1070
    73
1070
     1
1070
    44
1040
1.0
1070
    74
1070
     0
1000
MTEXTEND
  0
MTEXT
  5
566E
330
1A
100
AcDbEntity
  8
SUNPOU
100
AcDbMText
 10
92700.3221476049
 20
77271.48686773207
 30
0.0
 40
3.5
 41
0.0
 71
     7
 72
     5
  1

1001
ACAD
1000
MTEXTBEGIN
1070
    73
1070
     1
1070
    44
1040
1.0
1070
    74
1070
     0
1000
MTEXTEND
  0
MTEXT
  5
566F
330
1A
100
AcDbEntity
  8
SUNPOU
100
AcDbMText
 10
73685.49154459807
 20
65033.63559855027
 30
0.0
 40
10.5
 41
0.0
 71
     7
 72
     5
  1

1001
ACAD
1000
MTEXTBEGIN
1070
    73
1070
     1
1070
    44
1040
1.0
1070
    74
1070
     0
1000
MTEXTEND
  0
MTEXT
  5
5670
330
1A
100
AcDbEntity
  8
SUNPOU
100
AcDbMText
 10
61228.26327964995
 20
49188.70402045183
 30
0.0
 40
35.0
 41
0.0
 71
     9
 72
     5
  1

1001
ACAD
1000
MTEXTBEGIN
1070
    73
1070
     1
1070
    44
1040
1.0
1070
    74
1070
     0
1000
MTEXTEND
  0
MTEXT
  5
5671
330
1A
100
AcDbEntity
  8
SUNPOU
100
AcDbMText
 10
60136.74833722491
 20
49797.47943050056
 30
0.0
 40
350.0000004171781
 41
0.0
 71
     7
 72
     5
  1

1001
ACAD
1000
MTEXTBEGIN
1070
    73
1070
     1
1070
    44
1040
1.0
1070
    74
1070
     0
1000
MTEXTEND
  0
MTEXT
  5
5672
330
1A
100
AcDbEntity
  8
0
100
AcDbMText
 10
66180.69909516782
 20
47777.40179263677
 30
0.0
 40
8.0
 41
0.0
 71
     7
 72
     5
  1

1001
ACAD
1000
MTEXTBEGIN
1070
    73
1070
     1
1070
    44
1040
1.0
1070
    74
1070
     0
1000
MTEXTEND
  0
MTEXT
  5
5673
330
1A
100
AcDbEntity
  8
0
100
AcDbMText
 10
68466.05678506271
 20
48748.19208738784
 30
0.0
 40
8.0
 41
0.0
 71
     7
 72
     5
  1

1001
ACAD
1000
MTEXTBEGIN
1070
    73
1070
     1
1070
    44
1040
1.0
1070
    74
1070
     0
1000
MTEXTEND
  0
MTEXT
  5
5674
330
1A
100
AcDbEntity
  8
SUNPOU
100
AcDbMText
 10
71131.95380574485
 20
58260.30347976296
 30
0.0
 40
10.5
 41
0.0
 71
     1
 72
     5
  1

1001
ACAD
1000
MTEXTBEGIN
1070
    73
1070
     1
1070
    44
1040
1.0
1070
    74
1070
     0
1000
MTEXTEND
  0
MTEXT
  5
5675
330
1A
100
AcDbEntity
  8
SUNPOU
100
AcDbMText
 10
63201.03060980891
 20
57313.51034585003
 30
0.0
 40
10.5
 41
0.0
 71
     7
 72
     5
  1

1001
ACAD
1000
MTEXTBEGIN
1070
    73
1070
     1
1070
    44
1040
1.0
1070
    74
1070
     0
1000
MTEXTEND
  0
MTEXT
  5
5676
330
1A
100
AcDbEntity
  8
SUNPOU
100
AcDbMText
 10
66150.01427432169
 20
62214.18641769286
 30
0.0
 40
10.5
 41
0.0
 71
     7
 72
     5
  1

1001
ACAD
1000
MTEXTBEGIN
1070
    73
1070
     1
1070
    44
1040
1.0
1070
    74
1070
     0
1000
MTEXTEND
  0
MTEXT
  5
5677
330
1A
100
AcDbEntity
  8
SUNPOU
100
AcDbMText
 10
70659.09240227225
 20
64650.48716531294
 30
0.0
 40
10.5
 41
0.0
 71
     7
 72
     5
  1

1001
ACAD
1000
MTEXTBEGIN
1070
    73
1070
     1
1070
    44
1040
1.0
1070
    74
1070
     0
1000
MTEXTEND
  0
MTEXT
  5
5678
330
1A
100
AcDbEntity
  8
SUNPOU
100
AcDbMText
 10
54259.93028904056
 20
43648.08331570185
 30
0.0
 40
10.5
 41
0.0
 71
     7
 72
     5
  1

1001
ACAD
1000
MTEXTBEGIN
1070
    73
1070
     1
1070
    44
1040
1.0
1070
    74
1070
     0
1000
MTEXTEND
  0
MTEXT
  5
5679
330
1A
100
AcDbEntity
  8
SUNPOU
100
AcDbMText
 10
56070.69320041551
 20
49975.4973031804
 30
0.0
 40
10.5
 41
0.0
 71
     9
 72
     5
  1

1001
ACAD
1000
MTEXTBEGIN
1070
    73
1070
     1
1070
    44
1040
1.0
1070
    74
1070
     0
1000
MTEXTEND
  0
MTEXT
  5
567A
330
1A
100
AcDbEntity
  8
SUNPOU
100
AcDbMText
 10
64792.86076633347
 20
57391.33183471787
 30
0.0
 40
10.5
 41
0.0
 71
     9
 72
     5
  1

1001
ACAD
1000
MTEXTBEGIN
1070
    73
1070
     1
1070
    44
1040
1.0
1070
    74
1070
     0
1000
MTEXTEND
  0
MTEXT
  5
567B
330
1A
100
AcDbEntity
  8
SUNPOU
100
AcDbMText
 10
83746.61948366345
 20
74857.90788720994
 30
0.0
 40
10.5
 41
0.0
 71
     9
 72
     5
  1

1001
ACAD
1000
MTEXTBEGIN
1070
    73
1070
     1
1070
    44
1040
1.0
1070
    74
1070
     0
1000
MTEXTEND
  0
MTEXT
  5
567C
330
1A
100
AcDbEntity
  8
SUNPOU
100
AcDbMText
 10
85690.02673037287
 20
73056.85880733192
 30
0.0
 40
3.5
 41
0.0
 71
     9
 72
     5
  1

1001
ACAD
1000
MTEXTBEGIN
1070
    73
1070
     1
1070
    44
1040
1.0
1070
    74
1070
     0
1000
MTEXTEND
  0
MTEXT
  5
567D
330
1A
100
AcDbEntity
  8
SUNPOU
100
AcDbMText
 10
116816.2065629925
 20
115551.8044749892
 30
0.0
 40
10.5
 41
0.0
 71
     9
 72
     5
  1

1001
ACAD
1000
MTEXTBEGIN
1070
    73
1070
     1
1070
    44
1040
1.0
1070
    74
1070
     0
1000
MTEXTEND
  0
MTEXT
  5
567E
330
1A
100
AcDbEntity
  8
SUNPOU
100
AcDbMText
 10
118759.6138097019
 20
113750.7553951111
 30
0.0
 40
3.5
 41
0.0
 71
     9
 72
     5
  1

1001
ACAD
1000
MTEXTBEGIN
1070
    73
1070
     1
1070
    44
1040
1.0
1070
    74
1070
     0
1000
MTEXTEND
  0
MTEXT
  5
567F
330
1A
100
AcDbEntity
  8
SUNPOU
100
AcDbMText
 10
67256.47426878814
 20
61384.96962996432
 30
0.0
 40
10.5
 41
0.0
 71
     9
 72
     5
  1

1001
ACAD
1000
MTEXTBEGIN
1070
    73
1070
     1
1070
    44
1040
1.0
1070
    74
1070
     0
1000
MTEXTEND
  0
MTEXT
  5
5680
330
1A
100
AcDbEntity
  8
SUNPOU
100
AcDbMText
 10
53308.47416841216
 20
42212.57049085211
 30
0.0
 40
3.5
 41
0.0
 71
     7
 72
     5
  1

1001
ACAD
1000
MTEXTBEGIN
1070
    73
1070
     1
1070
    44
1040
1.0
1070
    74
1070
     0
1000
MTEXTEND
  0
MTEXT
  5
5681
330
1A
100
AcDbEntity
  8
SUNPOU
100
AcDbMText
 10
67000.82485118274
 20
51571.63371187343
 30
0.0
 40
10.5
 41
0.0
 71
     9
 72
     5
  1

1001
ACAD
1000
MTEXTBEGIN
1070
    73
1070
     1
1070
    44
1040
1.0
1070
    74
1070
     0
1000
MTEXTEND
  0
MTEXT
  5
5682
330
1A
100
AcDbEntity
  8
SUNPOU
100
AcDbMText
 10
75722.99241710071
 20
58987.46824341094
 30
0.0
 40
10.5
 41
0.0
 71
     9
 72
     5
  1

1001
ACAD
1000
MTEXTBEGIN
1070
    73
1070
     1
1070
    44
1040
1.0
1070
    74
1070
     0
1000
MTEXTEND
  0
MTEXT
  5
5683
330
1A
100
AcDbEntity
  8
SUNPOU
100
AcDbMText
 10
94676.75113443068
 20
76454.04429590299
 30
0.0
 40
10.5
 41
0.0
 71
     9
 72
     5
  1

1001
ACAD
1000
MTEXTBEGIN
1070
    73
1070
     1
1070
    44
1040
1.0
1070
    74
1070
     0
1000
MTEXTEND
  0
MTEXT
  5
5684
330
1A
100
AcDbEntity
  8
SUNPOU
100
AcDbMText
 10
96620.1583811401
 20
74652.99521602497
 30
0.0
 40
3.5
 41
0.0
 71
     9
 72
     5
  1

1001
ACAD
1000
MTEXTBEGIN
1070
    73
1070
     1
1070
    44
1040
1.0
1070
    74
1070
     0
1000
MTEXTEND
  0
MTEXT
  5
5685
330
1A
100
AcDbEntity
  8
SUNPOU
100
AcDbMText
 10
127746.3382137598
 20
117147.9408836822
 30
0.0
 40
10.5
 41
0.0
 71
     9
 72
     5
  1

1001
ACAD
1000
MTEXTBEGIN
1070
    73
1070
     1
1070
    44
1040
1.0
1070
    74
1070
     0
1000
MTEXTEND
  0
MTEXT
  5
5686
330
1A
100
AcDbEntity
  8
SUNPOU
100
AcDbMText
 10
129689.7454604692
 20
115346.8918038041
 30
0.0
 40
3.5
 41
0.0
 71
     9
 72
     5
  1

1001
ACAD
1000
MTEXTBEGIN
1070
    73
1070
     1
1070
    44
1040
1.0
1070
    74
1070
     0
1000
MTEXTEND
  0
MTEXT
  5
5687
330
1A
100
AcDbEntity
  8
SUNPOU
100
AcDbMText
 10
78186.60591955537
 20
62981.10603865737
 30
0.0
 40
10.5
 41
0.0
 71
     9
 72
     5
  1

1001
ACAD
1000
MTEXTBEGIN
1070
    73
1070
     1
1070
    44
1040
1.0
1070
    74
1070
     0
1000
MTEXTEND
  0
MTEXT
  5
5688
330
1A
100
AcDbEntity
  8
SUNPOU
100
AcDbMText
 10
64238.60581917939
 20
43808.70689954517
 30
0.0
 40
3.5
 41
0.0
 71
     7
 72
     5
  1

1001
ACAD
1000
MTEXTBEGIN
1070
    73
1070
     1
1070
    44
1040
1.0
1070
    74
1070
     0
1000
MTEXTEND
  0
MTEXT
  5
5689
330
1A
100
AcDbEntity
  8
SUNPOU
100
AcDbMText
 10
33428.13481137435
 20
32770.04710035563
 30
0.0
 40
10.5
 41
0.0
 71
     9
 72
     5
  1

1001
ACAD
1000
MTEXTBEGIN
1070
    73
1070
     1
1070
    44
1040
1.0
1070
    74
1070
     0
1000
MTEXTEND
  0
MTEXT
  5
568A
330
1A
100
AcDbEntity
  8
SUNPOU
100
AcDbMText
 10
52381.89352870431
 20
50236.62315284768
 30
0.0
 40
10.5
 41
0.0
 71
     9
 72
     5
  1

1001
ACAD
1000
MTEXTBEGIN
1070
    73
1070
     1
1070
    44
1040
1.0
1070
    74
1070
     0
1000
MTEXTEND
  0
MTEXT
  5
568B
330
1A
100
AcDbEntity
  8
SUNPOU
100
AcDbMText
 10
54325.30077541374
 20
48435.57407296968
 30
0.0
 40
3.5
 41
0.0
 71
     9
 72
     5
  1

1001
ACAD
1000
MTEXTBEGIN
1070
    73
1070
     1
1070
    44
1040
1.0
1070
    74
1070
     0
1000
MTEXTEND
  0
MTEXT
  5
568C
330
1A
100
AcDbEntity
  8
SUNPOU
100
AcDbMText
 10
85451.48060803342
 20
90930.51974062703
 30
0.0
 40
10.5
 41
0.0
 71
     9
 72
     5
  1

1001
ACAD
1000
MTEXTBEGIN
1070
    73
1070
     1
1070
    44
1040
1.0
1070
    74
1070
     0
1000
MTEXTEND
  0
MTEXT
  5
568D
330
1A
100
AcDbEntity
  8
SUNPOU
100
AcDbMText
 10
87394.88785474286
 20
89129.47066074901
 30
0.0
 40
3.5
 41
0.0
 71
     9
 72
     5
  1

1001
ACAD
1000
MTEXTBEGIN
1070
    73
1070
     1
1070
    44
1040
1.0
1070
    74
1070
     0
1000
MTEXTEND
  0
MTEXT
  5
568E
330
1A
100
AcDbEntity
  8
SUNPOU
100
AcDbMText
 10
35891.74831382901
 20
36763.68489560208
 30
0.0
 40
10.5
 41
0.0
 71
     9
 72
     5
  1

1001
ACAD
1000
MTEXTBEGIN
1070
    73
1070
     1
1070
    44
1040
1.0
1070
    74
1070
     0
1000
MTEXTEND
  0
MTEXT
  5
568F
330
1A
100
AcDbEntity
  8
SUNPOU
100
AcDbMText
 10
21943.74821345303
 20
17591.28575648985
 30
0.0
 40
3.5
 41
0.0
 71
     7
 72
     5
  1

1001
ACAD
1000
MTEXTBEGIN
1070
    73
1070
     1
1070
    44
1040
1.0
1070
    74
1070
     0
1000
MTEXTEND
  0
MTEXT
  5
11D89
330
1A
100
AcDbEntity
  8
ZISSEN1
100
AcDbMText
 10
-1638.14423012869
 20
1832.302030663718
 30
0.0
 40
5.0
 41
79.8899
 71
     1
 72
     5
  1
CB-26/B6C　No.SS0001f13
  7
ゴシック体
1001
ACAD
1000
MTEXTBEGIN
1070
    73
1070
     1
1070
    44
1040
1.0
1070
    74
1070
     0
1000
MTEXTEND
  0
ARC
  5
11EEA
330
1A
100
AcDbEntity
  8
ZISSEN1
100
AcDbCircle
 10
-1619.184277301015
 20
1761.810193807673
 30
0.0
 40
3.499999899999998
100
AcDbArc
 50
90.00015200000488
 51
270.0
  0
ARC
  5
11EEB
330
1A
100
AcDbEntity
  8
ZISSEN1
100
AcDbCircle
 10
-1619.184277301015
 20
1761.810193807673
 30
0.0
 40
1.749999899999999
100
AcDbArc
 50
90.0
 51
270.0
  0
LINE
  5
11EEC
330
1A
100
AcDbEntity
  8
ZISSEN1
100
AcDbLine
 10
-1621.834277301014
 20
1628.792064807674
 30
0.0
 11
-1617.834267301016
 21
1628.792064807674
 31
0.0
  0
LINE
  5
11EED
330
1A
100
AcDbEntity
  8
ZISSEN1
100
AcDbLine
 10
-1623.484277301016
 20
1620.292061807673
 30
0.0
 11
-1616.184267301016
 21
1620.292061807673
 31
0.0
  0
LINE
  5
11EEE
330
1A
100
AcDbEntity
  8
ZISSEN1
100
AcDbLine
 10
-1623.484277301016
 20
1724.905193807674
 30
0.0
 11
-1616.184267301016
 21
1724.905193807674
 31
0.0
  0
LINE
  5
11EEF
330
1A
100
AcDbEntity
  8
ZISSEN1
100
AcDbLine
 10
-1623.484277301016
 20
1732.515203807674
 30
0.0
 11
-1616.184267301016
 21
1732.515203807674
 31
0.0
  0
LINE
  5
11EF0
330
1A
100
AcDbEntity
  8
ZISSEN1
100
AcDbLine
 10
-1616.391367301016
 20
1716.810193807673
 30
0.0
 11
-1714.977157301015
 21
1716.810193807673
 31
0.0
  0
LINE
  5
11EF1
330
1A
100
AcDbEntity
  8
ZISSEN1
100
AcDbLine
 10
-1616.391367301016
 20
1806.810193807674
 30
0.0
 11
-1714.977157301015
 21
1806.810193807674
 31
0.0
  0
LINE
  5
11EF2
330
1A
100
AcDbEntity
  8
ZISSEN1
100
AcDbLine
 10
-1715.684267301016
 20
1620.292061807673
 30
0.0
 11
-1615.684257301015
 21
1620.292061807673
 31
0.0
  0
LINE
  5
11EF3
330
1A
100
AcDbEntity
  8
ZISSEN1
100
AcDbLine
 10
-1715.684267301016
 20
1618.692059807673
 30
0.0
 11
-1615.684257301015
 21
1618.692059807673
 31
0.0
  0
LINE
  5
11EF4
330
1A
100
AcDbEntity
  8
CL1
100
AcDbLine
 10
-1622.184287301016
 20
1761.810193807673
 30
0.0
 11
-1616.184267301016
 21
1761.810193807673
 31
0.0
  0
LINE
  5
11EF5
330
1A
100
AcDbEntity
  8
ZISSEN1
100
AcDbLine
 10
-1715.684267301016
 20
1613.692061807673
 30
0.0
 11
-1615.684257301015
 21
1613.692061807673
 31
0.0
  0
LINE
  5
11EF6
330
1A
100
AcDbEntity
  8
ZISSEN1
100
AcDbLine
 10
-1715.684267301016
 20
1610.692064807673
 30
0.0
 11
-1615.684257301015
 21
1610.692064807673
 31
0.0
  0
LINE
  5
11EF7
330
1A
100
AcDbEntity
  8
ZISSEN1
100
AcDbLine
 10
-1715.684267301016
 20
1757.603093807674
 30
0.0
 11
-1715.684267301016
 21
1717.517303807674
 31
0.0
  0
LINE
  5
11EF8
330
1A
100
AcDbEntity
  8
ZISSEN1
100
AcDbLine
 10
-1637.353827301016
 20
1599.659934807674
 30
0.0
 11
-1637.353827301016
 21
1610.692064807673
 31
0.0
  0
LINE
  5
11EF9
330
1A
100
AcDbEntity
  8
ZISSEN1
100
AcDbLine
 10
-1644.014707301016
 20
1599.659934807674
 30
0.0
 11
-1644.014707301016
 21
1610.692064807673
 31
0.0
  0
LINE
  5
11EFA
330
1A
100
AcDbEntity
  8
ZISSEN1
100
AcDbLine
 10
-1687.353817301015
 20
1599.659934807674
 30
0.0
 11
-1687.353817301015
 21
1610.692064807673
 31
0.0
  0
LINE
  5
11EFB
330
1A
100
AcDbEntity
  8
ZISSEN1
100
AcDbLine
 10
-1694.014697301016
 20
1599.659934807674
 30
0.0
 11
-1694.014697301016
 21
1610.692064807673
 31
0.0
  0
LINE
  5
11EFC
330
1A
100
AcDbEntity
  8
ZISSEN1
100
AcDbLine
 10
-1694.014697301016
 20
1599.659934807674
 30
0.0
 11
-1687.353817301015
 21
1599.659934807674
 31
0.0
  0
LINE
  5
11EFD
330
1A
100
AcDbEntity
  8
ZISSEN1
100
AcDbLine
 10
-1644.014707301016
 20
1599.659934807674
 30
0.0
 11
-1637.353827301016
 21
1599.659934807674
 31
0.0
  0
LINE
  5
11EFE
330
1A
100
AcDbEntity
  8
ZISSEN1
100
AcDbLine
 10
-1708.184217301015
 20
1620.292061807673
 30
0.0
 11
-1623.184287301016
 21
1620.292061807673
 31
0.0
  0
LINE
  5
11EFF
330
1A
100
AcDbEntity
  8
ZISSEN1
100
AcDbLine
 10
-1695.684257301016
 20
1665.292053807673
 30
0.0
 11
-1635.684257301016
 21
1665.292053807673
 31
0.0
  0
LINE
  5
11F00
330
1A
100
AcDbEntity
  8
ZISSEN1
100
AcDbLine
 10
-1708.684257301015
 20
1635.292060807674
 30
0.0
 11
-1684.224287301016
 21
1635.292060807674
 31
0.0
  0
LINE
  5
11F01
330
1A
100
AcDbEntity
  8
ZISSEN1
100
AcDbLine
 10
-1695.684257301016
 20
1665.292053807673
 30
0.0
 11
-1695.684257301016
 21
1645.292069807673
 31
0.0
  0
LINE
  5
11F02
330
1A
100
AcDbEntity
  8
ZISSEN1
100
AcDbLine
 10
-1701.784237301016
 20
1656.877143807674
 30
0.0
 11
-1701.784237301016
 21
1645.292044807672
 31
0.0
  0
LINE
  5
11F03
330
1A
100
AcDbEntity
  8
ZISSEN1
100
AcDbLine
 10
-1707.784257301016
 20
1656.877173807674
 30
0.0
 11
-1707.784257301016
 21
1645.292044807672
 31
0.0
  0
LINE
  5
11F04
330
1A
100
AcDbEntity
  8
ZISSEN1
100
AcDbLine
 10
-1708.684257301015
 20
1635.292060807674
 30
0.0
 11
-1708.684257301015
 21
1620.292061807673
 31
0.0
  0
LINE
  5
11F05
330
1A
100
AcDbEntity
  8
CL1
100
AcDbLine
 10
-1712.184267301016
 20
1616.692059807673
 30
0.0
 11
-1712.184267301016
 21
1607.692066807674
 31
0.0
  0
LINE
  5
11F06
330
1A
100
AcDbEntity
  8
ZISSEN1
100
AcDbLine
 10
-1714.684267301016
 20
1618.692059807673
 30
0.0
 11
-1714.684267301016
 21
1613.692061807673
 31
0.0
  0
LINE
  5
11F07
330
1A
100
AcDbEntity
  8
ZISSEN1
100
AcDbLine
 10
-1709.684277301016
 20
1618.692059807673
 30
0.0
 11
-1709.684277301016
 21
1613.692061807673
 31
0.0
  0
LINE
  5
11F08
330
1A
100
AcDbEntity
  8
ZISSEN1
100
AcDbLine
 10
-1714.977157301015
 20
1613.692061807673
 30
0.0
 11
-1714.977157301015
 21
1610.692064807673
 31
0.0
  0
LINE
  5
11F09
330
1A
100
AcDbEntity
  8
ZISSEN1
100
AcDbLine
 10
-1715.684267301016
 20
1613.692061807673
 30
0.0
 11
-1715.684267301016
 21
1610.692064807673
 31
0.0
  0
LINE
  5
11F0A
330
1A
100
AcDbEntity
  8
ZISSEN1
100
AcDbLine
 10
-1714.977157301015
 20
1620.292061807673
 30
0.0
 11
-1714.977157301015
 21
1618.692059807673
 31
0.0
  0
LINE
  5
11F0B
330
1A
100
AcDbEntity
  8
ZISSEN1
100
AcDbLine
 10
-1715.684267301016
 20
1620.292061807673
 30
0.0
 11
-1715.684267301016
 21
1618.692059807673
 31
0.0
  0
LINE
  5
11F0C
330
1A
100
AcDbEntity
  8
KAKURESEN1
100
AcDbLine
 10
-1694.014697301016
 20
1605.904524807672
 30
0.0
 11
-1687.353817301015
 21
1605.904524807672
 31
0.0
  0
LINE
  5
11F0D
330
1A
100
AcDbEntity
  8
ZISSEN1
100
AcDbLine
 10
-1708.184217301015
 20
1645.292044807672
 30
0.0
 11
-1695.684257301016
 21
1645.292044807672
 31
0.0
  0
LINE
  5
11F0E
330
1A
100
AcDbEntity
  8
ZISSEN1
100
AcDbLine
 10
-1708.184217301015
 20
1645.292069807673
 30
0.0
 11
-1708.184217301015
 21
1635.292060807674
 31
0.0
  0
LINE
  5
11F0F
330
1A
100
AcDbEntity
  8
ZISSEN1
100
AcDbLine
 10
-1707.784257301016
 20
1656.877143807674
 30
0.0
 11
-1700.784287301015
 21
1656.877143807674
 31
0.0
  0
LINE
  5
11F10
330
1A
100
AcDbEntity
  8
ZISSEN1
100
AcDbLine
 10
-1708.784207301015
 20
1665.292053807673
 30
0.0
 11
-1700.784287301015
 21
1665.292053807673
 31
0.0
  0
LINE
  5
11F11
330
1A
100
AcDbEntity
  8
ZISSEN1
100
AcDbLine
 10
-1708.784207301015
 20
1665.292053807673
 30
0.0
 11
-1708.784207301015
 21
1656.877173807674
 31
0.0
  0
LINE
  5
11F12
330
1A
100
AcDbEntity
  8
ZISSEN1
100
AcDbLine
 10
-1707.784257301016
 20
1656.877143807674
 30
0.0
 11
-1708.784207301015
 21
1656.877143807674
 31
0.0
  0
LINE
  5
11F13
330
1A
100
AcDbEntity
  8
ZISSEN1
100
AcDbLine
 10
-1700.784287301015
 20
1665.292053807673
 30
0.0
 11
-1700.784287301015
 21
1656.877143807674
 31
0.0
  0
LINE
  5
11F14
330
1A
100
AcDbEntity
  8
ZISSEN1
100
AcDbLine
 10
-1714.977157301015
 20
1716.810193807673
 30
0.0
 11
-1715.684267301016
 21
1717.517303807674
 31
0.0
  0
LINE
  5
11F15
330
1A
100
AcDbEntity
  8
ZISSEN1
100
AcDbLine
 10
-1635.684257301016
 20
1665.292053807673
 30
0.0
 11
-1635.684257301016
 21
1645.292044807672
 31
0.0
  0
LINE
  5
11F16
330
1A
100
AcDbEntity
  8
ZISSEN1
100
AcDbLine
 10
-1623.584247301016
 20
1656.877143807674
 30
0.0
 11
-1623.584247301016
 21
1645.292044807672
 31
0.0
  0
LINE
  5
11F17
330
1A
100
AcDbEntity
  8
ZISSEN1
100
AcDbLine
 10
-1629.584267301016
 20
1656.877143807674
 30
0.0
 11
-1629.584267301016
 21
1645.292044807672
 31
0.0
  0
LINE
  5
11F18
330
1A
100
AcDbEntity
  8
ZISSEN1
100
AcDbLine
 10
-1684.224287301016
 20
1631.792061807674
 30
0.0
 11
-1624.584247301016
 21
1631.792061807674
 31
0.0
  0
LINE
  5
11F19
330
1A
100
AcDbEntity
  8
ZISSEN1
100
AcDbLine
 10
-1684.224287301016
 20
1635.292060807674
 30
0.0
 11
-1684.224287301016
 21
1620.292061807673
 31
0.0
  0
LINE
  5
11F1A
330
1A
100
AcDbEntity
  8
ZISSEN1
100
AcDbLine
 10
-1680.814267301014
 20
1629.352057807673
 30
0.0
 11
-1680.814267301014
 21
1620.292061807673
 31
0.0
  0
LINE
  5
11F1B
330
1A
100
AcDbEntity
  8
ZISSEN1
100
AcDbLine
 10
-1656.954267301016
 20
1629.352057807673
 30
0.0
 11
-1656.954267301016
 21
1620.292061807673
 31
0.0
  0
LINE
  5
11F1C
330
1A
100
AcDbEntity
  8
ZISSEN1
100
AcDbLine
 10
-1680.814267301014
 20
1624.792063807674
 30
0.0
 11
-1656.954267301016
 21
1624.792063807674
 31
0.0
  0
LINE
  5
11F1D
330
1A
100
AcDbEntity
  8
ZISSEN1
100
AcDbLine
 10
-1684.224287301016
 20
1629.352057807673
 30
0.0
 11
-1656.954267301016
 21
1629.352057807673
 31
0.0
  0
LINE
  5
11F1E
330
1A
100
AcDbEntity
  8
ZISSEN1
100
AcDbLine
 10
-1680.384257301015
 20
1631.792061807674
 30
0.0
 11
-1680.384257301015
 21
1629.352057807673
 31
0.0
  0
LINE
  5
11F1F
330
1A
100
AcDbEntity
  8
ZISSEN1
100
AcDbLine
 10
-1678.184247301016
 20
1631.792061807674
 30
0.0
 11
-1678.184247301016
 21
1629.352057807673
 31
0.0
  0
LINE
  5
11F20
330
1A
100
AcDbEntity
  8
ZISSEN1
100
AcDbLine
 10
-1670.584257301015
 20
1631.792061807674
 30
0.0
 11
-1670.584257301015
 21
1629.352057807673
 31
0.0
  0
LINE
  5
11F21
330
1A
100
AcDbEntity
  8
ZISSEN1
100
AcDbLine
 10
-1667.384237301016
 20
1631.792061807674
 30
0.0
 11
-1667.384237301016
 21
1629.352057807673
 31
0.0
  0
LINE
  5
11F22
330
1A
100
AcDbEntity
  8
ZISSEN1
100
AcDbLine
 10
-1660.084247301016
 20
1631.792061807674
 30
0.0
 11
-1660.084247301016
 21
1629.352057807673
 31
0.0
  0
LINE
  5
11F23
330
1A
100
AcDbEntity
  8
ZISSEN1
100
AcDbLine
 10
-1623.184287301016
 20
1645.292069807673
 30
0.0
 11
-1623.184287301016
 21
1626.392058807674
 31
0.0
  0
LINE
  5
11F24
330
1A
100
AcDbEntity
  8
ZISSEN1
100
AcDbLine
 10
-1621.834277301014
 20
1628.792064807674
 30
0.0
 11
-1623.484277301016
 21
1624.792075807673
 31
0.0
  0
LINE
  5
11F25
330
1A
100
AcDbEntity
  8
ZISSEN1
100
AcDbLine
 10
-1652.764267301016
 20
1629.352057807673
 30
0.0
 11
-1652.764267301016
 21
1620.292061807673
 31
0.0
  0
LINE
  5
11F26
330
1A
100
AcDbEntity
  8
ZISSEN1
100
AcDbLine
 10
-1628.904267301016
 20
1629.352057807673
 30
0.0
 11
-1628.904267301016
 21
1620.292061807673
 31
0.0
  0
LINE
  5
11F27
330
1A
100
AcDbEntity
  8
ZISSEN1
100
AcDbLine
 10
-1624.584247301016
 20
1631.792061807674
 30
0.0
 11
-1624.584247301016
 21
1620.292061807673
 31
0.0
  0
LINE
  5
11F28
330
1A
100
AcDbEntity
  8
ZISSEN1
100
AcDbLine
 10
-1652.764267301016
 20
1624.792063807674
 30
0.0
 11
-1628.904267301016
 21
1624.792063807674
 31
0.0
  0
LINE
  5
11F29
330
1A
100
AcDbEntity
  8
KAKURESEN1
100
AcDbLine
 10
-1644.014707301016
 20
1605.904524807672
 30
0.0
 11
-1637.353827301016
 21
1605.904524807672
 31
0.0
  0
LINE
  5
11F2A
330
1A
100
AcDbEntity
  8
ZISSEN1
100
AcDbLine
 10
-1621.684277301016
 20
1618.692059807673
 30
0.0
 11
-1621.684277301016
 21
1613.692061807673
 31
0.0
  0
LINE
  5
11F2B
330
1A
100
AcDbEntity
  8
ZISSEN1
100
AcDbLine
 10
-1623.484277301016
 20
1624.792075807673
 30
0.0
 11
-1623.484277301016
 21
1620.292061807673
 31
0.0
  0
LINE
  5
11F2C
330
1A
100
AcDbEntity
  8
ZISSEN1
100
AcDbLine
 10
-1623.184287301016
 20
1625.519338807674
 30
0.0
 11
-1623.184287301016
 21
1626.392058807674
 31
0.0
  0
LINE
  5
11F2D
330
1A
100
AcDbEntity
  8
ZISSEN1
100
AcDbLine
 10
-1652.764267301016
 20
1629.352057807673
 30
0.0
 11
-1628.904267301016
 21
1629.352057807673
 31
0.0
  0
LINE
  5
11F2E
330
1A
100
AcDbEntity
  8
ZISSEN1
100
AcDbLine
 10
-1650.284237301016
 20
1631.792061807674
 30
0.0
 11
-1650.284237301016
 21
1629.352057807673
 31
0.0
  0
LINE
  5
11F2F
330
1A
100
AcDbEntity
  8
ZISSEN1
100
AcDbLine
 10
-1652.484257301016
 20
1631.792061807674
 30
0.0
 11
-1652.484257301016
 21
1629.352057807673
 31
0.0
  0
LINE
  5
11F30
330
1A
100
AcDbEntity
  8
ZISSEN1
100
AcDbLine
 10
-1642.684247301015
 20
1631.792061807674
 30
0.0
 11
-1642.684247301015
 21
1629.352057807673
 31
0.0
  0
LINE
  5
11F31
330
1A
100
AcDbEntity
  8
ZISSEN1
100
AcDbLine
 10
-1639.484237301016
 20
1631.792061807674
 30
0.0
 11
-1639.484237301016
 21
1629.352057807673
 31
0.0
  0
LINE
  5
11F32
330
1A
100
AcDbEntity
  8
ZISSEN1
100
AcDbLine
 10
-1631.884247301015
 20
1631.792061807674
 30
0.0
 11
-1631.884247301015
 21
1629.352057807673
 31
0.0
  0
LINE
  5
11F33
330
1A
100
AcDbEntity
  8
ZISSEN1
100
AcDbLine
 10
-1635.684257301016
 20
1645.292044807672
 30
0.0
 11
-1623.184287301016
 21
1645.292044807672
 31
0.0
  0
LINE
  5
11F34
330
1A
100
AcDbEntity
  8
ZISSEN1
100
AcDbLine
 10
-1630.584217301016
 20
1665.292053807673
 30
0.0
 11
-1630.584217301016
 21
1656.877143807674
 31
0.0
  0
LINE
  5
11F35
330
1A
100
AcDbEntity
  8
ZISSEN1
100
AcDbLine
 10
-1622.584297301016
 20
1665.292053807673
 30
0.0
 11
-1622.584297301016
 21
1656.877143807674
 31
0.0
  0
LINE
  5
11F36
330
1A
100
AcDbEntity
  8
ZISSEN1
100
AcDbLine
 10
-1630.584217301016
 20
1656.877143807674
 30
0.0
 11
-1623.584247301016
 21
1656.877143807674
 31
0.0
  0
LINE
  5
11F37
330
1A
100
AcDbEntity
  8
ZISSEN1
100
AcDbLine
 10
-1623.584247301016
 20
1656.877143807674
 30
0.0
 11
-1622.584297301016
 21
1656.877143807674
 31
0.0
  0
LINE
  5
11F38
330
1A
100
AcDbEntity
  8
ZISSEN1
100
AcDbLine
 10
-1630.584217301016
 20
1665.292053807673
 30
0.0
 11
-1622.584297301016
 21
1665.292053807673
 31
0.0
  0
LINE
  5
11F39
330
1A
100
AcDbEntity
  8
ZISSEN1
100
AcDbLine
 10
-1708.684257301015
 20
1731.810193807674
 30
0.0
 11
-1684.224287301016
 21
1731.810193807674
 31
0.0
  0
LINE
  5
11F3A
330
1A
100
AcDbEntity
  8
ZISSEN1
100
AcDbLine
 10
-1708.684257301015
 20
1719.810193807672
 30
0.0
 11
-1684.224287301016
 21
1719.810193807672
 31
0.0
  0
LINE
  5
11F3B
330
1A
100
AcDbEntity
  8
ZISSEN1
100
AcDbLine
 10
-1708.184217301015
 20
1769.060183807673
 30
0.0
 11
-1623.184287301016
 21
1769.060183807673
 31
0.0
  0
LINE
  5
11F3C
330
1A
100
AcDbEntity
  8
ZISSEN1
100
AcDbLine
 10
-1708.184217301015
 20
1780.560193807673
 30
0.0
 11
-1623.184287301016
 21
1780.560193807673
 31
0.0
  0
LINE
  5
11F3D
330
1A
100
AcDbEntity
  8
ZISSEN1
100
AcDbLine
 10
-1680.384257301015
 20
1765.560193807672
 30
0.0
 11
-1687.984247301016
 21
1765.560193807672
 31
0.0
  0
LINE
  5
11F3E
330
1A
100
AcDbEntity
  8
ZISSEN1
100
AcDbLine
 10
-1680.384257301015
 20
1738.160193807674
 30
0.0
 11
-1687.984247301016
 21
1738.160193807674
 31
0.0
  0
ARC
  5
11F3F
330
1A
100
AcDbEntity
  8
ZISSEN1
100
AcDbCircle
 10
-1712.184267301016
 20
1761.810193807673
 30
0.0
 40
3.499999899999998
100
AcDbArc
 50
270.0
 51
90.0
  0
LINE
  5
11F40
330
1A
100
AcDbEntity
  8
ZISSEN1
100
AcDbLine
 10
-1691.184267301015
 20
1753.160193807674
 30
0.0
 11
-1691.184267301015
 21
1765.560193807672
 31
0.0
  0
LINE
  5
11F41
330
1A
100
AcDbEntity
  8
ZISSEN1
100
AcDbLine
 10
-1698.784257301015
 20
1753.160193807674
 30
0.0
 11
-1698.784257301015
 21
1765.560193807672
 31
0.0
  0
LINE
  5
11F42
330
1A
100
AcDbEntity
  8
ZISSEN1
100
AcDbLine
 10
-1687.984247301016
 20
1738.160193807674
 30
0.0
 11
-1687.984247301016
 21
1765.560193807672
 31
0.0
  0
LINE
  5
11F43
330
1A
100
AcDbEntity
  8
ZISSEN1
100
AcDbLine
 10
-1698.484257301015
 20
1738.160193807674
 30
0.0
 11
-1698.484257301015
 21
1765.560193807672
 31
0.0
  0
LINE
  5
11F44
330
1A
100
AcDbEntity
  8
ZISSEN1
100
AcDbLine
 10
-1706.084247301015
 20
1738.160193807674
 30
0.0
 11
-1706.084247301015
 21
1765.560193807672
 31
0.0
  0
LINE
  5
11F45
330
1A
100
AcDbEntity
  8
ZISSEN1
100
AcDbLine
 10
-1715.684267301016
 20
1766.017303807673
 30
0.0
 11
-1715.684267301016
 21
1763.560203807674
 31
0.0
  0
LINE
  5
11F47
330
1A
100
AcDbEntity
  8
ZISSEN1
100
AcDbLine
 10
-1687.684247301015
 20
1738.160193807674
 30
0.0
 11
-1687.684247301015
 21
1750.560193807674
 31
0.0
  0
LINE
  5
11F48
330
1A
100
AcDbEntity
  8
ZISSEN1
100
AcDbLine
 10
-1695.284237301016
 20
1738.160193807674
 30
0.0
 11
-1695.284237301016
 21
1750.560193807674
 31
0.0
  0
LINE
  5
11F49
330
1A
100
AcDbEntity
  8
ZISSEN1
100
AcDbLine
 10
-1698.484257301015
 20
1738.160193807674
 30
0.0
 11
-1706.084247301015
 21
1738.160193807674
 31
0.0
  0
LINE
  5
11F4A
330
1A
100
AcDbEntity
  8
ZISSEN1
100
AcDbLine
 10
-1708.684257301015
 20
1731.810193807674
 30
0.0
 11
-1708.684257301015
 21
1719.810193807672
 31
0.0
  0
LINE
  5
11F4B
330
1A
100
AcDbEntity
  8
ZISSEN1
100
AcDbLine
 10
-1695.284237301016
 20
1738.160193807674
 30
0.0
 11
-1687.684247301015
 21
1738.160193807674
 31
0.0
  0
LINE
  5
11F4C
330
1A
100
AcDbEntity
  8
CL1
100
AcDbLine
 10
-1715.184267301016
 20
1761.810193807673
 30
0.0
 11
-1709.184267301016
 21
1761.810193807673
 31
0.0
  0
LINE
  5
11F4D
330
1A
100
AcDbEntity
  8
ZISSEN1
100
AcDbLine
 10
-1715.684267301016
 20
1760.060193807674
 30
0.0
 11
-1715.684267301016
 21
1757.603093807674
 31
0.0
  0
LINE
  5
11F4E
330
1A
100
AcDbEntity
  8
ZISSEN1
100
AcDbLine
 10
-1715.684267301016
 20
1757.603093807674
 30
0.0
 11
-1714.977157301015
 21
1758.310203807674
 31
0.0
  0
LINE
  5
11F4F
330
1A
100
AcDbEntity
  8
ZISSEN1
100
AcDbLine
 10
-1714.977157301015
 20
1758.310203807674
 30
0.0
 11
-1712.184267301016
 21
1758.310203807674
 31
0.0
  0
LINE
  5
11F50
330
1A
100
AcDbEntity
  8
ZISSEN1
100
AcDbLine
 10
-1712.184267301016
 20
1763.560203807674
 30
0.0
 11
-1715.684267301016
 21
1763.560203807674
 31
0.0
  0
LINE
  5
11F51
330
1A
100
AcDbEntity
  8
ZISSEN1
100
AcDbLine
 10
-1712.184267301016
 20
1760.060193807674
 30
0.0
 11
-1715.684267301016
 21
1760.060193807674
 31
0.0
  0
ARC
  5
11F52
330
1A
100
AcDbEntity
  8
ZISSEN1
100
AcDbCircle
 10
-1712.184267301016
 20
1761.810193807673
 30
0.0
 40
1.749999899999999
100
AcDbArc
 50
270.0
 51
90.0
  0
LINE
  5
11F53
330
1A
100
AcDbEntity
  8
ZISSEN1
100
AcDbLine
 10
-1695.284237301016
 20
1750.560193807674
 30
0.0
 11
-1687.684247301015
 21
1750.560193807674
 31
0.0
  0
LINE
  5
11F54
330
1A
100
AcDbEntity
  8
ZISSEN1
100
AcDbLine
 10
-1698.784257301015
 20
1753.160193807674
 30
0.0
 11
-1691.184267301015
 21
1753.160193807674
 31
0.0
  0
LINE
  5
11F55
330
1A
100
AcDbEntity
  8
ZISSEN1
100
AcDbLine
 10
-1693.684247301016
 20
1784.410213807674
 30
0.0
 11
-1693.684247301016
 21
1801.810233807674
 31
0.0
  0
LINE
  5
11F56
330
1A
100
AcDbEntity
  8
ZISSEN1
100
AcDbLine
 10
-1686.084227301016
 20
1784.410213807674
 30
0.0
 11
-1686.084227301016
 21
1801.810233807674
 31
0.0
  0
LINE
  5
11F57
330
1A
100
AcDbEntity
  8
ZISSEN1
100
AcDbLine
 10
-1703.484247301016
 20
1784.410213807674
 30
0.0
 11
-1703.484247301016
 21
1801.810233807674
 31
0.0
  0
LINE
  5
11F58
330
1A
100
AcDbEntity
  8
ZISSEN1
100
AcDbLine
 10
-1695.884237301016
 20
1784.410213807674
 30
0.0
 11
-1695.884237301016
 21
1801.810233807674
 31
0.0
  0
LINE
  5
11F59
330
1A
100
AcDbEntity
  8
ZISSEN1
100
AcDbLine
 10
-1715.684267301016
 20
1766.017303807673
 30
0.0
 11
-1715.684267301016
 21
1806.103093807674
 31
0.0
  0
CIRCLE
  5
11F5A
330
1A
100
AcDbEntity
  8
ZISSEN1
100
AcDbCircle
 10
-1704.784247301016
 20
1774.810193807674
 30
0.0
 40
4.0
  0
LINE
  5
11F5B
330
1A
100
AcDbEntity
  8
ZISSEN1
100
AcDbLine
 10
-1698.484257301015
 20
1765.560193807672
 30
0.0
 11
-1706.084247301015
 21
1765.560193807672
 31
0.0
  0
LINE
  5
11F5C
330
1A
100
AcDbEntity
  8
ZISSEN1
100
AcDbLine
 10
-1695.884237301016
 20
1784.410213807674
 30
0.0
 11
-1703.484247301016
 21
1784.410213807674
 31
0.0
  0
LINE
  5
11F5D
330
1A
100
AcDbEntity
  8
ZISSEN1
100
AcDbLine
 10
-1708.184217301015
 20
1780.560193807673
 30
0.0
 11
-1708.184217301015
 21
1769.060183807673
 31
0.0
  0
LINE
  5
11F5E
330
1A
100
AcDbEntity
  8
ZISSEN1
100
AcDbLine
 10
-1714.977157301015
 20
1765.310193807673
 30
0.0
 11
-1712.184267301016
 21
1765.310193807673
 31
0.0
  0
LINE
  5
11F5F
330
1A
100
AcDbEntity
  8
ZISSEN1
100
AcDbLine
 10
-1714.977157301015
 20
1765.310193807673
 30
0.0
 11
-1715.684267301016
 21
1766.017303807673
 31
0.0
  0
LINE
  5
11F60
330
1A
100
AcDbEntity
  8
ZISSEN1
100
AcDbLine
 10
-1695.684257301016
 20
1769.060183807673
 30
0.0
 11
-1695.684257301016
 21
1780.560193807673
 31
0.0
  0
LINE
  5
11F61
330
1A
100
AcDbEntity
  8
ZISSEN1
100
AcDbLine
 10
-1698.784257301015
 20
1765.560193807672
 30
0.0
 11
-1691.184267301015
 21
1765.560193807672
 31
0.0
  0
LINE
  5
11F62
330
1A
100
AcDbEntity
  8
ZISSEN1
100
AcDbLine
 10
-1686.084227301016
 20
1784.410213807674
 30
0.0
 11
-1693.684247301016
 21
1784.410213807674
 31
0.0
  0
LINE
  5
11F63
330
1A
100
AcDbEntity
  8
ZISSEN1
100
AcDbLine
 10
-1695.884237301016
 20
1801.810233807674
 30
0.0
 11
-1703.484247301016
 21
1801.810233807674
 31
0.0
  0
LINE
  5
11F64
330
1A
100
AcDbEntity
  8
ZISSEN1
100
AcDbLine
 10
-1714.977157301015
 20
1806.810193807674
 30
0.0
 11
-1715.684267301016
 21
1806.103093807674
 31
0.0
  0
LINE
  5
11F65
330
1A
100
AcDbEntity
  8
ZISSEN1
100
AcDbLine
 10
-1686.084227301016
 20
1801.810233807674
 30
0.0
 11
-1693.684247301016
 21
1801.810233807674
 31
0.0
  0
LINE
  5
11F66
330
1A
100
AcDbEntity
  8
ZISSEN1
100
AcDbLine
 10
-1635.384257301016
 20
1753.160193807674
 30
0.0
 11
-1635.384257301016
 21
1765.560193807672
 31
0.0
  0
LINE
  5
11F67
330
1A
100
AcDbEntity
  8
ZISSEN1
100
AcDbLine
 10
-1642.984247301016
 20
1753.160193807674
 30
0.0
 11
-1642.984247301016
 21
1765.560193807672
 31
0.0
  0
LINE
  5
11F68
330
1A
100
AcDbEntity
  8
ZISSEN1
100
AcDbLine
 10
-1663.284257301016
 20
1753.160193807674
 30
0.0
 11
-1663.284257301016
 21
1765.560193807672
 31
0.0
  0
LINE
  5
11F69
330
1A
100
AcDbEntity
  8
ZISSEN1
100
AcDbLine
 10
-1670.884247301015
 20
1753.160193807674
 30
0.0
 11
-1670.884247301015
 21
1765.560193807672
 31
0.0
  0
LINE
  5
11F6A
330
1A
100
AcDbEntity
  8
ZISSEN1
100
AcDbLine
 10
-1624.584247301016
 20
1738.160193807674
 30
0.0
 11
-1624.584247301016
 21
1765.560193807672
 31
0.0
  0
LINE
  5
11F6B
330
1A
100
AcDbEntity
  8
ZISSEN1
100
AcDbLine
 10
-1632.184237301014
 20
1738.160193807674
 30
0.0
 11
-1632.184237301014
 21
1765.560193807672
 31
0.0
  0
LINE
  5
11F6C
330
1A
100
AcDbEntity
  8
ZISSEN1
100
AcDbLine
 10
-1642.684247301015
 20
1738.160193807674
 30
0.0
 11
-1642.684247301015
 21
1765.560193807672
 31
0.0
  0
LINE
  5
11F6D
330
1A
100
AcDbEntity
  8
ZISSEN1
100
AcDbLine
 10
-1650.284237301016
 20
1738.160193807674
 30
0.0
 11
-1650.284237301016
 21
1765.560193807672
 31
0.0
  0
LINE
  5
11F6E
330
1A
100
AcDbEntity
  8
ZISSEN1
100
AcDbLine
 10
-1652.484257301016
 20
1738.160193807674
 30
0.0
 11
-1652.484257301016
 21
1765.560193807672
 31
0.0
  0
LINE
  5
11F6F
330
1A
100
AcDbEntity
  8
ZISSEN1
100
AcDbLine
 10
-1660.084247301016
 20
1738.160193807674
 30
0.0
 11
-1660.084247301016
 21
1765.560193807672
 31
0.0
  0
LINE
  5
11F70
330
1A
100
AcDbEntity
  8
ZISSEN1
100
AcDbLine
 10
-1670.584257301015
 20
1738.160193807674
 30
0.0
 11
-1670.584257301015
 21
1765.560193807672
 31
0.0
  0
LINE
  5
11F71
330
1A
100
AcDbEntity
  8
ZISSEN1
100
AcDbLine
 10
-1678.184247301016
 20
1738.160193807674
 30
0.0
 11
-1678.184247301016
 21
1765.560193807672
 31
0.0
  0
LINE
  5
11F72
330
1A
100
AcDbEntity
  8
ZISSEN1
100
AcDbLine
 10
-1680.384257301015
 20
1738.160193807674
 30
0.0
 11
-1680.384257301015
 21
1765.560193807672
 31
0.0
  0
LINE
  5
11F73
330
1A
100
AcDbEntity
  8
ZISSEN1
100
AcDbLine
 10
-1652.484257301016
 20
1738.160193807674
 30
0.0
 11
-1660.084247301016
 21
1738.160193807674
 31
0.0
  0
LINE
  5
11F74
330
1A
100
AcDbEntity
  8
ZISSEN1
100
AcDbLine
 10
-1659.784247301016
 20
1738.160193807674
 30
0.0
 11
-1659.784247301016
 21
1750.560193807674
 31
0.0
  0
LINE
  5
11F75
330
1A
100
AcDbEntity
  8
ZISSEN1
100
AcDbLine
 10
-1667.384237301016
 20
1738.160193807674
 30
0.0
 11
-1667.384237301016
 21
1750.560193807674
 31
0.0
  0
LINE
  5
11F76
330
1A
100
AcDbEntity
  8
ZISSEN1
100
AcDbLine
 10
-1656.954267301016
 20
1727.110203807674
 30
0.0
 11
-1680.814267301014
 21
1727.110203807674
 31
0.0
  0
LINE
  5
11F77
330
1A
100
AcDbEntity
  8
ZISSEN1
100
AcDbLine
 10
-1656.954267301016
 20
1725.460203807674
 30
0.0
 11
-1680.814267301014
 21
1725.460203807674
 31
0.0
  0
LINE
  5
11F78
330
1A
100
AcDbEntity
  8
ZISSEN1
100
AcDbLine
 10
-1656.954267301016
 20
1721.460183807673
 30
0.0
 11
-1680.814267301014
 21
1721.460183807673
 31
0.0
  0
LINE
  5
11F79
330
1A
100
AcDbEntity
  8
ZISSEN1
100
AcDbLine
 10
-1656.954267301016
 20
1719.810183807673
 30
0.0
 11
-1680.814267301014
 21
1719.810183807673
 31
0.0
  0
LINE
  5
11F7A
330
1A
100
AcDbEntity
  8
ZISSEN1
100
AcDbLine
 10
-1684.224287301016
 20
1731.810193807674
 30
0.0
 11
-1684.224287301016
 21
1719.810193807672
 31
0.0
  0
LINE
  5
11F7B
330
1A
100
AcDbEntity
  8
ZISSEN1
100
AcDbLine
 10
-1680.814267301014
 20
1727.110203807674
 30
0.0
 11
-1680.814267301014
 21
1719.810183807673
 31
0.0
  0
LINE
  5
11F7C
330
1A
100
AcDbEntity
  8
ZISSEN1
100
AcDbLine
 10
-1670.584257301015
 20
1738.160193807674
 30
0.0
 11
-1678.184247301016
 21
1738.160193807674
 31
0.0
  0
LINE
  5
11F7D
330
1A
100
AcDbEntity
  8
ZISSEN1
100
AcDbLine
 10
-1656.954267301016
 20
1727.110203807674
 30
0.0
 11
-1656.954267301016
 21
1719.810183807673
 31
0.0
  0
LINE
  5
11F7E
330
1A
100
AcDbEntity
  8
ZISSEN1
100
AcDbLine
 10
-1667.384237301016
 20
1738.160193807674
 30
0.0
 11
-1659.784247301016
 21
1738.160193807674
 31
0.0
  0
LINE
  5
11F7F
330
1A
100
AcDbEntity
  8
ZISSEN1
100
AcDbLine
 10
-1670.884247301015
 20
1753.160193807674
 30
0.0
 11
-1663.284257301016
 21
1753.160193807674
 31
0.0
  0
LINE
  5
11F80
330
1A
100
AcDbEntity
  8
ZISSEN1
100
AcDbLine
 10
-1667.384237301016
 20
1750.560193807674
 30
0.0
 11
-1659.784247301016
 21
1750.560193807674
 31
0.0
  0
LINE
  5
11F81
330
1A
100
AcDbEntity
  8
ZISSEN1
100
AcDbLine
 10
-1631.884247301015
 20
1738.160193807674
 30
0.0
 11
-1631.884247301015
 21
1750.560193807674
 31
0.0
  0
LINE
  5
11F82
330
1A
100
AcDbEntity
  8
ZISSEN1
100
AcDbLine
 10
-1639.484237301016
 20
1738.160193807674
 30
0.0
 11
-1639.484237301016
 21
1750.560193807674
 31
0.0
  0
LINE
  5
11F83
330
1A
100
AcDbEntity
  8
ZISSEN1
100
AcDbLine
 10
-1628.904267301016
 20
1727.110203807674
 30
0.0
 11
-1652.764267301016
 21
1727.110203807674
 31
0.0
  0
LINE
  5
11F84
330
1A
100
AcDbEntity
  8
ZISSEN1
100
AcDbLine
 10
-1628.904267301016
 20
1725.460203807674
 30
0.0
 11
-1652.764267301016
 21
1725.460203807674
 31
0.0
  0
LINE
  5
11F85
330
1A
100
AcDbEntity
  8
ZISSEN1
100
AcDbLine
 10
-1628.904267301016
 20
1721.460183807673
 30
0.0
 11
-1652.764267301016
 21
1721.460183807673
 31
0.0
  0
LINE
  5
11F86
330
1A
100
AcDbEntity
  8
ZISSEN1
100
AcDbLine
 10
-1628.904267301016
 20
1719.810183807673
 30
0.0
 11
-1652.764267301016
 21
1719.810183807673
 31
0.0
  0
LINE
  5
11F87
330
1A
100
AcDbEntity
  8
ZISSEN1
100
AcDbLine
 10
-1639.484237301016
 20
1738.160193807674
 30
0.0
 11
-1631.884247301015
 21
1738.160193807674
 31
0.0
  0
LINE
  5
11F88
330
1A
100
AcDbEntity
  8
ZISSEN1
100
AcDbLine
 10
-1652.764267301016
 20
1727.110203807674
 30
0.0
 11
-1652.764267301016
 21
1719.810183807673
 31
0.0
  0
LINE
  5
11F89
330
1A
100
AcDbEntity
  8
ZISSEN1
100
AcDbLine
 10
-1642.684247301015
 20
1738.160193807674
 30
0.0
 11
-1650.284237301016
 21
1738.160193807674
 31
0.0
  0
LINE
  5
11F8A
330
1A
100
AcDbEntity
  8
ZISSEN1
100
AcDbLine
 10
-1621.834277301014
 20
1724.905193807674
 30
0.0
 11
-1621.834277301014
 21
1732.515203807674
 31
0.0
  0
LINE
  5
11F8B
330
1A
100
AcDbEntity
  8
ZISSEN1
100
AcDbLine
 10
-1623.484277301016
 20
1724.905193807674
 30
0.0
 11
-1623.484277301016
 21
1732.515203807674
 31
0.0
  0
LINE
  5
11F8C
330
1A
100
AcDbEntity
  8
ZISSEN1
100
AcDbLine
 10
-1628.904267301016
 20
1727.110203807674
 30
0.0
 11
-1628.904267301016
 21
1719.810183807673
 31
0.0
  0
LINE
  5
11F8D
330
1A
100
AcDbEntity
  8
ZISSEN1
100
AcDbLine
 10
-1624.584247301016
 20
1738.160193807674
 30
0.0
 11
-1632.184237301014
 21
1738.160193807674
 31
0.0
  0
LINE
  5
11F8E
330
1A
100
AcDbEntity
  8
ZISSEN1
100
AcDbLine
 10
-1639.484237301016
 20
1750.560193807674
 30
0.0
 11
-1631.884247301015
 21
1750.560193807674
 31
0.0
  0
LINE
  5
11F8F
330
1A
100
AcDbEntity
  8
ZISSEN1
100
AcDbLine
 10
-1642.984247301016
 20
1753.160193807674
 30
0.0
 11
-1635.384257301016
 21
1753.160193807674
 31
0.0
  0
LINE
  5
11F90
330
1A
100
AcDbEntity
  8
ZISSEN1
100
AcDbLine
 10
-1652.484257301016
 20
1765.560193807672
 30
0.0
 11
-1660.084247301016
 21
1765.560193807672
 31
0.0
  0
LINE
  5
11F91
330
1A
100
AcDbEntity
  8
ZISSEN1
100
AcDbLine
 10
-1646.884217301016
 20
1801.810233807674
 30
0.0
 11
-1654.484237301016
 21
1801.810233807674
 31
0.0
  0
LINE
  5
11F92
330
1A
100
AcDbEntity
  8
ZISSEN1
100
AcDbLine
 10
-1646.884217301016
 20
1784.410213807674
 30
0.0
 11
-1654.484237301016
 21
1784.410213807674
 31
0.0
  0
LINE
  5
11F93
330
1A
100
AcDbEntity
  8
ZISSEN1
100
AcDbLine
 10
-1654.484237301016
 20
1784.410213807674
 30
0.0
 11
-1654.484237301016
 21
1801.810233807674
 31
0.0
  0
LINE
  5
11F94
330
1A
100
AcDbEntity
  8
ZISSEN1
100
AcDbLine
 10
-1664.284237301016
 20
1784.410213807674
 30
0.0
 11
-1664.284237301016
 21
1801.810233807674
 31
0.0
  0
LINE
  5
11F95
330
1A
100
AcDbEntity
  8
ZISSEN1
100
AcDbLine
 10
-1656.684227301016
 20
1784.410213807674
 30
0.0
 11
-1656.684227301016
 21
1801.810233807674
 31
0.0
  0
LINE
  5
11F96
330
1A
100
AcDbEntity
  8
ZISSEN1
100
AcDbLine
 10
-1674.084237301016
 20
1784.410213807674
 30
0.0
 11
-1674.084237301016
 21
1801.810233807674
 31
0.0
  0
LINE
  5
11F97
330
1A
100
AcDbEntity
  8
ZISSEN1
100
AcDbLine
 10
-1666.484227301014
 20
1784.410213807674
 30
0.0
 11
-1666.484227301014
 21
1801.810233807674
 31
0.0
  0
LINE
  5
11F98
330
1A
100
AcDbEntity
  8
ZISSEN1
100
AcDbLine
 10
-1683.884247301016
 20
1784.410213807674
 30
0.0
 11
-1683.884247301016
 21
1801.810233807674
 31
0.0
  0
LINE
  5
11F99
330
1A
100
AcDbEntity
  8
ZISSEN1
100
AcDbLine
 10
-1676.284227301016
 20
1784.410213807674
 30
0.0
 11
-1676.284227301016
 21
1801.810233807674
 31
0.0
  0
LINE
  5
11F9A
330
1A
100
AcDbEntity
  8
ZISSEN1
100
AcDbLine
 10
-1670.884247301015
 20
1765.560193807672
 30
0.0
 11
-1663.284257301016
 21
1765.560193807672
 31
0.0
  0
LINE
  5
11F9B
330
1A
100
AcDbEntity
  8
ZISSEN1
100
AcDbLine
 10
-1666.484227301014
 20
1784.410213807674
 30
0.0
 11
-1674.084237301016
 21
1784.410213807674
 31
0.0
  0
LINE
  5
11F9C
330
1A
100
AcDbEntity
  8
ZISSEN1
100
AcDbLine
 10
-1670.584257301015
 20
1765.560193807672
 30
0.0
 11
-1678.184247301016
 21
1765.560193807672
 31
0.0
  0
LINE
  5
11F9D
330
1A
100
AcDbEntity
  8
ZISSEN1
100
AcDbLine
 10
-1676.284227301016
 20
1784.410213807674
 30
0.0
 11
-1683.884247301016
 21
1784.410213807674
 31
0.0
  0
LINE
  5
11F9E
330
1A
100
AcDbEntity
  8
ZISSEN1
100
AcDbLine
 10
-1656.684227301016
 20
1784.410213807674
 30
0.0
 11
-1664.284237301016
 21
1784.410213807674
 31
0.0
  0
LINE
  5
11F9F
330
1A
100
AcDbEntity
  8
ZISSEN1
100
AcDbLine
 10
-1666.484227301014
 20
1801.810233807674
 30
0.0
 11
-1674.084237301016
 21
1801.810233807674
 31
0.0
  0
LINE
  5
11FA0
330
1A
100
AcDbEntity
  8
ZISSEN1
100
AcDbLine
 10
-1676.284227301016
 20
1801.810233807674
 30
0.0
 11
-1683.884247301016
 21
1801.810233807674
 31
0.0
  0
LINE
  5
11FA1
330
1A
100
AcDbEntity
  8
ZISSEN1
100
AcDbLine
 10
-1656.684227301016
 20
1801.810233807674
 30
0.0
 11
-1664.284237301016
 21
1801.810233807674
 31
0.0
  0
LINE
  5
11FA2
330
1A
100
AcDbEntity
  8
ZISSEN1
100
AcDbLine
 10
-1643.684227301016
 20
1784.410213807674
 30
0.0
 11
-1643.684227301016
 21
1801.810233807674
 31
0.0
  0
LINE
  5
11FA3
330
1A
100
AcDbEntity
  8
ZISSEN1
100
AcDbLine
 10
-1636.084217301015
 20
1784.410213807674
 30
0.0
 11
-1636.084217301015
 21
1801.810233807674
 31
0.0
  0
LINE
  5
11FA4
330
1A
100
AcDbEntity
  8
ZISSEN1
100
AcDbLine
 10
-1646.884217301016
 20
1784.410213807674
 30
0.0
 11
-1646.884217301016
 21
1801.810233807674
 31
0.0
  0
LINE
  5
11FA5
330
1A
100
AcDbEntity
  8
ZISSEN1
100
AcDbLine
 10
-1642.984247301016
 20
1765.560193807672
 30
0.0
 11
-1635.384257301016
 21
1765.560193807672
 31
0.0
  0
LINE
  5
11FA6
330
1A
100
AcDbEntity
  8
ZISSEN1
100
AcDbLine
 10
-1636.084217301015
 20
1784.410213807674
 30
0.0
 11
-1643.684227301016
 21
1784.410213807674
 31
0.0
  0
LINE
  5
11FA7
330
1A
100
AcDbEntity
  8
ZISSEN1
100
AcDbLine
 10
-1642.684247301015
 20
1765.560193807672
 30
0.0
 11
-1650.284237301016
 21
1765.560193807672
 31
0.0
  0
CIRCLE
  5
11FA8
330
1A
100
AcDbEntity
  8
ZISSEN1
100
AcDbCircle
 10
-1626.584257301015
 20
1774.810193807674
 30
0.0
 40
4.0
  0
LINE
  5
11FA9
330
1A
100
AcDbEntity
  8
ZISSEN1
100
AcDbLine
 10
-1635.684257301016
 20
1769.060183807673
 30
0.0
 11
-1635.684257301016
 21
1780.560193807673
 31
0.0
  0
LINE
  5
11FAA
330
1A
100
AcDbEntity
  8
ZISSEN1
100
AcDbLine
 10
-1623.184287301016
 20
1780.560193807673
 30
0.0
 11
-1623.184287301016
 21
1769.060183807673
 31
0.0
  0
LINE
  5
11FAB
330
1A
100
AcDbEntity
  8
ZISSEN1
100
AcDbLine
 10
-1624.584247301016
 20
1765.560193807672
 30
0.0
 11
-1632.184237301014
 21
1765.560193807672
 31
0.0
  0
LINE
  5
11FAC
330
1A
100
AcDbEntity
  8
ZISSEN1
100
AcDbLine
 10
-1636.084217301015
 20
1801.810233807674
 30
0.0
 11
-1643.684227301016
 21
1801.810233807674
 31
0.0
  0
LINE
  5
11FAD
330
1A
100
AcDbEntity
  8
ZISSEN1
100
AcDbLine
 10
-1506.224857301015
 20
1806.810193807674
 30
0.0
 11
-1506.224857301015
 21
1716.810193807673
 31
0.0
  0
LINE
  5
11FAE
330
1A
100
AcDbEntity
  8
ZISSEN1
100
AcDbLine
 10
-1509.224857301014
 20
1806.810193807674
 30
0.0
 11
-1509.224857301014
 21
1716.810193807673
 31
0.0
  0
LINE
  5
11FAF
330
1A
100
AcDbEntity
  8
ZISSEN1
100
AcDbLine
 10
-1514.224857301015
 20
1806.810193807674
 30
0.0
 11
-1514.224857301015
 21
1716.810193807673
 31
0.0
  0
LINE
  5
11FB0
330
1A
100
AcDbEntity
  8
ZISSEN1
100
AcDbLine
 10
-1515.824847301016
 20
1806.810193807674
 30
0.0
 11
-1515.824847301016
 21
1716.810193807673
 31
0.0
  0
LINE
  5
11FB1
330
1A
100
AcDbEntity
  8
ZISSEN1
100
AcDbLine
 10
-1615.684257301015
 20
1757.603093807674
 30
0.0
 11
-1615.684257301015
 21
1717.517303807674
 31
0.0
  0
LINE
  5
11FB2
330
1A
100
AcDbEntity
  8
ZISSEN1
100
AcDbLine
 10
-1617.834267301016
 20
1628.792064807674
 30
0.0
 11
-1616.184267301016
 21
1624.792075807673
 31
0.0
  0
LINE
  5
11FB3
330
1A
100
AcDbEntity
  8
CL1
100
AcDbLine
 10
-1619.184277301015
 20
1616.692052807674
 30
0.0
 11
-1619.184277301015
 21
1607.692066807674
 31
0.0
  0
LINE
  5
11FB4
330
1A
100
AcDbEntity
  8
ZISSEN1
100
AcDbLine
 10
-1616.684267301016
 20
1618.692059807673
 30
0.0
 11
-1616.684267301016
 21
1613.692061807673
 31
0.0
  0
LINE
  5
11FB5
330
1A
100
AcDbEntity
  8
ZISSEN1
100
AcDbLine
 10
-1616.391367301016
 20
1613.692061807673
 30
0.0
 11
-1616.391367301016
 21
1610.692064807673
 31
0.0
  0
LINE
  5
11FB6
330
1A
100
AcDbEntity
  8
ZISSEN1
100
AcDbLine
 10
-1615.684257301015
 20
1613.692061807673
 30
0.0
 11
-1615.684257301015
 21
1610.692064807673
 31
0.0
  0
LINE
  5
11FB7
330
1A
100
AcDbEntity
  8
ZISSEN1
100
AcDbLine
 10
-1616.184267301016
 20
1624.792075807673
 30
0.0
 11
-1616.184267301016
 21
1620.292061807673
 31
0.0
  0
LINE
  5
11FB8
330
1A
100
AcDbEntity
  8
ZISSEN1
100
AcDbLine
 10
-1616.391367301016
 20
1620.292061807673
 30
0.0
 11
-1616.391367301016
 21
1618.692059807673
 31
0.0
  0
LINE
  5
11FB9
330
1A
100
AcDbEntity
  8
ZISSEN1
100
AcDbLine
 10
-1615.684257301015
 20
1620.292061807673
 30
0.0
 11
-1615.684257301015
 21
1618.692059807673
 31
0.0
  0
LINE
  5
11FBA
330
1A
100
AcDbEntity
  8
ZISSEN1
100
AcDbLine
 10
-1615.684257301015
 20
1717.517303807674
 30
0.0
 11
-1616.391367301016
 21
1716.810193807673
 31
0.0
  0
LINE
  5
11FBB
330
1A
100
AcDbEntity
  8
ZISSEN1
100
AcDbLine
 10
-1515.824847301016
 20
1717.517303807674
 30
0.0
 11
-1514.224857301015
 21
1717.517303807674
 31
0.0
  0
LINE
  5
11FBC
330
1A
100
AcDbEntity
  8
ZISSEN1
100
AcDbLine
 10
-1515.824847301016
 20
1716.810193807673
 30
0.0
 11
-1514.224857301015
 21
1716.810193807673
 31
0.0
  0
LINE
  5
11FBD
330
1A
100
AcDbEntity
  8
ZISSEN1
100
AcDbLine
 10
-1509.224857301014
 20
1717.517303807674
 30
0.0
 11
-1506.224857301015
 21
1717.517303807674
 31
0.0
  0
LINE
  5
11FBE
330
1A
100
AcDbEntity
  8
ZISSEN1
100
AcDbLine
 10
-1509.224857301014
 20
1716.810193807673
 30
0.0
 11
-1506.224857301015
 21
1716.810193807673
 31
0.0
  0
LINE
  5
11FBF
330
1A
100
AcDbEntity
  8
ZISSEN1
100
AcDbLine
 10
-1560.824847301016
 20
1770.810173807674
 30
0.0
 11
-1552.414867301016
 21
1770.810173807674
 31
0.0
  0
LINE
  5
11FC0
330
1A
100
AcDbEntity
  8
ZISSEN1
100
AcDbLine
 10
-1560.824847301016
 20
1778.810203807674
 30
0.0
 11
-1552.414867301016
 21
1778.810203807674
 31
0.0
  0
LINE
  5
11FC1
330
1A
100
AcDbEntity
  8
ZISSEN1
100
AcDbLine
 10
-1560.824847301016
 20
1769.060183807673
 30
0.0
 11
-1521.924837301016
 21
1769.060183807673
 31
0.0
  0
LINE
  5
11FC2
330
1A
100
AcDbEntity
  8
ZISSEN1
100
AcDbLine
 10
-1560.824847301016
 20
1780.560193807673
 30
0.0
 11
-1521.924837301016
 21
1780.560193807673
 31
0.0
  0
LINE
  5
11FC3
330
1A
100
AcDbEntity
  8
ZISSEN1
100
AcDbLine
 10
-1615.684257301015
 20
1766.017303807673
 30
0.0
 11
-1615.684257301015
 21
1763.560203807674
 31
0.0
  0
LINE
  5
11FC5
330
1A
100
AcDbEntity
  8
ZISSEN1
100
AcDbLine
 10
-1616.184267301016
 20
1724.905193807674
 30
0.0
 11
-1616.184267301016
 21
1732.515203807674
 31
0.0
  0
LINE
  5
11FC6
330
1A
100
AcDbEntity
  8
ZISSEN1
100
AcDbLine
 10
-1617.834267301016
 20
1724.905193807674
 30
0.0
 11
-1617.834267301016
 21
1732.515203807674
 31
0.0
  0
LINE
  5
11FC7
330
1A
100
AcDbEntity
  8
ZISSEN1
100
AcDbLine
 10
-1615.684257301015
 20
1760.060193807674
 30
0.0
 11
-1615.684257301015
 21
1757.603093807674
 31
0.0
  0
LINE
  5
11FC8
330
1A
100
AcDbEntity
  8
ZISSEN1
100
AcDbLine
 10
-1616.391367301016
 20
1758.310203807674
 30
0.0
 11
-1615.684257301015
 21
1757.603093807674
 31
0.0
  0
LINE
  5
11FC9
330
1A
100
AcDbEntity
  8
ZISSEN1
100
AcDbLine
 10
-1619.184277301015
 20
1760.060193807674
 30
0.0
 11
-1615.684257301015
 21
1760.060193807674
 31
0.0
  0
LINE
  5
11FCA
330
1A
100
AcDbEntity
  8
ZISSEN1
100
AcDbLine
 10
-1619.184277301015
 20
1763.560203807674
 30
0.0
 11
-1615.684257301015
 21
1763.560203807674
 31
0.0
  0
LINE
  5
11FCB
330
1A
100
AcDbEntity
  8
ZISSEN1
100
AcDbLine
 10
-1616.391367301016
 20
1758.310203807674
 30
0.0
 11
-1619.184277301015
 21
1758.310203807674
 31
0.0
  0
LINE
  5
11FCC
330
1A
100
AcDbEntity
  8
ZISSEN1
100
AcDbLine
 10
-1615.684257301015
 20
1766.017303807673
 30
0.0
 11
-1615.684257301015
 21
1806.103093807674
 31
0.0
  0
LINE
  5
11FCD
330
1A
100
AcDbEntity
  8
ZISSEN1
100
AcDbLine
 10
-1616.391367301016
 20
1765.310193807673
 30
0.0
 11
-1615.684257301015
 21
1766.017303807673
 31
0.0
  0
LINE
  5
11FCE
330
1A
100
AcDbEntity
  8
ZISSEN1
100
AcDbLine
 10
-1616.391367301016
 20
1765.310193807673
 30
0.0
 11
-1619.184277301015
 21
1765.310193807673
 31
0.0
  0
LINE
  5
11FCF
330
1A
100
AcDbEntity
  8
ZISSEN1
100
AcDbLine
 10
-1616.391367301016
 20
1806.810193807674
 30
0.0
 11
-1615.684257301015
 21
1806.103093807674
 31
0.0
  0
LINE
  5
11FD0
330
1A
100
AcDbEntity
  8
ZISSEN1
100
AcDbLine
 10
-1560.824847301016
 20
1778.053433807673
 30
0.0
 11
-1560.824847301016
 21
1769.060183807673
 31
0.0
  0
LINE
  5
11FD1
330
1A
100
AcDbEntity
  8
ZISSEN1
100
AcDbLine
 10
-1560.824847301016
 20
1780.560193807673
 30
0.0
 11
-1560.824847301016
 21
1778.053433807673
 31
0.0
  0
LINE
  5
11FD2
330
1A
100
AcDbEntity
  8
ZISSEN1
100
AcDbLine
 10
-1506.224857301015
 20
1776.276843807674
 30
0.0
 11
-1506.224857301015
 21
1747.343553807674
 31
0.0
  0
LINE
  5
11FD3
330
1A
100
AcDbEntity
  8
ZISSEN1
100
AcDbLine
 10
-1501.437317301015
 20
1763.891733807674
 30
0.0
 11
-1501.437317301015
 21
1778.059793807673
 31
0.0
  0
LINE
  5
11FD4
330
1A
100
AcDbEntity
  8
ZISSEN1
100
AcDbLine
 10
-1527.324837301016
 20
1765.560193807672
 30
0.0
 11
-1527.324837301016
 21
1738.160193807674
 31
0.0
  0
LINE
  5
11FD5
330
1A
100
AcDbEntity
  8
ZISSEN1
100
AcDbLine
 10
-1530.824847301015
 20
1719.810193807672
 30
0.0
 11
-1515.824847301016
 21
1719.810193807672
 31
0.0
  0
LINE
  5
11FD6
330
1A
100
AcDbEntity
  8
ZISSEN1
100
AcDbLine
 10
-1524.324857301015
 20
1724.905193807674
 30
0.0
 11
-1515.824847301016
 21
1724.905193807674
 31
0.0
  0
LINE
  5
11FD7
330
1A
100
AcDbEntity
  8
ZISSEN1
100
AcDbLine
 10
-1524.324857301015
 20
1732.515203807674
 30
0.0
 11
-1515.824847301016
 21
1732.515203807674
 31
0.0
  0
LINE
  5
11FD8
330
1A
100
AcDbEntity
  8
ZISSEN1
100
AcDbLine
 10
-1524.324857301015
 20
1721.460183807673
 30
0.0
 11
-1520.324867301016
 21
1719.810183807673
 31
0.0
  0
LINE
  5
11FD9
330
1A
100
AcDbEntity
  8
ZISSEN1
100
AcDbLine
 10
-1527.324837301016
 20
1738.160193807674
 30
0.0
 11
-1515.824847301016
 21
1738.160193807674
 31
0.0
  0
LINE
  5
11FDA
330
1A
100
AcDbEntity
  8
ZISSEN1
100
AcDbLine
 10
-1530.824847301015
 20
1731.810193807674
 30
0.0
 11
-1530.824847301015
 21
1719.810193807672
 31
0.0
  0
LINE
  5
11FDB
330
1A
100
AcDbEntity
  8
ZISSEN1
100
AcDbLine
 10
-1524.324857301015
 20
1724.905193807674
 30
0.0
 11
-1524.324857301015
 21
1732.515203807674
 31
0.0
  0
LINE
  5
11FDC
330
1A
100
AcDbEntity
  8
ZISSEN1
100
AcDbLine
 10
-1524.324857301015
 20
1721.460183807673
 30
0.0
 11
-1524.324857301015
 21
1725.460203807674
 31
0.0
  0
LINE
  5
11FDD
330
1A
100
AcDbEntity
  8
ZISSEN1
100
AcDbLine
 10
-1530.824847301015
 20
1731.810193807674
 30
0.0
 11
-1524.324857301015
 21
1731.810193807674
 31
0.0
  0
ARC
  5
11FDE
330
1A
100
AcDbEntity
  8
ZISSEN1
100
AcDbCircle
 10
-1496.753847301016
 20
1741.798673807674
 30
0.0
 40
1.5611496
100
AcDbArc
 50
280.0000000000038
 51
0.0
  0
LINE
  5
11FDF
330
1A
100
AcDbEntity
  8
ZISSEN1
100
AcDbLine
 10
-1500.084337301015
 20
1740.370403807673
 30
0.0
 11
-1500.084337301015
 21
1742.243793807674
 31
0.0
  0
LINE
  5
11FE0
330
1A
100
AcDbEntity
  8
ZISSEN1
100
AcDbLine
 10
-1520.324867301016
 20
1732.515203807674
 30
0.0
 11
-1520.324867301016
 21
1724.905193807674
 31
0.0
  0
LINE
  5
11FE1
330
1A
100
AcDbEntity
  8
ZISSEN1
100
AcDbLine
 10
-1514.224877301016
 20
1717.810203807674
 30
0.0
 11
-1509.224857301014
 21
1717.810203807674
 31
0.0
  0
LINE
  5
11FE2
330
1A
100
AcDbEntity
  8
ZISSEN1
100
AcDbLine
 10
-1514.224877301016
 20
1722.810193807674
 30
0.0
 11
-1509.224857301014
 21
1722.810193807674
 31
0.0
  0
LINE
  5
11FE3
330
1A
100
AcDbEntity
  8
ZISSEN1
100
AcDbLine
 10
-1515.824847301016
 20
1719.810183807673
 30
0.0
 11
-1515.824847301016
 21
1727.110203807674
 31
0.0
  0
LINE
  5
11FE4
330
1A
100
AcDbEntity
  8
ZISSEN1
100
AcDbLine
 10
-1520.324867301016
 20
1719.810183807673
 30
0.0
 11
-1515.824847301016
 21
1719.810183807673
 31
0.0
  0
LINE
  5
11FE5
330
1A
100
AcDbEntity
  8
ZISSEN1
100
AcDbLine
 10
-1496.482777301014
 20
1740.261253807673
 30
0.0
 11
-1499.351417301016
 21
1739.755443807674
 31
0.0
  0
ARC
  5
11FE6
330
1A
100
AcDbEntity
  8
ZISSEN1
100
AcDbCircle
 10
-1499.459847301016
 20
1740.370403807673
 30
0.0
 40
0.6244598000000004
100
AcDbArc
 50
179.9999799999978
 51
279.9999500000018
  0
ARC
  5
11FE7
330
1A
100
AcDbEntity
  8
ZISSEN1
100
AcDbCircle
 10
-1503.518847301016
 20
1744.901423807672
 30
0.0
 40
2.081532899999999
100
AcDbArc
 50
180.0
 51
255.0000000000055
  0
LINE
  5
11FE8
330
1A
100
AcDbEntity
  8
CL1
100
AcDbLine
 10
-1498.437307301014
 20
1761.810193807673
 30
0.0
 11
-1512.224867301014
 21
1761.810193807673
 31
0.0
  0
LINE
  5
11FE9
330
1A
100
AcDbEntity
  8
KAKURESEN1
100
AcDbLine
 10
-1509.224857301014
 20
1762.850953807673
 30
0.0
 11
-1502.311687301016
 21
1762.850953807673
 31
0.0
  0
LINE
  5
11FEA
330
1A
100
AcDbEntity
  8
KAKURESEN1
100
AcDbLine
 10
-1509.224857301014
 20
1763.371343807674
 30
0.0
 11
-1502.090507301016
 21
1763.371343807674
 31
0.0
  0
LINE
  5
11FEB
330
1A
100
AcDbEntity
  8
KAKURESEN1
100
AcDbLine
 10
-1509.224857301014
 20
1760.769413807674
 30
0.0
 11
-1502.311687301016
 21
1760.769413807674
 31
0.0
  0
LINE
  5
11FEC
330
1A
100
AcDbEntity
  8
KAKURESEN1
100
AcDbLine
 10
-1509.224857301014
 20
1760.249053807674
 30
0.0
 11
-1502.090507301016
 21
1760.249053807674
 31
0.0
  0
ARC
  5
11FED
330
1A
100
AcDbEntity
  8
ZISSEN1
100
AcDbCircle
 10
-1507.161507301016
 20
1746.094623807674
 30
0.0
 40
1.5611496
100
AcDbArc
 50
0.0
 51
53.1301869999975
  0
LINE
  5
11FEE
330
1A
100
AcDbEntity
  8
ZISSEN1
100
AcDbLine
 10
-1505.600367301016
 20
1746.094623807674
 30
0.0
 11
-1505.600367301016
 21
1744.901423807672
 31
0.0
  0
LINE
  5
11FEF
330
1A
100
AcDbEntity
  8
ZISSEN1
100
AcDbLine
 10
-1515.824847301016
 20
1757.603093807674
 30
0.0
 11
-1514.224857301015
 21
1757.603093807674
 31
0.0
  0
LINE
  5
11FF0
330
1A
100
AcDbEntity
  8
ZISSEN1
100
AcDbLine
 10
-1515.824847301016
 20
1758.310203807674
 30
0.0
 11
-1514.224857301015
 21
1758.310203807674
 31
0.0
  0
LINE
  5
11FF1
330
1A
100
AcDbEntity
  8
ZISSEN1
100
AcDbLine
 10
-1501.437317301015
 20
1745.560603807674
 30
0.0
 11
-1501.437317301015
 21
1759.728663807673
 31
0.0
  0
LINE
  5
11FF2
330
1A
100
AcDbEntity
  8
ZISSEN1
100
AcDbLine
 10
-1497.237347301016
 20
1744.457563807674
 30
0.0
 11
-1496.656897301016
 21
1744.167343807674
 31
0.0
  0
LINE
  5
11FF3
330
1A
100
AcDbEntity
  8
ZISSEN1
100
AcDbLine
 10
-1501.642837301016
 20
1742.243793807674
 30
0.0
 11
-1496.892507301016
 21
1742.243793807674
 31
0.0
  0
LINE
  5
11FF4
330
1A
100
AcDbEntity
  8
ZISSEN1
100
AcDbLine
 10
-1500.084337301015
 20
1740.894353807674
 30
0.0
 11
-1496.824737301015
 21
1741.469163807674
 31
0.0
  0
LINE
  5
11FF5
330
1A
100
AcDbEntity
  8
ZISSEN1
100
AcDbLine
 10
-1501.437317301015
 20
1743.804943807673
 30
0.0
 11
-1500.188387301014
 21
1743.804943807673
 31
0.0
  0
ARC
  5
11FF6
330
1A
100
AcDbEntity
  8
ZISSEN1
100
AcDbCircle
 10
-1503.414777301014
 20
1744.873533807674
 30
0.0
 40
0.5203829000000001
100
AcDbArc
 50
75.00000000000555
 51
254.9999800000044
  0
ARC
  5
11FF7
330
1A
100
AcDbEntity
  8
ZISSEN1
100
AcDbCircle
 10
-1501.957707301015
 20
1745.560603807674
 30
0.0
 40
0.5203832000000001
100
AcDbArc
 50
255.0000000000055
 51
359.9999799999979
  0
LINE
  5
11FF8
330
1A
100
AcDbEntity
  8
ZISSEN1
100
AcDbLine
 10
-1502.092357301016
 20
1745.057953807674
 30
0.0
 11
-1503.280067301014
 21
1745.376183807674
 31
0.0
  0
LINE
  5
11FF9
330
1A
100
AcDbEntity
  8
ZISSEN1
100
AcDbLine
 10
-1501.642837301016
 20
1742.243793807674
 30
0.0
 11
-1504.057577301016
 21
1742.890803807674
 31
0.0
  0
LINE
  5
11FFA
330
1A
100
AcDbEntity
  8
ZISSEN1
100
AcDbLine
 10
-1501.437317301015
 20
1743.804943807673
 30
0.0
 11
-1503.549457301016
 21
1744.370883807673
 31
0.0
  0
LINE
  5
11FFB
330
1A
100
AcDbEntity
  8
ZISSEN1
100
AcDbLine
 10
-1497.817787301015
 20
1744.457563807674
 30
0.0
 11
-1497.237347301016
 21
1744.457563807674
 31
0.0
  0
LINE
  5
11FFC
330
1A
100
AcDbEntity
  8
ZISSEN1
100
AcDbLine
 10
-1498.398227301015
 20
1744.457563807674
 30
0.0
 11
-1497.817787301015
 21
1744.457563807674
 31
0.0
  0
LINE
  5
11FFD
330
1A
100
AcDbEntity
  8
ZISSEN1
100
AcDbLine
 10
-1498.978677301016
 20
1744.457563807674
 30
0.0
 11
-1498.398227301015
 21
1744.457563807674
 31
0.0
  0
LINE
  5
11FFE
330
1A
100
AcDbEntity
  8
ZISSEN1
100
AcDbLine
 10
-1499.559117301016
 20
1744.457563807674
 30
0.0
 11
-1498.978677301016
 21
1744.457563807674
 31
0.0
  0
LINE
  5
11FFF
330
1A
100
AcDbEntity
  8
ZISSEN1
100
AcDbLine
 10
-1499.994467301014
 20
1744.457563807674
 30
0.0
 11
-1499.559117301016
 21
1744.457563807674
 31
0.0
  0
LINE
  5
12000
330
1A
100
AcDbEntity
  8
ZISSEN1
100
AcDbLine
 10
-1500.188387301014
 20
1743.804943807673
 30
0.0
 11
-1500.021387301015
 21
1744.428143807674
 31
0.0
  0
ARC
  5
12001
330
1A
100
AcDbEntity
  8
ZISSEN1
100
AcDbCircle
 10
-1496.892507301016
 20
1741.853503807674
 30
0.0
 40
0.3902874
100
AcDbArc
 50
280.0000000000038
 51
89.99998400000361
  0
LINE
  5
12002
330
1A
100
AcDbEntity
  8
ZISSEN1
100
AcDbLine
 10
-1495.350887301015
 20
1742.426013807674
 30
0.0
 11
-1495.496007301015
 21
1742.571113807674
 31
0.0
  0
LINE
  5
12003
330
1A
100
AcDbEntity
  8
ZISSEN1
100
AcDbLine
 10
-1495.205767301015
 20
1741.700443807674
 30
0.0
 11
-1495.350887301015
 21
1742.426013807674
 31
0.0
  0
LINE
  5
12004
330
1A
100
AcDbEntity
  8
ZISSEN1
100
AcDbLine
 10
-1495.496007301015
 20
1742.426013807674
 30
0.0
 11
-1495.496007301015
 21
1742.280913807674
 31
0.0
  0
LINE
  5
12005
330
1A
100
AcDbEntity
  8
ZISSEN1
100
AcDbLine
 10
-1495.496007301015
 20
1743.151573807674
 30
0.0
 11
-1495.496007301015
 21
1742.426013807674
 31
0.0
  0
LINE
  5
12006
330
1A
100
AcDbEntity
  8
ZISSEN1
100
AcDbLine
 10
-1496.076457301016
 20
1743.732023807674
 30
0.0
 11
-1495.496007301015
 21
1743.151573807674
 31
0.0
  0
LINE
  5
12007
330
1A
100
AcDbEntity
  8
ZISSEN1
100
AcDbLine
 10
-1496.656897301016
 20
1744.167343807674
 30
0.0
 11
-1496.076457301016
 21
1743.732023807674
 31
0.0
  0
ARC
  5
12008
330
1A
100
AcDbEntity
  8
ZISSEN1
100
AcDbCircle
 10
-1499.140207301016
 20
1761.810193807673
 30
0.0
 40
3.3378866
100
AcDbArc
 50
141.4199000000041
 51
218.5800700000011
  0
LINE
  5
12009
330
1A
100
AcDbEntity
  8
ZISSEN1
100
AcDbLine
 10
-1501.437317301015
 20
1763.891733807674
 30
0.0
 11
-1501.749527301015
 21
1763.891733807674
 31
0.0
  0
LINE
  5
1200A
330
1A
100
AcDbEntity
  8
ZISSEN1
100
AcDbLine
 10
-1501.437317301015
 20
1759.728663807673
 30
0.0
 11
-1501.749527301015
 21
1759.728663807673
 31
0.0
  0
LINE
  5
1200B
330
1A
100
AcDbEntity
  8
ZISSEN1
100
AcDbLine
 10
-1521.924837301016
 20
1769.060183807673
 30
0.0
 11
-1515.824847301016
 21
1769.060183807673
 31
0.0
  0
LINE
  5
1200C
330
1A
100
AcDbEntity
  8
ZISSEN1
100
AcDbLine
 10
-1521.924837301016
 20
1780.560193807673
 30
0.0
 11
-1515.824847301016
 21
1780.560193807673
 31
0.0
  0
LINE
  5
1200D
330
1A
100
AcDbEntity
  8
ZISSEN1
100
AcDbLine
 10
-1527.324837301016
 20
1765.560193807672
 30
0.0
 11
-1515.824847301016
 21
1765.560193807672
 31
0.0
  0
LINE
  5
1200E
330
1A
100
AcDbEntity
  8
ZISSEN1
100
AcDbLine
 10
-1527.324837301016
 20
1784.410213807674
 30
0.0
 11
-1515.824847301016
 21
1784.410213807674
 31
0.0
  0
LINE
  5
1200F
330
1A
100
AcDbEntity
  8
ZISSEN1
100
AcDbLine
 10
-1527.324837301016
 20
1801.810233807674
 30
0.0
 11
-1515.824847301016
 21
1801.810233807674
 31
0.0
  0
LINE
  5
12010
330
1A
100
AcDbEntity
  8
ZISSEN1
100
AcDbLine
 10
-1527.324837301016
 20
1801.810233807674
 30
0.0
 11
-1527.324837301016
 21
1784.410213807674
 31
0.0
  0
LINE
  5
12011
330
1A
100
AcDbEntity
  8
ZISSEN1
100
AcDbLine
 10
-1552.414867301016
 20
1778.053433807673
 30
0.0
 11
-1552.414867301016
 21
1770.810173807674
 31
0.0
  0
LINE
  5
12012
330
1A
100
AcDbEntity
  8
ZISSEN1
100
AcDbLine
 10
-1540.824837301016
 20
1780.560193807673
 30
0.0
 11
-1540.824837301016
 21
1769.060183807673
 31
0.0
  0
LINE
  5
12013
330
1A
100
AcDbEntity
  8
ZISSEN1
100
AcDbLine
 10
-1552.414867301016
 20
1771.810183807673
 30
0.0
 11
-1540.824837301016
 21
1771.810183807673
 31
0.0
  0
LINE
  5
12014
330
1A
100
AcDbEntity
  8
ZISSEN1
100
AcDbLine
 10
-1552.414867301016
 20
1777.810203807674
 30
0.0
 11
-1540.824837301016
 21
1777.810203807674
 31
0.0
  0
LINE
  5
12015
330
1A
100
AcDbEntity
  8
ZISSEN1
100
AcDbLine
 10
-1552.414867301016
 20
1778.053433807673
 30
0.0
 11
-1552.414867301016
 21
1778.810203807674
 31
0.0
  0
LINE
  5
12016
330
1A
100
AcDbEntity
  8
ZISSEN1
100
AcDbLine
 10
-1521.924837301016
 20
1780.560193807673
 30
0.0
 11
-1521.924837301016
 21
1769.060183807673
 31
0.0
  0
ARC
  5
12017
330
1A
100
AcDbEntity
  8
ZISSEN1
100
AcDbCircle
 10
-1503.518847301016
 20
1778.718973807674
 30
0.0
 40
2.081532899999999
100
AcDbArc
 50
104.9999799999933
 51
180.0
  0
LINE
  5
12018
330
1A
100
AcDbEntity
  8
ZISSEN1
100
AcDbLine
 10
-1515.824847301016
 20
1780.560193807673
 30
0.0
 11
-1515.824847301016
 21
1769.060183807673
 31
0.0
  0
LINE
  5
12019
330
1A
100
AcDbEntity
  8
ZISSEN1
100
AcDbLine
 10
-1515.824847301016
 20
1765.310193807673
 30
0.0
 11
-1514.224857301015
 21
1765.310193807673
 31
0.0
  0
LINE
  5
1201A
330
1A
100
AcDbEntity
  8
ZISSEN1
100
AcDbLine
 10
-1515.824847301016
 20
1766.017303807673
 30
0.0
 11
-1514.224857301015
 21
1766.017303807673
 31
0.0
  0
ARC
  5
1201B
330
1A
100
AcDbEntity
  8
ZISSEN1
100
AcDbCircle
 10
-1507.161507301016
 20
1777.525773807672
 30
0.0
 40
1.5611496
100
AcDbArc
 50
306.8697900000027
 51
0.0
  0
LINE
  5
1201C
330
1A
100
AcDbEntity
  8
ZISSEN1
100
AcDbLine
 10
-1505.600367301016
 20
1777.525773807672
 30
0.0
 11
-1505.600367301016
 21
1778.718973807674
 31
0.0
  0
LINE
  5
1201D
330
1A
100
AcDbEntity
  8
ZISSEN1
100
AcDbLine
 10
-1497.382437301016
 20
1778.994123807674
 30
0.0
 11
-1496.801997301016
 21
1778.994123807674
 31
0.0
  0
LINE
  5
1201E
330
1A
100
AcDbEntity
  8
ZISSEN1
100
AcDbLine
 10
-1496.482777301014
 20
1783.359133807674
 30
0.0
 11
-1499.351417301016
 21
1783.864953807674
 31
0.0
  0
LINE
  5
1201F
330
1A
100
AcDbEntity
  8
ZISSEN1
100
AcDbLine
 10
-1501.642837301016
 20
1781.376603807673
 30
0.0
 11
-1496.892507301016
 21
1781.376603807673
 31
0.0
  0
LINE
  5
12020
330
1A
100
AcDbEntity
  8
ZISSEN1
100
AcDbLine
 10
-1500.084337301015
 20
1782.726013807674
 30
0.0
 11
-1496.824737301015
 21
1782.151263807674
 31
0.0
  0
LINE
  5
12021
330
1A
100
AcDbEntity
  8
ZISSEN1
100
AcDbLine
 10
-1500.084337301015
 20
1783.249993807674
 30
0.0
 11
-1500.084337301015
 21
1781.376603807673
 31
0.0
  0
LINE
  5
12022
330
1A
100
AcDbEntity
  8
ZISSEN1
100
AcDbLine
 10
-1501.437317301015
 20
1779.815453807674
 30
0.0
 11
-1500.188387301014
 21
1779.815453807674
 31
0.0
  0
ARC
  5
12023
330
1A
100
AcDbEntity
  8
ZISSEN1
100
AcDbCircle
 10
-1503.414777301014
 20
1778.746863807674
 30
0.0
 40
0.5203829000000001
100
AcDbArc
 50
104.9999999999944
 51
284.9999799999933
  0
ARC
  5
12024
330
1A
100
AcDbEntity
  8
ZISSEN1
100
AcDbCircle
 10
-1501.957707301015
 20
1778.059793807673
 30
0.0
 40
0.5203832000000001
100
AcDbArc
 50
0.0
 51
104.9999799999933
  0
LINE
  5
12025
330
1A
100
AcDbEntity
  8
ZISSEN1
100
AcDbLine
 10
-1501.437317301015
 20
1779.815453807674
 30
0.0
 11
-1503.549457301016
 21
1779.249513807674
 31
0.0
  0
LINE
  5
12026
330
1A
100
AcDbEntity
  8
ZISSEN1
100
AcDbLine
 10
-1502.092357301016
 20
1778.562463807674
 30
0.0
 11
-1503.280067301014
 21
1778.244213807673
 31
0.0
  0
LINE
  5
12027
330
1A
100
AcDbEntity
  8
ZISSEN1
100
AcDbLine
 10
-1501.642837301016
 20
1781.376603807673
 30
0.0
 11
-1504.057577301016
 21
1780.729573807674
 31
0.0
  0
LINE
  5
12028
330
1A
100
AcDbEntity
  8
ZISSEN1
100
AcDbLine
 10
-1499.704217301015
 20
1778.994123807674
 30
0.0
 11
-1500.021387301015
 21
1779.192273807673
 31
0.0
  0
LINE
  5
12029
330
1A
100
AcDbEntity
  8
ZISSEN1
100
AcDbLine
 10
-1500.139567301014
 20
1779.284353807674
 30
0.0
 11
-1499.704217301015
 21
1778.994123807674
 31
0.0
  0
LINE
  5
1202A
330
1A
100
AcDbEntity
  8
ZISSEN1
100
AcDbLine
 10
-1497.962887301016
 20
1778.994123807674
 30
0.0
 11
-1497.382437301016
 21
1778.994123807674
 31
0.0
  0
LINE
  5
1202B
330
1A
100
AcDbEntity
  8
ZISSEN1
100
AcDbLine
 10
-1498.543327301016
 20
1778.994123807674
 30
0.0
 11
-1497.962887301016
 21
1778.994123807674
 31
0.0
  0
LINE
  5
1202C
330
1A
100
AcDbEntity
  8
ZISSEN1
100
AcDbLine
 10
-1499.123777301015
 20
1778.994123807674
 30
0.0
 11
-1498.543327301016
 21
1778.994123807674
 31
0.0
  0
LINE
  5
1202D
330
1A
100
AcDbEntity
  8
ZISSEN1
100
AcDbLine
 10
-1499.704217301015
 20
1778.994123807674
 30
0.0
 11
-1499.123777301015
 21
1778.994123807674
 31
0.0
  0
LINE
  5
1202E
330
1A
100
AcDbEntity
  8
ZISSEN1
100
AcDbLine
 10
-1500.188387301014
 20
1779.815453807674
 30
0.0
 11
-1500.021387301015
 21
1779.192273807673
 31
0.0
  0
ARC
  5
1202F
330
1A
100
AcDbEntity
  8
ZISSEN1
100
AcDbCircle
 10
-1499.459847301016
 20
1783.249993807674
 30
0.0
 40
0.6244598000000004
100
AcDbArc
 50
80.00002999999518
 51
180.0
  0
ARC
  5
12030
330
1A
100
AcDbEntity
  8
ZISSEN1
100
AcDbCircle
 10
-1496.892507301016
 20
1781.766883807674
 30
0.0
 40
0.3902874
100
AcDbArc
 50
270.0
 51
79.99998400000435
  0
LINE
  5
12031
330
1A
100
AcDbEntity
  8
ZISSEN1
100
AcDbLine
 10
-1495.205767301015
 20
1781.751253807674
 30
0.0
 11
-1495.060667301014
 21
1781.170803807674
 31
0.0
  0
LINE
  5
12032
330
1A
100
AcDbEntity
  8
ZISSEN1
100
AcDbLine
 10
-1495.641107301016
 20
1780.880583807674
 30
0.0
 11
-1495.350887301015
 21
1780.880583807674
 31
0.0
  0
LINE
  5
12033
330
1A
100
AcDbEntity
  8
ZISSEN1
100
AcDbLine
 10
-1495.060667301014
 20
1781.170803807674
 30
0.0
 11
-1495.641107301016
 21
1780.880583807674
 31
0.0
  0
LINE
  5
12034
330
1A
100
AcDbEntity
  8
ZISSEN1
100
AcDbLine
 10
-1495.205767301015
 20
1780.300143807674
 30
0.0
 11
-1495.205767301015
 21
1780.880583807674
 31
0.0
  0
LINE
  5
12035
330
1A
100
AcDbEntity
  8
ZISSEN1
100
AcDbLine
 10
-1495.641107301016
 20
1779.574573807674
 30
0.0
 11
-1495.205767301015
 21
1780.300143807674
 31
0.0
  0
LINE
  5
12036
330
1A
100
AcDbEntity
  8
ZISSEN1
100
AcDbLine
 10
-1496.221557301016
 20
1779.139253807674
 30
0.0
 11
-1495.641107301016
 21
1779.574573807674
 31
0.0
  0
LINE
  5
12037
330
1A
100
AcDbEntity
  8
ZISSEN1
100
AcDbLine
 10
-1496.801997301016
 20
1778.994123807674
 30
0.0
 11
-1496.221557301016
 21
1779.139253807674
 31
0.0
  0
ARC
  5
12038
330
1A
100
AcDbEntity
  8
ZISSEN1
100
AcDbCircle
 10
-1496.753847301016
 20
1781.821743807673
 30
0.0
 40
1.5611496
100
AcDbArc
 50
0.0
 51
79.99998400000435
  0
LINE
  5
12039
330
1A
100
AcDbEntity
  8
ZISSEN1
100
AcDbLine
 10
-1495.205767301015
 20
1781.751253807674
 30
0.0
 11
-1495.192697301016
 21
1781.821743807673
 31
0.0
  0
LINE
  5
1203A
330
1A
100
AcDbEntity
  8
ZISSEN1
100
AcDbLine
 10
-1514.224877301016
 20
1805.810193807674
 30
0.0
 11
-1509.224857301014
 21
1805.810193807674
 31
0.0
  0
LINE
  5
1203B
330
1A
100
AcDbEntity
  8
ZISSEN1
100
AcDbLine
 10
-1514.224877301016
 20
1800.810173807674
 30
0.0
 11
-1509.224857301014
 21
1800.810173807674
 31
0.0
  0
LINE
  5
1203C
330
1A
100
AcDbEntity
  8
ZISSEN1
100
AcDbLine
 10
-1515.824847301016
 20
1806.103093807674
 30
0.0
 11
-1514.224857301015
 21
1806.103093807674
 31
0.0
  0
LINE
  5
1203D
330
1A
100
AcDbEntity
  8
ZISSEN1
100
AcDbLine
 10
-1515.824847301016
 20
1806.810193807674
 30
0.0
 11
-1514.224857301015
 21
1806.810193807674
 31
0.0
  0
LINE
  5
1203E
330
1A
100
AcDbEntity
  8
ZISSEN1
100
AcDbLine
 10
-1509.224857301014
 20
1806.103093807674
 30
0.0
 11
-1506.224857301015
 21
1806.103093807674
 31
0.0
  0
LINE
  5
1203F
330
1A
100
AcDbEntity
  8
ZISSEN1
100
AcDbLine
 10
-1509.224857301014
 20
1806.810193807674
 30
0.0
 11
-1506.224857301015
 21
1806.810193807674
 31
0.0
  0
LINE
  5
12075
330
1A
100
AcDbEntity
  8
CL1
100
AcDbLine
 10
-1712.684267301016
 20
1764.810193807673
 30
0.0
 11
-1712.684267301016
 21
1758.810203807674
 31
0.0
  0
LINE
  5
12076
330
1A
100
AcDbEntity
  8
CL1
100
AcDbLine
 10
-1618.684277301015
 20
1764.810193807673
 30
0.0
 11
-1618.684277301015
 21
1758.810203807674
 31
0.0
  0
LINE
  5
1211C
330
1A
100
AcDbEntity
  8
ZISSEN1
100
AcDbLine
 10
-1509.205041861257
 20
1763.564005849089
 30
0.0
 11
-1506.213061030948
 21
1763.564005849089
 31
0.0
  0
LINE
  5
1211D
330
1A
100
AcDbEntity
  8
ZISSEN1
100
AcDbLine
 10
-1509.205041861257
 20
1760.060136094439
 30
0.0
 11
-1506.205061030948
 21
1760.060136094439
 31
0.0
  0
ARC
  5
121E2
330
1A
100
AcDbEntity
  8
SOUZOUSEN
100
AcDbCircle
 10
-1652.684257151252
 20
1684.692057767107
 30
0.0
 40
10.0
100
AcDbArc
 50
90.0
 51
180.0
  0
ARC
  5
121E3
330
1A
100
AcDbEntity
  8
SOUZOUSEN
100
AcDbCircle
 10
-1653.684257151252
 20
1685.692057767109
 30
0.0
 40
15.0
100
AcDbArc
 50
90.0
 51
180.0
  0
LINE
  5
121E4
330
1A
100
AcDbEntity
  8
SOUZOUSEN
100
AcDbLine
 10
-1668.684257151253
 20
1685.692057767109
 30
0.0
 11
-1668.684257151252
 21
1665.292053767108
 31
0.0
  0
LINE
  5
121E5
330
1A
100
AcDbEntity
  8
SOUZOUSEN
100
AcDbLine
 10
-1662.684257151251
 20
1684.692057767107
 30
0.0
 11
-1662.684257151251
 21
1665.292053767108
 31
0.0
  0
LINE
  5
121E6
330
1A
100
AcDbEntity
  8
SOUZOUSEN
100
AcDbLine
 10
-1652.684257151252
 20
1694.692057767109
 30
0.0
 11
-1639.858620480286
 21
1694.692057767109
 31
0.0
  0
LINE
  5
121E7
330
1A
100
AcDbEntity
  8
SOUZOUSEN
100
AcDbLine
 10
-1653.684257151252
 20
1700.692057767107
 30
0.0
 11
-1640.026837426934
 21
1700.692057767107
 31
0.0
  0
LINE
  5
1225C
330
1A
100
AcDbEntity
  8
SOUZOUSEN
100
AcDbLine
 10
-1560.807723861151
 20
1777.810877125541
 30
0.0
 11
-1573.377723861152
 21
1777.810877125541
 31
0.0
  0
LINE
  5
1225E
330
1A
100
AcDbEntity
  8
SOUZOUSEN
100
AcDbLine
 10
-1560.807723861151
 20
1771.810877125541
 30
0.0
 11
-1572.707723861152
 21
1771.810877125541
 31
0.0
  0
ARC
  5
12266
330
1A
100
AcDbEntity
  8
SOUZOUSEN
100
AcDbCircle
 10
-1579.505121391797
 20
1773.25388411771
 30
0.0
 40
6.946741773199424
100
AcDbArc
 50
336.7263205059955
 51
15.53667792725625
  0
ARC
  5
12267
330
1A
100
AcDbEntity
  8
SOUZOUSEN
100
AcDbCircle
 10
-1569.100648681548
 20
1777.400810945344
 30
0.0
 40
4.3591849964559
100
AcDbArc
 50
151.6440182289073
 51
211.6317099242265
  0
DIMENSION
  5
12272
330
1A
100
AcDbEntity
  8
SAISEN1
100
AcDbDimension
  2
*D25
 10
-1591.285647442001
 20
1610.692064807673
 30
0.0
 11
-1591.285647442002
 21
1655.692061287391
 31
0.0
 70
   160
  3
標準スタイル
100
AcDbAlignedDimension
 13
-1640.026837426934
 23
1700.692057767107
 33
0.0
 14
-1615.684257301015
 24
1610.692064807673
 34
0.0
 50
90.0
100
AcDbRotatedDimension
1001
ACAD
1000
DSTYLE
1002
{
1070
    40
1040
1.0
1002
}
  0
DIMENSION
  5
12295
330
1A
100
AcDbEntity
  8
SUNPOU
100
AcDbDimension
  2
*D26
 10
-1712.684267301016
 20
1817.554831436466
 30
0.0
 11
-1723.590358671575
 21
1817.554831436466
 31
0.0
 70
   160
  3
標準スタイル
100
AcDbAlignedDimension
 13
-1715.684267301016
 23
1806.103093807674
 33
0.0
 14
-1712.684267301016
 24
1764.810193807673
 34
0.0
100
AcDbRotatedDimension
1001
ACAD
1000
DSTYLE
1002
{
1070
    40
1040
1.0
1002
}
  0
DIMENSION
  5
122AF
330
1A
100
AcDbEntity
  8
SUNPOU
100
AcDbDimension
  2
*D27
 10
-1618.684277301015
 20
1817.554831436466
 30
0.0
 11
-1665.684272301015
 21
1820.304831436466
 31
0.0
 70
    32
  3
標準スタイル
100
AcDbAlignedDimension
 13
-1712.684267301016
 23
1765.310193807673
 33
0.0
 14
-1618.684277301015
 24
1764.810193807673
 34
0.0
100
AcDbRotatedDimension
1001
ACAD
1000
DSTYLE
1002
{
1070
    40
1040
1.0
1002
}
  0
DIMENSION
  5
122BC
330
1A
100
AcDbEntity
  8
SUNPOU
100
AcDbDimension
  2
*D28
 10
-1615.684257301015
 20
1817.554831436466
 30
0.0
 11
-1607.778165930458
 21
1820.304831436466
 31
0.0
 70
    32
  3
標準スタイル
100
AcDbAlignedDimension
 13
-1618.684277301015
 23
1764.810193807673
 33
0.0
 14
-1615.684257301015
 24
1806.103093807674
 34
0.0
100
AcDbRotatedDimension
1001
ACAD
1000
DSTYLE
1002
{
1070
    40
1040
1.0
1002
}
  0
DIMENSION
  5
122CB
330
1A
100
AcDbEntity
  8
SUNPOU
100
AcDbDimension
  2
*D29
 10
-1731.364301022744
 20
1716.810193807673
 30
0.0
 11
-1734.114301022744
 21
1761.810193807673
 31
0.0
 70
    32
  3
標準スタイル
100
AcDbAlignedDimension
 13
-1714.977157301015
 23
1806.810193807674
 33
0.0
 14
-1714.977157301015
 24
1716.810193807673
 34
0.0
 50
90.0
100
AcDbRotatedDimension
1001
ACAD
1000
DSTYLE
1002
{
1070
    40
1040
1.0
1002
}
  0
DIMENSION
  5
122EC
330
1A
100
AcDbEntity
  8
SUNPOU
100
AcDbDimension
  2
*D30
 10
-1604.95985490025
 20
1760.060193807674
 30
0.0
 11
-1607.709854900249
 21
1749.879990761987
 31
0.0
 70
    32
  3
標準スタイル
100
AcDbAlignedDimension
 13
-1615.684257301015
 23
1763.560203807674
 33
0.0
 14
-1615.684257301015
 24
1760.060193807674
 34
0.0
 50
90.0
100
AcDbRotatedDimension
1001
ACAD
1000
DSTYLE
1002
{
1070
    40
1040
1.0
1002
}
  0
DIMENSION
  5
122FB
330
1A
100
AcDbEntity
  8
SUNPOU
100
AcDbDimension
  2
*D31
 10
-1731.364301022744
 20
1610.692064807673
 30
0.0
 11
-1734.114301022744
 21
1622.992062807673
 31
0.0
 70
    32
  3
標準スタイル
100
AcDbAlignedDimension
 13
-1708.184217301015
 23
1635.292060807674
 33
0.0
 14
-1715.684267301016
 24
1610.692064807673
 34
0.0
 50
90.0
100
AcDbRotatedDimension
1001
ACAD
1000
DSTYLE
1002
{
1070
    40
1040
1.0
1002
}
  0
DIMENSION
  5
12308
330
1A
100
AcDbEntity
  8
SUNPOU
100
AcDbDimension
  2
*D32
 10
-1615.684257301015
 20
1705.680128972304
 30
0.0
 11
-1665.684262301016
 21
1708.430128972304
 31
0.0
 70
    32
  3
標準スタイル
100
AcDbAlignedDimension
 13
-1715.684267301016
 23
1620.292061807673
 33
0.0
 14
-1615.684257301015
 24
1620.292061807673
 34
0.0
100
AcDbRotatedDimension
1001
ACAD
1000
DSTYLE
1002
{
1070
    40
1040
1.0
1002
}
  0
DIMENSION
  5
12315
330
1A
100
AcDbEntity
  8
SUNPOU
100
AcDbDimension
  2
*D33
 10
-1615.684257301015
 20
1705.680128972304
 30
0.0
 11
-1665.684262301016
 21
1708.430128972304
 31
0.0
 70
    32
  3
標準スタイル
100
AcDbAlignedDimension
 13
-1715.684267301016
 23
1717.517303807674
 33
0.0
 14
-1615.684257301015
 24
1717.517303807674
 34
0.0
100
AcDbRotatedDimension
1001
ACAD
1000
DSTYLE
1002
{
1070
    40
1040
1.0
1002
}
  0
DIMENSION
  5
1233E
330
1A
100
AcDbEntity
  8
SUNPOU
100
AcDbDimension
  2
*D34
 10
-1604.95985490025
 20
1610.692064807673
 30
0.0
 11
-1607.709854900249
 21
1602.785973437113
 31
0.0
 70
    32
  3
標準スタイル
100
AcDbAlignedDimension
 13
-1615.684257301015
 23
1613.692061807673
 33
0.0
 14
-1615.184257301016
 24
1610.692064807673
 34
0.0
 50
90.0
100
AcDbRotatedDimension
1001
ACAD
1000
DSTYLE
1002
{
1070
    40
1040
1.0
1002
}
  0
VIEWPORT
  5
5D8F
330
5D8E
100
AcDbEntity
 67
     1
  8
0
100
AcDbViewport
 10
225.1276654406154
 20
374.9275932042371
 30
0.0
 40
648.5075872872164
 41
739.9195610271698
 68
     1
 69
     1
1001
ACAD
1000
MVIEW
1002
{
1070
    16
1010
0.0
1020
0.0
1030
0.0
1010
0.0
1020
0.0
1030
1.0
1040
0.0
1040
739.9195610271698
1040
225.1276654406154
1040
374.9275932042371
1040
50.0
1040
0.0
1040
0.0
1070
     0
1070
   100
1070
     1
1070
     0
1070
     0
1070
     0
1070
     0
1070
     0
1040
0.0
1040
0.0
1040
0.0
1040
1.0
1040
1.0
1040
10.0
1040
10.0
1070
     0
1002
{
1002
}
1002
}
  0
VIEWPORT
  5
6001
330
5D8E
100
AcDbEntity
 67
     1
  8
ZISSEN1
100
AcDbViewport
 10
221.786195552541
 20
157.6960273330388
 30
0.0
 40
385.4999999999997
 41
259.9999999999999
 68
     2
 69
     2
1001
ACAD
1000
MVIEW
1002
{
1070
    16
1010
0.0
1020
0.0
1030
0.0
1010
0.0
1020
0.0
1030
1.0
1040
0.0
1040
259.9999999999999
1040
-1615.594505726615
1040
1716.106309896026
1040
50.0
1040
0.0
1040
0.0
1070
     0
1070
   100
1070
     1
1070
     0
1070
     0
1070
     0
1070
     0
1070
     0
1040
0.0
1040
0.0
1040
0.0
1040
1.0
1040
1.0
1040
10.0
1040
10.0
1070
     0
1002
{
1002
}
1002
}
  0
TEXT
  5
716F
330
5D8E
100
AcDbEntity
 67
     1
  8
SUNPOU
 62
     0
100
AcDbText
 10
374.1863124306942
 20
60.86794705907585
 30
0.0
 40
3.5
  1
縮尺 1/1
  7
ゴシック体
100
AcDbText
  0
ENDSEC
  0
SECTION
  2
OBJECTS
  0
DICTIONARY
  5
C
330
0
100
AcDbDictionary
  3
ACAD_GROUP
350
D
  3
ACAD_LAYOUT
350
5C7D
  3
ACAD_MLINESTYLE
350
E
  3
ACAD_PLOTSETTINGS
350
5C7E
  3
ACAD_PLOTSTYLENAME
350
5C7B
  3
DWGPROPS
350
5E8E
  3
ACDBVARIABLEDICTIONARY
350
123A9
  3
ACDBHEADERROUNDTRIPXREC
350
123B4
  0
DICTIONARY
  5
123D4
330
1A
100
AcDbDictionary
280
     1
  3
ACAD_LAYOUTSELFREF
360
123D5
  0
DICTIONARY
  5
123D6
330
5D8E
100
AcDbDictionary
280
     1
  3
ACAD_LAYOUTSELFREF
360
123D7
  0
DICTIONARY
  5
D
102
{ACAD_REACTORS
330
C
102
}
330
C
100
AcDbDictionary
  3
*A1
350
477D
  3
*A2
350
4C0E
  3
*A3
350
4C0F
  3
*A4
350
4C10
  3
*A5
350
4C11
  3
*A6
350
4C12
  3
*A7
350
4C13
  3
*A8
350
4C14
  3
*A9
350
4C15
  3
*A10
350
4C16
  3
*A11
350
4C17
  3
*A12
350
477E
  3
*A13
350
477F
  3
*A14
350
4780
  3
*A15
350
4781
  0
DICTIONARY
  5
5C7D
102
{ACAD_REACTORS
330
C
102
}
330
C
100
AcDbDictionary
  0
DICTIONARY
  5
E
102
{ACAD_REACTORS
330
C
102
}
330
C
100
AcDbDictionary
  3
STANDARD
350
13
  0
DICTIONARY
  5
5C7E
102
{ACAD_REACTORS
330
C
102
}
330
C
100
AcDbDictionary
  0
ACDBDICTIONARYWDFLT
  5
5C7B
102
{ACAD_REACTORS
330
C
102
}
330
C
100
AcDbDictionary
281
     1
  3
Normal
350
5C7C
100
AcDbDictionaryWithDefault
340
5C7C
  0
XRECORD
  5
5E8E
102
{ACAD_REACTORS
330
C
102
}
330
C
100
AcDbXrecord
  1
DWGPROPS COOKIE
  2

  3

  4

  6

  7

  8

  9

300
=
301
=
302
=
303
=
304
=
305
=
306
=
307
=
308
=
309
=
 40
0.586753587962963
 41
2450495.493631364
 42
2453208.662277431
  1

 90
        0
  0
DICTIONARY
  5
123A9
102
{ACAD_REACTORS
330
C
102
}
330
C
100
AcDbDictionary
  3
INDEXCTL
350
123AA
  0
DICTIONARY
  5
123B4
102
{ACAD_REACTORS
330
C
102
}
330
C
100
AcDbDictionary
  3
TSTACKALIGN
350
123B5
  3
TSTACKSIZE
350
123B6
  3
HYPERLINKBASE
350
123B7
  3
STYLESHEET
350
123B8
  3
LAYOUTDICT
350
123B9
  3
PLOTSETDICT
350
123BA
  3
PLOTSTYLNAMDICT
350
123BB
  3
LWETCUNION
350
123BC
  3
INSUNITS
350
123BD
  3
CEPSNTYPE
350
123BE
  3
FINGERPRINTGUID
350
123BF
  3
VERSIONGUID
350
123C0
  3
PSVPSCALE
350
123C1
  3
PUCSORTHOREF
350
123C2
  3
PUCSORTHOVIEW
350
123C3
  3
PUCSBASE
350
123C4
  3
PUCSORGTOP
350
123C5
  3
PUCSORGBOTTOM
350
123C6
  3
PUCSORGLEFT
350
123C7
  3
PUCSORGRIGHT
350
123C8
  3
PUCSORGFRONT
350
123C9
  3
PUCSORGBACK
350
123CA
  3
UCSORTHOREF
350
123CB
  3
UCSORTHOVIEW
350
123CC
  3
UCSBASE
350
123CD
  3
UCSORGTOP
350
123CE
  3
UCSORGBOTTOM
350
123CF
  3
UCSORGLEFT
350
123D0
  3
UCSORGRIGHT
350
123D1
  3
UCSORGFRONT
350
123D2
  3
UCSORGBACK
350
123D3
  0
XRECORD
  5
123D5
102
{ACAD_REACTORS
330
123D4
102
}
330
123D4
100
AcDbXrecord
340
1A
  0
XRECORD
  5
123D7
102
{ACAD_REACTORS
330
123D6
102
}
330
123D6
100
AcDbXrecord
340
5D8E
  0
GROUP
  5
477D
102
{ACAD_REACTORS
330
D
102
}
330
D
100
AcDbGroup
300

 70
     1
 71
     1
  0
GROUP
  5
4C0E
102
{ACAD_REACTORS
330
D
102
}
330
D
100
AcDbGroup
300

 70
     1
 71
     1
  0
GROUP
  5
4C0F
102
{ACAD_REACTORS
330
D
102
}
330
D
100
AcDbGroup
300

 70
     1
 71
     1
  0
GROUP
  5
4C10
102
{ACAD_REACTORS
330
D
102
}
330
D
100
AcDbGroup
300

 70
     1
 71
     1
  0
GROUP
  5
4C11
102
{ACAD_REACTORS
330
D
102
}
330
D
100
AcDbGroup
300

 70
     1
 71
     1
  0
GROUP
  5
4C12
102
{ACAD_REACTORS
330
D
102
}
330
D
100
AcDbGroup
300

 70
     1
 71
     1
  0
GROUP
  5
4C13
102
{ACAD_REACTORS
330
D
102
}
330
D
100
AcDbGroup
300

 70
     1
 71
     1
  0
GROUP
  5
4C14
102
{ACAD_REACTORS
330
D
102
}
330
D
100
AcDbGroup
300

 70
     1
 71
     1
  0
GROUP
  5
4C15
102
{ACAD_REACTORS
330
D
102
}
330
D
100
AcDbGroup
300

 70
     1
 71
     1
  0
GROUP
  5
4C16
102
{ACAD_REACTORS
330
D
102
}
330
D
100
AcDbGroup
300

 70
     1
 71
     1
  0
GROUP
  5
4C17
102
{ACAD_REACTORS
330
D
102
}
330
D
100
AcDbGroup
300

 70
     1
 71
     1
  0
GROUP
  5
477E
102
{ACAD_REACTORS
330
D
102
}
330
D
100
AcDbGroup
300

 70
     1
 71
     1
  0
GROUP
  5
477F
102
{ACAD_REACTORS
330
D
102
}
330
D
100
AcDbGroup
300

 70
     1
 71
     1
  0
GROUP
  5
4780
102
{ACAD_REACTORS
330
D
102
}
330
D
100
AcDbGroup
300

 70
     1
 71
     1
  0
GROUP
  5
4781
102
{ACAD_REACTORS
330
D
102
}
330
D
100
AcDbGroup
300

 70
     1
 71
     1
  0
MLINESTYLE
  5
13
102
{ACAD_REACTORS
330
E
102
}
330
E
100
AcDbMlineStyle
  2
STANDARD
 70
     0
  3

 62
     0
 51
90.0
 52
90.0
 71
     2
 49
0.5
 62
   256
  6
BYLAYER
 49
-0.5
 62
   256
  6
BYLAYER
  0
ACDBPLACEHOLDER
  5
5C7C
102
{ACAD_REACTORS
330
5C7B
102
}
330
5C7B
100
AcDbPlaceHolder
280
     0
  0
DICTIONARYVAR
  5
123AA
102
{ACAD_REACTORS
330
123A9
102
}
330
123A9
100
DictionaryVariables
280
     0
  1
-1
  0
XRECORD
  5
123B5
102
{ACAD_REACTORS
330
123B4
102
}
330
123B4
100
AcDbXrecord
 90
        1
  0
XRECORD
  5
123B6
102
{ACAD_REACTORS
330
123B4
102
}
330
123B4
100
AcDbXrecord
 90
       70
  0
XRECORD
  5
123B7
102
{ACAD_REACTORS
330
123B4
102
}
330
123B4
100
AcDbXrecord
  1

  0
XRECORD
  5
123B8
102
{ACAD_REACTORS
330
123B4
102
}
330
123B4
100
AcDbXrecord
  1

  0
XRECORD
  5
123B9
102
{ACAD_REACTORS
330
123B4
102
}
330
123B4
100
AcDbXrecord
340
5C7D
  0
XRECORD
  5
123BA
102
{ACAD_REACTORS
330
123B4
102
}
330
123B4
100
AcDbXrecord
340
5C7E
  0
XRECORD
  5
123BB
102
{ACAD_REACTORS
330
123B4
102
}
330
123B4
100
AcDbXrecord
340
5C7B
  0
XRECORD
  5
123BC
102
{ACAD_REACTORS
330
123B4
102
}
330
123B4
100
AcDbXrecord
 90
    10781
  0
XRECORD
  5
123BD
102
{ACAD_REACTORS
330
123B4
102
}
330
123B4
100
AcDbXrecord
 90
        0
  0
XRECORD
  5
123BE
102
{ACAD_REACTORS
330
123B4
102
}
330
123B4
100
AcDbXrecord
 90
        0
  0
XRECORD
  5
123BF
102
{ACAD_REACTORS
330
123B4
102
}
330
123B4
100
AcDbXrecord
  1
{225A7F0D-DA29-11D8-946A-0000E2416295}
  0
XRECORD
  5
123C0
102
{ACAD_REACTORS
330
123B4
102
}
330
123B4
100
AcDbXrecord
  1
{CFBFCDAA-EE84-48A2-BB33-B83F8B4B027A}
  0
XRECORD
  5
123C1
102
{ACAD_REACTORS
330
123B4
102
}
330
123B4
100
AcDbXrecord
 40
0.0
  0
XRECORD
  5
123C2
102
{ACAD_REACTORS
330
123B4
102
}
330
123B4
100
AcDbXrecord
340
0
  0
XRECORD
  5
123C3
102
{ACAD_REACTORS
330
123B4
102
}
330
123B4
100
AcDbXrecord
 70
     0
  0
XRECORD
  5
123C4
102
{ACAD_REACTORS
330
123B4
102
}
330
123B4
100
AcDbXrecord
340
0
  0
XRECORD
  5
123C5
102
{ACAD_REACTORS
330
123B4
102
}
330
123B4
100
AcDbXrecord
 10
0.0
 20
0.0
 30
0.0
  0
XRECORD
  5
123C6
102
{ACAD_REACTORS
330
123B4
102
}
330
123B4
100
AcDbXrecord
 10
0.0
 20
0.0
 30
0.0
  0
XRECORD
  5
123C7
102
{ACAD_REACTORS
330
123B4
102
}
330
123B4
100
AcDbXrecord
 10
0.0
 20
0.0
 30
0.0
  0
XRECORD
  5
123C8
102
{ACAD_REACTORS
330
123B4
102
}
330
123B4
100
AcDbXrecord
 10
0.0
 20
0.0
 30
0.0
  0
XRECORD
  5
123C9
102
{ACAD_REACTORS
330
123B4
102
}
330
123B4
100
AcDbXrecord
 10
0.0
 20
0.0
 30
0.0
  0
XRECORD
  5
123CA
102
{ACAD_REACTORS
330
123B4
102
}
330
123B4
100
AcDbXrecord
 10
0.0
 20
0.0
 30
0.0
  0
XRECORD
  5
123CB
102
{ACAD_REACTORS
330
123B4
102
}
330
123B4
100
AcDbXrecord
340
0
  0
XRECORD
  5
123CC
102
{ACAD_REACTORS
330
123B4
102
}
330
123B4
100
AcDbXrecord
 70
     0
  0
XRECORD
  5
123CD
102
{ACAD_REACTORS
330
123B4
102
}
330
123B4
100
AcDbXrecord
340
0
  0
XRECORD
  5
123CE
102
{ACAD_REACTORS
330
123B4
102
}
330
123B4
100
AcDbXrecord
 10
0.0
 20
0.0
 30
0.0
  0
XRECORD
  5
123CF
102
{ACAD_REACTORS
330
123B4
102
}
330
123B4
100
AcDbXrecord
 10
0.0
 20
0.0
 30
0.0
  0
XRECORD
  5
123D0
102
{ACAD_REACTORS
330
123B4
102
}
330
123B4
100
AcDbXrecord
 10
0.0
 20
0.0
 30
0.0
  0
XRECORD
  5
123D1
102
{ACAD_REACTORS
330
123B4
102
}
330
123B4
100
AcDbXrecord
 10
0.0
 20
0.0
 30
0.0
  0
XRECORD
  5
123D2
102
{ACAD_REACTORS
330
123B4
102
}
330
123B4
100
AcDbXrecord
 10
0.0
 20
0.0
 30
0.0
  0
XRECORD
  5
123D3
102
{ACAD_REACTORS
330
123B4
102
}
330
123B4
100
AcDbXrecord
 10
0.0
 20
0.0
 30
0.0
  0
ENDSEC
  0
EOF
