  0
SECTION
  2
HEADER
  9
$ACADVER
  1
AC1014
  9
$ACADMAINTVER
 70
     9
  9
$DWGCODEPAGE
  3
ANSI_932
  9
$INSBASE
 10
0.0
 20
0.0
 30
0.0
  9
$EXTMIN
 10
-1746.332438041928
 20
1968.690182862549
 30
0.0
  9
$EXTMAX
 10
-1585.182380108476
 20
2142.547513113645
 30
0.0
  9
$LIMMIN
 10
0.0
 20
0.0
  9
$LIMMAX
 10
420.0
 20
297.0
  9
$ORTHOMODE
 70
     1
  9
$REGENMODE
 70
     1
  9
$FILLMODE
 70
     1
  9
$QTEXTMODE
 70
     0
  9
$MIRRTEXT
 70
     1
  9
$DRAGMODE
 70
     2
  9
$LTSCALE
 40
1.0
  9
$OSMODE
 70
    37
  9
$ATTMODE
 70
     1
  9
$TEXTSIZE
 40
2.5
  9
$TRACEWID
 40
1.0
  9
$TEXTSTYLE
  7
ゴシック体
  9
$CLAYER
  8
ZISSEN1
  9
$CELTYPE
  6
BYLAYER
  9
$CECOLOR
 62
   256
  9
$CELTSCALE
 40
1.0
  9
$DELOBJ
 70
     1
  9
$DISPSILH
 70
     0
  9
$DIMSCALE
 40
0.0
  9
$DIMASZ
 40
3.0
  9
$DIMEXO
 40
0.5
  9
$DIMDLI
 40
0.5
  9
$DIMRND
 40
0.0
  9
$DIMDLE
 40
0.0
  9
$DIMEXE
 40
0.5
  9
$DIMTP
 40
0.0
  9
$DIMTM
 40
0.0
  9
$DIMTXT
 40
3.5
  9
$DIMCEN
 40
0.0
  9
$DIMTSZ
 40
0.0
  9
$DIMTOL
 70
     0
  9
$DIMLIM
 70
     0
  9
$DIMTIH
 70
     0
  9
$DIMTOH
 70
     0
  9
$DIMSE1
 70
     0
  9
$DIMSE2
 70
     0
  9
$DIMTAD
 70
     1
  9
$DIMZIN
 70
     8
  9
$DIMBLK
  1

  9
$DIMASO
 70
     1
  9
$DIMSHO
 70
     1
  9
$DIMPOST
  1

  9
$DIMAPOST
  1

  9
$DIMALT
 70
     0
  9
$DIMALTD
 70
     2
  9
$DIMALTF
 40
25.4
  9
$DIMLFAC
 40
1.0
  9
$DIMTOFL
 70
     1
  9
$DIMTVP
 40
0.0
  9
$DIMTIX
 70
     0
  9
$DIMSOXD
 70
     0
  9
$DIMSAH
 70
     0
  9
$DIMBLK1
  1

  9
$DIMBLK2
  1

  9
$DIMSTYLE
  2
標準スタイル
  9
$DIMCLRD
 70
     1
  9
$DIMCLRE
 70
     1
  9
$DIMCLRT
 70
     1
  9
$DIMTFAC
 40
1.0
  9
$DIMGAP
 40
1.0
  9
$DIMJUST
 70
     0
  9
$DIMSD1
 70
     0
  9
$DIMSD2
 70
     0
  9
$DIMTOLJ
 70
     1
  9
$DIMTZIN
 70
     8
  9
$DIMALTZ
 70
     0
  9
$DIMALTTZ
 70
     0
  9
$DIMFIT
 70
     3
  9
$DIMUPT
 70
     0
  9
$DIMUNIT
 70
     2
  9
$DIMDEC
 70
     2
  9
$DIMTDEC
 70
     2
  9
$DIMALTU
 70
     2
  9
$DIMALTTD
 70
     2
  9
$DIMTXSTY
  7
ゴシック体
  9
$DIMAUNIT
 70
     0
  9
$LUNITS
 70
     2
  9
$LUPREC
 70
     4
  9
$SKETCHINC
 40
1.0
  9
$FILLETRAD
 40
1.0
  9
$AUNITS
 70
     0
  9
$AUPREC
 70
     0
  9
$MENU
  1
.
  9
$ELEVATION
 40
0.0
  9
$PELEVATION
 40
0.0
  9
$THICKNESS
 40
0.0
  9
$LIMCHECK
 70
     0
  9
$BLIPMODE
 70
     0
  9
$CHAMFERA
 40
1.0
  9
$CHAMFERB
 40
1.0
  9
$CHAMFERC
 40
2.0
  9
$CHAMFERD
 40
0.7853981633974483
  9
$SKPOLY
 70
     0
  9
$TDCREATE
 40
2450495.493631365
  9
$TDUPDATE
 40
2458193.692386168
  9
$TDINDWG
 40
2.7540681829
  9
$TDUSRTIMER
 40
2.7540681829
  9
$USRTIMER
 70
     1
  9
$ANGBASE
 50
0.0
  9
$ANGDIR
 70
     0
  9
$PDMODE
 70
    99
  9
$PDSIZE
 40
0.0
  9
$PLINEWID
 40
0.0
  9
$COORDS
 70
     0
  9
$SPLFRAME
 70
     0
  9
$SPLINETYPE
 70
     6
  9
$SPLINESEGS
 70
     8
  9
$ATTDIA
 70
     0
  9
$ATTREQ
 70
     1
  9
$HANDLING
 70
 10241
  9
$HANDSEED
  5
16B1D
  9
$SURFTAB1
 70
     6
  9
$SURFTAB2
 70
     6
  9
$SURFTYPE
 70
     6
  9
$SURFU
 70
     6
  9
$SURFV
 70
     6
  9
$UCSNAME
  2

  9
$UCSORG
 10
0.0
 20
0.0
 30
0.0
  9
$UCSXDIR
 10
1.0
 20
0.0
 30
0.0
  9
$UCSYDIR
 10
0.0
 20
1.0
 30
0.0
  9
$PUCSNAME
  2

  9
$PUCSORG
 10
0.0
 20
0.0
 30
0.0
  9
$PUCSXDIR
 10
1.0
 20
0.0
 30
0.0
  9
$PUCSYDIR
 10
0.0
 20
1.0
 30
0.0
  9
$USERI1
 70
     0
  9
$USERI2
 70
     0
  9
$USERI3
 70
     0
  9
$USERI4
 70
     0
  9
$USERI5
 70
     0
  9
$USERR1
 40
0.0
  9
$USERR2
 40
0.0
  9
$USERR3
 40
0.0
  9
$USERR4
 40
0.0
  9
$USERR5
 40
0.0
  9
$WORLDVIEW
 70
     1
  9
$SHADEDGE
 70
     3
  9
$SHADEDIF
 70
    70
  9
$TILEMODE
 70
     0
  9
$MAXACTVP
 70
    16
  9
$PINSBASE
 10
0.0
 20
0.0
 30
0.0
  9
$PLIMCHECK
 70
     0
  9
$PEXTMIN
 10
29.03619555254135
 20
27.69602733303884
 30
0.0
  9
$PEXTMAX
 10
414.5361955525411
 20
287.6960273330388
 30
0.0
  9
$PLIMMIN
 10
15.15433780389673
 20
13.80781516542163
  9
$PLIMMAX
 10
435.1009930773342
 20
310.8184658001872
  9
$UNITMODE
 70
     0
  9
$VISRETAIN
 70
     0
  9
$PLINEGEN
 70
     0
  9
$PSLTSCALE
 70
     1
  9
$TREEDEPTH
 70
  3020
  9
$PICKSTYLE
 70
     1
  9
$CMLSTYLE
  2
STANDARD
  9
$CMLJUST
 70
     0
  9
$CMLSCALE
 40
1.0
  9
$PROXYGRAPHICS
 70
     1
  9
$MEASUREMENT
 70
     0
  0
ENDSEC
  0
SECTION
  2
CLASSES
  0
CLASS
  1
LWPOLYLINE
  2
AcDbPolyline
  3
AutoCAD 2000
 90
        0
280
     0
281
     1
  0
CLASS
  1
HATCH
  2
AcDbHatch
  3
AutoCAD 2000
 90
        0
280
     0
281
     1
  0
CLASS
  1
ACDBDICTIONARYWDFLT
  2
AcDbDictionaryWithDefault
  3
AutoCAD 2000
 90
        0
280
     0
281
     0
  0
CLASS
  1
ACDBPLACEHOLDER
  2
AcDbPlaceHolder
  3
AutoCAD 2000
 90
        0
280
     0
281
     0
  0
CLASS
  1
LAYOUT
  2
AcDbLayout
  3
AutoCAD 2000
 90
        0
280
     0
281
     0
  0
CLASS
  1
DICTIONARYVAR
  2
AcDbDictionaryVar
  3
AutoCAD 2000
 90
        0
280
     0
281
     0
  0
CLASS
  1
LONG_TRANSACTION
  2
AcDbLongTransaction
  3
AutoCAD 2000
 90
        0
280
     0
281
     0
  0
CLASS
  1
LWPOLYLINE
  2
AcDbPolyline
  3
AutoCAD 2000
 90
        0
280
     0
281
     1
  0
CLASS
  1
HATCH
  2
AcDbHatch
  3
AutoCAD 2000
 90
        0
280
     0
281
     1
  0
CLASS
  1
XRECORD
  2
AcDbXrecord
  3
AutoCAD 2000
 90
        0
280
     0
281
     0
  0
ENDSEC
  0
SECTION
  2
TABLES
  0
TABLE
  2
VPORT
  5
8
330
0
100
AcDbSymbolTable
 70
     1
  0
VPORT
  5
16AAA
330
8
100
AcDbSymbolTableRecord
100
AcDbViewportTableRecord
  2
*ACTIVE
 70
     0
 10
0.0
 20
0.0
 11
1.0
 21
1.0
 12
-1665.742857688964
 22
2055.650374322334
 13
0.0
 23
0.0
 14
5.0
 24
5.0
 15
0.0
 25
0.0
 16
0.0
 26
0.0
 36
1.0
 17
0.0
 27
0.0
 37
0.0
 40
175.8829388630583
 41
1.781954887218045
 42
50.0
 43
0.0
 44
0.0
 50
0.0
 51
0.0
 71
     0
 72
   100
 73
     1
 74
     0
 75
     0
 76
     0
 77
     0
 78
     0
  0
ENDTAB
  0
TABLE
  2
LTYPE
  5
5
330
0
100
AcDbSymbolTable
 70
     2
  0
LTYPE
  5
14
330
5
100
AcDbSymbolTableRecord
100
AcDbLinetypeTableRecord
  2
BYBLOCK
 70
     0
  3

 72
    65
 73
     0
 40
0.0
  0
LTYPE
  5
15
330
5
100
AcDbSymbolTableRecord
100
AcDbLinetypeTableRecord
  2
BYLAYER
 70
     0
  3

 72
    65
 73
     0
 40
0.0
  0
LTYPE
  5
16
330
5
100
AcDbSymbolTableRecord
100
AcDbLinetypeTableRecord
  2
CONTINUOUS
 70
     0
  3
Solid line
 72
    65
 73
     0
 40
0.0
  0
LTYPE
  5
1956
330
5
100
AcDbSymbolTableRecord
100
AcDbLinetypeTableRecord
  2
CENTERX2
 70
     0
  3
________  __  ________  __  ________  __  _____
 72
    65
 73
     4
 40
4.0
 49
2.5
 74
     0
 49
-0.5
 74
     0
 49
0.5
 74
     0
 49
-0.5
 74
     0
  0
ENDTAB
  0
TABLE
  2
LAYER
  5
2
330
0
100
AcDbSymbolTable
 70
     6
  0
LAYER
  5
F
330
2
100
AcDbSymbolTableRecord
100
AcDbLayerTableRecord
  2
0
 70
     0
 62
     7
  6
CONTINUOUS
  0
LAYER
  5
18F
330
2
100
AcDbSymbolTableRecord
100
AcDbLayerTableRecord
  2
ZISSEN1
 70
     0
 62
     7
  6
CONTINUOUS
  0
LAYER
  5
529
330
2
100
AcDbSymbolTableRecord
100
AcDbLayerTableRecord
  2
SUNPOU
 70
     0
 62
     1
  6
CONTINUOUS
  0
LAYER
  5
195A
330
2
100
AcDbSymbolTableRecord
100
AcDbLayerTableRecord
  2
CL1
 70
     0
 62
   210
  6
CENTERX2
  0
LAYER
  5
3A9B
330
2
100
AcDbSymbolTableRecord
100
AcDbLayerTableRecord
  2
DEFPOINTS
 70
     0
 62
     7
  6
CONTINUOUS
  0
LAYER
  5
15F24
330
2
100
AcDbSymbolTableRecord
100
AcDbLayerTableRecord
  2
_2-4_PARTS1
 70
     0
 62
     7
  6
CONTINUOUS
  0
ENDTAB
  0
TABLE
  2
STYLE
  5
3
330
0
100
AcDbSymbolTable
 70
     2
  0
STYLE
  5
10
330
3
100
AcDbSymbolTableRecord
100
AcDbTextStyleTableRecord
  2
STANDARD
 70
     0
 40
0.0
 41
1.0
 50
0.0
 71
     0
 42
3.0
  3
txt
  4
BigFont
  0
STYLE
  5
1960
330
3
100
AcDbSymbolTableRecord
100
AcDbTextStyleTableRecord
  2
ゴシック体
 70
     0
 40
0.0
 41
1.0
 50
0.0
 71
     0
 42
2.5
  3
MS Gothic.ttf
  4

1001
ACAD
1000
MS Gothic
1071
    32817
  0
ENDTAB
  0
TABLE
  2
VIEW
  5
6
330
0
100
AcDbSymbolTable
 70
     0
  0
ENDTAB
  0
TABLE
  2
UCS
  5
7
330
0
100
AcDbSymbolTable
 70
     0
  0
ENDTAB
  0
TABLE
  2
APPID
  5
9
330
0
100
AcDbSymbolTable
 70
     5
  0
APPID
  5
11
330
9
100
AcDbSymbolTableRecord
100
AcDbRegAppTableRecord
  2
ACAD
 70
     0
  0
APPID
  5
4005
330
9
100
AcDbSymbolTableRecord
100
AcDbRegAppTableRecord
  2
CONTENTTABDATA
 70
     0
  0
APPID
  5
4006
330
9
100
AcDbSymbolTableRecord
100
AcDbRegAppTableRecord
  2
CONTENTCURRENTTAB
 70
     0
  0
APPID
  5
477B
330
9
100
AcDbSymbolTableRecord
100
AcDbRegAppTableRecord
  2
CONTENTBLOCKDESCRIPTION
 70
     0
  0
APPID
  5
477C
330
9
100
AcDbSymbolTableRecord
100
AcDbRegAppTableRecord
  2
CONTENTBLOCKICON
 70
     0
  0
ENDTAB
  0
TABLE
  2
DIMSTYLE
  5
A
330
0
100
AcDbSymbolTable
 70
     2
  0
DIMSTYLE
105
1D
330
A
100
AcDbSymbolTableRecord
100
AcDbDimStyleTableRecord
  2
STANDARD
 70
     0
  3

  4

  5

  6

  7

 40
1.0
 41
0.18
 42
0.0625
 43
0.38
 44
0.18
 45
0.0
 46
0.0
 47
0.0
 48
0.0
140
0.18
141
0.09
142
0.0
143
25.4
144
1.0
145
0.0
146
1.0
147
0.09
 71
     0
 72
     0
 73
     1
 74
     1
 75
     0
 76
     0
 77
     0
 78
     0
170
     0
171
     2
172
     0
173
     0
174
     0
175
     0
176
     0
177
     0
178
     0
270
     2
271
     4
272
     4
273
     2
274
     2
340
10
275
     0
280
     0
281
     0
282
     0
283
     1
284
     0
285
     0
286
     0
287
     3
288
     0
  0
DIMSTYLE
105
52E
102
{ACAD_REACTORS
330
16891
330
168AC
330
168C7
330
168E6
330
16919
330
16935
330
16928
330
169B7
330
169C4
330
169A8
330
16A0A
330
16A18
330
16A3B
330
16A55
330
16A62
102
}
330
A
100
AcDbSymbolTableRecord
100
AcDbDimStyleTableRecord
  2
標準スタイル
 70
     0
  3

  4

  5

  6

  7

 40
0.0
 41
3.0
 42
0.5
 43
0.5
 44
0.5
 45
0.0
 46
0.0
 47
0.0
 48
0.0
140
3.5
141
0.0
142
0.0
143
25.4
144
1.0
145
0.0
146
1.0
147
1.0
 71
     0
 72
     0
 73
     0
 74
     0
 75
     0
 76
     0
 77
     1
 78
     8
170
     0
171
     2
172
     1
173
     0
174
     0
175
     0
176
     1
177
     1
178
     1
270
     2
271
     2
272
     2
273
     2
274
     2
340
1960
275
     0
280
     0
281
     0
282
     0
283
     1
284
     8
285
     0
286
     0
287
     3
288
     0
  0
ENDTAB
  0
TABLE
  2
BLOCK_RECORD
  5
1
330
0
100
AcDbSymbolTable
 70
    18
  0
BLOCK_RECORD
  5
1A
102
{ACAD_XDICTIONARY
360
16AD0
102
}
330
1
100
AcDbSymbolTableRecord
100
AcDbBlockTableRecord
  2
*MODEL_SPACE
  0
BLOCK_RECORD
  5
15176
102
{ACAD_XDICTIONARY
360
16AD2
102
}
330
1
100
AcDbSymbolTableRecord
100
AcDbBlockTableRecord
  2
*PAPER_SPACE
  0
BLOCK_RECORD
  5
15EFE
330
1
100
AcDbSymbolTableRecord
100
AcDbBlockTableRecord
  2
-000-51103-1200_A
  0
BLOCK_RECORD
  5
15F08
330
1
100
AcDbSymbolTableRecord
100
AcDbBlockTableRecord
  2
-001-51067_C
  0
BLOCK_RECORD
  5
15F15
330
1
100
AcDbSymbolTableRecord
100
AcDbBlockTableRecord
  2
-002-51103_C
  0
BLOCK_RECORD
  5
16892
330
1
100
AcDbSymbolTableRecord
100
AcDbBlockTableRecord
  2
*D3
  0
BLOCK_RECORD
  5
168AD
330
1
100
AcDbSymbolTableRecord
100
AcDbBlockTableRecord
  2
*D4
  0
BLOCK_RECORD
  5
168C8
330
1
100
AcDbSymbolTableRecord
100
AcDbBlockTableRecord
  2
*D5
  0
BLOCK_RECORD
  5
168E7
330
1
100
AcDbSymbolTableRecord
100
AcDbBlockTableRecord
  2
*D6
  0
BLOCK_RECORD
  5
1691A
330
1
100
AcDbSymbolTableRecord
100
AcDbBlockTableRecord
  2
*D7
  0
BLOCK_RECORD
  5
16929
330
1
100
AcDbSymbolTableRecord
100
AcDbBlockTableRecord
  2
*D8
  0
BLOCK_RECORD
  5
16936
330
1
100
AcDbSymbolTableRecord
100
AcDbBlockTableRecord
  2
*D9
  0
BLOCK_RECORD
  5
169A9
330
1
100
AcDbSymbolTableRecord
100
AcDbBlockTableRecord
  2
*D10
  0
BLOCK_RECORD
  5
169B8
330
1
100
AcDbSymbolTableRecord
100
AcDbBlockTableRecord
  2
*D11
  0
BLOCK_RECORD
  5
169C5
330
1
100
AcDbSymbolTableRecord
100
AcDbBlockTableRecord
  2
*D12
  0
BLOCK_RECORD
  5
16A0B
330
1
100
AcDbSymbolTableRecord
100
AcDbBlockTableRecord
  2
*D13
  0
BLOCK_RECORD
  5
16A19
330
1
100
AcDbSymbolTableRecord
100
AcDbBlockTableRecord
  2
*D14
  0
BLOCK_RECORD
  5
16A3C
330
1
100
AcDbSymbolTableRecord
100
AcDbBlockTableRecord
  2
*D15
  0
BLOCK_RECORD
  5
16A56
330
1
100
AcDbSymbolTableRecord
100
AcDbBlockTableRecord
  2
*D16
  0
BLOCK_RECORD
  5
16A63
330
1
100
AcDbSymbolTableRecord
100
AcDbBlockTableRecord
  2
*D17
  0
ENDTAB
  0
ENDSEC
  0
SECTION
  2
BLOCKS
  0
BLOCK
  5
1B
330
1A
100
AcDbEntity
  8
0
100
AcDbBlockBegin
  2
*MODEL_SPACE
 70
     0
 10
0.0
 20
0.0
 30
0.0
  3
*MODEL_SPACE
  1

  0
ENDBLK
  5
1C
330
1A
100
AcDbEntity
  8
0
100
AcDbBlockEnd
  0
BLOCK
  5
1517A
330
15176
100
AcDbEntity
 67
     1
  8
0
100
AcDbBlockBegin
  2
*PAPER_SPACE
 70
     0
 10
0.0
 20
0.0
 30
0.0
  3
*PAPER_SPACE
  1

  0
ENDBLK
  5
1517B
330
15176
100
AcDbEntity
 67
     1
  8
0
100
AcDbBlockEnd
  0
BLOCK
  5
15F06
330
15EFE
100
AcDbEntity
  8
0
100
AcDbBlockBegin
  2
-000-51103-1200_A
 70
     0
 10
0.0
 20
0.0
 30
0.0
  3
-000-51103-1200_A
  1

  0
LINE
  5
15EFF
330
15EFE
100
AcDbEntity
  8
_2-4_PARTS1
  6
CONTINUOUS
 62
     7
100
AcDbLine
 10
16.19999999999999
 20
-0.5999999999999944
 30
0.0
 11
16.19999999999999
 21
0.4000000000000055
 31
0.0
  0
LINE
  5
15F00
330
15EFE
100
AcDbEntity
  8
_2-4_PARTS1
  6
CONTINUOUS
 62
     7
100
AcDbLine
 10
16.19999999999999
 20
0.4000000000000055
 30
0.0
 11
15.69999999999998
 21
0.4000000000000055
 31
0.0
  0
LINE
  5
15F01
330
15EFE
100
AcDbEntity
  8
_2-4_PARTS1
  6
CONTINUOUS
 62
     7
100
AcDbLine
 10
-16.19999999999999
 20
-0.5999999999999944
 30
0.0
 11
-16.19999999999999
 21
0.4000000000000055
 31
0.0
  0
LINE
  5
15F02
330
15EFE
100
AcDbEntity
  8
_2-4_PARTS1
  6
CONTINUOUS
 62
     7
100
AcDbLine
 10
-16.19999999999999
 20
0.4000000000000055
 30
0.0
 11
-15.69999999999998
 21
0.4000000000000055
 31
0.0
  0
LINE
  5
15F03
330
15EFE
100
AcDbEntity
  8
_2-4_PARTS1
  6
CONTINUOUS
 62
     7
100
AcDbLine
 10
-16.19999999999999
 20
-0.5999999999999944
 30
0.0
 11
16.19999999999999
 21
-0.5999999999999944
 31
0.0
  0
LINE
  5
15F04
330
15EFE
100
AcDbEntity
  8
_2-4_PARTS1
  6
CONTINUOUS
 62
     7
100
AcDbLine
 10
15.69999999999998
 20
0.4000000000000055
 30
0.0
 11
15.69999999999998
 21
2.25
 31
0.0
  0
LINE
  5
15F05
330
15EFE
100
AcDbEntity
  8
_2-4_PARTS1
  6
CONTINUOUS
 62
     7
100
AcDbLine
 10
-15.69999999999998
 20
0.4000000000000055
 30
0.0
 11
-15.69999999999998
 21
2.25
 31
0.0
  0
ENDBLK
  5
15F07
330
15EFE
100
AcDbEntity
  8
0
100
AcDbBlockEnd
  0
BLOCK
  5
15F13
330
15F08
100
AcDbEntity
  8
0
100
AcDbBlockBegin
  2
-001-51067_C
 70
     0
 10
0.0
 20
0.0
 30
0.0
  3
-001-51067_C
  1

  0
LINE
  5
15F09
330
15F08
100
AcDbEntity
  8
_2-4_PARTS1
  6
CONTINUOUS
 62
     7
100
AcDbLine
 10
-0.3749999999999431
 20
2.0
 30
0.0
 11
-0.3749999999999431
 21
4.300000000000011
 31
0.0
  0
LINE
  5
15F0A
330
15F08
100
AcDbEntity
  8
_2-4_PARTS1
  6
CONTINUOUS
 62
     7
100
AcDbLine
 10
-0.3749999999999431
 20
4.300000000000011
 30
0.0
 11
0.625000000000057
 21
4.300000000000011
 31
0.0
  0
LINE
  5
15F0B
330
15F08
100
AcDbEntity
  8
_2-4_PARTS1
  6
CONTINUOUS
 62
     7
100
AcDbLine
 10
0.625000000000057
 20
4.300000000000011
 30
0.0
 11
0.625000000000057
 21
3.80000000000001
 31
0.0
  0
LINE
  5
15F0C
330
15F08
100
AcDbEntity
  8
_2-4_PARTS1
  6
CONTINUOUS
 62
     7
100
AcDbLine
 10
0.625000000000057
 20
-5.099999999999993
 30
0.0
 11
0.625000000000057
 21
-4.599999999999993
 31
0.0
  0
LINE
  5
15F0D
330
15F08
100
AcDbEntity
  8
_2-4_PARTS1
  6
CONTINUOUS
 62
     7
100
AcDbLine
 10
-0.8749999999999429
 20
-5.099999999999993
 30
0.0
 11
0.625000000000057
 21
-5.099999999999993
 31
0.0
  0
LINE
  5
15F0E
330
15F08
100
AcDbEntity
  8
_2-4_PARTS1
  6
CONTINUOUS
 62
     7
100
AcDbLine
 10
-0.8749999999999429
 20
-5.099999999999993
 30
0.0
 11
-0.8749999999999429
 21
2.0
 31
0.0
  0
LINE
  5
15F0F
330
15F08
100
AcDbEntity
  8
_2-4_PARTS1
  6
CONTINUOUS
 62
     7
100
AcDbLine
 10
0.625000000000057
 20
-4.599999999999993
 30
0.0
 11
5.125000000000056
 21
-4.599999999999993
 31
0.0
  0
LINE
  5
15F10
330
15F08
100
AcDbEntity
  8
_2-4_PARTS1
  6
CONTINUOUS
 62
     7
100
AcDbLine
 10
5.125000000000056
 20
2.0
 30
0.0
 11
-0.8749999999999429
 21
2.0
 31
0.0
  0
LINE
  5
15F11
330
15F08
100
AcDbEntity
  8
_2-4_PARTS1
  6
CONTINUOUS
 62
     7
100
AcDbLine
 10
0.625000000000057
 20
3.80000000000001
 30
0.0
 11
9.625000000000056
 21
3.80000000000001
 31
0.0
  0
LINE
  5
15F12
330
15F08
100
AcDbEntity
  8
_2-4_PARTS1
  6
CONTINUOUS
 62
     7
100
AcDbLine
 10
9.625000000000056
 20
3.80000000000001
 30
0.0
 11
11.62500000000004
 21
2.5
 31
0.0
  0
ENDBLK
  5
15F14
330
15F08
100
AcDbEntity
  8
0
100
AcDbBlockEnd
  0
BLOCK
  5
15F1E
330
15F15
100
AcDbEntity
  8
0
100
AcDbBlockBegin
  2
-002-51103_C
 70
     0
 10
0.0
 20
0.0
 30
0.0
  3
-002-51103_C
  1

  0
LINE
  5
15F16
330
15F15
100
AcDbEntity
  8
_2-4_PARTS1
  6
CONTINUOUS
 62
     7
100
AcDbLine
 10
-0.5999999999999997
 20
3.599999999999993
 30
0.0
 11
0.4000000000000003
 21
3.599999999999993
 31
0.0
  0
LINE
  5
15F17
330
15F15
100
AcDbEntity
  8
_2-4_PARTS1
  6
CONTINUOUS
 62
     7
100
AcDbLine
 10
0.4000000000000003
 20
3.599999999999993
 30
0.0
 11
0.4000000000000003
 21
3.099999999999993
 31
0.0
  0
LINE
  5
15F18
330
15F15
100
AcDbEntity
  8
_2-4_PARTS1
  6
CONTINUOUS
 62
     7
100
AcDbLine
 10
-0.5999999999999997
 20
3.599999999999993
 30
0.0
 11
-0.5999999999999997
 21
-3.599999999999993
 31
0.0
  0
LINE
  5
15F19
330
15F15
100
AcDbEntity
  8
_2-4_PARTS1
  6
CONTINUOUS
 62
     7
100
AcDbLine
 10
-0.5999999999999997
 20
-3.599999999999993
 30
0.0
 11
0.4000000000000003
 21
-3.599999999999993
 31
0.0
  0
LINE
  5
15F1A
330
15F15
100
AcDbEntity
  8
_2-4_PARTS1
  6
CONTINUOUS
 62
     7
100
AcDbLine
 10
0.4000000000000003
 20
-3.099999999999993
 30
0.0
 11
0.4000000000000003
 21
-3.599999999999993
 31
0.0
  0
LINE
  5
15F1B
330
15F15
100
AcDbEntity
  8
_2-4_PARTS1
  6
CONTINUOUS
 62
     7
100
AcDbLine
 10
0.4000000000000003
 20
-3.099999999999993
 30
0.0
 11
2.249999999999993
 21
-3.099999999999993
 31
0.0
  0
LINE
  5
15F1C
330
15F15
100
AcDbEntity
  8
_2-4_PARTS1
  6
CONTINUOUS
 62
     7
100
AcDbLine
 10
0.4000000000000003
 20
3.099999999999993
 30
0.0
 11
8.4
 21
3.099999999999993
 31
0.0
  0
LINE
  5
15F1D
330
15F15
100
AcDbEntity
  8
_2-4_PARTS1
  6
CONTINUOUS
 62
     7
100
AcDbLine
 10
8.4
 20
3.099999999999993
 30
0.0
 11
8.4
 21
2.799999999999982
 31
0.0
  0
ENDBLK
  5
15F1F
330
15F15
100
AcDbEntity
  8
0
100
AcDbBlockEnd
  0
BLOCK
  5
1689E
330
16892
100
AcDbEntity
  8
0
100
AcDbBlockBegin
  2
*D3
 70
     1
 10
0.0
 20
0.0
 30
0.0
  3
*D3
  1

  0
LINE
  5
168A0
330
16892
100
AcDbEntity
  8
SUNPOU
 62
     1
100
AcDbLine
 10
-1631.749104708595
 20
2133.120328273292
 30
0.0
 11
-1631.749104708595
 21
2138.547513113644
 31
0.0
  0
LINE
  5
168A1
330
16892
100
AcDbEntity
  8
SUNPOU
 62
     1
100
AcDbLine
 10
-1628.249104708595
 20
2133.120328273292
 30
0.0
 11
-1628.249104708595
 21
2138.547513113644
 31
0.0
  0
LINE
  5
168A2
330
16892
100
AcDbEntity
  8
SUNPOU
 62
     1
100
AcDbLine
 10
-1634.749104708595
 20
2138.047513113645
 30
0.0
 11
-1637.749104708595
 21
2138.047513113645
 31
0.0
  0
LINE
  5
168A3
330
16892
100
AcDbEntity
  8
SUNPOU
 62
     1
100
AcDbLine
 10
-1625.249104708595
 20
2138.047513113645
 30
0.0
 11
-1613.249104708595
 21
2138.047513113645
 31
0.0
  0
LINE
  5
168A4
330
16892
100
AcDbEntity
  8
SUNPOU
 62
     1
100
AcDbLine
 10
-1631.749104708595
 20
2138.047513113645
 30
0.0
 11
-1628.249104708595
 21
2138.047513113645
 31
0.0
  0
SOLID
  5
168A5
330
16892
100
AcDbEntity
  8
SUNPOU
 62
     1
100
AcDbTrace
 10
-1634.749104708595
 20
2138.547513113644
 30
0.0
 11
-1634.749104708595
 21
2137.547513113644
 31
0.0
 12
-1631.749104708595
 22
2138.047513113645
 32
0.0
 13
-1631.749104708595
 23
2138.047513113645
 33
0.0
  0
SOLID
  5
168A6
330
16892
100
AcDbEntity
  8
SUNPOU
 62
     1
100
AcDbTrace
 10
-1625.249104708595
 20
2138.547513113644
 30
0.0
 11
-1625.249104708595
 21
2137.547513113644
 31
0.0
 12
-1628.249104708595
 22
2138.047513113645
 32
0.0
 13
-1628.249104708595
 23
2138.047513113645
 33
0.0
  0
MTEXT
  5
168A7
330
16892
100
AcDbEntity
  8
SUNPOU
 62
     1
100
AcDbMText
 10
-1617.749104708595
 20
2140.797513113644
 30
0.0
 40
3.5
 41
0.0
 71
     5
 72
     1
  1
\A1;3.5
1001
ACAD
1000
MTEXTBEGIN
1070
    73
1070
     1
1070
    44
1040
1.0
1070
    74
1070
     0
1000
MTEXTEND
  0
POINT
  5
168A8
330
16892
100
AcDbEntity
  8
DEFPOINTS
 62
     0
100
AcDbPoint
 10
-1631.749104708595
 20
2132.620328273292
 30
0.0
  0
POINT
  5
168A9
330
16892
100
AcDbEntity
  8
DEFPOINTS
 62
     0
100
AcDbPoint
 10
-1628.249104708595
 20
2132.620328273292
 30
0.0
  0
POINT
  5
168AA
330
16892
100
AcDbEntity
  8
DEFPOINTS
 62
     0
100
AcDbPoint
 10
-1628.249104708595
 20
2138.047513113645
 30
0.0
  0
ENDBLK
  5
1689F
330
16892
100
AcDbEntity
  8
0
100
AcDbBlockEnd
  0
BLOCK
  5
168B9
330
168AD
100
AcDbEntity
  8
0
100
AcDbBlockBegin
  2
*D4
 70
     1
 10
0.0
 20
0.0
 30
0.0
  3
*D4
  1

  0
LINE
  5
168BC
330
168AD
100
AcDbEntity
  8
SUNPOU
 62
     1
100
AcDbLine
 10
-1730.749104708594
 20
2133.120328273292
 30
0.0
 11
-1730.749104708594
 21
2138.547244413979
 31
0.0
  0
LINE
  5
168BD
330
168AD
100
AcDbEntity
  8
SUNPOU
 62
     1
100
AcDbLine
 10
-1727.249104708595
 20
2133.120328273292
 30
0.0
 11
-1727.249104708595
 21
2138.547244413979
 31
0.0
  0
LINE
  5
168BE
330
168AD
100
AcDbEntity
  8
SUNPOU
 62
     1
100
AcDbLine
 10
-1733.749104708595
 20
2138.047244413979
 30
0.0
 11
-1736.749104708595
 21
2138.047244413979
 31
0.0
  0
LINE
  5
168BF
330
168AD
100
AcDbEntity
  8
SUNPOU
 62
     1
100
AcDbLine
 10
-1724.249104708595
 20
2138.047244413979
 30
0.0
 11
-1712.249104708595
 21
2138.047244413979
 31
0.0
  0
LINE
  5
168C0
330
168AD
100
AcDbEntity
  8
SUNPOU
 62
     1
100
AcDbLine
 10
-1730.749104708594
 20
2138.047244413979
 30
0.0
 11
-1727.249104708595
 21
2138.047244413979
 31
0.0
  0
SOLID
  5
168C1
330
168AD
100
AcDbEntity
  8
SUNPOU
 62
     1
100
AcDbTrace
 10
-1733.749104708595
 20
2138.547244413979
 30
0.0
 11
-1733.749104708595
 21
2137.547244413979
 31
0.0
 12
-1730.749104708594
 22
2138.047244413979
 32
0.0
 13
-1730.749104708594
 23
2138.047244413979
 33
0.0
  0
SOLID
  5
168C2
330
168AD
100
AcDbEntity
  8
SUNPOU
 62
     1
100
AcDbTrace
 10
-1724.249104708595
 20
2138.547244413979
 30
0.0
 11
-1724.249104708595
 21
2137.547244413979
 31
0.0
 12
-1727.249104708595
 22
2138.047244413979
 32
0.0
 13
-1727.249104708595
 23
2138.047244413979
 33
0.0
  0
MTEXT
  5
168C3
330
168AD
100
AcDbEntity
  8
SUNPOU
 62
     1
100
AcDbMText
 10
-1716.749104708594
 20
2140.797244413979
 30
0.0
 40
3.5
 41
0.0
 71
     5
 72
     1
  1
\A1;3.5
1001
ACAD
1000
MTEXTBEGIN
1070
    73
1070
     1
1070
    44
1040
1.0
1070
    74
1070
     0
1000
MTEXTEND
  0
POINT
  5
168C4
330
168AD
100
AcDbEntity
  8
DEFPOINTS
 62
     0
100
AcDbPoint
 10
-1730.749104708594
 20
2132.620328273292
 30
0.0
  0
POINT
  5
168C5
330
168AD
100
AcDbEntity
  8
DEFPOINTS
 62
     0
100
AcDbPoint
 10
-1727.249104708595
 20
2132.620328273292
 30
0.0
  0
POINT
  5
168C6
330
168AD
100
AcDbEntity
  8
DEFPOINTS
 62
     0
100
AcDbPoint
 10
-1727.249104708595
 20
2138.047244413979
 30
0.0
  0
ENDBLK
  5
168BA
330
168AD
100
AcDbEntity
  8
0
100
AcDbBlockEnd
  0
BLOCK
  5
168D2
330
168C8
100
AcDbEntity
  8
0
100
AcDbBlockBegin
  2
*D5
 70
     1
 10
0.0
 20
0.0
 30
0.0
  3
*D5
  1

  0
LINE
  5
168DD
330
168C8
100
AcDbEntity
  8
SUNPOU
 62
     1
100
AcDbLine
 10
-1615.999104708595
 20
2038.120328273292
 30
0.0
 11
-1615.999104708595
 21
2030.818299481707
 31
0.0
  0
LINE
  5
168DE
330
168C8
100
AcDbEntity
  8
SUNPOU
 62
     1
100
AcDbLine
 10
-1629.999104708595
 20
2037.620328273292
 30
0.0
 11
-1629.999104708595
 21
2030.818299481707
 31
0.0
  0
LINE
  5
168DF
330
168C8
100
AcDbEntity
  8
SUNPOU
 62
     1
100
AcDbLine
 10
-1618.999104708595
 20
2031.318299481707
 30
0.0
 11
-1626.999104708595
 21
2031.318299481707
 31
0.0
  0
SOLID
  5
168E0
330
168C8
100
AcDbEntity
  8
SUNPOU
 62
     1
100
AcDbTrace
 10
-1618.999104708595
 20
2031.818299481707
 30
0.0
 11
-1618.999104708595
 21
2030.818299481707
 31
0.0
 12
-1615.999104708595
 22
2031.318299481707
 32
0.0
 13
-1615.999104708595
 23
2031.318299481707
 33
0.0
  0
SOLID
  5
168E1
330
168C8
100
AcDbEntity
  8
SUNPOU
 62
     1
100
AcDbTrace
 10
-1626.999104708595
 20
2031.818299481707
 30
0.0
 11
-1626.999104708595
 21
2030.818299481707
 31
0.0
 12
-1629.999104708595
 22
2031.318299481707
 32
0.0
 13
-1629.999104708595
 23
2031.318299481707
 33
0.0
  0
MTEXT
  5
168E2
330
168C8
100
AcDbEntity
  8
SUNPOU
 62
     1
100
AcDbMText
 10
-1622.999104708594
 20
2034.068299481707
 30
0.0
 40
3.5
 41
0.0
 71
     5
 72
     1
  1
\A1;14
1001
ACAD
1000
MTEXTBEGIN
1070
    73
1070
     1
1070
    44
1040
1.0
1070
    74
1070
     0
1000
MTEXTEND
  0
POINT
  5
168E3
330
168C8
100
AcDbEntity
  8
DEFPOINTS
 62
     0
100
AcDbPoint
 10
-1615.999104708595
 20
2038.620328273292
 30
0.0
  0
POINT
  5
168E4
330
168C8
100
AcDbEntity
  8
DEFPOINTS
 62
     0
100
AcDbPoint
 10
-1629.999104708595
 20
2038.120328273292
 30
0.0
  0
POINT
  5
168E5
330
168C8
100
AcDbEntity
  8
DEFPOINTS
 62
     0
100
AcDbPoint
 10
-1629.999104708595
 20
2031.318299481707
 30
0.0
  0
ENDBLK
  5
168D3
330
168C8
100
AcDbEntity
  8
0
100
AcDbBlockEnd
  0
BLOCK
  5
168F1
330
168E7
100
AcDbEntity
  8
0
100
AcDbBlockBegin
  2
*D6
 70
     1
 10
0.0
 20
0.0
 30
0.0
  3
*D6
  1

  0
LINE
  5
168F3
330
168E7
100
AcDbEntity
  8
SUNPOU
 62
     1
100
AcDbLine
 10
-1615.999104708595
 20
2037.620328273292
 30
0.0
 11
-1615.999104708595
 21
2021.068210186516
 31
0.0
  0
LINE
  5
168F4
330
168E7
100
AcDbEntity
  8
SUNPOU
 62
     1
100
AcDbLine
 10
-1643.999104708595
 20
2039.120328273292
 30
0.0
 11
-1643.999104708595
 21
2021.068210186516
 31
0.0
  0
LINE
  5
168F5
330
168E7
100
AcDbEntity
  8
SUNPOU
 62
     1
100
AcDbLine
 10
-1618.999104708595
 20
2021.568210186516
 30
0.0
 11
-1640.999104708595
 21
2021.568210186516
 31
0.0
  0
SOLID
  5
168F6
330
168E7
100
AcDbEntity
  8
SUNPOU
 62
     1
100
AcDbTrace
 10
-1618.999104708595
 20
2022.068210186515
 30
0.0
 11
-1618.999104708595
 21
2021.068210186516
 31
0.0
 12
-1615.999104708595
 22
2021.568210186516
 32
0.0
 13
-1615.999104708595
 23
2021.568210186516
 33
0.0
  0
SOLID
  5
168F7
330
168E7
100
AcDbEntity
  8
SUNPOU
 62
     1
100
AcDbTrace
 10
-1640.999104708595
 20
2022.068210186515
 30
0.0
 11
-1640.999104708595
 21
2021.068210186516
 31
0.0
 12
-1643.999104708595
 22
2021.568210186516
 32
0.0
 13
-1643.999104708595
 23
2021.568210186516
 33
0.0
  0
MTEXT
  5
168F8
330
168E7
100
AcDbEntity
  8
SUNPOU
 62
     1
100
AcDbMText
 10
-1629.999104708595
 20
2024.318210186515
 30
0.0
 40
3.5
 41
0.0
 71
     5
 72
     1
  1
\A1;28
1001
ACAD
1000
MTEXTBEGIN
1070
    73
1070
     1
1070
    44
1040
1.0
1070
    74
1070
     0
1000
MTEXTEND
  0
POINT
  5
168F9
330
168E7
100
AcDbEntity
  8
DEFPOINTS
 62
     0
100
AcDbPoint
 10
-1615.999104708595
 20
2038.120328273292
 30
0.0
  0
POINT
  5
168FA
330
168E7
100
AcDbEntity
  8
DEFPOINTS
 62
     0
100
AcDbPoint
 10
-1643.999104708595
 20
2039.620328273292
 30
0.0
  0
POINT
  5
168FB
330
168E7
100
AcDbEntity
  8
DEFPOINTS
 62
     0
100
AcDbPoint
 10
-1643.999104708595
 20
2021.568210186516
 30
0.0
  0
ENDBLK
  5
168F2
330
168E7
100
AcDbEntity
  8
0
100
AcDbBlockEnd
  0
BLOCK
  5
16926
330
1691A
100
AcDbEntity
  8
0
100
AcDbBlockBegin
  2
*D7
 70
     1
 10
0.0
 20
0.0
 30
0.0
  3
*D7
  1

  0
LINE
  5
16AD4
330
1691A
100
AcDbEntity
  8
SUNPOU
 62
     1
100
AcDbLine
 10
-1643.499104708595
 20
2132.620328273292
 30
0.0
 11
-1651.168609368784
 21
2132.620328273292
 31
0.0
  0
LINE
  5
16AD5
330
1691A
100
AcDbEntity
  8
SUNPOU
 62
     1
100
AcDbLine
 10
-1633.499104708595
 20
2130.120328273292
 30
0.0
 11
-1651.168609368784
 21
2130.120328273292
 31
0.0
  0
LINE
  5
16AD6
330
1691A
100
AcDbEntity
  8
SUNPOU
 62
     1
100
AcDbLine
 10
-1650.668609368784
 20
2135.620328273292
 30
0.0
 11
-1650.668609368784
 21
2138.620328273292
 31
0.0
  0
LINE
  5
16AD7
330
1691A
100
AcDbEntity
  8
SUNPOU
 62
     1
100
AcDbLine
 10
-1650.668609368784
 20
2127.120328273292
 30
0.0
 11
-1650.668609368784
 21
2124.120328273292
 31
0.0
  0
MTEXT
  5
16AD8
330
1691A
100
AcDbEntity
  8
SUNPOU
 62
     1
100
AcDbMText
 10
-1653.756068813632
 20
2135.999013785319
 30
0.0
 40
3.5
 41
0.0
 71
     5
 72
     1
  1
\A1;2.5
 11
0.0000000000000001
 21
1.0
 31
0.0
  0
LINE
  5
16AD9
330
1691A
100
AcDbEntity
  8
SUNPOU
 62
     1
100
AcDbLine
 10
-1650.668609368784
 20
2132.620328273292
 30
0.0
 11
-1650.668609368784
 21
2130.120328273292
 31
0.0
  0
SOLID
  5
16ADA
330
1691A
100
AcDbEntity
  8
SUNPOU
 62
     1
100
AcDbTrace
 10
-1651.168609368784
 20
2135.620328273292
 30
0.0
 11
-1650.168609368784
 21
2135.620328273292
 31
0.0
 12
-1650.668609368784
 22
2132.620328273292
 32
0.0
 13
-1650.668609368784
 23
2132.620328273292
 33
0.0
  0
SOLID
  5
16ADB
330
1691A
100
AcDbEntity
  8
SUNPOU
 62
     1
100
AcDbTrace
 10
-1651.168609368784
 20
2127.120328273292
 30
0.0
 11
-1650.168609368784
 21
2127.120328273292
 31
0.0
 12
-1650.668609368784
 22
2130.120328273292
 32
0.0
 13
-1650.668609368784
 23
2130.120328273292
 33
0.0
  0
POINT
  5
16ADC
330
1691A
100
AcDbEntity
  8
DEFPOINTS
 62
     0
100
AcDbPoint
 10
-1642.999104708595
 20
2132.620328273292
 30
0.0
  0
POINT
  5
16ADD
330
1691A
100
AcDbEntity
  8
DEFPOINTS
 62
     0
100
AcDbPoint
 10
-1632.999104708595
 20
2130.120328273292
 30
0.0
  0
POINT
  5
16ADE
330
1691A
100
AcDbEntity
  8
DEFPOINTS
 62
     0
100
AcDbPoint
 10
-1650.668609368784
 20
2130.120328273292
 30
0.0
  0
ENDBLK
  5
16927
330
1691A
100
AcDbEntity
  8
0
100
AcDbBlockEnd
  0
BLOCK
  5
16933
330
16929
100
AcDbEntity
  8
0
100
AcDbBlockBegin
  2
*D8
 70
     1
 10
0.0
 20
0.0
 30
0.0
  3
*D8
  1

  0
LINE
  5
16ADF
330
16929
100
AcDbEntity
  8
SUNPOU
 62
     1
100
AcDbLine
 10
-1633.499104708595
 20
2130.120328273292
 30
0.0
 11
-1651.168609368784
 21
2130.120328273292
 31
0.0
  0
LINE
  5
16AE0
330
16929
100
AcDbEntity
  8
SUNPOU
 62
     1
100
AcDbLine
 10
-1633.499104708595
 20
2041.120328273292
 30
0.0
 11
-1651.168609368784
 21
2041.120328273292
 31
0.0
  0
LINE
  5
16AE1
330
16929
100
AcDbEntity
  8
SUNPOU
 62
     1
100
AcDbLine
 10
-1650.668609368784
 20
2127.120328273292
 30
0.0
 11
-1650.668609368784
 21
2044.120328273292
 31
0.0
  0
MTEXT
  5
16AE2
330
16929
100
AcDbEntity
  8
SUNPOU
 62
     1
100
AcDbMText
 10
-1653.804855105059
 20
2086.08574872072
 30
0.0
 40
3.5
 41
0.0
 71
     5
 72
     1
  1
\A1;89
 11
0.0000000000000001
 21
1.0
 31
0.0
  0
SOLID
  5
16AE3
330
16929
100
AcDbEntity
  8
SUNPOU
 62
     1
100
AcDbTrace
 10
-1651.168609368784
 20
2127.120328273292
 30
0.0
 11
-1650.168609368784
 21
2127.120328273292
 31
0.0
 12
-1650.668609368784
 22
2130.120328273292
 32
0.0
 13
-1650.668609368784
 23
2130.120328273292
 33
0.0
  0
SOLID
  5
16AE4
330
16929
100
AcDbEntity
  8
SUNPOU
 62
     1
100
AcDbTrace
 10
-1651.168609368784
 20
2044.120328273292
 30
0.0
 11
-1650.168609368784
 21
2044.120328273292
 31
0.0
 12
-1650.668609368784
 22
2041.120328273292
 32
0.0
 13
-1650.668609368784
 23
2041.120328273292
 33
0.0
  0
POINT
  5
16AE5
330
16929
100
AcDbEntity
  8
DEFPOINTS
 62
     0
100
AcDbPoint
 10
-1632.999104708595
 20
2130.120328273292
 30
0.0
  0
POINT
  5
16AE6
330
16929
100
AcDbEntity
  8
DEFPOINTS
 62
     0
100
AcDbPoint
 10
-1632.999104708595
 20
2041.120328273292
 30
0.0
  0
POINT
  5
16AE7
330
16929
100
AcDbEntity
  8
DEFPOINTS
 62
     0
100
AcDbPoint
 10
-1650.668609368784
 20
2041.120328273292
 30
0.0
  0
ENDBLK
  5
16934
330
16929
100
AcDbEntity
  8
0
100
AcDbBlockEnd
  0
BLOCK
  5
16942
330
16936
100
AcDbEntity
  8
0
100
AcDbBlockBegin
  2
*D9
 70
     1
 10
0.0
 20
0.0
 30
0.0
  3
*D9
  1

  0
LINE
  5
16AE8
330
16936
100
AcDbEntity
  8
SUNPOU
 62
     1
100
AcDbLine
 10
-1633.499104708595
 20
2041.120328273292
 30
0.0
 11
-1651.168609368784
 21
2041.120328273292
 31
0.0
  0
LINE
  5
16AE9
330
16936
100
AcDbEntity
  8
SUNPOU
 62
     1
100
AcDbLine
 10
-1643.499104708595
 20
2038.620328273292
 30
0.0
 11
-1651.168609368784
 21
2038.620328273292
 31
0.0
  0
LINE
  5
16AEA
330
16936
100
AcDbEntity
  8
SUNPOU
 62
     1
100
AcDbLine
 10
-1650.668609368784
 20
2044.120328273292
 30
0.0
 11
-1650.668609368784
 21
2047.120328273292
 31
0.0
  0
LINE
  5
16AEB
330
16936
100
AcDbEntity
  8
SUNPOU
 62
     1
100
AcDbLine
 10
-1650.668609368784
 20
2035.620328273292
 30
0.0
 11
-1650.668609368784
 21
2032.620328273292
 31
0.0
  0
MTEXT
  5
16AEC
330
16936
100
AcDbEntity
  8
SUNPOU
 62
     1
100
AcDbMText
 10
-1653.854243071796
 20
2034.592805927369
 30
0.0
 40
3.5
 41
0.0
 71
     5
 72
     1
  1
\A1;2.5
 11
0.0000000000000001
 21
1.0
 31
0.0
  0
LINE
  5
16AED
330
16936
100
AcDbEntity
  8
SUNPOU
 62
     1
100
AcDbLine
 10
-1650.668609368784
 20
2041.120328273292
 30
0.0
 11
-1650.668609368784
 21
2038.620328273292
 31
0.0
  0
SOLID
  5
16AEE
330
16936
100
AcDbEntity
  8
SUNPOU
 62
     1
100
AcDbTrace
 10
-1651.168609368784
 20
2044.120328273292
 30
0.0
 11
-1650.168609368784
 21
2044.120328273292
 31
0.0
 12
-1650.668609368784
 22
2041.120328273292
 32
0.0
 13
-1650.668609368784
 23
2041.120328273292
 33
0.0
  0
SOLID
  5
16AEF
330
16936
100
AcDbEntity
  8
SUNPOU
 62
     1
100
AcDbTrace
 10
-1651.168609368784
 20
2035.620328273292
 30
0.0
 11
-1650.168609368784
 21
2035.620328273292
 31
0.0
 12
-1650.668609368784
 22
2038.620328273292
 32
0.0
 13
-1650.668609368784
 23
2038.620328273292
 33
0.0
  0
POINT
  5
16AF0
330
16936
100
AcDbEntity
  8
DEFPOINTS
 62
     0
100
AcDbPoint
 10
-1632.999104708595
 20
2041.120328273292
 30
0.0
  0
POINT
  5
16AF1
330
16936
100
AcDbEntity
  8
DEFPOINTS
 62
     0
100
AcDbPoint
 10
-1642.999104708595
 20
2038.620328273292
 30
0.0
  0
POINT
  5
16AF2
330
16936
100
AcDbEntity
  8
DEFPOINTS
 62
     0
100
AcDbPoint
 10
-1650.668609368784
 20
2038.620328273292
 30
0.0
  0
ENDBLK
  5
16943
330
16936
100
AcDbEntity
  8
0
100
AcDbBlockEnd
  0
BLOCK
  5
169B5
330
169A9
100
AcDbEntity
  8
0
100
AcDbBlockBegin
  2
*D10
 70
     1
 10
0.0
 20
0.0
 30
0.0
  3
*D10
  1

  0
LINE
  5
16AF3
330
169A9
100
AcDbEntity
  8
SUNPOU
 62
     1
100
AcDbLine
 10
-1736.499104708595
 20
2132.620328273292
 30
0.0
 11
-1740.227917515651
 21
2132.620328273292
 31
0.0
  0
LINE
  5
16AF4
330
169A9
100
AcDbEntity
  8
SUNPOU
 62
     1
100
AcDbLine
 10
-1736.499104708595
 20
2130.120328273292
 30
0.0
 11
-1740.227917515651
 21
2130.120328273292
 31
0.0
  0
LINE
  5
16AF5
330
169A9
100
AcDbEntity
  8
SUNPOU
 62
     1
100
AcDbLine
 10
-1739.727917515651
 20
2135.620328273292
 30
0.0
 11
-1739.727917515651
 21
2138.620328273292
 31
0.0
  0
LINE
  5
16AF6
330
169A9
100
AcDbEntity
  8
SUNPOU
 62
     1
100
AcDbLine
 10
-1739.727917515651
 20
2127.120328273292
 30
0.0
 11
-1739.727917515651
 21
2124.120328273292
 31
0.0
  0
MTEXT
  5
16AF7
330
169A9
100
AcDbEntity
  8
SUNPOU
 62
     1
100
AcDbMText
 10
-1742.591940407393
 20
2136.019050161696
 30
0.0
 40
3.5
 41
0.0
 71
     5
 72
     1
  1
\A1;2.5
 11
0.0000000000000001
 21
1.0
 31
0.0
  0
LINE
  5
16AF8
330
169A9
100
AcDbEntity
  8
SUNPOU
 62
     1
100
AcDbLine
 10
-1739.727917515651
 20
2132.620328273292
 30
0.0
 11
-1739.727917515651
 21
2130.120328273292
 31
0.0
  0
SOLID
  5
16AF9
330
169A9
100
AcDbEntity
  8
SUNPOU
 62
     1
100
AcDbTrace
 10
-1740.227917515651
 20
2135.620328273292
 30
0.0
 11
-1739.227917515651
 21
2135.620328273292
 31
0.0
 12
-1739.727917515651
 22
2132.620328273292
 32
0.0
 13
-1739.727917515651
 23
2132.620328273292
 33
0.0
  0
SOLID
  5
16AFA
330
169A9
100
AcDbEntity
  8
SUNPOU
 62
     1
100
AcDbTrace
 10
-1740.227917515651
 20
2127.120328273292
 30
0.0
 11
-1739.227917515651
 21
2127.120328273292
 31
0.0
 12
-1739.727917515651
 22
2130.120328273292
 32
0.0
 13
-1739.727917515651
 23
2130.120328273292
 33
0.0
  0
POINT
  5
16AFB
330
169A9
100
AcDbEntity
  8
DEFPOINTS
 62
     0
100
AcDbPoint
 10
-1735.999104708595
 20
2132.620328273292
 30
0.0
  0
POINT
  5
16AFC
330
169A9
100
AcDbEntity
  8
DEFPOINTS
 62
     0
100
AcDbPoint
 10
-1735.999104708595
 20
2130.120328273292
 30
0.0
  0
POINT
  5
16AFD
330
169A9
100
AcDbEntity
  8
DEFPOINTS
 62
     0
100
AcDbPoint
 10
-1739.727917515651
 20
2130.120328273292
 30
0.0
  0
ENDBLK
  5
169B6
330
169A9
100
AcDbEntity
  8
0
100
AcDbBlockEnd
  0
BLOCK
  5
169C2
330
169B8
100
AcDbEntity
  8
0
100
AcDbBlockBegin
  2
*D11
 70
     1
 10
0.0
 20
0.0
 30
0.0
  3
*D11
  1

  0
LINE
  5
16AFE
330
169B8
100
AcDbEntity
  8
SUNPOU
 62
     1
100
AcDbLine
 10
-1736.499104708595
 20
2130.120328273292
 30
0.0
 11
-1740.227917515651
 21
2130.120328273292
 31
0.0
  0
LINE
  5
16AFF
330
169B8
100
AcDbEntity
  8
SUNPOU
 62
     1
100
AcDbLine
 10
-1737.464514965322
 20
2041.120328273292
 30
0.0
 11
-1740.227917515651
 21
2041.120328273292
 31
0.0
  0
LINE
  5
16B00
330
169B8
100
AcDbEntity
  8
SUNPOU
 62
     1
100
AcDbLine
 10
-1739.727917515651
 20
2127.120328273292
 30
0.0
 11
-1739.727917515651
 21
2044.120328273292
 31
0.0
  0
SOLID
  5
16B01
330
169B8
100
AcDbEntity
  8
SUNPOU
 62
     1
100
AcDbTrace
 10
-1740.227917515651
 20
2127.120328273292
 30
0.0
 11
-1739.227917515651
 21
2127.120328273292
 31
0.0
 12
-1739.727917515651
 22
2130.120328273292
 32
0.0
 13
-1739.727917515651
 23
2130.120328273292
 33
0.0
  0
SOLID
  5
16B02
330
169B8
100
AcDbEntity
  8
SUNPOU
 62
     1
100
AcDbTrace
 10
-1740.227917515651
 20
2044.120328273292
 30
0.0
 11
-1739.227917515651
 21
2044.120328273292
 31
0.0
 12
-1739.727917515651
 22
2041.120328273292
 32
0.0
 13
-1739.727917515651
 23
2041.120328273292
 33
0.0
  0
MTEXT
  5
16B03
330
169B8
100
AcDbEntity
  8
SUNPOU
 62
     1
100
AcDbMText
 10
-1742.477917515651
 20
2085.620328273291
 30
0.0
 40
3.5
 41
0.0
 71
     5
 72
     1
  1
\A1;89
 11
0.0000000000000001
 21
1.0
 31
0.0
  0
POINT
  5
16B04
330
169B8
100
AcDbEntity
  8
DEFPOINTS
 62
     0
100
AcDbPoint
 10
-1735.999104708595
 20
2130.120328273292
 30
0.0
  0
POINT
  5
16B05
330
169B8
100
AcDbEntity
  8
DEFPOINTS
 62
     0
100
AcDbPoint
 10
-1736.964514965322
 20
2041.120328273292
 30
0.0
  0
POINT
  5
16B06
330
169B8
100
AcDbEntity
  8
DEFPOINTS
 62
     0
100
AcDbPoint
 10
-1739.727917515651
 20
2041.120328273292
 30
0.0
  0
ENDBLK
  5
169C3
330
169B8
100
AcDbEntity
  8
0
100
AcDbBlockEnd
  0
BLOCK
  5
169D1
330
169C5
100
AcDbEntity
  8
0
100
AcDbBlockBegin
  2
*D12
 70
     1
 10
0.0
 20
0.0
 30
0.0
  3
*D12
  1

  0
LINE
  5
16B07
330
169C5
100
AcDbEntity
  8
SUNPOU
 62
     1
100
AcDbLine
 10
-1737.464514965322
 20
2041.120328273292
 30
0.0
 11
-1740.227917515651
 21
2041.120328273292
 31
0.0
  0
LINE
  5
16B08
330
169C5
100
AcDbEntity
  8
SUNPOU
 62
     1
100
AcDbLine
 10
-1736.499104708595
 20
2038.620328273292
 30
0.0
 11
-1740.227917515651
 21
2038.620328273292
 31
0.0
  0
LINE
  5
16B09
330
169C5
100
AcDbEntity
  8
SUNPOU
 62
     1
100
AcDbLine
 10
-1739.727917515651
 20
2044.120328273292
 30
0.0
 11
-1739.727917515651
 21
2047.120328273292
 31
0.0
  0
LINE
  5
16B0A
330
169C5
100
AcDbEntity
  8
SUNPOU
 62
     1
100
AcDbLine
 10
-1739.727917515651
 20
2035.620328273292
 30
0.0
 11
-1739.727917515651
 21
2032.620328273292
 31
0.0
  0
MTEXT
  5
16B0B
330
169C5
100
AcDbEntity
  8
SUNPOU
 62
     1
100
AcDbMText
 10
-1742.708552490484
 20
2034.371714265812
 30
0.0
 40
3.5
 41
0.0
 71
     5
 72
     1
  1
\A1;2.5
 11
0.0000000000000001
 21
1.0
 31
0.0
  0
LINE
  5
16B0C
330
169C5
100
AcDbEntity
  8
SUNPOU
 62
     1
100
AcDbLine
 10
-1739.727917515651
 20
2041.120328273292
 30
0.0
 11
-1739.727917515651
 21
2038.620328273292
 31
0.0
  0
SOLID
  5
16B0D
330
169C5
100
AcDbEntity
  8
SUNPOU
 62
     1
100
AcDbTrace
 10
-1740.227917515651
 20
2044.120328273292
 30
0.0
 11
-1739.227917515651
 21
2044.120328273292
 31
0.0
 12
-1739.727917515651
 22
2041.120328273292
 32
0.0
 13
-1739.727917515651
 23
2041.120328273292
 33
0.0
  0
SOLID
  5
16B0E
330
169C5
100
AcDbEntity
  8
SUNPOU
 62
     1
100
AcDbTrace
 10
-1740.227917515651
 20
2035.620328273292
 30
0.0
 11
-1739.227917515651
 21
2035.620328273292
 31
0.0
 12
-1739.727917515651
 22
2038.620328273292
 32
0.0
 13
-1739.727917515651
 23
2038.620328273292
 33
0.0
  0
POINT
  5
16B0F
330
169C5
100
AcDbEntity
  8
DEFPOINTS
 62
     0
100
AcDbPoint
 10
-1736.964514965322
 20
2041.120328273292
 30
0.0
  0
POINT
  5
16B10
330
169C5
100
AcDbEntity
  8
DEFPOINTS
 62
     0
100
AcDbPoint
 10
-1735.999104708595
 20
2038.620328273292
 30
0.0
  0
POINT
  5
16B11
330
169C5
100
AcDbEntity
  8
DEFPOINTS
 62
     0
100
AcDbPoint
 10
-1739.727917515651
 20
2038.620328273292
 30
0.0
  0
ENDBLK
  5
169D2
330
169C5
100
AcDbEntity
  8
0
100
AcDbBlockEnd
  0
BLOCK
  5
16A15
330
16A0B
100
AcDbEntity
  8
0
100
AcDbBlockBegin
  2
*D13
 70
     1
 10
0.0
 20
0.0
 30
0.0
  3
*D13
  1

  0
LINE
  5
16A32
330
16A0B
100
AcDbEntity
  8
SUNPOU
 62
     1
100
AcDbLine
 10
-1735.999104708595
 20
2038.120328273292
 30
0.0
 11
-1735.999104708595
 21
2021.068210186516
 31
0.0
  0
LINE
  5
16A33
330
16A0B
100
AcDbEntity
  8
SUNPOU
 62
     1
100
AcDbLine
 10
-1673.999104708595
 20
2045.120328273292
 30
0.0
 11
-1673.999104708595
 21
2021.068210186516
 31
0.0
  0
LINE
  5
16A34
330
16A0B
100
AcDbEntity
  8
SUNPOU
 62
     1
100
AcDbLine
 10
-1732.999104708595
 20
2021.568210186516
 30
0.0
 11
-1676.999104708595
 21
2021.568210186516
 31
0.0
  0
SOLID
  5
16A35
330
16A0B
100
AcDbEntity
  8
SUNPOU
 62
     1
100
AcDbTrace
 10
-1732.999104708595
 20
2022.068210186515
 30
0.0
 11
-1732.999104708595
 21
2021.068210186516
 31
0.0
 12
-1735.999104708595
 22
2021.568210186516
 32
0.0
 13
-1735.999104708595
 23
2021.568210186516
 33
0.0
  0
SOLID
  5
16A36
330
16A0B
100
AcDbEntity
  8
SUNPOU
 62
     1
100
AcDbTrace
 10
-1676.999104708595
 20
2022.068210186515
 30
0.0
 11
-1676.999104708595
 21
2021.068210186516
 31
0.0
 12
-1673.999104708595
 22
2021.568210186516
 32
0.0
 13
-1673.999104708595
 23
2021.568210186516
 33
0.0
  0
MTEXT
  5
16A37
330
16A0B
100
AcDbEntity
  8
SUNPOU
 62
     1
100
AcDbMText
 10
-1704.999104708595
 20
2024.318210186515
 30
0.0
 40
3.5
 41
0.0
 71
     5
 72
     1
  1
\A1;62
1001
ACAD
1000
MTEXTBEGIN
1070
    73
1070
     1
1070
    44
1040
1.0
1070
    74
1070
     0
1000
MTEXTEND
  0
POINT
  5
16A38
330
16A0B
100
AcDbEntity
  8
DEFPOINTS
 62
     0
100
AcDbPoint
 10
-1735.999104708595
 20
2038.620328273292
 30
0.0
  0
POINT
  5
16A39
330
16A0B
100
AcDbEntity
  8
DEFPOINTS
 62
     0
100
AcDbPoint
 10
-1673.999104708595
 20
2045.620328273292
 30
0.0
  0
POINT
  5
16A3A
330
16A0B
100
AcDbEntity
  8
DEFPOINTS
 62
     0
100
AcDbPoint
 10
-1673.999104708595
 20
2021.568210186516
 30
0.0
  0
ENDBLK
  5
16A16
330
16A0B
100
AcDbEntity
  8
0
100
AcDbBlockEnd
  0
BLOCK
  5
16A25
330
16A19
100
AcDbEntity
  8
0
100
AcDbBlockBegin
  2
*D14
 70
     1
 10
0.0
 20
0.0
 30
0.0
  3
*D14
  1

  0
LINE
  5
16A27
330
16A19
100
AcDbEntity
  8
SUNPOU
 62
     1
100
AcDbLine
 10
-1735.999104708595
 20
2038.120328273292
 30
0.0
 11
-1735.999104708595
 21
2030.818299481707
 31
0.0
  0
LINE
  5
16A28
330
16A19
100
AcDbEntity
  8
SUNPOU
 62
     1
100
AcDbLine
 10
-1728.999104708595
 20
2037.620328273292
 30
0.0
 11
-1728.999104708595
 21
2030.818299481707
 31
0.0
  0
LINE
  5
16A29
330
16A19
100
AcDbEntity
  8
SUNPOU
 62
     1
100
AcDbLine
 10
-1738.999104708595
 20
2031.318299481707
 30
0.0
 11
-1741.999104708595
 21
2031.318299481707
 31
0.0
  0
LINE
  5
16A2A
330
16A19
100
AcDbEntity
  8
SUNPOU
 62
     1
100
AcDbLine
 10
-1725.999104708595
 20
2031.318299481707
 30
0.0
 11
-1722.999104708595
 21
2031.318299481707
 31
0.0
  0
LINE
  5
16A2B
330
16A19
100
AcDbEntity
  8
SUNPOU
 62
     1
100
AcDbLine
 10
-1735.999104708595
 20
2031.318299481707
 30
0.0
 11
-1728.999104708595
 21
2031.318299481707
 31
0.0
  0
SOLID
  5
16A2C
330
16A19
100
AcDbEntity
  8
SUNPOU
 62
     1
100
AcDbTrace
 10
-1738.999104708595
 20
2031.818299481707
 30
0.0
 11
-1738.999104708595
 21
2030.818299481707
 31
0.0
 12
-1735.999104708595
 22
2031.318299481707
 32
0.0
 13
-1735.999104708595
 23
2031.318299481707
 33
0.0
  0
SOLID
  5
16A2D
330
16A19
100
AcDbEntity
  8
SUNPOU
 62
     1
100
AcDbTrace
 10
-1725.999104708595
 20
2031.818299481707
 30
0.0
 11
-1725.999104708595
 21
2030.818299481707
 31
0.0
 12
-1728.999104708595
 22
2031.318299481707
 32
0.0
 13
-1728.999104708595
 23
2031.318299481707
 33
0.0
  0
MTEXT
  5
16A2E
330
16A19
100
AcDbEntity
  8
SUNPOU
 62
     1
100
AcDbMText
 10
-1732.499104708595
 20
2034.068299481707
 30
0.0
 40
3.5
 41
0.0
 71
     5
 72
     1
  1
\A1;7
1001
ACAD
1000
MTEXTBEGIN
1070
    73
1070
     1
1070
    44
1040
1.0
1070
    74
1070
     0
1000
MTEXTEND
  0
POINT
  5
16A2F
330
16A19
100
AcDbEntity
  8
DEFPOINTS
 62
     0
100
AcDbPoint
 10
-1735.999104708595
 20
2038.620328273292
 30
0.0
  0
POINT
  5
16A30
330
16A19
100
AcDbEntity
  8
DEFPOINTS
 62
     0
100
AcDbPoint
 10
-1728.999104708595
 20
2038.120328273292
 30
0.0
  0
POINT
  5
16A31
330
16A19
100
AcDbEntity
  8
DEFPOINTS
 62
     0
100
AcDbPoint
 10
-1728.999104708595
 20
2031.318299481707
 30
0.0
  0
ENDBLK
  5
16A26
330
16A19
100
AcDbEntity
  8
0
100
AcDbBlockEnd
  0
BLOCK
  5
16A48
330
16A3C
100
AcDbEntity
  8
0
100
AcDbBlockBegin
  2
*D15
 70
     1
 10
0.0
 20
0.0
 30
0.0
  3
*D15
  1

  0
LINE
  5
16A4A
330
16A3C
100
AcDbEntity
  8
SUNPOU
 62
     1
100
AcDbLine
 10
-1733.999104708595
 20
2007.620328273292
 30
0.0
 11
-1733.999104708595
 21
2013.699790794688
 31
0.0
  0
LINE
  5
16A4B
330
16A3C
100
AcDbEntity
  8
SUNPOU
 62
     1
100
AcDbLine
 10
-1735.999104708595
 20
2007.620328273292
 30
0.0
 11
-1735.999104708595
 21
2013.699790794688
 31
0.0
  0
LINE
  5
16A4C
330
16A3C
100
AcDbEntity
  8
SUNPOU
 62
     1
100
AcDbLine
 10
-1730.999104708595
 20
2013.199790794688
 30
0.0
 11
-1727.999104708595
 21
2013.199790794688
 31
0.0
  0
LINE
  5
16A4D
330
16A3C
100
AcDbEntity
  8
SUNPOU
 62
     1
100
AcDbLine
 10
-1738.999104708595
 20
2013.199790794688
 30
0.0
 11
-1746.332438041928
 21
2013.199790794688
 31
0.0
  0
LINE
  5
16A4E
330
16A3C
100
AcDbEntity
  8
SUNPOU
 62
     1
100
AcDbLine
 10
-1733.999104708595
 20
2013.199790794688
 30
0.0
 11
-1735.999104708595
 21
2013.199790794688
 31
0.0
  0
SOLID
  5
16A4F
330
16A3C
100
AcDbEntity
  8
SUNPOU
 62
     1
100
AcDbTrace
 10
-1730.999104708595
 20
2013.699790794688
 30
0.0
 11
-1730.999104708595
 21
2012.699790794687
 31
0.0
 12
-1733.999104708595
 22
2013.199790794688
 32
0.0
 13
-1733.999104708595
 23
2013.199790794688
 33
0.0
  0
SOLID
  5
16A50
330
16A3C
100
AcDbEntity
  8
SUNPOU
 62
     1
100
AcDbTrace
 10
-1738.999104708595
 20
2013.699790794688
 30
0.0
 11
-1738.999104708595
 21
2012.699790794687
 31
0.0
 12
-1735.999104708595
 22
2013.199790794688
 32
0.0
 13
-1735.999104708595
 23
2013.199790794688
 33
0.0
  0
MTEXT
  5
16A51
330
16A3C
100
AcDbEntity
  8
SUNPOU
 62
     1
100
AcDbMText
 10
-1744.165771375262
 20
2015.949790794687
 30
0.0
 40
3.5
 41
0.0
 71
     5
 72
     1
  1
\A1;2
1001
ACAD
1000
MTEXTBEGIN
1070
    73
1070
     1
1070
    44
1040
1.0
1070
    74
1070
     0
1000
MTEXTEND
  0
POINT
  5
16A52
330
16A3C
100
AcDbEntity
  8
DEFPOINTS
 62
     0
100
AcDbPoint
 10
-1733.999104708595
 20
2007.120328273292
 30
0.0
  0
POINT
  5
16A53
330
16A3C
100
AcDbEntity
  8
DEFPOINTS
 62
     0
100
AcDbPoint
 10
-1735.999104708595
 20
2007.120328273292
 30
0.0
  0
POINT
  5
16A54
330
16A3C
100
AcDbEntity
  8
DEFPOINTS
 62
     0
100
AcDbPoint
 10
-1735.999104708595
 20
2013.199790794688
 30
0.0
  0
ENDBLK
  5
16A49
330
16A3C
100
AcDbEntity
  8
0
100
AcDbBlockEnd
  0
BLOCK
  5
16A60
330
16A56
100
AcDbEntity
  8
0
100
AcDbBlockBegin
  2
*D16
 70
     1
 10
0.0
 20
0.0
 30
0.0
  3
*D16
  1

  0
LINE
  5
16A85
330
16A56
100
AcDbEntity
  8
SUNPOU
 62
     1
100
AcDbLine
 10
-1735.999104708595
 20
1980.620328273292
 30
0.0
 11
-1735.999104708595
 21
1968.690182862549
 31
0.0
  0
LINE
  5
16A86
330
16A56
100
AcDbEntity
  8
SUNPOU
 62
     1
100
AcDbLine
 10
-1671.999104708595
 20
1986.020328273292
 30
0.0
 11
-1671.999104708595
 21
1968.690182862549
 31
0.0
  0
LINE
  5
16A87
330
16A56
100
AcDbEntity
  8
SUNPOU
 62
     1
100
AcDbLine
 10
-1732.999104708595
 20
1969.190182862549
 30
0.0
 11
-1674.999104708595
 21
1969.190182862549
 31
0.0
  0
SOLID
  5
16A88
330
16A56
100
AcDbEntity
  8
SUNPOU
 62
     1
100
AcDbTrace
 10
-1732.999104708595
 20
1969.690182862549
 30
0.0
 11
-1732.999104708595
 21
1968.690182862549
 31
0.0
 12
-1735.999104708595
 22
1969.190182862549
 32
0.0
 13
-1735.999104708595
 23
1969.190182862549
 33
0.0
  0
SOLID
  5
16A89
330
16A56
100
AcDbEntity
  8
SUNPOU
 62
     1
100
AcDbTrace
 10
-1674.999104708595
 20
1969.690182862549
 30
0.0
 11
-1674.999104708595
 21
1968.690182862549
 31
0.0
 12
-1671.999104708595
 22
1969.190182862549
 32
0.0
 13
-1671.999104708595
 23
1969.190182862549
 33
0.0
  0
MTEXT
  5
16A8A
330
16A56
100
AcDbEntity
  8
SUNPOU
 62
     1
100
AcDbMText
 10
-1703.999104708595
 20
1971.940182862549
 30
0.0
 40
3.5
 41
0.0
 71
     5
 72
     1
  1
\A1;64
1001
ACAD
1000
MTEXTBEGIN
1070
    73
1070
     1
1070
    44
1040
1.0
1070
    74
1070
     0
1000
MTEXTEND
  0
POINT
  5
16A8B
330
16A56
100
AcDbEntity
  8
DEFPOINTS
 62
     0
100
AcDbPoint
 10
-1735.999104708595
 20
1981.120328273292
 30
0.0
  0
POINT
  5
16A8C
330
16A56
100
AcDbEntity
  8
DEFPOINTS
 62
     0
100
AcDbPoint
 10
-1671.999104708595
 20
1986.520328273292
 30
0.0
  0
POINT
  5
16A8D
330
16A56
100
AcDbEntity
  8
DEFPOINTS
 62
     0
100
AcDbPoint
 10
-1671.999104708595
 20
1969.190182862549
 30
0.0
  0
ENDBLK
  5
16A61
330
16A56
100
AcDbEntity
  8
0
100
AcDbBlockEnd
  0
BLOCK
  5
16A6F
330
16A63
100
AcDbEntity
  8
0
100
AcDbBlockBegin
  2
*D17
 70
     1
 10
0.0
 20
0.0
 30
0.0
  3
*D17
  1

  0
LINE
  5
16B12
330
16A63
100
AcDbEntity
  8
SUNPOU
 62
     1
100
AcDbLine
 10
-1671.999104708595
 20
1986.020328273292
 30
0.0
 11
-1671.999104708595
 21
1968.690182862549
 31
0.0
  0
LINE
  5
16B13
330
16A63
100
AcDbEntity
  8
SUNPOU
 62
     1
100
AcDbLine
 10
-1665.999104708594
 20
1986.320328273292
 30
0.0
 11
-1665.999104708594
 21
1968.690182862549
 31
0.0
  0
LINE
  5
16B14
330
16A63
100
AcDbEntity
  8
SUNPOU
 62
     1
100
AcDbLine
 10
-1674.999104708595
 20
1969.190182862549
 30
0.0
 11
-1677.999104708595
 21
1969.190182862549
 31
0.0
  0
LINE
  5
16B15
330
16A63
100
AcDbEntity
  8
SUNPOU
 62
     1
100
AcDbLine
 10
-1662.999104708595
 20
1969.190182862549
 30
0.0
 11
-1659.999104708595
 21
1969.190182862549
 31
0.0
  0
LINE
  5
16B16
330
16A63
100
AcDbEntity
  8
SUNPOU
 62
     1
100
AcDbLine
 10
-1671.999104708595
 20
1969.190182862549
 30
0.0
 11
-1665.999104708594
 21
1969.190182862549
 31
0.0
  0
SOLID
  5
16B17
330
16A63
100
AcDbEntity
  8
SUNPOU
 62
     1
100
AcDbTrace
 10
-1674.999104708595
 20
1969.690182862549
 30
0.0
 11
-1674.999104708595
 21
1968.690182862549
 31
0.0
 12
-1671.999104708595
 22
1969.190182862549
 32
0.0
 13
-1671.999104708595
 23
1969.190182862549
 33
0.0
  0
SOLID
  5
16B18
330
16A63
100
AcDbEntity
  8
SUNPOU
 62
     1
100
AcDbTrace
 10
-1662.999104708595
 20
1969.690182862549
 30
0.0
 11
-1662.999104708595
 21
1968.690182862549
 31
0.0
 12
-1665.999104708594
 22
1969.190182862549
 32
0.0
 13
-1665.999104708594
 23
1969.190182862549
 33
0.0
  0
MTEXT
  5
16B19
330
16A63
100
AcDbEntity
  8
SUNPOU
 62
     1
100
AcDbMText
 10
-1668.999104708595
 20
1971.940182862549
 30
0.0
 40
3.5
 41
0.0
 71
     5
 72
     1
  1
\A1;6
  0
POINT
  5
16B1A
330
16A63
100
AcDbEntity
  8
DEFPOINTS
 62
     0
100
AcDbPoint
 10
-1671.999104708595
 20
1986.520328273292
 30
0.0
  0
POINT
  5
16B1B
330
16A63
100
AcDbEntity
  8
DEFPOINTS
 62
     0
100
AcDbPoint
 10
-1665.999104708594
 20
1986.820328273292
 30
0.0
  0
POINT
  5
16B1C
330
16A63
100
AcDbEntity
  8
DEFPOINTS
 62
     0
100
AcDbPoint
 10
-1665.999104708594
 20
1969.190182862549
 30
0.0
  0
ENDBLK
  5
16A70
330
16A63
100
AcDbEntity
  8
0
100
AcDbBlockEnd
  0
ENDSEC
  0
SECTION
  2
ENTITIES
  0
MTEXT
  5
5084
330
1A
100
AcDbEntity
  8
0
100
AcDbMText
 10
1985.239088685435
 20
-948.5420423450428
 30
0.0
 40
8.0
 41
0.0
 71
     7
 72
     5
  1

1001
ACAD
1000
MTEXTBEGIN
1070
    73
1070
     1
1070
    44
1040
1.0
1070
    74
1070
     0
1000
MTEXTEND
  0
MTEXT
  5
5085
330
1A
100
AcDbEntity
  8
0
100
AcDbMText
 10
4270.596778580329
 20
22.24825240601649
 30
0.0
 40
8.0
 41
0.0
 71
     7
 72
     5
  1

1001
ACAD
1000
MTEXTBEGIN
1070
    73
1070
     1
1070
    44
1040
1.0
1070
    74
1070
     0
1000
MTEXTEND
  0
MTEXT
  5
5343
330
1A
100
AcDbEntity
  8
SUNPOU
100
AcDbMText
 10
6936.493799262471
 20
9534.359644781135
 30
0.0
 40
10.5
 41
0.0
 71
     1
 72
     5
  1

1001
ACAD
1000
MTEXTBEGIN
1070
    73
1070
     1
1070
    44
1040
1.0
1070
    74
1070
     0
1000
MTEXTEND
  0
MTEXT
  5
544F
330
1A
100
AcDbEntity
  8
0
100
AcDbMText
 10
16317.2832773148
 20
12833.35428897674
 30
0.0
 40
8.0
 41
0.0
 71
     7
 72
     5
  1

1001
ACAD
1000
MTEXTBEGIN
1070
    73
1070
     1
1070
    44
1040
1.0
1070
    74
1070
     0
1000
MTEXTEND
  0
MTEXT
  5
5450
330
1A
100
AcDbEntity
  8
0
100
AcDbMText
 10
18602.64096720969
 20
13804.1445837278
 30
0.0
 40
8.0
 41
0.0
 71
     7
 72
     5
  1

1001
ACAD
1000
MTEXTBEGIN
1070
    73
1070
     1
1070
    44
1040
1.0
1070
    74
1070
     0
1000
MTEXTEND
  0
MTEXT
  5
5451
330
1A
100
AcDbEntity
  8
SUNPOU
100
AcDbMText
 10
21268.53798789184
 20
23316.25597610292
 30
0.0
 40
10.5
 41
0.0
 71
     1
 72
     5
  1

1001
ACAD
1000
MTEXTBEGIN
1070
    73
1070
     1
1070
    44
1040
1.0
1070
    74
1070
     0
1000
MTEXTEND
  0
MTEXT
  5
5452
330
1A
100
AcDbEntity
  8
SUNPOU
100
AcDbMText
 10
13337.6147919559
 20
22369.46284218996
 30
0.0
 40
10.5
 41
0.0
 71
     7
 72
     5
  1

1001
ACAD
1000
MTEXTBEGIN
1070
    73
1070
     1
1070
    44
1040
1.0
1070
    74
1070
     0
1000
MTEXTEND
  0
MTEXT
  5
5453
330
1A
100
AcDbEntity
  8
SUNPOU
100
AcDbMText
 10
16286.59845646867
 20
27270.13891403281
 30
0.0
 40
10.5
 41
0.0
 71
     7
 72
     5
  1

1001
ACAD
1000
MTEXTBEGIN
1070
    73
1070
     1
1070
    44
1040
1.0
1070
    74
1070
     0
1000
MTEXTEND
  0
MTEXT
  5
5454
330
1A
100
AcDbEntity
  8
SUNPOU
100
AcDbMText
 10
20795.67658441924
 20
29706.43966165288
 30
0.0
 40
10.5
 41
0.0
 71
     7
 72
     5
  1

1001
ACAD
1000
MTEXTBEGIN
1070
    73
1070
     1
1070
    44
1040
1.0
1070
    74
1070
     0
1000
MTEXTEND
  0
MTEXT
  5
5455
330
1A
100
AcDbEntity
  8
0
100
AcDbMText
 10
16611.93789220314
 20
14707.52144344448
 30
0.0
 40
8.0
 41
0.0
 71
     7
 72
     5
  1

1001
ACAD
1000
MTEXTBEGIN
1070
    73
1070
     1
1070
    44
1040
1.0
1070
    74
1070
     0
1000
MTEXTEND
  0
MTEXT
  5
5456
330
1A
100
AcDbEntity
  8
0
100
AcDbMText
 10
18897.29558209804
 20
15678.31173819554
 30
0.0
 40
8.0
 41
0.0
 71
     7
 72
     5
  1

1001
ACAD
1000
MTEXTBEGIN
1070
    73
1070
     1
1070
    44
1040
1.0
1070
    74
1070
     0
1000
MTEXTEND
  0
MTEXT
  5
5457
330
1A
100
AcDbEntity
  8
SUNPOU
100
AcDbMText
 10
21563.19260278019
 20
25190.42313057066
 30
0.0
 40
10.5
 41
0.0
 71
     1
 72
     5
  1

1001
ACAD
1000
MTEXTBEGIN
1070
    73
1070
     1
1070
    44
1040
1.0
1070
    74
1070
     0
1000
MTEXTEND
  0
MTEXT
  5
5458
330
1A
100
AcDbEntity
  8
SUNPOU
100
AcDbMText
 10
13632.26940684426
 20
24243.6299966577
 30
0.0
 40
10.5
 41
0.0
 71
     7
 72
     5
  1

1001
ACAD
1000
MTEXTBEGIN
1070
    73
1070
     1
1070
    44
1040
1.0
1070
    74
1070
     0
1000
MTEXTEND
  0
MTEXT
  5
5459
330
1A
100
AcDbEntity
  8
SUNPOU
100
AcDbMText
 10
16581.25307135702
 20
29144.30606850055
 30
0.0
 40
10.5
 41
0.0
 71
     7
 72
     5
  1

1001
ACAD
1000
MTEXTBEGIN
1070
    73
1070
     1
1070
    44
1040
1.0
1070
    74
1070
     0
1000
MTEXTEND
  0
MTEXT
  5
545A
330
1A
100
AcDbEntity
  8
SUNPOU
100
AcDbMText
 10
21090.33119930759
 20
31580.60681612062
 30
0.0
 40
10.5
 41
0.0
 71
     7
 72
     5
  1

1001
ACAD
1000
MTEXTBEGIN
1070
    73
1070
     1
1070
    44
1040
1.0
1070
    74
1070
     0
1000
MTEXTEND
  0
MTEXT
  5
545B
330
1A
100
AcDbEntity
  8
0
100
AcDbMText
 10
22871.60517627167
 20
23974.88367124799
 30
0.0
 40
8.0
 41
0.0
 71
     7
 72
     5
  1

1001
ACAD
1000
MTEXTBEGIN
1070
    73
1070
     1
1070
    44
1040
1.0
1070
    74
1070
     0
1000
MTEXTEND
  0
MTEXT
  5
545C
330
1A
100
AcDbEntity
  8
0
100
AcDbMText
 10
25156.96286616657
 20
24945.67396599906
 30
0.0
 40
8.0
 41
0.0
 71
     7
 72
     5
  1

1001
ACAD
1000
MTEXTBEGIN
1070
    73
1070
     1
1070
    44
1040
1.0
1070
    74
1070
     0
1000
MTEXTEND
  0
MTEXT
  5
545D
330
1A
100
AcDbEntity
  8
SUNPOU
100
AcDbMText
 10
27822.85988684871
 20
34457.78535837418
 30
0.0
 40
10.5
 41
0.0
 71
     1
 72
     5
  1

1001
ACAD
1000
MTEXTBEGIN
1070
    73
1070
     1
1070
    44
1040
1.0
1070
    74
1070
     0
1000
MTEXTEND
  0
MTEXT
  5
545E
330
1A
100
AcDbEntity
  8
SUNPOU
100
AcDbMText
 10
19891.93669091278
 20
33510.99222446122
 30
0.0
 40
10.5
 41
0.0
 71
     7
 72
     5
  1

1001
ACAD
1000
MTEXTBEGIN
1070
    73
1070
     1
1070
    44
1040
1.0
1070
    74
1070
     0
1000
MTEXTEND
  0
MTEXT
  5
545F
330
1A
100
AcDbEntity
  8
SUNPOU
100
AcDbMText
 10
22840.92035542555
 20
38411.66829630407
 30
0.0
 40
10.5
 41
0.0
 71
     7
 72
     5
  1

1001
ACAD
1000
MTEXTBEGIN
1070
    73
1070
     1
1070
    44
1040
1.0
1070
    74
1070
     0
1000
MTEXTEND
  0
MTEXT
  5
5460
330
1A
100
AcDbEntity
  8
SUNPOU
100
AcDbMText
 10
27349.99848337611
 20
40847.96904392415
 30
0.0
 40
10.5
 41
0.0
 71
     7
 72
     5
  1

1001
ACAD
1000
MTEXTBEGIN
1070
    73
1070
     1
1070
    44
1040
1.0
1070
    74
1070
     0
1000
MTEXTEND
  0
MTEXT
  5
55B7
330
1A
100
AcDbEntity
  8
SUNPOU
100
AcDbMText
 10
67424.23923338197
 20
64463.86602884816
 30
0.0
 40
10.5
 41
0.0
 71
     9
 72
     5
  1

1001
ACAD
1000
MTEXTBEGIN
1070
    73
1070
     1
1070
    44
1040
1.0
1070
    74
1070
     0
1000
MTEXTEND
  0
MTEXT
  5
55B8
330
1A
100
AcDbEntity
  8
SUNPOU
100
AcDbMText
 10
76146.40679929998
 20
71879.70056038563
 30
0.0
 40
10.5
 41
0.0
 71
     9
 72
     5
  1

1001
ACAD
1000
MTEXTBEGIN
1070
    73
1070
     1
1070
    44
1040
1.0
1070
    74
1070
     0
1000
MTEXTEND
  0
MTEXT
  5
55B9
330
1A
100
AcDbEntity
  8
SUNPOU
100
AcDbMText
 10
95100.16551662994
 20
89346.27661287766
 30
0.0
 40
10.5
 41
0.0
 71
     9
 72
     5
  1

1001
ACAD
1000
MTEXTBEGIN
1070
    73
1070
     1
1070
    44
1040
1.0
1070
    74
1070
     0
1000
MTEXTEND
  0
MTEXT
  5
55BA
330
1A
100
AcDbEntity
  8
SUNPOU
100
AcDbMText
 10
97043.57276333936
 20
87545.22753299966
 30
0.0
 40
3.5
 41
0.0
 71
     9
 72
     5
  1

1001
ACAD
1000
MTEXTBEGIN
1070
    73
1070
     1
1070
    44
1040
1.0
1070
    74
1070
     0
1000
MTEXTEND
  0
MTEXT
  5
55BB
330
1A
100
AcDbEntity
  8
SUNPOU
100
AcDbMText
 10
128169.752595959
 20
130040.1732006569
 30
0.0
 40
10.5
 41
0.0
 71
     9
 72
     5
  1

1001
ACAD
1000
MTEXTBEGIN
1070
    73
1070
     1
1070
    44
1040
1.0
1070
    74
1070
     0
1000
MTEXTEND
  0
MTEXT
  5
55BC
330
1A
100
AcDbEntity
  8
SUNPOU
100
AcDbMText
 10
130113.1598426684
 20
128239.1241207789
 30
0.0
 40
3.5
 41
0.0
 71
     9
 72
     5
  1

1001
ACAD
1000
MTEXTBEGIN
1070
    73
1070
     1
1070
    44
1040
1.0
1070
    74
1070
     0
1000
MTEXTEND
  0
MTEXT
  5
55BD
330
1A
100
AcDbEntity
  8
SUNPOU
100
AcDbMText
 10
78610.02030175463
 20
75873.33835563206
 30
0.0
 40
10.5
 41
0.0
 71
     9
 72
     5
  1

1001
ACAD
1000
MTEXTBEGIN
1070
    73
1070
     1
1070
    44
1040
1.0
1070
    74
1070
     0
1000
MTEXTEND
  0
MTEXT
  5
55BE
330
1A
100
AcDbEntity
  8
SUNPOU
100
AcDbMText
 10
64662.02020137863
 20
56700.93921651987
 30
0.0
 40
3.5
 41
0.0
 71
     7
 72
     5
  1

1001
ACAD
1000
MTEXTBEGIN
1070
    73
1070
     1
1070
    44
1040
1.0
1070
    74
1070
     0
1000
MTEXTEND
  0
MTEXT
  5
55BF
330
1A
100
AcDbEntity
  8
SUNPOU
100
AcDbMText
 10
45647.18959837178
 20
44463.08794733807
 30
0.0
 40
10.5
 41
0.0
 71
     7
 72
     5
  1

1001
ACAD
1000
MTEXTBEGIN
1070
    73
1070
     1
1070
    44
1040
1.0
1070
    74
1070
     0
1000
MTEXTEND
  0
MTEXT
  5
55C0
330
1A
100
AcDbEntity
  8
SUNPOU
100
AcDbMText
 10
33189.96133342368
 20
28618.15636923965
 30
0.0
 40
35.0
 41
0.0
 71
     9
 72
     5
  1

1001
ACAD
1000
MTEXTBEGIN
1070
    73
1070
     1
1070
    44
1040
1.0
1070
    74
1070
     0
1000
MTEXTEND
  0
MTEXT
  5
55C1
330
1A
100
AcDbEntity
  8
SUNPOU
100
AcDbMText
 10
32098.44639099864
 20
29226.93177928835
 30
0.0
 40
350.0000004171781
 41
0.0
 71
     7
 72
     5
  1

1001
ACAD
1000
MTEXTBEGIN
1070
    73
1070
     1
1070
    44
1040
1.0
1070
    74
1070
     0
1000
MTEXTEND
  0
MTEXT
  5
55C2
330
1A
100
AcDbEntity
  8
0
100
AcDbMText
 10
38142.39714894154
 20
27206.85414142458
 30
0.0
 40
8.0
 41
0.0
 71
     7
 72
     5
  1

1001
ACAD
1000
MTEXTBEGIN
1070
    73
1070
     1
1070
    44
1040
1.0
1070
    74
1070
     0
1000
MTEXTEND
  0
MTEXT
  5
55C3
330
1A
100
AcDbEntity
  8
0
100
AcDbMText
 10
40427.75483883644
 20
28177.64443617564
 30
0.0
 40
8.0
 41
0.0
 71
     7
 72
     5
  1

1001
ACAD
1000
MTEXTBEGIN
1070
    73
1070
     1
1070
    44
1040
1.0
1070
    74
1070
     0
1000
MTEXTEND
  0
MTEXT
  5
55C4
330
1A
100
AcDbEntity
  8
SUNPOU
100
AcDbMText
 10
43093.65185951858
 20
37689.75582855077
 30
0.0
 40
10.5
 41
0.0
 71
     1
 72
     5
  1

1001
ACAD
1000
MTEXTBEGIN
1070
    73
1070
     1
1070
    44
1040
1.0
1070
    74
1070
     0
1000
MTEXTEND
  0
MTEXT
  5
55C5
330
1A
100
AcDbEntity
  8
SUNPOU
100
AcDbMText
 10
35162.72866358265
 20
36742.96269463781
 30
0.0
 40
10.5
 41
0.0
 71
     7
 72
     5
  1

1001
ACAD
1000
MTEXTBEGIN
1070
    73
1070
     1
1070
    44
1040
1.0
1070
    74
1070
     0
1000
MTEXTEND
  0
MTEXT
  5
55C6
330
1A
100
AcDbEntity
  8
SUNPOU
100
AcDbMText
 10
38111.71232809542
 20
41643.63876648066
 30
0.0
 40
10.5
 41
0.0
 71
     7
 72
     5
  1

1001
ACAD
1000
MTEXTBEGIN
1070
    73
1070
     1
1070
    44
1040
1.0
1070
    74
1070
     0
1000
MTEXTEND
  0
MTEXT
  5
55C7
330
1A
100
AcDbEntity
  8
SUNPOU
100
AcDbMText
 10
42620.79045604597
 20
44079.93951410074
 30
0.0
 40
10.5
 41
0.0
 71
     7
 72
     5
  1

1001
ACAD
1000
MTEXTBEGIN
1070
    73
1070
     1
1070
    44
1040
1.0
1070
    74
1070
     0
1000
MTEXTEND
  0
MTEXT
  5
55C8
330
1A
100
AcDbEntity
  8
SUNPOU
100
AcDbMText
 10
26221.62834281429
 20
23077.53566448964
 30
0.0
 40
10.5
 41
0.0
 71
     7
 72
     5
  1

1001
ACAD
1000
MTEXTBEGIN
1070
    73
1070
     1
1070
    44
1040
1.0
1070
    74
1070
     0
1000
MTEXTEND
  0
MTEXT
  5
55C9
330
1A
100
AcDbEntity
  8
SUNPOU
100
AcDbMText
 10
77413.14677671455
 20
68750.51622813789
 30
0.0
 40
10.5
 41
0.0
 71
     9
 72
     5
  1

1001
ACAD
1000
MTEXTBEGIN
1070
    73
1070
     1
1070
    44
1040
1.0
1070
    74
1070
     0
1000
MTEXTEND
  0
MTEXT
  5
55CA
330
1A
100
AcDbEntity
  8
SUNPOU
100
AcDbMText
 10
86135.31434263256
 20
76166.35075967536
 30
0.0
 40
10.5
 41
0.0
 71
     9
 72
     5
  1

1001
ACAD
1000
MTEXTBEGIN
1070
    73
1070
     1
1070
    44
1040
1.0
1070
    74
1070
     0
1000
MTEXTEND
  0
MTEXT
  5
55CB
330
1A
100
AcDbEntity
  8
SUNPOU
100
AcDbMText
 10
105089.0730599625
 20
93632.92681216739
 30
0.0
 40
10.5
 41
0.0
 71
     9
 72
     5
  1

1001
ACAD
1000
MTEXTBEGIN
1070
    73
1070
     1
1070
    44
1040
1.0
1070
    74
1070
     0
1000
MTEXTEND
  0
MTEXT
  5
55CC
330
1A
100
AcDbEntity
  8
SUNPOU
100
AcDbMText
 10
107032.4803066719
 20
91831.8777322894
 30
0.0
 40
3.5
 41
0.0
 71
     9
 72
     5
  1

1001
ACAD
1000
MTEXTBEGIN
1070
    73
1070
     1
1070
    44
1040
1.0
1070
    74
1070
     0
1000
MTEXTEND
  0
MTEXT
  5
55CD
330
1A
100
AcDbEntity
  8
SUNPOU
100
AcDbMText
 10
138158.6601392916
 20
134326.8233999467
 30
0.0
 40
10.5
 41
0.0
 71
     9
 72
     5
  1

1001
ACAD
1000
MTEXTBEGIN
1070
    73
1070
     1
1070
    44
1040
1.0
1070
    74
1070
     0
1000
MTEXTEND
  0
MTEXT
  5
55CE
330
1A
100
AcDbEntity
  8
SUNPOU
100
AcDbMText
 10
140102.067386001
 20
132525.7743200686
 30
0.0
 40
3.5
 41
0.0
 71
     9
 72
     5
  1

1001
ACAD
1000
MTEXTBEGIN
1070
    73
1070
     1
1070
    44
1040
1.0
1070
    74
1070
     0
1000
MTEXTEND
  0
MTEXT
  5
55CF
330
1A
100
AcDbEntity
  8
SUNPOU
100
AcDbMText
 10
88598.92784508721
 20
80159.98855492179
 30
0.0
 40
10.5
 41
0.0
 71
     9
 72
     5
  1

1001
ACAD
1000
MTEXTBEGIN
1070
    73
1070
     1
1070
    44
1040
1.0
1070
    74
1070
     0
1000
MTEXTEND
  0
MTEXT
  5
55D0
330
1A
100
AcDbEntity
  8
SUNPOU
100
AcDbMText
 10
74650.92774471121
 20
60987.5894158096
 30
0.0
 40
3.5
 41
0.0
 71
     7
 72
     5
  1

1001
ACAD
1000
MTEXTBEGIN
1070
    73
1070
     1
1070
    44
1040
1.0
1070
    74
1070
     0
1000
MTEXTEND
  0
MTEXT
  5
55D1
330
1A
100
AcDbEntity
  8
SUNPOU
100
AcDbMText
 10
55636.09714170436
 20
48749.73814662781
 30
0.0
 40
10.5
 41
0.0
 71
     7
 72
     5
  1

1001
ACAD
1000
MTEXTBEGIN
1070
    73
1070
     1
1070
    44
1040
1.0
1070
    74
1070
     0
1000
MTEXTEND
  0
MTEXT
  5
55D2
330
1A
100
AcDbEntity
  8
SUNPOU
100
AcDbMText
 10
43178.86887675626
 20
32904.80656852938
 30
0.0
 40
35.0
 41
0.0
 71
     9
 72
     5
  1

1001
ACAD
1000
MTEXTBEGIN
1070
    73
1070
     1
1070
    44
1040
1.0
1070
    74
1070
     0
1000
MTEXTEND
  0
MTEXT
  5
55D3
330
1A
100
AcDbEntity
  8
SUNPOU
100
AcDbMText
 10
42087.35393433121
 20
33513.58197857809
 30
0.0
 40
350.0000004171781
 41
0.0
 71
     7
 72
     5
  1

1001
ACAD
1000
MTEXTBEGIN
1070
    73
1070
     1
1070
    44
1040
1.0
1070
    74
1070
     0
1000
MTEXTEND
  0
MTEXT
  5
55D4
330
1A
100
AcDbEntity
  8
0
100
AcDbMText
 10
48131.30469227412
 20
31493.50434071431
 30
0.0
 40
8.0
 41
0.0
 71
     7
 72
     5
  1

1001
ACAD
1000
MTEXTBEGIN
1070
    73
1070
     1
1070
    44
1040
1.0
1070
    74
1070
     0
1000
MTEXTEND
  0
MTEXT
  5
55D5
330
1A
100
AcDbEntity
  8
0
100
AcDbMText
 10
50416.66238216901
 20
32464.29463546537
 30
0.0
 40
8.0
 41
0.0
 71
     7
 72
     5
  1

1001
ACAD
1000
MTEXTBEGIN
1070
    73
1070
     1
1070
    44
1040
1.0
1070
    74
1070
     0
1000
MTEXTEND
  0
MTEXT
  5
55D6
330
1A
100
AcDbEntity
  8
SUNPOU
100
AcDbMText
 10
53082.55940285115
 20
41976.4060278405
 30
0.0
 40
10.5
 41
0.0
 71
     1
 72
     5
  1

1001
ACAD
1000
MTEXTBEGIN
1070
    73
1070
     1
1070
    44
1040
1.0
1070
    74
1070
     0
1000
MTEXTEND
  0
MTEXT
  5
55D7
330
1A
100
AcDbEntity
  8
SUNPOU
100
AcDbMText
 10
45151.63620691522
 20
41029.61289392755
 30
0.0
 40
10.5
 41
0.0
 71
     7
 72
     5
  1

1001
ACAD
1000
MTEXTBEGIN
1070
    73
1070
     1
1070
    44
1040
1.0
1070
    74
1070
     0
1000
MTEXTEND
  0
MTEXT
  5
55D8
330
1A
100
AcDbEntity
  8
SUNPOU
100
AcDbMText
 10
48100.61987142798
 20
45930.28896577039
 30
0.0
 40
10.5
 41
0.0
 71
     7
 72
     5
  1

1001
ACAD
1000
MTEXTBEGIN
1070
    73
1070
     1
1070
    44
1040
1.0
1070
    74
1070
     0
1000
MTEXTEND
  0
MTEXT
  5
55D9
330
1A
100
AcDbEntity
  8
SUNPOU
100
AcDbMText
 10
52609.69799937854
 20
48366.58971339046
 30
0.0
 40
10.5
 41
0.0
 71
     7
 72
     5
  1

1001
ACAD
1000
MTEXTBEGIN
1070
    73
1070
     1
1070
    44
1040
1.0
1070
    74
1070
     0
1000
MTEXTEND
  0
MTEXT
  5
55DA
330
1A
100
AcDbEntity
  8
SUNPOU
100
AcDbMText
 10
36210.53588614687
 20
27364.18586377937
 30
0.0
 40
10.5
 41
0.0
 71
     7
 72
     5
  1

1001
ACAD
1000
MTEXTBEGIN
1070
    73
1070
     1
1070
    44
1040
1.0
1070
    74
1070
     0
1000
MTEXTEND
  0
MTEXT
  5
55DB
330
1A
100
AcDbEntity
  8
SUNPOU
100
AcDbMText
 10
38021.29879752181
 20
33691.59985125794
 30
0.0
 40
10.5
 41
0.0
 71
     9
 72
     5
  1

1001
ACAD
1000
MTEXTBEGIN
1070
    73
1070
     1
1070
    44
1040
1.0
1070
    74
1070
     0
1000
MTEXTEND
  0
MTEXT
  5
55DC
330
1A
100
AcDbEntity
  8
SUNPOU
100
AcDbMText
 10
46743.46636343979
 20
41107.43438279541
 30
0.0
 40
10.5
 41
0.0
 71
     9
 72
     5
  1

1001
ACAD
1000
MTEXTBEGIN
1070
    73
1070
     1
1070
    44
1040
1.0
1070
    74
1070
     0
1000
MTEXTEND
  0
MTEXT
  5
55DD
330
1A
100
AcDbEntity
  8
SUNPOU
100
AcDbMText
 10
65697.22508076975
 20
58574.01043528746
 30
0.0
 40
10.5
 41
0.0
 71
     9
 72
     5
  1

1001
ACAD
1000
MTEXTBEGIN
1070
    73
1070
     1
1070
    44
1040
1.0
1070
    74
1070
     0
1000
MTEXTEND
  0
MTEXT
  5
55DE
330
1A
100
AcDbEntity
  8
SUNPOU
100
AcDbMText
 10
67640.63232747917
 20
56772.96135540945
 30
0.0
 40
3.5
 41
0.0
 71
     9
 72
     5
  1

1001
ACAD
1000
MTEXTBEGIN
1070
    73
1070
     1
1070
    44
1040
1.0
1070
    74
1070
     0
1000
MTEXTEND
  0
MTEXT
  5
55DF
330
1A
100
AcDbEntity
  8
SUNPOU
100
AcDbMText
 10
98766.81216009888
 20
99267.9070230668
 30
0.0
 40
10.5
 41
0.0
 71
     9
 72
     5
  1

1001
ACAD
1000
MTEXTBEGIN
1070
    73
1070
     1
1070
    44
1040
1.0
1070
    74
1070
     0
1000
MTEXTEND
  0
MTEXT
  5
55E0
330
1A
100
AcDbEntity
  8
SUNPOU
100
AcDbMText
 10
100710.2194068083
 20
97466.85794318878
 30
0.0
 40
3.5
 41
0.0
 71
     9
 72
     5
  1

1001
ACAD
1000
MTEXTBEGIN
1070
    73
1070
     1
1070
    44
1040
1.0
1070
    74
1070
     0
1000
MTEXTEND
  0
MTEXT
  5
55E1
330
1A
100
AcDbEntity
  8
SUNPOU
100
AcDbMText
 10
49207.07986589444
 20
45101.07217804185
 30
0.0
 40
10.5
 41
0.0
 71
     9
 72
     5
  1

1001
ACAD
1000
MTEXTBEGIN
1070
    73
1070
     1
1070
    44
1040
1.0
1070
    74
1070
     0
1000
MTEXTEND
  0
MTEXT
  5
55E2
330
1A
100
AcDbEntity
  8
SUNPOU
100
AcDbMText
 10
35259.07976551845
 20
25928.67303892964
 30
0.0
 40
3.5
 41
0.0
 71
     7
 72
     5
  1

1001
ACAD
1000
MTEXTBEGIN
1070
    73
1070
     1
1070
    44
1040
1.0
1070
    74
1070
     0
1000
MTEXTEND
  0
MTEXT
  5
55E3
330
1A
100
AcDbEntity
  8
SUNPOU
100
AcDbMText
 10
48951.43044828905
 20
35287.73625995099
 30
0.0
 40
10.5
 41
0.0
 71
     9
 72
     5
  1

1001
ACAD
1000
MTEXTBEGIN
1070
    73
1070
     1
1070
    44
1040
1.0
1070
    74
1070
     0
1000
MTEXTEND
  0
MTEXT
  5
55E4
330
1A
100
AcDbEntity
  8
SUNPOU
100
AcDbMText
 10
57673.59801420702
 20
42703.57079148847
 30
0.0
 40
10.5
 41
0.0
 71
     9
 72
     5
  1

1001
ACAD
1000
MTEXTBEGIN
1070
    73
1070
     1
1070
    44
1040
1.0
1070
    74
1070
     0
1000
MTEXTEND
  0
MTEXT
  5
55E5
330
1A
100
AcDbEntity
  8
SUNPOU
100
AcDbMText
 10
76627.35673153699
 20
60170.14684398051
 30
0.0
 40
10.5
 41
0.0
 71
     9
 72
     5
  1

1001
ACAD
1000
MTEXTBEGIN
1070
    73
1070
     1
1070
    44
1040
1.0
1070
    74
1070
     0
1000
MTEXTEND
  0
MTEXT
  5
55E6
330
1A
100
AcDbEntity
  8
SUNPOU
100
AcDbMText
 10
78570.76397824641
 20
58369.09776410251
 30
0.0
 40
3.5
 41
0.0
 71
     9
 72
     5
  1

1001
ACAD
1000
MTEXTBEGIN
1070
    73
1070
     1
1070
    44
1040
1.0
1070
    74
1070
     0
1000
MTEXTEND
  0
MTEXT
  5
55E7
330
1A
100
AcDbEntity
  8
SUNPOU
100
AcDbMText
 10
109696.9438108661
 20
100864.0434317598
 30
0.0
 40
10.5
 41
0.0
 71
     9
 72
     5
  1

1001
ACAD
1000
MTEXTBEGIN
1070
    73
1070
     1
1070
    44
1040
1.0
1070
    74
1070
     0
1000
MTEXTEND
  0
MTEXT
  5
55E8
330
1A
100
AcDbEntity
  8
SUNPOU
100
AcDbMText
 10
111640.3510575755
 20
99062.99435188183
 30
0.0
 40
3.5
 41
0.0
 71
     9
 72
     5
  1

1001
ACAD
1000
MTEXTBEGIN
1070
    73
1070
     1
1070
    44
1040
1.0
1070
    74
1070
     0
1000
MTEXTEND
  0
MTEXT
  5
55E9
330
1A
100
AcDbEntity
  8
SUNPOU
100
AcDbMText
 10
60137.21151666167
 20
46697.20858673491
 30
0.0
 40
10.5
 41
0.0
 71
     9
 72
     5
  1

1001
ACAD
1000
MTEXTBEGIN
1070
    73
1070
     1
1070
    44
1040
1.0
1070
    74
1070
     0
1000
MTEXTEND
  0
MTEXT
  5
55EA
330
1A
100
AcDbEntity
  8
SUNPOU
100
AcDbMText
 10
46189.21141628568
 20
27524.80944762269
 30
0.0
 40
3.5
 41
0.0
 71
     7
 72
     5
  1

1001
ACAD
1000
MTEXTBEGIN
1070
    73
1070
     1
1070
    44
1040
1.0
1070
    74
1070
     0
1000
MTEXTEND
  0
MTEXT
  5
55EB
330
1A
100
AcDbEntity
  8
SUNPOU
100
AcDbMText
 10
45007.68847015541
 20
38269.57947701874
 30
0.0
 40
10.5
 41
0.0
 71
     9
 72
     5
  1

1001
ACAD
1000
MTEXTBEGIN
1070
    73
1070
     1
1070
    44
1040
1.0
1070
    74
1070
     0
1000
MTEXTEND
  0
MTEXT
  5
55EC
330
1A
100
AcDbEntity
  8
SUNPOU
100
AcDbMText
 10
63961.44718748539
 20
55736.15552951081
 30
0.0
 40
10.5
 41
0.0
 71
     9
 72
     5
  1

1001
ACAD
1000
MTEXTBEGIN
1070
    73
1070
     1
1070
    44
1040
1.0
1070
    74
1070
     0
1000
MTEXTEND
  0
MTEXT
  5
55ED
330
1A
100
AcDbEntity
  8
SUNPOU
100
AcDbMText
 10
65904.85443419479
 20
53935.10644963279
 30
0.0
 40
3.5
 41
0.0
 71
     9
 72
     5
  1

1001
ACAD
1000
MTEXTBEGIN
1070
    73
1070
     1
1070
    44
1040
1.0
1070
    74
1070
     0
1000
MTEXTEND
  0
MTEXT
  5
55EE
330
1A
100
AcDbEntity
  8
SUNPOU
100
AcDbMText
 10
97031.03426681451
 20
96430.05211729015
 30
0.0
 40
10.5
 41
0.0
 71
     9
 72
     5
  1

1001
ACAD
1000
MTEXTBEGIN
1070
    73
1070
     1
1070
    44
1040
1.0
1070
    74
1070
     0
1000
MTEXTEND
  0
MTEXT
  5
55EF
330
1A
100
AcDbEntity
  8
SUNPOU
100
AcDbMText
 10
98974.44151352393
 20
94629.00303741212
 30
0.0
 40
3.5
 41
0.0
 71
     9
 72
     5
  1

1001
ACAD
1000
MTEXTBEGIN
1070
    73
1070
     1
1070
    44
1040
1.0
1070
    74
1070
     0
1000
MTEXTEND
  0
MTEXT
  5
55F0
330
1A
100
AcDbEntity
  8
SUNPOU
100
AcDbMText
 10
47471.30197261006
 20
42263.21727226519
 30
0.0
 40
10.5
 41
0.0
 71
     9
 72
     5
  1

1001
ACAD
1000
MTEXTBEGIN
1070
    73
1070
     1
1070
    44
1040
1.0
1070
    74
1070
     0
1000
MTEXTEND
  0
MTEXT
  5
55F1
330
1A
100
AcDbEntity
  8
SUNPOU
100
AcDbMText
 10
33523.30187223408
 20
23090.81813315298
 30
0.0
 40
3.5
 41
0.0
 71
     7
 72
     5
  1

1001
ACAD
1000
MTEXTBEGIN
1070
    73
1070
     1
1070
    44
1040
1.0
1070
    74
1070
     0
1000
MTEXTEND
  0
MTEXT
  5
55F2
330
1A
100
AcDbEntity
  8
SUNPOU
100
AcDbMText
 10
57959.46254102503
 20
50038.08111611015
 30
0.0
 40
10.5
 41
0.0
 71
     9
 72
     5
  1

1001
ACAD
1000
MTEXTBEGIN
1070
    73
1070
     1
1070
    44
1040
1.0
1070
    74
1070
     0
1000
MTEXTEND
  0
MTEXT
  5
55F3
330
1A
100
AcDbEntity
  8
SUNPOU
100
AcDbMText
 10
76913.22125835503
 20
67504.65716860222
 30
0.0
 40
10.5
 41
0.0
 71
     9
 72
     5
  1

1001
ACAD
1000
MTEXTBEGIN
1070
    73
1070
     1
1070
    44
1040
1.0
1070
    74
1070
     0
1000
MTEXTEND
  0
MTEXT
  5
55F4
330
1A
100
AcDbEntity
  8
SUNPOU
100
AcDbMText
 10
78856.62850506443
 20
65703.6080887242
 30
0.0
 40
3.5
 41
0.0
 71
     9
 72
     5
  1

1001
ACAD
1000
MTEXTBEGIN
1070
    73
1070
     1
1070
    44
1040
1.0
1070
    74
1070
     0
1000
MTEXTEND
  0
MTEXT
  5
55F5
330
1A
100
AcDbEntity
  8
SUNPOU
100
AcDbMText
 10
109982.8083376841
 20
108198.5537563815
 30
0.0
 40
10.5
 41
0.0
 71
     9
 72
     5
  1

1001
ACAD
1000
MTEXTBEGIN
1070
    73
1070
     1
1070
    44
1040
1.0
1070
    74
1070
     0
1000
MTEXTEND
  0
MTEXT
  5
55F6
330
1A
100
AcDbEntity
  8
SUNPOU
100
AcDbMText
 10
111926.2155843935
 20
106397.5046765035
 30
0.0
 40
3.5
 41
0.0
 71
     9
 72
     5
  1

1001
ACAD
1000
MTEXTBEGIN
1070
    73
1070
     1
1070
    44
1040
1.0
1070
    74
1070
     0
1000
MTEXTEND
  0
MTEXT
  5
55F7
330
1A
100
AcDbEntity
  8
SUNPOU
100
AcDbMText
 10
60423.07604347968
 20
54031.71891135659
 30
0.0
 40
10.5
 41
0.0
 71
     9
 72
     5
  1

1001
ACAD
1000
MTEXTBEGIN
1070
    73
1070
     1
1070
    44
1040
1.0
1070
    74
1070
     0
1000
MTEXTEND
  0
MTEXT
  5
55F8
330
1A
100
AcDbEntity
  8
SUNPOU
100
AcDbMText
 10
46475.07594310369
 20
34859.3197722444
 30
0.0
 40
3.5
 41
0.0
 71
     7
 72
     5
  1

1001
ACAD
1000
MTEXTBEGIN
1070
    73
1070
     1
1070
    44
1040
1.0
1070
    74
1070
     0
1000
MTEXTEND
  0
MTEXT
  5
55F9
330
1A
100
AcDbEntity
  8
SUNPOU
100
AcDbMText
 10
74027.35402123588
 20
68370.58278833383
 30
0.0
 40
10.5
 41
0.0
 71
     9
 72
     5
  1

1001
ACAD
1000
MTEXTBEGIN
1070
    73
1070
     1
1070
    44
1040
1.0
1070
    74
1070
     0
1000
MTEXTEND
  0
MTEXT
  5
55FA
330
1A
100
AcDbEntity
  8
SUNPOU
100
AcDbMText
 10
75970.7612679453
 20
66569.53370845583
 30
0.0
 40
3.5
 41
0.0
 71
     9
 72
     5
  1

1001
ACAD
1000
MTEXTBEGIN
1070
    73
1070
     1
1070
    44
1040
1.0
1070
    74
1070
     0
1000
MTEXTEND
  0
MTEXT
  5
55FB
330
1A
100
AcDbEntity
  8
SUNPOU
100
AcDbMText
 10
107096.941100565
 20
109064.4793761132
 30
0.0
 40
10.5
 41
0.0
 71
     9
 72
     5
  1

1001
ACAD
1000
MTEXTBEGIN
1070
    73
1070
     1
1070
    44
1040
1.0
1070
    74
1070
     0
1000
MTEXTEND
  0
MTEXT
  5
55FC
330
1A
100
AcDbEntity
  8
SUNPOU
100
AcDbMText
 10
109040.3483472744
 20
107263.4302962351
 30
0.0
 40
3.5
 41
0.0
 71
     9
 72
     5
  1

1001
ACAD
1000
MTEXTBEGIN
1070
    73
1070
     1
1070
    44
1040
1.0
1070
    74
1070
     0
1000
MTEXTEND
  0
MTEXT
  5
55FD
330
1A
100
AcDbEntity
  8
SUNPOU
100
AcDbMText
 10
105709.1709283621
 20
108141.3777665285
 30
0.0
 40
10.5
 41
0.0
 71
     9
 72
     5
  1

1001
ACAD
1000
MTEXTBEGIN
1070
    73
1070
     1
1070
    44
1040
1.0
1070
    74
1070
     0
1000
MTEXTEND
  0
MTEXT
  5
55FE
330
1A
100
AcDbEntity
  8
SUNPOU
100
AcDbMText
 10
107652.5781750715
 20
106340.3286866505
 30
0.0
 40
3.5
 41
0.0
 71
     9
 72
     5
  1

1001
ACAD
1000
MTEXTBEGIN
1070
    73
1070
     1
1070
    44
1040
1.0
1070
    74
1070
     0
1000
MTEXTEND
  0
MTEXT
  5
55FF
330
1A
100
AcDbEntity
  8
SUNPOU
100
AcDbMText
 10
73193.09268743351
 20
66158.78082845056
 30
0.0
 40
10.5
 41
0.0
 71
     9
 72
     5
  1

1001
ACAD
1000
MTEXTBEGIN
1070
    73
1070
     1
1070
    44
1040
1.0
1070
    74
1070
     0
1000
MTEXTEND
  0
MTEXT
  5
5600
330
1A
100
AcDbEntity
  8
SUNPOU
100
AcDbMText
 10
75916.39889159806
 20
66563.46252003162
 30
0.0
 40
3.5
 41
0.0
 71
     9
 72
     5
  1

1001
ACAD
1000
MTEXTBEGIN
1070
    73
1070
     1
1070
    44
1040
1.0
1070
    74
1070
     0
1000
MTEXTEND
  0
MTEXT
  5
5601
330
1A
100
AcDbEntity
  8
SUNPOU
100
AcDbMText
 10
75124.04436649058
 20
63402.1566819768
 30
0.0
 40
10.5
 41
0.0
 71
     9
 72
     5
  1

1001
ACAD
1000
MTEXTBEGIN
1070
    73
1070
     1
1070
    44
1040
1.0
1070
    74
1070
     0
1000
MTEXTEND
  0
MTEXT
  5
5602
330
1A
100
AcDbEntity
  8
SUNPOU
100
AcDbMText
 10
77067.4516132
 20
61601.1076020988
 30
0.0
 40
3.5
 41
0.0
 71
     9
 72
     5
  1

1001
ACAD
1000
MTEXTBEGIN
1070
    73
1070
     1
1070
    44
1040
1.0
1070
    74
1070
     0
1000
MTEXTEND
  0
MTEXT
  5
5603
330
1A
100
AcDbEntity
  8
SUNPOU
100
AcDbMText
 10
77012.54710378659
 20
61488.33571981449
 30
0.0
 40
3.5
 41
0.0
 71
     9
 72
     5
  1

1001
ACAD
1000
MTEXTBEGIN
1070
    73
1070
     1
1070
    44
1040
1.0
1070
    74
1070
     0
1000
MTEXTEND
  0
MTEXT
  5
5604
330
1A
100
AcDbEntity
  8
SUNPOU
100
AcDbMText
 10
76376.61896736668
 20
60677.01447874797
 30
0.0
 40
3.5
 41
0.0
 71
     9
 72
     5
  1

1001
ACAD
1000
MTEXTBEGIN
1070
    73
1070
     1
1070
    44
1040
1.0
1070
    74
1070
     0
1000
MTEXTEND
  0
MTEXT
  5
5605
330
1A
100
AcDbEntity
  8
SUNPOU
100
AcDbMText
 10
76375.37854794595
 20
60676.76650181047
 30
0.0
 40
10.5
 41
0.0
 71
     9
 72
     5
  1

1001
ACAD
1000
MTEXTBEGIN
1070
    73
1070
     1
1070
    44
1040
1.0
1070
    74
1070
     0
1000
MTEXTEND
  0
MTEXT
  5
5606
330
1A
100
AcDbEntity
  8
SUNPOU
100
AcDbMText
 10
84709.93991079748
 20
78034.0328293557
 30
0.0
 40
10.5
 41
0.0
 71
     9
 72
     5
  1

1001
ACAD
1000
MTEXTBEGIN
1070
    73
1070
     1
1070
    44
1040
1.0
1070
    74
1070
     0
1000
MTEXTEND
  0
MTEXT
  5
5607
330
1A
100
AcDbEntity
  8
SUNPOU
100
AcDbMText
 10
93432.10747671548
 20
85449.86736089315
 30
0.0
 40
10.5
 41
0.0
 71
     9
 72
     5
  1

1001
ACAD
1000
MTEXTBEGIN
1070
    73
1070
     1
1070
    44
1040
1.0
1070
    74
1070
     0
1000
MTEXTEND
  0
MTEXT
  5
5608
330
1A
100
AcDbEntity
  8
SUNPOU
100
AcDbMText
 10
112385.8661940454
 20
102916.4434133851
 30
0.0
 40
10.5
 41
0.0
 71
     9
 72
     5
  1

1001
ACAD
1000
MTEXTBEGIN
1070
    73
1070
     1
1070
    44
1040
1.0
1070
    74
1070
     0
1000
MTEXTEND
  0
MTEXT
  5
5609
330
1A
100
AcDbEntity
  8
SUNPOU
100
AcDbMText
 10
114329.2734407548
 20
101115.3943335072
 30
0.0
 40
3.5
 41
0.0
 71
     9
 72
     5
  1

1001
ACAD
1000
MTEXTBEGIN
1070
    73
1070
     1
1070
    44
1040
1.0
1070
    74
1070
     0
1000
MTEXTEND
  0
MTEXT
  5
560A
330
1A
100
AcDbEntity
  8
SUNPOU
100
AcDbMText
 10
145455.4532733745
 20
143610.3400011645
 30
0.0
 40
10.5
 41
0.0
 71
     9
 72
     5
  1

1001
ACAD
1000
MTEXTBEGIN
1070
    73
1070
     1
1070
    44
1040
1.0
1070
    74
1070
     0
1000
MTEXTEND
  0
MTEXT
  5
560B
330
1A
100
AcDbEntity
  8
SUNPOU
100
AcDbMText
 10
147398.8605200839
 20
141809.2909212864
 30
0.0
 40
3.5
 41
0.0
 71
     9
 72
     5
  1

1001
ACAD
1000
MTEXTBEGIN
1070
    73
1070
     1
1070
    44
1040
1.0
1070
    74
1070
     0
1000
MTEXTEND
  0
MTEXT
  5
560C
330
1A
100
AcDbEntity
  8
SUNPOU
100
AcDbMText
 10
95895.72097917013
 20
89443.5051561396
 30
0.0
 40
10.5
 41
0.0
 71
     9
 72
     5
  1

1001
ACAD
1000
MTEXTBEGIN
1070
    73
1070
     1
1070
    44
1040
1.0
1070
    74
1070
     0
1000
MTEXTEND
  0
MTEXT
  5
560D
330
1A
100
AcDbEntity
  8
SUNPOU
100
AcDbMText
 10
81947.72087879414
 20
70271.1060170274
 30
0.0
 40
3.5
 41
0.0
 71
     7
 72
     5
  1

1001
ACAD
1000
MTEXTBEGIN
1070
    73
1070
     1
1070
    44
1040
1.0
1070
    74
1070
     0
1000
MTEXTEND
  0
MTEXT
  5
560E
330
1A
100
AcDbEntity
  8
SUNPOU
100
AcDbMText
 10
62932.89027578729
 20
58033.25474784561
 30
0.0
 40
10.5
 41
0.0
 71
     7
 72
     5
  1

1001
ACAD
1000
MTEXTBEGIN
1070
    73
1070
     1
1070
    44
1040
1.0
1070
    74
1070
     0
1000
MTEXTEND
  0
MTEXT
  5
560F
330
1A
100
AcDbEntity
  8
SUNPOU
100
AcDbMText
 10
50475.66201083918
 20
42188.32316974719
 30
0.0
 40
35.0
 41
0.0
 71
     9
 72
     5
  1

1001
ACAD
1000
MTEXTBEGIN
1070
    73
1070
     1
1070
    44
1040
1.0
1070
    74
1070
     0
1000
MTEXTEND
  0
MTEXT
  5
5610
330
1A
100
AcDbEntity
  8
SUNPOU
100
AcDbMText
 10
49384.14706841413
 20
42797.0985797959
 30
0.0
 40
350.0000004171781
 41
0.0
 71
     7
 72
     5
  1

1001
ACAD
1000
MTEXTBEGIN
1070
    73
1070
     1
1070
    44
1040
1.0
1070
    74
1070
     0
1000
MTEXTEND
  0
MTEXT
  5
5611
330
1A
100
AcDbEntity
  8
0
100
AcDbMText
 10
55428.09782635704
 20
40777.02094193211
 30
0.0
 40
8.0
 41
0.0
 71
     7
 72
     5
  1

1001
ACAD
1000
MTEXTBEGIN
1070
    73
1070
     1
1070
    44
1040
1.0
1070
    74
1070
     0
1000
MTEXTEND
  0
MTEXT
  5
5612
330
1A
100
AcDbEntity
  8
0
100
AcDbMText
 10
57713.45551625194
 20
41747.81123668317
 30
0.0
 40
8.0
 41
0.0
 71
     7
 72
     5
  1

1001
ACAD
1000
MTEXTBEGIN
1070
    73
1070
     1
1070
    44
1040
1.0
1070
    74
1070
     0
1000
MTEXTEND
  0
MTEXT
  5
5613
330
1A
100
AcDbEntity
  8
SUNPOU
100
AcDbMText
 10
60379.35253693408
 20
51259.9226290583
 30
0.0
 40
10.5
 41
0.0
 71
     1
 72
     5
  1

1001
ACAD
1000
MTEXTBEGIN
1070
    73
1070
     1
1070
    44
1040
1.0
1070
    74
1070
     0
1000
MTEXTEND
  0
MTEXT
  5
5614
330
1A
100
AcDbEntity
  8
SUNPOU
100
AcDbMText
 10
52448.42934099814
 20
50313.12949514535
 30
0.0
 40
10.5
 41
0.0
 71
     7
 72
     5
  1

1001
ACAD
1000
MTEXTBEGIN
1070
    73
1070
     1
1070
    44
1040
1.0
1070
    74
1070
     0
1000
MTEXTEND
  0
MTEXT
  5
5615
330
1A
100
AcDbEntity
  8
SUNPOU
100
AcDbMText
 10
55397.41300551091
 20
55213.80556698819
 30
0.0
 40
10.5
 41
0.0
 71
     7
 72
     5
  1

1001
ACAD
1000
MTEXTBEGIN
1070
    73
1070
     1
1070
    44
1040
1.0
1070
    74
1070
     0
1000
MTEXTEND
  0
MTEXT
  5
5616
330
1A
100
AcDbEntity
  8
SUNPOU
100
AcDbMText
 10
59906.49113346147
 20
57650.10631460826
 30
0.0
 40
10.5
 41
0.0
 71
     7
 72
     5
  1

1001
ACAD
1000
MTEXTBEGIN
1070
    73
1070
     1
1070
    44
1040
1.0
1070
    74
1070
     0
1000
MTEXTEND
  0
MTEXT
  5
5617
330
1A
100
AcDbEntity
  8
SUNPOU
100
AcDbMText
 10
43507.32902022979
 20
36647.70246499718
 30
0.0
 40
10.5
 41
0.0
 71
     7
 72
     5
  1

1001
ACAD
1000
MTEXTBEGIN
1070
    73
1070
     1
1070
    44
1040
1.0
1070
    74
1070
     0
1000
MTEXTEND
  0
MTEXT
  5
5618
330
1A
100
AcDbEntity
  8
SUNPOU
100
AcDbMText
 10
94698.84745413006
 20
82320.68302864542
 30
0.0
 40
10.5
 41
0.0
 71
     9
 72
     5
  1

1001
ACAD
1000
MTEXTBEGIN
1070
    73
1070
     1
1070
    44
1040
1.0
1070
    74
1070
     0
1000
MTEXTEND
  0
MTEXT
  5
5619
330
1A
100
AcDbEntity
  8
SUNPOU
100
AcDbMText
 10
103421.015020048
 20
89736.5175601829
 30
0.0
 40
10.5
 41
0.0
 71
     9
 72
     5
  1

1001
ACAD
1000
MTEXTBEGIN
1070
    73
1070
     1
1070
    44
1040
1.0
1070
    74
1070
     0
1000
MTEXTEND
  0
MTEXT
  5
561A
330
1A
100
AcDbEntity
  8
SUNPOU
100
AcDbMText
 10
122374.773737378
 20
107203.0936126749
 30
0.0
 40
10.5
 41
0.0
 71
     9
 72
     5
  1

1001
ACAD
1000
MTEXTBEGIN
1070
    73
1070
     1
1070
    44
1040
1.0
1070
    74
1070
     0
1000
MTEXTEND
  0
MTEXT
  5
561B
330
1A
100
AcDbEntity
  8
SUNPOU
100
AcDbMText
 10
124318.1809840874
 20
105402.0445327969
 30
0.0
 40
3.5
 41
0.0
 71
     9
 72
     5
  1

1001
ACAD
1000
MTEXTBEGIN
1070
    73
1070
     1
1070
    44
1040
1.0
1070
    74
1070
     0
1000
MTEXTEND
  0
MTEXT
  5
561C
330
1A
100
AcDbEntity
  8
SUNPOU
100
AcDbMText
 10
155444.3608167071
 20
147896.9902004542
 30
0.0
 40
10.5
 41
0.0
 71
     9
 72
     5
  1

1001
ACAD
1000
MTEXTBEGIN
1070
    73
1070
     1
1070
    44
1040
1.0
1070
    74
1070
     0
1000
MTEXTEND
  0
MTEXT
  5
561D
330
1A
100
AcDbEntity
  8
SUNPOU
100
AcDbMText
 10
157387.7680634165
 20
146095.9411205762
 30
0.0
 40
3.5
 41
0.0
 71
     9
 72
     5
  1

1001
ACAD
1000
MTEXTBEGIN
1070
    73
1070
     1
1070
    44
1040
1.0
1070
    74
1070
     0
1000
MTEXTEND
  0
MTEXT
  5
561E
330
1A
100
AcDbEntity
  8
SUNPOU
100
AcDbMText
 10
105884.6285225027
 20
93730.15535542933
 30
0.0
 40
10.5
 41
0.0
 71
     9
 72
     5
  1

1001
ACAD
1000
MTEXTBEGIN
1070
    73
1070
     1
1070
    44
1040
1.0
1070
    74
1070
     0
1000
MTEXTEND
  0
MTEXT
  5
561F
330
1A
100
AcDbEntity
  8
SUNPOU
100
AcDbMText
 10
91936.6284221267
 20
74557.75621631714
 30
0.0
 40
3.5
 41
0.0
 71
     7
 72
     5
  1

1001
ACAD
1000
MTEXTBEGIN
1070
    73
1070
     1
1070
    44
1040
1.0
1070
    74
1070
     0
1000
MTEXTEND
  0
MTEXT
  5
5620
330
1A
100
AcDbEntity
  8
SUNPOU
100
AcDbMText
 10
72921.79781911986
 20
62319.90494713533
 30
0.0
 40
10.5
 41
0.0
 71
     7
 72
     5
  1

1001
ACAD
1000
MTEXTBEGIN
1070
    73
1070
     1
1070
    44
1040
1.0
1070
    74
1070
     0
1000
MTEXTEND
  0
MTEXT
  5
5621
330
1A
100
AcDbEntity
  8
SUNPOU
100
AcDbMText
 10
60464.56955417175
 20
46474.97336903692
 30
0.0
 40
35.0
 41
0.0
 71
     9
 72
     5
  1

1001
ACAD
1000
MTEXTBEGIN
1070
    73
1070
     1
1070
    44
1040
1.0
1070
    74
1070
     0
1000
MTEXTEND
  0
MTEXT
  5
5622
330
1A
100
AcDbEntity
  8
SUNPOU
100
AcDbMText
 10
59373.05461174672
 20
47083.74877908562
 30
0.0
 40
350.0000004171781
 41
0.0
 71
     7
 72
     5
  1

1001
ACAD
1000
MTEXTBEGIN
1070
    73
1070
     1
1070
    44
1040
1.0
1070
    74
1070
     0
1000
MTEXTEND
  0
MTEXT
  5
5623
330
1A
100
AcDbEntity
  8
0
100
AcDbMText
 10
65417.00536968962
 20
45063.67114122186
 30
0.0
 40
8.0
 41
0.0
 71
     7
 72
     5
  1

1001
ACAD
1000
MTEXTBEGIN
1070
    73
1070
     1
1070
    44
1040
1.0
1070
    74
1070
     0
1000
MTEXTEND
  0
MTEXT
  5
5624
330
1A
100
AcDbEntity
  8
0
100
AcDbMText
 10
67702.36305958452
 20
46034.46143597292
 30
0.0
 40
8.0
 41
0.0
 71
     7
 72
     5
  1

1001
ACAD
1000
MTEXTBEGIN
1070
    73
1070
     1
1070
    44
1040
1.0
1070
    74
1070
     0
1000
MTEXTEND
  0
MTEXT
  5
5625
330
1A
100
AcDbEntity
  8
SUNPOU
100
AcDbMText
 10
70368.26008026666
 20
55546.57282834803
 30
0.0
 40
10.5
 41
0.0
 71
     1
 72
     5
  1

1001
ACAD
1000
MTEXTBEGIN
1070
    73
1070
     1
1070
    44
1040
1.0
1070
    74
1070
     0
1000
MTEXTEND
  0
MTEXT
  5
5626
330
1A
100
AcDbEntity
  8
SUNPOU
100
AcDbMText
 10
62437.33688433072
 20
54599.77969443508
 30
0.0
 40
10.5
 41
0.0
 71
     7
 72
     5
  1

1001
ACAD
1000
MTEXTBEGIN
1070
    73
1070
     1
1070
    44
1040
1.0
1070
    74
1070
     0
1000
MTEXTEND
  0
MTEXT
  5
5627
330
1A
100
AcDbEntity
  8
SUNPOU
100
AcDbMText
 10
65386.32054884349
 20
59500.45576627792
 30
0.0
 40
10.5
 41
0.0
 71
     7
 72
     5
  1

1001
ACAD
1000
MTEXTBEGIN
1070
    73
1070
     1
1070
    44
1040
1.0
1070
    74
1070
     0
1000
MTEXTEND
  0
MTEXT
  5
5628
330
1A
100
AcDbEntity
  8
SUNPOU
100
AcDbMText
 10
69895.39867679405
 20
61936.756513898
 30
0.0
 40
10.5
 41
0.0
 71
     7
 72
     5
  1

1001
ACAD
1000
MTEXTBEGIN
1070
    73
1070
     1
1070
    44
1040
1.0
1070
    74
1070
     0
1000
MTEXTEND
  0
MTEXT
  5
5629
330
1A
100
AcDbEntity
  8
SUNPOU
100
AcDbMText
 10
53496.23656356237
 20
40934.35266428691
 30
0.0
 40
10.5
 41
0.0
 71
     7
 72
     5
  1

1001
ACAD
1000
MTEXTBEGIN
1070
    73
1070
     1
1070
    44
1040
1.0
1070
    74
1070
     0
1000
MTEXTEND
  0
MTEXT
  5
562A
330
1A
100
AcDbEntity
  8
SUNPOU
100
AcDbMText
 10
55306.99947493731
 20
47261.76665176547
 30
0.0
 40
10.5
 41
0.0
 71
     9
 72
     5
  1

1001
ACAD
1000
MTEXTBEGIN
1070
    73
1070
     1
1070
    44
1040
1.0
1070
    74
1070
     0
1000
MTEXTEND
  0
MTEXT
  5
562B
330
1A
100
AcDbEntity
  8
SUNPOU
100
AcDbMText
 10
64029.16704085528
 20
54677.60118330295
 30
0.0
 40
10.5
 41
0.0
 71
     9
 72
     5
  1

1001
ACAD
1000
MTEXTBEGIN
1070
    73
1070
     1
1070
    44
1040
1.0
1070
    74
1070
     0
1000
MTEXTEND
  0
MTEXT
  5
562C
330
1A
100
AcDbEntity
  8
SUNPOU
100
AcDbMText
 10
82982.92575818527
 20
72144.17723579499
 30
0.0
 40
10.5
 41
0.0
 71
     9
 72
     5
  1

1001
ACAD
1000
MTEXTBEGIN
1070
    73
1070
     1
1070
    44
1040
1.0
1070
    74
1070
     0
1000
MTEXTEND
  0
MTEXT
  5
562D
330
1A
100
AcDbEntity
  8
SUNPOU
100
AcDbMText
 10
84926.33300489467
 20
70343.12815591698
 30
0.0
 40
3.5
 41
0.0
 71
     9
 72
     5
  1

1001
ACAD
1000
MTEXTBEGIN
1070
    73
1070
     1
1070
    44
1040
1.0
1070
    74
1070
     0
1000
MTEXTEND
  0
MTEXT
  5
562E
330
1A
100
AcDbEntity
  8
SUNPOU
100
AcDbMText
 10
116052.5128375143
 20
112838.0738235743
 30
0.0
 40
10.5
 41
0.0
 71
     9
 72
     5
  1

1001
ACAD
1000
MTEXTBEGIN
1070
    73
1070
     1
1070
    44
1040
1.0
1070
    74
1070
     0
1000
MTEXTEND
  0
MTEXT
  5
562F
330
1A
100
AcDbEntity
  8
SUNPOU
100
AcDbMText
 10
117995.9200842238
 20
111037.0247436963
 30
0.0
 40
3.5
 41
0.0
 71
     9
 72
     5
  1

1001
ACAD
1000
MTEXTBEGIN
1070
    73
1070
     1
1070
    44
1040
1.0
1070
    74
1070
     0
1000
MTEXTEND
  0
MTEXT
  5
5630
330
1A
100
AcDbEntity
  8
SUNPOU
100
AcDbMText
 10
66492.78054330994
 20
58671.23897854939
 30
0.0
 40
10.5
 41
0.0
 71
     9
 72
     5
  1

1001
ACAD
1000
MTEXTBEGIN
1070
    73
1070
     1
1070
    44
1040
1.0
1070
    74
1070
     0
1000
MTEXTEND
  0
MTEXT
  5
5631
330
1A
100
AcDbEntity
  8
SUNPOU
100
AcDbMText
 10
52544.78044293396
 20
39498.83983943717
 30
0.0
 40
3.5
 41
0.0
 71
     7
 72
     5
  1

1001
ACAD
1000
MTEXTBEGIN
1070
    73
1070
     1
1070
    44
1040
1.0
1070
    74
1070
     0
1000
MTEXTEND
  0
MTEXT
  5
5632
330
1A
100
AcDbEntity
  8
SUNPOU
100
AcDbMText
 10
66237.13112570454
 20
48857.90306045851
 30
0.0
 40
10.5
 41
0.0
 71
     9
 72
     5
  1

1001
ACAD
1000
MTEXTBEGIN
1070
    73
1070
     1
1070
    44
1040
1.0
1070
    74
1070
     0
1000
MTEXTEND
  0
MTEXT
  5
5633
330
1A
100
AcDbEntity
  8
SUNPOU
100
AcDbMText
 10
74959.29869162252
 20
56273.737591996
 30
0.0
 40
10.5
 41
0.0
 71
     9
 72
     5
  1

1001
ACAD
1000
MTEXTBEGIN
1070
    73
1070
     1
1070
    44
1040
1.0
1070
    74
1070
     0
1000
MTEXTEND
  0
MTEXT
  5
5634
330
1A
100
AcDbEntity
  8
SUNPOU
100
AcDbMText
 10
93913.0574089525
 20
73740.31364448805
 30
0.0
 40
10.5
 41
0.0
 71
     9
 72
     5
  1

1001
ACAD
1000
MTEXTBEGIN
1070
    73
1070
     1
1070
    44
1040
1.0
1070
    74
1070
     0
1000
MTEXTEND
  0
MTEXT
  5
5635
330
1A
100
AcDbEntity
  8
SUNPOU
100
AcDbMText
 10
95856.46465566192
 20
71939.26456461004
 30
0.0
 40
3.5
 41
0.0
 71
     9
 72
     5
  1

1001
ACAD
1000
MTEXTBEGIN
1070
    73
1070
     1
1070
    44
1040
1.0
1070
    74
1070
     0
1000
MTEXTEND
  0
MTEXT
  5
5636
330
1A
100
AcDbEntity
  8
SUNPOU
100
AcDbMText
 10
126982.6444882816
 20
114434.2102322673
 30
0.0
 40
10.5
 41
0.0
 71
     9
 72
     5
  1

1001
ACAD
1000
MTEXTBEGIN
1070
    73
1070
     1
1070
    44
1040
1.0
1070
    74
1070
     0
1000
MTEXTEND
  0
MTEXT
  5
5637
330
1A
100
AcDbEntity
  8
SUNPOU
100
AcDbMText
 10
128926.051734991
 20
112633.1611523893
 30
0.0
 40
3.5
 41
0.0
 71
     9
 72
     5
  1

1001
ACAD
1000
MTEXTBEGIN
1070
    73
1070
     1
1070
    44
1040
1.0
1070
    74
1070
     0
1000
MTEXTEND
  0
MTEXT
  5
5638
330
1A
100
AcDbEntity
  8
SUNPOU
100
AcDbMText
 10
77422.91219407717
 20
60267.37538724244
 30
0.0
 40
10.5
 41
0.0
 71
     9
 72
     5
  1

1001
ACAD
1000
MTEXTBEGIN
1070
    73
1070
     1
1070
    44
1040
1.0
1070
    74
1070
     0
1000
MTEXTEND
  0
MTEXT
  5
5639
330
1A
100
AcDbEntity
  8
SUNPOU
100
AcDbMText
 10
63474.91209370119
 20
41094.97624813023
 30
0.0
 40
3.5
 41
0.0
 71
     7
 72
     5
  1

1001
ACAD
1000
MTEXTBEGIN
1070
    73
1070
     1
1070
    44
1040
1.0
1070
    74
1070
     0
1000
MTEXTEND
  0
MTEXT
  5
563A
330
1A
100
AcDbEntity
  8
SUNPOU
100
AcDbMText
 10
48117.65086229006
 20
40806.11043916631
 30
0.0
 40
10.5
 41
0.0
 71
     9
 72
     5
  1

1001
ACAD
1000
MTEXTBEGIN
1070
    73
1070
     1
1070
    44
1040
1.0
1070
    74
1070
     0
1000
MTEXTEND
  0
MTEXT
  5
563B
330
1A
100
AcDbEntity
  8
SUNPOU
100
AcDbMText
 10
67071.40957962004
 20
58272.68649165837
 30
0.0
 40
10.5
 41
0.0
 71
     9
 72
     5
  1

1001
ACAD
1000
MTEXTBEGIN
1070
    73
1070
     1
1070
    44
1040
1.0
1070
    74
1070
     0
1000
MTEXTEND
  0
MTEXT
  5
563C
330
1A
100
AcDbEntity
  8
SUNPOU
100
AcDbMText
 10
69014.81682632945
 20
56471.63741178035
 30
0.0
 40
3.5
 41
0.0
 71
     9
 72
     5
  1

1001
ACAD
1000
MTEXTBEGIN
1070
    73
1070
     1
1070
    44
1040
1.0
1070
    74
1070
     0
1000
MTEXTEND
  0
MTEXT
  5
563D
330
1A
100
AcDbEntity
  8
SUNPOU
100
AcDbMText
 10
100140.9966589491
 20
98966.58307943772
 30
0.0
 40
10.5
 41
0.0
 71
     9
 72
     5
  1

1001
ACAD
1000
MTEXTBEGIN
1070
    73
1070
     1
1070
    44
1040
1.0
1070
    74
1070
     0
1000
MTEXTEND
  0
MTEXT
  5
563E
330
1A
100
AcDbEntity
  8
SUNPOU
100
AcDbMText
 10
102084.4039056586
 20
97165.53399955969
 30
0.0
 40
3.5
 41
0.0
 71
     9
 72
     5
  1

1001
ACAD
1000
MTEXTBEGIN
1070
    73
1070
     1
1070
    44
1040
1.0
1070
    74
1070
     0
1000
MTEXTEND
  0
MTEXT
  5
563F
330
1A
100
AcDbEntity
  8
SUNPOU
100
AcDbMText
 10
50581.26436474472
 20
44799.74823441275
 30
0.0
 40
10.5
 41
0.0
 71
     9
 72
     5
  1

1001
ACAD
1000
MTEXTBEGIN
1070
    73
1070
     1
1070
    44
1040
1.0
1070
    74
1070
     0
1000
MTEXTEND
  0
MTEXT
  5
5640
330
1A
100
AcDbEntity
  8
SUNPOU
100
AcDbMText
 10
36633.26426436873
 20
25627.34909530054
 30
0.0
 40
3.5
 41
0.0
 71
     7
 72
     5
  1

1001
ACAD
1000
MTEXTBEGIN
1070
    73
1070
     1
1070
    44
1040
1.0
1070
    74
1070
     0
1000
MTEXTEND
  0
MTEXT
  5
5641
330
1A
100
AcDbEntity
  8
SUNPOU
100
AcDbMText
 10
61069.42493315968
 20
52574.61207825771
 30
0.0
 40
10.5
 41
0.0
 71
     9
 72
     5
  1

1001
ACAD
1000
MTEXTBEGIN
1070
    73
1070
     1
1070
    44
1040
1.0
1070
    74
1070
     0
1000
MTEXTEND
  0
MTEXT
  5
5642
330
1A
100
AcDbEntity
  8
SUNPOU
100
AcDbMText
 10
80023.18365048967
 20
70041.18813074978
 30
0.0
 40
10.5
 41
0.0
 71
     9
 72
     5
  1

1001
ACAD
1000
MTEXTBEGIN
1070
    73
1070
     1
1070
    44
1040
1.0
1070
    74
1070
     0
1000
MTEXTEND
  0
MTEXT
  5
5643
330
1A
100
AcDbEntity
  8
SUNPOU
100
AcDbMText
 10
81966.59089719908
 20
68240.13905087176
 30
0.0
 40
3.5
 41
0.0
 71
     9
 72
     5
  1

1001
ACAD
1000
MTEXTBEGIN
1070
    73
1070
     1
1070
    44
1040
1.0
1070
    74
1070
     0
1000
MTEXTEND
  0
MTEXT
  5
5644
330
1A
100
AcDbEntity
  8
SUNPOU
100
AcDbMText
 10
113092.7707298187
 20
110735.0847185291
 30
0.0
 40
10.5
 41
0.0
 71
     9
 72
     5
  1

1001
ACAD
1000
MTEXTBEGIN
1070
    73
1070
     1
1070
    44
1040
1.0
1070
    74
1070
     0
1000
MTEXTEND
  0
MTEXT
  5
5645
330
1A
100
AcDbEntity
  8
SUNPOU
100
AcDbMText
 10
115036.1779765282
 20
108934.0356386511
 30
0.0
 40
3.5
 41
0.0
 71
     9
 72
     5
  1

1001
ACAD
1000
MTEXTBEGIN
1070
    73
1070
     1
1070
    44
1040
1.0
1070
    74
1070
     0
1000
MTEXTEND
  0
MTEXT
  5
5646
330
1A
100
AcDbEntity
  8
SUNPOU
100
AcDbMText
 10
63533.03843561433
 20
56568.24987350415
 30
0.0
 40
10.5
 41
0.0
 71
     9
 72
     5
  1

1001
ACAD
1000
MTEXTBEGIN
1070
    73
1070
     1
1070
    44
1040
1.0
1070
    74
1070
     0
1000
MTEXTEND
  0
MTEXT
  5
5647
330
1A
100
AcDbEntity
  8
SUNPOU
100
AcDbMText
 10
49585.03833523835
 20
37395.85073439196
 30
0.0
 40
3.5
 41
0.0
 71
     7
 72
     5
  1

1001
ACAD
1000
MTEXTBEGIN
1070
    73
1070
     1
1070
    44
1040
1.0
1070
    74
1070
     0
1000
MTEXTEND
  0
MTEXT
  5
5648
330
1A
100
AcDbEntity
  8
SUNPOU
100
AcDbMText
 10
77137.31641337052
 20
70907.11375048141
 30
0.0
 40
10.5
 41
0.0
 71
     9
 72
     5
  1

1001
ACAD
1000
MTEXTBEGIN
1070
    73
1070
     1
1070
    44
1040
1.0
1070
    74
1070
     0
1000
MTEXTEND
  0
MTEXT
  5
5649
330
1A
100
AcDbEntity
  8
SUNPOU
100
AcDbMText
 10
79080.72366007995
 20
69106.06467060339
 30
0.0
 40
3.5
 41
0.0
 71
     9
 72
     5
  1

1001
ACAD
1000
MTEXTBEGIN
1070
    73
1070
     1
1070
    44
1040
1.0
1070
    74
1070
     0
1000
MTEXTEND
  0
MTEXT
  5
564A
330
1A
100
AcDbEntity
  8
SUNPOU
100
AcDbMText
 10
110206.9034926996
 20
111601.0103382607
 30
0.0
 40
10.5
 41
0.0
 71
     9
 72
     5
  1

1001
ACAD
1000
MTEXTBEGIN
1070
    73
1070
     1
1070
    44
1040
1.0
1070
    74
1070
     0
1000
MTEXTEND
  0
MTEXT
  5
564B
330
1A
100
AcDbEntity
  8
SUNPOU
100
AcDbMText
 10
112150.310739409
 20
109799.9612583827
 30
0.0
 40
3.5
 41
0.0
 71
     9
 72
     5
  1

1001
ACAD
1000
MTEXTBEGIN
1070
    73
1070
     1
1070
    44
1040
1.0
1070
    74
1070
     0
1000
MTEXTEND
  0
MTEXT
  5
564C
330
1A
100
AcDbEntity
  8
SUNPOU
100
AcDbMText
 10
108819.1333204968
 20
110677.9087286761
 30
0.0
 40
10.5
 41
0.0
 71
     9
 72
     5
  1

1001
ACAD
1000
MTEXTBEGIN
1070
    73
1070
     1
1070
    44
1040
1.0
1070
    74
1070
     0
1000
MTEXTEND
  0
MTEXT
  5
564D
330
1A
100
AcDbEntity
  8
SUNPOU
100
AcDbMText
 10
110762.5405672062
 20
108876.8596487981
 30
0.0
 40
3.5
 41
0.0
 71
     9
 72
     5
  1

1001
ACAD
1000
MTEXTBEGIN
1070
    73
1070
     1
1070
    44
1040
1.0
1070
    74
1070
     0
1000
MTEXTEND
  0
MTEXT
  5
564E
330
1A
100
AcDbEntity
  8
SUNPOU
100
AcDbMText
 10
76303.05507956816
 20
68695.31179059812
 30
0.0
 40
10.5
 41
0.0
 71
     9
 72
     5
  1

1001
ACAD
1000
MTEXTBEGIN
1070
    73
1070
     1
1070
    44
1040
1.0
1070
    74
1070
     0
1000
MTEXTEND
  0
MTEXT
  5
564F
330
1A
100
AcDbEntity
  8
SUNPOU
100
AcDbMText
 10
79026.36128373271
 20
69099.99348217918
 30
0.0
 40
3.5
 41
0.0
 71
     9
 72
     5
  1

1001
ACAD
1000
MTEXTBEGIN
1070
    73
1070
     1
1070
    44
1040
1.0
1070
    74
1070
     0
1000
MTEXTEND
  0
MTEXT
  5
5650
330
1A
100
AcDbEntity
  8
SUNPOU
100
AcDbMText
 10
78234.00675862522
 20
65938.68764412436
 30
0.0
 40
10.5
 41
0.0
 71
     9
 72
     5
  1

1001
ACAD
1000
MTEXTBEGIN
1070
    73
1070
     1
1070
    44
1040
1.0
1070
    74
1070
     0
1000
MTEXTEND
  0
MTEXT
  5
5651
330
1A
100
AcDbEntity
  8
SUNPOU
100
AcDbMText
 10
80177.41400533465
 20
64137.63856424636
 30
0.0
 40
3.5
 41
0.0
 71
     9
 72
     5
  1

1001
ACAD
1000
MTEXTBEGIN
1070
    73
1070
     1
1070
    44
1040
1.0
1070
    74
1070
     0
1000
MTEXTEND
  0
MTEXT
  5
5652
330
1A
100
AcDbEntity
  8
SUNPOU
100
AcDbMText
 10
80122.50949592123
 20
64024.86668196205
 30
0.0
 40
3.5
 41
0.0
 71
     9
 72
     5
  1

1001
ACAD
1000
MTEXTBEGIN
1070
    73
1070
     1
1070
    44
1040
1.0
1070
    74
1070
     0
1000
MTEXTEND
  0
MTEXT
  5
5653
330
1A
100
AcDbEntity
  8
SUNPOU
100
AcDbMText
 10
79486.58135950133
 20
63213.54544089553
 30
0.0
 40
3.5
 41
0.0
 71
     9
 72
     5
  1

1001
ACAD
1000
MTEXTBEGIN
1070
    73
1070
     1
1070
    44
1040
1.0
1070
    74
1070
     0
1000
MTEXTEND
  0
MTEXT
  5
5654
330
1A
100
AcDbEntity
  8
SUNPOU
100
AcDbMText
 10
79485.3409400806
 20
63213.29746395804
 30
0.0
 40
10.5
 41
0.0
 71
     9
 72
     5
  1

1001
ACAD
1000
MTEXTBEGIN
1070
    73
1070
     1
1070
    44
1040
1.0
1070
    74
1070
     0
1000
MTEXTEND
  0
MTEXT
  5
5655
330
1A
100
AcDbEntity
  8
SUNPOU
100
AcDbMText
 10
85473.63363627567
 20
80747.76348077064
 30
0.0
 40
10.5
 41
0.0
 71
     9
 72
     5
  1

1001
ACAD
1000
MTEXTBEGIN
1070
    73
1070
     1
1070
    44
1040
1.0
1070
    74
1070
     0
1000
MTEXTEND
  0
MTEXT
  5
5656
330
1A
100
AcDbEntity
  8
SUNPOU
100
AcDbMText
 10
94195.80120219368
 20
88163.59801230809
 30
0.0
 40
10.5
 41
0.0
 71
     9
 72
     5
  1

1001
ACAD
1000
MTEXTBEGIN
1070
    73
1070
     1
1070
    44
1040
1.0
1070
    74
1070
     0
1000
MTEXTEND
  0
MTEXT
  5
5657
330
1A
100
AcDbEntity
  8
SUNPOU
100
AcDbMText
 10
113149.5599195236
 20
105630.1740648001
 30
0.0
 40
10.5
 41
0.0
 71
     9
 72
     5
  1

1001
ACAD
1000
MTEXTBEGIN
1070
    73
1070
     1
1070
    44
1040
1.0
1070
    74
1070
     0
1000
MTEXTEND
  0
MTEXT
  5
5658
330
1A
100
AcDbEntity
  8
SUNPOU
100
AcDbMText
 10
115092.967166233
 20
103829.1249849221
 30
0.0
 40
3.5
 41
0.0
 71
     9
 72
     5
  1

1001
ACAD
1000
MTEXTBEGIN
1070
    73
1070
     1
1070
    44
1040
1.0
1070
    74
1070
     0
1000
MTEXTEND
  0
MTEXT
  5
5659
330
1A
100
AcDbEntity
  8
SUNPOU
100
AcDbMText
 10
146219.1469988527
 20
146324.0706525794
 30
0.0
 40
10.5
 41
0.0
 71
     9
 72
     5
  1

1001
ACAD
1000
MTEXTBEGIN
1070
    73
1070
     1
1070
    44
1040
1.0
1070
    74
1070
     0
1000
MTEXTEND
  0
MTEXT
  5
565A
330
1A
100
AcDbEntity
  8
SUNPOU
100
AcDbMText
 10
148162.5542455621
 20
144523.0215727014
 30
0.0
 40
3.5
 41
0.0
 71
     9
 72
     5
  1

1001
ACAD
1000
MTEXTBEGIN
1070
    73
1070
     1
1070
    44
1040
1.0
1070
    74
1070
     0
1000
MTEXTEND
  0
MTEXT
  5
565B
330
1A
100
AcDbEntity
  8
SUNPOU
100
AcDbMText
 10
96659.41470464833
 20
92157.23580755453
 30
0.0
 40
10.5
 41
0.0
 71
     9
 72
     5
  1

1001
ACAD
1000
MTEXTBEGIN
1070
    73
1070
     1
1070
    44
1040
1.0
1070
    74
1070
     0
1000
MTEXTEND
  0
MTEXT
  5
565C
330
1A
100
AcDbEntity
  8
SUNPOU
100
AcDbMText
 10
82711.41460427234
 20
72984.83666844234
 30
0.0
 40
3.5
 41
0.0
 71
     7
 72
     5
  1

1001
ACAD
1000
MTEXTBEGIN
1070
    73
1070
     1
1070
    44
1040
1.0
1070
    74
1070
     0
1000
MTEXTEND
  0
MTEXT
  5
565D
330
1A
100
AcDbEntity
  8
SUNPOU
100
AcDbMText
 10
63696.58400126548
 20
60746.98539926055
 30
0.0
 40
10.5
 41
0.0
 71
     7
 72
     5
  1

1001
ACAD
1000
MTEXTBEGIN
1070
    73
1070
     1
1070
    44
1040
1.0
1070
    74
1070
     0
1000
MTEXTEND
  0
MTEXT
  5
565E
330
1A
100
AcDbEntity
  8
SUNPOU
100
AcDbMText
 10
51239.35573631738
 20
44902.05382116213
 30
0.0
 40
35.0
 41
0.0
 71
     9
 72
     5
  1

1001
ACAD
1000
MTEXTBEGIN
1070
    73
1070
     1
1070
    44
1040
1.0
1070
    74
1070
     0
1000
MTEXTEND
  0
MTEXT
  5
565F
330
1A
100
AcDbEntity
  8
SUNPOU
100
AcDbMText
 10
50147.84079389233
 20
45510.82923121084
 30
0.0
 40
350.0000004171781
 41
0.0
 71
     7
 72
     5
  1

1001
ACAD
1000
MTEXTBEGIN
1070
    73
1070
     1
1070
    44
1040
1.0
1070
    74
1070
     0
1000
MTEXTEND
  0
MTEXT
  5
5660
330
1A
100
AcDbEntity
  8
0
100
AcDbMText
 10
56191.79155183523
 20
43490.75159334705
 30
0.0
 40
8.0
 41
0.0
 71
     7
 72
     5
  1

1001
ACAD
1000
MTEXTBEGIN
1070
    73
1070
     1
1070
    44
1040
1.0
1070
    74
1070
     0
1000
MTEXTEND
  0
MTEXT
  5
5661
330
1A
100
AcDbEntity
  8
0
100
AcDbMText
 10
58477.14924173013
 20
44461.54188809812
 30
0.0
 40
8.0
 41
0.0
 71
     7
 72
     5
  1

1001
ACAD
1000
MTEXTBEGIN
1070
    73
1070
     1
1070
    44
1040
1.0
1070
    74
1070
     0
1000
MTEXTEND
  0
MTEXT
  5
5662
330
1A
100
AcDbEntity
  8
SUNPOU
100
AcDbMText
 10
61143.04626241227
 20
53973.65328047324
 30
0.0
 40
10.5
 41
0.0
 71
     1
 72
     5
  1

1001
ACAD
1000
MTEXTBEGIN
1070
    73
1070
     1
1070
    44
1040
1.0
1070
    74
1070
     0
1000
MTEXTEND
  0
MTEXT
  5
5663
330
1A
100
AcDbEntity
  8
SUNPOU
100
AcDbMText
 10
53212.12306647634
 20
53026.86014656028
 30
0.0
 40
10.5
 41
0.0
 71
     7
 72
     5
  1

1001
ACAD
1000
MTEXTBEGIN
1070
    73
1070
     1
1070
    44
1040
1.0
1070
    74
1070
     0
1000
MTEXTEND
  0
MTEXT
  5
5664
330
1A
100
AcDbEntity
  8
SUNPOU
100
AcDbMText
 10
56161.1067309891
 20
57927.53621840312
 30
0.0
 40
10.5
 41
0.0
 71
     7
 72
     5
  1

1001
ACAD
1000
MTEXTBEGIN
1070
    73
1070
     1
1070
    44
1040
1.0
1070
    74
1070
     0
1000
MTEXTEND
  0
MTEXT
  5
5665
330
1A
100
AcDbEntity
  8
SUNPOU
100
AcDbMText
 10
60670.18485893966
 20
60363.8369660232
 30
0.0
 40
10.5
 41
0.0
 71
     7
 72
     5
  1

1001
ACAD
1000
MTEXTBEGIN
1070
    73
1070
     1
1070
    44
1040
1.0
1070
    74
1070
     0
1000
MTEXTEND
  0
MTEXT
  5
5666
330
1A
100
AcDbEntity
  8
SUNPOU
100
AcDbMText
 10
44271.02274570799
 20
39361.43311641212
 30
0.0
 40
10.5
 41
0.0
 71
     7
 72
     5
  1

1001
ACAD
1000
MTEXTBEGIN
1070
    73
1070
     1
1070
    44
1040
1.0
1070
    74
1070
     0
1000
MTEXTEND
  0
MTEXT
  5
5667
330
1A
100
AcDbEntity
  8
SUNPOU
100
AcDbMText
 10
95462.54117960824
 20
85034.41368006038
 30
0.0
 40
10.5
 41
0.0
 71
     9
 72
     5
  1

1001
ACAD
1000
MTEXTBEGIN
1070
    73
1070
     1
1070
    44
1040
1.0
1070
    74
1070
     0
1000
MTEXTEND
  0
MTEXT
  5
5668
330
1A
100
AcDbEntity
  8
SUNPOU
100
AcDbMText
 10
104184.7087455262
 20
92450.24821159784
 30
0.0
 40
10.5
 41
0.0
 71
     9
 72
     5
  1

1001
ACAD
1000
MTEXTBEGIN
1070
    73
1070
     1
1070
    44
1040
1.0
1070
    74
1070
     0
1000
MTEXTEND
  0
MTEXT
  5
5669
330
1A
100
AcDbEntity
  8
SUNPOU
100
AcDbMText
 10
123138.4674628562
 20
109916.8242640898
 30
0.0
 40
10.5
 41
0.0
 71
     9
 72
     5
  1

1001
ACAD
1000
MTEXTBEGIN
1070
    73
1070
     1
1070
    44
1040
1.0
1070
    74
1070
     0
1000
MTEXTEND
  0
MTEXT
  5
566A
330
1A
100
AcDbEntity
  8
SUNPOU
100
AcDbMText
 10
125081.8747095656
 20
108115.7751842118
 30
0.0
 40
3.5
 41
0.0
 71
     9
 72
     5
  1

1001
ACAD
1000
MTEXTBEGIN
1070
    73
1070
     1
1070
    44
1040
1.0
1070
    74
1070
     0
1000
MTEXTEND
  0
MTEXT
  5
566B
330
1A
100
AcDbEntity
  8
SUNPOU
100
AcDbMText
 10
156208.0545421853
 20
150610.7208518691
 30
0.0
 40
10.5
 41
0.0
 71
     9
 72
     5
  1

1001
ACAD
1000
MTEXTBEGIN
1070
    73
1070
     1
1070
    44
1040
1.0
1070
    74
1070
     0
1000
MTEXTEND
  0
MTEXT
  5
566C
330
1A
100
AcDbEntity
  8
SUNPOU
100
AcDbMText
 10
158151.4617888947
 20
148809.6717719911
 30
0.0
 40
3.5
 41
0.0
 71
     9
 72
     5
  1

1001
ACAD
1000
MTEXTBEGIN
1070
    73
1070
     1
1070
    44
1040
1.0
1070
    74
1070
     0
1000
MTEXTEND
  0
MTEXT
  5
566D
330
1A
100
AcDbEntity
  8
SUNPOU
100
AcDbMText
 10
106648.3222479809
 20
96443.88600684427
 30
0.0
 40
10.5
 41
0.0
 71
     9
 72
     5
  1

1001
ACAD
1000
MTEXTBEGIN
1070
    73
1070
     1
1070
    44
1040
1.0
1070
    74
1070
     0
1000
MTEXTEND
  0
MTEXT
  5
566E
330
1A
100
AcDbEntity
  8
SUNPOU
100
AcDbMText
 10
92700.3221476049
 20
77271.48686773207
 30
0.0
 40
3.5
 41
0.0
 71
     7
 72
     5
  1

1001
ACAD
1000
MTEXTBEGIN
1070
    73
1070
     1
1070
    44
1040
1.0
1070
    74
1070
     0
1000
MTEXTEND
  0
MTEXT
  5
566F
330
1A
100
AcDbEntity
  8
SUNPOU
100
AcDbMText
 10
73685.49154459806
 20
65033.63559855027
 30
0.0
 40
10.5
 41
0.0
 71
     7
 72
     5
  1

1001
ACAD
1000
MTEXTBEGIN
1070
    73
1070
     1
1070
    44
1040
1.0
1070
    74
1070
     0
1000
MTEXTEND
  0
MTEXT
  5
5670
330
1A
100
AcDbEntity
  8
SUNPOU
100
AcDbMText
 10
61228.26327964995
 20
49188.70402045185
 30
0.0
 40
35.0
 41
0.0
 71
     9
 72
     5
  1

1001
ACAD
1000
MTEXTBEGIN
1070
    73
1070
     1
1070
    44
1040
1.0
1070
    74
1070
     0
1000
MTEXTEND
  0
MTEXT
  5
5671
330
1A
100
AcDbEntity
  8
SUNPOU
100
AcDbMText
 10
60136.74833722491
 20
49797.47943050056
 30
0.0
 40
350.0000004171781
 41
0.0
 71
     7
 72
     5
  1

1001
ACAD
1000
MTEXTBEGIN
1070
    73
1070
     1
1070
    44
1040
1.0
1070
    74
1070
     0
1000
MTEXTEND
  0
MTEXT
  5
5672
330
1A
100
AcDbEntity
  8
0
100
AcDbMText
 10
66180.69909516782
 20
47777.40179263678
 30
0.0
 40
8.0
 41
0.0
 71
     7
 72
     5
  1

1001
ACAD
1000
MTEXTBEGIN
1070
    73
1070
     1
1070
    44
1040
1.0
1070
    74
1070
     0
1000
MTEXTEND
  0
MTEXT
  5
5673
330
1A
100
AcDbEntity
  8
0
100
AcDbMText
 10
68466.05678506271
 20
48748.19208738784
 30
0.0
 40
8.0
 41
0.0
 71
     7
 72
     5
  1

1001
ACAD
1000
MTEXTBEGIN
1070
    73
1070
     1
1070
    44
1040
1.0
1070
    74
1070
     0
1000
MTEXTEND
  0
MTEXT
  5
5674
330
1A
100
AcDbEntity
  8
SUNPOU
100
AcDbMText
 10
71131.95380574485
 20
58260.30347976296
 30
0.0
 40
10.5
 41
0.0
 71
     1
 72
     5
  1

1001
ACAD
1000
MTEXTBEGIN
1070
    73
1070
     1
1070
    44
1040
1.0
1070
    74
1070
     0
1000
MTEXTEND
  0
MTEXT
  5
5675
330
1A
100
AcDbEntity
  8
SUNPOU
100
AcDbMText
 10
63201.03060980891
 20
57313.51034585002
 30
0.0
 40
10.5
 41
0.0
 71
     7
 72
     5
  1

1001
ACAD
1000
MTEXTBEGIN
1070
    73
1070
     1
1070
    44
1040
1.0
1070
    74
1070
     0
1000
MTEXTEND
  0
MTEXT
  5
5676
330
1A
100
AcDbEntity
  8
SUNPOU
100
AcDbMText
 10
66150.01427432169
 20
62214.18641769286
 30
0.0
 40
10.5
 41
0.0
 71
     7
 72
     5
  1

1001
ACAD
1000
MTEXTBEGIN
1070
    73
1070
     1
1070
    44
1040
1.0
1070
    74
1070
     0
1000
MTEXTEND
  0
MTEXT
  5
5677
330
1A
100
AcDbEntity
  8
SUNPOU
100
AcDbMText
 10
70659.09240227225
 20
64650.48716531294
 30
0.0
 40
10.5
 41
0.0
 71
     7
 72
     5
  1

1001
ACAD
1000
MTEXTBEGIN
1070
    73
1070
     1
1070
    44
1040
1.0
1070
    74
1070
     0
1000
MTEXTEND
  0
MTEXT
  5
5678
330
1A
100
AcDbEntity
  8
SUNPOU
100
AcDbMText
 10
54259.93028904056
 20
43648.08331570185
 30
0.0
 40
10.5
 41
0.0
 71
     7
 72
     5
  1

1001
ACAD
1000
MTEXTBEGIN
1070
    73
1070
     1
1070
    44
1040
1.0
1070
    74
1070
     0
1000
MTEXTEND
  0
MTEXT
  5
5679
330
1A
100
AcDbEntity
  8
SUNPOU
100
AcDbMText
 10
56070.69320041551
 20
49975.4973031804
 30
0.0
 40
10.5
 41
0.0
 71
     9
 72
     5
  1

1001
ACAD
1000
MTEXTBEGIN
1070
    73
1070
     1
1070
    44
1040
1.0
1070
    74
1070
     0
1000
MTEXTEND
  0
MTEXT
  5
567A
330
1A
100
AcDbEntity
  8
SUNPOU
100
AcDbMText
 10
64792.86076633348
 20
57391.33183471788
 30
0.0
 40
10.5
 41
0.0
 71
     9
 72
     5
  1

1001
ACAD
1000
MTEXTBEGIN
1070
    73
1070
     1
1070
    44
1040
1.0
1070
    74
1070
     0
1000
MTEXTEND
  0
MTEXT
  5
567B
330
1A
100
AcDbEntity
  8
SUNPOU
100
AcDbMText
 10
83746.61948366345
 20
74857.90788720994
 30
0.0
 40
10.5
 41
0.0
 71
     9
 72
     5
  1

1001
ACAD
1000
MTEXTBEGIN
1070
    73
1070
     1
1070
    44
1040
1.0
1070
    74
1070
     0
1000
MTEXTEND
  0
MTEXT
  5
567C
330
1A
100
AcDbEntity
  8
SUNPOU
100
AcDbMText
 10
85690.02673037287
 20
73056.85880733192
 30
0.0
 40
3.5
 41
0.0
 71
     9
 72
     5
  1

1001
ACAD
1000
MTEXTBEGIN
1070
    73
1070
     1
1070
    44
1040
1.0
1070
    74
1070
     0
1000
MTEXTEND
  0
MTEXT
  5
567D
330
1A
100
AcDbEntity
  8
SUNPOU
100
AcDbMText
 10
116816.2065629925
 20
115551.8044749892
 30
0.0
 40
10.5
 41
0.0
 71
     9
 72
     5
  1

1001
ACAD
1000
MTEXTBEGIN
1070
    73
1070
     1
1070
    44
1040
1.0
1070
    74
1070
     0
1000
MTEXTEND
  0
MTEXT
  5
567E
330
1A
100
AcDbEntity
  8
SUNPOU
100
AcDbMText
 10
118759.613809702
 20
113750.7553951112
 30
0.0
 40
3.5
 41
0.0
 71
     9
 72
     5
  1

1001
ACAD
1000
MTEXTBEGIN
1070
    73
1070
     1
1070
    44
1040
1.0
1070
    74
1070
     0
1000
MTEXTEND
  0
MTEXT
  5
567F
330
1A
100
AcDbEntity
  8
SUNPOU
100
AcDbMText
 10
67256.47426878814
 20
61384.96962996432
 30
0.0
 40
10.5
 41
0.0
 71
     9
 72
     5
  1

1001
ACAD
1000
MTEXTBEGIN
1070
    73
1070
     1
1070
    44
1040
1.0
1070
    74
1070
     0
1000
MTEXTEND
  0
MTEXT
  5
5680
330
1A
100
AcDbEntity
  8
SUNPOU
100
AcDbMText
 10
53308.47416841216
 20
42212.57049085211
 30
0.0
 40
3.5
 41
0.0
 71
     7
 72
     5
  1

1001
ACAD
1000
MTEXTBEGIN
1070
    73
1070
     1
1070
    44
1040
1.0
1070
    74
1070
     0
1000
MTEXTEND
  0
MTEXT
  5
5681
330
1A
100
AcDbEntity
  8
SUNPOU
100
AcDbMText
 10
67000.82485118274
 20
51571.63371187345
 30
0.0
 40
10.5
 41
0.0
 71
     9
 72
     5
  1

1001
ACAD
1000
MTEXTBEGIN
1070
    73
1070
     1
1070
    44
1040
1.0
1070
    74
1070
     0
1000
MTEXTEND
  0
MTEXT
  5
5682
330
1A
100
AcDbEntity
  8
SUNPOU
100
AcDbMText
 10
75722.99241710071
 20
58987.46824341094
 30
0.0
 40
10.5
 41
0.0
 71
     9
 72
     5
  1

1001
ACAD
1000
MTEXTBEGIN
1070
    73
1070
     1
1070
    44
1040
1.0
1070
    74
1070
     0
1000
MTEXTEND
  0
MTEXT
  5
5683
330
1A
100
AcDbEntity
  8
SUNPOU
100
AcDbMText
 10
94676.75113443068
 20
76454.04429590299
 30
0.0
 40
10.5
 41
0.0
 71
     9
 72
     5
  1

1001
ACAD
1000
MTEXTBEGIN
1070
    73
1070
     1
1070
    44
1040
1.0
1070
    74
1070
     0
1000
MTEXTEND
  0
MTEXT
  5
5684
330
1A
100
AcDbEntity
  8
SUNPOU
100
AcDbMText
 10
96620.1583811401
 20
74652.99521602498
 30
0.0
 40
3.5
 41
0.0
 71
     9
 72
     5
  1

1001
ACAD
1000
MTEXTBEGIN
1070
    73
1070
     1
1070
    44
1040
1.0
1070
    74
1070
     0
1000
MTEXTEND
  0
MTEXT
  5
5685
330
1A
100
AcDbEntity
  8
SUNPOU
100
AcDbMText
 10
127746.3382137598
 20
117147.9408836823
 30
0.0
 40
10.5
 41
0.0
 71
     9
 72
     5
  1

1001
ACAD
1000
MTEXTBEGIN
1070
    73
1070
     1
1070
    44
1040
1.0
1070
    74
1070
     0
1000
MTEXTEND
  0
MTEXT
  5
5686
330
1A
100
AcDbEntity
  8
SUNPOU
100
AcDbMText
 10
129689.7454604692
 20
115346.8918038043
 30
0.0
 40
3.5
 41
0.0
 71
     9
 72
     5
  1

1001
ACAD
1000
MTEXTBEGIN
1070
    73
1070
     1
1070
    44
1040
1.0
1070
    74
1070
     0
1000
MTEXTEND
  0
MTEXT
  5
5687
330
1A
100
AcDbEntity
  8
SUNPOU
100
AcDbMText
 10
78186.60591955537
 20
62981.10603865738
 30
0.0
 40
10.5
 41
0.0
 71
     9
 72
     5
  1

1001
ACAD
1000
MTEXTBEGIN
1070
    73
1070
     1
1070
    44
1040
1.0
1070
    74
1070
     0
1000
MTEXTEND
  0
MTEXT
  5
5688
330
1A
100
AcDbEntity
  8
SUNPOU
100
AcDbMText
 10
64238.60581917939
 20
43808.70689954517
 30
0.0
 40
3.5
 41
0.0
 71
     7
 72
     5
  1

1001
ACAD
1000
MTEXTBEGIN
1070
    73
1070
     1
1070
    44
1040
1.0
1070
    74
1070
     0
1000
MTEXTEND
  0
MTEXT
  5
5689
330
1A
100
AcDbEntity
  8
SUNPOU
100
AcDbMText
 10
33428.13481137435
 20
32770.04710035564
 30
0.0
 40
10.5
 41
0.0
 71
     9
 72
     5
  1

1001
ACAD
1000
MTEXTBEGIN
1070
    73
1070
     1
1070
    44
1040
1.0
1070
    74
1070
     0
1000
MTEXTEND
  0
MTEXT
  5
568A
330
1A
100
AcDbEntity
  8
SUNPOU
100
AcDbMText
 10
52381.89352870432
 20
50236.62315284769
 30
0.0
 40
10.5
 41
0.0
 71
     9
 72
     5
  1

1001
ACAD
1000
MTEXTBEGIN
1070
    73
1070
     1
1070
    44
1040
1.0
1070
    74
1070
     0
1000
MTEXTEND
  0
MTEXT
  5
568B
330
1A
100
AcDbEntity
  8
SUNPOU
100
AcDbMText
 10
54325.30077541374
 20
48435.57407296968
 30
0.0
 40
3.5
 41
0.0
 71
     9
 72
     5
  1

1001
ACAD
1000
MTEXTBEGIN
1070
    73
1070
     1
1070
    44
1040
1.0
1070
    74
1070
     0
1000
MTEXTEND
  0
MTEXT
  5
568C
330
1A
100
AcDbEntity
  8
SUNPOU
100
AcDbMText
 10
85451.48060803343
 20
90930.51974062703
 30
0.0
 40
10.5
 41
0.0
 71
     9
 72
     5
  1

1001
ACAD
1000
MTEXTBEGIN
1070
    73
1070
     1
1070
    44
1040
1.0
1070
    74
1070
     0
1000
MTEXTEND
  0
MTEXT
  5
568D
330
1A
100
AcDbEntity
  8
SUNPOU
100
AcDbMText
 10
87394.88785474286
 20
89129.47066074901
 30
0.0
 40
3.5
 41
0.0
 71
     9
 72
     5
  1

1001
ACAD
1000
MTEXTBEGIN
1070
    73
1070
     1
1070
    44
1040
1.0
1070
    74
1070
     0
1000
MTEXTEND
  0
MTEXT
  5
568E
330
1A
100
AcDbEntity
  8
SUNPOU
100
AcDbMText
 10
35891.74831382901
 20
36763.68489560208
 30
0.0
 40
10.5
 41
0.0
 71
     9
 72
     5
  1

1001
ACAD
1000
MTEXTBEGIN
1070
    73
1070
     1
1070
    44
1040
1.0
1070
    74
1070
     0
1000
MTEXTEND
  0
MTEXT
  5
568F
330
1A
100
AcDbEntity
  8
SUNPOU
100
AcDbMText
 10
21943.74821345303
 20
17591.28575648986
 30
0.0
 40
3.5
 41
0.0
 71
     7
 72
     5
  1

1001
ACAD
1000
MTEXTBEGIN
1070
    73
1070
     1
1070
    44
1040
1.0
1070
    74
1070
     0
1000
MTEXTEND
  0
MTEXT
  5
15AD5
330
1A
100
AcDbEntity
  8
ZISSEN1
100
AcDbMText
 10
-1645.349046775143
 20
2000.235786316167
 30
0.0
 40
5.0
 41
76.2713
 71
     1
 72
     5
  1
QDB-M240X2　No.SS0001f123
1001
ACAD
1000
MTEXTBEGIN
1070
    73
1070
     1
1070
    44
1040
1.0
1070
    74
1070
     0
1000
MTEXTEND
  0
LINE
  5
163B2
330
1A
100
AcDbEntity
  8
ZISSEN1
  6
CONTINUOUS
 62
     7
100
AcDbLine
 10
-1682.539104708595
 20
2001.320328273292
 30
0.0
 11
-1682.539104708595
 21
1998.920328273292
 31
0.0
  0
LINE
  5
163B3
330
1A
100
AcDbEntity
  8
ZISSEN1
  6
CONTINUOUS
 62
     7
100
AcDbLine
 10
-1679.880674569002
 20
2000.014453273292
 30
0.0
 11
-1680.083259415756
 21
1999.874127665601
 31
0.0
  0
LINE
  5
163B4
330
1A
100
AcDbEntity
  8
ZISSEN1
  6
CONTINUOUS
 62
     7
100
AcDbLine
 10
-1674.914950001434
 20
1999.874127665601
 30
0.0
 11
-1675.117534848188
 21
2000.014453273292
 31
0.0
  0
LINE
  5
163B5
330
1A
100
AcDbEntity
  8
ZISSEN1
  6
CONTINUOUS
 62
     7
100
AcDbLine
 10
-1732.880674569002
 20
2000.014453273292
 30
0.0
 11
-1733.083259415756
 21
1999.874127665601
 31
0.0
  0
LINE
  5
163B6
330
1A
100
AcDbEntity
  8
ZISSEN1
  6
CONTINUOUS
 62
     7
100
AcDbLine
 10
-1727.914950001433
 20
1999.874127665601
 30
0.0
 11
-1728.117534848188
 21
2000.014453273292
 31
0.0
  0
LINE
  5
163B7
330
1A
100
AcDbEntity
  8
ZISSEN1
  6
CONTINUOUS
 62
     7
100
AcDbLine
 10
-1735.999104708595
 20
1981.120328273292
 30
0.0
 11
-1735.999104708595
 21
2007.120328273292
 31
0.0
  0
LINE
  5
163B8
330
1A
100
AcDbEntity
  8
ZISSEN1
  6
CONTINUOUS
 62
     7
100
AcDbLine
 10
-1733.999104708595
 20
2007.120328273292
 30
0.0
 11
-1733.999104708595
 21
1981.120328273292
 31
0.0
  0
LINE
  5
163B9
330
1A
100
AcDbEntity
  8
ZISSEN1
  6
CONTINUOUS
 62
     7
100
AcDbLine
 10
-1674.499104708595
 20
1984.620328273292
 30
0.0
 11
-1733.999104708595
 21
1984.620328273292
 31
0.0
  0
LINE
  5
163BA
330
1A
100
AcDbEntity
  8
ZISSEN1
  6
CONTINUOUS
 62
     7
100
AcDbLine
 10
-1674.499104708595
 20
1986.220328273292
 30
0.0
 11
-1733.999104708595
 21
1986.220328273292
 31
0.0
  0
LINE
  5
163BB
330
1A
100
AcDbEntity
  8
ZISSEN1
  6
CONTINUOUS
 62
     7
100
AcDbLine
 10
-1674.499104708595
 20
1998.820328273292
 30
0.0
 11
-1733.499104708594
 21
1998.820328273292
 31
0.0
  0
LINE
  5
163BC
330
1A
100
AcDbEntity
  8
ZISSEN1
  6
CONTINUOUS
 62
     7
100
AcDbLine
 10
-1674.499104708595
 20
1997.220328273292
 30
0.0
 11
-1733.499104708594
 21
1997.220328273292
 31
0.0
  0
LINE
  5
163BD
330
1A
100
AcDbEntity
  8
ZISSEN1
  6
CONTINUOUS
 62
     7
100
AcDbLine
 10
-1684.499104708595
 20
1979.120328273292
 30
0.0
 11
-1733.999104708595
 21
1979.120328273292
 31
0.0
  0
LINE
  5
163BE
330
1A
100
AcDbEntity
  8
ZISSEN1
  6
CONTINUOUS
 62
     7
100
AcDbLine
 10
-1733.999104708595
 20
1981.120328273292
 30
0.0
 11
-1684.499104708595
 21
1981.120328273292
 31
0.0
  0
LINE
  5
163BF
330
1A
100
AcDbEntity
  8
ZISSEN1
  6
CONTINUOUS
 62
     7
100
AcDbLine
 10
-1732.249104708595
 20
1986.220328273292
 30
0.0
 11
-1732.249104708595
 21
1997.220328273292
 31
0.0
  0
LINE
  5
163C0
330
1A
100
AcDbEntity
  8
ZISSEN1
  6
CONTINUOUS
 62
     7
100
AcDbLine
 10
-1728.749104708595
 20
1986.220328273292
 30
0.0
 11
-1728.749104708595
 21
1997.220328273292
 31
0.0
  0
LINE
  5
163C1
330
1A
100
AcDbEntity
  8
ZISSEN1
  6
CONTINUOUS
 62
     7
100
AcDbLine
 10
-1730.021572220011
 20
1982.995572786679
 30
0.0
 11
-1729.558549314449
 21
1983.035646302879
 31
0.0
  0
LINE
  5
163C2
330
1A
100
AcDbEntity
  8
ZISSEN1
  6
CONTINUOUS
 62
     7
100
AcDbLine
 10
-1733.249104708595
 20
1984.620328273292
 30
0.0
 11
-1727.749104708595
 21
1984.620328273292
 31
0.0
  0
LINE
  5
163C3
330
1A
100
AcDbEntity
  8
ZISSEN1
  6
CONTINUOUS
 62
     7
100
AcDbLine
 10
-1732.249104708595
 20
1986.220328273292
 30
0.0
 11
-1728.749104708595
 21
1986.220328273292
 31
0.0
  0
LINE
  5
163C4
330
1A
100
AcDbEntity
  8
ZISSEN1
  6
CONTINUOUS
 62
     7
100
AcDbLine
 10
-1733.999104708595
 20
1982.120328273292
 30
0.0
 11
-1735.999104708595
 21
1982.120328273292
 31
0.0
  0
LINE
  5
163C5
330
1A
100
AcDbEntity
  8
ZISSEN1
  6
CONTINUOUS
 62
     7
100
AcDbLine
 10
-1733.999104708595
 20
1981.120328273292
 30
0.0
 11
-1735.999104708595
 21
1981.120328273292
 31
0.0
  0
ARC
  5
163C6
330
1A
100
AcDbEntity
  8
ZISSEN1
  6
CONTINUOUS
 62
     7
100
AcDbCircle
 10
-1733.999104708595
 20
1981.120328273292
 30
0.0
 40
2.0
100
AcDbArc
 50
180.0
 51
270.0
  0
LINE
  5
163C7
330
1A
100
AcDbEntity
  8
ZISSEN1
  6
CONTINUOUS
 62
     7
100
AcDbLine
 10
-1730.749104708594
 20
1981.120328273292
 30
0.0
 11
-1730.749104708594
 21
1979.120328273292
 31
0.0
  0
LINE
  5
163C8
330
1A
100
AcDbEntity
  8
ZISSEN1
  6
CONTINUOUS
 62
     7
100
AcDbLine
 10
-1732.999104708595
 20
1979.120328273292
 30
0.0
 11
-1732.999104708595
 21
1981.120328273292
 31
0.0
  0
LINE
  5
163C9
330
1A
100
AcDbEntity
  8
ZISSEN1
  6
CONTINUOUS
 62
     7
100
AcDbLine
 10
-1733.999104708595
 20
1979.120328273292
 30
0.0
 11
-1733.999104708595
 21
1981.120328273292
 31
0.0
  0
LINE
  5
163CA
330
1A
100
AcDbEntity
  8
ZISSEN1
  6
CONTINUOUS
 62
     7
100
AcDbLine
 10
-1733.249104708595
 20
1984.620328273292
 30
0.0
 11
-1733.249104708595
 21
1983.870328273292
 31
0.0
  0
LINE
  5
163CB
330
1A
100
AcDbEntity
  8
ZISSEN1
  6
CONTINUOUS
 62
     7
100
AcDbLine
 10
-1730.499104708595
 20
1982.982078273292
 30
0.0
 11
-1730.021572220011
 21
1982.995572786679
 31
0.0
  0
LINE
  5
163CC
330
1A
100
AcDbEntity
  8
ZISSEN1
  6
CONTINUOUS
 62
     7
100
AcDbLine
 10
-1730.976637197179
 20
1982.995572786679
 30
0.0
 11
-1730.499104708595
 21
1982.982078273292
 31
0.0
  0
LINE
  5
163CD
330
1A
100
AcDbEntity
  8
ZISSEN1
  6
CONTINUOUS
 62
     7
100
AcDbLine
 10
-1731.43966010274
 20
1983.035646302879
 30
0.0
 11
-1730.976637197179
 21
1982.995572786679
 31
0.0
  0
LINE
  5
163CE
330
1A
100
AcDbEntity
  8
ZISSEN1
  6
CONTINUOUS
 62
     7
100
AcDbLine
 10
-1731.874104708595
 20
1983.10108120838
 30
0.0
 11
-1731.43966010274
 21
1983.035646302879
 31
0.0
  0
LINE
  5
163CF
330
1A
100
AcDbEntity
  8
ZISSEN1
  6
CONTINUOUS
 62
     7
100
AcDbLine
 10
-1732.266770635233
 20
1983.189889296691
 30
0.0
 11
-1731.874104708595
 21
1983.10108120838
 31
0.0
  0
LINE
  5
163D0
330
1A
100
AcDbEntity
  8
ZISSEN1
  6
CONTINUOUS
 62
     7
100
AcDbLine
 10
-1732.605726927172
 20
1983.299372178988
 30
0.0
 11
-1732.266770635233
 21
1983.189889296691
 31
0.0
  0
LINE
  5
163D1
330
1A
100
AcDbEntity
  8
ZISSEN1
  6
CONTINUOUS
 62
     7
100
AcDbLine
 10
-1732.880674569002
 20
1983.426203273292
 30
0.0
 11
-1732.605726927172
 21
1983.299372178988
 31
0.0
  0
LINE
  5
163D2
330
1A
100
AcDbEntity
  8
ZISSEN1
  6
CONTINUOUS
 62
     7
100
AcDbLine
 10
-1733.083259415756
 20
1983.566528880983
 30
0.0
 11
-1732.880674569002
 21
1983.426203273292
 31
0.0
  0
LINE
  5
163D3
330
1A
100
AcDbEntity
  8
ZISSEN1
  6
CONTINUOUS
 62
     7
100
AcDbLine
 10
-1733.207326029378
 20
1983.716085279479
 30
0.0
 11
-1733.083259415756
 21
1983.566528880983
 31
0.0
  0
LINE
  5
163D4
330
1A
100
AcDbEntity
  8
ZISSEN1
  6
CONTINUOUS
 62
     7
100
AcDbLine
 10
-1733.249104708595
 20
1983.870328273292
 30
0.0
 11
-1733.207326029378
 21
1983.716085279479
 31
0.0
  0
LINE
  5
163D5
330
1A
100
AcDbEntity
  8
ZISSEN1
  6
CONTINUOUS
 62
     7
100
AcDbLine
 10
-1727.249104708595
 20
1981.120328273292
 30
0.0
 11
-1727.249104708595
 21
1979.120328273292
 31
0.0
  0
LINE
  5
163D6
330
1A
100
AcDbEntity
  8
ZISSEN1
  6
CONTINUOUS
 62
     7
100
AcDbLine
 10
-1724.999104708595
 20
1979.120328273292
 30
0.0
 11
-1724.999104708595
 21
1981.120328273292
 31
0.0
  0
LINE
  5
163D7
330
1A
100
AcDbEntity
  8
ZISSEN1
  6
CONTINUOUS
 62
     7
100
AcDbLine
 10
-1723.999104708595
 20
1979.120328273292
 30
0.0
 11
-1723.999104708595
 21
1981.120328273292
 31
0.0
  0
LINE
  5
163D8
330
1A
100
AcDbEntity
  8
ZISSEN1
  6
CONTINUOUS
 62
     7
100
AcDbLine
 10
-1727.749104708595
 20
1984.620328273292
 30
0.0
 11
-1727.749104708595
 21
1983.870328273292
 31
0.0
  0
LINE
  5
163D9
330
1A
100
AcDbEntity
  8
ZISSEN1
  6
CONTINUOUS
 62
     7
100
AcDbLine
 10
-1727.790883387811
 20
1983.716085279479
 30
0.0
 11
-1727.749104708595
 21
1983.870328273292
 31
0.0
  0
LINE
  5
163DA
330
1A
100
AcDbEntity
  8
ZISSEN1
  6
CONTINUOUS
 62
     7
100
AcDbLine
 10
-1727.914950001433
 20
1983.566528880983
 30
0.0
 11
-1727.790883387811
 21
1983.716085279479
 31
0.0
  0
LINE
  5
163DB
330
1A
100
AcDbEntity
  8
ZISSEN1
  6
CONTINUOUS
 62
     7
100
AcDbLine
 10
-1728.117534848188
 20
1983.426203273292
 30
0.0
 11
-1727.914950001433
 21
1983.566528880983
 31
0.0
  0
LINE
  5
163DC
330
1A
100
AcDbEntity
  8
ZISSEN1
  6
CONTINUOUS
 62
     7
100
AcDbLine
 10
-1728.392482490018
 20
1983.299372178988
 30
0.0
 11
-1728.117534848188
 21
1983.426203273292
 31
0.0
  0
LINE
  5
163DD
330
1A
100
AcDbEntity
  8
ZISSEN1
  6
CONTINUOUS
 62
     7
100
AcDbLine
 10
-1728.731438781957
 20
1983.189889296691
 30
0.0
 11
-1728.392482490018
 21
1983.299372178988
 31
0.0
  0
LINE
  5
163DE
330
1A
100
AcDbEntity
  8
ZISSEN1
  6
CONTINUOUS
 62
     7
100
AcDbLine
 10
-1729.124104708595
 20
1983.10108120838
 30
0.0
 11
-1728.731438781957
 21
1983.189889296691
 31
0.0
  0
LINE
  5
163DF
330
1A
100
AcDbEntity
  8
ZISSEN1
  6
CONTINUOUS
 62
     7
100
AcDbLine
 10
-1729.558549314449
 20
1983.035646302879
 30
0.0
 11
-1729.124104708595
 21
1983.10108120838
 31
0.0
  0
LINE
  5
163E0
330
1A
100
AcDbEntity
  8
ZISSEN1
  6
CONTINUOUS
 62
     7
100
AcDbLine
 10
-1732.249104708595
 20
1997.220328273292
 30
0.0
 11
-1728.749104708595
 21
1997.220328273292
 31
0.0
  0
LINE
  5
163E1
330
1A
100
AcDbEntity
  8
ZISSEN1
  6
CONTINUOUS
 62
     7
100
AcDbLine
 10
-1727.749104708595
 20
1998.820328273292
 30
0.0
 11
-1733.249104708595
 21
1998.820328273292
 31
0.0
  0
LINE
  5
163E2
330
1A
100
AcDbEntity
  8
ZISSEN1
  6
CONTINUOUS
 62
     7
100
AcDbLine
 10
-1733.999104708595
 20
1991.370328273292
 30
0.0
 11
-1735.999104708595
 21
1991.370328273292
 31
0.0
  0
LINE
  5
163E3
330
1A
100
AcDbEntity
  8
ZISSEN1
  6
CONTINUOUS
 62
     7
100
AcDbLine
 10
-1733.999104708595
 20
1994.870328273292
 30
0.0
 11
-1735.999104708595
 21
1994.870328273292
 31
0.0
  0
LINE
  5
163E4
330
1A
100
AcDbEntity
  8
ZISSEN1
  6
CONTINUOUS
 62
     7
100
AcDbLine
 10
-1733.249104708595
 20
1998.820328273292
 30
0.0
 11
-1733.249104708595
 21
1999.570328273292
 31
0.0
  0
LINE
  5
163E5
330
1A
100
AcDbEntity
  8
ZISSEN1
  6
CONTINUOUS
 62
     7
100
AcDbLine
 10
-1733.207326029378
 20
1999.724571267105
 30
0.0
 11
-1733.249104708595
 21
1999.570328273292
 31
0.0
  0
LINE
  5
163E6
330
1A
100
AcDbEntity
  8
ZISSEN1
  6
CONTINUOUS
 62
     7
100
AcDbLine
 10
-1733.083259415756
 20
1999.874127665601
 30
0.0
 11
-1733.207326029378
 21
1999.724571267105
 31
0.0
  0
LINE
  5
163E7
330
1A
100
AcDbEntity
  8
ZISSEN1
  6
CONTINUOUS
 62
     7
100
AcDbLine
 10
-1733.499104708594
 20
1997.220328273292
 30
0.0
 11
-1733.499104708594
 21
1998.820328273292
 31
0.0
  0
LINE
  5
163E8
330
1A
100
AcDbEntity
  8
ZISSEN1
  6
CONTINUOUS
 62
     7
100
AcDbLine
 10
-1727.749104708595
 20
1998.820328273292
 30
0.0
 11
-1727.749104708595
 21
1999.570328273292
 31
0.0
  0
LINE
  5
163E9
330
1A
100
AcDbEntity
  8
ZISSEN1
  6
CONTINUOUS
 62
     7
100
AcDbLine
 10
-1727.790883387811
 20
1999.724571267105
 30
0.0
 11
-1727.914950001433
 21
1999.874127665601
 31
0.0
  0
LINE
  5
163EA
330
1A
100
AcDbEntity
  8
ZISSEN1
  6
CONTINUOUS
 62
     7
100
AcDbLine
 10
-1727.749104708595
 20
1999.570328273292
 30
0.0
 11
-1727.790883387811
 21
1999.724571267105
 31
0.0
  0
LINE
  5
163EB
330
1A
100
AcDbEntity
  8
ZISSEN1
  6
CONTINUOUS
 62
     7
100
AcDbLine
 10
-1690.999104708595
 20
1997.220328273292
 30
0.0
 11
-1690.999104708595
 21
1998.820328273292
 31
0.0
  0
LINE
  5
163EC
330
1A
100
AcDbEntity
  8
ZISSEN1
  6
CONTINUOUS
 62
     7
100
AcDbLine
 10
-1674.499104708595
 20
1994.920328273292
 30
0.0
 11
-1672.499104708595
 21
1994.420328273292
 31
0.0
  0
LINE
  5
163ED
330
1A
100
AcDbEntity
  8
ZISSEN1
  6
CONTINUOUS
 62
     7
100
AcDbLine
 10
-1671.999104708595
 20
1986.520328273292
 30
0.0
 11
-1673.999104708595
 21
1986.520328273292
 31
0.0
  0
LINE
  5
163EE
330
1A
100
AcDbEntity
  8
ZISSEN1
  6
CONTINUOUS
 62
     7
100
AcDbLine
 10
-1671.999104708595
 20
1994.420328273292
 30
0.0
 11
-1682.199104708595
 21
1994.420328273292
 31
0.0
  0
INSERT
  5
163EF
330
1A
100
AcDbEntity
  8
ZISSEN1
100
AcDbBlockReference
  2
-001-51067_C
 10
-1666.874104708595
 20
1991.920328273292
 30
0.0
 41
-1.0
  0
LINE
  5
163F0
330
1A
100
AcDbEntity
  8
ZISSEN1
  6
CONTINUOUS
 62
     7
100
AcDbLine
 10
-1686.199104708595
 20
1986.220328273292
 30
0.0
 11
-1686.199104708595
 21
1989.220328273292
 31
0.0
  0
LINE
  5
163F1
330
1A
100
AcDbEntity
  8
ZISSEN1
  6
CONTINUOUS
 62
     7
100
AcDbLine
 10
-1679.249104708595
 20
1986.220328273292
 30
0.0
 11
-1679.249104708595
 21
1997.220328273292
 31
0.0
  0
LINE
  5
163F2
330
1A
100
AcDbEntity
  8
ZISSEN1
  6
CONTINUOUS
 62
     7
100
AcDbLine
 10
-1675.749104708595
 20
1986.220328273292
 30
0.0
 11
-1675.749104708595
 21
1997.220328273292
 31
0.0
  0
LINE
  5
163F3
330
1A
100
AcDbEntity
  8
ZISSEN1
  6
CONTINUOUS
 62
     7
100
AcDbLine
 10
-1673.999104708595
 20
1986.220328273292
 30
0.0
 11
-1686.199104708595
 21
1986.220328273292
 31
0.0
  0
LINE
  5
163F4
330
1A
100
AcDbEntity
  8
ZISSEN1
  6
CONTINUOUS
 62
     7
100
AcDbLine
 10
-1682.499104708595
 20
1984.620328273292
 30
0.0
 11
-1673.999104708595
 21
1984.620328273292
 31
0.0
  0
LINE
  5
163F5
330
1A
100
AcDbEntity
  8
ZISSEN1
  6
CONTINUOUS
 62
     7
100
AcDbLine
 10
-1682.499104708595
 20
1982.620328273292
 30
0.0
 11
-1673.999104708595
 21
1982.620328273292
 31
0.0
  0
LINE
  5
163F6
330
1A
100
AcDbEntity
  8
ZISSEN1
  6
CONTINUOUS
 62
     7
100
AcDbLine
 10
-1684.499104708595
 20
1982.620328273292
 30
0.0
 11
-1684.499104708595
 21
1981.120328273292
 31
0.0
  0
LINE
  5
163F7
330
1A
100
AcDbEntity
  8
ZISSEN1
  6
CONTINUOUS
 62
     7
100
AcDbLine
 10
-1682.499104708595
 20
1981.120328273292
 30
0.0
 11
-1682.499104708595
 21
1982.620328273292
 31
0.0
  0
ARC
  5
163F8
330
1A
100
AcDbEntity
  8
ZISSEN1
  6
CONTINUOUS
 62
     7
100
AcDbCircle
 10
-1684.499104708595
 20
1981.120328273292
 30
0.0
 40
2.0
100
AcDbArc
 50
270.0
 51
0.0
  0
ARC
  5
163F9
330
1A
100
AcDbEntity
  8
ZISSEN1
  6
CONTINUOUS
 62
     7
100
AcDbCircle
 10
-1682.499104708595
 20
1982.620328273292
 30
0.0
 40
2.0
100
AcDbArc
 50
90.0
 51
180.0
  0
LINE
  5
163FA
330
1A
100
AcDbEntity
  8
ZISSEN1
  6
CONTINUOUS
 62
     7
100
AcDbLine
 10
-1674.749104708595
 20
1982.620328273292
 30
0.0
 11
-1674.749104708595
 21
1981.870328273292
 31
0.0
  0
LINE
  5
163FB
330
1A
100
AcDbEntity
  8
ZISSEN1
  6
CONTINUOUS
 62
     7
100
AcDbLine
 10
-1680.249104708595
 20
1982.620328273292
 30
0.0
 11
-1680.249104708595
 21
1981.870328273292
 31
0.0
  0
LINE
  5
163FC
330
1A
100
AcDbEntity
  8
ZISSEN1
  6
CONTINUOUS
 62
     7
100
AcDbLine
 10
-1677.02157222001
 20
1980.995572786679
 30
0.0
 11
-1676.558549314449
 21
1981.035646302879
 31
0.0
  0
LINE
  5
163FD
330
1A
100
AcDbEntity
  8
ZISSEN1
  6
CONTINUOUS
 62
     7
100
AcDbLine
 10
-1677.499104708595
 20
1980.982078273292
 30
0.0
 11
-1677.02157222001
 21
1980.995572786679
 31
0.0
  0
LINE
  5
163FE
330
1A
100
AcDbEntity
  8
ZISSEN1
  6
CONTINUOUS
 62
     7
100
AcDbLine
 10
-1677.976637197179
 20
1980.995572786679
 30
0.0
 11
-1677.499104708595
 21
1980.982078273292
 31
0.0
  0
LINE
  5
163FF
330
1A
100
AcDbEntity
  8
ZISSEN1
  6
CONTINUOUS
 62
     7
100
AcDbLine
 10
-1678.43966010274
 20
1981.035646302879
 30
0.0
 11
-1677.976637197179
 21
1980.995572786679
 31
0.0
  0
LINE
  5
16400
330
1A
100
AcDbEntity
  8
ZISSEN1
  6
CONTINUOUS
 62
     7
100
AcDbLine
 10
-1678.874104708595
 20
1981.10108120838
 30
0.0
 11
-1678.43966010274
 21
1981.035646302879
 31
0.0
  0
LINE
  5
16401
330
1A
100
AcDbEntity
  8
ZISSEN1
  6
CONTINUOUS
 62
     7
100
AcDbLine
 10
-1679.266770635233
 20
1981.189889296691
 30
0.0
 11
-1678.874104708595
 21
1981.10108120838
 31
0.0
  0
LINE
  5
16402
330
1A
100
AcDbEntity
  8
ZISSEN1
  6
CONTINUOUS
 62
     7
100
AcDbLine
 10
-1679.605726927172
 20
1981.299372178988
 30
0.0
 11
-1679.266770635233
 21
1981.189889296691
 31
0.0
  0
LINE
  5
16403
330
1A
100
AcDbEntity
  8
ZISSEN1
  6
CONTINUOUS
 62
     7
100
AcDbLine
 10
-1679.880674569002
 20
1981.426203273292
 30
0.0
 11
-1679.605726927172
 21
1981.299372178988
 31
0.0
  0
LINE
  5
16404
330
1A
100
AcDbEntity
  8
ZISSEN1
  6
CONTINUOUS
 62
     7
100
AcDbLine
 10
-1680.083259415756
 20
1981.566528880983
 30
0.0
 11
-1679.880674569002
 21
1981.426203273292
 31
0.0
  0
LINE
  5
16405
330
1A
100
AcDbEntity
  8
ZISSEN1
  6
CONTINUOUS
 62
     7
100
AcDbLine
 10
-1680.207326029378
 20
1981.716085279479
 30
0.0
 11
-1680.083259415756
 21
1981.566528880983
 31
0.0
  0
LINE
  5
16406
330
1A
100
AcDbEntity
  8
ZISSEN1
  6
CONTINUOUS
 62
     7
100
AcDbLine
 10
-1680.249104708595
 20
1981.870328273292
 30
0.0
 11
-1680.207326029378
 21
1981.716085279479
 31
0.0
  0
LINE
  5
16407
330
1A
100
AcDbEntity
  8
ZISSEN1
  6
CONTINUOUS
 62
     7
100
AcDbLine
 10
-1674.790883387811
 20
1981.716085279479
 30
0.0
 11
-1674.749104708595
 21
1981.870328273292
 31
0.0
  0
LINE
  5
16408
330
1A
100
AcDbEntity
  8
ZISSEN1
  6
CONTINUOUS
 62
     7
100
AcDbLine
 10
-1674.914950001434
 20
1981.566528880983
 30
0.0
 11
-1674.790883387811
 21
1981.716085279479
 31
0.0
  0
LINE
  5
16409
330
1A
100
AcDbEntity
  8
ZISSEN1
  6
CONTINUOUS
 62
     7
100
AcDbLine
 10
-1675.117534848188
 20
1981.426203273292
 30
0.0
 11
-1674.914950001434
 21
1981.566528880983
 31
0.0
  0
LINE
  5
1640A
330
1A
100
AcDbEntity
  8
ZISSEN1
  6
CONTINUOUS
 62
     7
100
AcDbLine
 10
-1675.392482490018
 20
1981.299372178988
 30
0.0
 11
-1675.117534848188
 21
1981.426203273292
 31
0.0
  0
LINE
  5
1640B
330
1A
100
AcDbEntity
  8
ZISSEN1
  6
CONTINUOUS
 62
     7
100
AcDbLine
 10
-1675.731438781957
 20
1981.189889296691
 30
0.0
 11
-1675.392482490018
 21
1981.299372178988
 31
0.0
  0
LINE
  5
1640C
330
1A
100
AcDbEntity
  8
ZISSEN1
  6
CONTINUOUS
 62
     7
100
AcDbLine
 10
-1676.124104708595
 20
1981.10108120838
 30
0.0
 11
-1675.731438781957
 21
1981.189889296691
 31
0.0
  0
LINE
  5
1640D
330
1A
100
AcDbEntity
  8
ZISSEN1
  6
CONTINUOUS
 62
     7
100
AcDbLine
 10
-1676.558549314449
 20
1981.035646302879
 30
0.0
 11
-1676.124104708595
 21
1981.10108120838
 31
0.0
  0
LINE
  5
1640E
330
1A
100
AcDbEntity
  8
ZISSEN1
  6
CONTINUOUS
 62
     7
100
AcDbLine
 10
-1680.249104708595
 20
1982.620328273292
 30
0.0
 11
-1674.749104708595
 21
1982.620328273292
 31
0.0
  0
LINE
  5
1640F
330
1A
100
AcDbEntity
  8
ZISSEN1
  6
CONTINUOUS
 62
     7
100
AcDbLine
 10
-1679.249104708595
 20
1986.220328273292
 30
0.0
 11
-1675.749104708595
 21
1986.220328273292
 31
0.0
  0
LINE
  5
16410
330
1A
100
AcDbEntity
  8
ZISSEN1
  6
CONTINUOUS
 62
     7
100
AcDbLine
 10
-1673.999104708595
 20
1986.520328273292
 30
0.0
 11
-1673.999104708595
 21
1986.220328273292
 31
0.0
  0
LINE
  5
16411
330
1A
100
AcDbEntity
  8
ZISSEN1
  6
CONTINUOUS
 62
     7
100
AcDbLine
 10
-1673.999104708595
 20
1984.620328273292
 30
0.0
 11
-1673.999104708595
 21
1982.620328273292
 31
0.0
  0
LINE
  5
16412
330
1A
100
AcDbEntity
  8
ZISSEN1
  6
CONTINUOUS
 62
     7
100
AcDbLine
 10
-1674.999104708595
 20
1984.620328273292
 30
0.0
 11
-1674.999104708595
 21
1982.620328273292
 31
0.0
  0
LINE
  5
16413
330
1A
100
AcDbEntity
  8
ZISSEN1
  6
CONTINUOUS
 62
     7
100
AcDbLine
 10
-1674.499104708595
 20
1986.220328273292
 30
0.0
 11
-1674.499104708595
 21
1984.620328273292
 31
0.0
  0
LINE
  5
16414
330
1A
100
AcDbEntity
  8
ZISSEN1
  6
CONTINUOUS
 62
     7
100
AcDbLine
 10
-1680.249104708595
 20
1998.820328273292
 30
0.0
 11
-1681.649104708595
 21
1998.820328273292
 31
0.0
  0
LINE
  5
16415
330
1A
100
AcDbEntity
  8
ZISSEN1
  6
CONTINUOUS
 62
     7
100
AcDbLine
 10
-1680.249104708595
 20
1998.920328273292
 30
0.0
 11
-1682.539104708595
 21
1998.920328273292
 31
0.0
  0
LINE
  5
16416
330
1A
100
AcDbEntity
  8
ZISSEN1
  6
CONTINUOUS
 62
     7
100
AcDbLine
 10
-1682.539104708595
 20
1999.720328273292
 30
0.0
 11
-1680.209609475356
 21
1999.720328273292
 31
0.0
  0
LINE
  5
16417
330
1A
100
AcDbEntity
  8
ZISSEN1
  6
CONTINUOUS
 62
     7
100
AcDbLine
 10
-1682.199104708595
 20
1994.420328273292
 30
0.0
 11
-1682.199104708595
 21
1991.220328273292
 31
0.0
  0
LINE
  5
16418
330
1A
100
AcDbEntity
  8
ZISSEN1
  6
CONTINUOUS
 62
     7
100
AcDbLine
 10
-1686.199104708595
 20
1989.220328273292
 30
0.0
 11
-1684.199104708595
 21
1991.220328273292
 31
0.0
  0
LINE
  5
16419
330
1A
100
AcDbEntity
  8
ZISSEN1
  6
CONTINUOUS
 62
     7
100
AcDbLine
 10
-1684.199104708595
 20
1991.220328273292
 30
0.0
 11
-1682.199104708595
 21
1991.220328273292
 31
0.0
  0
LINE
  5
1641A
330
1A
100
AcDbEntity
  8
ZISSEN1
  6
CONTINUOUS
 62
     7
100
AcDbLine
 10
-1682.649104708595
 20
1998.970328273292
 30
0.0
 11
-1682.639104708595
 21
1998.970328273292
 31
0.0
  0
LINE
  5
1641B
330
1A
100
AcDbEntity
  8
ZISSEN1
  6
CONTINUOUS
 62
     7
100
AcDbLine
 10
-1681.739104708595
 20
1998.820328273292
 30
0.0
 11
-1681.739104708595
 21
1998.920328273292
 31
0.0
  0
LINE
  5
1641C
330
1A
100
AcDbEntity
  8
ZISSEN1
  6
CONTINUOUS
 62
     7
100
AcDbLine
 10
-1682.639104708595
 20
1999.820328273292
 30
0.0
 11
-1682.539104708595
 21
1999.820328273292
 31
0.0
  0
LINE
  5
1641D
330
1A
100
AcDbEntity
  8
ZISSEN1
  6
CONTINUOUS
 62
     7
100
AcDbLine
 10
-1682.639104708595
 20
1998.820328273292
 30
0.0
 11
-1681.739104708595
 21
1998.820328273292
 31
0.0
  0
LINE
  5
1641E
330
1A
100
AcDbEntity
  8
ZISSEN1
  6
CONTINUOUS
 62
     7
100
AcDbLine
 10
-1682.639104708595
 20
1998.820328273292
 30
0.0
 11
-1682.639104708595
 21
1999.820328273292
 31
0.0
  0
LINE
  5
1641F
330
1A
100
AcDbEntity
  8
ZISSEN1
  6
CONTINUOUS
 62
     7
100
AcDbLine
 10
-1682.649104708595
 20
1998.820328273292
 30
0.0
 11
-1682.649104708595
 21
1998.970328273292
 31
0.0
  0
LINE
  5
16420
330
1A
100
AcDbEntity
  8
ZISSEN1
  6
CONTINUOUS
 62
     7
100
AcDbLine
 10
-1681.649104708595
 20
1998.820328273292
 30
0.0
 11
-1682.649104708595
 21
1998.820328273292
 31
0.0
  0
LINE
  5
16421
330
1A
100
AcDbEntity
  8
ZISSEN1
  6
CONTINUOUS
 62
     7
100
AcDbLine
 10
-1679.249104708595
 20
1997.220328273292
 30
0.0
 11
-1675.749104708595
 21
1997.220328273292
 31
0.0
  0
LINE
  5
16422
330
1A
100
AcDbEntity
  8
ZISSEN1
  6
CONTINUOUS
 62
     7
100
AcDbLine
 10
-1674.749104708595
 20
1998.820328273292
 30
0.0
 11
-1680.249104708595
 21
1998.820328273292
 31
0.0
  0
LINE
  5
16423
330
1A
100
AcDbEntity
  8
ZISSEN1
  6
CONTINUOUS
 62
     7
100
AcDbLine
 10
-1680.249104708595
 20
1998.820328273292
 30
0.0
 11
-1680.249104708595
 21
1999.570328273292
 31
0.0
  0
LINE
  5
16424
330
1A
100
AcDbEntity
  8
ZISSEN1
  6
CONTINUOUS
 62
     7
100
AcDbLine
 10
-1680.207326029378
 20
1999.724571267105
 30
0.0
 11
-1680.249104708595
 21
1999.570328273292
 31
0.0
  0
LINE
  5
16425
330
1A
100
AcDbEntity
  8
ZISSEN1
  6
CONTINUOUS
 62
     7
100
AcDbLine
 10
-1680.083259415756
 20
1999.874127665601
 30
0.0
 11
-1680.207326029378
 21
1999.724571267105
 31
0.0
  0
LINE
  5
16426
330
1A
100
AcDbEntity
  8
ZISSEN1
  6
CONTINUOUS
 62
     7
100
AcDbLine
 10
-1674.999104708595
 20
1994.920328273292
 30
0.0
 11
-1674.499104708595
 21
1994.920328273292
 31
0.0
  0
LINE
  5
16427
330
1A
100
AcDbEntity
  8
ZISSEN1
  6
CONTINUOUS
 62
     7
100
AcDbLine
 10
-1674.999104708595
 20
1994.420328273292
 30
0.0
 11
-1674.999104708595
 21
1994.920328273292
 31
0.0
  0
LINE
  5
16428
330
1A
100
AcDbEntity
  8
ZISSEN1
  6
CONTINUOUS
 62
     7
100
AcDbLine
 10
-1674.749104708595
 20
1998.820328273292
 30
0.0
 11
-1674.749104708595
 21
1999.570328273292
 31
0.0
  0
LINE
  5
16429
330
1A
100
AcDbEntity
  8
ZISSEN1
  6
CONTINUOUS
 62
     7
100
AcDbLine
 10
-1674.790883387811
 20
1999.724571267105
 30
0.0
 11
-1674.914950001434
 21
1999.874127665601
 31
0.0
  0
LINE
  5
1642A
330
1A
100
AcDbEntity
  8
ZISSEN1
  6
CONTINUOUS
 62
     7
100
AcDbLine
 10
-1674.749104708595
 20
1999.570328273292
 30
0.0
 11
-1674.790883387811
 21
1999.724571267105
 31
0.0
  0
LINE
  5
1642B
330
1A
100
AcDbEntity
  8
ZISSEN1
  6
CONTINUOUS
 62
     7
100
AcDbLine
 10
-1674.499104708595
 20
1997.220328273292
 30
0.0
 11
-1674.499104708595
 21
1998.820328273292
 31
0.0
  0
LINE
  5
1642C
330
1A
100
AcDbEntity
  8
ZISSEN1
  6
CONTINUOUS
 62
     7
100
AcDbLine
 10
-1671.999104708595
 20
1994.420328273292
 30
0.0
 11
-1671.999104708595
 21
1986.520328273292
 31
0.0
  0
LINE
  5
1642D
330
1A
100
AcDbEntity
  8
ZISSEN1
100
AcDbLine
 10
-1623.399104708595
 20
2066.620328273292
 30
0.0
 11
-1623.099104708595
 21
2066.620328273292
 31
0.0
  0
LINE
  5
1642E
330
1A
100
AcDbEntity
  8
ZISSEN1
100
AcDbLine
 10
-1623.399104708595
 20
2068.170328273292
 30
0.0
 11
-1623.099104708595
 21
2068.170328273292
 31
0.0
  0
LINE
  5
1642F
330
1A
100
AcDbEntity
  8
ZISSEN1
100
AcDbLine
 10
-1623.399104708595
 20
2060.620328273292
 30
0.0
 11
-1623.099104708595
 21
2060.620328273292
 31
0.0
  0
LINE
  5
16430
330
1A
100
AcDbEntity
  8
ZISSEN1
100
AcDbLine
 10
-1623.399104708595
 20
2064.120328273292
 30
0.0
 11
-1623.099104708595
 21
2064.120328273292
 31
0.0
  0
LINE
  5
16431
330
1A
100
AcDbEntity
  8
ZISSEN1
100
AcDbLine
 10
-1623.399104708595
 20
2063.120328273292
 30
0.0
 11
-1623.099104708595
 21
2063.120328273292
 31
0.0
  0
LINE
  5
16432
330
1A
100
AcDbEntity
  8
ZISSEN1
100
AcDbLine
 10
-1623.399104708595
 20
2059.070328273292
 30
0.0
 11
-1623.099104708595
 21
2059.070328273292
 31
0.0
  0
LINE
  5
16433
330
1A
100
AcDbEntity
  8
ZISSEN1
100
AcDbLine
 10
-1623.399104708595
 20
2092.370328273292
 30
0.0
 11
-1623.099104708595
 21
2092.370328273292
 31
0.0
  0
LINE
  5
16434
330
1A
100
AcDbEntity
  8
ZISSEN1
100
AcDbLine
 10
-1623.399104708595
 20
2075.870328273292
 30
0.0
 11
-1623.099104708595
 21
2075.870328273292
 31
0.0
  0
LINE
  5
16435
330
1A
100
AcDbEntity
  8
ZISSEN1
100
AcDbLine
 10
-1623.399104708595
 20
2093.920328273292
 30
0.0
 11
-1623.099104708595
 21
2093.920328273292
 31
0.0
  0
LINE
  5
16436
330
1A
100
AcDbEntity
  8
ZISSEN1
100
AcDbLine
 10
-1623.399104708595
 20
2089.870328273291
 30
0.0
 11
-1623.099104708595
 21
2089.870328273291
 31
0.0
  0
LINE
  5
16437
330
1A
100
AcDbEntity
  8
ZISSEN1
100
AcDbLine
 10
-1623.399104708595
 20
2088.870328273292
 30
0.0
 11
-1623.099104708595
 21
2088.870328273292
 31
0.0
  0
LINE
  5
16438
330
1A
100
AcDbEntity
  8
ZISSEN1
100
AcDbLine
 10
-1623.399104708595
 20
2086.370328273292
 30
0.0
 11
-1623.099104708595
 21
2086.370328273292
 31
0.0
  0
LINE
  5
16439
330
1A
100
AcDbEntity
  8
ZISSEN1
100
AcDbLine
 10
-1623.399104708595
 20
2085.370328273292
 30
0.0
 11
-1623.099104708595
 21
2085.370328273292
 31
0.0
  0
LINE
  5
1643A
330
1A
100
AcDbEntity
  8
ZISSEN1
100
AcDbLine
 10
-1623.399104708595
 20
2082.870328273292
 30
0.0
 11
-1623.099104708595
 21
2082.870328273292
 31
0.0
  0
LINE
  5
1643B
330
1A
100
AcDbEntity
  8
ZISSEN1
100
AcDbLine
 10
-1623.399104708595
 20
2081.870328273292
 30
0.0
 11
-1623.099104708595
 21
2081.870328273292
 31
0.0
  0
LINE
  5
1643C
330
1A
100
AcDbEntity
  8
ZISSEN1
100
AcDbLine
 10
-1623.399104708595
 20
2079.370328273292
 30
0.0
 11
-1623.099104708595
 21
2079.370328273292
 31
0.0
  0
LINE
  5
1643D
330
1A
100
AcDbEntity
  8
ZISSEN1
100
AcDbLine
 10
-1623.399104708595
 20
2078.370328273292
 30
0.0
 11
-1623.099104708595
 21
2078.370328273292
 31
0.0
  0
LINE
  5
1643E
330
1A
100
AcDbEntity
  8
ZISSEN1
100
AcDbLine
 10
-1623.399104708595
 20
2074.320328273292
 30
0.0
 11
-1623.099104708595
 21
2074.320328273292
 31
0.0
  0
LINE
  5
1643F
330
1A
100
AcDbEntity
  8
ZISSEN1
100
AcDbLine
 10
-1623.399104708595
 20
2113.370328273292
 30
0.0
 11
-1623.099104708595
 21
2113.370328273292
 31
0.0
  0
LINE
  5
16440
330
1A
100
AcDbEntity
  8
ZISSEN1
100
AcDbLine
 10
-1623.399104708595
 20
2096.870328273292
 30
0.0
 11
-1623.099104708595
 21
2096.870328273292
 31
0.0
  0
LINE
  5
16441
330
1A
100
AcDbEntity
  8
ZISSEN1
100
AcDbLine
 10
-1623.399104708595
 20
2114.920328273292
 30
0.0
 11
-1623.099104708595
 21
2114.920328273292
 31
0.0
  0
LINE
  5
16442
330
1A
100
AcDbEntity
  8
ZISSEN1
100
AcDbLine
 10
-1623.399104708595
 20
2110.870328273292
 30
0.0
 11
-1623.099104708595
 21
2110.870328273292
 31
0.0
  0
LINE
  5
16443
330
1A
100
AcDbEntity
  8
ZISSEN1
100
AcDbLine
 10
-1623.399104708595
 20
2109.870328273292
 30
0.0
 11
-1623.099104708595
 21
2109.870328273292
 31
0.0
  0
LINE
  5
16444
330
1A
100
AcDbEntity
  8
ZISSEN1
100
AcDbLine
 10
-1623.399104708595
 20
2107.370328273292
 30
0.0
 11
-1623.099104708595
 21
2107.370328273292
 31
0.0
  0
LINE
  5
16445
330
1A
100
AcDbEntity
  8
ZISSEN1
100
AcDbLine
 10
-1623.399104708595
 20
2106.370328273292
 30
0.0
 11
-1623.099104708595
 21
2106.370328273292
 31
0.0
  0
LINE
  5
16446
330
1A
100
AcDbEntity
  8
ZISSEN1
100
AcDbLine
 10
-1623.399104708595
 20
2103.870328273292
 30
0.0
 11
-1623.099104708595
 21
2103.870328273292
 31
0.0
  0
LINE
  5
16447
330
1A
100
AcDbEntity
  8
ZISSEN1
100
AcDbLine
 10
-1623.399104708595
 20
2102.870328273292
 30
0.0
 11
-1623.099104708595
 21
2102.870328273292
 31
0.0
  0
LINE
  5
16448
330
1A
100
AcDbEntity
  8
ZISSEN1
100
AcDbLine
 10
-1623.399104708595
 20
2100.370328273292
 30
0.0
 11
-1623.099104708595
 21
2100.370328273292
 31
0.0
  0
LINE
  5
16449
330
1A
100
AcDbEntity
  8
ZISSEN1
100
AcDbLine
 10
-1623.399104708595
 20
2099.370328273292
 30
0.0
 11
-1623.099104708595
 21
2099.370328273292
 31
0.0
  0
LINE
  5
1644A
330
1A
100
AcDbEntity
  8
ZISSEN1
100
AcDbLine
 10
-1623.399104708595
 20
2095.320328273292
 30
0.0
 11
-1623.099104708595
 21
2095.320328273292
 31
0.0
  0
LINE
  5
1644B
330
1A
100
AcDbEntity
  8
ZISSEN1
100
AcDbLine
 10
-1634.099104708595
 20
2049.870328273292
 30
0.0
 11
-1623.099104708595
 21
2049.870328273292
 31
0.0
  0
LINE
  5
1644C
330
1A
100
AcDbEntity
  8
ZISSEN1
100
AcDbLine
 10
-1634.099104708595
 20
2046.370328273292
 30
0.0
 11
-1623.099104708595
 21
2046.370328273292
 31
0.0
  0
LINE
  5
1644D
330
1A
100
AcDbEntity
  8
ZISSEN1
100
AcDbLine
 10
-1634.099104708595
 20
2124.870328273292
 30
0.0
 11
-1623.099104708595
 21
2124.870328273292
 31
0.0
  0
LINE
  5
1644E
330
1A
100
AcDbEntity
  8
ZISSEN1
100
AcDbLine
 10
-1634.099104708595
 20
2121.370328273292
 30
0.0
 11
-1623.099104708595
 21
2121.370328273292
 31
0.0
  0
LINE
  5
1644F
330
1A
100
AcDbEntity
  8
ZISSEN1
100
AcDbLine
 10
-1618.999104708595
 20
2038.620328273292
 30
0.0
 11
-1628.249104708595
 21
2038.620328273292
 31
0.0
  0
LINE
  5
16450
330
1A
100
AcDbEntity
  8
ZISSEN1
100
AcDbLine
 10
-1618.999104708595
 20
2132.620328273292
 30
0.0
 11
-1628.249104708595
 21
2132.620328273292
 31
0.0
  0
LINE
  5
16451
330
1A
100
AcDbEntity
  8
ZISSEN1
100
AcDbLine
 10
-1643.299104708595
 20
2092.720328273292
 30
0.0
 11
-1643.299104708595
 21
2086.320328273292
 31
0.0
  0
LINE
  5
16452
330
1A
100
AcDbEntity
  8
ZISSEN1
100
AcDbLine
 10
-1635.699104708595
 20
2092.720328273292
 30
0.0
 11
-1635.699104708595
 21
2086.320328273292
 31
0.0
  0
LINE
  5
16453
330
1A
100
AcDbEntity
  8
ZISSEN1
100
AcDbLine
 10
-1681.649104708595
 20
2093.220328273292
 30
0.0
 11
-1681.649104708595
 21
2085.820328273292
 31
0.0
  0
LINE
  5
16454
330
1A
100
AcDbEntity
  8
ZISSEN1
100
AcDbLine
 10
-1678.049104708595
 20
2093.220328273292
 30
0.0
 11
-1678.049104708595
 21
2085.820328273292
 31
0.0
  0
LINE
  5
16455
330
1A
100
AcDbEntity
  8
ZISSEN1
100
AcDbLine
 10
-1624.199104708595
 20
2075.020328273292
 30
0.0
 11
-1624.199104708595
 21
2093.220328273292
 31
0.0
  0
LINE
  5
16456
330
1A
100
AcDbEntity
  8
ZISSEN1
100
AcDbLine
 10
-1630.699104708595
 20
2075.020328273292
 30
0.0
 11
-1630.699104708595
 21
2093.220328273292
 31
0.0
  0
LINE
  5
16457
330
1A
100
AcDbEntity
  8
ZISSEN1
100
AcDbLine
 10
-1623.399104708595
 20
2074.320328273292
 30
0.0
 11
-1623.399104708595
 21
2093.920328273292
 31
0.0
  0
LINE
  5
16458
330
1A
100
AcDbEntity
  8
ZISSEN1
100
AcDbLine
 10
-1631.299104708595
 20
2074.320328273292
 30
0.0
 11
-1631.299104708595
 21
2093.920328273292
 31
0.0
  0
LINE
  5
16459
330
1A
100
AcDbEntity
  8
ZISSEN1
100
AcDbLine
 10
-1733.999104708595
 20
2038.620328273292
 30
0.0
 11
-1733.999104708595
 21
2132.620328273292
 31
0.0
  0
LINE
  5
1645A
330
1A
100
AcDbEntity
  8
ZISSEN1
100
AcDbLine
 10
-1735.999104708595
 20
2132.620328273292
 30
0.0
 11
-1735.999104708595
 21
2038.620328273292
 31
0.0
  0
LINE
  5
1645B
330
1A
100
AcDbEntity
  8
ZISSEN1
100
AcDbLine
 10
-1643.999104708595
 20
2131.620328273292
 30
0.0
 11
-1643.999104708595
 21
2039.620328273292
 31
0.0
  0
LINE
  5
1645C
330
1A
100
AcDbEntity
  8
ZISSEN1
100
AcDbLine
 10
-1674.499104708595
 20
2046.120328273292
 30
0.0
 11
-1674.499104708595
 21
2125.120328273292
 31
0.0
  0
LINE
  5
1645D
330
1A
100
AcDbEntity
  8
ZISSEN1
100
AcDbLine
 10
-1733.499104708594
 20
2060.120328273292
 30
0.0
 11
-1733.499104708594
 21
2126.120328273292
 31
0.0
  0
LINE
  5
1645E
330
1A
100
AcDbEntity
  8
ZISSEN1
100
AcDbLine
 10
-1671.999104708595
 20
2093.920328273292
 30
0.0
 11
-1671.999104708595
 21
2074.320328273292
 31
0.0
  0
LINE
  5
1645F
330
1A
100
AcDbEntity
  8
ZISSEN1
100
AcDbLine
 10
-1665.999104708595
 20
2093.420328273292
 30
0.0
 11
-1665.999104708595
 21
2074.820328273292
 31
0.0
  0
LINE
  5
16460
330
1A
100
AcDbEntity
  8
ZISSEN1
100
AcDbLine
 10
-1635.699104708595
 20
2126.120328273292
 30
0.0
 11
-1635.699104708595
 21
2045.120328273292
 31
0.0
  0
LINE
  5
16461
330
1A
100
AcDbEntity
  8
ZISSEN1
100
AcDbLine
 10
-1634.099104708595
 20
2126.120328273292
 30
0.0
 11
-1634.099104708595
 21
2045.120328273292
 31
0.0
  0
LINE
  5
16462
330
1A
100
AcDbEntity
  8
ZISSEN1
100
AcDbLine
 10
-1674.999104708595
 20
2044.620328273292
 30
0.0
 11
-1722.999104708595
 21
2044.620328273292
 31
0.0
  0
LINE
  5
16463
330
1A
100
AcDbEntity
  8
ZISSEN1
100
AcDbLine
 10
-1675.499104708595
 20
2045.120328273292
 30
0.0
 11
-1690.999104708595
 21
2045.120328273292
 31
0.0
  0
LINE
  5
16464
330
1A
100
AcDbEntity
  8
ZISSEN1
100
AcDbLine
 10
-1690.999104708595
 20
2045.120328273292
 30
0.0
 11
-1690.999104708595
 21
2060.120328273292
 31
0.0
  0
LINE
  5
16465
330
1A
100
AcDbEntity
  8
ZISSEN1
  6
CONTINUOUS
 62
     7
100
AcDbLine
 10
-1729.558549314449
 20
2000.405010243705
 30
0.0
 11
-1730.021572220011
 21
2000.445083759905
 31
0.0
  0
LINE
  5
16466
330
1A
100
AcDbEntity
  8
ZISSEN1
  6
CONTINUOUS
 62
     7
100
AcDbLine
 10
-1732.605726927172
 20
2000.141284367596
 30
0.0
 11
-1732.880674569002
 21
2000.014453273292
 31
0.0
  0
LINE
  5
16467
330
1A
100
AcDbEntity
  8
ZISSEN1
  6
CONTINUOUS
 62
     7
100
AcDbLine
 10
-1732.266770635233
 20
2000.250767249892
 30
0.0
 11
-1732.605726927172
 21
2000.141284367596
 31
0.0
  0
LINE
  5
16468
330
1A
100
AcDbEntity
  8
ZISSEN1
  6
CONTINUOUS
 62
     7
100
AcDbLine
 10
-1731.874104708595
 20
2000.339575338203
 30
0.0
 11
-1732.266770635233
 21
2000.250767249892
 31
0.0
  0
LINE
  5
16469
330
1A
100
AcDbEntity
  8
ZISSEN1
  6
CONTINUOUS
 62
     7
100
AcDbLine
 10
-1731.43966010274
 20
2000.405010243705
 30
0.0
 11
-1731.874104708595
 21
2000.339575338203
 31
0.0
  0
LINE
  5
1646A
330
1A
100
AcDbEntity
  8
ZISSEN1
  6
CONTINUOUS
 62
     7
100
AcDbLine
 10
-1730.976637197179
 20
2000.445083759905
 30
0.0
 11
-1731.43966010274
 21
2000.405010243705
 31
0.0
  0
LINE
  5
1646B
330
1A
100
AcDbEntity
  8
ZISSEN1
  6
CONTINUOUS
 62
     7
100
AcDbLine
 10
-1730.499104708595
 20
2000.458578273292
 30
0.0
 11
-1730.976637197179
 21
2000.445083759905
 31
0.0
  0
LINE
  5
1646C
330
1A
100
AcDbEntity
  8
ZISSEN1
  6
CONTINUOUS
 62
     7
100
AcDbLine
 10
-1730.021572220011
 20
2000.445083759905
 30
0.0
 11
-1730.499104708595
 21
2000.458578273292
 31
0.0
  0
LINE
  5
1646D
330
1A
100
AcDbEntity
  8
ZISSEN1
  6
CONTINUOUS
 62
     7
100
AcDbLine
 10
-1735.999104708595
 20
2007.120328273292
 30
0.0
 11
-1733.999104708595
 21
2007.120328273292
 31
0.0
  0
LINE
  5
1646E
330
1A
100
AcDbEntity
  8
ZISSEN1
  6
CONTINUOUS
 62
     7
100
AcDbLine
 10
-1735.999104708595
 20
2006.120328273292
 30
0.0
 11
-1733.999104708595
 21
2006.120328273292
 31
0.0
  0
LINE
  5
1646F
330
1A
100
AcDbEntity
  8
ZISSEN1
  6
CONTINUOUS
 62
     7
100
AcDbLine
 10
-1729.124104708595
 20
2000.339575338203
 30
0.0
 11
-1729.558549314449
 21
2000.405010243705
 31
0.0
  0
LINE
  5
16470
330
1A
100
AcDbEntity
  8
ZISSEN1
  6
CONTINUOUS
 62
     7
100
AcDbLine
 10
-1728.731438781957
 20
2000.250767249892
 30
0.0
 11
-1729.124104708595
 21
2000.339575338203
 31
0.0
  0
LINE
  5
16471
330
1A
100
AcDbEntity
  8
ZISSEN1
  6
CONTINUOUS
 62
     7
100
AcDbLine
 10
-1728.392482490018
 20
2000.141284367596
 30
0.0
 11
-1728.731438781957
 21
2000.250767249892
 31
0.0
  0
LINE
  5
16472
330
1A
100
AcDbEntity
  8
ZISSEN1
  6
CONTINUOUS
 62
     7
100
AcDbLine
 10
-1728.117534848188
 20
2000.014453273292
 30
0.0
 11
-1728.392482490018
 21
2000.141284367596
 31
0.0
  0
ARC
  5
16474
330
1A
100
AcDbEntity
  8
ZISSEN1
100
AcDbCircle
 10
-1728.999104708595
 20
2042.120328273292
 30
0.0
 40
1.75
100
AcDbArc
 50
0.0
 51
180.0
  0
LINE
  5
16475
330
1A
100
AcDbEntity
  8
ZISSEN1
100
AcDbLine
 10
-1730.749104708594
 20
2038.620328273292
 30
0.0
 11
-1730.749104708594
 21
2042.120328273292
 31
0.0
  0
LINE
  5
16476
330
1A
100
AcDbEntity
  8
ZISSEN1
100
AcDbLine
 10
-1735.999104708595
 20
2039.620328273292
 30
0.0
 11
-1733.999104708595
 21
2039.620328273292
 31
0.0
  0
LINE
  5
16477
330
1A
100
AcDbEntity
  8
ZISSEN1
100
AcDbLine
 10
-1735.999104708595
 20
2038.620328273292
 30
0.0
 11
-1733.999104708595
 21
2038.620328273292
 31
0.0
  0
LINE
  5
16478
330
1A
100
AcDbEntity
  8
ZISSEN1
100
AcDbLine
 10
-1732.999104708595
 20
2038.620328273292
 30
0.0
 11
-1730.749104708594
 21
2038.620328273292
 31
0.0
  0
LINE
  5
16479
330
1A
100
AcDbEntity
  8
ZISSEN1
100
AcDbLine
 10
-1733.999104708595
 20
2039.620328273292
 30
0.0
 11
-1732.999104708595
 21
2038.620328273292
 31
0.0
  0
LINE
  5
1647A
330
1A
100
AcDbEntity
  8
ZISSEN1
100
AcDbLine
 10
-1727.249104708595
 20
2038.620328273292
 30
0.0
 11
-1727.249104708595
 21
2042.120328273292
 31
0.0
  0
LINE
  5
1647C
330
1A
100
AcDbEntity
  8
ZISSEN1
100
AcDbLine
 10
-1723.999104708595
 20
2043.620328273292
 30
0.0
 11
-1723.999104708595
 21
2039.620328273292
 31
0.0
  0
LINE
  5
1647D
330
1A
100
AcDbEntity
  8
ZISSEN1
100
AcDbLine
 10
-1724.999104708595
 20
2038.620328273292
 30
0.0
 11
-1727.249104708595
 21
2038.620328273292
 31
0.0
  0
LINE
  5
1647E
330
1A
100
AcDbEntity
  8
ZISSEN1
100
AcDbLine
 10
-1724.999104708595
 20
2038.620328273292
 30
0.0
 11
-1723.999104708595
 21
2039.620328273292
 31
0.0
  0
ARC
  5
16481
330
1A
100
AcDbEntity
  8
ZISSEN1
100
AcDbCircle
 10
-1722.999104708595
 20
2043.620328273292
 30
0.0
 40
1.0
100
AcDbArc
 50
90.0
 51
180.0
  0
LINE
  5
16482
330
1A
100
AcDbEntity
  8
ZISSEN1
100
AcDbLine
 10
-1690.999104708595
 20
2060.120328273292
 30
0.0
 11
-1733.499104708594
 21
2060.120328273292
 31
0.0
  0
CIRCLE
  5
16485
330
1A
100
AcDbEntity
  8
ZISSEN1
100
AcDbCircle
 10
-1730.499104708595
 20
2063.120328273292
 30
0.0
 40
2.75
  0
LINE
  5
16490
330
1A
100
AcDbEntity
  8
ZISSEN1
100
AcDbLine
 10
-1637.129543685195
 20
2046.352662346654
 30
0.0
 11
-1637.020060802899
 21
2046.013706054714
 31
0.0
  0
LINE
  5
16491
330
1A
100
AcDbEntity
  8
ZISSEN1
100
AcDbLine
 10
-1635.699104708595
 20
2050.870328273292
 30
0.0
 11
-1635.699104708595
 21
2045.370328273292
 31
0.0
  0
ARC
  5
16492
330
1A
100
AcDbEntity
  8
ZISSEN1
100
AcDbCircle
 10
-1674.499104708595
 20
2045.120328273292
 30
0.0
 40
1.0
100
AcDbArc
 50
90.0
 51
180.0
  0
CIRCLE
  5
16493
330
1A
100
AcDbEntity
  8
ZISSEN1
100
AcDbCircle
 10
-1677.499104708595
 20
2048.120328273292
 30
0.0
 40
2.75
  0
LINE
  5
16494
330
1A
100
AcDbEntity
  8
ZISSEN1
100
AcDbLine
 10
-1673.999104708595
 20
2045.620328273292
 30
0.0
 11
-1673.999104708595
 21
2050.620328273292
 31
0.0
  0
LINE
  5
16495
330
1A
100
AcDbEntity
  8
ZISSEN1
  6
CONTINUOUS
 62
     7
100
AcDbLine
 10
-1677.139104708595
 20
2001.320328273292
 30
0.0
 11
-1682.539104708595
 21
2001.320328273292
 31
0.0
  0
LINE
  5
16496
330
1A
100
AcDbEntity
  8
ZISSEN1
  6
CONTINUOUS
 62
     7
100
AcDbLine
 10
-1678.049104708595
 20
2006.420328273292
 30
0.0
 11
-1681.649104708595
 21
2006.420328273292
 31
0.0
  0
LINE
  5
16497
330
1A
100
AcDbEntity
  8
ZISSEN1
  6
CONTINUOUS
 62
     7
100
AcDbLine
 10
-1681.649104708595
 20
2006.420328273292
 30
0.0
 11
-1681.649104708595
 21
2001.320328273292
 31
0.0
  0
LINE
  5
16498
330
1A
100
AcDbEntity
  8
ZISSEN1
  6
CONTINUOUS
 62
     7
100
AcDbLine
 10
-1678.049104708595
 20
2006.420328273292
 30
0.0
 11
-1678.049104708595
 21
2001.320328273292
 31
0.0
  0
LINE
  5
16499
330
1A
100
AcDbEntity
  8
ZISSEN1
  6
CONTINUOUS
 62
     7
100
AcDbLine
 10
-1676.558549314449
 20
2000.405010243705
 30
0.0
 11
-1677.02157222001
 21
2000.445083759905
 31
0.0
  0
LINE
  5
1649A
330
1A
100
AcDbEntity
  8
ZISSEN1
  6
CONTINUOUS
 62
     7
100
AcDbLine
 10
-1677.139104708595
 20
2001.320328273292
 30
0.0
 11
-1677.139104708595
 21
2000.450934328291
 31
0.0
  0
LINE
  5
1649B
330
1A
100
AcDbEntity
  8
ZISSEN1
  6
CONTINUOUS
 62
     7
100
AcDbLine
 10
-1679.605726927172
 20
2000.141284367596
 30
0.0
 11
-1679.880674569002
 21
2000.014453273292
 31
0.0
  0
LINE
  5
1649C
330
1A
100
AcDbEntity
  8
ZISSEN1
  6
CONTINUOUS
 62
     7
100
AcDbLine
 10
-1679.266770635233
 20
2000.250767249892
 30
0.0
 11
-1679.605726927172
 21
2000.141284367596
 31
0.0
  0
LINE
  5
1649D
330
1A
100
AcDbEntity
  8
ZISSEN1
  6
CONTINUOUS
 62
     7
100
AcDbLine
 10
-1678.874104708595
 20
2000.339575338203
 30
0.0
 11
-1679.266770635233
 21
2000.250767249892
 31
0.0
  0
LINE
  5
1649E
330
1A
100
AcDbEntity
  8
ZISSEN1
  6
CONTINUOUS
 62
     7
100
AcDbLine
 10
-1678.43966010274
 20
2000.405010243705
 30
0.0
 11
-1678.874104708595
 21
2000.339575338203
 31
0.0
  0
LINE
  5
1649F
330
1A
100
AcDbEntity
  8
ZISSEN1
  6
CONTINUOUS
 62
     7
100
AcDbLine
 10
-1677.976637197179
 20
2000.445083759905
 30
0.0
 11
-1678.43966010274
 21
2000.405010243705
 31
0.0
  0
LINE
  5
164A0
330
1A
100
AcDbEntity
  8
ZISSEN1
  6
CONTINUOUS
 62
     7
100
AcDbLine
 10
-1677.499104708595
 20
2000.458578273292
 30
0.0
 11
-1677.976637197179
 21
2000.445083759905
 31
0.0
  0
LINE
  5
164A1
330
1A
100
AcDbEntity
  8
ZISSEN1
  6
CONTINUOUS
 62
     7
100
AcDbLine
 10
-1677.02157222001
 20
2000.445083759905
 30
0.0
 11
-1677.499104708595
 21
2000.458578273292
 31
0.0
  0
LINE
  5
164A2
330
1A
100
AcDbEntity
  8
ZISSEN1
  6
CONTINUOUS
 62
     7
100
AcDbLine
 10
-1676.124104708595
 20
2000.339575338203
 30
0.0
 11
-1676.558549314449
 21
2000.405010243705
 31
0.0
  0
LINE
  5
164A3
330
1A
100
AcDbEntity
  8
ZISSEN1
  6
CONTINUOUS
 62
     7
100
AcDbLine
 10
-1675.731438781957
 20
2000.250767249892
 30
0.0
 11
-1676.124104708595
 21
2000.339575338203
 31
0.0
  0
LINE
  5
164A4
330
1A
100
AcDbEntity
  8
ZISSEN1
  6
CONTINUOUS
 62
     7
100
AcDbLine
 10
-1675.392482490018
 20
2000.141284367596
 30
0.0
 11
-1675.731438781957
 21
2000.250767249892
 31
0.0
  0
LINE
  5
164A5
330
1A
100
AcDbEntity
  8
ZISSEN1
  6
CONTINUOUS
 62
     7
100
AcDbLine
 10
-1675.117534848188
 20
2000.014453273292
 30
0.0
 11
-1675.392482490018
 21
2000.141284367596
 31
0.0
  0
LINE
  5
164A6
330
1A
100
AcDbEntity
  8
ZISSEN1
100
AcDbLine
 10
-1674.999104708595
 20
2044.620328273292
 30
0.0
 11
-1673.999104708595
 21
2045.620328273292
 31
0.0
  0
LINE
  5
164A7
330
1A
100
AcDbEntity
  8
ZISSEN1
100
AcDbLine
 10
-1642.999104708595
 20
2038.620328273292
 30
0.0
 11
-1631.749104708595
 21
2038.620328273292
 31
0.0
  0
LINE
  5
164A8
330
1A
100
AcDbEntity
  8
ZISSEN1
100
AcDbLine
 10
-1642.999104708595
 20
2038.620328273292
 30
0.0
 11
-1643.999104708595
 21
2039.620328273292
 31
0.0
  0
ARC
  5
164AA
330
1A
100
AcDbEntity
  8
ZISSEN1
100
AcDbCircle
 10
-1629.999104708595
 20
2042.120328273292
 30
0.0
 40
1.75
100
AcDbArc
 50
0.0
 51
180.0
  0
LINE
  5
164AB
330
1A
100
AcDbEntity
  8
ZISSEN1
100
AcDbLine
 10
-1631.749104708595
 20
2042.120328273292
 30
0.0
 11
-1631.749104708595
 21
2038.620328273292
 31
0.0
  0
LINE
  5
164AC
330
1A
100
AcDbEntity
  8
ZISSEN1
100
AcDbLine
 10
-1634.099104708595
 20
2045.120328273292
 30
0.0
 11
-1635.699104708595
 21
2045.120328273292
 31
0.0
  0
LINE
  5
164AD
330
1A
100
AcDbEntity
  8
ZISSEN1
100
AcDbLine
 10
-1635.699104708595
 20
2045.370328273292
 30
0.0
 11
-1636.449104708595
 21
2045.370328273292
 31
0.0
  0
LINE
  5
164AE
330
1A
100
AcDbEntity
  8
ZISSEN1
100
AcDbLine
 10
-1636.603347702408
 20
2045.412106952508
 30
0.0
 11
-1636.449104708595
 21
2045.370328273292
 31
0.0
  0
LINE
  5
164AF
330
1A
100
AcDbEntity
  8
ZISSEN1
100
AcDbLine
 10
-1636.752904100904
 20
2045.536173566131
 30
0.0
 11
-1636.603347702408
 21
2045.412106952508
 31
0.0
  0
LINE
  5
164B0
330
1A
100
AcDbEntity
  8
ZISSEN1
100
AcDbLine
 10
-1636.893229708595
 20
2045.738758412885
 30
0.0
 11
-1636.752904100904
 21
2045.536173566131
 31
0.0
  0
LINE
  5
164B1
330
1A
100
AcDbEntity
  8
ZISSEN1
100
AcDbLine
 10
-1637.020060802899
 20
2046.013706054714
 30
0.0
 11
-1636.893229708595
 21
2045.738758412885
 31
0.0
  0
LINE
  5
164B2
330
1A
100
AcDbEntity
  8
ZISSEN1
100
AcDbLine
 10
-1628.249104708595
 20
2042.120328273292
 30
0.0
 11
-1628.249104708595
 21
2038.620328273292
 31
0.0
  0
LINE
  5
164B6
330
1A
100
AcDbEntity
  8
ZISSEN1
100
AcDbLine
 10
-1671.999104708595
 20
2068.170328273292
 30
0.0
 11
-1674.499104708595
 21
2068.170328273292
 31
0.0
  0
LINE
  5
164B7
330
1A
100
AcDbEntity
  8
ZISSEN1
100
AcDbLine
 10
-1674.499104708595
 20
2066.670328273292
 30
0.0
 11
-1671.999104708595
 21
2066.670328273292
 31
0.0
  0
LINE
  5
164B8
330
1A
100
AcDbEntity
  8
ZISSEN1
100
AcDbLine
 10
-1674.499104708595
 20
2065.670328273292
 30
0.0
 11
-1671.999104708595
 21
2065.670328273292
 31
0.0
  0
LINE
  5
164B9
330
1A
100
AcDbEntity
  8
ZISSEN1
100
AcDbLine
 10
-1674.499104708595
 20
2064.770328273292
 30
0.0
 11
-1671.999104708595
 21
2064.770328273292
 31
0.0
  0
LINE
  5
164BA
330
1A
100
AcDbEntity
  8
ZISSEN1
100
AcDbLine
 10
-1671.999104708595
 20
2062.470328273292
 30
0.0
 11
-1674.499104708595
 21
2062.470328273292
 31
0.0
  0
LINE
  5
164BB
330
1A
100
AcDbEntity
  8
ZISSEN1
100
AcDbLine
 10
-1674.499104708595
 20
2061.570328273292
 30
0.0
 11
-1671.999104708595
 21
2061.570328273292
 31
0.0
  0
LINE
  5
164BC
330
1A
100
AcDbEntity
  8
ZISSEN1
100
AcDbLine
 10
-1674.499104708595
 20
2060.570328273292
 30
0.0
 11
-1671.999104708595
 21
2060.570328273292
 31
0.0
  0
LINE
  5
164BD
330
1A
100
AcDbEntity
  8
ZISSEN1
100
AcDbLine
 10
-1671.999104708595
 20
2059.070328273292
 30
0.0
 11
-1674.499104708595
 21
2059.070328273292
 31
0.0
  0
LINE
  5
164BE
330
1A
100
AcDbEntity
  8
ZISSEN1
100
AcDbLine
 10
-1680.839104708595
 20
2053.495328273292
 30
0.0
 11
-1678.839104708595
 21
2053.495328273292
 31
0.0
  0
LINE
  5
164BF
330
1A
100
AcDbEntity
  8
ZISSEN1
100
AcDbLine
 10
-1680.839104708595
 20
2054.745328273292
 30
0.0
 11
-1678.839104708595
 21
2054.745328273292
 31
0.0
  0
LINE
  5
164C0
330
1A
100
AcDbEntity
  8
ZISSEN1
100
AcDbLine
 10
-1680.839104708595
 20
2055.495328273292
 30
0.0
 11
-1678.839104708595
 21
2055.495328273292
 31
0.0
  0
LINE
  5
164C1
330
1A
100
AcDbEntity
  8
ZISSEN1
100
AcDbLine
 10
-1680.839104708595
 20
2056.745328273292
 30
0.0
 11
-1678.839104708595
 21
2056.745328273292
 31
0.0
  0
LINE
  5
164C2
330
1A
100
AcDbEntity
  8
ZISSEN1
100
AcDbLine
 10
-1680.839104708595
 20
2054.745328273292
 30
0.0
 11
-1680.839104708595
 21
2053.495328273292
 31
0.0
  0
LINE
  5
164C3
330
1A
100
AcDbEntity
  8
ZISSEN1
100
AcDbLine
 10
-1680.839104708595
 20
2056.745328273292
 30
0.0
 11
-1680.839104708595
 21
2055.495328273292
 31
0.0
  0
LINE
  5
164CF
330
1A
100
AcDbEntity
  8
ZISSEN1
100
AcDbLine
 10
-1673.999104708595
 20
2050.620328273292
 30
0.0
 11
-1674.499104708595
 21
2051.120328273292
 31
0.0
  0
LINE
  5
164D1
330
1A
100
AcDbEntity
  8
ZISSEN1
100
AcDbLine
 10
-1679.239104708595
 20
2054.745328273292
 30
0.0
 11
-1679.239104708595
 21
2053.495328273292
 31
0.0
  0
LINE
  5
164D2
330
1A
100
AcDbEntity
  8
ZISSEN1
100
AcDbLine
 10
-1680.439104708595
 20
2054.745328273292
 30
0.0
 11
-1680.439104708595
 21
2053.495328273292
 31
0.0
  0
LINE
  5
164D3
330
1A
100
AcDbEntity
  8
ZISSEN1
100
AcDbLine
 10
-1678.839104708595
 20
2054.745328273292
 30
0.0
 11
-1678.839104708595
 21
2053.495328273292
 31
0.0
  0
LINE
  5
164D4
330
1A
100
AcDbEntity
  8
ZISSEN1
100
AcDbLine
 10
-1679.239104708595
 20
2056.745328273292
 30
0.0
 11
-1679.239104708595
 21
2055.495328273292
 31
0.0
  0
LINE
  5
164D5
330
1A
100
AcDbEntity
  8
ZISSEN1
100
AcDbLine
 10
-1680.439104708595
 20
2056.745328273292
 30
0.0
 11
-1680.439104708595
 21
2055.495328273292
 31
0.0
  0
LINE
  5
164D6
330
1A
100
AcDbEntity
  8
ZISSEN1
100
AcDbLine
 10
-1678.839104708595
 20
2056.745328273292
 30
0.0
 11
-1678.839104708595
 21
2055.495328273292
 31
0.0
  0
LINE
  5
164DF
330
1A
100
AcDbEntity
  8
ZISSEN1
100
AcDbLine
 10
-1677.139104708595
 20
2067.425328273292
 30
0.0
 11
-1682.539104708595
 21
2067.425328273292
 31
0.0
  0
LINE
  5
164E0
330
1A
100
AcDbEntity
  8
ZISSEN1
100
AcDbLine
 10
-1677.139104708595
 20
2060.815328273292
 30
0.0
 11
-1682.539104708595
 21
2060.815328273292
 31
0.0
  0
LINE
  5
164E2
330
1A
100
AcDbEntity
  8
ZISSEN1
100
AcDbLine
 10
-1682.539104708595
 20
2067.425328273292
 30
0.0
 11
-1682.539104708595
 21
2060.815328273292
 31
0.0
  0
LINE
  5
164F3
330
1A
100
AcDbEntity
  8
ZISSEN1
100
AcDbLine
 10
-1677.139104708595
 20
2067.425328273292
 30
0.0
 11
-1677.139104708595
 21
2060.815328273292
 31
0.0
  0
LINE
  5
16503
330
1A
100
AcDbEntity
  8
ZISSEN1
100
AcDbLine
 10
-1671.999104708595
 20
2059.070328273292
 30
0.0
 11
-1671.999104708595
 21
2068.170328273292
 31
0.0
  0
LINE
  5
16504
330
1A
100
AcDbEntity
  8
ZISSEN1
100
AcDbLine
 10
-1665.999104708595
 20
2059.570328273292
 30
0.0
 11
-1665.999104708595
 21
2067.670328273292
 31
0.0
  0
LINE
  5
16505
330
1A
100
AcDbEntity
  8
ZISSEN1
100
AcDbLine
 10
-1671.999104708595
 20
2059.570328273292
 30
0.0
 11
-1665.999104708595
 21
2059.570328273292
 31
0.0
  0
LINE
  5
16506
330
1A
100
AcDbEntity
  8
ZISSEN1
100
AcDbLine
 10
-1671.999104708595
 20
2067.670328273292
 30
0.0
 11
-1665.999104708595
 21
2067.670328273292
 31
0.0
  0
LINE
  5
16507
330
1A
100
AcDbEntity
  8
ZISSEN1
100
AcDbLine
 10
-1674.499104708595
 20
2088.470328273292
 30
0.0
 11
-1671.999104708595
 21
2088.470328273292
 31
0.0
  0
LINE
  5
16508
330
1A
100
AcDbEntity
  8
ZISSEN1
100
AcDbLine
 10
-1674.499104708595
 20
2087.470328273292
 30
0.0
 11
-1671.999104708595
 21
2087.470328273292
 31
0.0
  0
LINE
  5
16509
330
1A
100
AcDbEntity
  8
ZISSEN1
100
AcDbLine
 10
-1671.999104708595
 20
2085.270328273292
 30
0.0
 11
-1674.499104708595
 21
2085.270328273292
 31
0.0
  0
LINE
  5
1650A
330
1A
100
AcDbEntity
  8
ZISSEN1
100
AcDbLine
 10
-1674.499104708595
 20
2082.970328273292
 30
0.0
 11
-1671.999104708595
 21
2082.970328273292
 31
0.0
  0
LINE
  5
1650B
330
1A
100
AcDbEntity
  8
ZISSEN1
100
AcDbLine
 10
-1674.499104708595
 20
2080.770328273292
 30
0.0
 11
-1671.999104708595
 21
2080.770328273292
 31
0.0
  0
LINE
  5
1650C
330
1A
100
AcDbEntity
  8
ZISSEN1
100
AcDbLine
 10
-1674.499104708595
 20
2079.770328273292
 30
0.0
 11
-1671.999104708595
 21
2079.770328273292
 31
0.0
  0
LINE
  5
1650D
330
1A
100
AcDbEntity
  8
ZISSEN1
100
AcDbLine
 10
-1671.999104708595
 20
2074.320328273292
 30
0.0
 11
-1674.499104708595
 21
2074.320328273292
 31
0.0
  0
LINE
  5
16512
330
1A
100
AcDbEntity
  8
ZISSEN1
100
AcDbLine
 10
-1682.539104708595
 20
2084.925328273292
 30
0.0
 11
-1682.539104708595
 21
2078.315328273292
 31
0.0
  0
LINE
  5
16513
330
1A
100
AcDbEntity
  8
ZISSEN1
100
AcDbLine
 10
-1677.139104708595
 20
2084.925328273292
 30
0.0
 11
-1677.139104708595
 21
2078.315328273292
 31
0.0
  0
LINE
  5
16517
330
1A
100
AcDbEntity
  8
ZISSEN1
100
AcDbLine
 10
-1677.139104708595
 20
2078.315328273292
 30
0.0
 11
-1682.539104708595
 21
2078.315328273292
 31
0.0
  0
LINE
  5
16520
330
1A
100
AcDbEntity
  8
ZISSEN1
100
AcDbLine
 10
-1677.139104708595
 20
2077.425328273292
 30
0.0
 11
-1682.539104708595
 21
2077.425328273292
 31
0.0
  0
LINE
  5
16521
330
1A
100
AcDbEntity
  8
ZISSEN1
100
AcDbLine
 10
-1677.139104708595
 20
2070.815328273292
 30
0.0
 11
-1682.539104708595
 21
2070.815328273292
 31
0.0
  0
LINE
  5
16522
330
1A
100
AcDbEntity
  8
ZISSEN1
100
AcDbLine
 10
-1682.539104708595
 20
2077.425328273292
 30
0.0
 11
-1682.539104708595
 21
2070.815328273292
 31
0.0
  0
LINE
  5
16538
330
1A
100
AcDbEntity
  8
ZISSEN1
100
AcDbLine
 10
-1677.139104708595
 20
2077.425328273292
 30
0.0
 11
-1677.139104708595
 21
2070.815328273292
 31
0.0
  0
LINE
  5
1654E
330
1A
100
AcDbEntity
  8
ZISSEN1
100
AcDbLine
 10
-1678.049104708595
 20
2085.820328273292
 30
0.0
 11
-1681.649104708595
 21
2085.820328273292
 31
0.0
  0
LINE
  5
16554
330
1A
100
AcDbEntity
  8
ZISSEN1
100
AcDbLine
 10
-1677.139104708595
 20
2084.925328273292
 30
0.0
 11
-1682.539104708595
 21
2084.925328273292
 31
0.0
  0
LINE
  5
1657C
330
1A
100
AcDbEntity
  8
ZISSEN1
100
AcDbLine
 10
-1671.999104708595
 20
2074.820328273292
 30
0.0
 11
-1665.999104708595
 21
2074.820328273292
 31
0.0
  0
LINE
  5
1657D
330
1A
100
AcDbEntity
  8
ZISSEN1
100
AcDbLine
 10
-1635.699104708595
 20
2050.870328273292
 30
0.0
 11
-1636.449104708595
 21
2050.870328273292
 31
0.0
  0
LINE
  5
1657E
330
1A
100
AcDbEntity
  8
ZISSEN1
100
AcDbLine
 10
-1637.218351773506
 20
2046.745328273292
 30
0.0
 11
-1637.129543685195
 21
2046.352662346654
 31
0.0
  0
LINE
  5
1657F
330
1A
100
AcDbEntity
  8
ZISSEN1
100
AcDbLine
 10
-1637.283786679008
 20
2047.179772879146
 30
0.0
 11
-1637.218351773506
 21
2046.745328273292
 31
0.0
  0
LINE
  5
16580
330
1A
100
AcDbEntity
  8
ZISSEN1
100
AcDbLine
 10
-1637.323860195208
 20
2047.642795784708
 30
0.0
 11
-1637.283786679008
 21
2047.179772879146
 31
0.0
  0
LINE
  5
16581
330
1A
100
AcDbEntity
  8
ZISSEN1
100
AcDbLine
 10
-1637.337354708595
 20
2048.120328273292
 30
0.0
 11
-1637.323860195208
 21
2047.642795784708
 31
0.0
  0
LINE
  5
16582
330
1A
100
AcDbEntity
  8
ZISSEN1
100
AcDbLine
 10
-1637.323860195208
 20
2048.597860761876
 30
0.0
 11
-1637.337354708595
 21
2048.120328273292
 31
0.0
  0
LINE
  5
16583
330
1A
100
AcDbEntity
  8
ZISSEN1
100
AcDbLine
 10
-1637.283786679008
 20
2049.060883667438
 30
0.0
 11
-1637.323860195208
 21
2048.597860761876
 31
0.0
  0
LINE
  5
16584
330
1A
100
AcDbEntity
  8
ZISSEN1
100
AcDbLine
 10
-1637.218351773506
 20
2049.495328273292
 30
0.0
 11
-1637.283786679008
 21
2049.060883667438
 31
0.0
  0
LINE
  5
16585
330
1A
100
AcDbEntity
  8
ZISSEN1
100
AcDbLine
 10
-1637.129543685195
 20
2049.88799419993
 30
0.0
 11
-1637.218351773506
 21
2049.495328273292
 31
0.0
  0
LINE
  5
16586
330
1A
100
AcDbEntity
  8
ZISSEN1
100
AcDbLine
 10
-1637.020060802899
 20
2050.226950491869
 30
0.0
 11
-1637.129543685195
 21
2049.88799419993
 31
0.0
  0
LINE
  5
16587
330
1A
100
AcDbEntity
  8
ZISSEN1
100
AcDbLine
 10
-1636.893229708595
 20
2050.501898133699
 30
0.0
 11
-1637.020060802899
 21
2050.226950491869
 31
0.0
  0
LINE
  5
16588
330
1A
100
AcDbEntity
  8
ZISSEN1
100
AcDbLine
 10
-1636.752904100904
 20
2050.704482980453
 30
0.0
 11
-1636.893229708595
 21
2050.501898133699
 31
0.0
  0
LINE
  5
16589
330
1A
100
AcDbEntity
  8
ZISSEN1
100
AcDbLine
 10
-1636.603347702408
 20
2050.828549594075
 30
0.0
 11
-1636.752904100904
 21
2050.704482980453
 31
0.0
  0
LINE
  5
1658A
330
1A
100
AcDbEntity
  8
ZISSEN1
100
AcDbLine
 10
-1636.449104708595
 20
2050.870328273292
 30
0.0
 11
-1636.603347702408
 21
2050.828549594075
 31
0.0
  0
LINE
  5
1658B
330
1A
100
AcDbEntity
  8
ZISSEN1
100
AcDbLine
 10
-1634.099104708595
 20
2049.870328273292
 30
0.0
 11
-1634.099104708595
 21
2046.370328273292
 31
0.0
  0
LINE
  5
1658C
330
1A
100
AcDbEntity
  8
ZISSEN1
100
AcDbLine
 10
-1636.499104708595
 20
2053.495328273292
 30
0.0
 11
-1635.699104708595
 21
2053.495328273292
 31
0.0
  0
LINE
  5
1658D
330
1A
100
AcDbEntity
  8
ZISSEN1
100
AcDbLine
 10
-1636.499104708595
 20
2054.745328273292
 30
0.0
 11
-1635.699104708595
 21
2054.745328273292
 31
0.0
  0
LINE
  5
1658E
330
1A
100
AcDbEntity
  8
ZISSEN1
100
AcDbLine
 10
-1635.949104708594
 20
2054.745328273292
 30
0.0
 11
-1635.949104708594
 21
2053.495328273292
 31
0.0
  0
LINE
  5
1658F
330
1A
100
AcDbEntity
  8
ZISSEN1
100
AcDbLine
 10
-1635.699104708595
 20
2054.745328273292
 30
0.0
 11
-1635.699104708595
 21
2053.495328273292
 31
0.0
  0
LINE
  5
16590
330
1A
100
AcDbEntity
  8
ZISSEN1
100
AcDbLine
 10
-1636.499104708595
 20
2054.745328273292
 30
0.0
 11
-1636.499104708595
 21
2053.495328273292
 31
0.0
  0
LINE
  5
16591
330
1A
100
AcDbEntity
  8
ZISSEN1
100
AcDbLine
 10
-1636.499104708595
 20
2055.495328273292
 30
0.0
 11
-1635.699104708595
 21
2055.495328273292
 31
0.0
  0
LINE
  5
16592
330
1A
100
AcDbEntity
  8
ZISSEN1
100
AcDbLine
 10
-1636.499104708595
 20
2056.745328273292
 30
0.0
 11
-1635.699104708595
 21
2056.745328273292
 31
0.0
  0
LINE
  5
16593
330
1A
100
AcDbEntity
  8
ZISSEN1
100
AcDbLine
 10
-1635.949104708594
 20
2056.745328273292
 30
0.0
 11
-1635.949104708594
 21
2055.495328273292
 31
0.0
  0
LINE
  5
16594
330
1A
100
AcDbEntity
  8
ZISSEN1
100
AcDbLine
 10
-1635.699104708595
 20
2056.745328273292
 30
0.0
 11
-1635.699104708595
 21
2055.495328273292
 31
0.0
  0
LINE
  5
16595
330
1A
100
AcDbEntity
  8
ZISSEN1
100
AcDbLine
 10
-1636.499104708595
 20
2056.745328273292
 30
0.0
 11
-1636.499104708595
 21
2055.495328273292
 31
0.0
  0
LINE
  5
16598
330
1A
100
AcDbEntity
  8
ZISSEN1
100
AcDbLine
 10
-1638.199104708595
 20
2060.815328273292
 30
0.0
 11
-1638.199104708595
 21
2067.425328273292
 31
0.0
  0
LINE
  5
165A5
330
1A
100
AcDbEntity
  8
ZISSEN1
100
AcDbLine
 10
-1638.199104708595
 20
2060.815328273292
 30
0.0
 11
-1635.799104708595
 21
2060.815328273292
 31
0.0
  0
LINE
  5
165A6
330
1A
100
AcDbEntity
  8
ZISSEN1
100
AcDbLine
 10
-1636.599104708595
 20
2060.815328273292
 30
0.0
 11
-1636.599104708595
 21
2067.425328273292
 31
0.0
  0
LINE
  5
165A8
330
1A
100
AcDbEntity
  8
ZISSEN1
100
AcDbLine
 10
-1635.799104708595
 20
2060.815328273292
 30
0.0
 11
-1635.799104708595
 21
2067.425328273292
 31
0.0
  0
LINE
  5
165AA
330
1A
100
AcDbEntity
  8
ZISSEN1
100
AcDbLine
 10
-1638.199104708595
 20
2067.425328273292
 30
0.0
 11
-1635.799104708595
 21
2067.425328273292
 31
0.0
  0
LINE
  5
165B3
330
1A
100
AcDbEntity
  8
ZISSEN1
100
AcDbLine
 10
-1624.199104708595
 20
2059.770328273292
 30
0.0
 11
-1624.199104708595
 21
2067.470328273292
 31
0.0
  0
LINE
  5
165B4
330
1A
100
AcDbEntity
  8
ZISSEN1
100
AcDbLine
 10
-1630.699104708595
 20
2059.770328273292
 30
0.0
 11
-1630.699104708595
 21
2067.470328273292
 31
0.0
  0
LINE
  5
165B5
330
1A
100
AcDbEntity
  8
ZISSEN1
100
AcDbLine
 10
-1623.399104708595
 20
2059.070328273292
 30
0.0
 11
-1623.399104708595
 21
2068.170328273292
 31
0.0
  0
LINE
  5
165B6
330
1A
100
AcDbEntity
  8
ZISSEN1
100
AcDbLine
 10
-1631.299104708595
 20
2059.070328273292
 30
0.0
 11
-1631.299104708595
 21
2068.170328273292
 31
0.0
  0
LINE
  5
165B7
330
1A
100
AcDbEntity
  8
ZISSEN1
100
AcDbLine
 10
-1630.699104708595
 20
2059.770328273292
 30
0.0
 11
-1624.199104708595
 21
2059.770328273292
 31
0.0
  0
LINE
  5
165B8
330
1A
100
AcDbEntity
  8
ZISSEN1
100
AcDbLine
 10
-1631.299104708595
 20
2059.070328273292
 30
0.0
 11
-1623.399104708595
 21
2059.070328273292
 31
0.0
  0
LINE
  5
165B9
330
1A
100
AcDbEntity
  8
ZISSEN1
100
AcDbLine
 10
-1630.699104708595
 20
2067.470328273292
 30
0.0
 11
-1624.199104708595
 21
2067.470328273292
 31
0.0
  0
LINE
  5
165BA
330
1A
100
AcDbEntity
  8
ZISSEN1
100
AcDbLine
 10
-1631.299104708595
 20
2068.170328273292
 30
0.0
 11
-1623.399104708595
 21
2068.170328273292
 31
0.0
  0
LINE
  5
165BB
330
1A
100
AcDbEntity
  8
ZISSEN1
100
AcDbLine
 10
-1642.799104708595
 20
2085.820328273292
 30
0.0
 11
-1636.199104708595
 21
2085.820328273292
 31
0.0
  0
LINE
  5
165C2
330
1A
100
AcDbEntity
  8
ZISSEN1
100
AcDbLine
 10
-1643.299104708595
 20
2086.320328273292
 30
0.0
 11
-1642.799104708595
 21
2086.320328273292
 31
0.0
  0
LINE
  5
165C3
330
1A
100
AcDbEntity
  8
ZISSEN1
100
AcDbLine
 10
-1642.799104708595
 20
2085.820328273292
 30
0.0
 11
-1642.799104708595
 21
2086.320328273292
 31
0.0
  0
LINE
  5
165D2
330
1A
100
AcDbEntity
  8
ZISSEN1
100
AcDbLine
 10
-1638.199104708595
 20
2078.315328273292
 30
0.0
 11
-1638.199104708595
 21
2084.925328273292
 31
0.0
  0
LINE
  5
165D7
330
1A
100
AcDbEntity
  8
ZISSEN1
100
AcDbLine
 10
-1638.199104708595
 20
2070.815328273292
 30
0.0
 11
-1638.199104708595
 21
2077.425328273292
 31
0.0
  0
LINE
  5
165EA
330
1A
100
AcDbEntity
  8
ZISSEN1
100
AcDbLine
 10
-1638.199104708595
 20
2070.815328273292
 30
0.0
 11
-1635.799104708595
 21
2070.815328273292
 31
0.0
  0
LINE
  5
165F4
330
1A
100
AcDbEntity
  8
ZISSEN1
100
AcDbLine
 10
-1638.199104708595
 20
2078.315328273292
 30
0.0
 11
-1635.799104708595
 21
2078.315328273292
 31
0.0
  0
LINE
  5
165F5
330
1A
100
AcDbEntity
  8
ZISSEN1
100
AcDbLine
 10
-1636.599104708595
 20
2070.815328273292
 30
0.0
 11
-1636.599104708595
 21
2077.425328273292
 31
0.0
  0
LINE
  5
165F6
330
1A
100
AcDbEntity
  8
ZISSEN1
100
AcDbLine
 10
-1635.799104708595
 20
2070.815328273292
 30
0.0
 11
-1635.799104708595
 21
2077.425328273292
 31
0.0
  0
LINE
  5
165F7
330
1A
100
AcDbEntity
  8
ZISSEN1
100
AcDbLine
 10
-1638.199104708595
 20
2077.425328273292
 30
0.0
 11
-1635.799104708595
 21
2077.425328273292
 31
0.0
  0
LINE
  5
165FC
330
1A
100
AcDbEntity
  8
ZISSEN1
100
AcDbLine
 10
-1630.699104708595
 20
2075.020328273292
 30
0.0
 11
-1624.199104708595
 21
2075.020328273292
 31
0.0
  0
LINE
  5
165FD
330
1A
100
AcDbEntity
  8
ZISSEN1
100
AcDbLine
 10
-1631.299104708595
 20
2074.320328273292
 30
0.0
 11
-1623.399104708595
 21
2074.320328273292
 31
0.0
  0
LINE
  5
16601
330
1A
100
AcDbEntity
  8
ZISSEN1
100
AcDbLine
 10
-1635.699104708595
 20
2086.320328273292
 30
0.0
 11
-1636.199104708595
 21
2086.320328273292
 31
0.0
  0
LINE
  5
16602
330
1A
100
AcDbEntity
  8
ZISSEN1
100
AcDbLine
 10
-1636.199104708595
 20
2085.820328273292
 30
0.0
 11
-1636.199104708595
 21
2086.320328273292
 31
0.0
  0
LINE
  5
16603
330
1A
100
AcDbEntity
  8
ZISSEN1
100
AcDbLine
 10
-1636.599104708595
 20
2078.315328273292
 30
0.0
 11
-1636.599104708595
 21
2084.925328273292
 31
0.0
  0
LINE
  5
16606
330
1A
100
AcDbEntity
  8
ZISSEN1
100
AcDbLine
 10
-1635.799104708595
 20
2078.315328273292
 30
0.0
 11
-1635.799104708595
 21
2084.925328273292
 31
0.0
  0
LINE
  5
16609
330
1A
100
AcDbEntity
  8
ZISSEN1
100
AcDbLine
 10
-1638.199104708595
 20
2084.925328273292
 30
0.0
 11
-1635.799104708595
 21
2084.925328273292
 31
0.0
  0
LINE
  5
16622
330
1A
100
AcDbEntity
  8
ZISSEN1
100
AcDbLine
 10
-1675.499104708595
 20
2126.120328273292
 30
0.0
 11
-1690.299377872818
 21
2126.120328273292
 31
0.0
  0
LINE
  5
16623
330
1A
100
AcDbEntity
  8
ZISSEN1
100
AcDbLine
 10
-1674.999104708595
 20
2126.620328273292
 30
0.0
 11
-1690.299377872818
 21
2126.620328273292
 31
0.0
  0
LINE
  5
16624
330
1A
100
AcDbEntity
  8
ZISSEN1
100
AcDbLine
 10
-1690.299377872818
 20
2128.119851625058
 30
0.0
 11
-1722.699377872818
 21
2128.119851625058
 31
0.0
  0
LINE
  5
16625
330
1A
100
AcDbEntity
  8
ZISSEN1
100
AcDbLine
 10
-1690.299377872818
 20
2119.469851625058
 30
0.0
 11
-1722.699377872818
 21
2119.469851625058
 31
0.0
  0
INSERT
  5
16628
330
1A
100
AcDbEntity
  8
ZISSEN1
100
AcDbBlockReference
  2
-000-51103-1200_A
 10
-1706.499377872818
 20
2130.369851625058
 30
0.0
 50
180.0
  0
LINE
  5
16629
330
1A
100
AcDbEntity
  8
ZISSEN1
100
AcDbLine
 10
-1722.699377872818
 20
2128.119851625058
 30
0.0
 11
-1722.699377872818
 21
2119.469851625058
 31
0.0
  0
ARC
  5
1662B
330
1A
100
AcDbEntity
  8
ZISSEN1
100
AcDbCircle
 10
-1728.999104708595
 20
2129.120328273292
 30
0.0
 40
1.75
100
AcDbArc
 50
180.0
 51
0.0
  0
ARC
  5
1662C
330
1A
100
AcDbEntity
  8
ZISSEN1
100
AcDbCircle
 10
-1722.999104708595
 20
2127.620328273292
 30
0.0
 40
1.0
100
AcDbArc
 50
180.0
 51
270.0
  0
LINE
  5
1662D
330
1A
100
AcDbEntity
  8
ZISSEN1
100
AcDbLine
 10
-1722.699377872818
 20
2126.120328273292
 30
0.0
 11
-1733.499104708594
 21
2126.120328273292
 31
0.0
  0
CIRCLE
  5
16630
330
1A
100
AcDbEntity
  8
ZISSEN1
100
AcDbCircle
 10
-1730.499104708595
 20
2123.120328273292
 30
0.0
 40
2.75
  0
LINE
  5
1663D
330
1A
100
AcDbEntity
  8
ZISSEN1
100
AcDbLine
 10
-1722.999104708595
 20
2126.620328273292
 30
0.0
 11
-1722.699377872818
 21
2126.620328273292
 31
0.0
  0
LINE
  5
1663F
330
1A
100
AcDbEntity
  8
ZISSEN1
100
AcDbLine
 10
-1735.999104708595
 20
2131.620328273292
 30
0.0
 11
-1733.999104708595
 21
2131.620328273292
 31
0.0
  0
LINE
  5
16640
330
1A
100
AcDbEntity
  8
ZISSEN1
100
AcDbLine
 10
-1735.999104708595
 20
2132.620328273292
 30
0.0
 11
-1733.999104708595
 21
2132.620328273292
 31
0.0
  0
LINE
  5
16641
330
1A
100
AcDbEntity
  8
ZISSEN1
100
AcDbLine
 10
-1730.749104708594
 20
2132.620328273292
 30
0.0
 11
-1730.749104708594
 21
2129.120328273292
 31
0.0
  0
LINE
  5
16642
330
1A
100
AcDbEntity
  8
ZISSEN1
100
AcDbLine
 10
-1732.999104708595
 20
2132.620328273292
 30
0.0
 11
-1730.749104708594
 21
2132.620328273292
 31
0.0
  0
LINE
  5
16643
330
1A
100
AcDbEntity
  8
ZISSEN1
100
AcDbLine
 10
-1733.999104708595
 20
2131.620328273292
 30
0.0
 11
-1732.999104708595
 21
2132.620328273292
 31
0.0
  0
LINE
  5
16644
330
1A
100
AcDbEntity
  8
ZISSEN1
100
AcDbLine
 10
-1724.999104708595
 20
2132.620328273292
 30
0.0
 11
-1727.249104708595
 21
2132.620328273292
 31
0.0
  0
LINE
  5
16645
330
1A
100
AcDbEntity
  8
ZISSEN1
100
AcDbLine
 10
-1727.249104708595
 20
2132.620328273292
 30
0.0
 11
-1727.249104708595
 21
2129.120328273292
 31
0.0
  0
LINE
  5
16648
330
1A
100
AcDbEntity
  8
ZISSEN1
100
AcDbLine
 10
-1723.999104708595
 20
2127.620328273292
 30
0.0
 11
-1723.999104708595
 21
2131.620328273292
 31
0.0
  0
LINE
  5
16649
330
1A
100
AcDbEntity
  8
ZISSEN1
100
AcDbLine
 10
-1724.999104708595
 20
2132.620328273292
 30
0.0
 11
-1723.999104708595
 21
2131.620328273292
 31
0.0
  0
LINE
  5
1664A
330
1A
100
AcDbEntity
  8
ZISSEN1
100
AcDbLine
 10
-1720.699377872818
 20
2128.119851625058
 30
0.0
 11
-1720.699377872818
 21
2119.469851625058
 31
0.0
  0
LINE
  5
16678
330
1A
100
AcDbEntity
  8
ZISSEN1
100
AcDbLine
 10
-1692.299377872818
 20
2128.119851625058
 30
0.0
 11
-1692.299377872818
 21
2119.469851625058
 31
0.0
  0
LINE
  5
16679
330
1A
100
AcDbEntity
  8
ZISSEN1
100
AcDbLine
 10
-1690.299377872818
 20
2128.119851625058
 30
0.0
 11
-1690.299377872818
 21
2119.469851625058
 31
0.0
  0
LINE
  5
166A6
330
1A
100
AcDbEntity
  8
ZISSEN1
100
AcDbLine
 10
-1681.649104708595
 20
2117.220328273292
 30
0.0
 11
-1681.649104708595
 21
2109.820328273292
 31
0.0
  0
LINE
  5
166A7
330
1A
100
AcDbEntity
  8
ZISSEN1
100
AcDbLine
 10
-1678.049104708595
 20
2117.220328273292
 30
0.0
 11
-1678.049104708595
 21
2109.820328273292
 31
0.0
  0
LINE
  5
166A8
330
1A
100
AcDbEntity
  8
ZISSEN1
100
AcDbLine
 10
-1671.999104708595
 20
2114.920328273292
 30
0.0
 11
-1674.499104708595
 21
2114.920328273292
 31
0.0
  0
LINE
  5
166A9
330
1A
100
AcDbEntity
  8
ZISSEN1
100
AcDbLine
 10
-1674.499104708595
 20
2109.470328273292
 30
0.0
 11
-1671.999104708595
 21
2109.470328273292
 31
0.0
  0
LINE
  5
166AA
330
1A
100
AcDbEntity
  8
ZISSEN1
100
AcDbLine
 10
-1674.499104708595
 20
2108.470328273293
 30
0.0
 11
-1671.999104708595
 21
2108.470328273293
 31
0.0
  0
LINE
  5
166AB
330
1A
100
AcDbEntity
  8
ZISSEN1
100
AcDbLine
 10
-1671.999104708595
 20
2106.270328273292
 30
0.0
 11
-1674.499104708595
 21
2106.270328273292
 31
0.0
  0
LINE
  5
166AC
330
1A
100
AcDbEntity
  8
ZISSEN1
100
AcDbLine
 10
-1674.499104708595
 20
2103.970328273292
 30
0.0
 11
-1671.999104708595
 21
2103.970328273292
 31
0.0
  0
LINE
  5
166AD
330
1A
100
AcDbEntity
  8
ZISSEN1
100
AcDbLine
 10
-1674.499104708595
 20
2101.770328273292
 30
0.0
 11
-1671.999104708595
 21
2101.770328273292
 31
0.0
  0
LINE
  5
166AE
330
1A
100
AcDbEntity
  8
ZISSEN1
100
AcDbLine
 10
-1674.499104708595
 20
2100.770328273292
 30
0.0
 11
-1671.999104708595
 21
2100.770328273292
 31
0.0
  0
LINE
  5
166AF
330
1A
100
AcDbEntity
  8
ZISSEN1
100
AcDbLine
 10
-1671.999104708595
 20
2095.320328273292
 30
0.0
 11
-1674.499104708595
 21
2095.320328273292
 31
0.0
  0
LINE
  5
166B0
330
1A
100
AcDbEntity
  8
ZISSEN1
100
AcDbLine
 10
-1671.999104708595
 20
2093.920328273292
 30
0.0
 11
-1674.499104708595
 21
2093.920328273292
 31
0.0
  0
LINE
  5
166B1
330
1A
100
AcDbEntity
  8
ZISSEN1
100
AcDbLine
 10
-1682.539104708595
 20
2108.925328273292
 30
0.0
 11
-1682.539104708595
 21
2102.315328273292
 31
0.0
  0
LINE
  5
166B2
330
1A
100
AcDbEntity
  8
ZISSEN1
100
AcDbLine
 10
-1677.139104708595
 20
2108.925328273292
 30
0.0
 11
-1677.139104708595
 21
2102.315328273292
 31
0.0
  0
LINE
  5
166B5
330
1A
100
AcDbEntity
  8
ZISSEN1
100
AcDbLine
 10
-1677.139104708595
 20
2102.315328273292
 30
0.0
 11
-1682.539104708595
 21
2102.315328273292
 31
0.0
  0
LINE
  5
166BE
330
1A
100
AcDbEntity
  8
ZISSEN1
100
AcDbLine
 10
-1677.139104708595
 20
2101.425328273292
 30
0.0
 11
-1682.539104708595
 21
2101.425328273292
 31
0.0
  0
LINE
  5
166BF
330
1A
100
AcDbEntity
  8
ZISSEN1
100
AcDbLine
 10
-1677.139104708595
 20
2094.815328273292
 30
0.0
 11
-1682.539104708595
 21
2094.815328273292
 31
0.0
  0
LINE
  5
166C0
330
1A
100
AcDbEntity
  8
ZISSEN1
100
AcDbLine
 10
-1678.049104708595
 20
2093.220328273292
 30
0.0
 11
-1681.649104708595
 21
2093.220328273292
 31
0.0
  0
LINE
  5
166C2
330
1A
100
AcDbEntity
  8
ZISSEN1
100
AcDbLine
 10
-1682.539104708595
 20
2101.425328273292
 30
0.0
 11
-1682.539104708595
 21
2094.815328273292
 31
0.0
  0
LINE
  5
166D7
330
1A
100
AcDbEntity
  8
ZISSEN1
100
AcDbLine
 10
-1677.139104708595
 20
2101.425328273292
 30
0.0
 11
-1677.139104708595
 21
2094.815328273292
 31
0.0
  0
LINE
  5
166EB
330
1A
100
AcDbEntity
  8
ZISSEN1
100
AcDbLine
 10
-1678.049104708595
 20
2109.820328273292
 30
0.0
 11
-1681.649104708595
 21
2109.820328273292
 31
0.0
  0
LINE
  5
166F2
330
1A
100
AcDbEntity
  8
ZISSEN1
100
AcDbLine
 10
-1677.139104708595
 20
2108.925328273292
 30
0.0
 11
-1682.539104708595
 21
2108.925328273292
 31
0.0
  0
LINE
  5
1671C
330
1A
100
AcDbEntity
  8
ZISSEN1
100
AcDbLine
 10
-1671.999104708595
 20
2114.920328273292
 30
0.0
 11
-1671.999104708595
 21
2095.320328273292
 31
0.0
  0
LINE
  5
1671D
330
1A
100
AcDbEntity
  8
ZISSEN1
100
AcDbLine
 10
-1665.999104708595
 20
2114.420328273292
 30
0.0
 11
-1665.999104708595
 21
2095.820328273292
 31
0.0
  0
LINE
  5
1671E
330
1A
100
AcDbEntity
  8
ZISSEN1
100
AcDbLine
 10
-1671.999104708595
 20
2093.420328273292
 30
0.0
 11
-1665.999104708595
 21
2093.420328273292
 31
0.0
  0
LINE
  5
1671F
330
1A
100
AcDbEntity
  8
ZISSEN1
100
AcDbLine
 10
-1671.999104708595
 20
2095.820328273292
 30
0.0
 11
-1665.999104708595
 21
2095.820328273292
 31
0.0
  0
LINE
  5
16720
330
1A
100
AcDbEntity
  8
ZISSEN1
100
AcDbLine
 10
-1671.999104708595
 20
2114.420328273292
 30
0.0
 11
-1665.999104708595
 21
2114.420328273292
 31
0.0
  0
LINE
  5
16721
330
1A
100
AcDbEntity
  8
ZISSEN1
100
AcDbLine
 10
-1678.049104708595
 20
2117.220328273292
 30
0.0
 11
-1681.649104708595
 21
2117.220328273292
 31
0.0
  0
LINE
  5
16723
330
1A
100
AcDbEntity
  8
ZISSEN1
100
AcDbLine
 10
-1673.999104708595
 20
2125.620328273292
 30
0.0
 11
-1673.999104708595
 21
2120.620328273292
 31
0.0
  0
CIRCLE
  5
16724
330
1A
100
AcDbEntity
  8
ZISSEN1
100
AcDbCircle
 10
-1677.499104708595
 20
2123.120328273292
 30
0.0
 40
2.75
  0
LINE
  5
16726
330
1A
100
AcDbEntity
  8
ZISSEN1
100
AcDbLine
 10
-1673.999104708595
 20
2120.620328273292
 30
0.0
 11
-1674.499104708595
 21
2120.120328273292
 31
0.0
  0
ARC
  5
16732
330
1A
100
AcDbEntity
  8
ZISSEN1
100
AcDbCircle
 10
-1674.499104708595
 20
2126.120328273292
 30
0.0
 40
0.9999999999999714
100
AcDbArc
 50
180.0
 51
270.0
  0
LINE
  5
16733
330
1A
100
AcDbEntity
  8
ZISSEN1
100
AcDbLine
 10
-1674.999104708595
 20
2126.620328273292
 30
0.0
 11
-1673.999104708595
 21
2125.620328273292
 31
0.0
  0
LINE
  5
16736
330
1A
100
AcDbEntity
  8
ZISSEN1
100
AcDbLine
 10
-1643.299104708595
 20
2116.720328273292
 30
0.0
 11
-1643.299104708595
 21
2110.320328273292
 31
0.0
  0
LINE
  5
16737
330
1A
100
AcDbEntity
  8
ZISSEN1
100
AcDbLine
 10
-1635.699104708595
 20
2116.720328273292
 30
0.0
 11
-1635.699104708595
 21
2110.320328273292
 31
0.0
  0
LINE
  5
1673C
330
1A
100
AcDbEntity
  8
ZISSEN1
100
AcDbLine
 10
-1642.799104708595
 20
2109.820328273292
 30
0.0
 11
-1636.199104708595
 21
2109.820328273292
 31
0.0
  0
LINE
  5
16740
330
1A
100
AcDbEntity
  8
ZISSEN1
100
AcDbLine
 10
-1642.799104708595
 20
2093.220328273292
 30
0.0
 11
-1636.199104708595
 21
2093.220328273292
 31
0.0
  0
LINE
  5
16742
330
1A
100
AcDbEntity
  8
ZISSEN1
100
AcDbLine
 10
-1642.799104708595
 20
2093.220328273292
 30
0.0
 11
-1642.799104708595
 21
2092.720328273292
 31
0.0
  0
LINE
  5
16743
330
1A
100
AcDbEntity
  8
ZISSEN1
100
AcDbLine
 10
-1643.299104708595
 20
2092.720328273292
 30
0.0
 11
-1642.799104708595
 21
2092.720328273292
 31
0.0
  0
LINE
  5
16744
330
1A
100
AcDbEntity
  8
ZISSEN1
100
AcDbLine
 10
-1642.799104708595
 20
2109.820328273292
 30
0.0
 11
-1642.799104708595
 21
2110.320328273292
 31
0.0
  0
LINE
  5
16745
330
1A
100
AcDbEntity
  8
ZISSEN1
100
AcDbLine
 10
-1643.299104708595
 20
2110.320328273292
 30
0.0
 11
-1642.799104708595
 21
2110.320328273292
 31
0.0
  0
LINE
  5
16755
330
1A
100
AcDbEntity
  8
ZISSEN1
100
AcDbLine
 10
-1638.199104708595
 20
2102.315328273292
 30
0.0
 11
-1638.199104708595
 21
2108.925328273292
 31
0.0
  0
LINE
  5
16756
330
1A
100
AcDbEntity
  8
ZISSEN1
100
AcDbLine
 10
-1624.199104708595
 20
2096.020328273292
 30
0.0
 11
-1624.199104708595
 21
2114.220328273292
 31
0.0
  0
LINE
  5
16757
330
1A
100
AcDbEntity
  8
ZISSEN1
100
AcDbLine
 10
-1630.699104708595
 20
2096.020328273292
 30
0.0
 11
-1630.699104708595
 21
2114.220328273292
 31
0.0
  0
LINE
  5
16758
330
1A
100
AcDbEntity
  8
ZISSEN1
100
AcDbLine
 10
-1623.399104708595
 20
2095.320328273292
 30
0.0
 11
-1623.399104708595
 21
2114.920328273292
 31
0.0
  0
LINE
  5
16759
330
1A
100
AcDbEntity
  8
ZISSEN1
100
AcDbLine
 10
-1631.299104708595
 20
2095.320328273292
 30
0.0
 11
-1631.299104708595
 21
2114.920328273292
 31
0.0
  0
LINE
  5
1675C
330
1A
100
AcDbEntity
  8
ZISSEN1
100
AcDbLine
 10
-1638.199104708595
 20
2094.815328273292
 30
0.0
 11
-1638.199104708595
 21
2101.425328273292
 31
0.0
  0
LINE
  5
16769
330
1A
100
AcDbEntity
  8
ZISSEN1
100
AcDbLine
 10
-1638.199104708595
 20
2094.815328273292
 30
0.0
 11
-1635.799104708595
 21
2094.815328273292
 31
0.0
  0
LINE
  5
1676A
330
1A
100
AcDbEntity
  8
ZISSEN1
100
AcDbLine
 10
-1636.199104708595
 20
2093.220328273292
 30
0.0
 11
-1636.199104708595
 21
2092.720328273292
 31
0.0
  0
LINE
  5
1676B
330
1A
100
AcDbEntity
  8
ZISSEN1
100
AcDbLine
 10
-1635.699104708595
 20
2092.720328273292
 30
0.0
 11
-1636.199104708595
 21
2092.720328273292
 31
0.0
  0
LINE
  5
1676C
330
1A
100
AcDbEntity
  8
ZISSEN1
100
AcDbLine
 10
-1636.599104708595
 20
2094.815328273292
 30
0.0
 11
-1636.599104708595
 21
2101.425328273292
 31
0.0
  0
LINE
  5
1676E
330
1A
100
AcDbEntity
  8
ZISSEN1
100
AcDbLine
 10
-1635.799104708595
 20
2094.815328273292
 30
0.0
 11
-1635.799104708595
 21
2101.425328273292
 31
0.0
  0
LINE
  5
16770
330
1A
100
AcDbEntity
  8
ZISSEN1
100
AcDbLine
 10
-1638.199104708595
 20
2101.425328273292
 30
0.0
 11
-1635.799104708595
 21
2101.425328273292
 31
0.0
  0
LINE
  5
1677F
330
1A
100
AcDbEntity
  8
ZISSEN1
100
AcDbLine
 10
-1638.199104708595
 20
2102.315328273292
 30
0.0
 11
-1635.799104708595
 21
2102.315328273292
 31
0.0
  0
LINE
  5
16780
330
1A
100
AcDbEntity
  8
ZISSEN1
100
AcDbLine
 10
-1630.699104708595
 20
2093.220328273292
 30
0.0
 11
-1624.199104708595
 21
2093.220328273292
 31
0.0
  0
LINE
  5
16781
330
1A
100
AcDbEntity
  8
ZISSEN1
100
AcDbLine
 10
-1631.299104708595
 20
2093.920328273292
 30
0.0
 11
-1623.399104708595
 21
2093.920328273292
 31
0.0
  0
LINE
  5
16782
330
1A
100
AcDbEntity
  8
ZISSEN1
100
AcDbLine
 10
-1630.699104708595
 20
2096.020328273292
 30
0.0
 11
-1624.199104708595
 21
2096.020328273292
 31
0.0
  0
LINE
  5
16783
330
1A
100
AcDbEntity
  8
ZISSEN1
100
AcDbLine
 10
-1631.299104708595
 20
2095.320328273292
 30
0.0
 11
-1623.399104708595
 21
2095.320328273292
 31
0.0
  0
LINE
  5
16784
330
1A
100
AcDbEntity
  8
ZISSEN1
100
AcDbLine
 10
-1636.199104708595
 20
2109.820328273292
 30
0.0
 11
-1636.199104708595
 21
2110.320328273292
 31
0.0
  0
LINE
  5
16785
330
1A
100
AcDbEntity
  8
ZISSEN1
100
AcDbLine
 10
-1636.599104708595
 20
2102.315328273292
 30
0.0
 11
-1636.599104708595
 21
2108.925328273292
 31
0.0
  0
LINE
  5
16788
330
1A
100
AcDbEntity
  8
ZISSEN1
100
AcDbLine
 10
-1635.799104708595
 20
2102.315328273292
 30
0.0
 11
-1635.799104708595
 21
2108.925328273292
 31
0.0
  0
LINE
  5
1678B
330
1A
100
AcDbEntity
  8
ZISSEN1
100
AcDbLine
 10
-1638.199104708595
 20
2108.925328273292
 30
0.0
 11
-1635.799104708595
 21
2108.925328273292
 31
0.0
  0
LINE
  5
1679C
330
1A
100
AcDbEntity
  8
ZISSEN1
100
AcDbLine
 10
-1635.699104708595
 20
2110.320328273292
 30
0.0
 11
-1636.199104708595
 21
2110.320328273292
 31
0.0
  0
LINE
  5
167A8
330
1A
100
AcDbEntity
  8
ZISSEN1
100
AcDbLine
 10
-1630.699104708595
 20
2114.220328273292
 30
0.0
 11
-1624.199104708595
 21
2114.220328273292
 31
0.0
  0
LINE
  5
167A9
330
1A
100
AcDbEntity
  8
ZISSEN1
100
AcDbLine
 10
-1631.299104708595
 20
2114.920328273292
 30
0.0
 11
-1623.399104708595
 21
2114.920328273292
 31
0.0
  0
LINE
  5
167AA
330
1A
100
AcDbEntity
  8
ZISSEN1
100
AcDbLine
 10
-1638.199104708595
 20
2119.619851625059
 30
0.0
 11
-1641.399104708595
 21
2119.619851625059
 31
0.0
  0
LINE
  5
167AB
330
1A
100
AcDbEntity
  8
ZISSEN1
100
AcDbLine
 10
-1642.399104708595
 20
2128.119851625058
 30
0.0
 11
-1635.699104708595
 21
2128.119851625058
 31
0.0
  0
LINE
  5
167AC
330
1A
100
AcDbEntity
  8
ZISSEN1
100
AcDbLine
 10
-1638.199104708595
 20
2119.619851625059
 30
0.0
 11
-1641.399104708595
 21
2119.619851625059
 31
0.0
  0
LINE
  5
167AD
330
1A
100
AcDbEntity
  8
ZISSEN1
100
AcDbLine
 10
-1642.799104708595
 20
2117.220328273292
 30
0.0
 11
-1636.199104708595
 21
2117.220328273292
 31
0.0
  0
LINE
  5
167AE
330
1A
100
AcDbEntity
  8
ZISSEN1
100
AcDbLine
 10
-1642.999104708595
 20
2132.620328273292
 30
0.0
 11
-1631.749104708595
 21
2132.620328273292
 31
0.0
  0
INSERT
  5
167AF
330
1A
100
AcDbEntity
  8
ZISSEN1
100
AcDbBlockReference
  2
-002-51103_C
 10
-1639.599104708595
 20
2130.369851625058
 30
0.0
 41
-1.0
 50
90.0
  0
LINE
  5
167B0
330
1A
100
AcDbEntity
  8
ZISSEN1
100
AcDbLine
 10
-1642.399104708595
 20
2128.119851625058
 30
0.0
 11
-1642.399104708595
 21
2121.619851625058
 31
0.0
  0
LINE
  5
167B1
330
1A
100
AcDbEntity
  8
ZISSEN1
100
AcDbLine
 10
-1642.399104708595
 20
2128.119851625058
 30
0.0
 11
-1642.399104708595
 21
2121.619851625058
 31
0.0
  0
LINE
  5
167B2
330
1A
100
AcDbEntity
  8
ZISSEN1
100
AcDbLine
 10
-1640.399104708595
 20
2118.619851625058
 30
0.0
 11
-1640.399104708595
 21
2119.619851625059
 31
0.0
  0
LINE
  5
167B3
330
1A
100
AcDbEntity
  8
ZISSEN1
100
AcDbLine
 10
-1640.999104708595
 20
2118.619851625058
 30
0.0
 11
-1640.399104708595
 21
2118.619851625058
 31
0.0
  0
LINE
  5
167B4
330
1A
100
AcDbEntity
  8
ZISSEN1
100
AcDbLine
 10
-1640.999104708595
 20
2119.619851625059
 30
0.0
 11
-1640.999104708595
 21
2118.619851625058
 31
0.0
  0
LINE
  5
167B5
330
1A
100
AcDbEntity
  8
ZISSEN1
100
AcDbLine
 10
-1642.399104708595
 20
2121.619851625058
 30
0.0
 11
-1641.399104708595
 21
2119.619851625059
 31
0.0
  0
LINE
  5
167B6
330
1A
100
AcDbEntity
  8
ZISSEN1
100
AcDbLine
 10
-1642.799104708595
 20
2117.220328273292
 30
0.0
 11
-1642.799104708595
 21
2116.720328273292
 31
0.0
  0
LINE
  5
167B7
330
1A
100
AcDbEntity
  8
ZISSEN1
100
AcDbLine
 10
-1643.299104708595
 20
2116.720328273292
 30
0.0
 11
-1642.799104708595
 21
2116.720328273292
 31
0.0
  0
LINE
  5
167B8
330
1A
100
AcDbEntity
  8
ZISSEN1
100
AcDbLine
 10
-1642.999104708595
 20
2132.620328273292
 30
0.0
 11
-1643.999104708595
 21
2131.620328273292
 31
0.0
  0
LINE
  5
167B9
330
1A
100
AcDbEntity
  8
ZISSEN1
100
AcDbLine
 10
-1635.999104708595
 20
2128.119851625058
 30
0.0
 11
-1635.999104708595
 21
2116.720328273292
 31
0.0
  0
LINE
  5
167BA
330
1A
100
AcDbEntity
  8
ZISSEN1
100
AcDbLine
 10
-1635.699104708595
 20
2128.119851625058
 30
0.0
 11
-1635.699104708595
 21
2124.119851625058
 31
0.0
  0
ARC
  5
167BB
330
1A
100
AcDbEntity
  8
ZISSEN1
100
AcDbCircle
 10
-1629.999104708595
 20
2129.120328273292
 30
0.0
 40
1.75
100
AcDbArc
 50
180.0
 51
0.0
  0
LINE
  5
167BC
330
1A
100
AcDbEntity
  8
CL1
100
AcDbLine
 10
-1629.999104708595
 20
2133.120328273292
 30
0.0
 11
-1629.999104708595
 21
2127.120328273292
 31
0.0
  0
LINE
  5
167BD
330
1A
100
AcDbEntity
  8
ZISSEN1
100
AcDbLine
 10
-1634.099104708595
 20
2124.870328273292
 30
0.0
 11
-1634.099104708595
 21
2121.370328273292
 31
0.0
  0
LINE
  5
167BE
330
1A
100
AcDbEntity
  8
ZISSEN1
100
AcDbLine
 10
-1637.218351773506
 20
2121.745328273292
 30
0.0
 11
-1637.129543685195
 21
2121.352662346654
 31
0.0
  0
LINE
  5
167BF
330
1A
100
AcDbEntity
  8
ZISSEN1
100
AcDbLine
 10
-1635.699104708595
 20
2125.870328273292
 30
0.0
 11
-1635.699104708595
 21
2120.370328273292
 31
0.0
  0
LINE
  5
167C0
330
1A
100
AcDbEntity
  8
ZISSEN1
100
AcDbLine
 10
-1637.14946219477
 20
2117.220328273292
 30
0.0
 11
-1638.199104708595
 21
2118.619851625058
 31
0.0
  0
LINE
  5
167C1
330
1A
100
AcDbEntity
  8
ZISSEN1
100
AcDbLine
 10
-1635.699104708595
 20
2120.619851625058
 30
0.0
 11
-1635.999104708595
 21
2120.619851625058
 31
0.0
  0
LINE
  5
167C2
330
1A
100
AcDbEntity
  8
ZISSEN1
100
AcDbLine
 10
-1635.699104708595
 20
2116.619851625058
 30
0.0
 11
-1635.699104708595
 21
2120.619851625058
 31
0.0
  0
LINE
  5
167C3
330
1A
100
AcDbEntity
  8
ZISSEN1
100
AcDbLine
 10
-1638.199104708595
 20
2119.619851625059
 30
0.0
 11
-1638.199104708595
 21
2118.619851625058
 31
0.0
  0
LINE
  5
167C4
330
1A
100
AcDbEntity
  8
ZISSEN1
100
AcDbLine
 10
-1638.199104708595
 20
2118.619851625058
 30
0.0
 11
-1638.199104708595
 21
2119.619851625059
 31
0.0
  0
LINE
  5
167C6
330
1A
100
AcDbEntity
  8
ZISSEN1
100
AcDbLine
 10
-1636.199104708595
 20
2117.220328273292
 30
0.0
 11
-1636.199104708595
 21
2116.720328273292
 31
0.0
  0
LINE
  5
167C7
330
1A
100
AcDbEntity
  8
ZISSEN1
100
AcDbLine
 10
-1635.699104708595
 20
2116.720328273292
 30
0.0
 11
-1636.199104708595
 21
2116.720328273292
 31
0.0
  0
LINE
  5
167C8
330
1A
100
AcDbEntity
  8
ZISSEN1
100
AcDbLine
 10
-1635.699104708595
 20
2120.370328273292
 30
0.0
 11
-1636.449104708595
 21
2120.370328273292
 31
0.0
  0
LINE
  5
167C9
330
1A
100
AcDbEntity
  8
ZISSEN1
100
AcDbLine
 10
-1636.603347702408
 20
2120.412106952508
 30
0.0
 11
-1636.449104708595
 21
2120.370328273292
 31
0.0
  0
LINE
  5
167CA
330
1A
100
AcDbEntity
  8
ZISSEN1
100
AcDbLine
 10
-1636.752904100904
 20
2120.536173566131
 30
0.0
 11
-1636.603347702408
 21
2120.412106952508
 31
0.0
  0
LINE
  5
167CB
330
1A
100
AcDbEntity
  8
ZISSEN1
100
AcDbLine
 10
-1636.893229708595
 20
2120.738758412885
 30
0.0
 11
-1636.752904100904
 21
2120.536173566131
 31
0.0
  0
LINE
  5
167CC
330
1A
100
AcDbEntity
  8
ZISSEN1
100
AcDbLine
 10
-1637.020060802899
 20
2121.013706054715
 30
0.0
 11
-1636.893229708595
 21
2120.738758412885
 31
0.0
  0
LINE
  5
167CD
330
1A
100
AcDbEntity
  8
ZISSEN1
100
AcDbLine
 10
-1637.129543685195
 20
2121.352662346654
 30
0.0
 11
-1637.020060802899
 21
2121.013706054715
 31
0.0
  0
LINE
  5
167CE
330
1A
100
AcDbEntity
  8
ZISSEN1
100
AcDbLine
 10
-1634.099104708595
 20
2126.120328273292
 30
0.0
 11
-1635.699104708595
 21
2126.120328273292
 31
0.0
  0
LINE
  5
167CF
330
1A
100
AcDbEntity
  8
ZISSEN1
100
AcDbLine
 10
-1635.699104708595
 20
2124.119851625058
 30
0.0
 11
-1635.999104708595
 21
2124.119851625058
 31
0.0
  0
LINE
  5
167D0
330
1A
100
AcDbEntity
  8
ZISSEN1
100
AcDbLine
 10
-1635.699104708595
 20
2125.870328273292
 30
0.0
 11
-1636.449104708595
 21
2125.870328273292
 31
0.0
  0
LINE
  5
167D1
330
1A
100
AcDbEntity
  8
ZISSEN1
100
AcDbLine
 10
-1637.283786679008
 20
2122.179772879146
 30
0.0
 11
-1637.218351773506
 21
2121.745328273292
 31
0.0
  0
LINE
  5
167D2
330
1A
100
AcDbEntity
  8
ZISSEN1
100
AcDbLine
 10
-1637.323860195208
 20
2122.642795784708
 30
0.0
 11
-1637.283786679008
 21
2122.179772879146
 31
0.0
  0
LINE
  5
167D3
330
1A
100
AcDbEntity
  8
ZISSEN1
100
AcDbLine
 10
-1637.337354708595
 20
2123.120328273292
 30
0.0
 11
-1637.323860195208
 21
2122.642795784708
 31
0.0
  0
LINE
  5
167D4
330
1A
100
AcDbEntity
  8
ZISSEN1
100
AcDbLine
 10
-1637.323860195208
 20
2123.597860761876
 30
0.0
 11
-1637.337354708595
 21
2123.120328273292
 31
0.0
  0
LINE
  5
167D5
330
1A
100
AcDbEntity
  8
ZISSEN1
100
AcDbLine
 10
-1637.283786679008
 20
2124.060883667437
 30
0.0
 11
-1637.323860195208
 21
2123.597860761876
 31
0.0
  0
LINE
  5
167D6
330
1A
100
AcDbEntity
  8
ZISSEN1
100
AcDbLine
 10
-1637.218351773506
 20
2124.495328273292
 30
0.0
 11
-1637.283786679008
 21
2124.060883667437
 31
0.0
  0
LINE
  5
167D7
330
1A
100
AcDbEntity
  8
ZISSEN1
100
AcDbLine
 10
-1637.129543685195
 20
2124.88799419993
 30
0.0
 11
-1637.218351773506
 21
2124.495328273292
 31
0.0
  0
LINE
  5
167D8
330
1A
100
AcDbEntity
  8
ZISSEN1
100
AcDbLine
 10
-1637.020060802899
 20
2125.226950491869
 30
0.0
 11
-1637.129543685195
 21
2124.88799419993
 31
0.0
  0
LINE
  5
167D9
330
1A
100
AcDbEntity
  8
ZISSEN1
100
AcDbLine
 10
-1636.893229708595
 20
2125.501898133699
 30
0.0
 11
-1637.020060802899
 21
2125.226950491869
 31
0.0
  0
LINE
  5
167DA
330
1A
100
AcDbEntity
  8
ZISSEN1
100
AcDbLine
 10
-1636.752904100904
 20
2125.704482980453
 30
0.0
 11
-1636.893229708595
 21
2125.501898133699
 31
0.0
  0
LINE
  5
167DB
330
1A
100
AcDbEntity
  8
ZISSEN1
100
AcDbLine
 10
-1636.603347702408
 20
2125.828549594075
 30
0.0
 11
-1636.752904100904
 21
2125.704482980453
 31
0.0
  0
LINE
  5
167DC
330
1A
100
AcDbEntity
  8
ZISSEN1
100
AcDbLine
 10
-1636.449104708595
 20
2125.870328273292
 30
0.0
 11
-1636.603347702408
 21
2125.828549594075
 31
0.0
  0
LINE
  5
167DE
330
1A
100
AcDbEntity
  8
ZISSEN1
100
AcDbLine
 10
-1631.749104708595
 20
2132.620328273292
 30
0.0
 11
-1631.749104708595
 21
2129.120328273292
 31
0.0
  0
LINE
  5
167E0
330
1A
100
AcDbEntity
  8
ZISSEN1
100
AcDbLine
 10
-1628.249104708595
 20
2132.620328273292
 30
0.0
 11
-1628.249104708595
 21
2129.120328273292
 31
0.0
  0
LINE
  5
167E2
330
1A
100
AcDbEntity
  8
ZISSEN1
100
AcDbLine
 10
-1623.099104708595
 20
2092.370328273292
 30
0.0
 11
-1623.099104708595
 21
2093.920328273292
 31
0.0
  0
LINE
  5
167E3
330
1A
100
AcDbEntity
  8
ZISSEN1
100
AcDbLine
 10
-1615.999104708595
 20
2038.620328273292
 30
0.0
 11
-1615.999104708595
 21
2132.620328273292
 31
0.0
  0
LINE
  5
167E4
330
1A
100
AcDbEntity
  8
ZISSEN1
100
AcDbLine
 10
-1617.999104708595
 20
2119.620328273292
 30
0.0
 11
-1617.999104708595
 21
2051.620328273292
 31
0.0
  0
LINE
  5
167E5
330
1A
100
AcDbEntity
  8
ZISSEN1
100
AcDbLine
 10
-1623.099104708595
 20
2126.120328273292
 30
0.0
 11
-1623.099104708595
 21
2045.120328273292
 31
0.0
  0
LINE
  5
167E6
330
1A
100
AcDbEntity
  8
ZISSEN1
100
AcDbLine
 10
-1621.499104708595
 20
2126.120328273292
 30
0.0
 11
-1621.499104708595
 21
2045.120328273292
 31
0.0
  0
LINE
  5
167E7
330
1A
100
AcDbEntity
  8
ZISSEN1
100
AcDbLine
 10
-1618.17814861429
 20
2046.013706054714
 30
0.0
 11
-1618.068665731994
 21
2046.352662346654
 31
0.0
  0
LINE
  5
167E8
330
1A
100
AcDbEntity
  8
ZISSEN1
100
AcDbLine
 10
-1619.499104708594
 20
2045.370328273292
 30
0.0
 11
-1619.499104708594
 21
2050.870328273292
 31
0.0
  0
LINE
  5
167E9
330
1A
100
AcDbEntity
  8
ZISSEN1
100
AcDbLine
 10
-1621.499104708595
 20
2048.620328273292
 30
0.0
 11
-1621.499104708595
 21
2044.620328273292
 31
0.0
  0
LINE
  5
167EA
330
1A
100
AcDbEntity
  8
ZISSEN1
100
AcDbLine
 10
-1621.499104708595
 20
2051.620328273292
 30
0.0
 11
-1621.499104708595
 21
2044.620328273292
 31
0.0
  0
LINE
  5
167EB
330
1A
100
AcDbEntity
  8
ZISSEN1
100
AcDbLine
 10
-1619.499104708594
 20
2051.620328273292
 30
0.0
 11
-1619.499104708594
 21
2044.620328273292
 31
0.0
  0
LINE
  5
167EC
330
1A
100
AcDbEntity
  8
ZISSEN1
100
AcDbLine
 10
-1617.999104708595
 20
2038.620328273292
 30
0.0
 11
-1617.999104708595
 21
2044.620328273292
 31
0.0
  0
LINE
  5
167ED
330
1A
100
AcDbEntity
  8
ZISSEN1
100
AcDbLine
 10
-1618.999104708595
 20
2038.620328273292
 30
0.0
 11
-1617.999104708595
 21
2039.620328273292
 31
0.0
  0
LINE
  5
167EE
330
1A
100
AcDbEntity
  8
ZISSEN1
100
AcDbLine
 10
-1617.999104708595
 20
2038.620328273292
 30
0.0
 11
-1615.999104708595
 21
2038.620328273292
 31
0.0
  0
LINE
  5
167EF
330
1A
100
AcDbEntity
  8
ZISSEN1
100
AcDbLine
 10
-1615.999104708595
 20
2039.620328273292
 30
0.0
 11
-1617.999104708595
 21
2039.620328273292
 31
0.0
  0
LINE
  5
167F0
330
1A
100
AcDbEntity
  8
ZISSEN1
100
AcDbLine
 10
-1619.499104708594
 20
2045.370328273292
 30
0.0
 11
-1618.749104708594
 21
2045.370328273292
 31
0.0
  0
LINE
  5
167F1
330
1A
100
AcDbEntity
  8
ZISSEN1
100
AcDbLine
 10
-1615.999104708595
 20
2044.620328273292
 30
0.0
 11
-1621.499104708595
 21
2044.620328273292
 31
0.0
  0
LINE
  5
167F2
330
1A
100
AcDbEntity
  8
ZISSEN1
100
AcDbLine
 10
-1619.499104708594
 20
2045.620328273292
 30
0.0
 11
-1621.499104708595
 21
2045.620328273292
 31
0.0
  0
LINE
  5
167F3
330
1A
100
AcDbEntity
  8
ZISSEN1
100
AcDbLine
 10
-1621.499104708595
 20
2045.120328273292
 30
0.0
 11
-1623.099104708595
 21
2045.120328273292
 31
0.0
  0
LINE
  5
167F4
330
1A
100
AcDbEntity
  8
ZISSEN1
100
AcDbLine
 10
-1618.304979708595
 20
2045.738758412885
 30
0.0
 11
-1618.17814861429
 21
2046.013706054714
 31
0.0
  0
LINE
  5
167F5
330
1A
100
AcDbEntity
  8
ZISSEN1
100
AcDbLine
 10
-1618.445305316286
 20
2045.536173566131
 30
0.0
 11
-1618.304979708595
 21
2045.738758412885
 31
0.0
  0
LINE
  5
167F6
330
1A
100
AcDbEntity
  8
ZISSEN1
100
AcDbLine
 10
-1618.594861714782
 20
2045.412106952508
 30
0.0
 11
-1618.445305316286
 21
2045.536173566131
 31
0.0
  0
LINE
  5
167F7
330
1A
100
AcDbEntity
  8
ZISSEN1
100
AcDbLine
 10
-1618.749104708594
 20
2045.370328273292
 30
0.0
 11
-1618.594861714782
 21
2045.412106952508
 31
0.0
  0
LINE
  5
167F8
330
1A
100
AcDbEntity
  8
ZISSEN1
100
AcDbLine
 10
-1619.499104708594
 20
2050.870328273292
 30
0.0
 11
-1618.749104708594
 21
2050.870328273292
 31
0.0
  0
LINE
  5
167F9
330
1A
100
AcDbEntity
  8
ZISSEN1
100
AcDbLine
 10
-1615.999104708595
 20
2051.620328273292
 30
0.0
 11
-1621.499104708595
 21
2051.620328273292
 31
0.0
  0
LINE
  5
167FA
330
1A
100
AcDbEntity
  8
ZISSEN1
100
AcDbLine
 10
-1623.099104708595
 20
2049.870328273292
 30
0.0
 11
-1623.099104708595
 21
2046.370328273292
 31
0.0
  0
LINE
  5
167FB
330
1A
100
AcDbEntity
  8
ZISSEN1
100
AcDbLine
 10
-1619.499104708594
 20
2050.620328273292
 30
0.0
 11
-1621.499104708595
 21
2050.620328273292
 31
0.0
  0
LINE
  5
167FC
330
1A
100
AcDbEntity
  8
ZISSEN1
100
AcDbLine
 10
-1618.594861714782
 20
2050.828549594075
 30
0.0
 11
-1618.749104708594
 21
2050.870328273292
 31
0.0
  0
LINE
  5
167FD
330
1A
100
AcDbEntity
  8
ZISSEN1
100
AcDbLine
 10
-1618.445305316286
 20
2050.704482980453
 30
0.0
 11
-1618.594861714782
 21
2050.828549594075
 31
0.0
  0
LINE
  5
167FE
330
1A
100
AcDbEntity
  8
ZISSEN1
100
AcDbLine
 10
-1618.304979708595
 20
2050.501898133699
 30
0.0
 11
-1618.445305316286
 21
2050.704482980453
 31
0.0
  0
LINE
  5
167FF
330
1A
100
AcDbEntity
  8
ZISSEN1
100
AcDbLine
 10
-1618.17814861429
 20
2050.226950491869
 30
0.0
 11
-1618.304979708595
 21
2050.501898133699
 31
0.0
  0
LINE
  5
16800
330
1A
100
AcDbEntity
  8
ZISSEN1
100
AcDbLine
 10
-1618.068665731994
 20
2049.88799419993
 30
0.0
 11
-1618.17814861429
 21
2050.226950491869
 31
0.0
  0
LINE
  5
16801
330
1A
100
AcDbEntity
  8
ZISSEN1
100
AcDbLine
 10
-1617.979857643683
 20
2049.495328273292
 30
0.0
 11
-1618.068665731994
 21
2049.88799419993
 31
0.0
  0
LINE
  5
16802
330
1A
100
AcDbEntity
  8
ZISSEN1
100
AcDbLine
 10
-1617.914422738182
 20
2049.060883667438
 30
0.0
 11
-1617.979857643683
 21
2049.495328273292
 31
0.0
  0
LINE
  5
16803
330
1A
100
AcDbEntity
  8
ZISSEN1
100
AcDbLine
 10
-1617.874349221982
 20
2048.597860761876
 30
0.0
 11
-1617.914422738182
 21
2049.060883667438
 31
0.0
  0
LINE
  5
16804
330
1A
100
AcDbEntity
  8
ZISSEN1
100
AcDbLine
 10
-1617.860854708595
 20
2048.120328273292
 30
0.0
 11
-1617.874349221982
 21
2048.597860761876
 31
0.0
  0
LINE
  5
16805
330
1A
100
AcDbEntity
  8
ZISSEN1
100
AcDbLine
 10
-1617.874349221982
 20
2047.642795784708
 30
0.0
 11
-1617.860854708595
 21
2048.120328273292
 31
0.0
  0
LINE
  5
16806
330
1A
100
AcDbEntity
  8
ZISSEN1
100
AcDbLine
 10
-1617.914422738182
 20
2047.179772879146
 30
0.0
 11
-1617.874349221982
 21
2047.642795784708
 31
0.0
  0
LINE
  5
16807
330
1A
100
AcDbEntity
  8
ZISSEN1
100
AcDbLine
 10
-1617.979857643683
 20
2046.745328273292
 30
0.0
 11
-1617.914422738182
 21
2047.179772879146
 31
0.0
  0
LINE
  5
16808
330
1A
100
AcDbEntity
  8
ZISSEN1
100
AcDbLine
 10
-1618.068665731994
 20
2046.352662346654
 30
0.0
 11
-1617.979857643683
 21
2046.745328273292
 31
0.0
  0
LINE
  5
16809
330
1A
100
AcDbEntity
  8
ZISSEN1
100
AcDbLine
 10
-1623.099104708595
 20
2063.120328273292
 30
0.0
 11
-1623.099104708595
 21
2064.120328273292
 31
0.0
  0
LINE
  5
1680A
330
1A
100
AcDbEntity
  8
ZISSEN1
100
AcDbLine
 10
-1623.099104708595
 20
2059.070328273292
 30
0.0
 11
-1623.099104708595
 21
2060.620328273292
 31
0.0
  0
LINE
  5
1680B
330
1A
100
AcDbEntity
  8
ZISSEN1
100
AcDbLine
 10
-1623.099104708595
 20
2066.620328273292
 30
0.0
 11
-1623.099104708595
 21
2068.170328273292
 31
0.0
  0
LINE
  5
1680C
330
1A
100
AcDbEntity
  8
ZISSEN1
100
AcDbLine
 10
-1623.099104708595
 20
2074.320328273292
 30
0.0
 11
-1623.099104708595
 21
2075.870328273292
 31
0.0
  0
LINE
  5
1680D
330
1A
100
AcDbEntity
  8
ZISSEN1
100
AcDbLine
 10
-1623.099104708595
 20
2078.370328273292
 30
0.0
 11
-1623.099104708595
 21
2079.370328273292
 31
0.0
  0
LINE
  5
1680E
330
1A
100
AcDbEntity
  8
ZISSEN1
100
AcDbLine
 10
-1623.099104708595
 20
2085.370328273292
 30
0.0
 11
-1623.099104708595
 21
2086.370328273292
 31
0.0
  0
LINE
  5
1680F
330
1A
100
AcDbEntity
  8
ZISSEN1
100
AcDbLine
 10
-1623.099104708595
 20
2081.870328273292
 30
0.0
 11
-1623.099104708595
 21
2082.870328273292
 31
0.0
  0
LINE
  5
16810
330
1A
100
AcDbEntity
  8
ZISSEN1
100
AcDbLine
 10
-1623.099104708595
 20
2088.870328273292
 30
0.0
 11
-1623.099104708595
 21
2089.870328273291
 31
0.0
  0
LINE
  5
16811
330
1A
100
AcDbEntity
  8
ZISSEN1
100
AcDbLine
 10
-1623.099104708595
 20
2095.320328273292
 30
0.0
 11
-1623.099104708595
 21
2096.870328273292
 31
0.0
  0
LINE
  5
16812
330
1A
100
AcDbEntity
  8
ZISSEN1
100
AcDbLine
 10
-1623.099104708595
 20
2102.870328273292
 30
0.0
 11
-1623.099104708595
 21
2103.870328273292
 31
0.0
  0
LINE
  5
16813
330
1A
100
AcDbEntity
  8
ZISSEN1
100
AcDbLine
 10
-1623.099104708595
 20
2099.370328273292
 30
0.0
 11
-1623.099104708595
 21
2100.370328273292
 31
0.0
  0
LINE
  5
16814
330
1A
100
AcDbEntity
  8
ZISSEN1
100
AcDbLine
 10
-1623.099104708595
 20
2109.870328273292
 30
0.0
 11
-1623.099104708595
 21
2110.870328273292
 31
0.0
  0
LINE
  5
16815
330
1A
100
AcDbEntity
  8
ZISSEN1
100
AcDbLine
 10
-1623.099104708595
 20
2106.370328273292
 30
0.0
 11
-1623.099104708595
 21
2107.370328273292
 31
0.0
  0
LINE
  5
16816
330
1A
100
AcDbEntity
  8
ZISSEN1
100
AcDbLine
 10
-1623.099104708595
 20
2113.370328273292
 30
0.0
 11
-1623.099104708595
 21
2114.920328273292
 31
0.0
  0
LINE
  5
16817
330
1A
100
AcDbEntity
  8
ZISSEN1
100
AcDbLine
 10
-1617.999104708595
 20
2132.620328273292
 30
0.0
 11
-1617.999104708595
 21
2126.620328273292
 31
0.0
  0
LINE
  5
16818
330
1A
100
AcDbEntity
  8
ZISSEN1
100
AcDbLine
 10
-1623.099104708595
 20
2124.870328273292
 30
0.0
 11
-1623.099104708595
 21
2121.370328273292
 31
0.0
  0
LINE
  5
16819
330
1A
100
AcDbEntity
  8
ZISSEN1
100
AcDbLine
 10
-1618.068665731994
 20
2121.352662346654
 30
0.0
 11
-1617.979857643683
 21
2121.745328273292
 31
0.0
  0
LINE
  5
1681A
330
1A
100
AcDbEntity
  8
ZISSEN1
100
AcDbLine
 10
-1619.499104708594
 20
2120.370328273292
 30
0.0
 11
-1619.499104708594
 21
2125.870328273292
 31
0.0
  0
LINE
  5
1681B
330
1A
100
AcDbEntity
  8
ZISSEN1
100
AcDbLine
 10
-1621.499104708595
 20
2126.620328273292
 30
0.0
 11
-1621.499104708595
 21
2119.620328273292
 31
0.0
  0
LINE
  5
1681C
330
1A
100
AcDbEntity
  8
ZISSEN1
100
AcDbLine
 10
-1619.499104708594
 20
2126.620328273292
 30
0.0
 11
-1619.499104708594
 21
2119.620328273292
 31
0.0
  0
LINE
  5
1681D
330
1A
100
AcDbEntity
  8
ZISSEN1
100
AcDbLine
 10
-1619.499104708594
 20
2120.370328273292
 30
0.0
 11
-1618.749104708594
 21
2120.370328273292
 31
0.0
  0
LINE
  5
1681E
330
1A
100
AcDbEntity
  8
ZISSEN1
100
AcDbLine
 10
-1615.999104708595
 20
2119.620328273292
 30
0.0
 11
-1621.499104708595
 21
2119.620328273292
 31
0.0
  0
LINE
  5
1681F
330
1A
100
AcDbEntity
  8
ZISSEN1
100
AcDbLine
 10
-1619.499104708594
 20
2120.620328273292
 30
0.0
 11
-1621.499104708595
 21
2120.620328273292
 31
0.0
  0
LINE
  5
16820
330
1A
100
AcDbEntity
  8
ZISSEN1
100
AcDbLine
 10
-1618.17814861429
 20
2121.013706054715
 30
0.0
 11
-1618.068665731994
 21
2121.352662346654
 31
0.0
  0
LINE
  5
16821
330
1A
100
AcDbEntity
  8
ZISSEN1
100
AcDbLine
 10
-1618.304979708595
 20
2120.738758412885
 30
0.0
 11
-1618.17814861429
 21
2121.013706054715
 31
0.0
  0
LINE
  5
16822
330
1A
100
AcDbEntity
  8
ZISSEN1
100
AcDbLine
 10
-1618.445305316286
 20
2120.536173566131
 30
0.0
 11
-1618.304979708595
 21
2120.738758412885
 31
0.0
  0
LINE
  5
16823
330
1A
100
AcDbEntity
  8
ZISSEN1
100
AcDbLine
 10
-1618.594861714782
 20
2120.412106952508
 30
0.0
 11
-1618.445305316286
 21
2120.536173566131
 31
0.0
  0
LINE
  5
16824
330
1A
100
AcDbEntity
  8
ZISSEN1
100
AcDbLine
 10
-1618.749104708594
 20
2120.370328273292
 30
0.0
 11
-1618.594861714782
 21
2120.412106952508
 31
0.0
  0
LINE
  5
16825
330
1A
100
AcDbEntity
  8
ZISSEN1
100
AcDbLine
 10
-1619.499104708594
 20
2125.870328273292
 30
0.0
 11
-1618.749104708594
 21
2125.870328273292
 31
0.0
  0
LINE
  5
16826
330
1A
100
AcDbEntity
  8
ZISSEN1
100
AcDbLine
 10
-1615.999104708595
 20
2126.620328273292
 30
0.0
 11
-1621.499104708595
 21
2126.620328273292
 31
0.0
  0
LINE
  5
16827
330
1A
100
AcDbEntity
  8
ZISSEN1
100
AcDbLine
 10
-1621.499104708595
 20
2126.620328273292
 30
0.0
 11
-1621.499104708595
 21
2122.620328273292
 31
0.0
  0
LINE
  5
16828
330
1A
100
AcDbEntity
  8
ZISSEN1
100
AcDbLine
 10
-1619.499104708594
 20
2125.620328273292
 30
0.0
 11
-1621.499104708595
 21
2125.620328273292
 31
0.0
  0
LINE
  5
16829
330
1A
100
AcDbEntity
  8
ZISSEN1
100
AcDbLine
 10
-1619.499104708594
 20
2126.620328273292
 30
0.0
 11
-1621.499104708595
 21
2126.620328273292
 31
0.0
  0
LINE
  5
1682A
330
1A
100
AcDbEntity
  8
ZISSEN1
100
AcDbLine
 10
-1621.499104708595
 20
2126.120328273292
 30
0.0
 11
-1623.099104708595
 21
2126.120328273292
 31
0.0
  0
LINE
  5
1682B
330
1A
100
AcDbEntity
  8
ZISSEN1
100
AcDbLine
 10
-1618.594861714782
 20
2125.828549594075
 30
0.0
 11
-1618.749104708594
 21
2125.870328273292
 31
0.0
  0
LINE
  5
1682C
330
1A
100
AcDbEntity
  8
ZISSEN1
100
AcDbLine
 10
-1618.445305316286
 20
2125.704482980453
 30
0.0
 11
-1618.594861714782
 21
2125.828549594075
 31
0.0
  0
LINE
  5
1682D
330
1A
100
AcDbEntity
  8
ZISSEN1
100
AcDbLine
 10
-1618.304979708595
 20
2125.501898133699
 30
0.0
 11
-1618.445305316286
 21
2125.704482980453
 31
0.0
  0
LINE
  5
1682E
330
1A
100
AcDbEntity
  8
ZISSEN1
100
AcDbLine
 10
-1618.17814861429
 20
2125.226950491869
 30
0.0
 11
-1618.304979708595
 21
2125.501898133699
 31
0.0
  0
LINE
  5
1682F
330
1A
100
AcDbEntity
  8
ZISSEN1
100
AcDbLine
 10
-1618.068665731994
 20
2124.88799419993
 30
0.0
 11
-1618.17814861429
 21
2125.226950491869
 31
0.0
  0
LINE
  5
16830
330
1A
100
AcDbEntity
  8
ZISSEN1
100
AcDbLine
 10
-1617.979857643683
 20
2124.495328273292
 30
0.0
 11
-1618.068665731994
 21
2124.88799419993
 31
0.0
  0
LINE
  5
16831
330
1A
100
AcDbEntity
  8
ZISSEN1
100
AcDbLine
 10
-1617.914422738182
 20
2124.060883667437
 30
0.0
 11
-1617.979857643683
 21
2124.495328273292
 31
0.0
  0
LINE
  5
16832
330
1A
100
AcDbEntity
  8
ZISSEN1
100
AcDbLine
 10
-1617.874349221982
 20
2123.597860761876
 30
0.0
 11
-1617.914422738182
 21
2124.060883667437
 31
0.0
  0
LINE
  5
16833
330
1A
100
AcDbEntity
  8
ZISSEN1
100
AcDbLine
 10
-1617.860854708595
 20
2123.120328273292
 30
0.0
 11
-1617.874349221982
 21
2123.597860761876
 31
0.0
  0
LINE
  5
16834
330
1A
100
AcDbEntity
  8
ZISSEN1
100
AcDbLine
 10
-1617.874349221982
 20
2122.642795784708
 30
0.0
 11
-1617.860854708595
 21
2123.120328273292
 31
0.0
  0
LINE
  5
16835
330
1A
100
AcDbEntity
  8
ZISSEN1
100
AcDbLine
 10
-1617.914422738182
 20
2122.179772879146
 30
0.0
 11
-1617.874349221982
 21
2122.642795784708
 31
0.0
  0
LINE
  5
16836
330
1A
100
AcDbEntity
  8
ZISSEN1
100
AcDbLine
 10
-1617.979857643683
 20
2121.745328273292
 30
0.0
 11
-1617.914422738182
 21
2122.179772879146
 31
0.0
  0
LINE
  5
16837
330
1A
100
AcDbEntity
  8
ZISSEN1
100
AcDbLine
 10
-1618.999104708595
 20
2132.620328273292
 30
0.0
 11
-1617.999104708595
 21
2131.620328273292
 31
0.0
  0
LINE
  5
16838
330
1A
100
AcDbEntity
  8
ZISSEN1
100
AcDbLine
 10
-1617.999104708595
 20
2132.620328273292
 30
0.0
 11
-1615.999104708595
 21
2132.620328273292
 31
0.0
  0
LINE
  5
16839
330
1A
100
AcDbEntity
  8
ZISSEN1
100
AcDbLine
 10
-1615.999104708595
 20
2131.620328273292
 30
0.0
 11
-1617.999104708595
 21
2131.620328273292
 31
0.0
  0
LINE
  5
1685F
330
1A
100
AcDbEntity
  8
CL1
100
AcDbLine
 10
-1632.999104708595
 20
2130.120328273292
 30
0.0
 11
-1626.999104708595
 21
2130.120328273292
 31
0.0
  0
LINE
  5
16861
330
1A
100
AcDbEntity
  8
CL1
100
AcDbLine
 10
-1629.999104708595
 20
2043.870328273292
 30
0.0
 11
-1629.999104708595
 21
2038.120328273292
 31
0.0
  0
LINE
  5
16864
330
1A
100
AcDbEntity
  8
CL1
100
AcDbLine
 10
-1632.999104708595
 20
2041.120328273292
 30
0.0
 11
-1626.999104708595
 21
2041.120328273292
 31
0.0
  0
LINE
  5
16865
330
1A
100
AcDbEntity
  8
CL1
100
AcDbLine
 10
-1731.999104708594
 20
2130.120328273292
 30
0.0
 11
-1725.999104708595
 21
2130.120328273292
 31
0.0
  0
LINE
  5
16866
330
1A
100
AcDbEntity
  8
CL1
100
AcDbLine
 10
-1728.999104708595
 20
2133.120328273292
 30
0.0
 11
-1728.999104708595
 21
2127.120328273292
 31
0.0
  0
LINE
  5
16867
330
1A
100
AcDbEntity
  8
CL1
100
AcDbLine
 10
-1731.999104708594
 20
2041.120328273292
 30
0.0
 11
-1725.999104708595
 21
2041.120328273292
 31
0.0
  0
LINE
  5
16868
330
1A
100
AcDbEntity
  8
CL1
100
AcDbLine
 10
-1728.999104708595
 20
2044.120328273292
 30
0.0
 11
-1728.999104708595
 21
2038.120328273292
 31
0.0
  0
LINE
  5
1686A
330
1A
100
AcDbEntity
  8
CL1
100
AcDbLine
 10
-1728.999104708595
 20
1981.342049187594
 30
0.0
 11
-1728.999104708595
 21
1978.884498218871
 31
0.0
  0
LINE
  5
1686B
330
1A
100
AcDbEntity
  8
CL1
100
AcDbLine
 10
-1736.964514965322
 20
1993.120328273292
 30
0.0
 11
-1732.998544153591
 21
1993.120328273292
 31
0.0
  0
LINE
  5
16875
330
1A
100
AcDbEntity
  8
CL1
100
AcDbLine
 10
-1736.964514965322
 20
2130.120328273292
 30
0.0
 11
-1732.998544153591
 21
2130.120328273292
 31
0.0
  0
LINE
  5
16878
330
1A
100
AcDbEntity
  8
CL1
100
AcDbLine
 10
-1736.964514965322
 20
2041.120328273292
 30
0.0
 11
-1732.998544153591
 21
2041.120328273292
 31
0.0
  0
DIMENSION
  5
16891
330
1A
100
AcDbEntity
  8
SUNPOU
100
AcDbDimension
  2
*D3
 10
-1628.249104708595
 20
2138.047513113645
 30
0.0
 11
-1617.749104708595
 21
2140.797513113644
 31
0.0
 70
    32
  3
標準スタイル
100
AcDbAlignedDimension
 13
-1631.749104708595
 23
2132.620328273292
 33
0.0
 14
-1628.249104708595
 24
2132.620328273292
 34
0.0
100
AcDbRotatedDimension
1001
ACAD
1000
DSTYLE
1002
{
1070
   340
1005
10
1070
    40
1040
1.0
1002
}
  0
DIMENSION
  5
168AC
330
1A
100
AcDbEntity
  8
SUNPOU
100
AcDbDimension
  2
*D4
 10
-1727.249104708595
 20
2138.047244413979
 30
0.0
 11
-1716.749104708594
 21
2140.797244413979
 31
0.0
 70
    32
  3
標準スタイル
100
AcDbAlignedDimension
 13
-1730.749104708594
 23
2132.620328273292
 33
0.0
 14
-1727.249104708595
 24
2132.620328273292
 34
0.0
100
AcDbRotatedDimension
1001
ACAD
1000
DSTYLE
1002
{
1070
   340
1005
10
1070
    40
1040
1.0
1002
}
  0
DIMENSION
  5
168C7
330
1A
100
AcDbEntity
  8
SUNPOU
100
AcDbDimension
  2
*D5
 10
-1629.999104708595
 20
2031.318299481707
 30
0.0
 11
-1622.999104708594
 21
2034.068299481707
 31
0.0
 70
    32
  3
標準スタイル
100
AcDbAlignedDimension
 13
-1615.999104708595
 23
2038.620328273292
 33
0.0
 14
-1629.999104708595
 24
2038.120328273292
 34
0.0
100
AcDbRotatedDimension
1001
ACAD
1000
DSTYLE
1002
{
1070
   340
1005
10
1070
    40
1040
1.0
1002
}
  0
DIMENSION
  5
168E6
330
1A
100
AcDbEntity
  8
SUNPOU
100
AcDbDimension
  2
*D6
 10
-1643.999104708595
 20
2021.568210186516
 30
0.0
 11
-1629.999104708595
 21
2024.318210186515
 31
0.0
 70
    32
  3
標準スタイル
100
AcDbAlignedDimension
 13
-1615.999104708595
 23
2038.120328273292
 33
0.0
 14
-1643.999104708595
 24
2039.620328273292
 34
0.0
100
AcDbRotatedDimension
1001
ACAD
1000
DSTYLE
1002
{
1070
   340
1005
10
1070
    40
1040
1.0
1002
}
  0
DIMENSION
  5
16919
330
1A
100
AcDbEntity
  8
SUNPOU
100
AcDbDimension
  2
*D7
 10
-1650.668609368784
 20
2130.120328273292
 30
0.0
 11
-1651.006068813632
 21
2135.999013785319
 31
0.0
 70
   160
  3
標準スタイル
100
AcDbAlignedDimension
 13
-1642.999104708595
 23
2132.620328273292
 33
0.0
 14
-1632.999104708595
 24
2130.120328273292
 34
0.0
 50
90.0
100
AcDbRotatedDimension
1001
ACAD
1000
DSTYLE
1002
{
1070
   287
1070
     4
1070
   340
1005
10
1070
    40
1040
1.0
1070
   279
1070
     1
1002
}
  0
DIMENSION
  5
16928
330
1A
100
AcDbEntity
  8
SUNPOU
100
AcDbDimension
  2
*D8
 10
-1650.668609368784
 20
2041.120328273292
 30
0.0
 11
-1651.054855105059
 21
2086.08574872072
 31
0.0
 70
   160
  3
標準スタイル
100
AcDbAlignedDimension
 13
-1632.999104708595
 23
2130.120328273292
 33
0.0
 14
-1632.999104708595
 24
2041.120328273292
 34
0.0
 50
90.0
100
AcDbRotatedDimension
1001
ACAD
1000
DSTYLE
1002
{
1070
   287
1070
     4
1070
   340
1005
10
1070
    40
1040
1.0
1070
   279
1070
     1
1002
}
  0
DIMENSION
  5
16935
330
1A
100
AcDbEntity
  8
SUNPOU
100
AcDbDimension
  2
*D9
 10
-1650.668609368784
 20
2038.620328273292
 30
0.0
 11
-1651.104243071796
 21
2034.592805927369
 31
0.0
 70
   160
  3
標準スタイル
100
AcDbAlignedDimension
 13
-1632.999104708595
 23
2041.120328273292
 33
0.0
 14
-1642.999104708595
 24
2038.620328273292
 34
0.0
 50
90.0
100
AcDbRotatedDimension
1001
ACAD
1000
DSTYLE
1002
{
1070
   287
1070
     4
1070
   340
1005
10
1070
    40
1040
1.0
1070
   279
1070
     1
1002
}
  0
DIMENSION
  5
169A8
330
1A
100
AcDbEntity
  8
SUNPOU
100
AcDbDimension
  2
*D10
 10
-1739.727917515651
 20
2130.120328273292
 30
0.0
 11
-1739.841940407393
 21
2136.019050161696
 31
0.0
 70
   160
  3
標準スタイル
100
AcDbAlignedDimension
 13
-1735.999104708595
 23
2132.620328273292
 33
0.0
 14
-1735.999104708595
 24
2130.120328273292
 34
0.0
 50
90.0
100
AcDbRotatedDimension
1001
ACAD
1000
DSTYLE
1002
{
1070
   287
1070
     4
1070
   340
1005
10
1070
    40
1040
1.0
1070
   279
1070
     1
1002
}
  0
DIMENSION
  5
169B7
330
1A
100
AcDbEntity
  8
SUNPOU
100
AcDbDimension
  2
*D11
 10
-1739.727917515651
 20
2041.120328273292
 30
0.0
 11
-1742.477917515651
 21
2085.620328273291
 31
0.0
 70
    32
  3
標準スタイル
100
AcDbAlignedDimension
 13
-1735.999104708595
 23
2130.120328273292
 33
0.0
 14
-1736.964514965322
 24
2041.120328273292
 34
0.0
 50
90.0
100
AcDbRotatedDimension
1001
ACAD
1000
DSTYLE
1002
{
1070
   287
1070
     4
1070
   340
1005
10
1070
    40
1040
1.0
1070
   279
1070
     1
1002
}
  0
DIMENSION
  5
169C4
330
1A
100
AcDbEntity
  8
SUNPOU
100
AcDbDimension
  2
*D12
 10
-1739.727917515651
 20
2038.620328273292
 30
0.0
 11
-1739.958552490484
 21
2034.371714265812
 31
0.0
 70
   160
  3
標準スタイル
100
AcDbAlignedDimension
 13
-1736.964514965322
 23
2041.120328273292
 33
0.0
 14
-1735.999104708595
 24
2038.620328273292
 34
0.0
 50
90.0
100
AcDbRotatedDimension
1001
ACAD
1000
DSTYLE
1002
{
1070
   287
1070
     4
1070
   340
1005
10
1070
    40
1040
1.0
1070
   279
1070
     1
1002
}
  0
DIMENSION
  5
16A0A
330
1A
100
AcDbEntity
  8
SUNPOU
100
AcDbDimension
  2
*D13
 10
-1673.999104708595
 20
2021.568210186516
 30
0.0
 11
-1704.999104708595
 21
2024.318210186515
 31
0.0
 70
    32
  3
標準スタイル
100
AcDbAlignedDimension
 13
-1735.999104708595
 23
2038.620328273292
 33
0.0
 14
-1673.999104708595
 24
2045.620328273292
 34
0.0
100
AcDbRotatedDimension
1001
ACAD
1000
DSTYLE
1002
{
1070
   340
1005
10
1070
    40
1040
1.0
1002
}
  0
DIMENSION
  5
16A18
330
1A
100
AcDbEntity
  8
SUNPOU
100
AcDbDimension
  2
*D14
 10
-1728.999104708595
 20
2031.318299481707
 30
0.0
 11
-1732.499104708595
 21
2034.068299481707
 31
0.0
 70
    32
  3
標準スタイル
100
AcDbAlignedDimension
 13
-1735.999104708595
 23
2038.620328273292
 33
0.0
 14
-1728.999104708595
 24
2038.120328273292
 34
0.0
100
AcDbRotatedDimension
1001
ACAD
1000
DSTYLE
1002
{
1070
   340
1005
10
1070
    40
1040
1.0
1002
}
  0
DIMENSION
  5
16A3B
330
1A
100
AcDbEntity
  8
SUNPOU
100
AcDbDimension
  2
*D15
 10
-1735.999104708595
 20
2013.199790794688
 30
0.0
 11
-1744.165771375262
 21
2015.949790794687
 31
0.0
 70
    32
  3
標準スタイル
100
AcDbAlignedDimension
 13
-1733.999104708595
 23
2007.120328273292
 33
0.0
 14
-1735.999104708595
 24
2007.120328273292
 34
0.0
100
AcDbRotatedDimension
1001
ACAD
1000
DSTYLE
1002
{
1070
   340
1005
10
1070
    40
1040
1.0
1002
}
  0
DIMENSION
  5
16A55
330
1A
100
AcDbEntity
  8
SUNPOU
100
AcDbDimension
  2
*D16
 10
-1671.999104708595
 20
1969.190182862549
 30
0.0
 11
-1703.999104708595
 21
1971.940182862549
 31
0.0
 70
    32
  3
標準スタイル
100
AcDbAlignedDimension
 13
-1735.999104708595
 23
1981.120328273292
 33
0.0
 14
-1671.999104708595
 24
1986.520328273292
 34
0.0
100
AcDbRotatedDimension
1001
ACAD
1000
DSTYLE
1002
{
1070
   340
1005
10
1070
    40
1040
1.0
1002
}
  0
DIMENSION
  5
16A62
330
1A
100
AcDbEntity
  8
SUNPOU
100
AcDbDimension
  2
*D17
 10
-1665.999104708594
 20
1969.190182862549
 30
0.0
 11
-1668.999104708595
 21
1971.940182862549
 31
0.0
 70
    32
  3
標準スタイル
100
AcDbAlignedDimension
 13
-1671.999104708595
 23
1986.520328273292
 33
0.0
 14
-1665.999104708594
 24
1986.820328273292
 34
0.0
100
AcDbRotatedDimension
1001
ACAD
1000
DSTYLE
1002
{
1070
   287
1070
     4
1070
   340
1005
10
1070
    40
1040
1.0
1070
   279
1070
     1
1002
}
  0
VIEWPORT
  5
15177
330
15176
100
AcDbEntity
 67
     1
  8
0
100
AcDbViewport
 10
220.5229068265403
 20
161.3444011504715
 30
0.0
 40
491.8248338988253
 41
276.0029658588345
 68
     1
 69
     1
1001
ACAD
1000
MVIEW
1002
{
1070
    16
1010
0.0
1020
0.0
1030
0.0
1010
0.0
1020
0.0
1030
1.0
1040
0.0
1040
276.0029658588345
1040
220.5229068265403
1040
161.3444011504715
1040
50.0
1040
0.0
1040
0.0
1070
     0
1070
   100
1070
     1
1070
     0
1070
     0
1070
     0
1070
     0
1070
     0
1040
0.0
1040
0.0
1040
0.0
1040
1.0
1040
1.0
1040
10.0
1040
10.0
1070
     0
1002
{
1002
}
1002
}
  0
VIEWPORT
  5
15178
330
15176
100
AcDbEntity
 67
     1
  8
ZISSEN1
100
AcDbViewport
 10
221.7861955525412
 20
157.6960273330388
 30
0.0
 40
385.4999999999997
 41
259.9999999999999
 68
     2
 69
     2
1001
ACAD
1000
MVIEW
1002
{
1070
    16
1010
0.0
1020
0.0
1030
0.0
1010
0.0
1020
0.0
1030
1.0
1040
0.0
1040
259.9999999999999
1040
-1665.47026754927
1040
2053.102577812007
1040
50.0
1040
0.0
1040
0.0
1070
     0
1070
   100
1070
     1
1070
     0
1070
     0
1070
     0
1070
     0
1070
     0
1040
0.0
1040
0.0
1040
0.0
1040
1.0
1040
1.0
1040
10.0
1040
10.0
1070
     0
1002
{
1002
}
1002
}
  0
TEXT
  5
15179
330
15176
100
AcDbEntity
 67
     1
  8
SUNPOU
 62
     0
100
AcDbText
 10
374.1863124306944
 20
60.86794705907585
 30
0.0
 40
3.5
  1
縮尺 1/1
100
AcDbText
  0
ENDSEC
  0
SECTION
  2
OBJECTS
  0
DICTIONARY
  5
C
330
0
100
AcDbDictionary
  3
ACAD_GROUP
350
D
  3
ACAD_LAYOUT
350
5C7D
  3
ACAD_MLINESTYLE
350
E
  3
ACAD_PLOTSETTINGS
350
5C7E
  3
ACAD_PLOTSTYLENAME
350
5C7B
  3
ACDBVARIABLEDICTIONARY
350
13217
  3
DWGPROPS
350
5E8E
  3
ACDBHEADERROUNDTRIPXREC
350
16AB0
  0
DICTIONARY
  5
16AD0
330
1A
100
AcDbDictionary
280
     1
  3
ACAD_LAYOUTSELFREF
360
16AD1
  0
DICTIONARY
  5
16AD2
330
15176
100
AcDbDictionary
280
     1
  3
ACAD_LAYOUTSELFREF
360
16AD3
  0
DICTIONARY
  5
D
102
{ACAD_REACTORS
330
C
102
}
330
C
100
AcDbDictionary
  3
*A1
350
477D
  3
*A2
350
4C16
  3
*A3
350
4C17
  3
*A4
350
477E
  3
*A5
350
477F
  3
*A6
350
4780
  3
*A7
350
4781
  3
*A8
350
13853
  3
*A9
350
4C0E
  3
*A10
350
4C0F
  3
*A11
350
4C10
  3
*A12
350
4C11
  3
*A13
350
4C12
  3
*A14
350
4C13
  3
*A15
350
4C14
  3
*A16
350
4C15
  0
DICTIONARY
  5
5C7D
102
{ACAD_REACTORS
330
C
102
}
330
C
100
AcDbDictionary
  0
DICTIONARY
  5
E
102
{ACAD_REACTORS
330
C
102
}
330
C
100
AcDbDictionary
  3
STANDARD
350
13
  0
DICTIONARY
  5
5C7E
102
{ACAD_REACTORS
330
C
102
}
330
C
100
AcDbDictionary
  0
ACDBDICTIONARYWDFLT
  5
5C7B
102
{ACAD_REACTORS
330
C
102
}
330
C
100
AcDbDictionary
281
     1
  3
Normal
350
5C7C
100
AcDbDictionaryWithDefault
340
5C7C
  0
DICTIONARY
  5
13217
102
{ACAD_REACTORS
330
C
102
}
330
C
100
AcDbDictionary
  3
SORTENTS
350
13218
  0
XRECORD
  5
5E8E
102
{ACAD_REACTORS
330
C
102
}
330
C
100
AcDbXrecord
  1
DWGPROPS COOKIE
  2

  3

  4

  6

  7

  8

  9

300
=
301
=
302
=
303
=
304
=
305
=
306
=
307
=
308
=
309
=
 40
0.586753587962963
 41
2450495.493631365
 42
2453208.662277431
  1

 90
        0
  0
DICTIONARY
  5
16AB0
102
{ACAD_REACTORS
330
C
102
}
330
C
100
AcDbDictionary
  3
TSTACKALIGN
350
16AB1
  3
TSTACKSIZE
350
16AB2
  3
HYPERLINKBASE
350
16AB3
  3
STYLESHEET
350
16AB4
  3
LAYOUTDICT
350
16AB5
  3
PLOTSETDICT
350
16AB6
  3
PLOTSTYLNAMDICT
350
16AB7
  3
LWETCUNION
350
16AB8
  3
INSUNITS
350
16AB9
  3
CEPSNTYPE
350
16ABA
  3
FINGERPRINTGUID
350
16ABB
  3
VERSIONGUID
350
16ABC
  3
PSVPSCALE
350
16ABD
  3
PUCSORTHOREF
350
16ABE
  3
PUCSORTHOVIEW
350
16ABF
  3
PUCSBASE
350
16AC0
  3
PUCSORGTOP
350
16AC1
  3
PUCSORGBOTTOM
350
16AC2
  3
PUCSORGLEFT
350
16AC3
  3
PUCSORGRIGHT
350
16AC4
  3
PUCSORGFRONT
350
16AC5
  3
PUCSORGBACK
350
16AC6
  3
UCSORTHOREF
350
16AC7
  3
UCSORTHOVIEW
350
16AC8
  3
UCSBASE
350
16AC9
  3
UCSORGTOP
350
16ACA
  3
UCSORGBOTTOM
350
16ACB
  3
UCSORGLEFT
350
16ACC
  3
UCSORGRIGHT
350
16ACD
  3
UCSORGFRONT
350
16ACE
  3
UCSORGBACK
350
16ACF
  0
XRECORD
  5
16AD1
102
{ACAD_REACTORS
330
16AD0
102
}
330
16AD0
100
AcDbXrecord
340
1A
  0
XRECORD
  5
16AD3
102
{ACAD_REACTORS
330
16AD2
102
}
330
16AD2
100
AcDbXrecord
340
15176
  0
GROUP
  5
477D
102
{ACAD_REACTORS
330
D
102
}
330
D
100
AcDbGroup
300

 70
     1
 71
     1
  0
GROUP
  5
4C16
102
{ACAD_REACTORS
330
D
102
}
330
D
100
AcDbGroup
300

 70
     1
 71
     1
  0
GROUP
  5
4C17
102
{ACAD_REACTORS
330
D
102
}
330
D
100
AcDbGroup
300

 70
     1
 71
     1
  0
GROUP
  5
477E
102
{ACAD_REACTORS
330
D
102
}
330
D
100
AcDbGroup
300

 70
     1
 71
     1
  0
GROUP
  5
477F
102
{ACAD_REACTORS
330
D
102
}
330
D
100
AcDbGroup
300

 70
     1
 71
     1
  0
GROUP
  5
4780
102
{ACAD_REACTORS
330
D
102
}
330
D
100
AcDbGroup
300

 70
     1
 71
     1
  0
GROUP
  5
4781
102
{ACAD_REACTORS
330
D
102
}
330
D
100
AcDbGroup
300

 70
     1
 71
     1
  0
GROUP
  5
13853
102
{ACAD_REACTORS
330
D
102
}
330
D
100
AcDbGroup
300

 70
     1
 71
     1
  0
GROUP
  5
4C0E
102
{ACAD_REACTORS
330
D
102
}
330
D
100
AcDbGroup
300

 70
     1
 71
     1
  0
GROUP
  5
4C0F
102
{ACAD_REACTORS
330
D
102
}
330
D
100
AcDbGroup
300

 70
     1
 71
     1
  0
GROUP
  5
4C10
102
{ACAD_REACTORS
330
D
102
}
330
D
100
AcDbGroup
300

 70
     1
 71
     1
  0
GROUP
  5
4C11
102
{ACAD_REACTORS
330
D
102
}
330
D
100
AcDbGroup
300

 70
     1
 71
     1
  0
GROUP
  5
4C12
102
{ACAD_REACTORS
330
D
102
}
330
D
100
AcDbGroup
300

 70
     1
 71
     1
  0
GROUP
  5
4C13
102
{ACAD_REACTORS
330
D
102
}
330
D
100
AcDbGroup
300

 70
     1
 71
     1
  0
GROUP
  5
4C14
102
{ACAD_REACTORS
330
D
102
}
330
D
100
AcDbGroup
300

 70
     1
 71
     1
  0
GROUP
  5
4C15
102
{ACAD_REACTORS
330
D
102
}
330
D
100
AcDbGroup
300

 70
     1
 71
     1
  0
MLINESTYLE
  5
13
102
{ACAD_REACTORS
330
E
102
}
330
E
100
AcDbMlineStyle
  2
STANDARD
 70
     0
  3

 62
     0
 51
90.0
 52
90.0
 71
     2
 49
0.5
 62
   256
  6
BYLAYER
 49
-0.5
 62
   256
  6
BYLAYER
  0
ACDBPLACEHOLDER
  5
5C7C
102
{ACAD_REACTORS
330
5C7B
102
}
330
5C7B
100
AcDbPlaceHolder
280
     0
  0
DICTIONARYVAR
  5
13218
102
{ACAD_REACTORS
330
13217
102
}
330
13217
100
DictionaryVariables
280
     0
  1
96
  0
XRECORD
  5
16AB1
102
{ACAD_REACTORS
330
16AB0
102
}
330
16AB0
100
AcDbXrecord
 90
        1
  0
XRECORD
  5
16AB2
102
{ACAD_REACTORS
330
16AB0
102
}
330
16AB0
100
AcDbXrecord
 90
       70
  0
XRECORD
  5
16AB3
102
{ACAD_REACTORS
330
16AB0
102
}
330
16AB0
100
AcDbXrecord
  1

  0
XRECORD
  5
16AB4
102
{ACAD_REACTORS
330
16AB0
102
}
330
16AB0
100
AcDbXrecord
  1

  0
XRECORD
  5
16AB5
102
{ACAD_REACTORS
330
16AB0
102
}
330
16AB0
100
AcDbXrecord
340
5C7D
  0
XRECORD
  5
16AB6
102
{ACAD_REACTORS
330
16AB0
102
}
330
16AB0
100
AcDbXrecord
340
5C7E
  0
XRECORD
  5
16AB7
102
{ACAD_REACTORS
330
16AB0
102
}
330
16AB0
100
AcDbXrecord
340
5C7B
  0
XRECORD
  5
16AB8
102
{ACAD_REACTORS
330
16AB0
102
}
330
16AB0
100
AcDbXrecord
 90
    10781
  0
XRECORD
  5
16AB9
102
{ACAD_REACTORS
330
16AB0
102
}
330
16AB0
100
AcDbXrecord
 90
        0
  0
XRECORD
  5
16ABA
102
{ACAD_REACTORS
330
16AB0
102
}
330
16AB0
100
AcDbXrecord
 90
        0
  0
XRECORD
  5
16ABB
102
{ACAD_REACTORS
330
16AB0
102
}
330
16AB0
100
AcDbXrecord
  1
{225A7F0D-DA29-11D8-946A-0000E2416295}
  0
XRECORD
  5
16ABC
102
{ACAD_REACTORS
330
16AB0
102
}
330
16AB0
100
AcDbXrecord
  1
{0203717F-62F9-4C57-97E0-7961E391BCD0}
  0
XRECORD
  5
16ABD
102
{ACAD_REACTORS
330
16AB0
102
}
330
16AB0
100
AcDbXrecord
 40
0.0
  0
XRECORD
  5
16ABE
102
{ACAD_REACTORS
330
16AB0
102
}
330
16AB0
100
AcDbXrecord
340
0
  0
XRECORD
  5
16ABF
102
{ACAD_REACTORS
330
16AB0
102
}
330
16AB0
100
AcDbXrecord
 70
     0
  0
XRECORD
  5
16AC0
102
{ACAD_REACTORS
330
16AB0
102
}
330
16AB0
100
AcDbXrecord
340
0
  0
XRECORD
  5
16AC1
102
{ACAD_REACTORS
330
16AB0
102
}
330
16AB0
100
AcDbXrecord
 10
0.0
 20
0.0
 30
0.0
  0
XRECORD
  5
16AC2
102
{ACAD_REACTORS
330
16AB0
102
}
330
16AB0
100
AcDbXrecord
 10
0.0
 20
0.0
 30
0.0
  0
XRECORD
  5
16AC3
102
{ACAD_REACTORS
330
16AB0
102
}
330
16AB0
100
AcDbXrecord
 10
0.0
 20
0.0
 30
0.0
  0
XRECORD
  5
16AC4
102
{ACAD_REACTORS
330
16AB0
102
}
330
16AB0
100
AcDbXrecord
 10
0.0
 20
0.0
 30
0.0
  0
XRECORD
  5
16AC5
102
{ACAD_REACTORS
330
16AB0
102
}
330
16AB0
100
AcDbXrecord
 10
0.0
 20
0.0
 30
0.0
  0
XRECORD
  5
16AC6
102
{ACAD_REACTORS
330
16AB0
102
}
330
16AB0
100
AcDbXrecord
 10
0.0
 20
0.0
 30
0.0
  0
XRECORD
  5
16AC7
102
{ACAD_REACTORS
330
16AB0
102
}
330
16AB0
100
AcDbXrecord
340
0
  0
XRECORD
  5
16AC8
102
{ACAD_REACTORS
330
16AB0
102
}
330
16AB0
100
AcDbXrecord
 70
     0
  0
XRECORD
  5
16AC9
102
{ACAD_REACTORS
330
16AB0
102
}
330
16AB0
100
AcDbXrecord
340
0
  0
XRECORD
  5
16ACA
102
{ACAD_REACTORS
330
16AB0
102
}
330
16AB0
100
AcDbXrecord
 10
0.0
 20
0.0
 30
0.0
  0
XRECORD
  5
16ACB
102
{ACAD_REACTORS
330
16AB0
102
}
330
16AB0
100
AcDbXrecord
 10
0.0
 20
0.0
 30
0.0
  0
XRECORD
  5
16ACC
102
{ACAD_REACTORS
330
16AB0
102
}
330
16AB0
100
AcDbXrecord
 10
0.0
 20
0.0
 30
0.0
  0
XRECORD
  5
16ACD
102
{ACAD_REACTORS
330
16AB0
102
}
330
16AB0
100
AcDbXrecord
 10
0.0
 20
0.0
 30
0.0
  0
XRECORD
  5
16ACE
102
{ACAD_REACTORS
330
16AB0
102
}
330
16AB0
100
AcDbXrecord
 10
0.0
 20
0.0
 30
0.0
  0
XRECORD
  5
16ACF
102
{ACAD_REACTORS
330
16AB0
102
}
330
16AB0
100
AcDbXrecord
 10
0.0
 20
0.0
 30
0.0
  0
ENDSEC
  0
EOF
