  0
SECTION
  2
HEADER
  9
$ACADVER
  1
AC1014
  9
$ACADMAINTVER
 70
     9
  9
$DWGCODEPAGE
  3
ANSI_932
  9
$INSBASE
 10
0.0
 20
0.0
 30
0.0
  9
$EXTMIN
 10
-1470.788765049421
 20
1513.035491654919
 30
0.0
  9
$EXTMAX
 10
-1234.999265651967
 20
1750.930432024561
 30
0.0
  9
$LIMMIN
 10
0.0
 20
0.0
  9
$LIMMAX
 10
420.0
 20
297.0
  9
$ORTHOMODE
 70
     1
  9
$REGENMODE
 70
     1
  9
$FILLMODE
 70
     1
  9
$QTEXTMODE
 70
     0
  9
$MIRRTEXT
 70
     1
  9
$DRAGMODE
 70
     2
  9
$LTSCALE
 40
1.0
  9
$OSMODE
 70
    37
  9
$ATTMODE
 70
     1
  9
$TEXTSIZE
 40
2.5
  9
$TRACEWID
 40
1.0
  9
$TEXTSTYLE
  7
ゴシック体
  9
$CLAYER
  8
SUNPOU
  9
$CELTYPE
  6
BYLAYER
  9
$CECOLOR
 62
   256
  9
$CELTSCALE
 40
1.0
  9
$DELOBJ
 70
     1
  9
$DISPSILH
 70
     0
  9
$DIMSCALE
 40
0.0
  9
$DIMASZ
 40
3.0
  9
$DIMEXO
 40
0.5
  9
$DIMDLI
 40
0.5
  9
$DIMRND
 40
0.0
  9
$DIMDLE
 40
0.0
  9
$DIMEXE
 40
0.5
  9
$DIMTP
 40
0.0
  9
$DIMTM
 40
0.0
  9
$DIMTXT
 40
3.5
  9
$DIMCEN
 40
0.0
  9
$DIMTSZ
 40
0.0
  9
$DIMTOL
 70
     0
  9
$DIMLIM
 70
     0
  9
$DIMTIH
 70
     0
  9
$DIMTOH
 70
     0
  9
$DIMSE1
 70
     0
  9
$DIMSE2
 70
     0
  9
$DIMTAD
 70
     1
  9
$DIMZIN
 70
     8
  9
$DIMBLK
  1

  9
$DIMASO
 70
     1
  9
$DIMSHO
 70
     1
  9
$DIMPOST
  1

  9
$DIMAPOST
  1

  9
$DIMALT
 70
     0
  9
$DIMALTD
 70
     2
  9
$DIMALTF
 40
25.4
  9
$DIMLFAC
 40
1.0
  9
$DIMTOFL
 70
     1
  9
$DIMTVP
 40
0.0
  9
$DIMTIX
 70
     0
  9
$DIMSOXD
 70
     0
  9
$DIMSAH
 70
     0
  9
$DIMBLK1
  1

  9
$DIMBLK2
  1

  9
$DIMSTYLE
  2
標準スタイル
  9
$DIMCLRD
 70
     1
  9
$DIMCLRE
 70
     1
  9
$DIMCLRT
 70
     1
  9
$DIMTFAC
 40
1.0
  9
$DIMGAP
 40
1.0
  9
$DIMJUST
 70
     0
  9
$DIMSD1
 70
     0
  9
$DIMSD2
 70
     0
  9
$DIMTOLJ
 70
     1
  9
$DIMTZIN
 70
     8
  9
$DIMALTZ
 70
     0
  9
$DIMALTTZ
 70
     0
  9
$DIMFIT
 70
     3
  9
$DIMUPT
 70
     0
  9
$DIMUNIT
 70
     2
  9
$DIMDEC
 70
     2
  9
$DIMTDEC
 70
     2
  9
$DIMALTU
 70
     2
  9
$DIMALTTD
 70
     2
  9
$DIMTXSTY
  7
ゴシック体
  9
$DIMAUNIT
 70
     0
  9
$LUNITS
 70
     2
  9
$LUPREC
 70
     4
  9
$SKETCHINC
 40
1.0
  9
$FILLETRAD
 40
10.0
  9
$AUNITS
 70
     0
  9
$AUPREC
 70
     0
  9
$MENU
  1
.
  9
$ELEVATION
 40
0.0
  9
$PELEVATION
 40
0.0
  9
$THICKNESS
 40
0.0
  9
$LIMCHECK
 70
     0
  9
$BLIPMODE
 70
     0
  9
$CHAMFERA
 40
10.0
  9
$CHAMFERB
 40
10.0
  9
$CHAMFERC
 40
2.0
  9
$CHAMFERD
 40
0.7853981633974483
  9
$SKPOLY
 70
     0
  9
$TDCREATE
 40
2450495.493631365
  9
$TDUPDATE
 40
2453984.411513553
  9
$TDINDWG
 40
1.5188935069
  9
$TDUSRTIMER
 40
1.5188933912
  9
$USRTIMER
 70
     1
  9
$ANGBASE
 50
0.0
  9
$ANGDIR
 70
     0
  9
$PDMODE
 70
    99
  9
$PDSIZE
 40
0.0
  9
$PLINEWID
 40
0.0
  9
$COORDS
 70
     1
  9
$SPLFRAME
 70
     0
  9
$SPLINETYPE
 70
     6
  9
$SPLINESEGS
 70
     8
  9
$ATTDIA
 70
     0
  9
$ATTREQ
 70
     1
  9
$HANDLING
 70
 10241
  9
$HANDSEED
  5
10E8E
  9
$SURFTAB1
 70
     6
  9
$SURFTAB2
 70
     6
  9
$SURFTYPE
 70
     6
  9
$SURFU
 70
     6
  9
$SURFV
 70
     6
  9
$UCSNAME
  2

  9
$UCSORG
 10
0.0
 20
0.0
 30
0.0
  9
$UCSXDIR
 10
1.0
 20
0.0
 30
0.0
  9
$UCSYDIR
 10
0.0
 20
1.0
 30
0.0
  9
$PUCSNAME
  2

  9
$PUCSORG
 10
0.0
 20
0.0
 30
0.0
  9
$PUCSXDIR
 10
1.0
 20
0.0
 30
0.0
  9
$PUCSYDIR
 10
0.0
 20
1.0
 30
0.0
  9
$USERI1
 70
     0
  9
$USERI2
 70
     0
  9
$USERI3
 70
     0
  9
$USERI4
 70
     0
  9
$USERI5
 70
     0
  9
$USERR1
 40
0.0
  9
$USERR2
 40
0.0
  9
$USERR3
 40
0.0
  9
$USERR4
 40
0.0
  9
$USERR5
 40
0.0
  9
$WORLDVIEW
 70
     1
  9
$SHADEDGE
 70
     3
  9
$SHADEDIF
 70
    70
  9
$TILEMODE
 70
     1
  9
$MAXACTVP
 70
    16
  9
$PINSBASE
 10
0.0
 20
0.0
 30
0.0
  9
$PLIMCHECK
 70
     0
  9
$PEXTMIN
 10
29.03619555254121
 20
27.69602733303884
 30
0.0
  9
$PEXTMAX
 10
414.5361955525409
 20
287.6960273330388
 30
0.0
  9
$PLIMMIN
 10
15.15433780389673
 20
13.80781516542163
  9
$PLIMMAX
 10
435.1009930773342
 20
310.8184658001872
  9
$UNITMODE
 70
     0
  9
$VISRETAIN
 70
     0
  9
$PLINEGEN
 70
     0
  9
$PSLTSCALE
 70
     1
  9
$TREEDEPTH
 70
  3020
  9
$PICKSTYLE
 70
     1
  9
$CMLSTYLE
  2
STANDARD
  9
$CMLJUST
 70
     0
  9
$CMLSCALE
 40
1.0
  9
$PROXYGRAPHICS
 70
     1
  9
$MEASUREMENT
 70
     1
  0
ENDSEC
  0
SECTION
  2
CLASSES
  0
CLASS
  1
LWPOLYLINE
  2
AcDbPolyline
  3
AutoCAD 2000
 90
        0
280
     0
281
     1
  0
CLASS
  1
HATCH
  2
AcDbHatch
  3
AutoCAD 2000
 90
        0
280
     0
281
     1
  0
CLASS
  1
ACDBDICTIONARYWDFLT
  2
AcDbDictionaryWithDefault
  3
AutoCAD 2000
 90
        0
280
     0
281
     0
  0
CLASS
  1
ACDBPLACEHOLDER
  2
AcDbPlaceHolder
  3
AutoCAD 2000
 90
        0
280
     0
281
     0
  0
CLASS
  1
LAYOUT
  2
AcDbLayout
  3
AutoCAD 2000
 90
        0
280
     0
281
     0
  0
CLASS
  1
DICTIONARYVAR
  2
AcDbDictionaryVar
  3
AutoCAD 2000
 90
        0
280
     0
281
     0
  0
CLASS
  1
LONG_TRANSACTION
  2
AcDbLongTransaction
  3
AutoCAD 2000
 90
        0
280
     0
281
     0
  0
CLASS
  1
LWPOLYLINE
  2
AcDbPolyline
  3
AutoCAD 2000
 90
        0
280
     0
281
     1
  0
CLASS
  1
HATCH
  2
AcDbHatch
  3
AutoCAD 2000
 90
        0
280
     0
281
     1
  0
CLASS
  1
XRECORD
  2
AcDbXrecord
  3
AutoCAD 2000
 90
        0
280
     0
281
     0
  0
ENDSEC
  0
SECTION
  2
TABLES
  0
TABLE
  2
VPORT
  5
8
330
0
100
AcDbSymbolTable
 70
     2
  0
VPORT
  5
10E69
330
8
100
AcDbSymbolTableRecord
100
AcDbViewportTableRecord
  2
*ACTIVE
 70
     0
 10
0.0
 20
0.0
 11
1.0
 21
1.0
 12
-1317.541642993631
 22
1630.530934261178
 13
0.0
 23
0.0
 14
5.0
 24
5.0
 15
0.0
 25
0.0
 16
0.0
 26
0.0
 36
1.0
 17
0.0
 27
0.0
 37
0.0
 40
263.011690396572
 41
2.192560175054704
 42
50.0
 43
0.0
 44
0.0
 50
0.0
 51
0.0
 71
     0
 72
   100
 73
     1
 74
     0
 75
     0
 76
     0
 77
     0
 78
     0
  0
ENDTAB
  0
TABLE
  2
LTYPE
  5
5
330
0
100
AcDbSymbolTable
 70
    13
  0
LTYPE
  5
14
330
5
100
AcDbSymbolTableRecord
100
AcDbLinetypeTableRecord
  2
BYBLOCK
 70
     0
  3

 72
    65
 73
     0
 40
0.0
  0
LTYPE
  5
15
330
5
100
AcDbSymbolTableRecord
100
AcDbLinetypeTableRecord
  2
BYLAYER
 70
     0
  3

 72
    65
 73
     0
 40
0.0
  0
LTYPE
  5
16
330
5
100
AcDbSymbolTableRecord
100
AcDbLinetypeTableRecord
  2
CONTINUOUS
 70
     0
  3
Solid line
 72
    65
 73
     0
 40
0.0
  0
LTYPE
  5
329
330
5
100
AcDbSymbolTableRecord
100
AcDbLinetypeTableRecord
  2
DASHEDX2
 70
     0
  3
____  ____  ____  ____  ____  ____  ____  ____ 
 72
    65
 73
     2
 40
1.5
 49
1.0
 74
     0
 49
-0.5
 74
     0
  0
LTYPE
  5
1956
330
5
100
AcDbSymbolTableRecord
100
AcDbLinetypeTableRecord
  2
CENTERX2
 70
     0
  3
________  __  ________  __  ________  __  _____
 72
    65
 73
     4
 40
4.0
 49
2.5
 74
     0
 49
-0.5
 74
     0
 49
0.5
 74
     0
 49
-0.5
 74
     0
  0
LTYPE
  5
1958
330
5
100
AcDbSymbolTableRecord
100
AcDbLinetypeTableRecord
  2
PHANTOMX2
 70
     0
  3
____________    ____    ____    ____________   
 72
    65
 73
     6
 40
5.0
 49
2.5
 74
     0
 49
-0.5
 74
     0
 49
0.5
 74
     0
 49
-0.5
 74
     0
 49
0.5
 74
     0
 49
-0.5
 74
     0
  0
ENDTAB
  0
TABLE
  2
LAYER
  5
2
330
0
100
AcDbSymbolTable
 70
    33
  0
LAYER
  5
F
330
2
100
AcDbSymbolTableRecord
100
AcDbLayerTableRecord
  2
0
 70
     0
 62
     7
  6
CONTINUOUS
  0
LAYER
  5
18F
330
2
100
AcDbSymbolTableRecord
100
AcDbLayerTableRecord
  2
ZISSEN1
 70
     0
 62
     7
  6
CONTINUOUS
  0
LAYER
  5
529
330
2
100
AcDbSymbolTableRecord
100
AcDbLayerTableRecord
  2
SUNPOU
 70
     0
 62
     1
  6
CONTINUOUS
  0
LAYER
  5
1959
330
2
100
AcDbSymbolTableRecord
100
AcDbLayerTableRecord
  2
KAKURESEN1
 70
     0
 62
     3
  6
DASHEDX2
  0
LAYER
  5
195A
330
2
100
AcDbSymbolTableRecord
100
AcDbLayerTableRecord
  2
CL1
 70
     0
 62
   210
  6
CENTERX2
  0
LAYER
  5
195C
330
2
100
AcDbSymbolTableRecord
100
AcDbLayerTableRecord
  2
SOUZOUSEN
 70
     0
 62
     5
  6
PHANTOMX2
  0
LAYER
  5
3A9B
330
2
100
AcDbSymbolTableRecord
100
AcDbLayerTableRecord
  2
DEFPOINTS
 70
     0
 62
     7
  6
CONTINUOUS
  0
ENDTAB
  0
TABLE
  2
STYLE
  5
3
330
0
100
AcDbSymbolTable
 70
     5
  0
STYLE
  5
10
330
3
100
AcDbSymbolTableRecord
100
AcDbTextStyleTableRecord
  2
STANDARD
 70
     0
 40
0.0
 41
1.0
 50
0.0
 71
     0
 42
3.0
  3
txt
  4
BigFont
  0
STYLE
  5
1960
330
3
100
AcDbSymbolTableRecord
100
AcDbTextStyleTableRecord
  2
ゴシック体
 70
     0
 40
0.0
 41
1.0
 50
0.0
 71
     0
 42
2.5
  3
MS Gothic.ttf
  4

1001
ACAD
1000
MS Gothic
1071
    32817
  0
ENDTAB
  0
TABLE
  2
VIEW
  5
6
330
0
100
AcDbSymbolTable
 70
     0
  0
ENDTAB
  0
TABLE
  2
UCS
  5
7
330
0
100
AcDbSymbolTable
 70
     0
  0
ENDTAB
  0
TABLE
  2
APPID
  5
9
330
0
100
AcDbSymbolTable
 70
     5
  0
APPID
  5
11
330
9
100
AcDbSymbolTableRecord
100
AcDbRegAppTableRecord
  2
ACAD
 70
     0
  0
APPID
  5
4005
330
9
100
AcDbSymbolTableRecord
100
AcDbRegAppTableRecord
  2
CONTENTTABDATA
 70
     0
  0
APPID
  5
4006
330
9
100
AcDbSymbolTableRecord
100
AcDbRegAppTableRecord
  2
CONTENTCURRENTTAB
 70
     0
  0
APPID
  5
477B
330
9
100
AcDbSymbolTableRecord
100
AcDbRegAppTableRecord
  2
CONTENTBLOCKDESCRIPTION
 70
     0
  0
APPID
  5
477C
330
9
100
AcDbSymbolTableRecord
100
AcDbRegAppTableRecord
  2
CONTENTBLOCKICON
 70
     0
  0
ENDTAB
  0
TABLE
  2
DIMSTYLE
  5
A
330
0
100
AcDbSymbolTable
 70
    12
  0
DIMSTYLE
105
1D
330
A
100
AcDbSymbolTableRecord
100
AcDbDimStyleTableRecord
  2
STANDARD
 70
     0
  3

  4

  5

  6

  7

 40
1.0
 41
0.18
 42
0.0625
 43
0.38
 44
0.18
 45
0.0
 46
0.0
 47
0.0
 48
0.0
140
0.18
141
0.09
142
0.0
143
25.4
144
1.0
145
0.0
146
1.0
147
0.09
 71
     0
 72
     0
 73
     1
 74
     1
 75
     0
 76
     0
 77
     0
 78
     0
170
     0
171
     2
172
     0
173
     0
174
     0
175
     0
176
     0
177
     0
178
     0
270
     2
271
     4
272
     4
273
     2
274
     2
340
10
275
     0
280
     0
281
     0
282
     0
283
     1
284
     0
285
     0
286
     0
287
     3
288
     0
  0
DIMSTYLE
105
52E
102
{ACAD_REACTORS
330
10A3C
330
10C75
330
10CD7
330
10CF1
330
10CFE
330
10D0B
330
10D3B
330
10D53
330
10D6A
330
10DDC
330
10E04
102
}
330
A
100
AcDbSymbolTableRecord
100
AcDbDimStyleTableRecord
  2
標準スタイル
 70
     0
  3

  4

  5

  6

  7

 40
0.0
 41
3.0
 42
0.5
 43
0.5
 44
0.5
 45
0.0
 46
0.0
 47
0.0
 48
0.0
140
3.5
141
0.0
142
0.0
143
25.4
144
1.0
145
0.0
146
1.0
147
1.0
 71
     0
 72
     0
 73
     0
 74
     0
 75
     0
 76
     0
 77
     1
 78
     8
170
     0
171
     2
172
     1
173
     0
174
     0
175
     0
176
     1
177
     1
178
     1
270
     2
271
     2
272
     2
273
     2
274
     2
340
1960
275
     0
280
     0
281
     0
282
     0
283
     1
284
     8
285
     0
286
     0
287
     3
288
     0
  0
ENDTAB
  0
TABLE
  2
BLOCK_RECORD
  5
1
330
0
100
AcDbSymbolTable
 70
    35
  0
BLOCK_RECORD
  5
1A
102
{ACAD_XDICTIONARY
360
10E8A
102
}
330
1
100
AcDbSymbolTableRecord
100
AcDbBlockTableRecord
  2
*MODEL_SPACE
  0
BLOCK_RECORD
  5
5D8E
102
{ACAD_XDICTIONARY
360
10E8C
102
}
330
1
100
AcDbSymbolTableRecord
100
AcDbBlockTableRecord
  2
*PAPER_SPACE
  0
BLOCK_RECORD
  5
10C76
330
1
100
AcDbSymbolTableRecord
100
AcDbBlockTableRecord
  2
*D25
  0
BLOCK_RECORD
  5
10CD8
330
1
100
AcDbSymbolTableRecord
100
AcDbBlockTableRecord
  2
*D26
  0
BLOCK_RECORD
  5
10CF2
330
1
100
AcDbSymbolTableRecord
100
AcDbBlockTableRecord
  2
*D27
  0
BLOCK_RECORD
  5
10CFF
330
1
100
AcDbSymbolTableRecord
100
AcDbBlockTableRecord
  2
*D28
  0
BLOCK_RECORD
  5
10D0C
330
1
100
AcDbSymbolTableRecord
100
AcDbBlockTableRecord
  2
*D29
  0
BLOCK_RECORD
  5
10D3C
330
1
100
AcDbSymbolTableRecord
100
AcDbBlockTableRecord
  2
*D30
  0
BLOCK_RECORD
  5
10D54
330
1
100
AcDbSymbolTableRecord
100
AcDbBlockTableRecord
  2
*D31
  0
BLOCK_RECORD
  5
10D6B
330
1
100
AcDbSymbolTableRecord
100
AcDbBlockTableRecord
  2
*D32
  0
BLOCK_RECORD
  5
10DDD
330
1
100
AcDbSymbolTableRecord
100
AcDbBlockTableRecord
  2
*D33
  0
BLOCK_RECORD
  5
10E05
330
1
100
AcDbSymbolTableRecord
100
AcDbBlockTableRecord
  2
*D34
  0
ENDTAB
  0
ENDSEC
  0
SECTION
  2
BLOCKS
  0
BLOCK
  5
1B
330
1A
100
AcDbEntity
  8
0
100
AcDbBlockBegin
  2
*MODEL_SPACE
 70
     0
 10
0.0
 20
0.0
 30
0.0
  3
*MODEL_SPACE
  1

  0
ENDBLK
  5
1C
330
1A
100
AcDbEntity
  8
0
100
AcDbBlockEnd
  0
BLOCK
  5
5E60
330
5D8E
100
AcDbEntity
 67
     1
  8
0
100
AcDbBlockBegin
  2
*PAPER_SPACE
 70
     0
 10
0.0
 20
0.0
 30
0.0
  3
*PAPER_SPACE
  1

  0
ENDBLK
  5
5E61
330
5D8E
100
AcDbEntity
 67
     1
  8
0
100
AcDbBlockEnd
  0
BLOCK
  5
10C80
330
10C76
100
AcDbEntity
  8
0
100
AcDbBlockBegin
  2
*D25
 70
     1
 10
0.0
 20
0.0
 30
0.0
  3
*D25
  1

  0
LINE
  5
10E27
330
10C76
100
AcDbEntity
  8
ZISSEN1
 62
     1
100
AcDbLine
 10
-1379.910616142362
 20
1614.068986116373
 30
0.0
 11
-1334.03269205142
 21
1614.068986116373
 31
0.0
  0
LINE
  5
10E28
330
10C76
100
AcDbEntity
  8
ZISSEN1
 62
     1
100
AcDbLine
 10
-1355.568045866681
 20
1524.068986116373
 30
0.0
 11
-1334.03269205142
 21
1524.068986116373
 31
0.0
  0
LINE
  5
10E29
330
10C76
100
AcDbEntity
  8
ZISSEN1
 62
     1
100
AcDbLine
 10
-1334.532692051419
 20
1611.068986116373
 30
0.0
 11
-1334.532692051419
 21
1527.068986116373
 31
0.0
  0
SOLID
  5
10E2A
330
10C76
100
AcDbEntity
  8
ZISSEN1
 62
     1
100
AcDbTrace
 10
-1335.032692051419
 20
1611.068986116373
 30
0.0
 11
-1334.03269205142
 21
1611.068986116373
 31
0.0
 12
-1334.532692051419
 22
1614.068986116373
 32
0.0
 13
-1334.532692051419
 23
1614.068986116373
 33
0.0
  0
SOLID
  5
10E2B
330
10C76
100
AcDbEntity
  8
ZISSEN1
 62
     1
100
AcDbTrace
 10
-1335.032692051419
 20
1527.068986116373
 30
0.0
 11
-1334.03269205142
 21
1527.068986116373
 31
0.0
 12
-1334.532692051419
 22
1524.068986116373
 32
0.0
 13
-1334.532692051419
 23
1524.068986116373
 33
0.0
  0
MTEXT
  5
10E2C
330
10C76
100
AcDbEntity
  8
ZISSEN1
 62
     1
100
AcDbMText
 10
-1337.575839259542
 20
1569.068986116372
 30
0.0
 40
3.5
 41
0.0
 71
     5
 72
     1
  1
\A1;(90)
  7
ゴシック体
 11
0.0000000000000001
 21
1.0
 31
0.0
1001
ACAD
1000
MTEXTBEGIN
1070
    73
1070
     1
1070
    44
1040
1.0
1070
    74
1070
     0
1000
MTEXTEND
  0
POINT
  5
10E2D
330
10C76
100
AcDbEntity
  8
DEFPOINTS
 62
     0
100
AcDbPoint
 10
-1380.410616142363
 20
1614.068986116373
 30
0.0
  0
POINT
  5
10E2E
330
10C76
100
AcDbEntity
  8
DEFPOINTS
 62
     0
100
AcDbPoint
 10
-1356.068045866681
 20
1524.068986116373
 30
0.0
  0
POINT
  5
10E2F
330
10C76
100
AcDbEntity
  8
DEFPOINTS
 62
     0
100
AcDbPoint
 10
-1334.532692051419
 20
1524.068986116373
 30
0.0
  0
ENDBLK
  5
10C81
330
10C76
100
AcDbEntity
  8
0
100
AcDbBlockEnd
  0
BLOCK
  5
10CE4
330
10CD8
100
AcDbEntity
  8
0
100
AcDbBlockBegin
  2
*D26
 70
     1
 10
0.0
 20
0.0
 30
0.0
  3
*D26
  1

  0
LINE
  5
10D30
330
10CD8
100
AcDbEntity
  8
SUNPOU
 62
     1
100
AcDbLine
 10
-1456.067952866679
 20
1724.942932116373
 30
0.0
 11
-1456.067952866679
 21
1736.344892617617
 31
0.0
  0
LINE
  5
10D31
330
10CD8
100
AcDbEntity
  8
SUNPOU
 62
     1
100
AcDbLine
 10
-1453.06794886668
 20
1689.150062116373
 30
0.0
 11
-1453.06794886668
 21
1736.344892617617
 31
0.0
  0
LINE
  5
10D32
330
10CD8
100
AcDbEntity
  8
SUNPOU
 62
     1
100
AcDbLine
 10
-1450.067948866681
 20
1735.844892617617
 30
0.0
 11
-1447.067948866679
 21
1735.844892617617
 31
0.0
  0
LINE
  5
10D33
330
10CD8
100
AcDbEntity
  8
SUNPOU
 62
     1
100
AcDbLine
 10
-1459.067952866679
 20
1735.844892617617
 30
0.0
 11
-1465.880135607798
 21
1735.844892617617
 31
0.0
  0
LINE
  5
10D34
330
10CD8
100
AcDbEntity
  8
SUNPOU
 62
     1
100
AcDbLine
 10
-1453.06794886668
 20
1735.844892617617
 30
0.0
 11
-1456.067952866679
 21
1735.844892617617
 31
0.0
  0
SOLID
  5
10D35
330
10CD8
100
AcDbEntity
  8
SUNPOU
 62
     1
100
AcDbTrace
 10
-1450.067948866681
 20
1736.344892617617
 30
0.0
 11
-1450.067948866681
 21
1735.344892617615
 31
0.0
 12
-1453.06794886668
 22
1735.844892617617
 32
0.0
 13
-1453.06794886668
 23
1735.844892617617
 33
0.0
  0
SOLID
  5
10D36
330
10CD8
100
AcDbEntity
  8
SUNPOU
 62
     1
100
AcDbTrace
 10
-1459.067952866679
 20
1736.344892617617
 30
0.0
 11
-1459.067952866679
 21
1735.344892617615
 31
0.0
 12
-1456.067952866679
 22
1735.844892617617
 32
0.0
 13
-1456.067952866679
 23
1735.844892617617
 33
0.0
  0
MTEXT
  5
10D37
330
10CD8
100
AcDbEntity
  8
SUNPOU
 62
     1
100
AcDbMText
 10
-1463.974044237239
 20
1738.594892617617
 30
0.0
 40
3.5
 41
0.0
 71
     5
 72
     1
  1
\A1;3
  7
ゴシック体
1001
ACAD
1000
MTEXTBEGIN
1070
    73
1070
     1
1070
    44
1040
1.0
1070
    74
1070
     0
1000
MTEXTEND
  0
POINT
  5
10D38
330
10CD8
100
AcDbEntity
  8
DEFPOINTS
 62
     0
100
AcDbPoint
 10
-1456.067952866679
 20
1724.442932116373
 30
0.0
  0
POINT
  5
10D39
330
10CD8
100
AcDbEntity
  8
DEFPOINTS
 62
     0
100
AcDbPoint
 10
-1453.06794886668
 20
1688.650062116373
 30
0.0
  0
POINT
  5
10D3A
330
10CD8
100
AcDbEntity
  8
DEFPOINTS
 62
     0
100
AcDbPoint
 10
-1453.06794886668
 20
1735.844892617617
 30
0.0
  0
ENDBLK
  5
10CE5
330
10CD8
100
AcDbEntity
  8
0
100
AcDbBlockEnd
  0
BLOCK
  5
10CFC
330
10CF2
100
AcDbEntity
  8
0
100
AcDbBlockBegin
  2
*D27
 70
     1
 10
0.0
 20
0.0
 30
0.0
  3
*D27
  1

  0
LINE
  5
10D4A
330
10CF2
100
AcDbEntity
  8
SUNPOU
 62
     1
100
AcDbLine
 10
-1455.860837866681
 20
1725.150062116372
 30
0.0
 11
-1466.380135607797
 21
1725.150062116372
 31
0.0
  0
LINE
  5
10D4B
330
10CF2
100
AcDbEntity
  8
SUNPOU
 62
     1
100
AcDbLine
 10
-1455.860837866681
 20
1635.150062116371
 30
0.0
 11
-1466.380135607797
 21
1635.150062116371
 31
0.0
  0
LINE
  5
10D4C
330
10CF2
100
AcDbEntity
  8
SUNPOU
 62
     1
100
AcDbLine
 10
-1465.880135607798
 20
1722.150062116373
 30
0.0
 11
-1465.880135607798
 21
1638.150062116373
 31
0.0
  0
SOLID
  5
10D4D
330
10CF2
100
AcDbEntity
  8
SUNPOU
 62
     1
100
AcDbTrace
 10
-1466.380135607797
 20
1722.150062116373
 30
0.0
 11
-1465.380135607798
 21
1722.150062116373
 31
0.0
 12
-1465.880135607798
 22
1725.150062116372
 32
0.0
 13
-1465.880135607798
 23
1725.150062116372
 33
0.0
  0
SOLID
  5
10D4E
330
10CF2
100
AcDbEntity
  8
SUNPOU
 62
     1
100
AcDbTrace
 10
-1466.380135607797
 20
1638.150062116373
 30
0.0
 11
-1465.380135607798
 21
1638.150062116373
 31
0.0
 12
-1465.880135607798
 22
1635.150062116371
 32
0.0
 13
-1465.880135607798
 23
1635.150062116371
 33
0.0
  0
MTEXT
  5
10D4F
330
10CF2
100
AcDbEntity
  8
SUNPOU
 62
     1
100
AcDbMText
 10
-1468.630135607797
 20
1680.150062116372
 30
0.0
 40
3.5
 41
0.0
 71
     5
 72
     1
  1
\A1;90
  7
ゴシック体
 11
0.0000000000000001
 21
1.0
 31
0.0
1001
ACAD
1000
MTEXTBEGIN
1070
    73
1070
     1
1070
    44
1040
1.0
1070
    74
1070
     0
1000
MTEXTEND
  0
POINT
  5
10D50
330
10CF2
100
AcDbEntity
  8
DEFPOINTS
 62
     0
100
AcDbPoint
 10
-1455.360837866679
 20
1725.150062116372
 30
0.0
  0
POINT
  5
10D51
330
10CF2
100
AcDbEntity
  8
DEFPOINTS
 62
     0
100
AcDbPoint
 10
-1455.360837866679
 20
1635.150062116371
 30
0.0
  0
POINT
  5
10D52
330
10CF2
100
AcDbEntity
  8
DEFPOINTS
 62
     0
100
AcDbPoint
 10
-1465.880135607798
 20
1635.150062116371
 30
0.0
  0
ENDBLK
  5
10CFD
330
10CF2
100
AcDbEntity
  8
0
100
AcDbBlockEnd
  0
BLOCK
  5
10D09
330
10CFF
100
AcDbEntity
  8
0
100
AcDbBlockBegin
  2
*D28
 70
     1
 10
0.0
 20
0.0
 30
0.0
  3
*D28
  1

  0
LINE
  5
10D00
330
10CFF
100
AcDbEntity
  8
SUNPOU
 62
     1
100
AcDbLine
 10
-1453.06794886668
 20
1725.650062116373
 30
0.0
 11
-1453.06794886668
 21
1736.344892617617
 31
0.0
  0
LINE
  5
10D01
330
10CFF
100
AcDbEntity
  8
SUNPOU
 62
     1
100
AcDbLine
 10
-1359.067955866681
 20
1689.150062116373
 30
0.0
 11
-1359.067955866681
 21
1736.344892617617
 31
0.0
  0
LINE
  5
10D02
330
10CFF
100
AcDbEntity
  8
SUNPOU
 62
     1
100
AcDbLine
 10
-1450.067948866681
 20
1735.844892617617
 30
0.0
 11
-1362.067955866681
 21
1735.844892617617
 31
0.0
  0
SOLID
  5
10D03
330
10CFF
100
AcDbEntity
  8
SUNPOU
 62
     1
100
AcDbTrace
 10
-1450.067948866681
 20
1736.344892617617
 30
0.0
 11
-1450.067948866681
 21
1735.344892617615
 31
0.0
 12
-1453.06794886668
 22
1735.844892617617
 32
0.0
 13
-1453.06794886668
 23
1735.844892617617
 33
0.0
  0
SOLID
  5
10D04
330
10CFF
100
AcDbEntity
  8
SUNPOU
 62
     1
100
AcDbTrace
 10
-1362.067955866681
 20
1736.344892617617
 30
0.0
 11
-1362.067955866681
 21
1735.344892617615
 31
0.0
 12
-1359.067955866681
 22
1735.844892617617
 32
0.0
 13
-1359.067955866681
 23
1735.844892617617
 33
0.0
  0
MTEXT
  5
10D05
330
10CFF
100
AcDbEntity
  8
SUNPOU
 62
     1
100
AcDbMText
 10
-1406.067952366679
 20
1738.594892617617
 30
0.0
 40
3.5
 41
0.0
 71
     5
 72
     1
  1
\A1;94
  7
ゴシック体
1001
ACAD
1000
MTEXTBEGIN
1070
    73
1070
     1
1070
    44
1040
1.0
1070
    74
1070
     0
1000
MTEXTEND
  0
POINT
  5
10D06
330
10CFF
100
AcDbEntity
  8
DEFPOINTS
 62
     0
100
AcDbPoint
 10
-1453.06794886668
 20
1725.150062116372
 30
0.0
  0
POINT
  5
10D07
330
10CFF
100
AcDbEntity
  8
DEFPOINTS
 62
     0
100
AcDbPoint
 10
-1359.067955866681
 20
1688.650062116373
 30
0.0
  0
POINT
  5
10D08
330
10CFF
100
AcDbEntity
  8
DEFPOINTS
 62
     0
100
AcDbPoint
 10
-1359.067955866681
 20
1735.844892617617
 30
0.0
  0
ENDBLK
  5
10D0A
330
10CFF
100
AcDbEntity
  8
0
100
AcDbBlockEnd
  0
BLOCK
  5
10D18
330
10D0C
100
AcDbEntity
  8
0
100
AcDbBlockBegin
  2
*D29
 70
     1
 10
0.0
 20
0.0
 30
0.0
  3
*D29
  1

  0
LINE
  5
10D0D
330
10D0C
100
AcDbEntity
  8
SUNPOU
 62
     1
100
AcDbLine
 10
-1359.067955866681
 20
1689.150062116373
 30
0.0
 11
-1359.067955866681
 21
1736.344892617617
 31
0.0
  0
LINE
  5
10D0E
330
10D0C
100
AcDbEntity
  8
SUNPOU
 62
     1
100
AcDbLine
 10
-1356.067955866681
 20
1724.942932116373
 30
0.0
 11
-1356.067955866681
 21
1736.344892617617
 31
0.0
  0
LINE
  5
10D0F
330
10D0C
100
AcDbEntity
  8
SUNPOU
 62
     1
100
AcDbLine
 10
-1362.067955866681
 20
1735.844892617617
 30
0.0
 11
-1365.067955866681
 21
1735.844892617617
 31
0.0
  0
LINE
  5
10D10
330
10D0C
100
AcDbEntity
  8
SUNPOU
 62
     1
100
AcDbLine
 10
-1353.067955866681
 20
1735.844892617617
 30
0.0
 11
-1346.255773125565
 21
1735.844892617617
 31
0.0
  0
LINE
  5
10D11
330
10D0C
100
AcDbEntity
  8
SUNPOU
 62
     1
100
AcDbLine
 10
-1359.067955866681
 20
1735.844892617617
 30
0.0
 11
-1356.067955866681
 21
1735.844892617617
 31
0.0
  0
SOLID
  5
10D12
330
10D0C
100
AcDbEntity
  8
SUNPOU
 62
     1
100
AcDbTrace
 10
-1362.067955866681
 20
1736.344892617617
 30
0.0
 11
-1362.067955866681
 21
1735.344892617615
 31
0.0
 12
-1359.067955866681
 22
1735.844892617617
 32
0.0
 13
-1359.067955866681
 23
1735.844892617617
 33
0.0
  0
SOLID
  5
10D13
330
10D0C
100
AcDbEntity
  8
SUNPOU
 62
     1
100
AcDbTrace
 10
-1353.067955866681
 20
1736.344892617617
 30
0.0
 11
-1353.067955866681
 21
1735.344892617615
 31
0.0
 12
-1356.067955866681
 22
1735.844892617617
 32
0.0
 13
-1356.067955866681
 23
1735.844892617617
 33
0.0
  0
MTEXT
  5
10D14
330
10D0C
100
AcDbEntity
  8
SUNPOU
 62
     1
100
AcDbMText
 10
-1348.161864496123
 20
1738.594892617617
 30
0.0
 40
3.5
 41
0.0
 71
     5
 72
     1
  1
\A1;3
  7
ゴシック体
1001
ACAD
1000
MTEXTBEGIN
1070
    73
1070
     1
1070
    44
1040
1.0
1070
    74
1070
     0
1000
MTEXTEND
  0
POINT
  5
10D15
330
10D0C
100
AcDbEntity
  8
DEFPOINTS
 62
     0
100
AcDbPoint
 10
-1359.067955866681
 20
1688.650062116373
 30
0.0
  0
POINT
  5
10D16
330
10D0C
100
AcDbEntity
  8
DEFPOINTS
 62
     0
100
AcDbPoint
 10
-1356.067955866681
 20
1724.442932116373
 30
0.0
  0
POINT
  5
10D17
330
10D0C
100
AcDbEntity
  8
DEFPOINTS
 62
     0
100
AcDbPoint
 10
-1356.067955866681
 20
1735.844892617617
 30
0.0
  0
ENDBLK
  5
10D19
330
10D0C
100
AcDbEntity
  8
0
100
AcDbBlockEnd
  0
BLOCK
  5
10D48
330
10D3C
100
AcDbEntity
  8
0
100
AcDbBlockBegin
  2
*D30
 70
     1
 10
0.0
 20
0.0
 30
0.0
  3
*D30
  1

  0
LINE
  5
10D3D
330
10D3C
100
AcDbEntity
  8
SUNPOU
 62
     1
100
AcDbLine
 10
-1355.567955866681
 20
1681.900032116373
 30
0.0
 11
-1345.755773125564
 21
1681.900032116373
 31
0.0
  0
LINE
  5
10D3E
330
10D3C
100
AcDbEntity
  8
SUNPOU
 62
     1
100
AcDbLine
 10
-1355.567955866681
 20
1678.400072116373
 30
0.0
 11
-1345.755773125564
 21
1678.400072116373
 31
0.0
  0
LINE
  5
10D3F
330
10D3C
100
AcDbEntity
  8
SUNPOU
 62
     1
100
AcDbLine
 10
-1346.255773125565
 20
1684.900032116373
 30
0.0
 11
-1346.255773125565
 21
1687.900032116373
 31
0.0
  0
LINE
  5
10D40
330
10D3C
100
AcDbEntity
  8
SUNPOU
 62
     1
100
AcDbLine
 10
-1346.255773125565
 20
1675.400072116373
 30
0.0
 11
-1346.255773125565
 21
1664.039666025002
 31
0.0
  0
LINE
  5
10D41
330
10D3C
100
AcDbEntity
  8
SUNPOU
 62
     1
100
AcDbLine
 10
-1346.255773125565
 20
1681.900032116373
 30
0.0
 11
-1346.255773125565
 21
1678.400072116373
 31
0.0
  0
SOLID
  5
10D42
330
10D3C
100
AcDbEntity
  8
SUNPOU
 62
     1
100
AcDbTrace
 10
-1346.755773125565
 20
1684.900032116373
 30
0.0
 11
-1345.755773125564
 21
1684.900032116373
 31
0.0
 12
-1346.255773125565
 22
1681.900032116373
 32
0.0
 13
-1346.255773125565
 23
1681.900032116373
 33
0.0
  0
SOLID
  5
10D43
330
10D3C
100
AcDbEntity
  8
SUNPOU
 62
     1
100
AcDbTrace
 10
-1346.755773125565
 20
1675.400072116373
 30
0.0
 11
-1345.755773125564
 21
1675.400072116373
 31
0.0
 12
-1346.255773125565
 22
1678.400072116373
 32
0.0
 13
-1346.255773125565
 23
1678.400072116373
 33
0.0
  0
MTEXT
  5
10D44
330
10D3C
100
AcDbEntity
  8
SUNPOU
 62
     1
100
AcDbMText
 10
-1349.005773125565
 20
1668.219869070687
 30
0.0
 40
3.5
 41
0.0
 71
     5
 72
     1
  1
\A1;3.5
  7
ゴシック体
 11
0.0000000000000001
 21
1.0
 31
0.0
1001
ACAD
1000
MTEXTBEGIN
1070
    73
1070
     1
1070
    44
1040
1.0
1070
    74
1070
     0
1000
MTEXTEND
  0
POINT
  5
10D45
330
10D3C
100
AcDbEntity
  8
DEFPOINTS
 62
     0
100
AcDbPoint
 10
-1356.067955866681
 20
1681.900032116373
 30
0.0
  0
POINT
  5
10D46
330
10D3C
100
AcDbEntity
  8
DEFPOINTS
 62
     0
100
AcDbPoint
 10
-1356.067955866681
 20
1678.400072116373
 30
0.0
  0
POINT
  5
10D47
330
10D3C
100
AcDbEntity
  8
DEFPOINTS
 62
     0
100
AcDbPoint
 10
-1346.255773125565
 20
1678.400072116373
 30
0.0
  0
ENDBLK
  5
10D49
330
10D3C
100
AcDbEntity
  8
0
100
AcDbBlockEnd
  0
BLOCK
  5
10D5E
330
10D54
100
AcDbEntity
  8
0
100
AcDbBlockBegin
  2
*D31
 70
     1
 10
0.0
 20
0.0
 30
0.0
  3
*D31
  1

  0
LINE
  5
10E43
330
10D54
100
AcDbEntity
  8
SUNPOU
 62
     1
100
AcDbLine
 10
-1456.068037866681
 20
1534.168983116373
 30
0.0
 11
-1456.068037866681
 21
1621.490387150315
 31
0.0
  0
LINE
  5
10E44
330
10D54
100
AcDbEntity
  8
SUNPOU
 62
     1
100
AcDbLine
 10
-1356.068045866681
 20
1534.168983116373
 30
0.0
 11
-1356.068045866681
 21
1621.490387150315
 31
0.0
  0
LINE
  5
10E45
330
10D54
100
AcDbEntity
  8
SUNPOU
 62
     1
100
AcDbLine
 10
-1456.068037866681
 20
1620.990387150315
 30
0.0
 11
-1356.068045866681
 21
1620.990387150315
 31
0.0
  0
POINT
  5
10E46
330
10D54
100
AcDbEntity
  8
DEFPOINTS
 62
     0
100
AcDbPoint
 10
-1456.068037866681
 20
1533.668983116373
 30
0.0
  0
POINT
  5
10E47
330
10D54
100
AcDbEntity
  8
DEFPOINTS
 62
     0
100
AcDbPoint
 10
-1356.068045866681
 20
1533.668983116373
 30
0.0
  0
POINT
  5
10E48
330
10D54
100
AcDbEntity
  8
DEFPOINTS
 62
     0
100
AcDbPoint
 10
-1356.068045866681
 20
1620.990387150315
 30
0.0
  0
ENDBLK
  5
10D5F
330
10D54
100
AcDbEntity
  8
0
100
AcDbBlockEnd
  0
BLOCK
  5
10D75
330
10D6B
100
AcDbEntity
  8
0
100
AcDbBlockBegin
  2
*D32
 70
     1
 10
0.0
 20
0.0
 30
0.0
  3
*D32
  1

  0
LINE
  5
10DC9
330
10D6B
100
AcDbEntity
  8
SUNPOU
 62
     1
100
AcDbLine
 10
-1456.067952866679
 20
1635.357172116373
 30
0.0
 11
-1456.067952866679
 21
1620.490387150314
 31
0.0
  0
LINE
  5
10DCA
330
10D6B
100
AcDbEntity
  8
SUNPOU
 62
     1
100
AcDbLine
 10
-1356.067955866681
 20
1635.357172116373
 30
0.0
 11
-1356.067955866681
 21
1620.490387150314
 31
0.0
  0
LINE
  5
10DCB
330
10D6B
100
AcDbEntity
  8
SUNPOU
 62
     1
100
AcDbLine
 10
-1453.067952866681
 20
1620.990387150315
 30
0.0
 11
-1359.067955866681
 21
1620.990387150315
 31
0.0
  0
SOLID
  5
10DCC
330
10D6B
100
AcDbEntity
  8
SUNPOU
 62
     1
100
AcDbTrace
 10
-1453.067952866681
 20
1621.490387150315
 30
0.0
 11
-1453.067952866681
 21
1620.490387150314
 31
0.0
 12
-1456.067952866679
 22
1620.990387150315
 32
0.0
 13
-1456.067952866679
 23
1620.990387150315
 33
0.0
  0
SOLID
  5
10DCD
330
10D6B
100
AcDbEntity
  8
SUNPOU
 62
     1
100
AcDbTrace
 10
-1359.067955866681
 20
1621.490387150315
 30
0.0
 11
-1359.067955866681
 21
1620.490387150314
 31
0.0
 12
-1356.067955866681
 22
1620.990387150315
 32
0.0
 13
-1356.067955866681
 23
1620.990387150315
 33
0.0
  0
MTEXT
  5
10DCE
330
10D6B
100
AcDbEntity
  8
SUNPOU
 62
     1
100
AcDbMText
 10
-1406.06795436668
 20
1623.740387150315
 30
0.0
 40
3.5
 41
0.0
 71
     5
 72
     1
  1
\A1;100
  7
ゴシック体
1001
ACAD
1000
MTEXTBEGIN
1070
    73
1070
     1
1070
    44
1040
1.0
1070
    74
1070
     0
1000
MTEXTEND
  0
POINT
  5
10DCF
330
10D6B
100
AcDbEntity
  8
DEFPOINTS
 62
     0
100
AcDbPoint
 10
-1456.067952866679
 20
1635.857172116373
 30
0.0
  0
POINT
  5
10DD0
330
10D6B
100
AcDbEntity
  8
DEFPOINTS
 62
     0
100
AcDbPoint
 10
-1356.067955866681
 20
1635.857172116373
 30
0.0
  0
POINT
  5
10DD1
330
10D6B
100
AcDbEntity
  8
DEFPOINTS
 62
     0
100
AcDbPoint
 10
-1356.067955866681
 20
1620.990387150315
 30
0.0
  0
ENDBLK
  5
10D76
330
10D6B
100
AcDbEntity
  8
0
100
AcDbBlockEnd
  0
BLOCK
  5
10DE7
330
10DDD
100
AcDbEntity
  8
0
100
AcDbBlockBegin
  2
*D33
 70
     1
 10
0.0
 20
0.0
 30
0.0
  3
*D33
  1

  0
LINE
  5
10DFB
330
10DDD
100
AcDbEntity
  8
SUNPOU
 62
     1
100
AcDbLine
 10
-1446.810155866679
 20
1548.668982116373
 30
0.0
 11
-1466.380135607797
 21
1548.668982116373
 31
0.0
  0
LINE
  5
10DFC
330
10DDD
100
AcDbEntity
  8
SUNPOU
 62
     1
100
AcDbLine
 10
-1456.568037866681
 20
1524.068986116373
 30
0.0
 11
-1466.380135607797
 21
1524.068986116373
 31
0.0
  0
LINE
  5
10DFD
330
10DDD
100
AcDbEntity
  8
SUNPOU
 62
     1
100
AcDbLine
 10
-1465.880135607798
 20
1545.668982116373
 30
0.0
 11
-1465.880135607798
 21
1527.068986116373
 31
0.0
  0
SOLID
  5
10DFE
330
10DDD
100
AcDbEntity
  8
SUNPOU
 62
     1
100
AcDbTrace
 10
-1466.380135607797
 20
1545.668982116373
 30
0.0
 11
-1465.380135607798
 21
1545.668982116373
 31
0.0
 12
-1465.880135607798
 22
1548.668982116373
 32
0.0
 13
-1465.880135607798
 23
1548.668982116373
 33
0.0
  0
SOLID
  5
10DFF
330
10DDD
100
AcDbEntity
  8
SUNPOU
 62
     1
100
AcDbTrace
 10
-1466.380135607797
 20
1527.068986116373
 30
0.0
 11
-1465.380135607798
 21
1527.068986116373
 31
0.0
 12
-1465.880135607798
 22
1524.068986116373
 32
0.0
 13
-1465.880135607798
 23
1524.068986116373
 33
0.0
  0
MTEXT
  5
10E00
330
10DDD
100
AcDbEntity
  8
SUNPOU
 62
     1
100
AcDbMText
 10
-1468.630135607797
 20
1536.368984116372
 30
0.0
 40
3.5
 41
0.0
 71
     5
 72
     1
  1
\A1;24.6
  7
ゴシック体
 11
0.0000000000000001
 21
1.0
 31
0.0
1001
ACAD
1000
MTEXTBEGIN
1070
    73
1070
     1
1070
    44
1040
1.0
1070
    74
1070
     0
1000
MTEXTEND
  0
POINT
  5
10E01
330
10DDD
100
AcDbEntity
  8
DEFPOINTS
 62
     0
100
AcDbPoint
 10
-1446.310155866679
 20
1548.668982116373
 30
0.0
  0
POINT
  5
10E02
330
10DDD
100
AcDbEntity
  8
DEFPOINTS
 62
     0
100
AcDbPoint
 10
-1456.068037866681
 20
1524.068986116373
 30
0.0
  0
POINT
  5
10E03
330
10DDD
100
AcDbEntity
  8
DEFPOINTS
 62
     0
100
AcDbPoint
 10
-1465.880135607798
 20
1524.068986116373
 30
0.0
  0
ENDBLK
  5
10DE8
330
10DDD
100
AcDbEntity
  8
0
100
AcDbBlockEnd
  0
BLOCK
  5
10E11
330
10E05
100
AcDbEntity
  8
0
100
AcDbBlockBegin
  2
*D34
 70
     1
 10
0.0
 20
0.0
 30
0.0
  3
*D34
  1

  0
LINE
  5
10E06
330
10E05
100
AcDbEntity
  8
SUNPOU
 62
     1
100
AcDbLine
 10
-1355.568045866681
 20
1527.068984116373
 30
0.0
 11
-1345.755773125564
 21
1527.068984116373
 31
0.0
  0
LINE
  5
10E07
330
10E05
100
AcDbEntity
  8
SUNPOU
 62
     1
100
AcDbLine
 10
-1355.068045866681
 20
1524.068986116373
 30
0.0
 11
-1345.755773125564
 21
1524.068986116373
 31
0.0
  0
LINE
  5
10E08
330
10E05
100
AcDbEntity
  8
SUNPOU
 62
     1
100
AcDbLine
 10
-1346.255773125565
 20
1530.068984116373
 30
0.0
 11
-1346.255773125565
 21
1533.068984116373
 31
0.0
  0
LINE
  5
10E09
330
10E05
100
AcDbEntity
  8
SUNPOU
 62
     1
100
AcDbLine
 10
-1346.255773125565
 20
1521.068986116373
 30
0.0
 11
-1346.255773125565
 21
1514.256803375256
 31
0.0
  0
LINE
  5
10E0A
330
10E05
100
AcDbEntity
  8
SUNPOU
 62
     1
100
AcDbLine
 10
-1346.255773125565
 20
1527.068984116373
 30
0.0
 11
-1346.255773125565
 21
1524.068986116373
 31
0.0
  0
SOLID
  5
10E0B
330
10E05
100
AcDbEntity
  8
SUNPOU
 62
     1
100
AcDbTrace
 10
-1346.755773125565
 20
1530.068984116373
 30
0.0
 11
-1345.755773125564
 21
1530.068984116373
 31
0.0
 12
-1346.255773125565
 22
1527.068984116373
 32
0.0
 13
-1346.255773125565
 23
1527.068984116373
 33
0.0
  0
SOLID
  5
10E0C
330
10E05
100
AcDbEntity
  8
SUNPOU
 62
     1
100
AcDbTrace
 10
-1346.755773125565
 20
1521.068986116373
 30
0.0
 11
-1345.755773125564
 21
1521.068986116373
 31
0.0
 12
-1346.255773125565
 22
1524.068986116373
 32
0.0
 13
-1346.255773125565
 23
1524.068986116373
 33
0.0
  0
MTEXT
  5
10E0D
330
10E05
100
AcDbEntity
  8
SUNPOU
 62
     1
100
AcDbMText
 10
-1349.005773125565
 20
1516.162894745813
 30
0.0
 40
3.5
 41
0.0
 71
     5
 72
     1
  1
\A1;3
  7
ゴシック体
 11
0.0000000000000001
 21
1.0
 31
0.0
1001
ACAD
1000
MTEXTBEGIN
1070
    73
1070
     1
1070
    44
1040
1.0
1070
    74
1070
     0
1000
MTEXTEND
  0
POINT
  5
10E0E
330
10E05
100
AcDbEntity
  8
DEFPOINTS
 62
     0
100
AcDbPoint
 10
-1356.068045866681
 20
1527.068984116373
 30
0.0
  0
POINT
  5
10E0F
330
10E05
100
AcDbEntity
  8
DEFPOINTS
 62
     0
100
AcDbPoint
 10
-1355.568045866681
 20
1524.068986116373
 30
0.0
  0
POINT
  5
10E10
330
10E05
100
AcDbEntity
  8
DEFPOINTS
 62
     0
100
AcDbPoint
 10
-1346.255773125565
 20
1524.068986116373
 30
0.0
  0
ENDBLK
  5
10E12
330
10E05
100
AcDbEntity
  8
0
100
AcDbBlockEnd
  0
ENDSEC
  0
SECTION
  2
ENTITIES
  0
MTEXT
  5
5084
330
1A
100
AcDbEntity
  8
0
100
AcDbMText
 10
1985.239088685434
 20
-948.5420423450428
 30
0.0
 40
8.0
 41
0.0
 71
     7
 72
     5
  1

1001
ACAD
1000
MTEXTBEGIN
1070
    73
1070
     1
1070
    44
1040
1.0
1070
    74
1070
     0
1000
MTEXTEND
  0
MTEXT
  5
5085
330
1A
100
AcDbEntity
  8
0
100
AcDbMText
 10
4270.596778580329
 20
22.24825240601647
 30
0.0
 40
8.0
 41
0.0
 71
     7
 72
     5
  1

1001
ACAD
1000
MTEXTBEGIN
1070
    73
1070
     1
1070
    44
1040
1.0
1070
    74
1070
     0
1000
MTEXTEND
  0
MTEXT
  5
5343
330
1A
100
AcDbEntity
  8
SUNPOU
100
AcDbMText
 10
6936.493799262471
 20
9534.359644781137
 30
0.0
 40
10.5
 41
0.0
 71
     1
 72
     5
  1

1001
ACAD
1000
MTEXTBEGIN
1070
    73
1070
     1
1070
    44
1040
1.0
1070
    74
1070
     0
1000
MTEXTEND
  0
MTEXT
  5
544F
330
1A
100
AcDbEntity
  8
0
100
AcDbMText
 10
16317.2832773148
 20
12833.35428897674
 30
0.0
 40
8.0
 41
0.0
 71
     7
 72
     5
  1

1001
ACAD
1000
MTEXTBEGIN
1070
    73
1070
     1
1070
    44
1040
1.0
1070
    74
1070
     0
1000
MTEXTEND
  0
MTEXT
  5
5450
330
1A
100
AcDbEntity
  8
0
100
AcDbMText
 10
18602.64096720968
 20
13804.1445837278
 30
0.0
 40
8.0
 41
0.0
 71
     7
 72
     5
  1

1001
ACAD
1000
MTEXTBEGIN
1070
    73
1070
     1
1070
    44
1040
1.0
1070
    74
1070
     0
1000
MTEXTEND
  0
MTEXT
  5
5451
330
1A
100
AcDbEntity
  8
SUNPOU
100
AcDbMText
 10
21268.53798789184
 20
23316.25597610292
 30
0.0
 40
10.5
 41
0.0
 71
     1
 72
     5
  1

1001
ACAD
1000
MTEXTBEGIN
1070
    73
1070
     1
1070
    44
1040
1.0
1070
    74
1070
     0
1000
MTEXTEND
  0
MTEXT
  5
5452
330
1A
100
AcDbEntity
  8
SUNPOU
100
AcDbMText
 10
13337.6147919559
 20
22369.46284218996
 30
0.0
 40
10.5
 41
0.0
 71
     7
 72
     5
  1

1001
ACAD
1000
MTEXTBEGIN
1070
    73
1070
     1
1070
    44
1040
1.0
1070
    74
1070
     0
1000
MTEXTEND
  0
MTEXT
  5
5453
330
1A
100
AcDbEntity
  8
SUNPOU
100
AcDbMText
 10
16286.59845646867
 20
27270.13891403279
 30
0.0
 40
10.5
 41
0.0
 71
     7
 72
     5
  1

1001
ACAD
1000
MTEXTBEGIN
1070
    73
1070
     1
1070
    44
1040
1.0
1070
    74
1070
     0
1000
MTEXTEND
  0
MTEXT
  5
5454
330
1A
100
AcDbEntity
  8
SUNPOU
100
AcDbMText
 10
20795.67658441924
 20
29706.43966165288
 30
0.0
 40
10.5
 41
0.0
 71
     7
 72
     5
  1

1001
ACAD
1000
MTEXTBEGIN
1070
    73
1070
     1
1070
    44
1040
1.0
1070
    74
1070
     0
1000
MTEXTEND
  0
MTEXT
  5
5455
330
1A
100
AcDbEntity
  8
0
100
AcDbMText
 10
16611.93789220313
 20
14707.52144344448
 30
0.0
 40
8.0
 41
0.0
 71
     7
 72
     5
  1

1001
ACAD
1000
MTEXTBEGIN
1070
    73
1070
     1
1070
    44
1040
1.0
1070
    74
1070
     0
1000
MTEXTEND
  0
MTEXT
  5
5456
330
1A
100
AcDbEntity
  8
0
100
AcDbMText
 10
18897.29558209803
 20
15678.31173819554
 30
0.0
 40
8.0
 41
0.0
 71
     7
 72
     5
  1

1001
ACAD
1000
MTEXTBEGIN
1070
    73
1070
     1
1070
    44
1040
1.0
1070
    74
1070
     0
1000
MTEXTEND
  0
MTEXT
  5
5457
330
1A
100
AcDbEntity
  8
SUNPOU
100
AcDbMText
 10
21563.19260278019
 20
25190.42313057066
 30
0.0
 40
10.5
 41
0.0
 71
     1
 72
     5
  1

1001
ACAD
1000
MTEXTBEGIN
1070
    73
1070
     1
1070
    44
1040
1.0
1070
    74
1070
     0
1000
MTEXTEND
  0
MTEXT
  5
5458
330
1A
100
AcDbEntity
  8
SUNPOU
100
AcDbMText
 10
13632.26940684425
 20
24243.6299966577
 30
0.0
 40
10.5
 41
0.0
 71
     7
 72
     5
  1

1001
ACAD
1000
MTEXTBEGIN
1070
    73
1070
     1
1070
    44
1040
1.0
1070
    74
1070
     0
1000
MTEXTEND
  0
MTEXT
  5
5459
330
1A
100
AcDbEntity
  8
SUNPOU
100
AcDbMText
 10
16581.25307135702
 20
29144.30606850055
 30
0.0
 40
10.5
 41
0.0
 71
     7
 72
     5
  1

1001
ACAD
1000
MTEXTBEGIN
1070
    73
1070
     1
1070
    44
1040
1.0
1070
    74
1070
     0
1000
MTEXTEND
  0
MTEXT
  5
545A
330
1A
100
AcDbEntity
  8
SUNPOU
100
AcDbMText
 10
21090.33119930759
 20
31580.60681612062
 30
0.0
 40
10.5
 41
0.0
 71
     7
 72
     5
  1

1001
ACAD
1000
MTEXTBEGIN
1070
    73
1070
     1
1070
    44
1040
1.0
1070
    74
1070
     0
1000
MTEXTEND
  0
MTEXT
  5
545B
330
1A
100
AcDbEntity
  8
0
100
AcDbMText
 10
22871.60517627166
 20
23974.88367124799
 30
0.0
 40
8.0
 41
0.0
 71
     7
 72
     5
  1

1001
ACAD
1000
MTEXTBEGIN
1070
    73
1070
     1
1070
    44
1040
1.0
1070
    74
1070
     0
1000
MTEXTEND
  0
MTEXT
  5
545C
330
1A
100
AcDbEntity
  8
0
100
AcDbMText
 10
25156.96286616655
 20
24945.67396599904
 30
0.0
 40
8.0
 41
0.0
 71
     7
 72
     5
  1

1001
ACAD
1000
MTEXTBEGIN
1070
    73
1070
     1
1070
    44
1040
1.0
1070
    74
1070
     0
1000
MTEXTEND
  0
MTEXT
  5
545D
330
1A
100
AcDbEntity
  8
SUNPOU
100
AcDbMText
 10
27822.85988684871
 20
34457.78535837418
 30
0.0
 40
10.5
 41
0.0
 71
     1
 72
     5
  1

1001
ACAD
1000
MTEXTBEGIN
1070
    73
1070
     1
1070
    44
1040
1.0
1070
    74
1070
     0
1000
MTEXTEND
  0
MTEXT
  5
545E
330
1A
100
AcDbEntity
  8
SUNPOU
100
AcDbMText
 10
19891.93669091278
 20
33510.99222446122
 30
0.0
 40
10.5
 41
0.0
 71
     7
 72
     5
  1

1001
ACAD
1000
MTEXTBEGIN
1070
    73
1070
     1
1070
    44
1040
1.0
1070
    74
1070
     0
1000
MTEXTEND
  0
MTEXT
  5
545F
330
1A
100
AcDbEntity
  8
SUNPOU
100
AcDbMText
 10
22840.92035542555
 20
38411.66829630406
 30
0.0
 40
10.5
 41
0.0
 71
     7
 72
     5
  1

1001
ACAD
1000
MTEXTBEGIN
1070
    73
1070
     1
1070
    44
1040
1.0
1070
    74
1070
     0
1000
MTEXTEND
  0
MTEXT
  5
5460
330
1A
100
AcDbEntity
  8
SUNPOU
100
AcDbMText
 10
27349.99848337611
 20
40847.96904392415
 30
0.0
 40
10.5
 41
0.0
 71
     7
 72
     5
  1

1001
ACAD
1000
MTEXTBEGIN
1070
    73
1070
     1
1070
    44
1040
1.0
1070
    74
1070
     0
1000
MTEXTEND
  0
MTEXT
  5
55B7
330
1A
100
AcDbEntity
  8
SUNPOU
100
AcDbMText
 10
67424.23923338197
 20
64463.86602884816
 30
0.0
 40
10.5
 41
0.0
 71
     9
 72
     5
  1

1001
ACAD
1000
MTEXTBEGIN
1070
    73
1070
     1
1070
    44
1040
1.0
1070
    74
1070
     0
1000
MTEXTEND
  0
MTEXT
  5
55B8
330
1A
100
AcDbEntity
  8
SUNPOU
100
AcDbMText
 10
76146.40679929998
 20
71879.70056038563
 30
0.0
 40
10.5
 41
0.0
 71
     9
 72
     5
  1

1001
ACAD
1000
MTEXTBEGIN
1070
    73
1070
     1
1070
    44
1040
1.0
1070
    74
1070
     0
1000
MTEXTEND
  0
MTEXT
  5
55B9
330
1A
100
AcDbEntity
  8
SUNPOU
100
AcDbMText
 10
95100.16551662994
 20
89346.27661287766
 30
0.0
 40
10.5
 41
0.0
 71
     9
 72
     5
  1

1001
ACAD
1000
MTEXTBEGIN
1070
    73
1070
     1
1070
    44
1040
1.0
1070
    74
1070
     0
1000
MTEXTEND
  0
MTEXT
  5
55BA
330
1A
100
AcDbEntity
  8
SUNPOU
100
AcDbMText
 10
97043.57276333935
 20
87545.22753299966
 30
0.0
 40
3.5
 41
0.0
 71
     9
 72
     5
  1

1001
ACAD
1000
MTEXTBEGIN
1070
    73
1070
     1
1070
    44
1040
1.0
1070
    74
1070
     0
1000
MTEXTEND
  0
MTEXT
  5
55BB
330
1A
100
AcDbEntity
  8
SUNPOU
100
AcDbMText
 10
128169.7525959589
 20
130040.1732006569
 30
0.0
 40
10.5
 41
0.0
 71
     9
 72
     5
  1

1001
ACAD
1000
MTEXTBEGIN
1070
    73
1070
     1
1070
    44
1040
1.0
1070
    74
1070
     0
1000
MTEXTEND
  0
MTEXT
  5
55BC
330
1A
100
AcDbEntity
  8
SUNPOU
100
AcDbMText
 10
130113.1598426684
 20
128239.1241207789
 30
0.0
 40
3.5
 41
0.0
 71
     9
 72
     5
  1

1001
ACAD
1000
MTEXTBEGIN
1070
    73
1070
     1
1070
    44
1040
1.0
1070
    74
1070
     0
1000
MTEXTEND
  0
MTEXT
  5
55BD
330
1A
100
AcDbEntity
  8
SUNPOU
100
AcDbMText
 10
78610.02030175463
 20
75873.33835563206
 30
0.0
 40
10.5
 41
0.0
 71
     9
 72
     5
  1

1001
ACAD
1000
MTEXTBEGIN
1070
    73
1070
     1
1070
    44
1040
1.0
1070
    74
1070
     0
1000
MTEXTEND
  0
MTEXT
  5
55BE
330
1A
100
AcDbEntity
  8
SUNPOU
100
AcDbMText
 10
64662.02020137862
 20
56700.93921651987
 30
0.0
 40
3.5
 41
0.0
 71
     7
 72
     5
  1

1001
ACAD
1000
MTEXTBEGIN
1070
    73
1070
     1
1070
    44
1040
1.0
1070
    74
1070
     0
1000
MTEXTEND
  0
MTEXT
  5
55BF
330
1A
100
AcDbEntity
  8
SUNPOU
100
AcDbMText
 10
45647.18959837176
 20
44463.08794733806
 30
0.0
 40
10.5
 41
0.0
 71
     7
 72
     5
  1

1001
ACAD
1000
MTEXTBEGIN
1070
    73
1070
     1
1070
    44
1040
1.0
1070
    74
1070
     0
1000
MTEXTEND
  0
MTEXT
  5
55C0
330
1A
100
AcDbEntity
  8
SUNPOU
100
AcDbMText
 10
33189.96133342368
 20
28618.15636923965
 30
0.0
 40
35.0
 41
0.0
 71
     9
 72
     5
  1

1001
ACAD
1000
MTEXTBEGIN
1070
    73
1070
     1
1070
    44
1040
1.0
1070
    74
1070
     0
1000
MTEXTEND
  0
MTEXT
  5
55C1
330
1A
100
AcDbEntity
  8
SUNPOU
100
AcDbMText
 10
32098.44639099864
 20
29226.93177928834
 30
0.0
 40
350.0000004171781
 41
0.0
 71
     7
 72
     5
  1

1001
ACAD
1000
MTEXTBEGIN
1070
    73
1070
     1
1070
    44
1040
1.0
1070
    74
1070
     0
1000
MTEXTEND
  0
MTEXT
  5
55C2
330
1A
100
AcDbEntity
  8
0
100
AcDbMText
 10
38142.39714894154
 20
27206.85414142458
 30
0.0
 40
8.0
 41
0.0
 71
     7
 72
     5
  1

1001
ACAD
1000
MTEXTBEGIN
1070
    73
1070
     1
1070
    44
1040
1.0
1070
    74
1070
     0
1000
MTEXTEND
  0
MTEXT
  5
55C3
330
1A
100
AcDbEntity
  8
0
100
AcDbMText
 10
40427.75483883644
 20
28177.64443617564
 30
0.0
 40
8.0
 41
0.0
 71
     7
 72
     5
  1

1001
ACAD
1000
MTEXTBEGIN
1070
    73
1070
     1
1070
    44
1040
1.0
1070
    74
1070
     0
1000
MTEXTEND
  0
MTEXT
  5
55C4
330
1A
100
AcDbEntity
  8
SUNPOU
100
AcDbMText
 10
43093.65185951858
 20
37689.75582855077
 30
0.0
 40
10.5
 41
0.0
 71
     1
 72
     5
  1

1001
ACAD
1000
MTEXTBEGIN
1070
    73
1070
     1
1070
    44
1040
1.0
1070
    74
1070
     0
1000
MTEXTEND
  0
MTEXT
  5
55C5
330
1A
100
AcDbEntity
  8
SUNPOU
100
AcDbMText
 10
35162.72866358265
 20
36742.96269463781
 30
0.0
 40
10.5
 41
0.0
 71
     7
 72
     5
  1

1001
ACAD
1000
MTEXTBEGIN
1070
    73
1070
     1
1070
    44
1040
1.0
1070
    74
1070
     0
1000
MTEXTEND
  0
MTEXT
  5
55C6
330
1A
100
AcDbEntity
  8
SUNPOU
100
AcDbMText
 10
38111.71232809542
 20
41643.63876648065
 30
0.0
 40
10.5
 41
0.0
 71
     7
 72
     5
  1

1001
ACAD
1000
MTEXTBEGIN
1070
    73
1070
     1
1070
    44
1040
1.0
1070
    74
1070
     0
1000
MTEXTEND
  0
MTEXT
  5
55C7
330
1A
100
AcDbEntity
  8
SUNPOU
100
AcDbMText
 10
42620.79045604596
 20
44079.93951410074
 30
0.0
 40
10.5
 41
0.0
 71
     7
 72
     5
  1

1001
ACAD
1000
MTEXTBEGIN
1070
    73
1070
     1
1070
    44
1040
1.0
1070
    74
1070
     0
1000
MTEXTEND
  0
MTEXT
  5
55C8
330
1A
100
AcDbEntity
  8
SUNPOU
100
AcDbMText
 10
26221.62834281429
 20
23077.53566448964
 30
0.0
 40
10.5
 41
0.0
 71
     7
 72
     5
  1

1001
ACAD
1000
MTEXTBEGIN
1070
    73
1070
     1
1070
    44
1040
1.0
1070
    74
1070
     0
1000
MTEXTEND
  0
MTEXT
  5
55C9
330
1A
100
AcDbEntity
  8
SUNPOU
100
AcDbMText
 10
77413.14677671455
 20
68750.51622813789
 30
0.0
 40
10.5
 41
0.0
 71
     9
 72
     5
  1

1001
ACAD
1000
MTEXTBEGIN
1070
    73
1070
     1
1070
    44
1040
1.0
1070
    74
1070
     0
1000
MTEXTEND
  0
MTEXT
  5
55CA
330
1A
100
AcDbEntity
  8
SUNPOU
100
AcDbMText
 10
86135.31434263256
 20
76166.35075967536
 30
0.0
 40
10.5
 41
0.0
 71
     9
 72
     5
  1

1001
ACAD
1000
MTEXTBEGIN
1070
    73
1070
     1
1070
    44
1040
1.0
1070
    74
1070
     0
1000
MTEXTEND
  0
MTEXT
  5
55CB
330
1A
100
AcDbEntity
  8
SUNPOU
100
AcDbMText
 10
105089.0730599624
 20
93632.92681216739
 30
0.0
 40
10.5
 41
0.0
 71
     9
 72
     5
  1

1001
ACAD
1000
MTEXTBEGIN
1070
    73
1070
     1
1070
    44
1040
1.0
1070
    74
1070
     0
1000
MTEXTEND
  0
MTEXT
  5
55CC
330
1A
100
AcDbEntity
  8
SUNPOU
100
AcDbMText
 10
107032.4803066718
 20
91831.87773228937
 30
0.0
 40
3.5
 41
0.0
 71
     9
 72
     5
  1

1001
ACAD
1000
MTEXTBEGIN
1070
    73
1070
     1
1070
    44
1040
1.0
1070
    74
1070
     0
1000
MTEXTEND
  0
MTEXT
  5
55CD
330
1A
100
AcDbEntity
  8
SUNPOU
100
AcDbMText
 10
138158.6601392916
 20
134326.8233999467
 30
0.0
 40
10.5
 41
0.0
 71
     9
 72
     5
  1

1001
ACAD
1000
MTEXTBEGIN
1070
    73
1070
     1
1070
    44
1040
1.0
1070
    74
1070
     0
1000
MTEXTEND
  0
MTEXT
  5
55CE
330
1A
100
AcDbEntity
  8
SUNPOU
100
AcDbMText
 10
140102.067386001
 20
132525.7743200686
 30
0.0
 40
3.5
 41
0.0
 71
     9
 72
     5
  1

1001
ACAD
1000
MTEXTBEGIN
1070
    73
1070
     1
1070
    44
1040
1.0
1070
    74
1070
     0
1000
MTEXTEND
  0
MTEXT
  5
55CF
330
1A
100
AcDbEntity
  8
SUNPOU
100
AcDbMText
 10
88598.92784508721
 20
80159.98855492179
 30
0.0
 40
10.5
 41
0.0
 71
     9
 72
     5
  1

1001
ACAD
1000
MTEXTBEGIN
1070
    73
1070
     1
1070
    44
1040
1.0
1070
    74
1070
     0
1000
MTEXTEND
  0
MTEXT
  5
55D0
330
1A
100
AcDbEntity
  8
SUNPOU
100
AcDbMText
 10
74650.92774471121
 20
60987.58941580959
 30
0.0
 40
3.5
 41
0.0
 71
     7
 72
     5
  1

1001
ACAD
1000
MTEXTBEGIN
1070
    73
1070
     1
1070
    44
1040
1.0
1070
    74
1070
     0
1000
MTEXTEND
  0
MTEXT
  5
55D1
330
1A
100
AcDbEntity
  8
SUNPOU
100
AcDbMText
 10
55636.09714170436
 20
48749.73814662781
 30
0.0
 40
10.5
 41
0.0
 71
     7
 72
     5
  1

1001
ACAD
1000
MTEXTBEGIN
1070
    73
1070
     1
1070
    44
1040
1.0
1070
    74
1070
     0
1000
MTEXTEND
  0
MTEXT
  5
55D2
330
1A
100
AcDbEntity
  8
SUNPOU
100
AcDbMText
 10
43178.86887675626
 20
32904.80656852937
 30
0.0
 40
35.0
 41
0.0
 71
     9
 72
     5
  1

1001
ACAD
1000
MTEXTBEGIN
1070
    73
1070
     1
1070
    44
1040
1.0
1070
    74
1070
     0
1000
MTEXTEND
  0
MTEXT
  5
55D3
330
1A
100
AcDbEntity
  8
SUNPOU
100
AcDbMText
 10
42087.3539343312
 20
33513.58197857808
 30
0.0
 40
350.0000004171781
 41
0.0
 71
     7
 72
     5
  1

1001
ACAD
1000
MTEXTBEGIN
1070
    73
1070
     1
1070
    44
1040
1.0
1070
    74
1070
     0
1000
MTEXTEND
  0
MTEXT
  5
55D4
330
1A
100
AcDbEntity
  8
0
100
AcDbMText
 10
48131.30469227412
 20
31493.50434071431
 30
0.0
 40
8.0
 41
0.0
 71
     7
 72
     5
  1

1001
ACAD
1000
MTEXTBEGIN
1070
    73
1070
     1
1070
    44
1040
1.0
1070
    74
1070
     0
1000
MTEXTEND
  0
MTEXT
  5
55D5
330
1A
100
AcDbEntity
  8
0
100
AcDbMText
 10
50416.66238216901
 20
32464.29463546537
 30
0.0
 40
8.0
 41
0.0
 71
     7
 72
     5
  1

1001
ACAD
1000
MTEXTBEGIN
1070
    73
1070
     1
1070
    44
1040
1.0
1070
    74
1070
     0
1000
MTEXTEND
  0
MTEXT
  5
55D6
330
1A
100
AcDbEntity
  8
SUNPOU
100
AcDbMText
 10
53082.55940285115
 20
41976.4060278405
 30
0.0
 40
10.5
 41
0.0
 71
     1
 72
     5
  1

1001
ACAD
1000
MTEXTBEGIN
1070
    73
1070
     1
1070
    44
1040
1.0
1070
    74
1070
     0
1000
MTEXTEND
  0
MTEXT
  5
55D7
330
1A
100
AcDbEntity
  8
SUNPOU
100
AcDbMText
 10
45151.63620691521
 20
41029.61289392755
 30
0.0
 40
10.5
 41
0.0
 71
     7
 72
     5
  1

1001
ACAD
1000
MTEXTBEGIN
1070
    73
1070
     1
1070
    44
1040
1.0
1070
    74
1070
     0
1000
MTEXTEND
  0
MTEXT
  5
55D8
330
1A
100
AcDbEntity
  8
SUNPOU
100
AcDbMText
 10
48100.61987142798
 20
45930.28896577039
 30
0.0
 40
10.5
 41
0.0
 71
     7
 72
     5
  1

1001
ACAD
1000
MTEXTBEGIN
1070
    73
1070
     1
1070
    44
1040
1.0
1070
    74
1070
     0
1000
MTEXTEND
  0
MTEXT
  5
55D9
330
1A
100
AcDbEntity
  8
SUNPOU
100
AcDbMText
 10
52609.69799937853
 20
48366.58971339046
 30
0.0
 40
10.5
 41
0.0
 71
     7
 72
     5
  1

1001
ACAD
1000
MTEXTBEGIN
1070
    73
1070
     1
1070
    44
1040
1.0
1070
    74
1070
     0
1000
MTEXTEND
  0
MTEXT
  5
55DA
330
1A
100
AcDbEntity
  8
SUNPOU
100
AcDbMText
 10
36210.53588614687
 20
27364.18586377937
 30
0.0
 40
10.5
 41
0.0
 71
     7
 72
     5
  1

1001
ACAD
1000
MTEXTBEGIN
1070
    73
1070
     1
1070
    44
1040
1.0
1070
    74
1070
     0
1000
MTEXTEND
  0
MTEXT
  5
55DB
330
1A
100
AcDbEntity
  8
SUNPOU
100
AcDbMText
 10
38021.29879752181
 20
33691.59985125794
 30
0.0
 40
10.5
 41
0.0
 71
     9
 72
     5
  1

1001
ACAD
1000
MTEXTBEGIN
1070
    73
1070
     1
1070
    44
1040
1.0
1070
    74
1070
     0
1000
MTEXTEND
  0
MTEXT
  5
55DC
330
1A
100
AcDbEntity
  8
SUNPOU
100
AcDbMText
 10
46743.46636343979
 20
41107.4343827954
 30
0.0
 40
10.5
 41
0.0
 71
     9
 72
     5
  1

1001
ACAD
1000
MTEXTBEGIN
1070
    73
1070
     1
1070
    44
1040
1.0
1070
    74
1070
     0
1000
MTEXTEND
  0
MTEXT
  5
55DD
330
1A
100
AcDbEntity
  8
SUNPOU
100
AcDbMText
 10
65697.22508076974
 20
58574.01043528746
 30
0.0
 40
10.5
 41
0.0
 71
     9
 72
     5
  1

1001
ACAD
1000
MTEXTBEGIN
1070
    73
1070
     1
1070
    44
1040
1.0
1070
    74
1070
     0
1000
MTEXTEND
  0
MTEXT
  5
55DE
330
1A
100
AcDbEntity
  8
SUNPOU
100
AcDbMText
 10
67640.63232747917
 20
56772.96135540945
 30
0.0
 40
3.5
 41
0.0
 71
     9
 72
     5
  1

1001
ACAD
1000
MTEXTBEGIN
1070
    73
1070
     1
1070
    44
1040
1.0
1070
    74
1070
     0
1000
MTEXTEND
  0
MTEXT
  5
55DF
330
1A
100
AcDbEntity
  8
SUNPOU
100
AcDbMText
 10
98766.81216009886
 20
99267.9070230668
 30
0.0
 40
10.5
 41
0.0
 71
     9
 72
     5
  1

1001
ACAD
1000
MTEXTBEGIN
1070
    73
1070
     1
1070
    44
1040
1.0
1070
    74
1070
     0
1000
MTEXTEND
  0
MTEXT
  5
55E0
330
1A
100
AcDbEntity
  8
SUNPOU
100
AcDbMText
 10
100710.2194068083
 20
97466.85794318876
 30
0.0
 40
3.5
 41
0.0
 71
     9
 72
     5
  1

1001
ACAD
1000
MTEXTBEGIN
1070
    73
1070
     1
1070
    44
1040
1.0
1070
    74
1070
     0
1000
MTEXTEND
  0
MTEXT
  5
55E1
330
1A
100
AcDbEntity
  8
SUNPOU
100
AcDbMText
 10
49207.07986589443
 20
45101.07217804184
 30
0.0
 40
10.5
 41
0.0
 71
     9
 72
     5
  1

1001
ACAD
1000
MTEXTBEGIN
1070
    73
1070
     1
1070
    44
1040
1.0
1070
    74
1070
     0
1000
MTEXTEND
  0
MTEXT
  5
55E2
330
1A
100
AcDbEntity
  8
SUNPOU
100
AcDbMText
 10
35259.07976551845
 20
25928.67303892964
 30
0.0
 40
3.5
 41
0.0
 71
     7
 72
     5
  1

1001
ACAD
1000
MTEXTBEGIN
1070
    73
1070
     1
1070
    44
1040
1.0
1070
    74
1070
     0
1000
MTEXTEND
  0
MTEXT
  5
55E3
330
1A
100
AcDbEntity
  8
SUNPOU
100
AcDbMText
 10
48951.43044828905
 20
35287.73625995099
 30
0.0
 40
10.5
 41
0.0
 71
     9
 72
     5
  1

1001
ACAD
1000
MTEXTBEGIN
1070
    73
1070
     1
1070
    44
1040
1.0
1070
    74
1070
     0
1000
MTEXTEND
  0
MTEXT
  5
55E4
330
1A
100
AcDbEntity
  8
SUNPOU
100
AcDbMText
 10
57673.59801420702
 20
42703.57079148847
 30
0.0
 40
10.5
 41
0.0
 71
     9
 72
     5
  1

1001
ACAD
1000
MTEXTBEGIN
1070
    73
1070
     1
1070
    44
1040
1.0
1070
    74
1070
     0
1000
MTEXTEND
  0
MTEXT
  5
55E5
330
1A
100
AcDbEntity
  8
SUNPOU
100
AcDbMText
 10
76627.35673153699
 20
60170.14684398051
 30
0.0
 40
10.5
 41
0.0
 71
     9
 72
     5
  1

1001
ACAD
1000
MTEXTBEGIN
1070
    73
1070
     1
1070
    44
1040
1.0
1070
    74
1070
     0
1000
MTEXTEND
  0
MTEXT
  5
55E6
330
1A
100
AcDbEntity
  8
SUNPOU
100
AcDbMText
 10
78570.76397824641
 20
58369.09776410251
 30
0.0
 40
3.5
 41
0.0
 71
     9
 72
     5
  1

1001
ACAD
1000
MTEXTBEGIN
1070
    73
1070
     1
1070
    44
1040
1.0
1070
    74
1070
     0
1000
MTEXTEND
  0
MTEXT
  5
55E7
330
1A
100
AcDbEntity
  8
SUNPOU
100
AcDbMText
 10
109696.943810866
 20
100864.0434317598
 30
0.0
 40
10.5
 41
0.0
 71
     9
 72
     5
  1

1001
ACAD
1000
MTEXTBEGIN
1070
    73
1070
     1
1070
    44
1040
1.0
1070
    74
1070
     0
1000
MTEXTEND
  0
MTEXT
  5
55E8
330
1A
100
AcDbEntity
  8
SUNPOU
100
AcDbMText
 10
111640.3510575755
 20
99062.99435188183
 30
0.0
 40
3.5
 41
0.0
 71
     9
 72
     5
  1

1001
ACAD
1000
MTEXTBEGIN
1070
    73
1070
     1
1070
    44
1040
1.0
1070
    74
1070
     0
1000
MTEXTEND
  0
MTEXT
  5
55E9
330
1A
100
AcDbEntity
  8
SUNPOU
100
AcDbMText
 10
60137.21151666167
 20
46697.20858673491
 30
0.0
 40
10.5
 41
0.0
 71
     9
 72
     5
  1

1001
ACAD
1000
MTEXTBEGIN
1070
    73
1070
     1
1070
    44
1040
1.0
1070
    74
1070
     0
1000
MTEXTEND
  0
MTEXT
  5
55EA
330
1A
100
AcDbEntity
  8
SUNPOU
100
AcDbMText
 10
46189.21141628568
 20
27524.80944762269
 30
0.0
 40
3.5
 41
0.0
 71
     7
 72
     5
  1

1001
ACAD
1000
MTEXTBEGIN
1070
    73
1070
     1
1070
    44
1040
1.0
1070
    74
1070
     0
1000
MTEXTEND
  0
MTEXT
  5
55EB
330
1A
100
AcDbEntity
  8
SUNPOU
100
AcDbMText
 10
45007.68847015541
 20
38269.57947701873
 30
0.0
 40
10.5
 41
0.0
 71
     9
 72
     5
  1

1001
ACAD
1000
MTEXTBEGIN
1070
    73
1070
     1
1070
    44
1040
1.0
1070
    74
1070
     0
1000
MTEXTEND
  0
MTEXT
  5
55EC
330
1A
100
AcDbEntity
  8
SUNPOU
100
AcDbMText
 10
63961.44718748539
 20
55736.15552951081
 30
0.0
 40
10.5
 41
0.0
 71
     9
 72
     5
  1

1001
ACAD
1000
MTEXTBEGIN
1070
    73
1070
     1
1070
    44
1040
1.0
1070
    74
1070
     0
1000
MTEXTEND
  0
MTEXT
  5
55ED
330
1A
100
AcDbEntity
  8
SUNPOU
100
AcDbMText
 10
65904.85443419479
 20
53935.10644963278
 30
0.0
 40
3.5
 41
0.0
 71
     9
 72
     5
  1

1001
ACAD
1000
MTEXTBEGIN
1070
    73
1070
     1
1070
    44
1040
1.0
1070
    74
1070
     0
1000
MTEXTEND
  0
MTEXT
  5
55EE
330
1A
100
AcDbEntity
  8
SUNPOU
100
AcDbMText
 10
97031.03426681453
 20
96430.05211729015
 30
0.0
 40
10.5
 41
0.0
 71
     9
 72
     5
  1

1001
ACAD
1000
MTEXTBEGIN
1070
    73
1070
     1
1070
    44
1040
1.0
1070
    74
1070
     0
1000
MTEXTEND
  0
MTEXT
  5
55EF
330
1A
100
AcDbEntity
  8
SUNPOU
100
AcDbMText
 10
98974.44151352393
 20
94629.00303741212
 30
0.0
 40
3.5
 41
0.0
 71
     9
 72
     5
  1

1001
ACAD
1000
MTEXTBEGIN
1070
    73
1070
     1
1070
    44
1040
1.0
1070
    74
1070
     0
1000
MTEXTEND
  0
MTEXT
  5
55F0
330
1A
100
AcDbEntity
  8
SUNPOU
100
AcDbMText
 10
47471.30197261006
 20
42263.21727226519
 30
0.0
 40
10.5
 41
0.0
 71
     9
 72
     5
  1

1001
ACAD
1000
MTEXTBEGIN
1070
    73
1070
     1
1070
    44
1040
1.0
1070
    74
1070
     0
1000
MTEXTEND
  0
MTEXT
  5
55F1
330
1A
100
AcDbEntity
  8
SUNPOU
100
AcDbMText
 10
33523.30187223408
 20
23090.81813315298
 30
0.0
 40
3.5
 41
0.0
 71
     7
 72
     5
  1

1001
ACAD
1000
MTEXTBEGIN
1070
    73
1070
     1
1070
    44
1040
1.0
1070
    74
1070
     0
1000
MTEXTEND
  0
MTEXT
  5
55F2
330
1A
100
AcDbEntity
  8
SUNPOU
100
AcDbMText
 10
57959.46254102503
 20
50038.08111611014
 30
0.0
 40
10.5
 41
0.0
 71
     9
 72
     5
  1

1001
ACAD
1000
MTEXTBEGIN
1070
    73
1070
     1
1070
    44
1040
1.0
1070
    74
1070
     0
1000
MTEXTEND
  0
MTEXT
  5
55F3
330
1A
100
AcDbEntity
  8
SUNPOU
100
AcDbMText
 10
76913.22125835503
 20
67504.65716860222
 30
0.0
 40
10.5
 41
0.0
 71
     9
 72
     5
  1

1001
ACAD
1000
MTEXTBEGIN
1070
    73
1070
     1
1070
    44
1040
1.0
1070
    74
1070
     0
1000
MTEXTEND
  0
MTEXT
  5
55F4
330
1A
100
AcDbEntity
  8
SUNPOU
100
AcDbMText
 10
78856.62850506443
 20
65703.6080887242
 30
0.0
 40
3.5
 41
0.0
 71
     9
 72
     5
  1

1001
ACAD
1000
MTEXTBEGIN
1070
    73
1070
     1
1070
    44
1040
1.0
1070
    74
1070
     0
1000
MTEXTEND
  0
MTEXT
  5
55F5
330
1A
100
AcDbEntity
  8
SUNPOU
100
AcDbMText
 10
109982.8083376841
 20
108198.5537563815
 30
0.0
 40
10.5
 41
0.0
 71
     9
 72
     5
  1

1001
ACAD
1000
MTEXTBEGIN
1070
    73
1070
     1
1070
    44
1040
1.0
1070
    74
1070
     0
1000
MTEXTEND
  0
MTEXT
  5
55F6
330
1A
100
AcDbEntity
  8
SUNPOU
100
AcDbMText
 10
111926.2155843933
 20
106397.5046765035
 30
0.0
 40
3.5
 41
0.0
 71
     9
 72
     5
  1

1001
ACAD
1000
MTEXTBEGIN
1070
    73
1070
     1
1070
    44
1040
1.0
1070
    74
1070
     0
1000
MTEXTEND
  0
MTEXT
  5
55F7
330
1A
100
AcDbEntity
  8
SUNPOU
100
AcDbMText
 10
60423.07604347968
 20
54031.71891135658
 30
0.0
 40
10.5
 41
0.0
 71
     9
 72
     5
  1

1001
ACAD
1000
MTEXTBEGIN
1070
    73
1070
     1
1070
    44
1040
1.0
1070
    74
1070
     0
1000
MTEXTEND
  0
MTEXT
  5
55F8
330
1A
100
AcDbEntity
  8
SUNPOU
100
AcDbMText
 10
46475.07594310369
 20
34859.3197722444
 30
0.0
 40
3.5
 41
0.0
 71
     7
 72
     5
  1

1001
ACAD
1000
MTEXTBEGIN
1070
    73
1070
     1
1070
    44
1040
1.0
1070
    74
1070
     0
1000
MTEXTEND
  0
MTEXT
  5
55F9
330
1A
100
AcDbEntity
  8
SUNPOU
100
AcDbMText
 10
74027.35402123588
 20
68370.58278833383
 30
0.0
 40
10.5
 41
0.0
 71
     9
 72
     5
  1

1001
ACAD
1000
MTEXTBEGIN
1070
    73
1070
     1
1070
    44
1040
1.0
1070
    74
1070
     0
1000
MTEXTEND
  0
MTEXT
  5
55FA
330
1A
100
AcDbEntity
  8
SUNPOU
100
AcDbMText
 10
75970.7612679453
 20
66569.53370845583
 30
0.0
 40
3.5
 41
0.0
 71
     9
 72
     5
  1

1001
ACAD
1000
MTEXTBEGIN
1070
    73
1070
     1
1070
    44
1040
1.0
1070
    74
1070
     0
1000
MTEXTEND
  0
MTEXT
  5
55FB
330
1A
100
AcDbEntity
  8
SUNPOU
100
AcDbMText
 10
107096.941100565
 20
109064.4793761132
 30
0.0
 40
10.5
 41
0.0
 71
     9
 72
     5
  1

1001
ACAD
1000
MTEXTBEGIN
1070
    73
1070
     1
1070
    44
1040
1.0
1070
    74
1070
     0
1000
MTEXTEND
  0
MTEXT
  5
55FC
330
1A
100
AcDbEntity
  8
SUNPOU
100
AcDbMText
 10
109040.3483472744
 20
107263.430296235
 30
0.0
 40
3.5
 41
0.0
 71
     9
 72
     5
  1

1001
ACAD
1000
MTEXTBEGIN
1070
    73
1070
     1
1070
    44
1040
1.0
1070
    74
1070
     0
1000
MTEXTEND
  0
MTEXT
  5
55FD
330
1A
100
AcDbEntity
  8
SUNPOU
100
AcDbMText
 10
105709.1709283621
 20
108141.3777665285
 30
0.0
 40
10.5
 41
0.0
 71
     9
 72
     5
  1

1001
ACAD
1000
MTEXTBEGIN
1070
    73
1070
     1
1070
    44
1040
1.0
1070
    74
1070
     0
1000
MTEXTEND
  0
MTEXT
  5
55FE
330
1A
100
AcDbEntity
  8
SUNPOU
100
AcDbMText
 10
107652.5781750715
 20
106340.3286866505
 30
0.0
 40
3.5
 41
0.0
 71
     9
 72
     5
  1

1001
ACAD
1000
MTEXTBEGIN
1070
    73
1070
     1
1070
    44
1040
1.0
1070
    74
1070
     0
1000
MTEXTEND
  0
MTEXT
  5
55FF
330
1A
100
AcDbEntity
  8
SUNPOU
100
AcDbMText
 10
73193.09268743351
 20
66158.78082845057
 30
0.0
 40
10.5
 41
0.0
 71
     9
 72
     5
  1

1001
ACAD
1000
MTEXTBEGIN
1070
    73
1070
     1
1070
    44
1040
1.0
1070
    74
1070
     0
1000
MTEXTEND
  0
MTEXT
  5
5600
330
1A
100
AcDbEntity
  8
SUNPOU
100
AcDbMText
 10
75916.39889159807
 20
66563.46252003162
 30
0.0
 40
3.5
 41
0.0
 71
     9
 72
     5
  1

1001
ACAD
1000
MTEXTBEGIN
1070
    73
1070
     1
1070
    44
1040
1.0
1070
    74
1070
     0
1000
MTEXTEND
  0
MTEXT
  5
5601
330
1A
100
AcDbEntity
  8
SUNPOU
100
AcDbMText
 10
75124.04436649058
 20
63402.1566819768
 30
0.0
 40
10.5
 41
0.0
 71
     9
 72
     5
  1

1001
ACAD
1000
MTEXTBEGIN
1070
    73
1070
     1
1070
    44
1040
1.0
1070
    74
1070
     0
1000
MTEXTEND
  0
MTEXT
  5
5602
330
1A
100
AcDbEntity
  8
SUNPOU
100
AcDbMText
 10
77067.4516132
 20
61601.1076020988
 30
0.0
 40
3.5
 41
0.0
 71
     9
 72
     5
  1

1001
ACAD
1000
MTEXTBEGIN
1070
    73
1070
     1
1070
    44
1040
1.0
1070
    74
1070
     0
1000
MTEXTEND
  0
MTEXT
  5
5603
330
1A
100
AcDbEntity
  8
SUNPOU
100
AcDbMText
 10
77012.54710378659
 20
61488.33571981449
 30
0.0
 40
3.5
 41
0.0
 71
     9
 72
     5
  1

1001
ACAD
1000
MTEXTBEGIN
1070
    73
1070
     1
1070
    44
1040
1.0
1070
    74
1070
     0
1000
MTEXTEND
  0
MTEXT
  5
5604
330
1A
100
AcDbEntity
  8
SUNPOU
100
AcDbMText
 10
76376.61896736668
 20
60677.01447874798
 30
0.0
 40
3.5
 41
0.0
 71
     9
 72
     5
  1

1001
ACAD
1000
MTEXTBEGIN
1070
    73
1070
     1
1070
    44
1040
1.0
1070
    74
1070
     0
1000
MTEXTEND
  0
MTEXT
  5
5605
330
1A
100
AcDbEntity
  8
SUNPOU
100
AcDbMText
 10
76375.37854794595
 20
60676.76650181048
 30
0.0
 40
10.5
 41
0.0
 71
     9
 72
     5
  1

1001
ACAD
1000
MTEXTBEGIN
1070
    73
1070
     1
1070
    44
1040
1.0
1070
    74
1070
     0
1000
MTEXTEND
  0
MTEXT
  5
5606
330
1A
100
AcDbEntity
  8
SUNPOU
100
AcDbMText
 10
84709.93991079748
 20
78034.0328293557
 30
0.0
 40
10.5
 41
0.0
 71
     9
 72
     5
  1

1001
ACAD
1000
MTEXTBEGIN
1070
    73
1070
     1
1070
    44
1040
1.0
1070
    74
1070
     0
1000
MTEXTEND
  0
MTEXT
  5
5607
330
1A
100
AcDbEntity
  8
SUNPOU
100
AcDbMText
 10
93432.10747671546
 20
85449.86736089315
 30
0.0
 40
10.5
 41
0.0
 71
     9
 72
     5
  1

1001
ACAD
1000
MTEXTBEGIN
1070
    73
1070
     1
1070
    44
1040
1.0
1070
    74
1070
     0
1000
MTEXTEND
  0
MTEXT
  5
5608
330
1A
100
AcDbEntity
  8
SUNPOU
100
AcDbMText
 10
112385.8661940454
 20
102916.4434133851
 30
0.0
 40
10.5
 41
0.0
 71
     9
 72
     5
  1

1001
ACAD
1000
MTEXTBEGIN
1070
    73
1070
     1
1070
    44
1040
1.0
1070
    74
1070
     0
1000
MTEXTEND
  0
MTEXT
  5
5609
330
1A
100
AcDbEntity
  8
SUNPOU
100
AcDbMText
 10
114329.2734407548
 20
101115.3943335072
 30
0.0
 40
3.5
 41
0.0
 71
     9
 72
     5
  1

1001
ACAD
1000
MTEXTBEGIN
1070
    73
1070
     1
1070
    44
1040
1.0
1070
    74
1070
     0
1000
MTEXTEND
  0
MTEXT
  5
560A
330
1A
100
AcDbEntity
  8
SUNPOU
100
AcDbMText
 10
145455.4532733745
 20
143610.3400011645
 30
0.0
 40
10.5
 41
0.0
 71
     9
 72
     5
  1

1001
ACAD
1000
MTEXTBEGIN
1070
    73
1070
     1
1070
    44
1040
1.0
1070
    74
1070
     0
1000
MTEXTEND
  0
MTEXT
  5
560B
330
1A
100
AcDbEntity
  8
SUNPOU
100
AcDbMText
 10
147398.8605200839
 20
141809.2909212864
 30
0.0
 40
3.5
 41
0.0
 71
     9
 72
     5
  1

1001
ACAD
1000
MTEXTBEGIN
1070
    73
1070
     1
1070
    44
1040
1.0
1070
    74
1070
     0
1000
MTEXTEND
  0
MTEXT
  5
560C
330
1A
100
AcDbEntity
  8
SUNPOU
100
AcDbMText
 10
95895.72097917011
 20
89443.50515613962
 30
0.0
 40
10.5
 41
0.0
 71
     9
 72
     5
  1

1001
ACAD
1000
MTEXTBEGIN
1070
    73
1070
     1
1070
    44
1040
1.0
1070
    74
1070
     0
1000
MTEXTEND
  0
MTEXT
  5
560D
330
1A
100
AcDbEntity
  8
SUNPOU
100
AcDbMText
 10
81947.72087879414
 20
70271.1060170274
 30
0.0
 40
3.5
 41
0.0
 71
     7
 72
     5
  1

1001
ACAD
1000
MTEXTBEGIN
1070
    73
1070
     1
1070
    44
1040
1.0
1070
    74
1070
     0
1000
MTEXTEND
  0
MTEXT
  5
560E
330
1A
100
AcDbEntity
  8
SUNPOU
100
AcDbMText
 10
62932.89027578729
 20
58033.25474784561
 30
0.0
 40
10.5
 41
0.0
 71
     7
 72
     5
  1

1001
ACAD
1000
MTEXTBEGIN
1070
    73
1070
     1
1070
    44
1040
1.0
1070
    74
1070
     0
1000
MTEXTEND
  0
MTEXT
  5
560F
330
1A
100
AcDbEntity
  8
SUNPOU
100
AcDbMText
 10
50475.66201083918
 20
42188.32316974718
 30
0.0
 40
35.0
 41
0.0
 71
     9
 72
     5
  1

1001
ACAD
1000
MTEXTBEGIN
1070
    73
1070
     1
1070
    44
1040
1.0
1070
    74
1070
     0
1000
MTEXTEND
  0
MTEXT
  5
5610
330
1A
100
AcDbEntity
  8
SUNPOU
100
AcDbMText
 10
49384.14706841413
 20
42797.0985797959
 30
0.0
 40
350.0000004171781
 41
0.0
 71
     7
 72
     5
  1

1001
ACAD
1000
MTEXTBEGIN
1070
    73
1070
     1
1070
    44
1040
1.0
1070
    74
1070
     0
1000
MTEXTEND
  0
MTEXT
  5
5611
330
1A
100
AcDbEntity
  8
0
100
AcDbMText
 10
55428.09782635704
 20
40777.0209419321
 30
0.0
 40
8.0
 41
0.0
 71
     7
 72
     5
  1

1001
ACAD
1000
MTEXTBEGIN
1070
    73
1070
     1
1070
    44
1040
1.0
1070
    74
1070
     0
1000
MTEXTEND
  0
MTEXT
  5
5612
330
1A
100
AcDbEntity
  8
0
100
AcDbMText
 10
57713.45551625192
 20
41747.81123668316
 30
0.0
 40
8.0
 41
0.0
 71
     7
 72
     5
  1

1001
ACAD
1000
MTEXTBEGIN
1070
    73
1070
     1
1070
    44
1040
1.0
1070
    74
1070
     0
1000
MTEXTEND
  0
MTEXT
  5
5613
330
1A
100
AcDbEntity
  8
SUNPOU
100
AcDbMText
 10
60379.35253693407
 20
51259.9226290583
 30
0.0
 40
10.5
 41
0.0
 71
     1
 72
     5
  1

1001
ACAD
1000
MTEXTBEGIN
1070
    73
1070
     1
1070
    44
1040
1.0
1070
    74
1070
     0
1000
MTEXTEND
  0
MTEXT
  5
5614
330
1A
100
AcDbEntity
  8
SUNPOU
100
AcDbMText
 10
52448.42934099813
 20
50313.12949514535
 30
0.0
 40
10.5
 41
0.0
 71
     7
 72
     5
  1

1001
ACAD
1000
MTEXTBEGIN
1070
    73
1070
     1
1070
    44
1040
1.0
1070
    74
1070
     0
1000
MTEXTEND
  0
MTEXT
  5
5615
330
1A
100
AcDbEntity
  8
SUNPOU
100
AcDbMText
 10
55397.4130055109
 20
55213.80556698819
 30
0.0
 40
10.5
 41
0.0
 71
     7
 72
     5
  1

1001
ACAD
1000
MTEXTBEGIN
1070
    73
1070
     1
1070
    44
1040
1.0
1070
    74
1070
     0
1000
MTEXTEND
  0
MTEXT
  5
5616
330
1A
100
AcDbEntity
  8
SUNPOU
100
AcDbMText
 10
59906.49113346147
 20
57650.10631460826
 30
0.0
 40
10.5
 41
0.0
 71
     7
 72
     5
  1

1001
ACAD
1000
MTEXTBEGIN
1070
    73
1070
     1
1070
    44
1040
1.0
1070
    74
1070
     0
1000
MTEXTEND
  0
MTEXT
  5
5617
330
1A
100
AcDbEntity
  8
SUNPOU
100
AcDbMText
 10
43507.32902022977
 20
36647.70246499718
 30
0.0
 40
10.5
 41
0.0
 71
     7
 72
     5
  1

1001
ACAD
1000
MTEXTBEGIN
1070
    73
1070
     1
1070
    44
1040
1.0
1070
    74
1070
     0
1000
MTEXTEND
  0
MTEXT
  5
5618
330
1A
100
AcDbEntity
  8
SUNPOU
100
AcDbMText
 10
94698.84745413006
 20
82320.68302864544
 30
0.0
 40
10.5
 41
0.0
 71
     9
 72
     5
  1

1001
ACAD
1000
MTEXTBEGIN
1070
    73
1070
     1
1070
    44
1040
1.0
1070
    74
1070
     0
1000
MTEXTEND
  0
MTEXT
  5
5619
330
1A
100
AcDbEntity
  8
SUNPOU
100
AcDbMText
 10
103421.015020048
 20
89736.5175601829
 30
0.0
 40
10.5
 41
0.0
 71
     9
 72
     5
  1

1001
ACAD
1000
MTEXTBEGIN
1070
    73
1070
     1
1070
    44
1040
1.0
1070
    74
1070
     0
1000
MTEXTEND
  0
MTEXT
  5
561A
330
1A
100
AcDbEntity
  8
SUNPOU
100
AcDbMText
 10
122374.773737378
 20
107203.0936126749
 30
0.0
 40
10.5
 41
0.0
 71
     9
 72
     5
  1

1001
ACAD
1000
MTEXTBEGIN
1070
    73
1070
     1
1070
    44
1040
1.0
1070
    74
1070
     0
1000
MTEXTEND
  0
MTEXT
  5
561B
330
1A
100
AcDbEntity
  8
SUNPOU
100
AcDbMText
 10
124318.1809840874
 20
105402.0445327969
 30
0.0
 40
3.5
 41
0.0
 71
     9
 72
     5
  1

1001
ACAD
1000
MTEXTBEGIN
1070
    73
1070
     1
1070
    44
1040
1.0
1070
    74
1070
     0
1000
MTEXTEND
  0
MTEXT
  5
561C
330
1A
100
AcDbEntity
  8
SUNPOU
100
AcDbMText
 10
155444.3608167071
 20
147896.9902004542
 30
0.0
 40
10.5
 41
0.0
 71
     9
 72
     5
  1

1001
ACAD
1000
MTEXTBEGIN
1070
    73
1070
     1
1070
    44
1040
1.0
1070
    74
1070
     0
1000
MTEXTEND
  0
MTEXT
  5
561D
330
1A
100
AcDbEntity
  8
SUNPOU
100
AcDbMText
 10
157387.7680634165
 20
146095.9411205762
 30
0.0
 40
3.5
 41
0.0
 71
     9
 72
     5
  1

1001
ACAD
1000
MTEXTBEGIN
1070
    73
1070
     1
1070
    44
1040
1.0
1070
    74
1070
     0
1000
MTEXTEND
  0
MTEXT
  5
561E
330
1A
100
AcDbEntity
  8
SUNPOU
100
AcDbMText
 10
105884.6285225027
 20
93730.15535542933
 30
0.0
 40
10.5
 41
0.0
 71
     9
 72
     5
  1

1001
ACAD
1000
MTEXTBEGIN
1070
    73
1070
     1
1070
    44
1040
1.0
1070
    74
1070
     0
1000
MTEXTEND
  0
MTEXT
  5
561F
330
1A
100
AcDbEntity
  8
SUNPOU
100
AcDbMText
 10
91936.6284221267
 20
74557.75621631714
 30
0.0
 40
3.5
 41
0.0
 71
     7
 72
     5
  1

1001
ACAD
1000
MTEXTBEGIN
1070
    73
1070
     1
1070
    44
1040
1.0
1070
    74
1070
     0
1000
MTEXTEND
  0
MTEXT
  5
5620
330
1A
100
AcDbEntity
  8
SUNPOU
100
AcDbMText
 10
72921.79781911986
 20
62319.90494713532
 30
0.0
 40
10.5
 41
0.0
 71
     7
 72
     5
  1

1001
ACAD
1000
MTEXTBEGIN
1070
    73
1070
     1
1070
    44
1040
1.0
1070
    74
1070
     0
1000
MTEXTEND
  0
MTEXT
  5
5621
330
1A
100
AcDbEntity
  8
SUNPOU
100
AcDbMText
 10
60464.56955417175
 20
46474.97336903692
 30
0.0
 40
35.0
 41
0.0
 71
     9
 72
     5
  1

1001
ACAD
1000
MTEXTBEGIN
1070
    73
1070
     1
1070
    44
1040
1.0
1070
    74
1070
     0
1000
MTEXTEND
  0
MTEXT
  5
5622
330
1A
100
AcDbEntity
  8
SUNPOU
100
AcDbMText
 10
59373.05461174673
 20
47083.74877908561
 30
0.0
 40
350.0000004171781
 41
0.0
 71
     7
 72
     5
  1

1001
ACAD
1000
MTEXTBEGIN
1070
    73
1070
     1
1070
    44
1040
1.0
1070
    74
1070
     0
1000
MTEXTEND
  0
MTEXT
  5
5623
330
1A
100
AcDbEntity
  8
0
100
AcDbMText
 10
65417.00536968963
 20
45063.67114122186
 30
0.0
 40
8.0
 41
0.0
 71
     7
 72
     5
  1

1001
ACAD
1000
MTEXTBEGIN
1070
    73
1070
     1
1070
    44
1040
1.0
1070
    74
1070
     0
1000
MTEXTEND
  0
MTEXT
  5
5624
330
1A
100
AcDbEntity
  8
0
100
AcDbMText
 10
67702.36305958452
 20
46034.46143597292
 30
0.0
 40
8.0
 41
0.0
 71
     7
 72
     5
  1

1001
ACAD
1000
MTEXTBEGIN
1070
    73
1070
     1
1070
    44
1040
1.0
1070
    74
1070
     0
1000
MTEXTEND
  0
MTEXT
  5
5625
330
1A
100
AcDbEntity
  8
SUNPOU
100
AcDbMText
 10
70368.26008026666
 20
55546.57282834803
 30
0.0
 40
10.5
 41
0.0
 71
     1
 72
     5
  1

1001
ACAD
1000
MTEXTBEGIN
1070
    73
1070
     1
1070
    44
1040
1.0
1070
    74
1070
     0
1000
MTEXTEND
  0
MTEXT
  5
5626
330
1A
100
AcDbEntity
  8
SUNPOU
100
AcDbMText
 10
62437.33688433072
 20
54599.77969443507
 30
0.0
 40
10.5
 41
0.0
 71
     7
 72
     5
  1

1001
ACAD
1000
MTEXTBEGIN
1070
    73
1070
     1
1070
    44
1040
1.0
1070
    74
1070
     0
1000
MTEXTEND
  0
MTEXT
  5
5627
330
1A
100
AcDbEntity
  8
SUNPOU
100
AcDbMText
 10
65386.32054884347
 20
59500.45576627792
 30
0.0
 40
10.5
 41
0.0
 71
     7
 72
     5
  1

1001
ACAD
1000
MTEXTBEGIN
1070
    73
1070
     1
1070
    44
1040
1.0
1070
    74
1070
     0
1000
MTEXTEND
  0
MTEXT
  5
5628
330
1A
100
AcDbEntity
  8
SUNPOU
100
AcDbMText
 10
69895.39867679405
 20
61936.756513898
 30
0.0
 40
10.5
 41
0.0
 71
     7
 72
     5
  1

1001
ACAD
1000
MTEXTBEGIN
1070
    73
1070
     1
1070
    44
1040
1.0
1070
    74
1070
     0
1000
MTEXTEND
  0
MTEXT
  5
5629
330
1A
100
AcDbEntity
  8
SUNPOU
100
AcDbMText
 10
53496.23656356237
 20
40934.35266428691
 30
0.0
 40
10.5
 41
0.0
 71
     7
 72
     5
  1

1001
ACAD
1000
MTEXTBEGIN
1070
    73
1070
     1
1070
    44
1040
1.0
1070
    74
1070
     0
1000
MTEXTEND
  0
MTEXT
  5
562A
330
1A
100
AcDbEntity
  8
SUNPOU
100
AcDbMText
 10
55306.99947493731
 20
47261.76665176546
 30
0.0
 40
10.5
 41
0.0
 71
     9
 72
     5
  1

1001
ACAD
1000
MTEXTBEGIN
1070
    73
1070
     1
1070
    44
1040
1.0
1070
    74
1070
     0
1000
MTEXTEND
  0
MTEXT
  5
562B
330
1A
100
AcDbEntity
  8
SUNPOU
100
AcDbMText
 10
64029.16704085527
 20
54677.60118330295
 30
0.0
 40
10.5
 41
0.0
 71
     9
 72
     5
  1

1001
ACAD
1000
MTEXTBEGIN
1070
    73
1070
     1
1070
    44
1040
1.0
1070
    74
1070
     0
1000
MTEXTEND
  0
MTEXT
  5
562C
330
1A
100
AcDbEntity
  8
SUNPOU
100
AcDbMText
 10
82982.92575818527
 20
72144.17723579499
 30
0.0
 40
10.5
 41
0.0
 71
     9
 72
     5
  1

1001
ACAD
1000
MTEXTBEGIN
1070
    73
1070
     1
1070
    44
1040
1.0
1070
    74
1070
     0
1000
MTEXTEND
  0
MTEXT
  5
562D
330
1A
100
AcDbEntity
  8
SUNPOU
100
AcDbMText
 10
84926.33300489467
 20
70343.12815591697
 30
0.0
 40
3.5
 41
0.0
 71
     9
 72
     5
  1

1001
ACAD
1000
MTEXTBEGIN
1070
    73
1070
     1
1070
    44
1040
1.0
1070
    74
1070
     0
1000
MTEXTEND
  0
MTEXT
  5
562E
330
1A
100
AcDbEntity
  8
SUNPOU
100
AcDbMText
 10
116052.5128375142
 20
112838.0738235742
 30
0.0
 40
10.5
 41
0.0
 71
     9
 72
     5
  1

1001
ACAD
1000
MTEXTBEGIN
1070
    73
1070
     1
1070
    44
1040
1.0
1070
    74
1070
     0
1000
MTEXTEND
  0
MTEXT
  5
562F
330
1A
100
AcDbEntity
  8
SUNPOU
100
AcDbMText
 10
117995.9200842238
 20
111037.0247436963
 30
0.0
 40
3.5
 41
0.0
 71
     9
 72
     5
  1

1001
ACAD
1000
MTEXTBEGIN
1070
    73
1070
     1
1070
    44
1040
1.0
1070
    74
1070
     0
1000
MTEXTEND
  0
MTEXT
  5
5630
330
1A
100
AcDbEntity
  8
SUNPOU
100
AcDbMText
 10
66492.78054330994
 20
58671.23897854939
 30
0.0
 40
10.5
 41
0.0
 71
     9
 72
     5
  1

1001
ACAD
1000
MTEXTBEGIN
1070
    73
1070
     1
1070
    44
1040
1.0
1070
    74
1070
     0
1000
MTEXTEND
  0
MTEXT
  5
5631
330
1A
100
AcDbEntity
  8
SUNPOU
100
AcDbMText
 10
52544.78044293397
 20
39498.83983943717
 30
0.0
 40
3.5
 41
0.0
 71
     7
 72
     5
  1

1001
ACAD
1000
MTEXTBEGIN
1070
    73
1070
     1
1070
    44
1040
1.0
1070
    74
1070
     0
1000
MTEXTEND
  0
MTEXT
  5
5632
330
1A
100
AcDbEntity
  8
SUNPOU
100
AcDbMText
 10
66237.13112570454
 20
48857.90306045851
 30
0.0
 40
10.5
 41
0.0
 71
     9
 72
     5
  1

1001
ACAD
1000
MTEXTBEGIN
1070
    73
1070
     1
1070
    44
1040
1.0
1070
    74
1070
     0
1000
MTEXTEND
  0
MTEXT
  5
5633
330
1A
100
AcDbEntity
  8
SUNPOU
100
AcDbMText
 10
74959.29869162253
 20
56273.73759199598
 30
0.0
 40
10.5
 41
0.0
 71
     9
 72
     5
  1

1001
ACAD
1000
MTEXTBEGIN
1070
    73
1070
     1
1070
    44
1040
1.0
1070
    74
1070
     0
1000
MTEXTEND
  0
MTEXT
  5
5634
330
1A
100
AcDbEntity
  8
SUNPOU
100
AcDbMText
 10
93913.0574089525
 20
73740.31364448805
 30
0.0
 40
10.5
 41
0.0
 71
     9
 72
     5
  1

1001
ACAD
1000
MTEXTBEGIN
1070
    73
1070
     1
1070
    44
1040
1.0
1070
    74
1070
     0
1000
MTEXTEND
  0
MTEXT
  5
5635
330
1A
100
AcDbEntity
  8
SUNPOU
100
AcDbMText
 10
95856.46465566192
 20
71939.26456461004
 30
0.0
 40
3.5
 41
0.0
 71
     9
 72
     5
  1

1001
ACAD
1000
MTEXTBEGIN
1070
    73
1070
     1
1070
    44
1040
1.0
1070
    74
1070
     0
1000
MTEXTEND
  0
MTEXT
  5
5636
330
1A
100
AcDbEntity
  8
SUNPOU
100
AcDbMText
 10
126982.6444882816
 20
114434.2102322673
 30
0.0
 40
10.5
 41
0.0
 71
     9
 72
     5
  1

1001
ACAD
1000
MTEXTBEGIN
1070
    73
1070
     1
1070
    44
1040
1.0
1070
    74
1070
     0
1000
MTEXTEND
  0
MTEXT
  5
5637
330
1A
100
AcDbEntity
  8
SUNPOU
100
AcDbMText
 10
128926.051734991
 20
112633.1611523893
 30
0.0
 40
3.5
 41
0.0
 71
     9
 72
     5
  1

1001
ACAD
1000
MTEXTBEGIN
1070
    73
1070
     1
1070
    44
1040
1.0
1070
    74
1070
     0
1000
MTEXTEND
  0
MTEXT
  5
5638
330
1A
100
AcDbEntity
  8
SUNPOU
100
AcDbMText
 10
77422.91219407717
 20
60267.37538724244
 30
0.0
 40
10.5
 41
0.0
 71
     9
 72
     5
  1

1001
ACAD
1000
MTEXTBEGIN
1070
    73
1070
     1
1070
    44
1040
1.0
1070
    74
1070
     0
1000
MTEXTEND
  0
MTEXT
  5
5639
330
1A
100
AcDbEntity
  8
SUNPOU
100
AcDbMText
 10
63474.91209370119
 20
41094.97624813023
 30
0.0
 40
3.5
 41
0.0
 71
     7
 72
     5
  1

1001
ACAD
1000
MTEXTBEGIN
1070
    73
1070
     1
1070
    44
1040
1.0
1070
    74
1070
     0
1000
MTEXTEND
  0
MTEXT
  5
563A
330
1A
100
AcDbEntity
  8
SUNPOU
100
AcDbMText
 10
48117.65086229006
 20
40806.11043916631
 30
0.0
 40
10.5
 41
0.0
 71
     9
 72
     5
  1

1001
ACAD
1000
MTEXTBEGIN
1070
    73
1070
     1
1070
    44
1040
1.0
1070
    74
1070
     0
1000
MTEXTEND
  0
MTEXT
  5
563B
330
1A
100
AcDbEntity
  8
SUNPOU
100
AcDbMText
 10
67071.40957962004
 20
58272.68649165838
 30
0.0
 40
10.5
 41
0.0
 71
     9
 72
     5
  1

1001
ACAD
1000
MTEXTBEGIN
1070
    73
1070
     1
1070
    44
1040
1.0
1070
    74
1070
     0
1000
MTEXTEND
  0
MTEXT
  5
563C
330
1A
100
AcDbEntity
  8
SUNPOU
100
AcDbMText
 10
69014.81682632945
 20
56471.63741178035
 30
0.0
 40
3.5
 41
0.0
 71
     9
 72
     5
  1

1001
ACAD
1000
MTEXTBEGIN
1070
    73
1070
     1
1070
    44
1040
1.0
1070
    74
1070
     0
1000
MTEXTEND
  0
MTEXT
  5
563D
330
1A
100
AcDbEntity
  8
SUNPOU
100
AcDbMText
 10
100140.9966589491
 20
98966.58307943773
 30
0.0
 40
10.5
 41
0.0
 71
     9
 72
     5
  1

1001
ACAD
1000
MTEXTBEGIN
1070
    73
1070
     1
1070
    44
1040
1.0
1070
    74
1070
     0
1000
MTEXTEND
  0
MTEXT
  5
563E
330
1A
100
AcDbEntity
  8
SUNPOU
100
AcDbMText
 10
102084.4039056586
 20
97165.53399955968
 30
0.0
 40
3.5
 41
0.0
 71
     9
 72
     5
  1

1001
ACAD
1000
MTEXTBEGIN
1070
    73
1070
     1
1070
    44
1040
1.0
1070
    74
1070
     0
1000
MTEXTEND
  0
MTEXT
  5
563F
330
1A
100
AcDbEntity
  8
SUNPOU
100
AcDbMText
 10
50581.26436474472
 20
44799.74823441275
 30
0.0
 40
10.5
 41
0.0
 71
     9
 72
     5
  1

1001
ACAD
1000
MTEXTBEGIN
1070
    73
1070
     1
1070
    44
1040
1.0
1070
    74
1070
     0
1000
MTEXTEND
  0
MTEXT
  5
5640
330
1A
100
AcDbEntity
  8
SUNPOU
100
AcDbMText
 10
36633.26426436873
 20
25627.34909530054
 30
0.0
 40
3.5
 41
0.0
 71
     7
 72
     5
  1

1001
ACAD
1000
MTEXTBEGIN
1070
    73
1070
     1
1070
    44
1040
1.0
1070
    74
1070
     0
1000
MTEXTEND
  0
MTEXT
  5
5641
330
1A
100
AcDbEntity
  8
SUNPOU
100
AcDbMText
 10
61069.42493315968
 20
52574.61207825771
 30
0.0
 40
10.5
 41
0.0
 71
     9
 72
     5
  1

1001
ACAD
1000
MTEXTBEGIN
1070
    73
1070
     1
1070
    44
1040
1.0
1070
    74
1070
     0
1000
MTEXTEND
  0
MTEXT
  5
5642
330
1A
100
AcDbEntity
  8
SUNPOU
100
AcDbMText
 10
80023.18365048967
 20
70041.18813074978
 30
0.0
 40
10.5
 41
0.0
 71
     9
 72
     5
  1

1001
ACAD
1000
MTEXTBEGIN
1070
    73
1070
     1
1070
    44
1040
1.0
1070
    74
1070
     0
1000
MTEXTEND
  0
MTEXT
  5
5643
330
1A
100
AcDbEntity
  8
SUNPOU
100
AcDbMText
 10
81966.59089719908
 20
68240.13905087176
 30
0.0
 40
3.5
 41
0.0
 71
     9
 72
     5
  1

1001
ACAD
1000
MTEXTBEGIN
1070
    73
1070
     1
1070
    44
1040
1.0
1070
    74
1070
     0
1000
MTEXTEND
  0
MTEXT
  5
5644
330
1A
100
AcDbEntity
  8
SUNPOU
100
AcDbMText
 10
113092.7707298186
 20
110735.0847185291
 30
0.0
 40
10.5
 41
0.0
 71
     9
 72
     5
  1

1001
ACAD
1000
MTEXTBEGIN
1070
    73
1070
     1
1070
    44
1040
1.0
1070
    74
1070
     0
1000
MTEXTEND
  0
MTEXT
  5
5645
330
1A
100
AcDbEntity
  8
SUNPOU
100
AcDbMText
 10
115036.1779765282
 20
108934.0356386511
 30
0.0
 40
3.5
 41
0.0
 71
     9
 72
     5
  1

1001
ACAD
1000
MTEXTBEGIN
1070
    73
1070
     1
1070
    44
1040
1.0
1070
    74
1070
     0
1000
MTEXTEND
  0
MTEXT
  5
5646
330
1A
100
AcDbEntity
  8
SUNPOU
100
AcDbMText
 10
63533.03843561432
 20
56568.24987350415
 30
0.0
 40
10.5
 41
0.0
 71
     9
 72
     5
  1

1001
ACAD
1000
MTEXTBEGIN
1070
    73
1070
     1
1070
    44
1040
1.0
1070
    74
1070
     0
1000
MTEXTEND
  0
MTEXT
  5
5647
330
1A
100
AcDbEntity
  8
SUNPOU
100
AcDbMText
 10
49585.03833523835
 20
37395.85073439196
 30
0.0
 40
3.5
 41
0.0
 71
     7
 72
     5
  1

1001
ACAD
1000
MTEXTBEGIN
1070
    73
1070
     1
1070
    44
1040
1.0
1070
    74
1070
     0
1000
MTEXTEND
  0
MTEXT
  5
5648
330
1A
100
AcDbEntity
  8
SUNPOU
100
AcDbMText
 10
77137.31641337052
 20
70907.11375048141
 30
0.0
 40
10.5
 41
0.0
 71
     9
 72
     5
  1

1001
ACAD
1000
MTEXTBEGIN
1070
    73
1070
     1
1070
    44
1040
1.0
1070
    74
1070
     0
1000
MTEXTEND
  0
MTEXT
  5
5649
330
1A
100
AcDbEntity
  8
SUNPOU
100
AcDbMText
 10
79080.72366007995
 20
69106.06467060339
 30
0.0
 40
3.5
 41
0.0
 71
     9
 72
     5
  1

1001
ACAD
1000
MTEXTBEGIN
1070
    73
1070
     1
1070
    44
1040
1.0
1070
    74
1070
     0
1000
MTEXTEND
  0
MTEXT
  5
564A
330
1A
100
AcDbEntity
  8
SUNPOU
100
AcDbMText
 10
110206.9034926996
 20
111601.0103382607
 30
0.0
 40
10.5
 41
0.0
 71
     9
 72
     5
  1

1001
ACAD
1000
MTEXTBEGIN
1070
    73
1070
     1
1070
    44
1040
1.0
1070
    74
1070
     0
1000
MTEXTEND
  0
MTEXT
  5
564B
330
1A
100
AcDbEntity
  8
SUNPOU
100
AcDbMText
 10
112150.310739409
 20
109799.9612583826
 30
0.0
 40
3.5
 41
0.0
 71
     9
 72
     5
  1

1001
ACAD
1000
MTEXTBEGIN
1070
    73
1070
     1
1070
    44
1040
1.0
1070
    74
1070
     0
1000
MTEXTEND
  0
MTEXT
  5
564C
330
1A
100
AcDbEntity
  8
SUNPOU
100
AcDbMText
 10
108819.1333204967
 20
110677.9087286761
 30
0.0
 40
10.5
 41
0.0
 71
     9
 72
     5
  1

1001
ACAD
1000
MTEXTBEGIN
1070
    73
1070
     1
1070
    44
1040
1.0
1070
    74
1070
     0
1000
MTEXTEND
  0
MTEXT
  5
564D
330
1A
100
AcDbEntity
  8
SUNPOU
100
AcDbMText
 10
110762.5405672062
 20
108876.8596487981
 30
0.0
 40
3.5
 41
0.0
 71
     9
 72
     5
  1

1001
ACAD
1000
MTEXTBEGIN
1070
    73
1070
     1
1070
    44
1040
1.0
1070
    74
1070
     0
1000
MTEXTEND
  0
MTEXT
  5
564E
330
1A
100
AcDbEntity
  8
SUNPOU
100
AcDbMText
 10
76303.05507956816
 20
68695.31179059812
 30
0.0
 40
10.5
 41
0.0
 71
     9
 72
     5
  1

1001
ACAD
1000
MTEXTBEGIN
1070
    73
1070
     1
1070
    44
1040
1.0
1070
    74
1070
     0
1000
MTEXTEND
  0
MTEXT
  5
564F
330
1A
100
AcDbEntity
  8
SUNPOU
100
AcDbMText
 10
79026.36128373271
 20
69099.99348217918
 30
0.0
 40
3.5
 41
0.0
 71
     9
 72
     5
  1

1001
ACAD
1000
MTEXTBEGIN
1070
    73
1070
     1
1070
    44
1040
1.0
1070
    74
1070
     0
1000
MTEXTEND
  0
MTEXT
  5
5650
330
1A
100
AcDbEntity
  8
SUNPOU
100
AcDbMText
 10
78234.00675862522
 20
65938.68764412436
 30
0.0
 40
10.5
 41
0.0
 71
     9
 72
     5
  1

1001
ACAD
1000
MTEXTBEGIN
1070
    73
1070
     1
1070
    44
1040
1.0
1070
    74
1070
     0
1000
MTEXTEND
  0
MTEXT
  5
5651
330
1A
100
AcDbEntity
  8
SUNPOU
100
AcDbMText
 10
80177.41400533465
 20
64137.63856424636
 30
0.0
 40
3.5
 41
0.0
 71
     9
 72
     5
  1

1001
ACAD
1000
MTEXTBEGIN
1070
    73
1070
     1
1070
    44
1040
1.0
1070
    74
1070
     0
1000
MTEXTEND
  0
MTEXT
  5
5652
330
1A
100
AcDbEntity
  8
SUNPOU
100
AcDbMText
 10
80122.50949592122
 20
64024.86668196204
 30
0.0
 40
3.5
 41
0.0
 71
     9
 72
     5
  1

1001
ACAD
1000
MTEXTBEGIN
1070
    73
1070
     1
1070
    44
1040
1.0
1070
    74
1070
     0
1000
MTEXTEND
  0
MTEXT
  5
5653
330
1A
100
AcDbEntity
  8
SUNPOU
100
AcDbMText
 10
79486.58135950133
 20
63213.54544089553
 30
0.0
 40
3.5
 41
0.0
 71
     9
 72
     5
  1

1001
ACAD
1000
MTEXTBEGIN
1070
    73
1070
     1
1070
    44
1040
1.0
1070
    74
1070
     0
1000
MTEXTEND
  0
MTEXT
  5
5654
330
1A
100
AcDbEntity
  8
SUNPOU
100
AcDbMText
 10
79485.3409400806
 20
63213.29746395804
 30
0.0
 40
10.5
 41
0.0
 71
     9
 72
     5
  1

1001
ACAD
1000
MTEXTBEGIN
1070
    73
1070
     1
1070
    44
1040
1.0
1070
    74
1070
     0
1000
MTEXTEND
  0
MTEXT
  5
5655
330
1A
100
AcDbEntity
  8
SUNPOU
100
AcDbMText
 10
85473.63363627567
 20
80747.76348077064
 30
0.0
 40
10.5
 41
0.0
 71
     9
 72
     5
  1

1001
ACAD
1000
MTEXTBEGIN
1070
    73
1070
     1
1070
    44
1040
1.0
1070
    74
1070
     0
1000
MTEXTEND
  0
MTEXT
  5
5656
330
1A
100
AcDbEntity
  8
SUNPOU
100
AcDbMText
 10
94195.80120219368
 20
88163.59801230806
 30
0.0
 40
10.5
 41
0.0
 71
     9
 72
     5
  1

1001
ACAD
1000
MTEXTBEGIN
1070
    73
1070
     1
1070
    44
1040
1.0
1070
    74
1070
     0
1000
MTEXTEND
  0
MTEXT
  5
5657
330
1A
100
AcDbEntity
  8
SUNPOU
100
AcDbMText
 10
113149.5599195236
 20
105630.1740648001
 30
0.0
 40
10.5
 41
0.0
 71
     9
 72
     5
  1

1001
ACAD
1000
MTEXTBEGIN
1070
    73
1070
     1
1070
    44
1040
1.0
1070
    74
1070
     0
1000
MTEXTEND
  0
MTEXT
  5
5658
330
1A
100
AcDbEntity
  8
SUNPOU
100
AcDbMText
 10
115092.967166233
 20
103829.1249849221
 30
0.0
 40
3.5
 41
0.0
 71
     9
 72
     5
  1

1001
ACAD
1000
MTEXTBEGIN
1070
    73
1070
     1
1070
    44
1040
1.0
1070
    74
1070
     0
1000
MTEXTEND
  0
MTEXT
  5
5659
330
1A
100
AcDbEntity
  8
SUNPOU
100
AcDbMText
 10
146219.1469988527
 20
146324.0706525794
 30
0.0
 40
10.5
 41
0.0
 71
     9
 72
     5
  1

1001
ACAD
1000
MTEXTBEGIN
1070
    73
1070
     1
1070
    44
1040
1.0
1070
    74
1070
     0
1000
MTEXTEND
  0
MTEXT
  5
565A
330
1A
100
AcDbEntity
  8
SUNPOU
100
AcDbMText
 10
148162.5542455621
 20
144523.0215727014
 30
0.0
 40
3.5
 41
0.0
 71
     9
 72
     5
  1

1001
ACAD
1000
MTEXTBEGIN
1070
    73
1070
     1
1070
    44
1040
1.0
1070
    74
1070
     0
1000
MTEXTEND
  0
MTEXT
  5
565B
330
1A
100
AcDbEntity
  8
SUNPOU
100
AcDbMText
 10
96659.41470464833
 20
92157.23580755453
 30
0.0
 40
10.5
 41
0.0
 71
     9
 72
     5
  1

1001
ACAD
1000
MTEXTBEGIN
1070
    73
1070
     1
1070
    44
1040
1.0
1070
    74
1070
     0
1000
MTEXTEND
  0
MTEXT
  5
565C
330
1A
100
AcDbEntity
  8
SUNPOU
100
AcDbMText
 10
82711.41460427234
 20
72984.83666844234
 30
0.0
 40
3.5
 41
0.0
 71
     7
 72
     5
  1

1001
ACAD
1000
MTEXTBEGIN
1070
    73
1070
     1
1070
    44
1040
1.0
1070
    74
1070
     0
1000
MTEXTEND
  0
MTEXT
  5
565D
330
1A
100
AcDbEntity
  8
SUNPOU
100
AcDbMText
 10
63696.58400126548
 20
60746.98539926055
 30
0.0
 40
10.5
 41
0.0
 71
     7
 72
     5
  1

1001
ACAD
1000
MTEXTBEGIN
1070
    73
1070
     1
1070
    44
1040
1.0
1070
    74
1070
     0
1000
MTEXTEND
  0
MTEXT
  5
565E
330
1A
100
AcDbEntity
  8
SUNPOU
100
AcDbMText
 10
51239.35573631738
 20
44902.05382116213
 30
0.0
 40
35.0
 41
0.0
 71
     9
 72
     5
  1

1001
ACAD
1000
MTEXTBEGIN
1070
    73
1070
     1
1070
    44
1040
1.0
1070
    74
1070
     0
1000
MTEXTEND
  0
MTEXT
  5
565F
330
1A
100
AcDbEntity
  8
SUNPOU
100
AcDbMText
 10
50147.84079389233
 20
45510.82923121084
 30
0.0
 40
350.0000004171781
 41
0.0
 71
     7
 72
     5
  1

1001
ACAD
1000
MTEXTBEGIN
1070
    73
1070
     1
1070
    44
1040
1.0
1070
    74
1070
     0
1000
MTEXTEND
  0
MTEXT
  5
5660
330
1A
100
AcDbEntity
  8
0
100
AcDbMText
 10
56191.79155183523
 20
43490.75159334705
 30
0.0
 40
8.0
 41
0.0
 71
     7
 72
     5
  1

1001
ACAD
1000
MTEXTBEGIN
1070
    73
1070
     1
1070
    44
1040
1.0
1070
    74
1070
     0
1000
MTEXTEND
  0
MTEXT
  5
5661
330
1A
100
AcDbEntity
  8
0
100
AcDbMText
 10
58477.14924173012
 20
44461.54188809812
 30
0.0
 40
8.0
 41
0.0
 71
     7
 72
     5
  1

1001
ACAD
1000
MTEXTBEGIN
1070
    73
1070
     1
1070
    44
1040
1.0
1070
    74
1070
     0
1000
MTEXTEND
  0
MTEXT
  5
5662
330
1A
100
AcDbEntity
  8
SUNPOU
100
AcDbMText
 10
61143.04626241227
 20
53973.65328047324
 30
0.0
 40
10.5
 41
0.0
 71
     1
 72
     5
  1

1001
ACAD
1000
MTEXTBEGIN
1070
    73
1070
     1
1070
    44
1040
1.0
1070
    74
1070
     0
1000
MTEXTEND
  0
MTEXT
  5
5663
330
1A
100
AcDbEntity
  8
SUNPOU
100
AcDbMText
 10
53212.12306647632
 20
53026.86014656028
 30
0.0
 40
10.5
 41
0.0
 71
     7
 72
     5
  1

1001
ACAD
1000
MTEXTBEGIN
1070
    73
1070
     1
1070
    44
1040
1.0
1070
    74
1070
     0
1000
MTEXTEND
  0
MTEXT
  5
5664
330
1A
100
AcDbEntity
  8
SUNPOU
100
AcDbMText
 10
56161.10673098909
 20
57927.53621840312
 30
0.0
 40
10.5
 41
0.0
 71
     7
 72
     5
  1

1001
ACAD
1000
MTEXTBEGIN
1070
    73
1070
     1
1070
    44
1040
1.0
1070
    74
1070
     0
1000
MTEXTEND
  0
MTEXT
  5
5665
330
1A
100
AcDbEntity
  8
SUNPOU
100
AcDbMText
 10
60670.18485893966
 20
60363.8369660232
 30
0.0
 40
10.5
 41
0.0
 71
     7
 72
     5
  1

1001
ACAD
1000
MTEXTBEGIN
1070
    73
1070
     1
1070
    44
1040
1.0
1070
    74
1070
     0
1000
MTEXTEND
  0
MTEXT
  5
5666
330
1A
100
AcDbEntity
  8
SUNPOU
100
AcDbMText
 10
44271.02274570799
 20
39361.43311641211
 30
0.0
 40
10.5
 41
0.0
 71
     7
 72
     5
  1

1001
ACAD
1000
MTEXTBEGIN
1070
    73
1070
     1
1070
    44
1040
1.0
1070
    74
1070
     0
1000
MTEXTEND
  0
MTEXT
  5
5667
330
1A
100
AcDbEntity
  8
SUNPOU
100
AcDbMText
 10
95462.54117960824
 20
85034.41368006038
 30
0.0
 40
10.5
 41
0.0
 71
     9
 72
     5
  1

1001
ACAD
1000
MTEXTBEGIN
1070
    73
1070
     1
1070
    44
1040
1.0
1070
    74
1070
     0
1000
MTEXTEND
  0
MTEXT
  5
5668
330
1A
100
AcDbEntity
  8
SUNPOU
100
AcDbMText
 10
104184.7087455262
 20
92450.24821159784
 30
0.0
 40
10.5
 41
0.0
 71
     9
 72
     5
  1

1001
ACAD
1000
MTEXTBEGIN
1070
    73
1070
     1
1070
    44
1040
1.0
1070
    74
1070
     0
1000
MTEXTEND
  0
MTEXT
  5
5669
330
1A
100
AcDbEntity
  8
SUNPOU
100
AcDbMText
 10
123138.4674628562
 20
109916.8242640898
 30
0.0
 40
10.5
 41
0.0
 71
     9
 72
     5
  1

1001
ACAD
1000
MTEXTBEGIN
1070
    73
1070
     1
1070
    44
1040
1.0
1070
    74
1070
     0
1000
MTEXTEND
  0
MTEXT
  5
566A
330
1A
100
AcDbEntity
  8
SUNPOU
100
AcDbMText
 10
125081.8747095656
 20
108115.7751842118
 30
0.0
 40
3.5
 41
0.0
 71
     9
 72
     5
  1

1001
ACAD
1000
MTEXTBEGIN
1070
    73
1070
     1
1070
    44
1040
1.0
1070
    74
1070
     0
1000
MTEXTEND
  0
MTEXT
  5
566B
330
1A
100
AcDbEntity
  8
SUNPOU
100
AcDbMText
 10
156208.0545421853
 20
150610.7208518691
 30
0.0
 40
10.5
 41
0.0
 71
     9
 72
     5
  1

1001
ACAD
1000
MTEXTBEGIN
1070
    73
1070
     1
1070
    44
1040
1.0
1070
    74
1070
     0
1000
MTEXTEND
  0
MTEXT
  5
566C
330
1A
100
AcDbEntity
  8
SUNPOU
100
AcDbMText
 10
158151.4617888947
 20
148809.6717719911
 30
0.0
 40
3.5
 41
0.0
 71
     9
 72
     5
  1

1001
ACAD
1000
MTEXTBEGIN
1070
    73
1070
     1
1070
    44
1040
1.0
1070
    74
1070
     0
1000
MTEXTEND
  0
MTEXT
  5
566D
330
1A
100
AcDbEntity
  8
SUNPOU
100
AcDbMText
 10
106648.3222479809
 20
96443.88600684427
 30
0.0
 40
10.5
 41
0.0
 71
     9
 72
     5
  1

1001
ACAD
1000
MTEXTBEGIN
1070
    73
1070
     1
1070
    44
1040
1.0
1070
    74
1070
     0
1000
MTEXTEND
  0
MTEXT
  5
566E
330
1A
100
AcDbEntity
  8
SUNPOU
100
AcDbMText
 10
92700.3221476049
 20
77271.48686773207
 30
0.0
 40
3.5
 41
0.0
 71
     7
 72
     5
  1

1001
ACAD
1000
MTEXTBEGIN
1070
    73
1070
     1
1070
    44
1040
1.0
1070
    74
1070
     0
1000
MTEXTEND
  0
MTEXT
  5
566F
330
1A
100
AcDbEntity
  8
SUNPOU
100
AcDbMText
 10
73685.49154459807
 20
65033.63559855027
 30
0.0
 40
10.5
 41
0.0
 71
     7
 72
     5
  1

1001
ACAD
1000
MTEXTBEGIN
1070
    73
1070
     1
1070
    44
1040
1.0
1070
    74
1070
     0
1000
MTEXTEND
  0
MTEXT
  5
5670
330
1A
100
AcDbEntity
  8
SUNPOU
100
AcDbMText
 10
61228.26327964995
 20
49188.70402045183
 30
0.0
 40
35.0
 41
0.0
 71
     9
 72
     5
  1

1001
ACAD
1000
MTEXTBEGIN
1070
    73
1070
     1
1070
    44
1040
1.0
1070
    74
1070
     0
1000
MTEXTEND
  0
MTEXT
  5
5671
330
1A
100
AcDbEntity
  8
SUNPOU
100
AcDbMText
 10
60136.74833722491
 20
49797.47943050056
 30
0.0
 40
350.0000004171781
 41
0.0
 71
     7
 72
     5
  1

1001
ACAD
1000
MTEXTBEGIN
1070
    73
1070
     1
1070
    44
1040
1.0
1070
    74
1070
     0
1000
MTEXTEND
  0
MTEXT
  5
5672
330
1A
100
AcDbEntity
  8
0
100
AcDbMText
 10
66180.69909516782
 20
47777.40179263677
 30
0.0
 40
8.0
 41
0.0
 71
     7
 72
     5
  1

1001
ACAD
1000
MTEXTBEGIN
1070
    73
1070
     1
1070
    44
1040
1.0
1070
    74
1070
     0
1000
MTEXTEND
  0
MTEXT
  5
5673
330
1A
100
AcDbEntity
  8
0
100
AcDbMText
 10
68466.05678506271
 20
48748.19208738784
 30
0.0
 40
8.0
 41
0.0
 71
     7
 72
     5
  1

1001
ACAD
1000
MTEXTBEGIN
1070
    73
1070
     1
1070
    44
1040
1.0
1070
    74
1070
     0
1000
MTEXTEND
  0
MTEXT
  5
5674
330
1A
100
AcDbEntity
  8
SUNPOU
100
AcDbMText
 10
71131.95380574485
 20
58260.30347976296
 30
0.0
 40
10.5
 41
0.0
 71
     1
 72
     5
  1

1001
ACAD
1000
MTEXTBEGIN
1070
    73
1070
     1
1070
    44
1040
1.0
1070
    74
1070
     0
1000
MTEXTEND
  0
MTEXT
  5
5675
330
1A
100
AcDbEntity
  8
SUNPOU
100
AcDbMText
 10
63201.03060980891
 20
57313.51034585003
 30
0.0
 40
10.5
 41
0.0
 71
     7
 72
     5
  1

1001
ACAD
1000
MTEXTBEGIN
1070
    73
1070
     1
1070
    44
1040
1.0
1070
    74
1070
     0
1000
MTEXTEND
  0
MTEXT
  5
5676
330
1A
100
AcDbEntity
  8
SUNPOU
100
AcDbMText
 10
66150.01427432169
 20
62214.18641769286
 30
0.0
 40
10.5
 41
0.0
 71
     7
 72
     5
  1

1001
ACAD
1000
MTEXTBEGIN
1070
    73
1070
     1
1070
    44
1040
1.0
1070
    74
1070
     0
1000
MTEXTEND
  0
MTEXT
  5
5677
330
1A
100
AcDbEntity
  8
SUNPOU
100
AcDbMText
 10
70659.09240227225
 20
64650.48716531294
 30
0.0
 40
10.5
 41
0.0
 71
     7
 72
     5
  1

1001
ACAD
1000
MTEXTBEGIN
1070
    73
1070
     1
1070
    44
1040
1.0
1070
    74
1070
     0
1000
MTEXTEND
  0
MTEXT
  5
5678
330
1A
100
AcDbEntity
  8
SUNPOU
100
AcDbMText
 10
54259.93028904056
 20
43648.08331570185
 30
0.0
 40
10.5
 41
0.0
 71
     7
 72
     5
  1

1001
ACAD
1000
MTEXTBEGIN
1070
    73
1070
     1
1070
    44
1040
1.0
1070
    74
1070
     0
1000
MTEXTEND
  0
MTEXT
  5
5679
330
1A
100
AcDbEntity
  8
SUNPOU
100
AcDbMText
 10
56070.69320041551
 20
49975.4973031804
 30
0.0
 40
10.5
 41
0.0
 71
     9
 72
     5
  1

1001
ACAD
1000
MTEXTBEGIN
1070
    73
1070
     1
1070
    44
1040
1.0
1070
    74
1070
     0
1000
MTEXTEND
  0
MTEXT
  5
567A
330
1A
100
AcDbEntity
  8
SUNPOU
100
AcDbMText
 10
64792.86076633347
 20
57391.33183471787
 30
0.0
 40
10.5
 41
0.0
 71
     9
 72
     5
  1

1001
ACAD
1000
MTEXTBEGIN
1070
    73
1070
     1
1070
    44
1040
1.0
1070
    74
1070
     0
1000
MTEXTEND
  0
MTEXT
  5
567B
330
1A
100
AcDbEntity
  8
SUNPOU
100
AcDbMText
 10
83746.61948366345
 20
74857.90788720994
 30
0.0
 40
10.5
 41
0.0
 71
     9
 72
     5
  1

1001
ACAD
1000
MTEXTBEGIN
1070
    73
1070
     1
1070
    44
1040
1.0
1070
    74
1070
     0
1000
MTEXTEND
  0
MTEXT
  5
567C
330
1A
100
AcDbEntity
  8
SUNPOU
100
AcDbMText
 10
85690.02673037287
 20
73056.85880733192
 30
0.0
 40
3.5
 41
0.0
 71
     9
 72
     5
  1

1001
ACAD
1000
MTEXTBEGIN
1070
    73
1070
     1
1070
    44
1040
1.0
1070
    74
1070
     0
1000
MTEXTEND
  0
MTEXT
  5
567D
330
1A
100
AcDbEntity
  8
SUNPOU
100
AcDbMText
 10
116816.2065629925
 20
115551.8044749892
 30
0.0
 40
10.5
 41
0.0
 71
     9
 72
     5
  1

1001
ACAD
1000
MTEXTBEGIN
1070
    73
1070
     1
1070
    44
1040
1.0
1070
    74
1070
     0
1000
MTEXTEND
  0
MTEXT
  5
567E
330
1A
100
AcDbEntity
  8
SUNPOU
100
AcDbMText
 10
118759.6138097019
 20
113750.7553951111
 30
0.0
 40
3.5
 41
0.0
 71
     9
 72
     5
  1

1001
ACAD
1000
MTEXTBEGIN
1070
    73
1070
     1
1070
    44
1040
1.0
1070
    74
1070
     0
1000
MTEXTEND
  0
MTEXT
  5
567F
330
1A
100
AcDbEntity
  8
SUNPOU
100
AcDbMText
 10
67256.47426878814
 20
61384.96962996432
 30
0.0
 40
10.5
 41
0.0
 71
     9
 72
     5
  1

1001
ACAD
1000
MTEXTBEGIN
1070
    73
1070
     1
1070
    44
1040
1.0
1070
    74
1070
     0
1000
MTEXTEND
  0
MTEXT
  5
5680
330
1A
100
AcDbEntity
  8
SUNPOU
100
AcDbMText
 10
53308.47416841216
 20
42212.57049085211
 30
0.0
 40
3.5
 41
0.0
 71
     7
 72
     5
  1

1001
ACAD
1000
MTEXTBEGIN
1070
    73
1070
     1
1070
    44
1040
1.0
1070
    74
1070
     0
1000
MTEXTEND
  0
MTEXT
  5
5681
330
1A
100
AcDbEntity
  8
SUNPOU
100
AcDbMText
 10
67000.82485118274
 20
51571.63371187343
 30
0.0
 40
10.5
 41
0.0
 71
     9
 72
     5
  1

1001
ACAD
1000
MTEXTBEGIN
1070
    73
1070
     1
1070
    44
1040
1.0
1070
    74
1070
     0
1000
MTEXTEND
  0
MTEXT
  5
5682
330
1A
100
AcDbEntity
  8
SUNPOU
100
AcDbMText
 10
75722.99241710071
 20
58987.46824341094
 30
0.0
 40
10.5
 41
0.0
 71
     9
 72
     5
  1

1001
ACAD
1000
MTEXTBEGIN
1070
    73
1070
     1
1070
    44
1040
1.0
1070
    74
1070
     0
1000
MTEXTEND
  0
MTEXT
  5
5683
330
1A
100
AcDbEntity
  8
SUNPOU
100
AcDbMText
 10
94676.75113443068
 20
76454.04429590299
 30
0.0
 40
10.5
 41
0.0
 71
     9
 72
     5
  1

1001
ACAD
1000
MTEXTBEGIN
1070
    73
1070
     1
1070
    44
1040
1.0
1070
    74
1070
     0
1000
MTEXTEND
  0
MTEXT
  5
5684
330
1A
100
AcDbEntity
  8
SUNPOU
100
AcDbMText
 10
96620.1583811401
 20
74652.99521602497
 30
0.0
 40
3.5
 41
0.0
 71
     9
 72
     5
  1

1001
ACAD
1000
MTEXTBEGIN
1070
    73
1070
     1
1070
    44
1040
1.0
1070
    74
1070
     0
1000
MTEXTEND
  0
MTEXT
  5
5685
330
1A
100
AcDbEntity
  8
SUNPOU
100
AcDbMText
 10
127746.3382137598
 20
117147.9408836822
 30
0.0
 40
10.5
 41
0.0
 71
     9
 72
     5
  1

1001
ACAD
1000
MTEXTBEGIN
1070
    73
1070
     1
1070
    44
1040
1.0
1070
    74
1070
     0
1000
MTEXTEND
  0
MTEXT
  5
5686
330
1A
100
AcDbEntity
  8
SUNPOU
100
AcDbMText
 10
129689.7454604692
 20
115346.8918038041
 30
0.0
 40
3.5
 41
0.0
 71
     9
 72
     5
  1

1001
ACAD
1000
MTEXTBEGIN
1070
    73
1070
     1
1070
    44
1040
1.0
1070
    74
1070
     0
1000
MTEXTEND
  0
MTEXT
  5
5687
330
1A
100
AcDbEntity
  8
SUNPOU
100
AcDbMText
 10
78186.60591955537
 20
62981.10603865737
 30
0.0
 40
10.5
 41
0.0
 71
     9
 72
     5
  1

1001
ACAD
1000
MTEXTBEGIN
1070
    73
1070
     1
1070
    44
1040
1.0
1070
    74
1070
     0
1000
MTEXTEND
  0
MTEXT
  5
5688
330
1A
100
AcDbEntity
  8
SUNPOU
100
AcDbMText
 10
64238.60581917939
 20
43808.70689954517
 30
0.0
 40
3.5
 41
0.0
 71
     7
 72
     5
  1

1001
ACAD
1000
MTEXTBEGIN
1070
    73
1070
     1
1070
    44
1040
1.0
1070
    74
1070
     0
1000
MTEXTEND
  0
MTEXT
  5
5689
330
1A
100
AcDbEntity
  8
SUNPOU
100
AcDbMText
 10
33428.13481137435
 20
32770.04710035563
 30
0.0
 40
10.5
 41
0.0
 71
     9
 72
     5
  1

1001
ACAD
1000
MTEXTBEGIN
1070
    73
1070
     1
1070
    44
1040
1.0
1070
    74
1070
     0
1000
MTEXTEND
  0
MTEXT
  5
568A
330
1A
100
AcDbEntity
  8
SUNPOU
100
AcDbMText
 10
52381.89352870431
 20
50236.62315284768
 30
0.0
 40
10.5
 41
0.0
 71
     9
 72
     5
  1

1001
ACAD
1000
MTEXTBEGIN
1070
    73
1070
     1
1070
    44
1040
1.0
1070
    74
1070
     0
1000
MTEXTEND
  0
MTEXT
  5
568B
330
1A
100
AcDbEntity
  8
SUNPOU
100
AcDbMText
 10
54325.30077541374
 20
48435.57407296968
 30
0.0
 40
3.5
 41
0.0
 71
     9
 72
     5
  1

1001
ACAD
1000
MTEXTBEGIN
1070
    73
1070
     1
1070
    44
1040
1.0
1070
    74
1070
     0
1000
MTEXTEND
  0
MTEXT
  5
568C
330
1A
100
AcDbEntity
  8
SUNPOU
100
AcDbMText
 10
85451.48060803342
 20
90930.51974062703
 30
0.0
 40
10.5
 41
0.0
 71
     9
 72
     5
  1

1001
ACAD
1000
MTEXTBEGIN
1070
    73
1070
     1
1070
    44
1040
1.0
1070
    74
1070
     0
1000
MTEXTEND
  0
MTEXT
  5
568D
330
1A
100
AcDbEntity
  8
SUNPOU
100
AcDbMText
 10
87394.88785474286
 20
89129.47066074901
 30
0.0
 40
3.5
 41
0.0
 71
     9
 72
     5
  1

1001
ACAD
1000
MTEXTBEGIN
1070
    73
1070
     1
1070
    44
1040
1.0
1070
    74
1070
     0
1000
MTEXTEND
  0
MTEXT
  5
568E
330
1A
100
AcDbEntity
  8
SUNPOU
100
AcDbMText
 10
35891.74831382901
 20
36763.68489560208
 30
0.0
 40
10.5
 41
0.0
 71
     9
 72
     5
  1

1001
ACAD
1000
MTEXTBEGIN
1070
    73
1070
     1
1070
    44
1040
1.0
1070
    74
1070
     0
1000
MTEXTEND
  0
MTEXT
  5
568F
330
1A
100
AcDbEntity
  8
SUNPOU
100
AcDbMText
 10
21943.74821345303
 20
17591.28575648985
 30
0.0
 40
3.5
 41
0.0
 71
     7
 72
     5
  1

1001
ACAD
1000
MTEXTBEGIN
1070
    73
1070
     1
1070
    44
1040
1.0
1070
    74
1070
     0
1000
MTEXTEND
  0
LINE
  5
107E4
330
1A
100
AcDbEntity
  8
ZISSEN1
100
AcDbLine
 10
-1405.495125866679
 20
1545.168965116372
 30
0.0
 11
-1397.895115866681
 21
1545.168965116372
 31
0.0
  0
LINE
  5
107E5
330
1A
100
AcDbEntity
  8
ZISSEN1
100
AcDbLine
 10
-1397.895115866681
 20
1533.668983116373
 30
0.0
 11
-1405.495125866679
 21
1533.668983116373
 31
0.0
  0
LINE
  5
107E6
330
1A
100
AcDbEntity
  8
ZISSEN1
100
AcDbLine
 10
-1456.068037866681
 20
1533.668983116373
 30
0.0
 11
-1356.068045866681
 21
1533.668983116373
 31
0.0
  0
LINE
  5
107E7
330
1A
100
AcDbEntity
  8
ZISSEN1
100
AcDbLine
 10
-1456.068037866681
 20
1532.068982116373
 30
0.0
 11
-1356.068045866681
 21
1532.068982116373
 31
0.0
  0
LINE
  5
107E8
330
1A
100
AcDbEntity
  8
ZISSEN1
100
AcDbLine
 10
-1436.068035866681
 20
1578.668982116373
 30
0.0
 11
-1376.068055866681
 21
1578.668982116373
 31
0.0
  0
LINE
  5
107E9
330
1A
100
AcDbEntity
  8
ZISSEN1
100
AcDbLine
 10
-1456.068037866681
 20
1527.068984116373
 30
0.0
 11
-1356.068045866681
 21
1527.068984116373
 31
0.0
  0
LINE
  5
107EA
330
1A
100
AcDbEntity
  8
ZISSEN1
100
AcDbLine
 10
-1456.068037866681
 20
1524.068986116373
 30
0.0
 11
-1356.068045866681
 21
1524.068986116373
 31
0.0
  0
LINE
  5
107EB
330
1A
100
AcDbEntity
  8
ZISSEN1
100
AcDbLine
 10
-1448.568024866681
 20
1558.668972116373
 30
0.0
 11
-1448.568024866681
 21
1539.768981116373
 31
0.0
  0
LINE
  5
107EC
330
1A
100
AcDbEntity
  8
ZISSEN1
100
AcDbLine
 10
-1446.310155866679
 20
1533.668983116373
 30
0.0
 11
-1421.850145866679
 21
1533.668983116373
 31
0.0
  0
LINE
  5
107ED
330
1A
100
AcDbEntity
  8
ZISSEN1
100
AcDbLine
 10
-1446.310155866679
 20
1548.668982116373
 30
0.0
 11
-1421.850145866679
 21
1548.668982116373
 31
0.0
  0
LINE
  5
107EE
330
1A
100
AcDbEntity
  8
ZISSEN1
100
AcDbLine
 10
-1433.455105866681
 20
1533.668983116373
 30
0.0
 11
-1441.055125866681
 21
1533.668983116373
 31
0.0
  0
LINE
  5
107EF
330
1A
100
AcDbEntity
  8
CL1
100
AcDbLine
 10
-1453.068033866681
 20
1530.068975116373
 30
0.0
 11
-1453.068033866681
 21
1521.068995116372
 31
0.0
  0
LINE
  5
107F0
330
1A
100
AcDbEntity
  8
ZISSEN1
100
AcDbLine
 10
-1449.368034866681
 20
1532.068982116373
 30
0.0
 11
-1449.368034866681
 21
1527.068984116373
 31
0.0
  0
LINE
  5
107F1
330
1A
100
AcDbEntity
  8
ZISSEN1
100
AcDbLine
 10
-1455.76804186668
 20
1532.068982116373
 30
0.0
 11
-1455.76804186668
 21
1527.068984116373
 31
0.0
  0
LINE
  5
107F2
330
1A
100
AcDbEntity
  8
ZISSEN1
100
AcDbLine
 10
-1455.360928866681
 20
1527.068984116373
 30
0.0
 11
-1455.360928866681
 21
1524.068986116373
 31
0.0
  0
LINE
  5
107F3
330
1A
100
AcDbEntity
  8
ZISSEN1
100
AcDbLine
 10
-1456.068037866681
 20
1527.068984116373
 30
0.0
 11
-1456.068037866681
 21
1524.068986116373
 31
0.0
  0
LINE
  5
107F4
330
1A
100
AcDbEntity
  8
ZISSEN1
100
AcDbLine
 10
-1455.360928866681
 20
1532.068982116373
 30
0.0
 11
-1455.360928866681
 21
1533.668983116373
 31
0.0
  0
LINE
  5
107F5
330
1A
100
AcDbEntity
  8
ZISSEN1
100
AcDbLine
 10
-1456.068037866681
 20
1532.068982116373
 30
0.0
 11
-1456.068037866681
 21
1533.668983116373
 31
0.0
  0
LINE
  5
107F6
330
1A
100
AcDbEntity
  8
ZISSEN1
100
AcDbLine
 10
-1448.568024866681
 20
1539.768981116373
 30
0.0
 11
-1448.568024866681
 21
1533.668983116373
 31
0.0
  0
LINE
  5
107F7
330
1A
100
AcDbEntity
  8
ZISSEN1
100
AcDbLine
 10
-1446.310155866679
 20
1548.668982116373
 30
0.0
 11
-1446.310155866679
 21
1533.668983116373
 31
0.0
  0
LINE
  5
107F8
330
1A
100
AcDbEntity
  8
ZISSEN1
100
AcDbLine
 10
-1448.568024866681
 20
1539.768981116373
 30
0.0
 11
-1446.310155866679
 21
1539.768981116373
 31
0.0
  0
LINE
  5
107FB
330
1A
100
AcDbEntity
  8
ZISSEN1
100
AcDbLine
 10
-1421.850145866679
 20
1545.168965116372
 30
0.0
 11
-1415.67511586668
 21
1545.168965116372
 31
0.0
  0
LINE
  5
107FC
330
1A
100
AcDbEntity
  8
ZISSEN1
100
AcDbLine
 10
-1415.67511586668
 20
1533.668983116373
 30
0.0
 11
-1423.27512586668
 21
1533.668983116373
 31
0.0
  0
LINE
  5
107FD
330
1A
100
AcDbEntity
  8
ZISSEN1
100
AcDbLine
 10
-1421.850145866679
 20
1548.668982116373
 30
0.0
 11
-1421.850145866679
 21
1533.668983116373
 31
0.0
  0
LINE
  5
107FE
330
1A
100
AcDbEntity
  8
ZISSEN1
100
AcDbLine
 10
-1425.83512586668
 20
1533.668983116373
 30
0.0
 11
-1433.435155866679
 21
1533.668983116373
 31
0.0
  0
LINE
  5
107FF
330
1A
100
AcDbEntity
  8
ZISSEN1
100
AcDbLine
 10
-1408.055135866681
 20
1545.168965116372
 30
0.0
 11
-1408.055135866681
 21
1533.668983116373
 31
0.0
  0
LINE
  5
10800
330
1A
100
AcDbEntity
  8
ZISSEN1
100
AcDbLine
 10
-1415.655155866681
 20
1533.668983116373
 30
0.0
 11
-1415.655155866681
 21
1545.168965116372
 31
0.0
  0
LINE
  5
10801
330
1A
100
AcDbEntity
  8
ZISSEN1
100
AcDbLine
 10
-1405.495125866679
 20
1533.668983116373
 30
0.0
 11
-1405.495125866679
 21
1545.168965116372
 31
0.0
  0
LINE
  5
10802
330
1A
100
AcDbEntity
  8
ZISSEN1
100
AcDbLine
 10
-1415.67511586668
 20
1545.168965116372
 30
0.0
 11
-1415.67511586668
 21
1533.668983116373
 31
0.0
  0
LINE
  5
10803
330
1A
100
AcDbEntity
  8
ZISSEN1
100
AcDbLine
 10
-1408.055135866681
 20
1533.668983116373
 30
0.0
 11
-1415.655155866681
 21
1533.668983116373
 31
0.0
  0
LINE
  5
10804
330
1A
100
AcDbEntity
  8
ZISSEN1
100
AcDbLine
 10
-1415.655155866681
 20
1545.168965116372
 30
0.0
 11
-1408.055135866681
 21
1545.168965116372
 31
0.0
  0
LINE
  5
10805
330
1A
100
AcDbEntity
  8
ZISSEN1
100
AcDbLine
 10
-1408.055135866681
 20
1539.768981116373
 30
0.0
 11
-1405.495125866679
 21
1539.768981116373
 31
0.0
  0
LINE
  5
10806
330
1A
100
AcDbEntity
  8
ZISSEN1
100
AcDbLine
 10
-1436.068035866681
 20
1578.668982116373
 30
0.0
 11
-1436.068035866681
 21
1558.668972116373
 31
0.0
  0
LINE
  5
10807
330
1A
100
AcDbEntity
  8
ZISSEN1
100
AcDbLine
 10
-1441.168055866681
 20
1578.668982116373
 30
0.0
 11
-1441.168055866681
 21
1570.254072116373
 31
0.0
  0
LINE
  5
10808
330
1A
100
AcDbEntity
  8
ZISSEN1
100
AcDbLine
 10
-1449.168016866681
 20
1578.668982116373
 30
0.0
 11
-1449.168016866681
 21
1570.254082116373
 31
0.0
  0
LINE
  5
10809
330
1A
100
AcDbEntity
  8
ZISSEN1
100
AcDbLine
 10
-1442.168035866679
 20
1570.254072116373
 30
0.0
 11
-1442.168035866679
 21
1558.668962116373
 31
0.0
  0
LINE
  5
1080A
330
1A
100
AcDbEntity
  8
ZISSEN1
100
AcDbLine
 10
-1448.168038866681
 20
1570.254082116373
 30
0.0
 11
-1448.168038866681
 21
1558.668962116373
 31
0.0
  0
LINE
  5
1080B
330
1A
100
AcDbEntity
  8
ZISSEN1
100
AcDbLine
 10
-1448.568024866681
 20
1558.668962116373
 30
0.0
 11
-1436.068035866681
 21
1558.668962116373
 31
0.0
  0
LINE
  5
1080C
330
1A
100
AcDbEntity
  8
ZISSEN1
100
AcDbLine
 10
-1448.168038866681
 20
1570.254072116373
 30
0.0
 11
-1441.168055866681
 21
1570.254072116373
 31
0.0
  0
LINE
  5
1080D
330
1A
100
AcDbEntity
  8
ZISSEN1
100
AcDbLine
 10
-1448.168038866681
 20
1570.254072116373
 30
0.0
 11
-1449.168016866681
 21
1570.254072116373
 31
0.0
  0
LINE
  5
1080E
330
1A
100
AcDbEntity
  8
ZISSEN1
100
AcDbLine
 10
-1449.168016866681
 20
1578.668982116373
 30
0.0
 11
-1441.168055866681
 21
1578.668982116373
 31
0.0
  0
LINE
  5
1080F
330
1A
100
AcDbEntity
  8
ZISSEN1
100
AcDbLine
 10
-1363.568045866681
 20
1558.668972116373
 30
0.0
 11
-1363.568045866681
 21
1548.268984116373
 31
0.0
  0
LINE
  5
10810
330
1A
100
AcDbEntity
  8
ZISSEN1
100
AcDbLine
 10
-1372.495145866681
 20
1539.768981116373
 30
0.0
 11
-1365.950165866681
 21
1539.768981116373
 31
0.0
  0
LINE
  5
10812
330
1A
100
AcDbEntity
  8
ZISSEN1
100
AcDbLine
 10
-1387.715125866679
 20
1545.168965116372
 30
0.0
 11
-1380.115115866681
 21
1545.168965116372
 31
0.0
  0
LINE
  5
10813
330
1A
100
AcDbEntity
  8
ZISSEN1
100
AcDbLine
 10
-1380.115115866681
 20
1533.668983116373
 30
0.0
 11
-1387.715125866679
 21
1533.668983116373
 31
0.0
  0
LINE
  5
10814
330
1A
100
AcDbEntity
  8
ZISSEN1
100
AcDbLine
 10
-1390.275125866681
 20
1545.168965116372
 30
0.0
 11
-1390.275125866681
 21
1533.668983116373
 31
0.0
  0
LINE
  5
10815
330
1A
100
AcDbEntity
  8
ZISSEN1
100
AcDbLine
 10
-1397.87514586668
 20
1533.668983116373
 30
0.0
 11
-1397.87514586668
 21
1545.168965116372
 31
0.0
  0
LINE
  5
10816
330
1A
100
AcDbEntity
  8
ZISSEN1
100
AcDbLine
 10
-1387.715125866679
 20
1533.668983116373
 30
0.0
 11
-1387.715125866679
 21
1545.168965116372
 31
0.0
  0
LINE
  5
10817
330
1A
100
AcDbEntity
  8
ZISSEN1
100
AcDbLine
 10
-1397.895115866681
 20
1545.168965116372
 30
0.0
 11
-1397.895115866681
 21
1533.668983116373
 31
0.0
  0
LINE
  5
10818
330
1A
100
AcDbEntity
  8
ZISSEN1
100
AcDbLine
 10
-1390.275125866681
 20
1533.668983116373
 30
0.0
 11
-1397.87514586668
 21
1533.668983116373
 31
0.0
  0
LINE
  5
10819
330
1A
100
AcDbEntity
  8
ZISSEN1
100
AcDbLine
 10
-1397.87514586668
 20
1545.168965116372
 30
0.0
 11
-1390.275125866681
 21
1545.168965116372
 31
0.0
  0
LINE
  5
1081A
330
1A
100
AcDbEntity
  8
ZISSEN1
100
AcDbLine
 10
-1390.275125866681
 20
1539.768981116373
 30
0.0
 11
-1387.715125866679
 21
1539.768981116373
 31
0.0
  0
LINE
  5
1081B
330
1A
100
AcDbEntity
  8
ZISSEN1
100
AcDbLine
 10
-1372.495145866681
 20
1545.168959116373
 30
0.0
 11
-1372.495145866681
 21
1533.668971116373
 31
0.0
  0
LINE
  5
1081C
330
1A
100
AcDbEntity
  8
ZISSEN1
100
AcDbLine
 10
-1380.095145866681
 20
1533.668971116373
 30
0.0
 11
-1380.095145866681
 21
1545.168959116373
 31
0.0
  0
LINE
  5
1081D
330
1A
100
AcDbEntity
  8
ZISSEN1
100
AcDbLine
 10
-1380.115115866681
 20
1545.168965116372
 30
0.0
 11
-1380.115115866681
 21
1533.668983116373
 31
0.0
  0
LINE
  5
1081E
330
1A
100
AcDbEntity
  8
ZISSEN1
100
AcDbLine
 10
-1372.495145866681
 20
1533.668971116373
 30
0.0
 11
-1380.095145866681
 21
1533.668971116373
 31
0.0
  0
LINE
  5
1081F
330
1A
100
AcDbEntity
  8
ZISSEN1
100
AcDbLine
 10
-1380.095145866681
 20
1545.168959116373
 30
0.0
 11
-1372.495145866681
 21
1545.168959116373
 31
0.0
  0
LINE
  5
10820
330
1A
100
AcDbEntity
  8
CL1
100
AcDbLine
 10
-1359.068045866681
 20
1530.068975116373
 30
0.0
 11
-1359.068045866681
 21
1521.068995116372
 31
0.0
  0
LINE
  5
10821
330
1A
100
AcDbEntity
  8
ZISSEN1
100
AcDbLine
 10
-1356.368025866681
 20
1532.068982116373
 30
0.0
 11
-1356.368025866681
 21
1527.068984116373
 31
0.0
  0
LINE
  5
10822
330
1A
100
AcDbEntity
  8
ZISSEN1
100
AcDbLine
 10
-1362.768045866681
 20
1532.068982116373
 30
0.0
 11
-1362.768045866681
 21
1527.068984116373
 31
0.0
  0
LINE
  5
10823
330
1A
100
AcDbEntity
  8
ZISSEN1
100
AcDbLine
 10
-1356.775155866681
 20
1527.068971116372
 30
0.0
 11
-1356.775155866681
 21
1524.068986116373
 31
0.0
  0
LINE
  5
10824
330
1A
100
AcDbEntity
  8
ZISSEN1
100
AcDbLine
 10
-1356.068045866681
 20
1527.068984116373
 30
0.0
 11
-1356.068045866681
 21
1524.068986116373
 31
0.0
  0
LINE
  5
10825
330
1A
100
AcDbEntity
  8
ZISSEN1
100
AcDbLine
 10
-1364.960165866681
 20
1542.168980116373
 30
0.0
 11
-1366.61015586668
 21
1538.168998116373
 31
0.0
  0
LINE
  5
10826
330
1A
100
AcDbEntity
  8
ZISSEN1
100
AcDbLine
 10
-1360.960165866681
 20
1542.168980116373
 30
0.0
 11
-1359.310165866681
 21
1538.168998116373
 31
0.0
  0
LINE
  5
10827
330
1A
100
AcDbEntity
  8
ZISSEN1
100
AcDbLine
 10
-1359.310165866681
 20
1533.668983116373
 30
0.0
 11
-1366.61015586668
 21
1533.668983116373
 31
0.0
  0
LINE
  5
10828
330
1A
100
AcDbEntity
  8
ZISSEN1
100
AcDbLine
 10
-1366.61015586668
 20
1538.168998116373
 30
0.0
 11
-1366.61015586668
 21
1533.668983116373
 31
0.0
  0
LINE
  5
10829
330
1A
100
AcDbEntity
  8
ZISSEN1
100
AcDbLine
 10
-1356.775155866681
 20
1532.068982116373
 30
0.0
 11
-1356.775155866681
 21
1533.668983116373
 31
0.0
  0
LINE
  5
1082A
330
1A
100
AcDbEntity
  8
ZISSEN1
100
AcDbLine
 10
-1356.068045866681
 20
1532.068982116373
 30
0.0
 11
-1356.068045866681
 21
1533.668983116373
 31
0.0
  0
LINE
  5
1082B
330
1A
100
AcDbEntity
  8
ZISSEN1
100
AcDbLine
 10
-1359.310165866681
 20
1538.168998116373
 30
0.0
 11
-1359.310165866681
 21
1533.668983116373
 31
0.0
  0
LINE
  5
1082C
330
1A
100
AcDbEntity
  8
ZISSEN1
100
AcDbLine
 10
-1360.960165866681
 20
1542.168980116373
 30
0.0
 11
-1364.960165866681
 21
1542.168980116373
 31
0.0
  0
LINE
  5
1082D
330
1A
100
AcDbEntity
  8
ZISSEN1
100
AcDbLine
 10
-1363.568045866681
 20
1549.868972116373
 30
0.0
 11
-1363.568045866681
 21
1542.168980116373
 31
0.0
  0
LINE
  5
1082E
330
1A
100
AcDbEntity
  8
ZISSEN1
100
AcDbLine
 10
-1376.068055866681
 20
1558.668962116373
 30
0.0
 11
-1363.568045866681
 21
1558.668962116373
 31
0.0
  0
LINE
  5
1082F
330
1A
100
AcDbEntity
  8
ZISSEN1
100
AcDbLine
 10
-1370.968045866681
 20
1570.254072116373
 30
0.0
 11
-1363.96804586668
 21
1570.254072116373
 31
0.0
  0
LINE
  5
10830
330
1A
100
AcDbEntity
  8
ZISSEN1
100
AcDbLine
 10
-1370.968045866681
 20
1578.668982116373
 30
0.0
 11
-1362.968055866681
 21
1578.668982116373
 31
0.0
  0
LINE
  5
10831
330
1A
100
AcDbEntity
  8
ZISSEN1
100
AcDbLine
 10
-1376.068055866681
 20
1578.668982116373
 30
0.0
 11
-1376.068055866681
 21
1558.668962116373
 31
0.0
  0
LINE
  5
10832
330
1A
100
AcDbEntity
  8
ZISSEN1
100
AcDbLine
 10
-1370.968045866681
 20
1578.668982116373
 30
0.0
 11
-1370.968045866681
 21
1570.254072116373
 31
0.0
  0
LINE
  5
10833
330
1A
100
AcDbEntity
  8
ZISSEN1
100
AcDbLine
 10
-1362.968055866681
 20
1578.668982116373
 30
0.0
 11
-1362.968055866681
 21
1570.254072116373
 31
0.0
  0
LINE
  5
10834
330
1A
100
AcDbEntity
  8
ZISSEN1
100
AcDbLine
 10
-1363.96804586668
 20
1570.254072116373
 30
0.0
 11
-1363.96804586668
 21
1558.668962116373
 31
0.0
  0
LINE
  5
10835
330
1A
100
AcDbEntity
  8
ZISSEN1
100
AcDbLine
 10
-1369.968055866681
 20
1570.254072116373
 30
0.0
 11
-1369.968055866681
 21
1558.668962116373
 31
0.0
  0
LINE
  5
10836
330
1A
100
AcDbEntity
  8
ZISSEN1
100
AcDbLine
 10
-1363.96804586668
 20
1570.254072116373
 30
0.0
 11
-1362.968055866681
 21
1570.254072116373
 31
0.0
  0
CIRCLE
  5
10838
330
1A
100
AcDbEntity
  8
ZISSEN1
100
AcDbCircle
 10
-1366.967965866681
 20
1693.920062116372
 30
0.0
 40
4.0
  0
CIRCLE
  5
10839
330
1A
100
AcDbEntity
  8
ZISSEN1
100
AcDbCircle
 10
-1445.167955866681
 20
1693.920062116372
 30
0.0
 40
4.0
  0
LINE
  5
1083A
330
1A
100
AcDbEntity
  8
ZISSEN1
100
AcDbLine
 10
-1436.067955866681
 20
1688.170052116372
 30
0.0
 11
-1436.067955866681
 21
1699.670072116373
 31
0.0
  0
LINE
  5
1083B
330
1A
100
AcDbEntity
  8
ZISSEN1
100
AcDbLine
 10
-1376.067955866679
 20
1688.170052116372
 30
0.0
 11
-1376.067955866679
 21
1699.670072116373
 31
0.0
  0
LINE
  5
1083C
330
1A
100
AcDbEntity
  8
ZISSEN1
100
AcDbLine
 10
-1448.567933866681
 20
1699.670072116373
 30
0.0
 11
-1448.567933866681
 21
1688.170052116372
 31
0.0
  0
LINE
  5
1083D
330
1A
100
AcDbEntity
  8
ZISSEN1
100
AcDbLine
 10
-1363.567955866681
 20
1699.670072116373
 30
0.0
 11
-1363.567955866681
 21
1688.170052116372
 31
0.0
  0
LINE
  5
1083E
330
1A
100
AcDbEntity
  8
ZISSEN1
100
AcDbLine
 10
-1356.067955866681
 20
1684.357182116373
 30
0.0
 11
-1356.067955866681
 21
1724.442932116373
 31
0.0
  0
LINE
  5
1083F
330
1A
100
AcDbEntity
  8
ZISSEN1
100
AcDbLine
 10
-1456.067952866679
 20
1684.357182116373
 30
0.0
 11
-1456.067952866679
 21
1724.442932116373
 31
0.0
  0
LINE
  5
10840
330
1A
100
AcDbEntity
  8
ZISSEN1
100
AcDbLine
 10
-1413.682945866681
 20
1644.480062116373
 30
0.0
 11
-1398.452935866681
 21
1644.480062116373
 31
0.0
  0
LINE
  5
10841
330
1A
100
AcDbEntity
  8
ZISSEN1
100
AcDbLine
 10
-1413.682945866681
 20
1640.480062116373
 30
0.0
 11
-1398.452935866681
 21
1640.480062116373
 31
0.0
  0
LINE
  5
10842
330
1A
100
AcDbEntity
  8
ZISSEN1
100
AcDbLine
 10
-1413.682945866681
 20
1638.830052116373
 30
0.0
 11
-1398.452935866681
 21
1638.830052116373
 31
0.0
  0
LINE
  5
10843
330
1A
100
AcDbEntity
  8
ZISSEN1
100
AcDbLine
 10
-1413.682945866681
 20
1646.130052116372
 30
0.0
 11
-1398.452935866681
 21
1646.130052116372
 31
0.0
  0
LINE
  5
10844
330
1A
100
AcDbEntity
  8
ZISSEN1
100
AcDbLine
 10
-1397.187935866679
 20
1685.712062116373
 30
0.0
 11
-1404.787925866681
 21
1685.712062116373
 31
0.0
  0
LINE
  5
10845
330
1A
100
AcDbEntity
  8
ZISSEN1
100
AcDbLine
 10
-1397.187935866679
 20
1658.312062116372
 30
0.0
 11
-1404.787925866681
 21
1658.312062116372
 31
0.0
  0
LINE
  5
10846
330
1A
100
AcDbEntity
  8
ZISSEN1
100
AcDbLine
 10
-1448.567933866681
 20
1688.170052116372
 30
0.0
 11
-1363.567955866681
 21
1688.170052116372
 31
0.0
  0
LINE
  5
10847
330
1A
100
AcDbEntity
  8
ZISSEN1
100
AcDbLine
 10
-1356.775065866681
 20
1635.150062116371
 30
0.0
 11
-1455.360837866679
 21
1635.150062116371
 31
0.0
  0
LINE
  5
10848
330
1A
100
AcDbEntity
  8
ZISSEN1
100
AcDbLine
 10
-1413.682945866681
 20
1646.130052116372
 30
0.0
 11
-1413.682945866681
 21
1638.830052116373
 31
0.0
  0
LINE
  5
10849
330
1A
100
AcDbEntity
  8
ZISSEN1
100
AcDbLine
 10
-1445.60295586668
 20
1650.707062116373
 30
0.0
 11
-1445.60295586668
 21
1638.707062116373
 31
0.0
  0
LINE
  5
1084A
330
1A
100
AcDbEntity
  8
ZISSEN1
100
AcDbLine
 10
-1421.142945866681
 20
1650.707062116373
 30
0.0
 11
-1421.142945866681
 21
1638.707062116373
 31
0.0
  0
LINE
  5
1084B
330
1A
100
AcDbEntity
  8
ZISSEN1
100
AcDbLine
 10
-1456.067952866679
 20
1675.942942116373
 30
0.0
 11
-1456.067952866679
 21
1635.857172116373
 31
0.0
  0
LINE
  5
1084C
330
1A
100
AcDbEntity
  8
ZISSEN1
100
AcDbLine
 10
-1445.60295586668
 20
1638.707062116373
 30
0.0
 11
-1421.142945866681
 21
1638.707062116373
 31
0.0
  0
LINE
  5
10851
330
1A
100
AcDbEntity
  8
ZISSEN1
100
AcDbLine
 10
-1455.360837866679
 20
1635.150062116371
 30
0.0
 11
-1456.067952866679
 21
1635.857172116373
 31
0.0
  0
LINE
  5
10852
330
1A
100
AcDbEntity
  8
ZISSEN1
100
AcDbLine
 10
-1445.60295586668
 20
1650.707062116373
 30
0.0
 11
-1421.142945866681
 21
1650.707062116373
 31
0.0
  0
LINE
  5
10853
330
1A
100
AcDbEntity
  8
ZISSEN1
100
AcDbLine
 10
-1432.747935866681
 20
1685.712062116373
 30
0.0
 11
-1440.347925866681
 21
1685.712062116373
 31
0.0
  0
LINE
  5
10854
330
1A
100
AcDbEntity
  8
ZISSEN1
100
AcDbLine
 10
-1432.747935866681
 20
1658.312062116372
 30
0.0
 11
-1440.347925866681
 21
1658.312062116372
 31
0.0
  0
LINE
  5
10855
330
1A
100
AcDbEntity
  8
ZISSEN1
100
AcDbLine
 10
-1440.347925866681
 20
1658.312062116372
 30
0.0
 11
-1440.347925866681
 21
1685.712062116373
 31
0.0
  0
ARC
  5
10856
330
1A
100
AcDbEntity
  8
ZISSEN1
100
AcDbCircle
 10
-1452.567946866681
 20
1680.150062116372
 30
0.0
 40
1.749999899999999
100
AcDbArc
 50
270.0
 51
90.0
  0
ARC
  5
10857
330
1A
100
AcDbEntity
  8
ZISSEN1
100
AcDbCircle
 10
-1452.567946866681
 20
1680.150062116372
 30
0.0
 40
3.499999899999998
100
AcDbArc
 50
270.0
 51
90.0
  0
LINE
  5
10858
330
1A
100
AcDbEntity
  8
CL1
100
AcDbLine
 10
-1461.067943866679
 20
1680.150062116372
 30
0.0
 11
-1447.567948866679
 21
1680.150062116372
 31
0.0
  0
LINE
  5
10859
330
1A
100
AcDbEntity
  8
CL1
100
AcDbLine
 10
-1453.06794886668
 20
1671.650062116373
 30
0.0
 11
-1453.06794886668
 21
1688.650062116373
 31
0.0
  0
LINE
  5
1085A
330
1A
100
AcDbEntity
  8
ZISSEN1
100
AcDbLine
 10
-1456.067952866679
 20
1678.400072116373
 30
0.0
 11
-1456.067952866679
 21
1676.650052116373
 31
0.0
  0
LINE
  5
1085B
330
1A
100
AcDbEntity
  8
ZISSEN1
100
AcDbLine
 10
-1455.360837866679
 20
1676.650052116373
 30
0.0
 11
-1456.067952866679
 21
1675.942942116373
 31
0.0
  0
LINE
  5
1085C
330
1A
100
AcDbEntity
  8
ZISSEN1
100
AcDbLine
 10
-1456.067952866679
 20
1676.650052116373
 30
0.0
 11
-1456.067952866679
 21
1675.942942116373
 31
0.0
  0
LINE
  5
1085D
330
1A
100
AcDbEntity
  8
ZISSEN1
100
AcDbLine
 10
-1455.360837866679
 20
1676.650052116373
 30
0.0
 11
-1452.567946866681
 21
1676.650052116373
 31
0.0
  0
LINE
  5
1085E
330
1A
100
AcDbEntity
  8
ZISSEN1
100
AcDbLine
 10
-1456.067952866679
 20
1683.650072116373
 30
0.0
 11
-1456.067952866679
 21
1684.357182116373
 31
0.0
  0
LINE
  5
1085F
330
1A
100
AcDbEntity
  8
ZISSEN1
100
AcDbLine
 10
-1456.067952866679
 20
1684.357182116373
 30
0.0
 11
-1455.360837866679
 21
1683.650072116373
 31
0.0
  0
LINE
  5
10860
330
1A
100
AcDbEntity
  8
ZISSEN1
100
AcDbLine
 10
-1452.567946866681
 20
1681.900032116373
 30
0.0
 11
-1456.067952866679
 21
1681.900032116373
 31
0.0
  0
LINE
  5
10861
330
1A
100
AcDbEntity
  8
ZISSEN1
100
AcDbLine
 10
-1452.567946866681
 20
1678.400072116373
 30
0.0
 11
-1456.067952866679
 21
1678.400072116373
 31
0.0
  0
LINE
  5
10862
330
1A
100
AcDbEntity
  8
ZISSEN1
100
AcDbLine
 10
-1455.360837866679
 20
1680.150062116372
 30
0.0
 11
-1456.067952866679
 21
1680.150062116372
 31
0.0
  0
LINE
  5
10863
330
1A
100
AcDbEntity
  8
ZISSEN1
100
AcDbLine
 10
-1456.067952866679
 20
1683.650072116373
 30
0.0
 11
-1456.067952866679
 21
1681.900032116373
 31
0.0
  0
LINE
  5
10864
330
1A
100
AcDbEntity
  8
ZISSEN1
100
AcDbLine
 10
-1455.360837866679
 20
1683.650072116373
 30
0.0
 11
-1452.567946866681
 21
1683.650072116373
 31
0.0
  0
LINE
  5
10865
330
1A
100
AcDbEntity
  8
ZISSEN1
100
AcDbLine
 10
-1432.747935866681
 20
1658.312062116372
 30
0.0
 11
-1432.747935866681
 21
1685.712062116373
 31
0.0
  0
LINE
  5
10866
330
1A
100
AcDbEntity
  8
ZISSEN1
100
AcDbLine
 10
-1414.967945866681
 20
1658.312062116372
 30
0.0
 11
-1414.967945866681
 21
1685.712062116373
 31
0.0
  0
LINE
  5
10867
330
1A
100
AcDbEntity
  8
ZISSEN1
100
AcDbLine
 10
-1422.567925866681
 20
1658.312062116372
 30
0.0
 11
-1422.567925866681
 21
1685.712062116373
 31
0.0
  0
LINE
  5
10868
330
1A
100
AcDbEntity
  8
ZISSEN1
100
AcDbLine
 10
-1404.787925866681
 20
1658.312062116372
 30
0.0
 11
-1404.787925866681
 21
1685.712062116373
 31
0.0
  0
LINE
  5
10869
330
1A
100
AcDbEntity
  8
ZISSEN1
100
AcDbLine
 10
-1432.727915866681
 20
1663.352042116373
 30
0.0
 11
-1432.727915866681
 21
1685.752072116373
 31
0.0
  0
LINE
  5
1086A
330
1A
100
AcDbEntity
  8
ZISSEN1
100
AcDbLine
 10
-1425.12792586668
 20
1663.352042116373
 30
0.0
 11
-1425.12792586668
 21
1685.752072116373
 31
0.0
  0
LINE
  5
1086B
330
1A
100
AcDbEntity
  8
ZISSEN1
100
AcDbLine
 10
-1414.94794586668
 20
1663.352042116373
 30
0.0
 11
-1414.94794586668
 21
1685.752072116373
 31
0.0
  0
LINE
  5
1086C
330
1A
100
AcDbEntity
  8
ZISSEN1
100
AcDbLine
 10
-1407.34793586668
 20
1663.352042116373
 30
0.0
 11
-1407.34793586668
 21
1685.752072116373
 31
0.0
  0
LINE
  5
1086D
330
1A
100
AcDbEntity
  8
ZISSEN1
100
AcDbLine
 10
-1414.967945866681
 20
1658.312062116372
 30
0.0
 11
-1422.567925866681
 21
1658.312062116372
 31
0.0
  0
LINE
  5
1086E
330
1A
100
AcDbEntity
  8
ZISSEN1
100
AcDbLine
 10
-1425.12792586668
 20
1663.352042116373
 30
0.0
 11
-1432.727915866681
 21
1663.352042116373
 31
0.0
  0
LINE
  5
1086F
330
1A
100
AcDbEntity
  8
ZISSEN1
100
AcDbLine
 10
-1407.34793586668
 20
1663.352042116373
 30
0.0
 11
-1414.94794586668
 21
1663.352042116373
 31
0.0
  0
LINE
  5
10870
330
1A
100
AcDbEntity
  8
ZISSEN1
100
AcDbLine
 10
-1414.967945866681
 20
1685.712062116373
 30
0.0
 11
-1422.567925866681
 21
1685.712062116373
 31
0.0
  0
LINE
  5
10871
330
1A
100
AcDbEntity
  8
ZISSEN1
100
AcDbLine
 10
-1425.12792586668
 20
1685.752072116373
 30
0.0
 11
-1432.727915866681
 21
1685.752072116373
 31
0.0
  0
LINE
  5
10872
330
1A
100
AcDbEntity
  8
ZISSEN1
100
AcDbLine
 10
-1407.34793586668
 20
1685.752072116373
 30
0.0
 11
-1414.94794586668
 21
1685.752072116373
 31
0.0
  0
LINE
  5
10873
330
1A
100
AcDbEntity
  8
ZISSEN1
100
AcDbLine
 10
-1378.127935866681
 20
1646.130052116372
 30
0.0
 11
-1378.127935866681
 21
1638.830052116373
 31
0.0
  0
LINE
  5
10874
330
1A
100
AcDbEntity
  8
ZISSEN1
100
AcDbLine
 10
-1393.357955866679
 20
1646.130052116372
 30
0.0
 11
-1393.357955866679
 21
1638.830052116373
 31
0.0
  0
LINE
  5
10875
330
1A
100
AcDbEntity
  8
ZISSEN1
100
AcDbLine
 10
-1398.452935866681
 20
1646.130052116372
 30
0.0
 11
-1398.452935866681
 21
1638.830052116373
 31
0.0
  0
LINE
  5
10876
330
1A
100
AcDbEntity
  8
ZISSEN1
100
AcDbLine
 10
-1356.067955866681
 20
1675.942942116373
 30
0.0
 11
-1356.067955866681
 21
1635.857172116373
 31
0.0
  0
LINE
  5
10877
330
1A
100
AcDbEntity
  8
ZISSEN1
100
AcDbLine
 10
-1393.357955866679
 20
1640.480062116373
 30
0.0
 11
-1378.127935866681
 21
1640.480062116373
 31
0.0
  0
LINE
  5
10878
330
1A
100
AcDbEntity
  8
ZISSEN1
100
AcDbLine
 10
-1393.357955866679
 20
1638.830052116373
 30
0.0
 11
-1378.127935866681
 21
1638.830052116373
 31
0.0
  0
LINE
  5
1087F
330
1A
100
AcDbEntity
  8
ZISSEN1
100
AcDbLine
 10
-1356.067955866681
 20
1635.857172116373
 30
0.0
 11
-1356.775065866681
 21
1635.150062116371
 31
0.0
  0
LINE
  5
10880
330
1A
100
AcDbEntity
  8
ZISSEN1
100
AcDbLine
 10
-1397.187935866679
 20
1658.312062116372
 30
0.0
 11
-1397.187935866679
 21
1685.712062116373
 31
0.0
  0
LINE
  5
10881
330
1A
100
AcDbEntity
  8
ZISSEN1
100
AcDbLine
 10
-1379.407935866679
 20
1658.312062116372
 30
0.0
 11
-1379.407935866679
 21
1685.712062116373
 31
0.0
  0
LINE
  5
10882
330
1A
100
AcDbEntity
  8
ZISSEN1
100
AcDbLine
 10
-1387.007925866679
 20
1658.312062116372
 30
0.0
 11
-1387.007925866679
 21
1685.712062116373
 31
0.0
  0
LINE
  5
10883
330
1A
100
AcDbEntity
  8
ZISSEN1
100
AcDbLine
 10
-1397.16791586668
 20
1663.352042116373
 30
0.0
 11
-1397.16791586668
 21
1685.752072116373
 31
0.0
  0
LINE
  5
10884
330
1A
100
AcDbEntity
  8
ZISSEN1
100
AcDbLine
 10
-1389.567925866681
 20
1663.352042116373
 30
0.0
 11
-1389.567925866681
 21
1685.752072116373
 31
0.0
  0
LINE
  5
10885
330
1A
100
AcDbEntity
  8
ZISSEN1
100
AcDbLine
 10
-1379.38793586668
 20
1663.352042116373
 30
0.0
 11
-1379.38793586668
 21
1685.752072116373
 31
0.0
  0
LINE
  5
10886
330
1A
100
AcDbEntity
  8
ZISSEN1
100
AcDbLine
 10
-1371.787945866681
 20
1663.352042116373
 30
0.0
 11
-1371.787945866681
 21
1685.752072116373
 31
0.0
  0
LINE
  5
10887
330
1A
100
AcDbEntity
  8
ZISSEN1
100
AcDbLine
 10
-1393.357955866679
 20
1644.480062116373
 30
0.0
 11
-1378.127935866681
 21
1644.480062116373
 31
0.0
  0
LINE
  5
10888
330
1A
100
AcDbEntity
  8
ZISSEN1
100
AcDbLine
 10
-1393.357955866679
 20
1646.130052116372
 30
0.0
 11
-1378.127935866681
 21
1646.130052116372
 31
0.0
  0
LINE
  5
10889
330
1A
100
AcDbEntity
  8
ZISSEN1
100
AcDbLine
 10
-1379.407935866679
 20
1658.312062116372
 30
0.0
 11
-1387.007925866679
 21
1658.312062116372
 31
0.0
  0
LINE
  5
1088A
330
1A
100
AcDbEntity
  8
ZISSEN1
100
AcDbLine
 10
-1389.567925866681
 20
1663.352042116373
 30
0.0
 11
-1397.16791586668
 21
1663.352042116373
 31
0.0
  0
LINE
  5
1088B
330
1A
100
AcDbEntity
  8
ZISSEN1
100
AcDbLine
 10
-1371.787945866681
 20
1663.352042116373
 30
0.0
 11
-1379.38793586668
 21
1663.352042116373
 31
0.0
  0
LINE
  5
1088C
330
1A
100
AcDbEntity
  8
ZISSEN1
100
AcDbLine
 10
-1379.407935866679
 20
1685.712062116373
 30
0.0
 11
-1387.007925866679
 21
1685.712062116373
 31
0.0
  0
LINE
  5
1088D
330
1A
100
AcDbEntity
  8
ZISSEN1
100
AcDbLine
 10
-1389.567925866681
 20
1685.752072116373
 30
0.0
 11
-1397.16791586668
 21
1685.752072116373
 31
0.0
  0
LINE
  5
1088E
330
1A
100
AcDbEntity
  8
ZISSEN1
100
AcDbLine
 10
-1371.787945866681
 20
1685.752072116373
 30
0.0
 11
-1379.38793586668
 21
1685.752072116373
 31
0.0
  0
LINE
  5
1088F
330
1A
100
AcDbEntity
  8
ZISSEN1
100
AcDbLine
 10
-1365.902945866681
 20
1645.982062116373
 30
0.0
 11
-1358.602935866681
 21
1645.982062116373
 31
0.0
  0
LINE
  5
10890
330
1A
100
AcDbEntity
  8
ZISSEN1
100
AcDbLine
 10
-1365.902945866681
 20
1653.592072116373
 30
0.0
 11
-1358.602935866681
 21
1653.592072116373
 31
0.0
  0
LINE
  5
10891
330
1A
100
AcDbEntity
  8
ZISSEN1
100
AcDbLine
 10
-1364.252955866681
 20
1645.982062116373
 30
0.0
 11
-1364.252955866681
 21
1653.592072116373
 31
0.0
  0
LINE
  5
10892
330
1A
100
AcDbEntity
  8
ZISSEN1
100
AcDbLine
 10
-1365.902945866681
 20
1645.982062116373
 30
0.0
 11
-1365.902945866681
 21
1653.592072116373
 31
0.0
  0
LINE
  5
10893
330
1A
100
AcDbEntity
  8
ZISSEN1
100
AcDbLine
 10
-1358.602935866681
 20
1645.982062116373
 30
0.0
 11
-1358.602935866681
 21
1653.592072116373
 31
0.0
  0
LINE
  5
10894
330
1A
100
AcDbEntity
  8
ZISSEN1
100
AcDbLine
 10
-1360.252955866681
 20
1645.982062116373
 30
0.0
 11
-1360.252955866681
 21
1653.592072116373
 31
0.0
  0
LINE
  5
10895
330
1A
100
AcDbEntity
  8
CL1
100
AcDbLine
 10
-1364.567955866681
 20
1680.150062116372
 30
0.0
 11
-1351.067935866681
 21
1680.150062116372
 31
0.0
  0
ARC
  5
10896
330
1A
100
AcDbEntity
  8
ZISSEN1
100
AcDbCircle
 10
-1359.567955866681
 20
1680.150062116372
 30
0.0
 40
3.499999899999998
100
AcDbArc
 50
90.0
 51
270.0
  0
LINE
  5
10897
330
1A
100
AcDbEntity
  8
CL1
100
AcDbLine
 10
-1359.067955866681
 20
1688.650062116373
 30
0.0
 11
-1359.067955866681
 21
1671.650062116373
 31
0.0
  0
LINE
  5
10898
330
1A
100
AcDbEntity
  8
ZISSEN1
100
AcDbLine
 10
-1356.067955866681
 20
1678.400072116373
 30
0.0
 11
-1356.067955866681
 21
1676.650052116373
 31
0.0
  0
LINE
  5
10899
330
1A
100
AcDbEntity
  8
ZISSEN1
100
AcDbLine
 10
-1356.775065866681
 20
1676.650052116373
 30
0.0
 11
-1359.567955866681
 21
1676.650052116373
 31
0.0
  0
LINE
  5
1089A
330
1A
100
AcDbEntity
  8
ZISSEN1
100
AcDbLine
 10
-1356.067955866681
 20
1675.942942116373
 30
0.0
 11
-1356.067955866681
 21
1676.650052116373
 31
0.0
  0
LINE
  5
1089B
330
1A
100
AcDbEntity
  8
ZISSEN1
100
AcDbLine
 10
-1356.775065866681
 20
1676.650052116373
 30
0.0
 11
-1356.067955866681
 21
1675.942942116373
 31
0.0
  0
LINE
  5
1089C
330
1A
100
AcDbEntity
  8
ZISSEN1
100
AcDbLine
 10
-1356.067955866681
 20
1683.650072116373
 30
0.0
 11
-1356.067955866681
 21
1684.357182116373
 31
0.0
  0
LINE
  5
1089D
330
1A
100
AcDbEntity
  8
ZISSEN1
100
AcDbLine
 10
-1356.067955866681
 20
1684.357182116373
 30
0.0
 11
-1356.775065866681
 21
1683.650072116373
 31
0.0
  0
LINE
  5
1089E
330
1A
100
AcDbEntity
  8
ZISSEN1
100
AcDbLine
 10
-1356.775065866681
 20
1683.650072116373
 30
0.0
 11
-1359.567955866681
 21
1683.650072116373
 31
0.0
  0
LINE
  5
1089F
330
1A
100
AcDbEntity
  8
ZISSEN1
100
AcDbLine
 10
-1359.567955866681
 20
1681.900032116373
 30
0.0
 11
-1356.067955866681
 21
1681.900032116373
 31
0.0
  0
LINE
  5
108A0
330
1A
100
AcDbEntity
  8
ZISSEN1
100
AcDbLine
 10
-1359.567955866681
 20
1678.400072116373
 30
0.0
 11
-1356.067955866681
 21
1678.400072116373
 31
0.0
  0
ARC
  5
108A1
330
1A
100
AcDbEntity
  8
ZISSEN1
100
AcDbCircle
 10
-1359.567955866681
 20
1680.150062116372
 30
0.0
 40
1.749999899999999
100
AcDbArc
 50
90.0
 51
270.0
  0
LINE
  5
108A2
330
1A
100
AcDbEntity
  8
ZISSEN1
100
AcDbLine
 10
-1356.067955866681
 20
1683.650072116373
 30
0.0
 11
-1356.067955866681
 21
1681.900032116373
 31
0.0
  0
LINE
  5
108A3
330
1A
100
AcDbEntity
  8
ZISSEN1
100
AcDbLine
 10
-1448.567933866681
 20
1699.670072116373
 30
0.0
 11
-1363.567955866681
 21
1699.670072116373
 31
0.0
  0
LINE
  5
108A4
330
1A
100
AcDbEntity
  8
ZISSEN1
100
AcDbLine
 10
-1356.775065866681
 20
1725.150062116372
 30
0.0
 11
-1455.360837866679
 21
1725.150062116372
 31
0.0
  0
LINE
  5
108A5
330
1A
100
AcDbEntity
  8
ZISSEN1
100
AcDbLine
 10
-1427.984955866681
 20
1719.447092116373
 30
0.0
 11
-1435.584935866681
 21
1719.447092116373
 31
0.0
  0
LINE
  5
108A6
330
1A
100
AcDbEntity
  8
ZISSEN1
100
AcDbLine
 10
-1427.984955866681
 20
1702.047052116373
 30
0.0
 11
-1435.584935866681
 21
1702.047052116373
 31
0.0
  0
LINE
  5
108A7
330
1A
100
AcDbEntity
  8
ZISSEN1
100
AcDbLine
 10
-1435.584935866681
 20
1702.047052116373
 30
0.0
 11
-1435.584935866681
 21
1719.447092116373
 31
0.0
  0
LINE
  5
108A8
330
1A
100
AcDbEntity
  8
ZISSEN1
100
AcDbLine
 10
-1445.109925866681
 20
1702.047052116373
 30
0.0
 11
-1445.109925866681
 21
1719.447092116373
 31
0.0
  0
LINE
  5
108A9
330
1A
100
AcDbEntity
  8
ZISSEN1
100
AcDbLine
 10
-1437.509935866681
 20
1702.047052116373
 30
0.0
 11
-1437.509935866681
 21
1719.447092116373
 31
0.0
  0
LINE
  5
108AA
330
1A
100
AcDbEntity
  8
ZISSEN1
100
AcDbLine
 10
-1437.509935866681
 20
1702.047052116373
 30
0.0
 11
-1445.109925866681
 21
1702.047052116373
 31
0.0
  0
LINE
  5
108AE
330
1A
100
AcDbEntity
  8
ZISSEN1
100
AcDbLine
 10
-1455.360837866679
 20
1725.150062116372
 30
0.0
 11
-1456.067952866679
 21
1724.442932116373
 31
0.0
  0
LINE
  5
108B0
330
1A
100
AcDbEntity
  8
ZISSEN1
100
AcDbLine
 10
-1437.509935866681
 20
1719.447092116373
 30
0.0
 11
-1445.109925866681
 21
1719.447092116373
 31
0.0
  0
LINE
  5
108B1
330
1A
100
AcDbEntity
  8
ZISSEN1
100
AcDbLine
 10
-1416.53493586668
 20
1702.047052116373
 30
0.0
 11
-1416.53493586668
 21
1719.447092116373
 31
0.0
  0
LINE
  5
108B2
330
1A
100
AcDbEntity
  8
ZISSEN1
100
AcDbLine
 10
-1408.934945866681
 20
1702.047052116373
 30
0.0
 11
-1408.934945866681
 21
1719.447092116373
 31
0.0
  0
LINE
  5
108B3
330
1A
100
AcDbEntity
  8
ZISSEN1
100
AcDbLine
 10
-1426.05994586668
 20
1702.047052116373
 30
0.0
 11
-1426.05994586668
 21
1719.447092116373
 31
0.0
  0
LINE
  5
108B4
330
1A
100
AcDbEntity
  8
ZISSEN1
100
AcDbLine
 10
-1418.459955866681
 20
1702.047052116373
 30
0.0
 11
-1418.459955866681
 21
1719.447092116373
 31
0.0
  0
LINE
  5
108B5
330
1A
100
AcDbEntity
  8
ZISSEN1
100
AcDbLine
 10
-1427.984955866681
 20
1702.047052116373
 30
0.0
 11
-1427.984955866681
 21
1719.447092116373
 31
0.0
  0
LINE
  5
108B6
330
1A
100
AcDbEntity
  8
ZISSEN1
100
AcDbLine
 10
-1418.459955866681
 20
1702.047052116373
 30
0.0
 11
-1426.05994586668
 21
1702.047052116373
 31
0.0
  0
LINE
  5
108B7
330
1A
100
AcDbEntity
  8
ZISSEN1
100
AcDbLine
 10
-1408.934945866681
 20
1702.047052116373
 30
0.0
 11
-1416.53493586668
 21
1702.047052116373
 31
0.0
  0
LINE
  5
108B8
330
1A
100
AcDbEntity
  8
ZISSEN1
100
AcDbLine
 10
-1418.459955866681
 20
1719.447092116373
 30
0.0
 11
-1426.05994586668
 21
1719.447092116373
 31
0.0
  0
LINE
  5
108B9
330
1A
100
AcDbEntity
  8
ZISSEN1
100
AcDbLine
 10
-1408.934945866681
 20
1719.447092116373
 30
0.0
 11
-1416.53493586668
 21
1719.447092116373
 31
0.0
  0
LINE
  5
108BA
330
1A
100
AcDbEntity
  8
ZISSEN1
100
AcDbLine
 10
-1386.054925866679
 20
1702.047052116373
 30
0.0
 11
-1386.054925866679
 21
1719.447092116373
 31
0.0
  0
LINE
  5
108BB
330
1A
100
AcDbEntity
  8
ZISSEN1
100
AcDbLine
 10
-1378.454945866681
 20
1702.047052116373
 30
0.0
 11
-1378.454945866681
 21
1719.447092116373
 31
0.0
  0
LINE
  5
108BC
330
1A
100
AcDbEntity
  8
ZISSEN1
100
AcDbLine
 10
-1378.454945866681
 20
1702.047052116373
 30
0.0
 11
-1386.054925866679
 21
1702.047052116373
 31
0.0
  0
LINE
  5
108BD
330
1A
100
AcDbEntity
  8
ZISSEN1
100
AcDbLine
 10
-1378.454945866681
 20
1719.447092116373
 30
0.0
 11
-1386.054925866679
 21
1719.447092116373
 31
0.0
  0
LINE
  5
108BF
330
1A
100
AcDbEntity
  8
ZISSEN1
100
AcDbLine
 10
-1356.067955866681
 20
1724.442932116373
 30
0.0
 11
-1356.775065866681
 21
1725.150062116372
 31
0.0
  0
LINE
  5
108C3
330
1A
100
AcDbEntity
  8
ZISSEN1
100
AcDbLine
 10
-1254.311185866681
 20
1725.150062116372
 30
0.0
 11
-1254.311185866681
 21
1635.150062116371
 31
0.0
  0
LINE
  5
108C4
330
1A
100
AcDbEntity
  8
ZISSEN1
100
AcDbLine
 10
-1255.911205866681
 20
1725.150062116372
 30
0.0
 11
-1255.911205866681
 21
1635.150062116371
 31
0.0
  0
LINE
  5
108C5
330
1A
100
AcDbEntity
  8
ZISSEN1
100
AcDbLine
 10
-1292.50119586668
 20
1696.683352116373
 30
0.0
 11
-1292.50119586668
 21
1689.440112116373
 31
0.0
  0
LINE
  5
108C6
330
1A
100
AcDbEntity
  8
ZISSEN1
100
AcDbLine
 10
-1280.911185866681
 20
1699.190112116373
 30
0.0
 11
-1280.911185866681
 21
1687.690102116373
 31
0.0
  0
LINE
  5
108C7
330
1A
100
AcDbEntity
  8
ZISSEN1
100
AcDbLine
 10
-1262.011215866681
 20
1699.190112116373
 30
0.0
 11
-1262.011215866681
 21
1687.690102116373
 31
0.0
  0
LINE
  5
108C8
330
1A
100
AcDbEntity
  8
ZISSEN1
100
AcDbLine
 10
-1300.911205866681
 20
1696.683352116373
 30
0.0
 11
-1300.911205866681
 21
1687.690102116373
 31
0.0
  0
LINE
  5
108C9
330
1A
100
AcDbEntity
  8
ZISSEN1
100
AcDbLine
 10
-1249.311195866681
 20
1725.150062116372
 30
0.0
 11
-1249.311195866681
 21
1635.150062116371
 31
0.0
  0
LINE
  5
108CA
330
1A
100
AcDbEntity
  8
ZISSEN1
100
AcDbLine
 10
-1246.311185866681
 20
1725.150062116372
 30
0.0
 11
-1246.311185866681
 21
1635.150062116371
 31
0.0
  0
LINE
  5
108CB
330
1A
100
AcDbEntity
  8
ZISSEN1
100
AcDbLine
 10
-1300.911205866681
 20
1687.690102116373
 30
0.0
 11
-1262.011215866681
 21
1687.690102116373
 31
0.0
  0
LINE
  5
108CC
330
1A
100
AcDbEntity
  8
ZISSEN1
100
AcDbLine
 10
-1300.911205866681
 20
1689.440112116373
 30
0.0
 11
-1292.50119586668
 21
1689.440112116373
 31
0.0
  0
LINE
  5
108CD
330
1A
100
AcDbEntity
  8
ZISSEN1
100
AcDbLine
 10
-1264.41120586668
 20
1644.480062116373
 30
0.0
 11
-1264.41120586668
 21
1640.480062116373
 31
0.0
  0
LINE
  5
108CE
330
1A
100
AcDbEntity
  8
ZISSEN1
100
AcDbLine
 10
-1255.911205866681
 20
1646.130052116372
 30
0.0
 11
-1255.911205866681
 21
1638.830052116373
 31
0.0
  0
LINE
  5
108CF
330
1A
100
AcDbEntity
  8
ZISSEN1
100
AcDbLine
 10
-1255.911205866681
 20
1650.707062116373
 30
0.0
 11
-1255.911205866681
 21
1638.707062116373
 31
0.0
  0
LINE
  5
108D0
330
1A
100
AcDbEntity
  8
ZISSEN1
100
AcDbLine
 10
-1270.911205866681
 20
1650.707062116373
 30
0.0
 11
-1270.911205866681
 21
1638.707062116373
 31
0.0
  0
LINE
  5
108D1
330
1A
100
AcDbEntity
  8
ZISSEN1
100
AcDbLine
 10
-1254.311185866681
 20
1635.857172116373
 30
0.0
 11
-1255.911205866681
 21
1635.857172116373
 31
0.0
  0
LINE
  5
108D2
330
1A
100
AcDbEntity
  8
ZISSEN1
100
AcDbLine
 10
-1254.311185866681
 20
1635.150062116371
 30
0.0
 11
-1255.911205866681
 21
1635.150062116371
 31
0.0
  0
LINE
  5
108D3
330
1A
100
AcDbEntity
  8
ZISSEN1
100
AcDbLine
 10
-1264.41120586668
 20
1640.480062116373
 30
0.0
 11
-1260.411225866681
 21
1638.830052116373
 31
0.0
  0
LINE
  5
108D4
330
1A
100
AcDbEntity
  8
ZISSEN1
100
AcDbLine
 10
-1270.911205866681
 20
1638.707062116373
 30
0.0
 11
-1255.911205866681
 21
1638.707062116373
 31
0.0
  0
LINE
  5
108D5
330
1A
100
AcDbEntity
  8
ZISSEN1
100
AcDbLine
 10
-1260.411225866681
 20
1638.830052116373
 30
0.0
 11
-1255.911205866681
 21
1638.830052116373
 31
0.0
  0
LINE
  5
108D6
330
1A
100
AcDbEntity
  8
ZISSEN1
100
AcDbLine
 10
-1249.311195866681
 20
1635.150062116371
 30
0.0
 11
-1246.311185866681
 21
1635.150062116371
 31
0.0
  0
LINE
  5
108D7
330
1A
100
AcDbEntity
  8
ZISSEN1
100
AcDbLine
 10
-1249.311195866681
 20
1635.857172116373
 30
0.0
 11
-1246.311185866681
 21
1635.857172116373
 31
0.0
  0
LINE
  5
108D8
330
1A
100
AcDbEntity
  8
ZISSEN1
100
AcDbLine
 10
-1254.311185866681
 20
1635.450062116373
 30
0.0
 11
-1249.311195866681
 21
1635.450062116373
 31
0.0
  0
LINE
  5
108D9
330
1A
100
AcDbEntity
  8
ZISSEN1
100
AcDbLine
 10
-1254.311185866681
 20
1641.850052116373
 30
0.0
 11
-1249.311195866681
 21
1641.850052116373
 31
0.0
  0
LINE
  5
108DA
330
1A
100
AcDbEntity
  8
ZISSEN1
100
AcDbLine
 10
-1267.411175866681
 20
1658.312062116372
 30
0.0
 11
-1267.411175866681
 21
1685.712062116373
 31
0.0
  0
LINE
  5
108DB
330
1A
100
AcDbEntity
  8
ZISSEN1
100
AcDbLine
 10
-1255.911205866681
 20
1658.312062116372
 30
0.0
 11
-1255.911205866681
 21
1685.712062116373
 31
0.0
  0
LINE
  5
108DC
330
1A
100
AcDbEntity
  8
ZISSEN1
100
AcDbLine
 10
-1255.911205866681
 20
1663.352042116373
 30
0.0
 11
-1255.911205866681
 21
1685.752072116373
 31
0.0
  0
LINE
  5
108DD
330
1A
100
AcDbEntity
  8
ZISSEN1
100
AcDbLine
 10
-1267.411175866681
 20
1663.352042116373
 30
0.0
 11
-1267.411175866681
 21
1685.752072116373
 31
0.0
  0
LINE
  5
108DE
330
1A
100
AcDbEntity
  8
ZISSEN1
100
AcDbLine
 10
-1264.41120586668
 20
1653.592072116373
 30
0.0
 11
-1255.911205866681
 21
1653.592072116373
 31
0.0
  0
LINE
  5
108DF
330
1A
100
AcDbEntity
  8
ZISSEN1
100
AcDbLine
 10
-1264.41120586668
 20
1645.982062116373
 30
0.0
 11
-1255.911205866681
 21
1645.982062116373
 31
0.0
  0
LINE
  5
108E0
330
1A
100
AcDbEntity
  8
ZISSEN1
100
AcDbLine
 10
-1264.41120586668
 20
1644.480062116373
 30
0.0
 11
-1260.411225866681
 21
1646.130052116372
 31
0.0
  0
LINE
  5
108E1
330
1A
100
AcDbEntity
  8
ZISSEN1
100
AcDbLine
 10
-1264.41120586668
 20
1645.982062116373
 30
0.0
 11
-1264.41120586668
 21
1653.592072116373
 31
0.0
  0
LINE
  5
108E2
330
1A
100
AcDbEntity
  8
ZISSEN1
100
AcDbLine
 10
-1270.911205866681
 20
1650.707062116373
 30
0.0
 11
-1264.41120586668
 21
1650.707062116373
 31
0.0
  0
LINE
  5
108E3
330
1A
100
AcDbEntity
  8
ZISSEN1
100
AcDbLine
 10
-1260.411195866681
 20
1645.982062116373
 30
0.0
 11
-1260.411195866681
 21
1653.592072116373
 31
0.0
  0
LINE
  5
108E4
330
1A
100
AcDbEntity
  8
ZISSEN1
100
AcDbLine
 10
-1255.911205866681
 20
1645.982062116373
 30
0.0
 11
-1255.911205866681
 21
1653.592072116373
 31
0.0
  0
LINE
  5
108E5
330
1A
100
AcDbEntity
  8
ZISSEN1
100
AcDbLine
 10
-1260.411225866681
 20
1646.130052116372
 30
0.0
 11
-1255.911205866681
 21
1646.130052116372
 31
0.0
  0
LINE
  5
108E6
330
1A
100
AcDbEntity
  8
ZISSEN1
100
AcDbLine
 10
-1267.411175866681
 20
1658.312062116372
 30
0.0
 11
-1255.911205866681
 21
1658.312062116372
 31
0.0
  0
LINE
  5
108E7
330
1A
100
AcDbEntity
  8
ZISSEN1
100
AcDbLine
 10
-1267.411175866681
 20
1663.352042116373
 30
0.0
 11
-1255.911205866681
 21
1663.352042116373
 31
0.0
  0
LINE
  5
108E9
330
1A
100
AcDbEntity
  8
ZISSEN1
100
AcDbLine
 10
-1255.911205866681
 20
1676.650052116373
 30
0.0
 11
-1254.311185866681
 21
1676.650052116373
 31
0.0
  0
LINE
  5
108EA
330
1A
100
AcDbEntity
  8
ZISSEN1
100
AcDbLine
 10
-1255.911205866681
 20
1675.942942116373
 30
0.0
 11
-1254.311185866681
 21
1675.942942116373
 31
0.0
  0
LINE
  5
108EB
330
1A
100
AcDbEntity
  8
ZISSEN1
100
AcDbLine
 10
-1255.911205866681
 20
1683.650072116373
 30
0.0
 11
-1254.311185866681
 21
1683.650072116373
 31
0.0
  0
LINE
  5
108EC
330
1A
100
AcDbEntity
  8
ZISSEN1
100
AcDbLine
 10
-1254.311185866681
 20
1684.357182116373
 30
0.0
 11
-1255.911205866681
 21
1684.357182116373
 31
0.0
  0
LINE
  5
108ED
330
1A
100
AcDbEntity
  8
ZISSEN1
100
AcDbLine
 10
-1267.411175866681
 20
1685.712062116373
 30
0.0
 11
-1255.911205866681
 21
1685.712062116373
 31
0.0
  0
LINE
  5
108EE
330
1A
100
AcDbEntity
  8
ZISSEN1
100
AcDbLine
 10
-1267.411175866681
 20
1685.752072116373
 30
0.0
 11
-1255.911205866681
 21
1685.752072116373
 31
0.0
  0
LINE
  5
108EF
330
1A
100
AcDbEntity
  8
ZISSEN1
100
AcDbLine
 10
-1262.011215866681
 20
1687.690102116373
 30
0.0
 11
-1255.911205866681
 21
1687.690102116373
 31
0.0
  0
LINE
  5
108F1
330
1A
100
AcDbEntity
  8
ZISSEN1
100
AcDbLine
 10
-1300.911205866681
 20
1699.190112116373
 30
0.0
 11
-1262.011215866681
 21
1699.190112116373
 31
0.0
  0
LINE
  5
108F2
330
1A
100
AcDbEntity
  8
ZISSEN1
100
AcDbLine
 10
-1292.50119586668
 20
1696.440092116373
 30
0.0
 11
-1280.911185866681
 21
1696.440092116373
 31
0.0
  0
LINE
  5
108F3
330
1A
100
AcDbEntity
  8
ZISSEN1
100
AcDbLine
 10
-1292.50119586668
 20
1690.440122116373
 30
0.0
 11
-1280.911185866681
 21
1690.440122116373
 31
0.0
  0
LINE
  5
108F4
330
1A
100
AcDbEntity
  8
ZISSEN1
100
AcDbLine
 10
-1300.911205866681
 20
1697.440092116373
 30
0.0
 11
-1292.50119586668
 21
1697.440092116373
 31
0.0
  0
LINE
  5
108F5
330
1A
100
AcDbEntity
  8
ZISSEN1
100
AcDbLine
 10
-1300.911205866681
 20
1699.190082116373
 30
0.0
 11
-1300.911205866681
 21
1696.683352116373
 31
0.0
  0
LINE
  5
108F6
330
1A
100
AcDbEntity
  8
ZISSEN1
100
AcDbLine
 10
-1292.50119586668
 20
1696.683352116373
 30
0.0
 11
-1292.50119586668
 21
1697.440092116373
 31
0.0
  0
LINE
  5
108F7
330
1A
100
AcDbEntity
  8
ZISSEN1
100
AcDbLine
 10
-1255.911205866681
 20
1702.047052116373
 30
0.0
 11
-1255.911205866681
 21
1719.447092116373
 31
0.0
  0
LINE
  5
108F8
330
1A
100
AcDbEntity
  8
ZISSEN1
100
AcDbLine
 10
-1267.411175866681
 20
1702.047052116373
 30
0.0
 11
-1267.411175866681
 21
1719.447092116373
 31
0.0
  0
LINE
  5
108F9
330
1A
100
AcDbEntity
  8
ZISSEN1
100
AcDbLine
 10
-1262.011215866681
 20
1699.190112116373
 30
0.0
 11
-1255.911205866681
 21
1699.190112116373
 31
0.0
  0
LINE
  5
108FA
330
1A
100
AcDbEntity
  8
ZISSEN1
100
AcDbLine
 10
-1267.411175866681
 20
1702.047052116373
 30
0.0
 11
-1255.911205866681
 21
1702.047052116373
 31
0.0
  0
LINE
  5
108FC
330
1A
100
AcDbEntity
  8
ZISSEN1
100
AcDbLine
 10
-1254.311185866681
 20
1724.442932116373
 30
0.0
 11
-1255.911205866681
 21
1724.442932116373
 31
0.0
  0
LINE
  5
108FD
330
1A
100
AcDbEntity
  8
ZISSEN1
100
AcDbLine
 10
-1254.311185866681
 20
1725.150062116372
 30
0.0
 11
-1255.911205866681
 21
1725.150062116372
 31
0.0
  0
LINE
  5
108FE
330
1A
100
AcDbEntity
  8
ZISSEN1
100
AcDbLine
 10
-1267.411175866681
 20
1719.447092116373
 30
0.0
 11
-1255.911205866681
 21
1719.447092116373
 31
0.0
  0
LINE
  5
108FF
330
1A
100
AcDbEntity
  8
ZISSEN1
100
AcDbLine
 10
-1249.311195866681
 20
1724.442932116373
 30
0.0
 11
-1246.311185866681
 21
1724.442932116373
 31
0.0
  0
LINE
  5
10900
330
1A
100
AcDbEntity
  8
ZISSEN1
100
AcDbLine
 10
-1254.311185866681
 20
1718.450032116373
 30
0.0
 11
-1249.311195866681
 21
1718.450032116373
 31
0.0
  0
LINE
  5
10901
330
1A
100
AcDbEntity
  8
ZISSEN1
100
AcDbLine
 10
-1249.311195866681
 20
1725.150062116372
 30
0.0
 11
-1246.311185866681
 21
1725.150062116372
 31
0.0
  0
LINE
  5
10902
330
1A
100
AcDbEntity
  8
ZISSEN1
100
AcDbLine
 10
-1254.311185866681
 20
1724.850042116373
 30
0.0
 11
-1249.311195866681
 21
1724.850042116373
 31
0.0
  0
MTEXT
  5
1092B
330
1A
100
AcDbEntity
  8
ZISSEN1
100
AcDbMText
 10
-1443.31415013389
 20
1750.702005628622
 30
0.0
 40
5.0
 41
90.3852
 71
     1
 72
     5
  1
CB-25/B4C No.SS0001f12
  7
ゴシック体
1001
ACAD
1000
MTEXTBEGIN
1070
    73
1070
     1
1070
    44
1040
1.0
1070
    74
1070
     0
1000
MTEXTEND
  0
LINE
  5
10941
330
1A
100
AcDbEntity
  8
KAKURESEN1
100
AcDbLine
 10
-1434.398647204718
 20
1519.28008165492
 30
0.0
 11
-1427.737767204718
 21
1519.28008165492
 31
0.0
  0
LINE
  5
10942
330
1A
100
AcDbEntity
  8
ZISSEN1
100
AcDbLine
 10
-1434.398647204718
 20
1513.035491654919
 30
0.0
 11
-1427.737767204718
 21
1513.035491654919
 31
0.0
  0
LINE
  5
10943
330
1A
100
AcDbEntity
  8
ZISSEN1
100
AcDbLine
 10
-1434.398647204718
 20
1513.035491654919
 30
0.0
 11
-1434.398647204718
 21
1524.06762165492
 31
0.0
  0
LINE
  5
10944
330
1A
100
AcDbEntity
  8
ZISSEN1
100
AcDbLine
 10
-1427.737767204718
 20
1513.035491654919
 30
0.0
 11
-1427.737767204718
 21
1524.06762165492
 31
0.0
  0
LINE
  5
10945
330
1A
100
AcDbEntity
  8
KAKURESEN1
100
AcDbLine
 10
-1384.398657204719
 20
1519.28008165492
 30
0.0
 11
-1377.737777204719
 21
1519.28008165492
 31
0.0
  0
LINE
  5
10946
330
1A
100
AcDbEntity
  8
ZISSEN1
100
AcDbLine
 10
-1384.398657204719
 20
1513.035491654919
 30
0.0
 11
-1377.737777204719
 21
1513.035491654919
 31
0.0
  0
LINE
  5
10947
330
1A
100
AcDbEntity
  8
ZISSEN1
100
AcDbLine
 10
-1384.398657204719
 20
1513.035491654919
 30
0.0
 11
-1384.398657204719
 21
1524.06762165492
 31
0.0
  0
LINE
  5
10948
330
1A
100
AcDbEntity
  8
ZISSEN1
100
AcDbLine
 10
-1377.737777204719
 20
1513.035491654919
 30
0.0
 11
-1377.737777204719
 21
1524.06762165492
 31
0.0
  0
LINE
  5
10AD5
330
1A
100
AcDbEntity
  8
ZISSEN1
100
AcDbLine
 10
-1241.523675036372
 20
1663.901851006611
 30
0.0
 11
-1241.523675036372
 21
1678.069911006612
 31
0.0
  0
LINE
  5
10AD6
330
1A
100
AcDbEntity
  8
ZISSEN1
100
AcDbLine
 10
-1246.311215036372
 20
1694.618091006613
 30
0.0
 11
-1246.311215036372
 21
1665.684801006612
 31
0.0
  0
LINE
  5
10AD7
330
1A
100
AcDbEntity
  8
ZISSEN1
100
AcDbLine
 10
-1236.743255036372
 20
1662.508591006613
 30
0.0
 11
-1236.162815036371
 21
1662.073271006613
 31
0.0
  0
LINE
  5
10AD8
330
1A
100
AcDbEntity
  8
ZISSEN1
100
AcDbLine
 10
-1236.162815036371
 20
1662.073271006613
 30
0.0
 11
-1235.582365036372
 21
1661.492821006611
 31
0.0
  0
LINE
  5
10AD9
330
1A
100
AcDbEntity
  8
ZISSEN1
100
AcDbLine
 10
-1235.582365036372
 20
1661.492821006611
 30
0.0
 11
-1235.582365036372
 21
1660.767261006612
 31
0.0
  0
LINE
  5
10ADA
330
1A
100
AcDbEntity
  8
ZISSEN1
100
AcDbLine
 10
-1235.582365036372
 20
1660.767261006612
 30
0.0
 11
-1235.582365036372
 21
1660.622161006612
 31
0.0
  0
LINE
  5
10ADB
330
1A
100
AcDbEntity
  8
ZISSEN1
100
AcDbLine
 10
-1235.292125036372
 20
1660.041691006613
 30
0.0
 11
-1235.437245036372
 21
1660.767261006612
 31
0.0
  0
LINE
  5
10ADC
330
1A
100
AcDbEntity
  8
ZISSEN1
100
AcDbLine
 10
-1235.437245036372
 20
1660.767261006612
 30
0.0
 11
-1235.582365036372
 21
1660.912361006612
 31
0.0
  0
ARC
  5
10ADD
330
1A
100
AcDbEntity
  8
ZISSEN1
100
AcDbCircle
 10
-1236.978865036372
 20
1660.194751006613
 30
0.0
 40
0.3902874
100
AcDbArc
 50
280.0000000000059
 51
89.99998400000361
  0
LINE
  5
10ADE
330
1A
100
AcDbEntity
  8
ZISSEN1
100
AcDbLine
 10
-1240.274745036372
 20
1662.146191006612
 30
0.0
 11
-1240.107745036372
 21
1662.769391006611
 31
0.0
  0
LINE
  5
10ADF
330
1A
100
AcDbEntity
  8
ZISSEN1
100
AcDbLine
 10
-1240.080825036372
 20
1662.798811006612
 30
0.0
 11
-1239.645475036372
 21
1662.798811006612
 31
0.0
  0
LINE
  5
10AE0
330
1A
100
AcDbEntity
  8
ZISSEN1
100
AcDbLine
 10
-1239.645475036372
 20
1662.798811006612
 30
0.0
 11
-1239.065035036372
 21
1662.798811006612
 31
0.0
  0
LINE
  5
10AE1
330
1A
100
AcDbEntity
  8
ZISSEN1
100
AcDbLine
 10
-1239.065035036372
 20
1662.798811006612
 30
0.0
 11
-1238.484585036371
 21
1662.798811006612
 31
0.0
  0
LINE
  5
10AE2
330
1A
100
AcDbEntity
  8
ZISSEN1
100
AcDbLine
 10
-1238.484585036371
 20
1662.798811006612
 30
0.0
 11
-1237.904145036372
 21
1662.798811006612
 31
0.0
  0
LINE
  5
10AE3
330
1A
100
AcDbEntity
  8
ZISSEN1
100
AcDbLine
 10
-1237.904145036372
 20
1662.798811006612
 30
0.0
 11
-1237.323705036372
 21
1662.798811006612
 31
0.0
  0
LINE
  5
10AE4
330
1A
100
AcDbEntity
  8
ZISSEN1
100
AcDbLine
 10
-1241.523675036372
 20
1662.146191006612
 30
0.0
 11
-1243.635815036372
 21
1662.712131006613
 31
0.0
  0
LINE
  5
10AE5
330
1A
100
AcDbEntity
  8
ZISSEN1
100
AcDbLine
 10
-1241.729195036372
 20
1660.585041006611
 30
0.0
 11
-1244.143935036372
 21
1661.232051006613
 31
0.0
  0
LINE
  5
10AE6
330
1A
100
AcDbEntity
  8
ZISSEN1
100
AcDbLine
 10
-1242.178715036372
 20
1663.399201006613
 30
0.0
 11
-1243.366425036372
 21
1663.717431006611
 31
0.0
  0
ARC
  5
10AE7
330
1A
100
AcDbEntity
  8
ZISSEN1
100
AcDbCircle
 10
-1242.044065036372
 20
1663.901851006611
 30
0.0
 40
0.5203832000000001
100
AcDbArc
 50
255.0000000000055
 51
359.9999799999979
  0
ARC
  5
10AE8
330
1A
100
AcDbEntity
  8
ZISSEN1
100
AcDbCircle
 10
-1243.501135036372
 20
1663.214781006613
 30
0.0
 40
0.5203829000000001
100
AcDbArc
 50
75.00000000000555
 51
254.9999800000044
  0
LINE
  5
10AE9
330
1A
100
AcDbEntity
  8
ZISSEN1
100
AcDbLine
 10
-1241.523675036372
 20
1662.146191006612
 30
0.0
 11
-1240.274745036372
 21
1662.146191006612
 31
0.0
  0
LINE
  5
10AEA
330
1A
100
AcDbEntity
  8
ZISSEN1
100
AcDbLine
 10
-1240.170695036372
 20
1659.235601006613
 30
0.0
 11
-1236.911095036371
 21
1659.810411006612
 31
0.0
  0
LINE
  5
10AEB
330
1A
100
AcDbEntity
  8
ZISSEN1
100
AcDbLine
 10
-1241.729195036372
 20
1660.585041006611
 30
0.0
 11
-1236.978865036372
 21
1660.585041006611
 31
0.0
  0
LINE
  5
10AEC
330
1A
100
AcDbEntity
  8
ZISSEN1
100
AcDbLine
 10
-1237.323705036372
 20
1662.798811006612
 30
0.0
 11
-1236.743255036372
 21
1662.508591006613
 31
0.0
  0
LINE
  5
10AED
330
1A
100
AcDbEntity
  8
ZISSEN1
100
AcDbLine
 10
-1245.686725036372
 20
1664.435871006611
 30
0.0
 11
-1245.686725036372
 21
1663.242671006613
 31
0.0
  0
ARC
  5
10AEE
330
1A
100
AcDbEntity
  8
ZISSEN1
100
AcDbCircle
 10
-1247.247865036372
 20
1664.435871006611
 30
0.0
 40
1.5611496
100
AcDbArc
 50
0.0
 51
53.1301869999975
  0
ARC
  5
10AEF
330
1A
100
AcDbEntity
  8
ZISSEN1
100
AcDbCircle
 10
-1243.605205036372
 20
1663.242671006613
 30
0.0
 40
2.081532899999999
100
AcDbArc
 50
180.0
 51
255.0000000000055
  0
ARC
  5
10AF0
330
1A
100
AcDbEntity
  8
ZISSEN1
100
AcDbCircle
 10
-1239.546205036372
 20
1658.711651006611
 30
0.0
 40
0.6244598000000004
100
AcDbArc
 50
179.9999799999978
 51
279.9999500000018
  0
LINE
  5
10AF1
330
1A
100
AcDbEntity
  8
ZISSEN1
100
AcDbLine
 10
-1236.569135036372
 20
1658.602501006612
 30
0.0
 11
-1239.437775036372
 21
1658.096691006613
 31
0.0
  0
LINE
  5
10AF2
330
1A
100
AcDbEntity
  8
ZISSEN1
100
AcDbLine
 10
-1240.170695036372
 20
1658.711651006611
 30
0.0
 11
-1240.170695036372
 21
1660.585041006611
 31
0.0
  0
ARC
  5
10AF3
330
1A
100
AcDbEntity
  8
ZISSEN1
100
AcDbCircle
 10
-1236.840205036372
 20
1660.139921006613
 30
0.0
 40
1.5611496
100
AcDbArc
 50
280.0000000000059
 51
0.0
  0
LINE
  5
10AF4
330
1A
100
AcDbEntity
  8
ZISSEN1
100
AcDbLine
 10
-1235.292125036372
 20
1700.092501006611
 30
0.0
 11
-1235.279055036372
 21
1700.162991006612
 31
0.0
  0
ARC
  5
10AF5
330
1A
100
AcDbEntity
  8
ZISSEN1
100
AcDbCircle
 10
-1236.840205036372
 20
1700.162991006612
 30
0.0
 40
1.5611496
100
AcDbArc
 50
0.0
 51
79.99998400000435
  0
LINE
  5
10AF6
330
1A
100
AcDbEntity
  8
ZISSEN1
100
AcDbLine
 10
-1236.888355036372
 20
1697.335371006612
 30
0.0
 11
-1236.307915036372
 21
1697.480501006613
 31
0.0
  0
LINE
  5
10AF7
330
1A
100
AcDbEntity
  8
ZISSEN1
100
AcDbLine
 10
-1236.307915036372
 20
1697.480501006613
 30
0.0
 11
-1235.727465036372
 21
1697.915821006611
 31
0.0
  0
LINE
  5
10AF8
330
1A
100
AcDbEntity
  8
ZISSEN1
100
AcDbLine
 10
-1235.727465036372
 20
1697.915821006611
 30
0.0
 11
-1235.292125036372
 21
1698.641391006613
 31
0.0
  0
LINE
  5
10AF9
330
1A
100
AcDbEntity
  8
ZISSEN1
100
AcDbLine
 10
-1235.292125036372
 20
1698.641391006613
 30
0.0
 11
-1235.292125036372
 21
1699.221831006611
 31
0.0
  0
LINE
  5
10AFA
330
1A
100
AcDbEntity
  8
ZISSEN1
100
AcDbLine
 10
-1235.147025036372
 20
1699.512051006613
 30
0.0
 11
-1235.727465036372
 21
1699.221831006611
 31
0.0
  0
LINE
  5
10AFB
330
1A
100
AcDbEntity
  8
ZISSEN1
100
AcDbLine
 10
-1235.727465036372
 20
1699.221831006611
 30
0.0
 11
-1235.437245036372
 21
1699.221831006611
 31
0.0
  0
LINE
  5
10AFC
330
1A
100
AcDbEntity
  8
ZISSEN1
100
AcDbLine
 10
-1235.292125036372
 20
1700.092501006611
 30
0.0
 11
-1235.147025036372
 21
1699.512051006613
 31
0.0
  0
ARC
  5
10AFD
330
1A
100
AcDbEntity
  8
ZISSEN1
100
AcDbCircle
 10
-1236.978865036372
 20
1700.108131006613
 30
0.0
 40
0.3902874
100
AcDbArc
 50
270.0
 51
79.99998400000435
  0
ARC
  5
10AFE
330
1A
100
AcDbEntity
  8
ZISSEN1
100
AcDbCircle
 10
-1239.546205036372
 20
1701.591241006611
 30
0.0
 40
0.6244598000000004
100
AcDbArc
 50
80.00002999999518
 51
180.0
  0
LINE
  5
10AFF
330
1A
100
AcDbEntity
  8
ZISSEN1
100
AcDbLine
 10
-1240.274745036372
 20
1698.156701006611
 30
0.0
 11
-1240.107745036372
 21
1697.533521006612
 31
0.0
  0
LINE
  5
10B00
330
1A
100
AcDbEntity
  8
ZISSEN1
100
AcDbLine
 10
-1239.790575036372
 20
1697.335371006612
 30
0.0
 11
-1239.210135036372
 21
1697.335371006612
 31
0.0
  0
LINE
  5
10B01
330
1A
100
AcDbEntity
  8
ZISSEN1
100
AcDbLine
 10
-1239.210135036372
 20
1697.335371006612
 30
0.0
 11
-1238.629685036372
 21
1697.335371006612
 31
0.0
  0
LINE
  5
10B02
330
1A
100
AcDbEntity
  8
ZISSEN1
100
AcDbLine
 10
-1238.629685036372
 20
1697.335371006612
 30
0.0
 11
-1238.049245036372
 21
1697.335371006612
 31
0.0
  0
LINE
  5
10B03
330
1A
100
AcDbEntity
  8
ZISSEN1
100
AcDbLine
 10
-1238.049245036372
 20
1697.335371006612
 30
0.0
 11
-1237.468795036372
 21
1697.335371006612
 31
0.0
  0
LINE
  5
10B04
330
1A
100
AcDbEntity
  8
ZISSEN1
100
AcDbLine
 10
-1240.225925036372
 20
1697.625601006613
 30
0.0
 11
-1239.790575036372
 21
1697.335371006612
 31
0.0
  0
LINE
  5
10B05
330
1A
100
AcDbEntity
  8
ZISSEN1
100
AcDbLine
 10
-1239.790575036372
 20
1697.335371006612
 30
0.0
 11
-1240.107745036372
 21
1697.533521006612
 31
0.0
  0
LINE
  5
10B06
330
1A
100
AcDbEntity
  8
ZISSEN1
100
AcDbLine
 10
-1241.729195036372
 20
1699.717851006612
 30
0.0
 11
-1244.143935036372
 21
1699.070821006613
 31
0.0
  0
LINE
  5
10B07
330
1A
100
AcDbEntity
  8
ZISSEN1
100
AcDbLine
 10
-1242.178715036372
 20
1696.903711006611
 30
0.0
 11
-1243.366425036372
 21
1696.585461006612
 31
0.0
  0
LINE
  5
10B08
330
1A
100
AcDbEntity
  8
ZISSEN1
100
AcDbLine
 10
-1241.523675036372
 20
1698.156701006611
 30
0.0
 11
-1243.635815036372
 21
1697.590761006613
 31
0.0
  0
ARC
  5
10B09
330
1A
100
AcDbEntity
  8
ZISSEN1
100
AcDbCircle
 10
-1242.044065036372
 20
1696.401041006612
 30
0.0
 40
0.5203832000000001
100
AcDbArc
 50
0.0
 51
104.9999799999933
  0
ARC
  5
10B0A
330
1A
100
AcDbEntity
  8
ZISSEN1
100
AcDbCircle
 10
-1243.501135036372
 20
1697.088111006613
 30
0.0
 40
0.5203829000000001
100
AcDbArc
 50
104.9999999999944
 51
284.9999799999933
  0
LINE
  5
10B0B
330
1A
100
AcDbEntity
  8
ZISSEN1
100
AcDbLine
 10
-1241.523675036372
 20
1698.156701006611
 30
0.0
 11
-1240.274745036372
 21
1698.156701006611
 31
0.0
  0
LINE
  5
10B0C
330
1A
100
AcDbEntity
  8
ZISSEN1
100
AcDbLine
 10
-1240.170695036372
 20
1701.591241006611
 30
0.0
 11
-1240.170695036372
 21
1699.717851006612
 31
0.0
  0
LINE
  5
10B0D
330
1A
100
AcDbEntity
  8
ZISSEN1
100
AcDbLine
 10
-1240.170695036372
 20
1701.067261006613
 30
0.0
 11
-1236.911095036371
 21
1700.492511006611
 31
0.0
  0
LINE
  5
10B0E
330
1A
100
AcDbEntity
  8
ZISSEN1
100
AcDbLine
 10
-1241.729195036372
 20
1699.717851006612
 30
0.0
 11
-1236.978865036372
 21
1699.717851006612
 31
0.0
  0
LINE
  5
10B0F
330
1A
100
AcDbEntity
  8
ZISSEN1
100
AcDbLine
 10
-1236.569135036372
 20
1701.700381006611
 30
0.0
 11
-1239.437775036372
 21
1702.206201006613
 31
0.0
  0
LINE
  5
10B10
330
1A
100
AcDbEntity
  8
ZISSEN1
100
AcDbLine
 10
-1237.468795036372
 20
1697.335371006612
 30
0.0
 11
-1236.888355036372
 21
1697.335371006612
 31
0.0
  0
LINE
  5
10B11
330
1A
100
AcDbEntity
  8
ZISSEN1
100
AcDbLine
 10
-1245.686725036372
 20
1695.867021006613
 30
0.0
 11
-1245.686725036372
 21
1697.060221006613
 31
0.0
  0
ARC
  5
10B12
330
1A
100
AcDbEntity
  8
ZISSEN1
100
AcDbCircle
 10
-1247.247865036372
 20
1695.867021006613
 30
0.0
 40
1.5611496
100
AcDbArc
 50
306.8697900000027
 51
0.0
  0
ARC
  5
10B13
330
1A
100
AcDbEntity
  8
ZISSEN1
100
AcDbCircle
 10
-1243.605205036372
 20
1697.060221006613
 30
0.0
 40
2.081532899999999
100
AcDbArc
 50
104.9999799999933
 51
180.0
  0
LINE
  5
10B14
330
1A
100
AcDbEntity
  8
ZISSEN1
100
AcDbLine
 10
-1241.523675036372
 20
1678.069911006612
 30
0.0
 11
-1241.835885036372
 21
1678.069911006612
 31
0.0
  0
LINE
  5
10B15
330
1A
100
AcDbEntity
  8
ZISSEN1
100
AcDbLine
 10
-1241.523675036372
 20
1682.232981006611
 30
0.0
 11
-1241.835885036372
 21
1682.232981006611
 31
0.0
  0
ARC
  5
10B16
330
1A
100
AcDbEntity
  8
ZISSEN1
100
AcDbCircle
 10
-1239.226565036372
 20
1680.151441006612
 30
0.0
 40
3.3378866
100
AcDbArc
 50
141.4199000000041
 51
218.5800700000092
  0
LINE
  5
10B17
330
1A
100
AcDbEntity
  8
KAKURESEN1
100
AcDbLine
 10
-1249.319215036372
 20
1678.590301006613
 30
0.0
 11
-1242.184865036372
 21
1678.590301006613
 31
0.0
  0
LINE
  5
10B18
330
1A
100
AcDbEntity
  8
KAKURESEN1
100
AcDbLine
 10
-1249.319215036372
 20
1679.110661006613
 30
0.0
 11
-1242.406045036372
 21
1679.110661006613
 31
0.0
  0
LINE
  5
10B19
330
1A
100
AcDbEntity
  8
KAKURESEN1
100
AcDbLine
 10
-1249.319215036372
 20
1681.712591006612
 30
0.0
 11
-1242.184865036372
 21
1681.712591006612
 31
0.0
  0
LINE
  5
10B1A
330
1A
100
AcDbEntity
  8
KAKURESEN1
100
AcDbLine
 10
-1249.319215036372
 20
1681.192201006612
 30
0.0
 11
-1242.406045036372
 21
1681.192201006612
 31
0.0
  0
LINE
  5
10B1B
330
1A
100
AcDbEntity
  8
ZISSEN1
100
AcDbLine
 10
-1241.523675036372
 20
1682.232981006611
 30
0.0
 11
-1241.523675036372
 21
1696.401041006612
 31
0.0
  0
LINE
  5
10B1C
330
1A
100
AcDbEntity
  8
CL1
100
AcDbLine
 10
-1238.531665036372
 20
1680.151441006612
 30
0.0
 11
-1252.319225036372
 21
1680.151441006612
 31
0.0
  0
LINE
  5
10B72
330
1A
100
AcDbEntity
  8
CL1
100
AcDbLine
 10
-1238.531665036372
 20
1680.147571251961
 30
0.0
 11
-1252.319225036372
 21
1680.147571251961
 31
0.0
  0
LINE
  5
10B83
330
1A
100
AcDbEntity
  8
ZISSEN1
100
AcDbLine
 10
-1249.311195866681
 20
1681.901441006612
 30
0.0
 11
-1246.319215036372
 21
1681.901441006612
 31
0.0
  0
LINE
  5
10BBF
330
1A
100
AcDbEntity
  8
ZISSEN1
100
AcDbLine
 10
-1249.311195866681
 20
1678.397571251958
 30
0.0
 11
-1246.311215036372
 21
1678.397571251958
 31
0.0
  0
LINE
  5
10BF1
330
1A
100
AcDbEntity
  8
SOUZOUSEN
100
AcDbLine
 10
-1394.068035866682
 20
1614.068986116373
 30
0.0
 11
-1380.410616142363
 21
1614.068986116373
 31
0.0
  0
LINE
  5
10BF7
330
1A
100
AcDbEntity
  8
SOUZOUSEN
100
AcDbLine
 10
-1403.068035866681
 20
1598.068986116373
 30
0.0
 11
-1403.068035866681
 21
1578.668982116373
 31
0.0
  0
LINE
  5
10BF9
330
1A
100
AcDbEntity
  8
SOUZOUSEN
100
AcDbLine
 10
-1409.068035866682
 20
1599.068986116373
 30
0.0
 11
-1409.06803586668
 21
1578.668982116373
 31
0.0
  0
LINE
  5
10BFB
330
1A
100
AcDbEntity
  8
SOUZOUSEN
100
AcDbLine
 10
-1393.06803586668
 20
1608.068986116373
 30
0.0
 11
-1380.242399195715
 21
1608.068986116373
 31
0.0
  0
ARC
  5
10C0F
330
1A
100
AcDbEntity
  8
SOUZOUSEN
100
AcDbCircle
 10
-1394.068035866682
 20
1599.068986116373
 30
0.0
 40
15.0
100
AcDbArc
 50
89.99999999999976
 51
180.0000000000011
  0
ARC
  5
10C13
330
1A
100
AcDbEntity
  8
SOUZOUSEN
100
AcDbCircle
 10
-1393.06803586668
 20
1598.068986116373
 30
0.0
 40
10.0
100
AcDbArc
 50
90.0
 51
180.0
  0
LINE
  5
10C1B
330
1A
100
AcDbEntity
  8
SOUZOUSEN
100
AcDbLine
 10
-1312.809870438151
 20
1690.440102116372
 30
0.0
 11
-1300.911205866681
 21
1690.440102116373
 31
0.0
  0
LINE
  5
10C1C
330
1A
100
AcDbEntity
  8
SOUZOUSEN
100
AcDbLine
 10
-1313.480685865914
 20
1696.440102116373
 30
0.0
 11
-1300.911205866681
 21
1696.440102116373
 31
0.0
  0
DIMENSION
  5
10C75
330
1A
100
AcDbEntity
  8
ZISSEN1
100
AcDbDimension
  2
*D25
 10
-1334.532692051419
 20
1524.068986116373
 30
0.0
 11
-1334.532692051419
 21
1569.068986116372
 31
0.0
 70
   160
  1
(<>)
  3
標準スタイル
100
AcDbAlignedDimension
 13
-1380.410616142363
 23
1614.068986116373
 33
0.0
 14
-1356.068045866681
 24
1524.068986116373
 34
0.0
 50
90.0
100
AcDbRotatedDimension
1001
ACAD
1000
DSTYLE
1002
{
1070
    40
1040
1.0
1002
}
  0
ARC
  5
10CA5
330
1A
100
AcDbEntity
  8
SOUZOUSEN
100
AcDbCircle
 10
-1309.144131297933
 20
1695.996493829426
 30
0.0
 40
4.3591849964559
100
AcDbArc
 50
151.6440182289071
 51
211.6317099242308
  0
ARC
  5
10CA6
330
1A
100
AcDbEntity
  8
SOUZOUSEN
100
AcDbCircle
 10
-1319.548604008182
 20
1691.849567001791
 30
0.0
 40
6.946741773199424
100
AcDbArc
 50
336.7263205059976
 51
15.53667792724915
  0
DIMENSION
  5
10CD7
330
1A
100
AcDbEntity
  8
SUNPOU
100
AcDbDimension
  2
*D26
 10
-1453.06794886668
 20
1735.844892617617
 30
0.0
 11
-1463.974044237239
 21
1735.844892617617
 31
0.0
 70
   160
  3
標準スタイル
100
AcDbAlignedDimension
 13
-1456.067952866679
 23
1724.442932116373
 33
0.0
 14
-1453.06794886668
 24
1688.650062116373
 34
0.0
100
AcDbRotatedDimension
1001
ACAD
1000
DSTYLE
1002
{
1070
    40
1040
1.0
1002
}
  0
DIMENSION
  5
10CF1
330
1A
100
AcDbEntity
  8
SUNPOU
100
AcDbDimension
  2
*D27
 10
-1465.880135607798
 20
1635.150062116371
 30
0.0
 11
-1468.630135607797
 21
1680.150062116372
 31
0.0
 70
    32
  3
標準スタイル
100
AcDbAlignedDimension
 13
-1455.360837866679
 23
1725.150062116372
 33
0.0
 14
-1455.360837866679
 24
1635.150062116371
 34
0.0
 50
90.0
100
AcDbRotatedDimension
1001
ACAD
1000
DSTYLE
1002
{
1070
    40
1040
1.0
1002
}
  0
DIMENSION
  5
10CFE
330
1A
100
AcDbEntity
  8
SUNPOU
100
AcDbDimension
  2
*D28
 10
-1359.067955866681
 20
1735.844892617617
 30
0.0
 11
-1406.067952366679
 21
1738.594892617617
 31
0.0
 70
    32
  3
標準スタイル
100
AcDbAlignedDimension
 13
-1453.06794886668
 23
1725.150062116372
 33
0.0
 14
-1359.067955866681
 24
1688.650062116373
 34
0.0
100
AcDbRotatedDimension
1001
ACAD
1000
DSTYLE
1002
{
1070
    40
1040
1.0
1002
}
  0
DIMENSION
  5
10D0B
330
1A
100
AcDbEntity
  8
SUNPOU
100
AcDbDimension
  2
*D29
 10
-1356.067955866681
 20
1735.844892617617
 30
0.0
 11
-1348.161864496123
 21
1738.594892617617
 31
0.0
 70
    32
  3
標準スタイル
100
AcDbAlignedDimension
 13
-1359.067955866681
 23
1688.650062116373
 33
0.0
 14
-1356.067955866681
 24
1724.442932116373
 34
0.0
100
AcDbRotatedDimension
1001
ACAD
1000
DSTYLE
1002
{
1070
    40
1040
1.0
1002
}
  0
DIMENSION
  5
10D3B
330
1A
100
AcDbEntity
  8
SUNPOU
100
AcDbDimension
  2
*D30
 10
-1346.255773125565
 20
1678.400072116373
 30
0.0
 11
-1349.005773125565
 21
1668.219869070687
 31
0.0
 70
    32
  3
標準スタイル
100
AcDbAlignedDimension
 13
-1356.067955866681
 23
1681.900032116373
 33
0.0
 14
-1356.067955866681
 24
1678.400072116373
 34
0.0
 50
90.0
100
AcDbRotatedDimension
1001
ACAD
1000
DSTYLE
1002
{
1070
    40
1040
1.0
1002
}
  0
DIMENSION
  5
10D53
330
1A
100
AcDbEntity
  8
SUNPOU
100
AcDbDimension
  2
*D31
 10
-1356.068045866681
 20
1620.990387150315
 30
0.0
 11
-1359.067955866681
 21
1620.990387150315
 31
0.0
 70
   160
  1
 
  3
標準スタイル
100
AcDbAlignedDimension
 13
-1456.068037866681
 23
1533.668983116373
 33
0.0
 14
-1356.068045866681
 24
1533.668983116373
 34
0.0
100
AcDbRotatedDimension
1001
ACAD
1000
DSTYLE
1002
{
1070
   282
1070
     1
1070
   281
1070
     1
1070
    40
1040
1.0
1002
}
  0
DIMENSION
  5
10D6A
330
1A
100
AcDbEntity
  8
SUNPOU
100
AcDbDimension
  2
*D32
 10
-1356.067955866681
 20
1620.990387150315
 30
0.0
 11
-1406.06795436668
 21
1620.990387150315
 31
0.0
 70
   160
  3
標準スタイル
100
AcDbAlignedDimension
 13
-1456.067952866679
 23
1635.857172116373
 33
0.0
 14
-1356.067955866681
 24
1635.857172116373
 34
0.0
100
AcDbRotatedDimension
1001
ACAD
1000
DSTYLE
1002
{
1070
    40
1040
1.0
1002
}
  0
DIMENSION
  5
10DDC
330
1A
100
AcDbEntity
  8
SUNPOU
100
AcDbDimension
  2
*D33
 10
-1465.880135607798
 20
1524.068986116373
 30
0.0
 11
-1468.630135607797
 21
1536.368984116372
 31
0.0
 70
    32
  3
標準スタイル
100
AcDbAlignedDimension
 13
-1446.310155866679
 23
1548.668982116373
 33
0.0
 14
-1456.068037866681
 24
1524.068986116373
 34
0.0
 50
90.0
100
AcDbRotatedDimension
1001
ACAD
1000
DSTYLE
1002
{
1070
    40
1040
1.0
1002
}
  0
DIMENSION
  5
10E04
330
1A
100
AcDbEntity
  8
SUNPOU
100
AcDbDimension
  2
*D34
 10
-1346.255773125565
 20
1524.068986116373
 30
0.0
 11
-1349.005773125565
 21
1516.162894745813
 31
0.0
 70
    32
  3
標準スタイル
100
AcDbAlignedDimension
 13
-1356.068045866681
 23
1527.068984116373
 33
0.0
 14
-1355.568045866681
 24
1524.068986116373
 34
0.0
 50
90.0
100
AcDbRotatedDimension
1001
ACAD
1000
DSTYLE
1002
{
1070
    40
1040
1.0
1002
}
  0
VIEWPORT
  5
5D8F
330
5D8E
100
AcDbEntity
 67
     1
  8
0
100
AcDbViewport
 10
282.6294676085613
 20
440.513177552838
 30
0.0
 40
763.4235268714451
 41
871.0337580527925
 68
     1
 69
     1
1001
ACAD
1000
MVIEW
1002
{
1070
    16
1010
0.0
1020
0.0
1030
0.0
1010
0.0
1020
0.0
1030
1.0
1040
0.0
1040
871.0337580527925
1040
282.6294676085613
1040
440.513177552838
1040
50.0
1040
0.0
1040
0.0
1070
     0
1070
   100
1070
     1
1070
     0
1070
     0
1070
     0
1070
     0
1070
     0
1040
0.0
1040
0.0
1040
0.0
1040
1.0
1040
1.0
1040
10.0
1040
10.0
1070
     0
1002
{
1002
}
1002
}
  0
VIEWPORT
  5
6001
330
5D8E
100
AcDbEntity
 67
     1
  8
ZISSEN1
100
AcDbViewport
 10
221.786195552541
 20
157.6960273330388
 30
0.0
 40
385.4999999999997
 41
259.9999999999999
 68
     2
 69
     2
1001
ACAD
1000
MVIEW
1002
{
1070
    16
1010
0.0
1020
0.0
1030
0.0
1010
0.0
1020
0.0
1030
1.0
1040
0.0
1040
259.9999999999999
1040
-1352.862720497974
1040
1631.982763229336
1040
50.0
1040
0.0
1040
0.0
1070
     0
1070
   100
1070
     1
1070
     0
1070
     0
1070
     0
1070
     0
1070
     0
1040
0.0
1040
0.0
1040
0.0
1040
1.0
1040
1.0
1040
10.0
1040
10.0
1070
     0
1002
{
1002
}
1002
}
  0
TEXT
  5
716F
330
5D8E
100
AcDbEntity
 67
     1
  8
SUNPOU
 62
     0
100
AcDbText
 10
374.1863124306942
 20
60.86794705907585
 30
0.0
 40
3.5
  1
縮尺 1/1
  7
ゴシック体
100
AcDbText
  0
ENDSEC
  0
SECTION
  2
OBJECTS
  0
DICTIONARY
  5
C
330
0
100
AcDbDictionary
  3
ACAD_GROUP
350
D
  3
ACAD_LAYOUT
350
5C7D
  3
ACAD_MLINESTYLE
350
E
  3
ACAD_PLOTSETTINGS
350
5C7E
  3
ACAD_PLOTSTYLENAME
350
5C7B
  3
DWGPROPS
350
5E8E
  3
ACDBVARIABLEDICTIONARY
350
10E5F
  3
ACDBHEADERROUNDTRIPXREC
350
10E6A
  0
DICTIONARY
  5
10E8A
330
1A
100
AcDbDictionary
280
     1
  3
ACAD_LAYOUTSELFREF
360
10E8B
  0
DICTIONARY
  5
10E8C
330
5D8E
100
AcDbDictionary
280
     1
  3
ACAD_LAYOUTSELFREF
360
10E8D
  0
DICTIONARY
  5
D
102
{ACAD_REACTORS
330
C
102
}
330
C
100
AcDbDictionary
  3
*A1
350
477D
  3
*A2
350
4C0E
  3
*A3
350
4C0F
  3
*A4
350
4C10
  3
*A5
350
4C11
  3
*A6
350
4C12
  3
*A7
350
4C13
  3
*A8
350
4C14
  3
*A9
350
4C15
  3
*A10
350
4C16
  3
*A11
350
4C17
  3
*A12
350
477E
  3
*A13
350
477F
  3
*A14
350
4780
  3
*A15
350
4781
  0
DICTIONARY
  5
5C7D
102
{ACAD_REACTORS
330
C
102
}
330
C
100
AcDbDictionary
  0
DICTIONARY
  5
E
102
{ACAD_REACTORS
330
C
102
}
330
C
100
AcDbDictionary
  3
STANDARD
350
13
  0
DICTIONARY
  5
5C7E
102
{ACAD_REACTORS
330
C
102
}
330
C
100
AcDbDictionary
  0
ACDBDICTIONARYWDFLT
  5
5C7B
102
{ACAD_REACTORS
330
C
102
}
330
C
100
AcDbDictionary
281
     1
  3
Normal
350
5C7C
100
AcDbDictionaryWithDefault
340
5C7C
  0
XRECORD
  5
5E8E
102
{ACAD_REACTORS
330
C
102
}
330
C
100
AcDbXrecord
  1
DWGPROPS COOKIE
  2

  3

  4

  6

  7

  8

  9

300
=
301
=
302
=
303
=
304
=
305
=
306
=
307
=
308
=
309
=
 40
0.586753587962963
 41
2450495.493631364
 42
2453208.662277431
  1

 90
        0
  0
DICTIONARY
  5
10E5F
102
{ACAD_REACTORS
330
C
102
}
330
C
100
AcDbDictionary
  3
INDEXCTL
350
10E60
  0
DICTIONARY
  5
10E6A
102
{ACAD_REACTORS
330
C
102
}
330
C
100
AcDbDictionary
  3
TSTACKALIGN
350
10E6B
  3
TSTACKSIZE
350
10E6C
  3
HYPERLINKBASE
350
10E6D
  3
STYLESHEET
350
10E6E
  3
LAYOUTDICT
350
10E6F
  3
PLOTSETDICT
350
10E70
  3
PLOTSTYLNAMDICT
350
10E71
  3
LWETCUNION
350
10E72
  3
INSUNITS
350
10E73
  3
CEPSNTYPE
350
10E74
  3
FINGERPRINTGUID
350
10E75
  3
VERSIONGUID
350
10E76
  3
PSVPSCALE
350
10E77
  3
PUCSORTHOREF
350
10E78
  3
PUCSORTHOVIEW
350
10E79
  3
PUCSBASE
350
10E7A
  3
PUCSORGTOP
350
10E7B
  3
PUCSORGBOTTOM
350
10E7C
  3
PUCSORGLEFT
350
10E7D
  3
PUCSORGRIGHT
350
10E7E
  3
PUCSORGFRONT
350
10E7F
  3
PUCSORGBACK
350
10E80
  3
UCSORTHOREF
350
10E81
  3
UCSORTHOVIEW
350
10E82
  3
UCSBASE
350
10E83
  3
UCSORGTOP
350
10E84
  3
UCSORGBOTTOM
350
10E85
  3
UCSORGLEFT
350
10E86
  3
UCSORGRIGHT
350
10E87
  3
UCSORGFRONT
350
10E88
  3
UCSORGBACK
350
10E89
  0
XRECORD
  5
10E8B
102
{ACAD_REACTORS
330
10E8A
102
}
330
10E8A
100
AcDbXrecord
340
1A
  0
XRECORD
  5
10E8D
102
{ACAD_REACTORS
330
10E8C
102
}
330
10E8C
100
AcDbXrecord
340
5D8E
  0
GROUP
  5
477D
102
{ACAD_REACTORS
330
D
102
}
330
D
100
AcDbGroup
300

 70
     1
 71
     1
  0
GROUP
  5
4C0E
102
{ACAD_REACTORS
330
D
102
}
330
D
100
AcDbGroup
300

 70
     1
 71
     1
  0
GROUP
  5
4C0F
102
{ACAD_REACTORS
330
D
102
}
330
D
100
AcDbGroup
300

 70
     1
 71
     1
  0
GROUP
  5
4C10
102
{ACAD_REACTORS
330
D
102
}
330
D
100
AcDbGroup
300

 70
     1
 71
     1
  0
GROUP
  5
4C11
102
{ACAD_REACTORS
330
D
102
}
330
D
100
AcDbGroup
300

 70
     1
 71
     1
  0
GROUP
  5
4C12
102
{ACAD_REACTORS
330
D
102
}
330
D
100
AcDbGroup
300

 70
     1
 71
     1
  0
GROUP
  5
4C13
102
{ACAD_REACTORS
330
D
102
}
330
D
100
AcDbGroup
300

 70
     1
 71
     1
  0
GROUP
  5
4C14
102
{ACAD_REACTORS
330
D
102
}
330
D
100
AcDbGroup
300

 70
     1
 71
     1
  0
GROUP
  5
4C15
102
{ACAD_REACTORS
330
D
102
}
330
D
100
AcDbGroup
300

 70
     1
 71
     1
  0
GROUP
  5
4C16
102
{ACAD_REACTORS
330
D
102
}
330
D
100
AcDbGroup
300

 70
     1
 71
     1
  0
GROUP
  5
4C17
102
{ACAD_REACTORS
330
D
102
}
330
D
100
AcDbGroup
300

 70
     1
 71
     1
  0
GROUP
  5
477E
102
{ACAD_REACTORS
330
D
102
}
330
D
100
AcDbGroup
300

 70
     1
 71
     1
  0
GROUP
  5
477F
102
{ACAD_REACTORS
330
D
102
}
330
D
100
AcDbGroup
300

 70
     1
 71
     1
  0
GROUP
  5
4780
102
{ACAD_REACTORS
330
D
102
}
330
D
100
AcDbGroup
300

 70
     1
 71
     1
  0
GROUP
  5
4781
102
{ACAD_REACTORS
330
D
102
}
330
D
100
AcDbGroup
300

 70
     1
 71
     1
  0
MLINESTYLE
  5
13
102
{ACAD_REACTORS
330
E
102
}
330
E
100
AcDbMlineStyle
  2
STANDARD
 70
     0
  3

 62
     0
 51
90.0
 52
90.0
 71
     2
 49
0.5
 62
   256
  6
BYLAYER
 49
-0.5
 62
   256
  6
BYLAYER
  0
ACDBPLACEHOLDER
  5
5C7C
102
{ACAD_REACTORS
330
5C7B
102
}
330
5C7B
100
AcDbPlaceHolder
280
     0
  0
DICTIONARYVAR
  5
10E60
102
{ACAD_REACTORS
330
10E5F
102
}
330
10E5F
100
DictionaryVariables
280
     0
  1
-1
  0
XRECORD
  5
10E6B
102
{ACAD_REACTORS
330
10E6A
102
}
330
10E6A
100
AcDbXrecord
 90
        1
  0
XRECORD
  5
10E6C
102
{ACAD_REACTORS
330
10E6A
102
}
330
10E6A
100
AcDbXrecord
 90
       70
  0
XRECORD
  5
10E6D
102
{ACAD_REACTORS
330
10E6A
102
}
330
10E6A
100
AcDbXrecord
  1

  0
XRECORD
  5
10E6E
102
{ACAD_REACTORS
330
10E6A
102
}
330
10E6A
100
AcDbXrecord
  1

  0
XRECORD
  5
10E6F
102
{ACAD_REACTORS
330
10E6A
102
}
330
10E6A
100
AcDbXrecord
340
5C7D
  0
XRECORD
  5
10E70
102
{ACAD_REACTORS
330
10E6A
102
}
330
10E6A
100
AcDbXrecord
340
5C7E
  0
XRECORD
  5
10E71
102
{ACAD_REACTORS
330
10E6A
102
}
330
10E6A
100
AcDbXrecord
340
5C7B
  0
XRECORD
  5
10E72
102
{ACAD_REACTORS
330
10E6A
102
}
330
10E6A
100
AcDbXrecord
 90
    10781
  0
XRECORD
  5
10E73
102
{ACAD_REACTORS
330
10E6A
102
}
330
10E6A
100
AcDbXrecord
 90
        0
  0
XRECORD
  5
10E74
102
{ACAD_REACTORS
330
10E6A
102
}
330
10E6A
100
AcDbXrecord
 90
        0
  0
XRECORD
  5
10E75
102
{ACAD_REACTORS
330
10E6A
102
}
330
10E6A
100
AcDbXrecord
  1
{225A7F0D-DA29-11D8-946A-0000E2416295}
  0
XRECORD
  5
10E76
102
{ACAD_REACTORS
330
10E6A
102
}
330
10E6A
100
AcDbXrecord
  1
{A56FEB20-A21D-40F4-9CEC-F22DB0C7AD75}
  0
XRECORD
  5
10E77
102
{ACAD_REACTORS
330
10E6A
102
}
330
10E6A
100
AcDbXrecord
 40
0.0
  0
XRECORD
  5
10E78
102
{ACAD_REACTORS
330
10E6A
102
}
330
10E6A
100
AcDbXrecord
340
0
  0
XRECORD
  5
10E79
102
{ACAD_REACTORS
330
10E6A
102
}
330
10E6A
100
AcDbXrecord
 70
     0
  0
XRECORD
  5
10E7A
102
{ACAD_REACTORS
330
10E6A
102
}
330
10E6A
100
AcDbXrecord
340
0
  0
XRECORD
  5
10E7B
102
{ACAD_REACTORS
330
10E6A
102
}
330
10E6A
100
AcDbXrecord
 10
0.0
 20
0.0
 30
0.0
  0
XRECORD
  5
10E7C
102
{ACAD_REACTORS
330
10E6A
102
}
330
10E6A
100
AcDbXrecord
 10
0.0
 20
0.0
 30
0.0
  0
XRECORD
  5
10E7D
102
{ACAD_REACTORS
330
10E6A
102
}
330
10E6A
100
AcDbXrecord
 10
0.0
 20
0.0
 30
0.0
  0
XRECORD
  5
10E7E
102
{ACAD_REACTORS
330
10E6A
102
}
330
10E6A
100
AcDbXrecord
 10
0.0
 20
0.0
 30
0.0
  0
XRECORD
  5
10E7F
102
{ACAD_REACTORS
330
10E6A
102
}
330
10E6A
100
AcDbXrecord
 10
0.0
 20
0.0
 30
0.0
  0
XRECORD
  5
10E80
102
{ACAD_REACTORS
330
10E6A
102
}
330
10E6A
100
AcDbXrecord
 10
0.0
 20
0.0
 30
0.0
  0
XRECORD
  5
10E81
102
{ACAD_REACTORS
330
10E6A
102
}
330
10E6A
100
AcDbXrecord
340
0
  0
XRECORD
  5
10E82
102
{ACAD_REACTORS
330
10E6A
102
}
330
10E6A
100
AcDbXrecord
 70
     0
  0
XRECORD
  5
10E83
102
{ACAD_REACTORS
330
10E6A
102
}
330
10E6A
100
AcDbXrecord
340
0
  0
XRECORD
  5
10E84
102
{ACAD_REACTORS
330
10E6A
102
}
330
10E6A
100
AcDbXrecord
 10
0.0
 20
0.0
 30
0.0
  0
XRECORD
  5
10E85
102
{ACAD_REACTORS
330
10E6A
102
}
330
10E6A
100
AcDbXrecord
 10
0.0
 20
0.0
 30
0.0
  0
XRECORD
  5
10E86
102
{ACAD_REACTORS
330
10E6A
102
}
330
10E6A
100
AcDbXrecord
 10
0.0
 20
0.0
 30
0.0
  0
XRECORD
  5
10E87
102
{ACAD_REACTORS
330
10E6A
102
}
330
10E6A
100
AcDbXrecord
 10
0.0
 20
0.0
 30
0.0
  0
XRECORD
  5
10E88
102
{ACAD_REACTORS
330
10E6A
102
}
330
10E6A
100
AcDbXrecord
 10
0.0
 20
0.0
 30
0.0
  0
XRECORD
  5
10E89
102
{ACAD_REACTORS
330
10E6A
102
}
330
10E6A
100
AcDbXrecord
 10
0.0
 20
0.0
 30
0.0
  0
ENDSEC
  0
EOF
